0
SECTION
2
HEADER
9
$ACADVER
1
AC1015
9
$DWGCODEPAGE
3
ANSI_1252
9
$HANDSEED
5
255
9
$ANGBASE
50
0
9
$ANGDIR
70
0
9
$ATTMODE
70
1
9
$AUNITS
70
0
9
$AUPREC
70
0
9
$CECOLOR
62
256
9
$CELTSCALE
40
1
9
$CELTYPE
6
ByLayer
9
$CELWEIGHT
370
18
9
$CLAYER
8
0
9
$CMLJUST
70
0
9
$CMLSCALE
40
1
9
$CMLSTYLE
2
Standard
9
$DIMSTYLE
2
Standard
9
$TEXTSIZE
40
0.2
9
$TEXTSTYLE
7
Standard
9
$LUNITS
70
2
9
$LUPREC
70
4
9
$EXTNAMES
290
1
9
$INSUNITS
70
4
9
$LTSCALE
40
1
9
$LWDISPLAY
290
1
9
$PDMODE
70
0
9
$PDSIZE
40
0
9
$PLINEGEN
70
0
0
ENDSEC
0
SECTION
2
CLASSES
0
CLASS
1
RASTERVARIABLES
2
AcDbRasterVariables
3
ISM
90
0
280
0
281
0
0
ENDSEC
0
SECTION
2
TABLES
0
TABLE
2
VPORT
5
24b
100
AcDbSymbolTable
0
VPORT
5
1
100
AcDbSymbolTableRecord
100
AcDbViewportTableRecord
2
*Active
70
0
10
0
20
0
11
1
21
1
12
-1
22
1
13
0
23
0
14
0.5
24
0.5
15
10
25
10
16
0
26
0
36
1
17
0
27
0
37
0
0
ENDTAB
0
TABLE
2
LTYPE
5
24c
100
AcDbSymbolTable
0
LTYPE
5
14
100
AcDbSymbolTableRecord
100
AcDbLinetypeTableRecord
70
0
2
ByBlock
3

72
65
73
0
40
0
0
LTYPE
5
15
100
AcDbSymbolTableRecord
100
AcDbLinetypeTableRecord
70
0
2
ByLayer
3

72
65
73
0
40
0
0
LTYPE
5
16
100
AcDbSymbolTableRecord
100
AcDbLinetypeTableRecord
70
0
2
Continuous
3
Solid line
72
65
73
0
40
0
0
LTYPE
5
6E
100
AcDbSymbolTableRecord
100
AcDbLinetypeTableRecord
70
0
2
CENTER
3
____ _ ____ _ ____ _ ____
72
65
73
4
40
47.5
49
22
74
0
49
-8.5
74
0
49
8.5
74
0
49
-8.5
74
0
0
LTYPE
5
6F
100
AcDbSymbolTableRecord
100
AcDbLinetypeTableRecord
70
0
2
DASHED
3
__ __ __ __ __ __ __ __ __
72
65
73
2
40
25.72
49
12.86
74
0
49
-12.86
74
0
0
ENDTAB
0
TABLE
2
LAYER
5
24d
100
AcDbSymbolTable
0
LAYER
5
10
100
AcDbSymbolTableRecord
100
AcDbLayerTableRecord
2
0
70
0
62
7
6
Continuous
290
1
370
-3
390
0
0
LAYER
5
71
100
AcDbSymbolTableRecord
100
AcDbLayerTableRecord
2
80
70
0
62
-6
6
Continuous
290
1
370
-3
390
0
0
LAYER
5
73
100
AcDbSymbolTableRecord
100
AcDbLayerTableRecord
2
81
70
0
62
-3
6
Continuous
290
1
370
-3
390
0
0
LAYER
5
75
100
AcDbSymbolTableRecord
100
AcDbLayerTableRecord
2
1
70
0
62
4
6
Continuous
290
1
370
-3
390
0
0
LAYER
5
A5
100
AcDbSymbolTableRecord
100
AcDbLayerTableRecord
2
4
70
0
62
-2
6
CENTER
290
1
370
-3
390
0
0
LAYER
5
10F
100
AcDbSymbolTableRecord
100
AcDbLayerTableRecord
2
Defpoints
70
0
62
7
6
Continuous
290
0
370
-3
390
0
0
LAYER
5
13C
100
AcDbSymbolTableRecord
100
AcDbLayerTableRecord
2
2
70
0
62
7
6
Continuous
290
1
370
-3
390
0
0
LAYER
5
237
100
AcDbSymbolTableRecord
100
AcDbLayerTableRecord
2
SK1
70
0
62
4
6
Continuous
290
1
370
-3
390
0
0
LAYER
5
238
100
AcDbSymbolTableRecord
100
AcDbLayerTableRecord
2
SK4
70
0
62
2
6
CENTER
290
1
370
-3
390
0
0
LAYER
5
239
100
AcDbSymbolTableRecord
100
AcDbLayerTableRecord
2
SK2
70
0
62
7
6
Continuous
290
1
370
-3
390
0
0
LAYER
5
23a
100
AcDbSymbolTableRecord
100
AcDbLayerTableRecord
2
SK6
70
0
62
5
6
Continuous
290
1
370
-3
390
0
0
ENDTAB
0
TABLE
2
STYLE
5
24e
100
AcDbSymbolTable
0
STYLE
5
11
100
AcDbSymbolTableRecord
100
AcDbTextStyleTableRecord
2
Standard
3
txt
70
0
71
0
40
0
41
1
42
0
50
0
0
STYLE
5
100
100
AcDbSymbolTableRecord
100
AcDbTextStyleTableRecord
2
iso_b_vert
3
simplex.shx
70
0
71
0
40
0
41
1
42
0
50
0
0
STYLE
5
101
100
AcDbSymbolTableRecord
100
AcDbTextStyleTableRecord
2
DWGDirectTextStyle
3
simplex
70
0
71
0
40
0
41
1
42
0
50
0
0
ENDTAB
0
TABLE
2
DIMSTYLE
5
24f
100
AcDbSymbolTable
100
AcDbDimStyleTable
0
DIMSTYLE
105
27
100
AcDbSymbolTableRecord
100
AcDbDimStyleTableRecord
2
Standard
70
0
3
<>
41
0.18
42
0.0625
44
0.18
140
0.18
147
0.09
73
0
74
0
77
1
271
2
275
0
278
52
280
0
340
11
0
ENDTAB
0
TABLE
2
VIEW
5
250
100
AcDbSymbolTable
0
ENDTAB
0
TABLE
2
UCS
5
251
100
AcDbSymbolTable
0
ENDTAB
0
TABLE
2
APPID
5
252
100
AcDbSymbolTable
0
APPID
5
12
100
AcDbSymbolTableRecord
100
AcDbRegAppTableRecord
2
ACAD
70
0
0
APPID
5
104
100
AcDbSymbolTableRecord
100
AcDbRegAppTableRecord
2
ACAD_DSTYLE_DIMBREAK
70
0
0
APPID
5
1F6
100
AcDbSymbolTableRecord
100
AcDbRegAppTableRecord
2
ACAD_DSTYLE_DIM_LINETYPE
70
0
0
APPID
5
1F7
100
AcDbSymbolTableRecord
100
AcDbRegAppTableRecord
2
ACAD_DSTYLE_DIM_EXT1_LINETYPE
70
0
0
APPID
5
1F8
100
AcDbSymbolTableRecord
100
AcDbRegAppTableRecord
2
ACAD_DSTYLE_DIM_EXT2_LINETYPE
70
0
0
APPID
5
233
100
AcDbSymbolTableRecord
100
AcDbRegAppTableRecord
2
ACAD_MLEADERVER
70
0
0
ENDTAB
0
TABLE
2
BLOCK_RECORD
5
253
100
AcDbSymbolTable
0
BLOCK_RECORD
5
1F
100
AcDbSymbolTableRecord
100
AcDbBlockTableRecord
2
*Model_Space
340
0
70
0
0
BLOCK_RECORD
5
1B
100
AcDbSymbolTableRecord
100
AcDbBlockTableRecord
2
*Paper_Space
340
0
70
0
0
BLOCK_RECORD
5
23
100
AcDbSymbolTableRecord
100
AcDbBlockTableRecord
2
*Paper_Space0
340
0
70
0
0
BLOCK_RECORD
5
106
100
AcDbSymbolTableRecord
100
AcDbBlockTableRecord
2
_Closed
340
0
70
0
0
BLOCK_RECORD
5
110
100
AcDbSymbolTableRecord
100
AcDbBlockTableRecord
2
*D2
340
0
70
0
0
BLOCK_RECORD
5
11C
100
AcDbSymbolTableRecord
100
AcDbBlockTableRecord
2
_U0
340
0
70
0
0
BLOCK_RECORD
5
12E
100
AcDbSymbolTableRecord
100
AcDbBlockTableRecord
2
*D4
340
0
70
0
0
BLOCK_RECORD
5
13D
100
AcDbSymbolTableRecord
100
AcDbBlockTableRecord
2
_U1
340
0
70
0
0
BLOCK_RECORD
5
14D
100
AcDbSymbolTableRecord
100
AcDbBlockTableRecord
2
*D6
340
0
70
0
0
BLOCK_RECORD
5
15B
100
AcDbSymbolTableRecord
100
AcDbBlockTableRecord
2
_U2
340
0
70
0
0
BLOCK_RECORD
5
16B
100
AcDbSymbolTableRecord
100
AcDbBlockTableRecord
2
*D8
340
0
70
0
0
BLOCK_RECORD
5
177
100
AcDbSymbolTableRecord
100
AcDbBlockTableRecord
2
_U3
340
0
70
0
0
BLOCK_RECORD
5
187
100
AcDbSymbolTableRecord
100
AcDbBlockTableRecord
2
*D10
340
0
70
0
0
BLOCK_RECORD
5
193
100
AcDbSymbolTableRecord
100
AcDbBlockTableRecord
2
_U4
340
0
70
0
0
BLOCK_RECORD
5
1A3
100
AcDbSymbolTableRecord
100
AcDbBlockTableRecord
2
*D12
340
0
70
0
0
BLOCK_RECORD
5
1AF
100
AcDbSymbolTableRecord
100
AcDbBlockTableRecord
2
_U5
340
0
70
0
0
BLOCK_RECORD
5
1BF
100
AcDbSymbolTableRecord
100
AcDbBlockTableRecord
2
*D14
340
0
70
0
0
BLOCK_RECORD
5
1CB
100
AcDbSymbolTableRecord
100
AcDbBlockTableRecord
2
_U6
340
0
70
0
0
ENDTAB
0
ENDSEC
0
SECTION
2
BLOCKS
0
BLOCK
5
20
100
AcDbEntity
8
0
100
AcDbBlockBegin
2
*Model_Space
70
0
10
0
20
0
30
0
3
*Model_Space
0
ENDBLK
5
21
100
AcDbEntity
8
0
100
AcDbBlockEnd
0
BLOCK
5
1C
100
AcDbEntity
8
0
100
AcDbBlockBegin
2
*Paper_Space
70
0
10
0
20
0
30
0
3
*Paper_Space
0
ENDBLK
5
1D
100
AcDbEntity
8
0
100
AcDbBlockEnd
0
BLOCK
5
24
100
AcDbEntity
8
0
100
AcDbBlockBegin
2
*Paper_Space0
70
0
10
0
20
0
30
0
3
*Paper_Space0
0
ENDBLK
5
25
100
AcDbEntity
8
0
100
AcDbBlockEnd
0
BLOCK
5
107
100
AcDbEntity
8
0
100
AcDbBlockBegin
2
_Closed
70
0
10
0
20
0
30
0
3
_Closed
0
LINE
5
109
100
AcDbEntity
8
0
62
256
6
ByLayer
370
-2
48
1
60
0
100
AcDbLine
10
-1
20
0.166667
30
0
11
0
21
0
31
0
39
0
210
0
220
0
230
1
0
LINE
5
10A
100
AcDbEntity
8
0
62
256
6
ByLayer
370
-2
48
1
60
0
100
AcDbLine
10
0
20
0
30
0
11
-1
21
-0.166667
31
0
39
0
210
0
220
0
230
1
0
LINE
5
10B
100
AcDbEntity
8
0
62
256
6
ByLayer
370
-2
48
1
60
0
100
AcDbLine
10
-1
20
0.166667
30
0
11
-1
21
-0.166667
31
0
39
0
210
0
220
0
230
1
0
LINE
5
10C
100
AcDbEntity
8
0
62
256
6
ByLayer
370
-2
48
1
60
0
100
AcDbLine
10
0
20
0
30
0
11
-1
21
0
31
0
39
0
210
0
220
0
230
1
0
ENDBLK
5
108
100
AcDbEntity
8
0
100
AcDbBlockEnd
0
BLOCK
5
111
100
AcDbEntity
8
0
100
AcDbBlockBegin
2
*D2
70
1
10
0
20
0
30
0
3
*D2
0
LINE
5
113
100
AcDbEntity
8
0
62
256
6
ByLayer
370
-2
48
1
60
0
100
AcDbLine
10
0
20
-5.5875
30
0
11
0
21
-30.67512
31
0
39
0
210
0
220
0
230
1
0
LINE
5
114
100
AcDbEntity
8
0
62
256
6
ByLayer
370
-2
48
1
60
0
100
AcDbLine
10
43
20
-1.5875
30
0
11
43
21
-30.67512
31
0
39
0
210
0
220
0
230
1
0
LINE
5
115
100
AcDbEntity
8
0
62
256
6
ByLayer
370
-2
48
1
60
0
100
AcDbLine
10
3.175
20
-27.50012
30
0
11
39.825
21
-27.50012
31
0
39
0
210
0
220
0
230
1
0
SOLID
5
116
100
AcDbEntity
8
0
62
256
6
ByLayer
370
-1
48
1
60
0
100
AcDbTrace
10
3.175
20
-26.970953
30
0
11
3.175
21
-28.029287
31
0
12
0
22
-27.50012
32
0
13
0
23
-27.50012
33
0
39
0
210
0
220
0
230
1
0
SOLID
5
117
100
AcDbEntity
8
0
62
256
6
ByLayer
370
-1
48
1
60
0
100
AcDbTrace
10
39.825
20
-28.029287
30
0
11
39.825
21
-26.970953
31
0
12
43
22
-27.50012
32
0
13
43
23
-27.50012
33
0
39
0
210
0
220
0
230
1
0
MTEXT
5
118
100
AcDbEntity
8
0
62
256
6
ByLayer
370
18
48
1
60
0
100
AcDbMText
10
21.5
20
-20.193619
30
0
210
0
220
0
230
1
1
\A1;43
40
3.50012
41
0
44
1
50
0
71
5
72
5
7
iso_b_vert
0
POINT
5
119
100
AcDbEntity
8
Defpoints
62
0
6
ByLayer
370
-1
48
1
60
0
100
AcDbPoint
10
0
20
-4
30
0
39
0
210
0
220
0
230
1
50
360
0
POINT
5
11A
100
AcDbEntity
8
Defpoints
62
0
6
ByLayer
370
-1
48
1
60
0
100
AcDbPoint
10
43
20
0
30
0
39
0
210
0
220
0
230
1
50
360
0
POINT
5
11B
100
AcDbEntity
8
Defpoints
62
0
6
ByLayer
370
-1
48
1
60
0
100
AcDbPoint
10
43
20
-27.50012
30
0
39
0
210
0
220
0
230
1
50
360
0
ENDBLK
5
112
100
AcDbEntity
8
0
100
AcDbBlockEnd
0
BLOCK
5
129
100
AcDbEntity
8
0
100
AcDbBlockBegin
2
_U0
70
0
10
0
20
0
30
0
3
_U0
0
MTEXT
5
11D
100
AcDbEntity
8
SK2
62
256
6
ByLayer
370
18
48
1
60
0
100
AcDbMText
10
16.086116
20
-26.467451
30
0
210
0
220
0
230
1
1
\W0.7694;43.00
40
3.50012
41
0
44
1.084337
50
0
71
7
72
5
7
iso_b_vert
0
MTEXT
5
11E
100
AcDbEntity
8
SK2
62
256
6
ByLayer
370
18
48
1
60
0
100
AcDbMText
10
12.560056
20
-26.400814
30
0
210
0
220
0
230
1
1
\W0.1790;(
40
3.175
41
0
44
1.084337
50
0
71
7
72
5
7
iso_b_vert
0
MTEXT
5
11F
100
AcDbEntity
8
SK2
62
256
6
ByLayer
370
18
48
1
60
0
100
AcDbMText
10
30.442666
20
-26.400814
30
0
210
0
220
0
230
1
1
\W0.1969;)
40
3.175
41
0
44
1.084337
50
0
71
7
72
5
7
iso_b_vert
0
LINE
5
120
100
AcDbEntity
8
SK2
62
256
6
ByLayer
370
13
48
1
60
0
100
AcDbLine
10
0
20
-5.5875
30
0
11
0
21
-30.67512
31
0
39
0
210
0
220
0
230
1
0
LINE
5
121
100
AcDbEntity
8
SK2
62
256
6
ByLayer
370
13
48
1
60
0
100
AcDbLine
10
43
20
-1.5875
30
0
11
43
21
-30.67512
31
0
39
0
210
0
220
0
230
1
0
LINE
5
122
100
AcDbEntity
8
SK2
62
256
6
ByLayer
370
13
48
1
60
0
100
AcDbLine
10
0
20
-27.50012
30
0
11
43
21
-27.50012
31
0
39
0
210
0
220
0
230
1
0
LINE
5
123
100
AcDbEntity
8
SK2
62
256
6
ByLayer
370
13
48
1
60
0
100
AcDbLine
10
0
20
-27.50012
30
0
11
3.174998
21
-27.082123
31
0
39
0
210
0
220
0
230
1
0
LINE
5
124
100
AcDbEntity
8
SK2
62
256
6
ByLayer
370
13
48
1
60
0
100
AcDbLine
10
0
20
-27.50012
30
0
11
3.175002
21
-27.918117
31
0
39
0
210
0
220
0
230
1
0
LINE
5
125
100
AcDbEntity
8
SK2
62
256
6
ByLayer
370
13
48
1
60
0
100
AcDbLine
10
3.174998
20
-27.082123
30
0
11
3.175002
21
-27.918117
31
0
39
0
210
0
220
0
230
1
0
LINE
5
126
100
AcDbEntity
8
SK2
62
256
6
ByLayer
370
13
48
1
60
0
100
AcDbLine
10
43
20
-27.50012
30
0
11
39.825002
21
-27.918117
31
0
39
0
210
0
220
0
230
1
0
LINE
5
127
100
AcDbEntity
8
SK2
62
256
6
ByLayer
370
13
48
1
60
0
100
AcDbLine
10
43
20
-27.50012
30
0
11
39.824998
21
-27.082123
31
0
39
0
210
0
220
0
230
1
0
LINE
5
128
100
AcDbEntity
8
SK2
62
256
6
ByLayer
370
13
48
1
60
0
100
AcDbLine
10
39.825002
20
-27.918117
30
0
11
39.824998
21
-27.082123
31
0
39
0
210
0
220
0
230
1
0
ENDBLK
5
12A
100
AcDbEntity
8
0
100
AcDbBlockEnd
0
BLOCK
5
12F
100
AcDbEntity
8
0
100
AcDbBlockBegin
2
*D4
70
1
10
0
20
0
30
0
3
*D4
0
LINE
5
131
100
AcDbEntity
8
0
62
256
6
ByLayer
370
-2
48
1
60
0
100
AcDbLine
10
43.168
20
-3.9
30
0
11
52.92506
21
-3.9
31
0
39
0
210
0
220
0
230
1
0
LINE
5
132
100
AcDbEntity
8
0
62
256
6
ByLayer
370
-2
48
1
60
0
100
AcDbLine
10
43.168
20
3.9
30
0
11
52.92506
21
3.9
31
0
39
0
210
0
220
0
230
1
0
LINE
5
133
100
AcDbEntity
8
0
62
256
6
ByLayer
370
-2
48
1
60
0
100
AcDbLine
10
49.75006
20
3.9
30
0
11
49.75006
21
28.696466
31
0
39
0
210
0
220
0
230
1
0
LINE
5
134
100
AcDbEntity
8
0
62
256
6
ByLayer
370
-2
48
1
60
0
100
AcDbLine
10
49.75006
20
-7.075
30
0
11
49.75006
21
-10.25
31
0
39
0
210
0
220
0
230
1
0
LINE
5
135
100
AcDbEntity
8
0
62
256
6
ByLayer
370
-2
48
1
60
0
100
AcDbLine
10
49.75006
20
7.075
30
0
11
49.75006
21
10.25
31
0
39
0
210
0
220
0
230
1
0
SOLID
5
136
100
AcDbEntity
8
0
62
256
6
ByLayer
370
-1
48
1
60
0
100
AcDbTrace
10
50.279227
20
-7.075
30
0
11
49.220893
21
-7.075
31
0
12
49.75006
22
-3.9
32
0
13
49.75006
23
-3.9
33
0
39
0
210
0
220
0
230
1
0
SOLID
5
137
100
AcDbEntity
8
0
62
256
6
ByLayer
370
-1
48
1
60
0
100
AcDbTrace
10
49.220893
20
7.075
30
0
11
50.279227
21
7.075
31
0
12
49.75006
22
3.9
32
0
13
49.75006
23
3.9
33
0
39
0
210
0
220
0
230
1
0
MTEXT
5
138
100
AcDbEntity
8
0
62
256
6
ByLayer
370
18
48
1
60
0
100
AcDbMText
10
42.443559
20
19.473233
30
0
210
0
220
0
230
1
1
\A1;7.8
40
3.50012
41
0
44
1
50
90
71
5
72
5
7
iso_b_vert
0
POINT
5
139
100
AcDbEntity
8
Defpoints
62
0
6
ByLayer
370
-1
48
1
60
0
100
AcDbPoint
10
41.5805
20
-3.9
30
0
39
0
210
0
220
0
230
1
50
360
0
POINT
5
13A
100
AcDbEntity
8
Defpoints
62
0
6
ByLayer
370
-1
48
1
60
0
100
AcDbPoint
10
41.5805
20
3.9
30
0
39
0
210
0
220
0
230
1
50
360
0
POINT
5
13B
100
AcDbEntity
8
Defpoints
62
0
6
ByLayer
370
-1
48
1
60
0
100
AcDbPoint
10
49.75006
20
3.9
30
0
39
0
210
0
220
0
230
1
50
360
0
ENDBLK
5
130
100
AcDbEntity
8
0
100
AcDbBlockEnd
0
BLOCK
5
148
100
AcDbEntity
8
0
100
AcDbBlockBegin
2
_U1
70
0
10
0
20
0
30
0
3
_U1
0
MTEXT
5
13E
100
AcDbEntity
8
2
62
256
6
ByLayer
370
18
48
1
60
0
100
AcDbMText
10
49.060403
20
8.057505
30
0
210
0
220
0
230
1
1
\W0.7346;7.80
40
3.50012
41
0
44
1.084337
50
90
71
7
72
5
7
iso_b_vert
0
LINE
5
13F
100
AcDbEntity
8
2
62
256
6
ByLayer
370
13
48
1
60
0
100
AcDbLine
10
43.168
20
-3.9
30
0
11
52.92506
21
-3.9
31
0
39
0
210
0
220
0
230
1
0
LINE
5
140
100
AcDbEntity
8
2
62
256
6
ByLayer
370
13
48
1
60
0
100
AcDbLine
10
43.168
20
3.9
30
0
11
52.92506
21
3.9
31
0
39
0
210
0
220
0
230
1
0
LINE
5
141
100
AcDbEntity
8
2
62
256
6
ByLayer
370
13
48
1
60
0
100
AcDbLine
10
49.75006
20
-3.9
30
0
11
49.75006
21
16.11468
31
0
39
0
210
0
220
0
230
1
0
LINE
5
142
100
AcDbEntity
8
2
62
256
6
ByLayer
370
13
48
1
60
0
100
AcDbLine
10
49.75006
20
-3.9
30
0
11
49.332063
21
-0.725002
31
0
39
0
210
0
220
0
230
1
0
LINE
5
143
100
AcDbEntity
8
2
62
256
6
ByLayer
370
13
48
1
60
0
100
AcDbLine
10
49.75006
20
-3.9
30
0
11
50.168057
21
-0.724998
31
0
39
0
210
0
220
0
230
1
0
LINE
5
144
100
AcDbEntity
8
2
62
256
6
ByLayer
370
13
48
1
60
0
100
AcDbLine
10
49.332063
20
-0.725002
30
0
11
50.168057
21
-0.724998
31
0
39
0
210
0
220
0
230
1
0
LINE
5
145
100
AcDbEntity
8
2
62
256
6
ByLayer
370
13
48
1
60
0
100
AcDbLine
10
49.75006
20
3.9
30
0
11
50.168057
21
0.725002
31
0
39
0
210
0
220
0
230
1
0
LINE
5
146
100
AcDbEntity
8
2
62
256
6
ByLayer
370
13
48
1
60
0
100
AcDbLine
10
49.75006
20
3.9
30
0
11
49.332063
21
0.724998
31
0
39
0
210
0
220
0
230
1
0
LINE
5
147
100
AcDbEntity
8
2
62
256
6
ByLayer
370
13
48
1
60
0
100
AcDbLine
10
50.168057
20
0.725002
30
0
11
49.332063
21
0.724998
31
0
39
0
210
0
220
0
230
1
0
ENDBLK
5
149
100
AcDbEntity
8
0
100
AcDbBlockEnd
0
BLOCK
5
14E
100
AcDbEntity
8
0
100
AcDbBlockBegin
2
*D6
70
1
10
0
20
0
30
0
3
*D6
0
LINE
5
150
100
AcDbEntity
8
0
62
256
6
ByLayer
370
-2
48
1
60
0
100
AcDbLine
10
-37.5875
20
4
30
0
11
-42.42494
21
4
31
0
39
0
210
0
220
0
230
1
0
LINE
5
151
100
AcDbEntity
8
0
62
256
6
ByLayer
370
-2
48
1
60
0
100
AcDbLine
10
-37.5875
20
-4
30
0
11
-42.42494
21
-4
31
0
39
0
210
0
220
0
230
1
0
LINE
5
152
100
AcDbEntity
8
0
62
256
6
ByLayer
370
-2
48
1
60
0
100
AcDbLine
10
-39.24994
20
4
30
0
11
-39.24994
21
24.830487
31
0
39
0
210
0
220
0
230
1
0
LINE
5
153
100
AcDbEntity
8
0
62
256
6
ByLayer
370
-2
48
1
60
0
100
AcDbLine
10
-39.24994
20
7.175
30
0
11
-39.24994
21
10.35
31
0
39
0
210
0
220
0
230
1
0
LINE
5
154
100
AcDbEntity
8
0
62
256
6
ByLayer
370
-2
48
1
60
0
100
AcDbLine
10
-39.24994
20
-7.175
30
0
11
-39.24994
21
-10.35
31
0
39
0
210
0
220
0
230
1
0
SOLID
5
155
100
AcDbEntity
8
0
62
256
6
ByLayer
370
-1
48
1
60
0
100
AcDbTrace
10
-39.779107
20
7.175
30
0
11
-38.720773
21
7.175
31
0
12
-39.24994
22
4
32
0
13
-39.24994
23
4
33
0
39
0
210
0
220
0
230
1
0
SOLID
5
156
100
AcDbEntity
8
0
62
256
6
ByLayer
370
-1
48
1
60
0
100
AcDbTrace
10
-38.720773
20
-7.175
30
0
11
-39.779107
21
-7.175
31
0
12
-39.24994
22
-4
32
0
13
-39.24994
23
-4
33
0
39
0
210
0
220
0
230
1
0
MTEXT
5
157
100
AcDbEntity
8
0
62
256
6
ByLayer
370
18
48
1
60
0
100
AcDbMText
10
-46.556441
20
18.10734
30
0
210
0
220
0
230
1
1
\A1;8
40
3.50012
41
0
44
1
50
90
71
5
72
5
7
iso_b_vert
0
POINT
5
158
100
AcDbEntity
8
Defpoints
62
0
6
ByLayer
370
-1
48
1
60
0
100
AcDbPoint
10
-36
20
4
30
0
39
0
210
0
220
0
230
1
50
360
0
POINT
5
159
100
AcDbEntity
8
Defpoints
62
0
6
ByLayer
370
-1
48
1
60
0
100
AcDbPoint
10
-36
20
-4
30
0
39
0
210
0
220
0
230
1
50
360
0
POINT
5
15A
100
AcDbEntity
8
Defpoints
62
0
6
ByLayer
370
-1
48
1
60
0
100
AcDbPoint
10
-39.24994
20
-4
30
0
39
0
210
0
220
0
230
1
50
360
0
ENDBLK
5
14F
100
AcDbEntity
8
0
100
AcDbBlockEnd
0
BLOCK
5
166
100
AcDbEntity
8
0
100
AcDbBlockBegin
2
_U2
70
0
10
0
20
0
30
0
3
_U2
0
MTEXT
5
15C
100
AcDbEntity
8
SK2
62
256
6
ByLayer
370
18
48
1
60
0
100
AcDbMText
10
-39.939597
20
14.157505
30
0
210
0
220
0
230
1
1
\W0.7346;8.00
40
3.50012
41
0
44
1.084337
50
90
71
7
72
5
7
iso_b_vert
0
LINE
5
15D
100
AcDbEntity
8
SK2
62
256
6
ByLayer
370
13
48
1
60
0
100
AcDbLine
10
-37.5875
20
4
30
0
11
-42.42494
21
4
31
0
39
0
210
0
220
0
230
1
0
LINE
5
15E
100
AcDbEntity
8
SK2
62
256
6
ByLayer
370
13
48
1
60
0
100
AcDbLine
10
-37.5875
20
-4
30
0
11
-42.42494
21
-4
31
0
39
0
210
0
220
0
230
1
0
LINE
5
15F
100
AcDbEntity
8
SK2
62
256
6
ByLayer
370
13
48
1
60
0
100
AcDbLine
10
-39.24994
20
-4
30
0
11
-39.24994
21
22.21468
31
0
39
0
210
0
220
0
230
1
0
LINE
5
160
100
AcDbEntity
8
SK2
62
256
6
ByLayer
370
13
48
1
60
0
100
AcDbLine
10
-39.24994
20
4
30
0
11
-38.831943
21
0.825002
31
0
39
0
210
0
220
0
230
1
0
LINE
5
161
100
AcDbEntity
8
SK2
62
256
6
ByLayer
370
13
48
1
60
0
100
AcDbLine
10
-39.24994
20
4
30
0
11
-39.667937
21
0.824998
31
0
39
0
210
0
220
0
230
1
0
LINE
5
162
100
AcDbEntity
8
SK2
62
256
6
ByLayer
370
13
48
1
60
0
100
AcDbLine
10
-38.831943
20
0.825002
30
0
11
-39.667937
21
0.824998
31
0
39
0
210
0
220
0
230
1
0
LINE
5
163
100
AcDbEntity
8
SK2
62
256
6
ByLayer
370
13
48
1
60
0
100
AcDbLine
10
-39.24994
20
-4
30
0
11
-39.667937
21
-0.825002
31
0
39
0
210
0
220
0
230
1
0
LINE
5
164
100
AcDbEntity
8
SK2
62
256
6
ByLayer
370
13
48
1
60
0
100
AcDbLine
10
-39.24994
20
-4
30
0
11
-38.831943
21
-0.824998
31
0
39
0
210
0
220
0
230
1
0
LINE
5
165
100
AcDbEntity
8
SK2
62
256
6
ByLayer
370
13
48
1
60
0
100
AcDbLine
10
-39.667937
20
-0.825002
30
0
11
-38.831943
21
-0.824998
31
0
39
0
210
0
220
0
230
1
0
ENDBLK
5
167
100
AcDbEntity
8
0
100
AcDbBlockEnd
0
BLOCK
5
16C
100
AcDbEntity
8
0
100
AcDbBlockBegin
2
*D8
70
1
10
0
20
0
30
0
3
*D8
0
LINE
5
16E
100
AcDbEntity
8
0
62
256
6
ByLayer
370
-2
48
1
60
0
100
AcDbLine
10
-36
20
-5.5875
30
0
11
-36
21
-30.67512
31
0
39
0
210
0
220
0
230
1
0
LINE
5
16F
100
AcDbEntity
8
0
62
256
6
ByLayer
370
-2
48
1
60
0
100
AcDbLine
10
0
20
-5.5875
30
0
11
0
21
-30.67512
31
0
39
0
210
0
220
0
230
1
0
LINE
5
170
100
AcDbEntity
8
0
62
256
6
ByLayer
370
-2
48
1
60
0
100
AcDbLine
10
-32.825
20
-27.50012
30
0
11
-3.175
21
-27.50012
31
0
39
0
210
0
220
0
230
1
0
SOLID
5
171
100
AcDbEntity
8
0
62
256
6
ByLayer
370
-1
48
1
60
0
100
AcDbTrace
10
-32.825
20
-26.970953
30
0
11
-32.825
21
-28.029287
31
0
12
-36
22
-27.50012
32
0
13
-36
23
-27.50012
33
0
39
0
210
0
220
0
230
1
0
SOLID
5
172
100
AcDbEntity
8
0
62
256
6
ByLayer
370
-1
48
1
60
0
100
AcDbTrace
10
-3.175
20
-28.029287
30
0
11
-3.175
21
-26.970953
31
0
12
0
22
-27.50012
32
0
13
0
23
-27.50012
33
0
39
0
210
0
220
0
230
1
0
MTEXT
5
173
100
AcDbEntity
8
0
62
256
6
ByLayer
370
18
48
1
60
0
100
AcDbMText
10
-18
20
-20.193619
30
0
210
0
220
0
230
1
1
\A1;36
40
3.50012
41
0
44
1
50
0
71
5
72
5
7
iso_b_vert
0
POINT
5
174
100
AcDbEntity
8
Defpoints
62
0
6
ByLayer
370
-1
48
1
60
0
100
AcDbPoint
10
-36
20
-4
30
0
39
0
210
0
220
0
230
1
50
360
0
POINT
5
175
100
AcDbEntity
8
Defpoints
62
0
6
ByLayer
370
-1
48
1
60
0
100
AcDbPoint
10
0
20
-4
30
0
39
0
210
0
220
0
230
1
50
360
0
POINT
5
176
100
AcDbEntity
8
Defpoints
62
0
6
ByLayer
370
-1
48
1
60
0
100
AcDbPoint
10
0
20
-27.50012
30
0
39
0
210
0
220
0
230
1
50
360
0
ENDBLK
5
16D
100
AcDbEntity
8
0
100
AcDbBlockEnd
0
BLOCK
5
182
100
AcDbEntity
8
0
100
AcDbBlockBegin
2
_U3
70
0
10
0
20
0
30
0
3
_U3
0
MTEXT
5
178
100
AcDbEntity
8
SK2
62
256
6
ByLayer
370
18
48
1
60
0
100
AcDbMText
10
-23.229611
20
-26.467451
30
0
210
0
220
0
230
1
1
\W0.7468;36.00
40
3.50012
41
0
44
1.084337
50
0
71
7
72
5
7
iso_b_vert
0
LINE
5
179
100
AcDbEntity
8
SK2
62
256
6
ByLayer
370
13
48
1
60
0
100
AcDbLine
10
-36
20
-5.5875
30
0
11
-36
21
-30.67512
31
0
39
0
210
0
220
0
230
1
0
LINE
5
17A
100
AcDbEntity
8
SK2
62
256
6
ByLayer
370
13
48
1
60
0
100
AcDbLine
10
0
20
-5.5875
30
0
11
0
21
-30.67512
31
0
39
0
210
0
220
0
230
1
0
LINE
5
17B
100
AcDbEntity
8
SK2
62
256
6
ByLayer
370
13
48
1
60
0
100
AcDbLine
10
-36
20
-27.50012
30
0
11
0
21
-27.50012
31
0
39
0
210
0
220
0
230
1
0
LINE
5
17C
100
AcDbEntity
8
SK2
62
256
6
ByLayer
370
13
48
1
60
0
100
AcDbLine
10
-36
20
-27.50012
30
0
11
-32.825002
21
-27.082123
31
0
39
0
210
0
220
0
230
1
0
LINE
5
17D
100
AcDbEntity
8
SK2
62
256
6
ByLayer
370
13
48
1
60
0
100
AcDbLine
10
-36
20
-27.50012
30
0
11
-32.824998
21
-27.918117
31
0
39
0
210
0
220
0
230
1
0
LINE
5
17E
100
AcDbEntity
8
SK2
62
256
6
ByLayer
370
13
48
1
60
0
100
AcDbLine
10
-32.825002
20
-27.082123
30
0
11
-32.824998
21
-27.918117
31
0
39
0
210
0
220
0
230
1
0
LINE
5
17F
100
AcDbEntity
8
SK2
62
256
6
ByLayer
370
13
48
1
60
0
100
AcDbLine
10
0
20
-27.50012
30
0
11
-3.174998
21
-27.918117
31
0
39
0
210
0
220
0
230
1
0
LINE
5
180
100
AcDbEntity
8
SK2
62
256
6
ByLayer
370
13
48
1
60
0
100
AcDbLine
10
0
20
-27.50012
30
0
11
-3.175002
21
-27.082123
31
0
39
0
210
0
220
0
230
1
0
LINE
5
181
100
AcDbEntity
8
SK2
62
256
6
ByLayer
370
13
48
1
60
0
100
AcDbLine
10
-3.174998
20
-27.918117
30
0
11
-3.175002
21
-27.082123
31
0
39
0
210
0
220
0
230
1
0
ENDBLK
5
183
100
AcDbEntity
8
0
100
AcDbBlockEnd
0
BLOCK
5
188
100
AcDbEntity
8
0
100
AcDbBlockBegin
2
*D10
70
1
10
0
20
0
30
0
3
*D10
0
LINE
5
18A
100
AcDbEntity
8
0
62
256
6
ByLayer
370
-2
48
1
60
0
100
AcDbLine
10
2
20
2.8125
30
0
11
2
21
-21.92482
31
0
39
0
210
0
220
0
230
1
0
LINE
5
18B
100
AcDbEntity
8
0
62
256
6
ByLayer
370
-2
48
1
60
0
100
AcDbLine
10
43
20
-1.5875
30
0
11
43
21
-21.92482
31
0
39
0
210
0
220
0
230
1
0
LINE
5
18C
100
AcDbEntity
8
0
62
256
6
ByLayer
370
-2
48
1
60
0
100
AcDbLine
10
5.175
20
-18.74982
30
0
11
39.825
21
-18.74982
31
0
39
0
210
0
220
0
230
1
0
SOLID
5
18D
100
AcDbEntity
8
0
62
256
6
ByLayer
370
-1
48
1
60
0
100
AcDbTrace
10
5.175
20
-18.220653
30
0
11
5.175
21
-19.278987
31
0
12
2
22
-18.74982
32
0
13
2
23
-18.74982
33
0
39
0
210
0
220
0
230
1
0
SOLID
5
18E
100
AcDbEntity
8
0
62
256
6
ByLayer
370
-1
48
1
60
0
100
AcDbTrace
10
39.825
20
-19.278987
30
0
11
39.825
21
-18.220653
31
0
12
43
22
-18.74982
32
0
13
43
23
-18.74982
33
0
39
0
210
0
220
0
230
1
0
MTEXT
5
18F
100
AcDbEntity
8
0
62
256
6
ByLayer
370
18
48
1
60
0
100
AcDbMText
10
22.5
20
-11.443319
30
0
210
0
220
0
230
1
1
\A1;41
40
3.50012
41
0
44
1
50
0
71
5
72
5
7
iso_b_vert
0
POINT
5
190
100
AcDbEntity
8
Defpoints
62
0
6
ByLayer
370
-1
48
1
60
0
100
AcDbPoint
10
2
20
4.4
30
0
39
0
210
0
220
0
230
1
50
360
0
POINT
5
191
100
AcDbEntity
8
Defpoints
62
0
6
ByLayer
370
-1
48
1
60
0
100
AcDbPoint
10
43
20
0
30
0
39
0
210
0
220
0
230
1
50
360
0
POINT
5
192
100
AcDbEntity
8
Defpoints
62
0
6
ByLayer
370
-1
48
1
60
0
100
AcDbPoint
10
43
20
-18.74982
30
0
39
0
210
0
220
0
230
1
50
360
0
ENDBLK
5
189
100
AcDbEntity
8
0
100
AcDbBlockEnd
0
BLOCK
5
19E
100
AcDbEntity
8
0
100
AcDbBlockBegin
2
_U4
70
0
10
0
20
0
30
0
3
_U4
0
MTEXT
5
194
100
AcDbEntity
8
SK2
62
256
6
ByLayer
370
18
48
1
60
0
100
AcDbMText
10
17.523564
20
-17.717151
30
0
210
0
220
0
230
1
1
\W0.7091;41.00
40
3.50012
41
0
44
1.084337
50
0
71
7
72
5
7
iso_b_vert
0
LINE
5
195
100
AcDbEntity
8
SK2
62
256
6
ByLayer
370
13
48
1
60
0
100
AcDbLine
10
2
20
2.8125
30
0
11
2
21
-21.92482
31
0
39
0
210
0
220
0
230
1
0
LINE
5
196
100
AcDbEntity
8
SK2
62
256
6
ByLayer
370
13
48
1
60
0
100
AcDbLine
10
43
20
-1.5875
30
0
11
43
21
-21.92482
31
0
39
0
210
0
220
0
230
1
0
LINE
5
197
100
AcDbEntity
8
SK2
62
256
6
ByLayer
370
13
48
1
60
0
100
AcDbLine
10
2
20
-18.74982
30
0
11
43
21
-18.74982
31
0
39
0
210
0
220
0
230
1
0
LINE
5
198
100
AcDbEntity
8
SK2
62
256
6
ByLayer
370
13
48
1
60
0
100
AcDbLine
10
2
20
-18.74982
30
0
11
5.174998
21
-18.331823
31
0
39
0
210
0
220
0
230
1
0
LINE
5
199
100
AcDbEntity
8
SK2
62
256
6
ByLayer
370
13
48
1
60
0
100
AcDbLine
10
2
20
-18.74982
30
0
11
5.175002
21
-19.167817
31
0
39
0
210
0
220
0
230
1
0
LINE
5
19A
100
AcDbEntity
8
SK2
62
256
6
ByLayer
370
13
48
1
60
0
100
AcDbLine
10
5.174998
20
-18.331823
30
0
11
5.175002
21
-19.167817
31
0
39
0
210
0
220
0
230
1
0
LINE
5
19B
100
AcDbEntity
8
SK2
62
256
6
ByLayer
370
13
48
1
60
0
100
AcDbLine
10
43
20
-18.74982
30
0
11
39.825002
21
-19.167817
31
0
39
0
210
0
220
0
230
1
0
LINE
5
19C
100
AcDbEntity
8
SK2
62
256
6
ByLayer
370
13
48
1
60
0
100
AcDbLine
10
43
20
-18.74982
30
0
11
39.824998
21
-18.331823
31
0
39
0
210
0
220
0
230
1
0
LINE
5
19D
100
AcDbEntity
8
SK2
62
256
6
ByLayer
370
13
48
1
60
0
100
AcDbLine
10
39.825002
20
-19.167817
30
0
11
39.824998
21
-18.331823
31
0
39
0
210
0
220
0
230
1
0
ENDBLK
5
19F
100
AcDbEntity
8
0
100
AcDbBlockEnd
0
BLOCK
5
1A4
100
AcDbEntity
8
0
100
AcDbBlockBegin
2
*D12
70
1
10
0
20
0
30
0
3
*D12
0
LINE
5
1A6
100
AcDbEntity
8
0
62
256
6
ByLayer
370
-2
48
1
60
0
100
AcDbLine
10
18.2
20
-5.4875
30
0
11
18.2
21
-11.32
31
0
39
0
210
0
220
0
230
1
0
LINE
5
1A7
100
AcDbEntity
8
0
62
256
6
ByLayer
370
-2
48
1
60
0
100
AcDbLine
10
43
20
-1.5875
30
0
11
43
21
-11.32
31
0
39
0
210
0
220
0
230
1
0
LINE
5
1A8
100
AcDbEntity
8
0
62
256
6
ByLayer
370
-2
48
1
60
0
100
AcDbLine
10
21.375
20
-10.82
30
0
11
39.825
21
-10.82
31
0
39
0
210
0
220
0
230
1
0
SOLID
5
1A9
100
AcDbEntity
8
0
62
256
6
ByLayer
370
-1
48
1
60
0
100
AcDbTrace
10
21.375
20
-10.290833
30
0
11
21.375
21
-11.349167
31
0
12
18.2
22
-10.82
32
0
13
18.2
23
-10.82
33
0
39
0
210
0
220
0
230
1
0
SOLID
5
1AA
100
AcDbEntity
8
0
62
256
6
ByLayer
370
-1
48
1
60
0
100
AcDbTrace
10
39.825
20
-11.349167
30
0
11
39.825
21
-10.290833
31
0
12
43
22
-10.82
32
0
13
43
23
-10.82
33
0
39
0
210
0
220
0
230
1
0
MTEXT
5
1AB
100
AcDbEntity
8
0
62
256
6
ByLayer
370
18
48
1
60
0
100
AcDbMText
10
30.6
20
-4.975
30
0
210
0
220
0
230
1
1
\A1;24.8
40
2.8
41
0
44
1
50
0
71
5
72
5
7
iso_b_vert
0
POINT
5
1AC
100
AcDbEntity
8
Defpoints
62
0
6
ByLayer
370
-1
48
1
60
0
100
AcDbPoint
10
18.2
20
-3.9
30
0
39
0
210
0
220
0
230
1
50
360
0
POINT
5
1AD
100
AcDbEntity
8
Defpoints
62
0
6
ByLayer
370
-1
48
1
60
0
100
AcDbPoint
10
43
20
0
30
0
39
0
210
0
220
0
230
1
50
360
0
POINT
5
1AE
100
AcDbEntity
8
Defpoints
62
0
6
ByLayer
370
-1
48
1
60
0
100
AcDbPoint
10
43
20
-10.82
30
0
39
0
210
0
220
0
230
1
50
360
0
ENDBLK
5
1A5
100
AcDbEntity
8
0
100
AcDbBlockEnd
0
BLOCK
5
1BA
100
AcDbEntity
8
0
100
AcDbBlockBegin
2
_U5
70
0
10
0
20
0
30
0
3
_U5
0
MTEXT
5
1B0
100
AcDbEntity
8
SK2
62
256
6
ByLayer
370
18
48
1
60
0
100
AcDbMText
10
26.269041
20
-10.973893
30
0
210
0
220
0
230
1
1
\W0.7694;24.80
40
2.8
41
0
44
1.084337
50
0
71
7
72
5
7
iso_b_vert
0
LINE
5
1B1
100
AcDbEntity
8
SK2
62
256
6
ByLayer
370
13
48
1
60
0
100
AcDbLine
10
18.2
20
-5.4875
30
0
11
18.2
21
-11.32
31
0
39
0
210
0
220
0
230
1
0
LINE
5
1B2
100
AcDbEntity
8
SK2
62
256
6
ByLayer
370
13
48
1
60
0
100
AcDbLine
10
43
20
-1.5875
30
0
11
43
21
-11.32
31
0
39
0
210
0
220
0
230
1
0
LINE
5
1B3
100
AcDbEntity
8
SK2
62
256
6
ByLayer
370
13
48
1
60
0
100
AcDbLine
10
18.2
20
-10.82
30
0
11
43
21
-10.82
31
0
39
0
210
0
220
0
230
1
0
LINE
5
1B4
100
AcDbEntity
8
SK2
62
256
6
ByLayer
370
13
48
1
60
0
100
AcDbLine
10
18.2
20
-10.82
30
0
11
21.374998
21
-10.402003
31
0
39
0
210
0
220
0
230
1
0
LINE
5
1B5
100
AcDbEntity
8
SK2
62
256
6
ByLayer
370
13
48
1
60
0
100
AcDbLine
10
18.2
20
-10.82
30
0
11
21.375002
21
-11.237997
31
0
39
0
210
0
220
0
230
1
0
LINE
5
1B6
100
AcDbEntity
8
SK2
62
256
6
ByLayer
370
13
48
1
60
0
100
AcDbLine
10
21.374998
20
-10.402003
30
0
11
21.375002
21
-11.237997
31
0
39
0
210
0
220
0
230
1
0
LINE
5
1B7
100
AcDbEntity
8
SK2
62
256
6
ByLayer
370
13
48
1
60
0
100
AcDbLine
10
43
20
-10.82
30
0
11
39.825002
21
-11.237997
31
0
39
0
210
0
220
0
230
1
0
LINE
5
1B8
100
AcDbEntity
8
SK2
62
256
6
ByLayer
370
13
48
1
60
0
100
AcDbLine
10
43
20
-10.82
30
0
11
39.824998
21
-10.402003
31
0
39
0
210
0
220
0
230
1
0
LINE
5
1B9
100
AcDbEntity
8
SK2
62
256
6
ByLayer
370
13
48
1
60
0
100
AcDbLine
10
39.825002
20
-11.237997
30
0
11
39.824998
21
-10.402003
31
0
39
0
210
0
220
0
230
1
0
ENDBLK
5
1BB
100
AcDbEntity
8
0
100
AcDbBlockEnd
0
BLOCK
5
1C0
100
AcDbEntity
8
0
100
AcDbBlockBegin
2
*D14
70
1
10
0
20
0
30
0
3
*D14
0
LINE
5
1C2
100
AcDbEntity
8
0
62
256
6
ByLayer
370
-2
48
1
60
0
100
AcDbLine
10
-36
20
-1.5875
30
0
11
-36
21
-40.67512
31
0
39
0
210
0
220
0
230
1
0
LINE
5
1C3
100
AcDbEntity
8
0
62
256
6
ByLayer
370
-2
48
1
60
0
100
AcDbLine
10
43
20
-1.5875
30
0
11
43
21
-40.67512
31
0
39
0
210
0
220
0
230
1
0
LINE
5
1C4
100
AcDbEntity
8
0
62
256
6
ByLayer
370
-2
48
1
60
0
100
AcDbLine
10
-32.825
20
-37.50012
30
0
11
39.825
21
-37.50012
31
0
39
0
210
0
220
0
230
1
0
SOLID
5
1C5
100
AcDbEntity
8
0
62
256
6
ByLayer
370
-1
48
1
60
0
100
AcDbTrace
10
-32.825
20
-36.970953
30
0
11
-32.825
21
-38.029287
31
0
12
-36
22
-37.50012
32
0
13
-36
23
-37.50012
33
0
39
0
210
0
220
0
230
1
0
SOLID
5
1C6
100
AcDbEntity
8
0
62
256
6
ByLayer
370
-1
48
1
60
0
100
AcDbTrace
10
39.825
20
-38.029287
30
0
11
39.825
21
-36.970953
31
0
12
43
22
-37.50012
32
0
13
43
23
-37.50012
33
0
39
0
210
0
220
0
230
1
0
MTEXT
5
1C7
100
AcDbEntity
8
0
62
256
6
ByLayer
370
18
48
1
60
0
100
AcDbMText
10
3.5
20
-30.193619
30
0
210
0
220
0
230
1
1
\A1;79
40
3.50012
41
0
44
1
50
0
71
5
72
5
7
iso_b_vert
0
POINT
5
1C8
100
AcDbEntity
8
Defpoints
62
0
6
ByLayer
370
-1
48
1
60
0
100
AcDbPoint
10
-36
20
0
30
0
39
0
210
0
220
0
230
1
50
360
0
POINT
5
1C9
100
AcDbEntity
8
Defpoints
62
0
6
ByLayer
370
-1
48
1
60
0
100
AcDbPoint
10
43
20
0
30
0
39
0
210
0
220
0
230
1
50
360
0
POINT
5
1CA
100
AcDbEntity
8
Defpoints
62
0
6
ByLayer
370
-1
48
1
60
0
100
AcDbPoint
10
43
20
-37.50012
30
0
39
0
210
0
220
0
230
1
50
360
0
ENDBLK
5
1C1
100
AcDbEntity
8
0
100
AcDbBlockEnd
0
BLOCK
5
1D6
100
AcDbEntity
8
0
100
AcDbBlockBegin
2
_U6
70
0
10
0
20
0
30
0
3
_U6
0
MTEXT
5
1CC
100
AcDbEntity
8
SK2
62
256
6
ByLayer
370
18
48
1
60
0
100
AcDbMText
10
-1.729611
20
-36.467451
30
0
210
0
220
0
230
1
1
\W0.7468;79.00
40
3.50012
41
0
44
1.084337
50
0
71
7
72
5
7
iso_b_vert
0
LINE
5
1CD
100
AcDbEntity
8
SK2
62
256
6
ByLayer
370
13
48
1
60
0
100
AcDbLine
10
-36
20
-1.5875
30
0
11
-36
21
-40.67512
31
0
39
0
210
0
220
0
230
1
0
LINE
5
1CE
100
AcDbEntity
8
SK2
62
256
6
ByLayer
370
13
48
1
60
0
100
AcDbLine
10
43
20
-1.5875
30
0
11
43
21
-40.67512
31
0
39
0
210
0
220
0
230
1
0
LINE
5
1CF
100
AcDbEntity
8
SK2
62
256
6
ByLayer
370
13
48
1
60
0
100
AcDbLine
10
-36
20
-37.50012
30
0
11
43
21
-37.50012
31
0
39
0
210
0
220
0
230
1
0
LINE
5
1D0
100
AcDbEntity
8
SK2
62
256
6
ByLayer
370
13
48
1
60
0
100
AcDbLine
10
-36
20
-37.50012
30
0
11
-32.825002
21
-37.082123
31
0
39
0
210
0
220
0
230
1
0
LINE
5
1D1
100
AcDbEntity
8
SK2
62
256
6
ByLayer
370
13
48
1
60
0
100
AcDbLine
10
-36
20
-37.50012
30
0
11
-32.824998
21
-37.918117
31
0
39
0
210
0
220
0
230
1
0
LINE
5
1D2
100
AcDbEntity
8
SK2
62
256
6
ByLayer
370
13
48
1
60
0
100
AcDbLine
10
-32.825002
20
-37.082123
30
0
11
-32.824998
21
-37.918117
31
0
39
0
210
0
220
0
230
1
0
LINE
5
1D3
100
AcDbEntity
8
SK2
62
256
6
ByLayer
370
13
48
1
60
0
100
AcDbLine
10
43
20
-37.50012
30
0
11
39.825002
21
-37.918117
31
0
39
0
210
0
220
0
230
1
0
LINE
5
1D4
100
AcDbEntity
8
SK2
62
256
6
ByLayer
370
13
48
1
60
0
100
AcDbLine
10
43
20
-37.50012
30
0
11
39.824998
21
-37.082123
31
0
39
0
210
0
220
0
230
1
0
LINE
5
1D5
100
AcDbEntity
8
SK2
62
256
6
ByLayer
370
13
48
1
60
0
100
AcDbLine
10
39.825002
20
-37.918117
30
0
11
39.824998
21
-37.082123
31
0
39
0
210
0
220
0
230
1
0
ENDBLK
5
1D7
100
AcDbEntity
8
0
100
AcDbBlockEnd
0
ENDSEC
0
SECTION
2
ENTITIES
0
ARC
5
B1
100
AcDbEntity
8
1
62
256
6
ByLayer
370
18
48
1
60
0
100
AcDbCircle
39
0
10
0.291235
20
4.074193
30
0
40
0.200000000000003
210
0
220
0
230
1
100
AcDbArc
50
223.2736
51
270.03581
0
ARC
5
B2
100
AcDbEntity
8
1
62
256
6
ByLayer
370
18
48
1
60
0
100
AcDbCircle
39
0
10
0.291235
20
-4.074193
30
0
40
0.200000000000003
210
0
220
0
230
1
100
AcDbArc
50
89.96419
51
136.7264
0
ARC
5
B3
100
AcDbEntity
8
1
62
256
6
ByLayer
370
18
48
1
60
0
100
AcDbCircle
39
0
10
0
20
3.8
30
0
40
0.199999999999998
210
0
220
0
230
1
100
AcDbArc
50
43.2736
51
90
0
ARC
5
B4
100
AcDbEntity
8
1
62
256
6
ByLayer
370
18
48
1
60
0
100
AcDbCircle
39
0
10
0
20
-3.8
30
0
40
0.199999999999998
210
0
220
0
230
1
100
AcDbArc
50
270
51
316.7264
0
ARC
5
B5
100
AcDbEntity
8
SK2
62
256
6
ByLayer
370
13
48
1
60
0
100
AcDbCircle
39
0
10
43
20
0
30
0
40
20
210
0
220
0
230
1
100
AcDbArc
50
9.606349
51
69.999791
0
ARC
5
B6
100
AcDbEntity
8
SK2
62
256
6
ByLayer
370
13
48
1
60
0
100
AcDbCircle
39
0
10
43
20
0
30
0
40
20
210
0
220
0
230
1
100
AcDbArc
50
290.000209
51
350.393651
0
ELLIPSE
5
B7
100
AcDbEntity
8
1
62
256
6
ByLayer
370
18
48
1
60
0
100
AcDbEllipse
10
3.60171
20
3.781532
30
0
11
-0.1
21
1.22460635382238E-17
31
0
210
0
220
0
230
1
40
1
41
0.000105155025489971
42
1.58888120581669
0
ELLIPSE
5
B8
100
AcDbEntity
8
1
62
256
6
ByLayer
370
18
48
1
60
0
100
AcDbEllipse
10
3.60171
20
-3.781532
30
0
11
-0.1
21
1.22460635382238E-17
31
0
210
0
220
0
230
1
40
1
41
-1.5589687682877
42
-0.00010515502483716
0
POINT
5
70
100
AcDbEntity
8
80
62
256
6
ByLayer
370
18
48
1
60
0
100
AcDbPoint
10
0
20
0
30
0
39
0
210
0
220
0
230
1
50
360
0
POINT
5
72
100
AcDbEntity
8
81
62
256
6
ByLayer
370
18
48
1
60
0
100
AcDbPoint
10
43
20
0
30
0
39
0
210
0
220
0
230
1
50
360
0
POINT
5
74
100
AcDbEntity
8
1
62
256
6
ByLayer
370
18
48
1
60
0
100
AcDbPoint
10
-36
20
0
30
0
39
0
210
0
220
0
230
1
50
360
0
POINT
5
76
100
AcDbEntity
8
1
62
256
6
ByLayer
370
18
48
1
60
1
100
AcDbPoint
10
0
20
-4
30
0
39
0
210
0
220
0
230
1
50
360
0
POINT
5
77
100
AcDbEntity
8
1
62
256
6
ByLayer
370
18
48
1
60
1
100
AcDbPoint
10
43
20
0
30
0
39
0
210
0
220
0
230
1
50
360
0
POINT
5
78
100
AcDbEntity
8
1
62
256
6
ByLayer
370
18
48
1
60
1
100
AcDbPoint
10
41.5805
20
-3.9
30
0
39
0
210
0
220
0
230
1
50
360
0
POINT
5
79
100
AcDbEntity
8
1
62
256
6
ByLayer
370
18
48
1
60
1
100
AcDbPoint
10
41.5805
20
3.9
30
0
39
0
210
0
220
0
230
1
50
360
0
POINT
5
7A
100
AcDbEntity
8
1
62
256
6
ByLayer
370
18
48
1
60
1
100
AcDbPoint
10
-36
20
4
30
0
39
0
210
0
220
0
230
1
50
360
0
POINT
5
7B
100
AcDbEntity
8
1
62
256
6
ByLayer
370
18
48
1
60
1
100
AcDbPoint
10
-36
20
-4
30
0
39
0
210
0
220
0
230
1
50
360
0
POINT
5
7C
100
AcDbEntity
8
1
62
256
6
ByLayer
370
18
48
1
60
1
100
AcDbPoint
10
-36
20
-4
30
0
39
0
210
0
220
0
230
1
50
360
0
POINT
5
7D
100
AcDbEntity
8
1
62
256
6
ByLayer
370
18
48
1
60
1
100
AcDbPoint
10
0
20
-4
30
0
39
0
210
0
220
0
230
1
50
360
0
POINT
5
7E
100
AcDbEntity
8
1
62
256
6
ByLayer
370
18
48
1
60
1
100
AcDbPoint
10
2
20
4.4
30
0
39
0
210
0
220
0
230
1
50
360
0
POINT
5
7F
100
AcDbEntity
8
1
62
256
6
ByLayer
370
18
48
1
60
1
100
AcDbPoint
10
43
20
0
30
0
39
0
210
0
220
0
230
1
50
360
0
POINT
5
80
100
AcDbEntity
8
1
62
256
6
ByLayer
370
18
48
1
60
1
100
AcDbPoint
10
18.2
20
-3.9
30
0
39
0
210
0
220
0
230
1
50
360
0
POINT
5
81
100
AcDbEntity
8
1
62
256
6
ByLayer
370
18
48
1
60
1
100
AcDbPoint
10
43
20
0
30
0
39
0
210
0
220
0
230
1
50
360
0
POINT
5
82
100
AcDbEntity
8
1
62
256
6
ByLayer
370
18
48
1
60
1
100
AcDbPoint
10
-36
20
0
30
0
39
0
210
0
220
0
230
1
50
360
0
POINT
5
83
100
AcDbEntity
8
1
62
256
6
ByLayer
370
18
48
1
60
1
100
AcDbPoint
10
43
20
0
30
0
39
0
210
0
220
0
230
1
50
360
0
SPLINE
5
B9
100
AcDbEntity
8
1
62
256
6
ByLayer
370
18
48
1
60
0
100
AcDbSpline
70
4
71
3
72
38
73
34
40
0
40
0
40
0
40
0
40
0.021765760006455
40
0.021765760006455
40
0.144045040005647
40
0.144045040005647
40
0.205184680005243
40
0.205184680005243
40
0.235754500005041
40
0.235754500005041
40
0.266324320004838
40
0.266324320004838
40
0.327463960004434
40
0.327463960004434
40
0.358033780004232
40
0.358033780004232
40
0.38860360000403
40
0.38860360000403
40
0.510882880003222
40
0.510882880003222
40
0.572022520002818
40
0.572022520002818
40
0.602592340002616
40
0.602592340002616
40
0.633162160002414
40
0.633162160002414
40
0.755441440001609
40
0.755441440001609
40
0.816581080001207
40
0.816581080001207
40
0.877720720000805
40
0.877720720000805
40
1
40
1
40
1
40
1
41
1
10
22.891693020882
20
-3.70703705464487
30
0
41
1
10
22.7510320428267
20
-3.73080352570258
30
0
41
1
10
22.61065131723
20
-3.75222184085115
30
0
41
1
10
21.6830393770845
20
-3.87839309198836
30
0
41
1
10
20.9023965007327
20
-3.91126765721489
30
0
41
1
10
19.7260119453722
20
-3.84844873024735
30
0
41
1
10
19.3328600011396
20
-3.80883518421794
30
0
41
1
10
18.7395613334289
20
-3.72149562398417
30
0
41
1
10
18.5409431006385
20
-3.68760818411508
30
0
41
1
10
18.1442582321095
20
-3.6108755840462
30
0
41
1
10
17.9462026015619
20
-3.56807201982846
30
0
41
1
10
17.3523500134619
20
-3.42681662998567
30
0
41
1
10
16.9568178937722
20
-3.31556804256905
30
2E-16
41
1
10
16.3621659884118
20
-3.12474828107716
30
2E-16
41
1
10
16.1633785639939
20
-3.05701706667654
30
2E-16
41
1
10
15.7670230087761
20
-2.91463405665837
30
2E-16
41
1
10
15.5694761522828
20
-2.84000892597513
30
2E-16
41
1
10
14.5840354667248
20
-2.45102710243145
30
2E-16
41
1
10
13.802966887977
20
-2.08916265816484
30
1E-16
41
1
10
12.6262865967227
20
-1.4949595990926
30
1E-16
41
1
10
12.2332617208718
20
-1.28824302183466
30
1E-16
41
1
10
11.6403299332025
20
-0.968647025234276
30
1E-16
41
1
10
11.4417157611617
20
-0.860305051707314
30
1E-16
41
1
10
11.0450079439715
20
-0.64212401184372
30
0
41
1
10
10.8472967211989
20
-0.532504524967408
30
0
41
1
10
9.86110123620733
20
0.0166985798720134
30
0
41
1
10
9.08015563305847
20
0.460425923890995
30
0
41
1
10
7.9035992456389
20
1.10157272116342
30
-1E-16
41
1
10
7.51073693098073
20
1.31153919396914
30
-1E-16
41
1
10
6.72076898214783
20
1.71876993720781
30
-1E-16
41
1
10
6.3225951840532
20
1.91642164298932
30
-1E-16
41
1
10
5.1349909140358
20
2.47497511218944
30
-2E-16
41
1
10
4.34738116303004
20
2.80391365783169
30
-2E-16
41
1
10
3.55286518746249
20
3.07438561757971
30
-2E-16
0
SPLINE
5
BA
100
AcDbEntity
8
1
62
256
6
ByLayer
370
18
48
1
60
0
100
AcDbSpline
70
4
71
3
72
28
73
24
40
0
40
0
40
0
40
0
40
0.125000000000001
40
0.125000000000001
40
0.187500000000001
40
0.187500000000001
40
0.250000000000001
40
0.250000000000001
40
0.312500000000001
40
0.312500000000001
40
0.375000000000001
40
0.375000000000001
40
0.437500000000001
40
0.437500000000001
40
0.500000000000001
40
0.500000000000001
40
0.625
40
0.625
40
0.75
40
0.75
40
0.875
40
0.875
40
1
40
1
40
1
40
1
41
1
10
41.1636695091785
20
-0.0366394443107652
30
0
41
1
10
41.1708808857765
20
-0.258774650255873
30
0
41
1
10
41.1874737222496
20
-0.476616078024875
30
0
41
1
10
41.2198871220492
20
-0.79781103159894
30
0
41
1
10
41.2319706634674
20
-0.903939992545787
30
1E-16
41
1
10
41.2578344383646
20
-1.11438362476963
30
1E-16
41
1
10
41.271668050046
20
-1.21907065821469
30
1E-16
41
1
10
41.2999848566707
20
-1.42457908104535
30
1E-16
41
1
10
41.314446378721
20
-1.52530154577994
30
1E-16
41
1
10
41.3432897803258
20
-1.72277850444269
30
1E-16
41
1
10
41.3577005879797
20
-1.81972253882776
30
1E-16
41
1
10
41.385648254678
20
-2.00800951736238
30
1E-16
41
1
10
41.3992071201853
20
-2.09950475603364
30
1E-16
41
1
10
41.4251008843975
20
-2.27721311441553
30
1E-16
41
1
10
41.4374383378306
20
-2.36345844718537
30
1E-16
41
1
10
41.4719068630558
20
-2.61170916431399
30
2E-16
41
1
10
41.4916169672615
20
-2.76480646089789
30
2E-16
41
1
10
41.5240107484956
20
-3.03942589196228
30
2E-16
41
1
10
41.536793326366
20
-3.16170871053998
30
0
41
1
10
41.5581978660651
20
-3.37055209615986
30
0
41
1
10
41.5669245649775
20
-3.4577319700164
30
0
41
1
10
41.5856165971198
20
-3.59303412110816
30
0
41
1
10
41.5956368668198
20
-3.6419336791854
30
0
41
1
10
41.6100816215895
20
-3.67163320834217
30
0
0
SPLINE
5
BB
100
AcDbEntity
8
1
62
256
6
ByLayer
370
18
48
1
60
0
100
AcDbSpline
70
4
71
3
72
8
73
4
40
0
40
0
40
0
40
0
40
1
40
1
40
1
40
1
41
1
10
42.9964035526242
20
0.215316484246557
30
0
41
1
10
42.9795576277567
20
0.159167711894611
30
0
41
1
10
42.9626277523689
20
0.103045415101974
30
0
41
1
10
42.9456142423927
20
0.0469494942328765
30
0
0
SPLINE
5
BC
100
AcDbEntity
8
1
62
256
6
ByLayer
370
18
48
1
60
0
100
AcDbSpline
70
4
71
3
72
8
73
4
40
0
40
0
40
0
40
0
40
1
40
1
40
1
40
1
41
1
10
41.0634528381985
20
0.0299509984383519
30
0
41
1
10
41.0552427235335
20
0.213971116584503
30
0
41
1
10
41.0536844444999
20
0.396147306897518
30
0
41
1
10
41.0607752131711
20
0.576465662110564
30
0
0
SPLINE
5
BD
100
AcDbEntity
8
1
62
256
6
ByLayer
370
18
48
1
60
0
100
AcDbSpline
70
4
71
3
72
8
73
4
40
0
40
0
40
0
40
0
40
1
40
1
40
1
40
1
41
1
10
42.9964035526292
20
0.215316484248717
30
0
41
1
10
43.0011973563217
20
0.0718158501480843
30
0
41
1
10
43.0012002761554
20
-0.0717284460785663
30
0
41
1
10
42.9964035526287
20
-0.215316484261734
30
0
0
SPLINE
5
BE
100
AcDbEntity
8
1
62
256
6
ByLayer
370
18
48
1
60
0
100
AcDbSpline
70
4
71
3
72
24
73
20
40
0
40
0
40
0
40
0
40
0.114876697305319
40
0.114876697305319
40
0.229753394610638
40
0.229753394610638
40
0.344630091915957
40
0.344630091915957
40
0.459506789221276
40
0.459506789221276
40
0.68926018383191
40
0.68926018383191
40
0.804136881137226
40
0.804136881137226
40
0.861575229789884
40
0.861575229789884
40
0.919013578442542
40
0.919013578442542
40
1
40
1
40
1
40
1
41
1
10
41.0607752131711
20
0.576465662110621
30
0
41
1
10
40.6837821680276
20
0.786843992594044
30
0
41
1
10
40.3082765263879
20
0.993411114920093
30
-1E-16
41
1
10
39.5581388260902
20
1.39545214106837
30
-1E-16
41
1
10
39.1838360250023
20
1.59146702418644
30
-1E-16
41
1
10
38.4331828229805
20
1.96746837705271
30
-1E-16
41
1
10
38.0571598891334
20
2.14800863499079
30
-1E-16
41
1
10
37.3014024224084
20
2.49024085478982
30
-2E-16
41
1
10
36.9200481529075
20
2.6518221452923
30
-2E-16
41
1
10
35.7864978559658
20
3.09589127011495
30
-2E-16
41
1
10
35.0381800422376
20
3.33831657826306
30
-2E-16
41
1
10
33.9129935281645
20
3.6094972241103
30
0
41
1
10
33.5372486882563
20
3.68433650908727
30
0
41
1
10
32.9715548144306
20
3.77216506026224
30
0
41
1
10
32.782565432162
20
3.79731681528156
30
0
41
1
10
32.4033726617977
20
3.83910547299209
30
0
41
1
10
32.2129464243576
20
3.85573565110099
30
0
41
1
10
31.7562794188647
20
3.88513031305695
30
0
41
1
10
31.4903617669102
20
3.89362391029269
30
0
41
1
10
31.2250659812007
20
3.8935183679389
30
0
0
SPLINE
5
BF
100
AcDbEntity
8
1
62
256
6
ByLayer
370
18
48
1
60
0
100
AcDbSpline
70
4
71
3
72
26
73
22
40
0
40
0
40
0
40
0
40
0.0682502576473209
40
0.0682502576473209
40
0.126484616544364
40
0.126484616544364
40
0.184718975441408
40
0.184718975441408
40
0.301187693235492
40
0.301187693235492
40
0.417656411029577
40
0.417656411029577
40
0.534125128823661
40
0.534125128823661
40
0.650593846617746
40
0.650593846617746
40
0.767062564411831
40
0.767062564411831
40
0.883531282205915
40
0.883531282205915
40
1
40
1
40
1
40
1
41
1
10
14.6074124960538
20
-2.86927071223298
30
2E-16
41
1
10
14.3871194712001
20
-2.95244272683829
30
2E-16
41
1
10
14.1664971189248
20
-3.03136329038023
30
2E-16
41
1
10
13.7567509091792
20
-3.16934040669446
30
2E-16
41
1
10
13.5676769925605
20
-3.22951526825841
30
2E-16
41
1
10
13.1883159814513
20
-3.34269945016808
30
0
41
1
10
12.9977241861606
20
-3.39575773529151
30
0
41
1
10
12.4286797066257
20
-3.54254077263934
30
0
41
1
10
12.0518929533999
20
-3.62453710456342
30
0
41
1
10
11.2997522813857
20
-3.75498510860433
30
0
41
1
10
10.9246782620265
20
-3.80367646722172
30
0
41
1
10
10.1744626199537
20
-3.86727164348349
30
0
41
1
10
9.79890855051173
20
-3.88210032473336
30
0
41
1
10
9.04563880829289
20
-3.87729113639293
30
0
41
1
10
8.66776857552046
20
-3.85756615865554
30
0
41
1
10
7.90643399884911
20
-3.78306275259101
30
0
41
1
10
7.52778253514907
20
-3.72858325984583
30
0
41
1
10
6.7714911406897
20
-3.58710816985837
30
0
41
1
10
6.3937871120263
20
-3.50021338938311
30
0
41
1
10
5.63765155684683
20
-3.29523018767793
30
2E-16
41
1
10
5.25887176160865
20
-3.17738887992843
30
2E-16
41
1
10
4.87795245426145
20
-3.0455051708947
30
2E-16
0
SPLINE
5
C0
100
AcDbEntity
8
1
62
256
6
ByLayer
370
18
48
1
60
0
100
AcDbSpline
70
4
71
3
72
12
73
8
40
0
40
0
40
0
40
0
40
0.339212037133164
40
0.339212037133164
40
0.678424074266327
40
0.678424074266327
40
1
40
1
40
1
40
1
41
1
10
17.6
20
-3.69129706993542
30
0
41
1
10
17.8483054484292
20
-3.7349366965467
30
0
41
1
10
18.096805524428
20
-3.77146905504677
30
0
41
1
10
18.5926182258197
20
-3.82968759371391
30
0
41
1
10
18.8400159735783
20
-3.85140500197315
30
0
41
1
10
19.3216695636045
20
-3.87926307565095
30
0
41
1
10
19.5559211879275
20
-3.88616205043951
30
0
41
1
10
19.7903015132671
20
-3.8863812816482
30
0
0
SPLINE
5
C1
100
AcDbEntity
8
1
62
256
6
ByLayer
370
18
48
1
60
0
100
AcDbSpline
70
4
71
3
72
8
73
4
40
0
40
0
40
0
40
0
40
1
40
1
40
1
40
1
41
1
10
40.4221070996019
20
3.84794279422604
30
0
41
1
10
40.749172705448
20
3.87790336925875
30
0
41
1
10
41.0763454303035
20
3.89502584371948
30
0
41
1
10
41.4034641978383
20
3.89905004024647
30
0
0
SPLINE
5
C2
100
AcDbEntity
8
1
62
256
6
ByLayer
370
18
48
1
60
0
100
AcDbSpline
70
4
71
3
72
36
73
32
40
0
40
0
40
0
40
0
40
0.4968467349355
40
0.4968467349355
40
0.663825569688636
40
0.663825569688636
40
0.775510078991691
40
0.775510078991691
40
0.850208413854935
40
0.850208413854935
40
0.900178397504059
40
0.900178397504059
40
0.933610904693673
40
0.933610904693673
40
0.955980561580197
40
0.955980561580197
40
0.970943538017833
40
0.970943538017833
40
0.980939899069862
40
0.980939899069862
40
0.987613151406932
40
0.987613151406932
40
0.99206605324579
40
0.99206605324579
40
0.995061024850588
40
0.995061024850588
40
0.997273237053204
40
0.997273237053204
40
0.99951387444079
40
0.99951387444079
40
1
40
1
40
1
40
1
41
1
10
41.4034641978349
20
3.89905004024007
30
0
41
1
10
41.4424667660346
20
3.87366447492673
30
0
41
1
10
41.4815236508639
20
3.84801430665246
30
0
41
1
10
41.5337912117135
20
3.81339208634213
30
0
41
1
10
41.5469490904893
20
3.80465110112789
30
0
41
1
10
41.5689341565255
20
3.79000465744971
30
0
41
1
10
41.5777534274748
20
3.78411815822537
30
0
41
1
10
41.5924831072946
20
3.77426862371544
30
0
41
1
10
41.5983883875205
20
3.77031504703425
30
0
41
1
10
41.6082371765844
20
3.76371348565513
30
0
41
1
10
41.612182962611
20
3.76106655903456
30
0
41
1
10
41.6187623599674
20
3.75664942495197
30
0
41
1
10
41.621398064531
20
3.7548789771439
30
0
41
1
10
41.6257934168536
20
3.75192494575251
30
0
41
1
10
41.627553340652
20
3.75074171139485
30
0
41
1
10
41.6304946856
20
3.74876341979504
30
0
41
1
10
41.6316750031954
20
3.74796935574966
30
0
41
1
10
41.6336491885398
20
3.74664087091057
30
0
41
1
10
41.634441294294
20
3.74610774948994
30
0
41
1
10
41.6357652526747
20
3.74521652095373
30
0
41
1
10
41.6362960909024
20
3.74485914558261
30
0
41
1
10
41.6371826738924
20
3.74426220951921
30
0
41
1
10
41.6375388661526
20
3.74402236649732
30
0
41
1
10
41.6381297503706
20
3.74362447780476
30
0
41
1
10
41.6383660741035
20
3.74346533868655
30
0
41
1
10
41.6387674320855
20
3.74319506771769
30
0
41
1
10
41.6389355058518
20
3.74308188857438
30
0
41
1
10
41.6392559029018
20
3.74286614497416
30
0
41
1
10
41.6394140908055
20
3.74275963265583
30
0
41
1
10
41.6395577599804
20
3.74266291902151
30
0
41
1
10
41.6395813664739
20
3.7426470269599
30
0
41
1
10
41.63960181694
20
3.74263326377096
30
0
0
SPLINE
5
C3
100
AcDbEntity
8
1
62
256
6
ByLayer
370
18
48
1
60
0
100
AcDbSpline
70
4
71
3
72
8
73
4
40
0
40
0
40
0
40
0
40
1
40
1
40
1
40
1
41
1
10
3.55286518746252
20
3.07438561757971
30
-2E-16
41
1
10
3.52173453284666
20
3.08498322596156
30
-2E-16
41
1
10
3.50170976796409
20
3.1056402374883
30
-2E-16
41
1
10
3.50170976796409
20
3.12672590317371
30
-2E-16
0
SPLINE
5
C4
100
AcDbEntity
8
1
62
256
6
ByLayer
370
18
48
1
60
0
100
AcDbSpline
70
4
71
3
72
20
73
16
40
0
40
0
40
0
40
0
40
0.249999999999995
40
0.249999999999995
40
0.499999999999991
40
0.499999999999991
40
0.56249999999999
40
0.56249999999999
40
0.624999999999989
40
0.624999999999989
40
0.749999999999993
40
0.749999999999993
40
0.874999999999996
40
0.874999999999996
40
1
40
1
40
1
40
1
41
1
10
41.6459685787013
20
-3.73834355970587
30
0
41
1
10
41.7227316646071
20
-3.52251410643081
30
0
41
1
10
41.7989151433721
20
-3.30526383249006
30
0
41
1
10
41.9530436699838
20
-2.86940292953341
30
0
41
1
10
42.030978750315
20
-2.6509799730766
30
0
41
1
10
42.1302379893261
20
-2.37896677141882
30
0
41
1
10
42.1501778463963
20
-2.3246121699857
30
0
41
1
10
42.1902637841534
20
-2.21600932928516
30
0
41
1
10
42.2102883025779
20
-2.16169562460885
30
0
41
1
10
42.2716663994114
20
-1.99944195970153
30
0
41
1
10
42.3147759235642
20
-1.8923214021637
30
0
41
1
10
42.4044064921268
20
-1.68584876694152
30
0
41
1
10
42.4511882011726
20
-1.58585842476501
30
0
41
1
10
42.5496207191134
20
-1.3925727481967
30
0
41
1
10
42.6016617334798
20
-1.29864865125594
30
0
41
1
10
42.6550839753499
20
-1.21040750356431
30
0
0
SPLINE
5
C5
100
AcDbEntity
8
1
62
256
6
ByLayer
370
18
48
1
60
0
100
AcDbSpline
70
4
71
3
72
20
73
16
40
0
40
0
40
0
40
0
40
0.250000000000001
40
0.250000000000001
40
0.375000000000001
40
0.375000000000001
40
0.500000000000002
40
0.500000000000002
40
0.625000000000002
40
0.625000000000002
40
0.687500000000001
40
0.687500000000001
40
0.750000000000001
40
0.750000000000001
40
1
40
1
40
1
40
1
41
1
10
7.91770339185319
20
0.500570339501792
30
0
41
1
10
8.73089285294992
20
0.0484760540162483
30
0
41
1
10
9.53262640509843
20
-0.407268621498332
30
0
41
1
10
10.7353570826739
20
-1.06551898102831
30
1E-16
41
1
10
11.136227442036
20
-1.28081594939502
30
1E-16
41
1
10
11.940951249297
20
-1.69773849488115
30
1E-16
41
1
10
12.3450333832386
20
-1.89952430642671
30
1E-16
41
1
10
13.1579135686725
20
-2.28404000007575
30
1E-16
41
1
10
13.5629963401406
20
-2.46472563520962
30
2E-16
41
1
10
14.1706897407455
20
-2.71561192043455
30
2E-16
41
1
10
14.3732354921525
20
-2.79591995736203
30
2E-16
41
1
10
14.7787872586948
20
-2.94923841665215
30
2E-16
41
1
10
14.9820443668697
20
-3.02234809000737
30
2E-16
41
1
10
15.9972927120941
20
-3.36761066978457
30
0
41
1
10
16.7983895230135
20
-3.57620808034412
30
0
41
1
10
17.6
20
-3.71019533067417
30
0
0
SPLINE
5
C6
100
AcDbEntity
8
1
62
256
6
ByLayer
370
18
48
1
60
0
100
AcDbSpline
70
4
71
3
72
26
73
22
40
0
40
0
40
0
40
0
40
0.0267550170117546
40
0.0267550170117546
40
0.0796315486462075
40
0.0796315486462075
40
0.291137675184016
40
0.291137675184016
40
0.396890738452921
40
0.396890738452921
40
0.502643801721825
40
0.502643801721825
40
0.714149928259637
40
0.714149928259637
40
0.819902991528542
40
0.819902991528542
40
0.872779523162993
40
0.872779523162993
40
0.925656054797445
40
0.925656054797445
40
1
40
1
40
1
40
1
41
1
10
21.1240408957752
20
-3.6974077088386
30
0
41
1
10
21.0233441884892
20
-3.70009064004586
30
0
41
1
10
20.922625319556
20
-3.70160971098042
30
0
41
1
10
20.6227392567872
20
-3.70269722235437
30
0
41
1
10
20.4231401833632
20
-3.69877170939225
30
0
41
1
10
19.4279081167802
20
-3.65624102611719
30
0
41
1
10
18.639731719795
20
-3.54940136676757
30
0
41
1
10
17.4550737137137
20
-3.28946710708024
30
0
41
1
10
17.0596580577305
20
-3.18624846126201
30
0
41
1
10
16.2653202039512
20
-2.94855099888113
30
2E-16
41
1
10
15.8654965977261
20
-2.81367294897922
30
2E-16
41
1
10
14.6762189826941
20
-2.37281420456131
30
1E-16
41
1
10
13.8912742746143
20
-2.02946674755535
30
1E-16
41
1
10
12.7103304982279
20
-1.46512273031104
30
1E-16
41
1
10
12.3161550323175
20
-1.26866240275498
30
1E-16
41
1
10
11.7221670080716
20
-0.964730342833604
30
1E-16
41
1
10
11.5237071004761
20
-0.861898192919256
30
1E-16
41
1
10
11.125516590315
20
-0.653772344177582
30
0
41
1
10
10.9258081877371
20
-0.548487021627238
30
0
41
1
10
10.4477092711439
20
-0.295247284099844
30
0
41
1
10
10.1694695927046
20
-0.146707285525423
30
0
41
1
10
9.89190622129482
20
0.0014890156928971
30
0
0
SPLINE
5
C7
100
AcDbEntity
8
1
62
256
6
ByLayer
370
18
48
1
60
0
100
AcDbSpline
70
4
71
3
72
24
73
20
40
0
40
0
40
0
40
0
40
0.0848773722586477
40
0.0848773722586477
40
0.313658029193982
40
0.313658029193982
40
0.542438686129316
40
0.542438686129316
40
0.59963385036315
40
0.59963385036315
40
0.656829014596985
40
0.656829014596985
40
0.771219343064656
40
0.771219343064656
40
0.885609671532328
40
0.885609671532328
40
0.942804835766164
40
0.942804835766164
40
1
40
1
40
1
40
1
41
1
10
31.2371919370697
20
0.228869563962803
30
0
41
1
10
31.5293200782033
20
0.0730549099194491
30
0
41
1
10
31.8209930129443
20
-0.0831435192227161
30
0
41
1
10
32.8991538164401
20
-0.657978847287495
30
0
41
1
10
33.6858701385243
20
-1.07313396163551
30
1E-16
41
1
10
35.2803234751705
20
-1.8562782104483
30
1E-16
41
1
10
36.0721697105106
20
-2.21607858110815
30
1E-16
41
1
10
37.0677780891094
20
-2.60561213399936
30
2E-16
41
1
10
37.2671285574284
20
-2.68046408137692
30
2E-16
41
1
10
37.6641022421261
20
-2.82272705709713
30
2E-16
41
1
10
37.8620527621428
20
-2.89026588563547
30
2E-16
41
1
10
38.4547620987406
20
-3.08164701814934
30
2E-16
41
1
10
38.8483964152564
20
-3.19439777896812
30
0
41
1
10
39.635382233335
20
-3.38805838515469
30
0
41
1
10
40.0287211356884
20
-3.46892784309171
30
0
41
1
10
40.6201718265532
20
-3.56457546997254
30
0
41
1
10
40.8175640640127
20
-3.59218323166363
30
0
41
1
10
41.2131468285238
20
-3.63857990269369
30
0
41
1
10
41.411357972199
20
-3.6569800913804
30
0
41
1
10
41.6100816215896
20
-3.67163320834217
30
0
0
SPLINE
5
C8
100
AcDbEntity
8
1
62
256
6
ByLayer
370
18
48
1
60
0
100
AcDbSpline
70
4
71
3
72
30
73
26
40
0
40
0
40
0
40
0
40
0.124999999999987
40
0.124999999999987
40
0.187499999999985
40
0.187499999999985
40
0.249999999999984
40
0.249999999999984
40
0.312499999999982
40
0.312499999999982
40
0.374999999999981
40
0.374999999999981
40
0.437499999999979
40
0.437499999999979
40
0.499999999999978
40
0.499999999999978
40
0.562499999999976
40
0.562499999999976
40
0.624999999999975
40
0.624999999999975
40
0.749999999999983
40
0.749999999999983
40
0.874999999999992
40
0.874999999999992
40
1
40
1
40
1
40
1
41
1
10
42.9456142423927
20
0.0469494942328765
30
0
41
1
10
42.9267357551578
20
-0.015295517380622
30
0
41
1
10
42.9050310713774
20
-0.0761174702193159
30
0
41
1
10
42.8680751481631
20
-0.165062378167818
30
0
41
1
10
42.8548998903472
20
-0.194555853240303
30
0
41
1
10
42.8276725221673
20
-0.251187058713839
30
0
41
1
10
42.8136137391322
20
-0.27838449412522
30
0
41
1
10
42.7846265563381
20
-0.330473563709006
30
0
41
1
10
42.7696987535979
20
-0.355366711721956
30
0
41
1
10
42.7389289122298
20
-0.402643037863555
30
0
41
1
10
42.7231230899571
20
-0.424919018807998
30
0
41
1
10
42.6918707970319
20
-0.465004271613196
30
0
41
1
10
42.676266212268
20
-0.48306676340124
30
0
41
1
10
42.6450793983361
20
-0.51514931921335
30
0
41
1
10
42.6293550426824
20
-0.529257271720013
30
0
41
1
10
42.5989173497557
20
-0.552390768778565
30
0
41
1
10
42.5841308439528
20
-0.561531645639946
30
0
41
1
10
42.5553091000533
20
-0.575151636872647
30
0
41
1
10
42.5411689427381
20
-0.579632029772256
30
0
41
1
10
42.5007428548639
20
-0.585919286654701
30
0
41
1
10
42.4761203212547
20
-0.580776715918944
30
0
41
1
10
42.4313583404121
20
-0.554656514078431
30
0
41
1
10
42.411649612123
20
-0.534099413468709
30
0
41
1
10
42.3759704157757
20
-0.480653581567452
30
0
41
1
10
42.3600538364672
20
-0.447634818955038
30
0
41
1
10
42.3459797468689
20
-0.410065643025035
30
0
0
SPLINE
5
C9
100
AcDbEntity
8
1
62
256
6
ByLayer
370
18
48
1
60
0
100
AcDbSpline
70
4
71
3
72
58
73
54
40
0
40
0
40
0
40
0
40
0.0259568942831697
40
0.0259568942831697
40
0.0753067501629249
40
0.0753067501629249
40
0.12465660604268
40
0.12465660604268
40
0.149331533982558
40
0.149331533982558
40
0.174006461922436
40
0.174006461922436
40
0.223356317802193
40
0.223356317802193
40
0.248031245742071
40
0.248031245742071
40
0.272706173681949
40
0.272706173681949
40
0.322056029561705
40
0.322056029561705
40
0.346730957501583
40
0.346730957501583
40
0.371405885441461
40
0.371405885441461
40
0.470105597200972
40
0.470105597200972
40
0.49478052514085
40
0.49478052514085
40
0.519455453080728
40
0.519455453080728
40
0.568805308960483
40
0.568805308960483
40
0.593480236900361
40
0.593480236900361
40
0.618155164840238
40
0.618155164840238
40
0.667505020719993
40
0.667505020719993
40
0.716854876599748
40
0.716854876599748
40
0.766204732479503
40
0.766204732479503
40
0.815554588359258
40
0.815554588359258
40
0.840229516299135
40
0.840229516299135
40
0.864904444239013
40
0.864904444239013
40
0.914254300118769
40
0.914254300118769
40
0.963604155998524
40
0.963604155998524
40
1
40
1
40
1
40
1
41
1
10
6.55903437481879
20
3.72875901528559
30
0
41
1
10
6.76414250008182
20
3.76043566627189
30
0
41
1
10
6.96890749652064
20
3.7871450373122
30
0
41
1
10
7.56247481688837
20
3.85015849505163
30
0
41
1
10
7.95044850957504
20
3.87347874776904
30
0
41
1
10
8.72798332142764
20
3.88322146999806
30
0
41
1
10
9.11796940854214
20
3.86975366948028
30
0
41
1
10
9.70563508949607
20
3.82180069635334
30
0
41
1
10
9.9023873403977
20
3.80112043207805
30
0
41
1
10
10.2939804219011
20
3.75067379911846
30
0
41
1
10
10.4889859149496
20
3.72088090625792
30
0
41
1
10
11.0732283975543
20
3.61881577485235
30
0
41
1
10
11.4617423868981
20
3.53406283239789
30
0
41
1
10
12.0432147335504
20
3.38261156790026
30
0
41
1
10
12.2368361331866
20
3.32806362380202
30
-2E-16
41
1
10
12.6238250124948
20
3.21088346863982
30
-2E-16
41
1
10
12.8171566721128
20
3.14819313649647
30
-2E-16
41
1
10
13.3984648801048
20
2.94967393774266
30
-2E-16
41
1
10
13.7878316337556
20
2.8036827328344
30
-2E-16
41
1
10
14.3744666511489
20
2.56384388934882
30
-2E-16
41
1
10
14.570823058279
20
2.48030686654084
30
-2E-16
41
1
10
14.9629347030522
20
2.30680491454956
30
-1E-16
41
1
10
15.1580943694577
20
2.21707309869447
30
-1E-16
41
1
10
16.1328070736558
20
1.75889953026871
30
-1E-16
41
1
10
16.9060933412974
20
1.3574754703676
30
-1E-16
41
1
10
17.8748490560911
20
0.829908227609593
30
-1E-16
41
1
10
18.0687751402753
20
0.723219611862163
30
0
41
1
10
18.4569932754527
20
0.507477361542129
30
0
41
1
10
18.6511843848034
20
0.398226547899554
30
0
41
1
10
19.236330546887
20
0.0706033653999327
30
0
41
1
10
19.6303057396675
20
-0.149660646787254
30
0
41
1
10
20.218260724528
20
-0.47747209199818
30
0
41
1
10
20.413952461912
20
-0.586388534758441
30
0
41
1
10
20.8048339249679
20
-0.803340359390688
30
0
41
1
10
21.000120728576
20
-0.911199573134752
30
1E-16
41
1
10
21.5872724571709
20
-1.22987875307194
30
1E-16
41
1
10
21.9813382736519
20
-1.43704052190333
30
1E-16
41
1
10
22.7629455557379
20
-1.83463509401827
30
1E-16
41
1
10
23.1505215284918
20
-2.02632750112662
30
1E-16
41
1
10
23.9257032269233
20
-2.38547561113703
30
1E-16
41
1
10
24.3132302226321
20
-2.55325803094786
30
2E-16
41
1
10
25.0883941371055
20
-2.8651569547589
30
2E-16
41
1
10
25.4757809562492
20
-3.00946261499729
30
2E-16
41
1
10
26.0599110233477
20
-3.20392189335868
30
2E-16
41
1
10
26.2550100068977
20
-3.26521948118417
30
2E-16
41
1
10
26.6464830025051
20
-3.38013394497705
30
0
41
1
10
26.8430057239277
20
-3.43366711525215
30
0
41
1
10
27.4298179567353
20
-3.58070714899117
30
0
41
1
10
27.8191162318855
20
-3.66134820751631
30
0
41
1
10
28.5947210177428
20
-3.78805398865183
30
0
41
1
10
28.9803690169746
20
-3.83413673315354
30
0
41
1
10
29.6530367128793
20
-3.88194124159375
30
0
41
1
10
29.9391158797361
20
-3.89238962581638
30
0
41
1
10
30.2257557315339
20
-3.89290716051502
30
0
0
SPLINE
5
CA
100
AcDbEntity
8
1
62
256
6
ByLayer
370
18
48
1
60
0
100
AcDbSpline
70
4
71
3
72
10
73
6
40
0
40
0
40
0
40
0
40
0.5
40
0.5
40
1
40
1
40
1
40
1
41
1
10
41.6459685787014
20
-3.73834355970578
30
0
41
1
10
41.6333299249693
20
-3.74687487877824
30
0
41
1
10
41.6226004445151
20
-3.75055699989363
30
0
41
1
10
41.6043222090488
20
-3.74833207141748
30
0
41
1
10
41.5968314795622
20
-3.74247084200127
30
0
41
1
10
41.5904457938957
20
-3.73227021033165
30
0
0
SPLINE
5
CB
100
AcDbEntity
8
1
62
256
6
ByLayer
370
18
48
1
60
0
100
AcDbSpline
70
4
71
3
72
34
73
30
40
0
40
0
40
0
40
0
40
0.009764317863859
40
0.009764317863859
40
0.0647774113158652
40
0.0647774113158652
40
0.119790504767871
40
0.119790504767871
40
0.174803598219877
40
0.174803598219877
40
0.229816691671884
40
0.229816691671884
40
0.339842878575898
40
0.339842878575898
40
0.394855972027907
40
0.394855972027907
40
0.449869065479915
40
0.449869065479915
40
0.559895252383932
40
0.559895252383932
40
0.66992143928795
40
0.66992143928795
40
0.779947626191967
40
0.779947626191967
40
0.834960719643975
40
0.834960719643975
40
0.889973813095984
40
0.889973813095984
40
1
40
1
40
1
40
1
41
1
10
31.2503376280012
20
-0.325750727308162
30
0
41
1
10
31.2058238788585
20
-0.301776921009889
30
0
41
1
10
31.1613120695499
20
-0.277784476782074
30
0
41
1
10
30.8660337988112
20
-0.118524510827257
30
0
41
1
10
30.6152082992132
20
0.0172223305824559
30
0
41
1
10
30.1146692772267
20
0.28764811139709
30
0
41
1
10
29.8647080951266
20
0.422367875924266
30
0
41
1
10
29.364765687065
20
0.689632453222004
30
0
41
1
10
29.1147891401011
20
0.822180149588235
30
-1E-16
41
1
10
28.6141990446096
20
1.08400678452281
30
-1E-16
41
1
10
28.363241148974
20
1.21338882425823
30
-1E-16
41
1
10
27.6119881694051
20
1.59252995245856
30
-1E-16
41
1
10
27.1126653415161
20
1.83413688656253
30
-1E-16
41
1
10
26.361952888396
20
2.17306266449364
30
-1E-16
41
1
10
26.1111155571519
20
2.28227282044659
30
-1E-16
41
1
10
25.6099026986191
20
2.4911034769801
30
-2E-16
41
1
10
25.3598240642384
20
2.59067166747576
30
-2E-16
41
1
10
24.6098089688474
20
2.87301326361808
30
-2E-16
41
1
10
24.1102664186404
20
3.0400999535064
30
-2E-16
41
1
10
23.1070332375557
20
3.3255922248328
30
0
41
1
10
22.6074441730165
20
3.44294661164435
30
0
41
1
10
21.607398479178
20
3.62245040883016
30
0
41
1
10
21.1055600907619
20
3.68393622793002
30
0
41
1
10
20.3545441240037
20
3.73289188360013
30
0
41
1
10
20.1043264717606
20
3.74176494828453
30
0
41
1
10
19.6035439045875
20
3.74498751819354
30
0
41
1
10
19.352702982095
20
3.73927999301881
30
0
41
1
10
18.6009219913915
20
3.7000481352415
30
0
41
1
10
18.1010763173842
20
3.64393920986939
30
0
41
1
10
17.5999999999998
20
3.56004121825211
30
0
0
SPLINE
5
CC
100
AcDbEntity
8
1
62
256
6
ByLayer
370
18
48
1
60
0
100
AcDbSpline
70
4
71
3
72
20
73
16
40
0
40
0
40
0
40
0
40
0.250000000000001
40
0.250000000000001
40
0.500000000000002
40
0.500000000000002
40
0.562500000000003
40
0.562500000000003
40
0.625000000000005
40
0.625000000000005
40
0.750000000000003
40
0.750000000000003
40
0.875000000000002
40
0.875000000000002
40
1
40
1
40
1
40
1
41
1
10
41.6459685787013
20
3.73834355970587
30
0
41
1
10
41.7227316646071
20
3.52251410643083
30
0
41
1
10
41.7989151433721
20
3.30526383249008
30
0
41
1
10
41.9530436699838
20
2.86940292953346
30
0
41
1
10
42.0309787503149
20
2.65097997307666
30
0
41
1
10
42.130237989326
20
2.37896677141887
30
0
41
1
10
42.1501778463963
20
2.32461216998575
30
0
41
1
10
42.1902637841534
20
2.21600932928521
30
0
41
1
10
42.2102883025779
20
2.16169562460894
30
0
41
1
10
42.2716663994113
20
1.99944195970158
30
0
41
1
10
42.3147759235641
20
1.89232140216376
30
0
41
1
10
42.4044064921268
20
1.68584876694155
30
0
41
1
10
42.4511882011726
20
1.58585842476498
30
0
41
1
10
42.5496207191134
20
1.3925727481967
30
0
41
1
10
42.6016617334798
20
1.29864865125597
30
0
41
1
10
42.6550839753499
20
1.21040750356434
30
0
0
SPLINE
5
CD
100
AcDbEntity
8
1
62
256
6
ByLayer
370
18
48
1
60
0
100
AcDbSpline
70
4
71
3
72
36
73
32
40
0
40
0
40
0
40
0
40
0.496846734904224
40
0.496846734904224
40
0.663825569664618
40
0.663825569664618
40
0.775510078972498
40
0.775510078972498
40
0.850208413838714
40
0.850208413838714
40
0.900178397489803
40
0.900178397489803
40
0.933610904680935
40
0.933610904680935
40
0.955980561568432
40
0.955980561568432
40
0.970943538006683
40
0.970943538006683
40
0.980939899059123
40
0.980939899059123
40
0.987613151396496
40
0.987613151396496
40
0.992066053235459
40
0.992066053235459
40
0.995061024840461
40
0.995061024840461
40
0.997273237043318
40
0.997273237043318
40
0.999513874431148
40
0.999513874431148
40
1
40
1
40
1
40
1
41
1
10
41.4034641978471
20
-3.89905004023208
30
0
41
1
10
41.4424667660427
20
-3.87366447492133
30
0
41
1
10
41.481523650868
20
-3.84801430664973
30
0
41
1
10
41.5337912117135
20
-3.8133920863421
30
0
41
1
10
41.5469490904893
20
-3.80465110112789
30
0
41
1
10
41.5689341565255
20
-3.79000465744969
30
0
41
1
10
41.5777534274749
20
-3.78411815822534
30
0
41
1
10
41.5924831072946
20
-3.77426862371542
30
0
41
1
10
41.5983883875205
20
-3.77031504703422
30
0
41
1
10
41.6082371765844
20
-3.7637134856551
30
0
41
1
10
41.612182962611
20
-3.76106655903456
30
0
41
1
10
41.6187623599674
20
-3.75664942495197
30
0
41
1
10
41.621398064531
20
-3.75487897714393
30
0
41
1
10
41.6257934168536
20
-3.75192494575251
30
0
41
1
10
41.627553340652
20
-3.75074171139482
30
0
41
1
10
41.6304946856
20
-3.74876341979501
30
0
41
1
10
41.6316750031954
20
-3.74796935574963
30
0
41
1
10
41.6336491885398
20
-3.74664087091057
30
0
41
1
10
41.6344412942941
20
-3.74610774948994
30
0
41
1
10
41.6357652526748
20
-3.74521652095373
30
0
41
1
10
41.6362960909024
20
-3.74485914558261
30
0
41
1
10
41.6371826738924
20
-3.74426220951921
30
0
41
1
10
41.6375388661526
20
-3.74402236649732
30
0
41
1
10
41.6381297503706
20
-3.74362447780476
30
0
41
1
10
41.6383660741035
20
-3.74346533868655
30
0
41
1
10
41.6387674320855
20
-3.74319506771769
30
0
41
1
10
41.6389355058518
20
-3.74308188857435
30
0
41
1
10
41.6392559029018
20
-3.7428661449741
30
0
41
1
10
41.6394140908056
20
-3.74275963265578
30
0
41
1
10
41.639557759981
20
-3.74266291902111
30
0
41
1
10
41.6395813664749
20
-3.74264702695925
30
0
41
1
10
41.6396018169413
20
-3.7426332637701
30
0
0
SPLINE
5
CE
100
AcDbEntity
8
1
62
256
6
ByLayer
370
18
48
1
60
0
100
AcDbSpline
70
2053
71
3
72
54
73
50
40
0
40
0
40
0
40
0
40
0.0624999999999986
40
0.0624999999999986
40
0.124999999999997
40
0.124999999999997
40
0.187499999999996
40
0.187499999999996
40
0.249999999999994
40
0.249999999999994
40
0.281249999999993
40
0.281249999999993
40
0.312499999999992
40
0.312499999999992
40
0.343749999999991
40
0.343749999999991
40
0.374999999999989
40
0.374999999999989
40
0.406249999999988
40
0.406249999999988
40
0.437499999999987
40
0.437499999999987
40
0.49999999999999
40
0.49999999999999
40
0.562499999999992
40
0.562499999999992
40
0.593749999999993
40
0.593749999999993
40
0.624999999999994
40
0.624999999999994
40
0.656249999999996
40
0.656249999999996
40
0.687499999999997
40
0.687499999999997
40
0.718749999999998
40
0.718749999999998
40
0.749999999999999
40
0.749999999999999
40
0.812500000000001
40
0.812500000000001
40
0.843750000000001
40
0.843750000000001
40
0.875000000000002
40
0.875000000000002
40
0.906250000000003
40
0.906250000000003
40
0.937500000000004
40
0.937500000000004
40
1
40
1
40
1
40
1
41
1
10
42.1090454431642
20
-1.38331855689184
30
1E-16
41
1
10
42.0817337224093
20
-1.41436072954008
30
1E-16
41
1
10
42.0561444679456
20
-1.4345478836546
30
1E-16
41
1
10
42.0074161778129
20
-1.4538095425595
30
1E-16
41
1
10
41.9855445601359
20
-1.45233796436105
30
1E-16
41
1
10
41.9458675115019
20
-1.42640125009589
30
1E-16
41
1
10
41.9290633248232
20
-1.40259615889681
30
1E-16
41
1
10
41.9013043520225
20
-1.33184417021448
30
1E-16
41
1
10
41.8910622857244
20
-1.28678320802771
30
1E-16
41
1
10
41.8821374203998
20
-1.20371481059931
30
1E-16
41
1
10
41.8803771342389
20
-1.17438852609598
30
1E-16
41
1
10
41.8794443745151
20
-1.11251640074954
30
1E-16
41
1
10
41.880305996227
20
-1.07946871083075
30
1E-16
41
1
10
41.8850260390527
20
-1.01216219691153
30
1E-16
41
1
10
41.8888194833946
20
-0.978222717273212
30
1E-16
41
1
10
41.8995823707519
20
-0.909787488490053
30
1E-16
41
1
10
41.9065859755967
20
-0.875451869381095
30
1E-16
41
1
10
41.9232444879199
20
-0.810180151422315
30
0
41
1
10
41.9331221328758
20
-0.778362652881953
30
0
41
1
10
41.9550579113899
20
-0.71939037191791
30
0
41
1
10
41.9670645730386
20
-0.692203950668926
30
0
41
1
10
42.0061029315337
20
-0.617079413970117
30
0
41
1
10
42.0351581279077
20
-0.577702867298996
30
0
41
1
10
42.0946074314149
20
-0.520648419801489
30
0
41
1
10
42.1251557516451
20
-0.502808577634028
30
0
41
1
10
42.1688401957897
20
-0.491558349639661
30
0
41
1
10
42.183061933613
20
-0.490352755166185
30
0
41
1
10
42.2107012219884
20
-0.493023704152023
30
0
41
1
10
42.2241099340627
20
-0.496956907010514
30
0
41
1
10
42.2490858990746
20
-0.509792908417978
30
0
41
1
10
42.2607741250572
20
-0.518691451053911
30
0
41
1
10
42.2823261517203
20
-0.541780814109103
30
0
41
1
10
42.2922645565089
20
-0.556157657819597
30
0
41
1
10
42.3092834939177
20
-0.589877059307952
30
0
41
1
10
42.3164397965369
20
-0.609218194261558
30
0
41
1
10
42.3276606560926
20
-0.653491515108044
30
0
41
1
10
42.331651759227
20
-0.678433969640309
30
0
41
1
10
42.3378307087226
20
-0.758721097761025
30
0
41
1
10
42.3341466220389
20
-0.822441868379769
30
1E-16
41
1
10
42.3171333672803
20
-0.921688933092923
30
-1E-16
41
1
10
42.3094796416318
20
-0.956032179191311
30
-1E-16
41
1
10
42.2914643531197
20
-1.02291021071912
30
0
41
1
10
42.2809567987416
20
-1.05613618133418
30
0
41
1
10
42.2579065982357
20
-1.12025570322453
30
0
41
1
10
42.2455547289085
20
-1.15070678424289
30
0
41
1
10
42.2194858832135
20
-1.20871014263926
30
0
41
1
10
42.205865116511
20
-1.2359855491101
30
0
41
1
10
42.1647571215123
20
-1.31069228843796
30
1E-16
41
1
10
42.1363571639191
20
-1.35227638424359
30
1E-16
41
1
10
42.1090454431642
20
-1.38331855689184
30
1E-16
0
SPLINE
5
CF
100
AcDbEntity
8
1
62
256
6
ByLayer
370
18
48
1
60
0
100
AcDbSpline
70
4
71
3
72
8
73
4
40
0
40
0
40
0
40
0
40
1
40
1
40
1
40
1
41
1
10
42.6550839753499
20
-1.21040750356431
30
0
41
1
10
42.7720070978359
20
-0.879837270469437
30
0
41
1
10
42.8857960124755
20
-0.548145888087362
30
0
41
1
10
42.9964035526287
20
-0.215316484261763
30
0
0
SPLINE
5
D0
100
AcDbEntity
8
1
62
256
6
ByLayer
370
18
48
1
60
0
100
AcDbSpline
70
4
71
3
72
42
73
38
40
0
40
0
40
0
40
0
40
0.0573278252980313
40
0.0573278252980313
40
0.114655650596063
40
0.114655650596063
40
0.229311301192127
40
0.229311301192127
40
0.286639126490159
40
0.286639126490159
40
0.315303039139174
40
0.315303039139174
40
0.343966951788189
40
0.343966951788189
40
0.458622602384249
40
0.458622602384249
40
0.515950427682279
40
0.515950427682279
40
0.544614340331295
40
0.544614340331295
40
0.57327825298031
40
0.57327825298031
40
0.63060607827834
40
0.63060607827834
40
0.659269990927355
40
0.659269990927355
40
0.68793390357637
40
0.68793390357637
40
0.802589554172431
40
0.802589554172431
40
0.859917379470461
40
0.859917379470461
40
0.888581292119476
40
0.888581292119476
40
0.917245204768491
40
0.917245204768491
40
1
40
1
40
1
40
1
41
1
10
41.3889405757106
20
-3.84798204148277
30
0
41
1
10
40.992818462136
20
-3.81137485516041
30
0
41
1
10
40.5974369694973
20
-3.75594111384348
30
0
41
1
10
39.8055470455026
20
-3.60894163031637
30
0
41
1
10
39.4079873612429
20
-3.51700391513344
30
0
41
1
10
38.2232857712006
20
-3.19272592214006
30
2E-16
41
1
10
37.4407788780178
20
-2.91206551855836
30
2E-16
41
1
10
36.2615750175008
20
-2.4141865613517
30
1E-16
41
1
10
35.8676572547439
20
-2.23533604900081
30
1E-16
41
1
10
35.2733111586926
20
-1.95045724972661
30
1E-16
41
1
10
35.0747587292793
20
-1.85278771609526
30
1E-16
41
1
10
34.6796431386386
20
-1.65416326724679
30
1E-16
41
1
10
34.4826511775667
20
-1.5530052080581
30
1E-16
41
1
10
33.4996743624548
20
-1.03949135735104
30
1E-16
41
1
10
32.719557334789
20
-0.604096572104169
30
0
41
1
10
31.5426553538115
20
0.0570932747207848
30
0
41
1
10
31.1493096645938
20
0.278977578144151
30
0
41
1
10
30.5555878965044
20
0.610216288349704
30
0
41
1
10
30.3568809475543
20
0.7204130647049
30
0
41
1
10
29.9605741211449
20
0.938062564454555
30
-1E-16
41
1
10
29.7626501683974
20
1.04569552126708
30
-1E-16
41
1
10
29.1690604163829
20
1.3641710058146
30
-1E-16
41
1
10
28.7737163605299
20
1.57082495294694
30
-1E-16
41
1
10
28.1790544579783
20
1.86855177683353
30
-1E-16
41
1
10
27.9803963977383
20
1.96579573786937
30
-1E-16
41
1
10
27.5848723083797
20
2.15427446351018
30
-1E-16
41
1
10
27.3876784082121
20
2.24567539758215
30
-1E-16
41
1
10
26.4036840434408
20
2.68746442402906
30
-2E-16
41
1
10
25.623224315558
20
2.99277908398102
30
-2E-16
41
1
10
24.4464106963786
20
3.35893949642818
30
0
41
1
10
24.0530250534599
20
3.4656079289511
30
0
41
1
10
23.4592575004832
20
3.60024715126721
30
0
41
1
10
23.2604138518102
20
3.64099823774421
30
0
41
1
10
22.8646327752335
20
3.7130914428771
30
0
41
1
10
22.667347133839
20
3.74451023020214
30
0
41
1
10
21.9021320024837
20
3.84859270945208
30
0
41
1
10
21.3373226115945
20
3.88722765586073
30
0
41
1
10
20.7721406368556
20
3.8869953201509
30
0
0
SPLINE
5
D1
100
AcDbEntity
8
1
62
256
6
ByLayer
370
18
48
1
60
0
100
AcDbSpline
70
4
71
3
72
16
73
12
40
0
40
0
40
0
40
0
40
0.293394626968677
40
0.293394626968677
40
0.440091940453015
40
0.440091940453015
40
0.586789253937354
40
0.586789253937354
40
0.880183880906037
40
0.880183880906037
40
1
40
1
40
1
40
1
41
1
10
41.6396018169394
20
3.74263326377019
30
0
41
1
10
41.1394381981669
20
3.74746830046158
30
0
41
1
10
40.6401097616402
20
3.72298998234788
30
0
41
1
10
39.888674692784
20
3.64213275013313
30
0
41
1
10
39.6377526317419
20
3.60800753529207
30
0
41
1
10
39.1361739970426
20
3.52545956564626
30
0
41
1
10
38.8854375084261
20
3.47710543764006
30
0
41
1
10
38.1330877608226
20
3.31225030601934
30
0
41
1
10
37.6332464634496
20
3.17631897005941
30
0
41
1
10
36.928550254189
20
2.9511373782579
30
-1E-16
41
1
10
36.7239759434113
20
2.88169401318657
30
-1E-16
41
1
10
36.5192814356451
20
2.80847248955786
30
-1E-16
0
SPLINE
5
D2
100
AcDbEntity
8
1
62
256
6
ByLayer
370
18
48
1
60
0
100
AcDbSpline
70
4
71
3
72
8
73
4
40
0
40
0
40
0
40
0
40
1
40
1
40
1
40
1
41
1
10
42.0164998263921
20
1.07253059075953
30
0
41
1
10
42.2317287125618
20
1.10581774844977
30
0
41
1
10
42.4460717374905
20
1.14760212356791
30
0
41
1
10
42.6550839753499
20
1.21040750356431
30
0
0
SPLINE
5
D3
100
AcDbEntity
8
1
62
256
6
ByLayer
370
18
48
1
60
0
100
AcDbSpline
70
4
71
3
72
16
73
12
40
0
40
0
40
0
40
0
40
0.255095627917043
40
0.255095627917043
40
0.545585298171575
40
0.545585298171575
40
0.690830133298841
40
0.690830133298841
40
0.836074968426107
40
0.836074968426107
40
1
40
1
40
1
40
1
41
1
10
3.60202462745565
20
3.68153330695515
30
0
41
1
10
3.6020115987732
20
3.68144514669234
30
0
41
1
10
3.60199891350783
20
3.66770461641843
30
0
41
1
10
3.60197213221363
20
3.60930554774922
30
0
41
1
10
3.60195815251626
20
3.56076293717834
30
0
41
1
10
3.60193686272365
20
3.46252172820843
30
0
41
1
10
3.60192973472948
20
3.42565937423728
30
0
41
1
10
3.60191522406598
20
3.34374019649599
30
0
41
1
10
3.60190782177347
20
3.2985509781474
30
0
41
1
10
3.6018916872174
20
3.19429534833495
30
0
41
1
10
3.60188291256532
20
3.13426676316308
30
0
41
1
10
3.60187375831668
20
3.06946837201267
30
-1E-16
0
SPLINE
5
D4
100
AcDbEntity
8
1
62
256
6
ByLayer
370
18
48
1
60
0
100
AcDbSpline
70
4
71
3
72
8
73
4
40
0
40
0
40
0
40
0
40
1
40
1
40
1
40
1
41
1
10
17.6
20
3.71019533067596
30
0
41
1
10
17.6
20
3.66019795708152
30
0
41
1
10
17.6
20
3.61014627317684
30
0
41
1
10
17.6
20
3.56004121825211
30
0
0
SPLINE
5
D5
100
AcDbEntity
8
1
62
256
6
ByLayer
370
18
48
1
60
0
100
AcDbSpline
70
4
71
3
72
8
73
4
40
0
40
0
40
0
40
0
40
1
40
1
40
1
40
1
41
1
10
42.345979746869
20
-0.410065643024779
30
0
41
1
10
42.2076238514325
20
-0.0407403704886065
30
0
41
1
10
42.0311069025796
20
0.353716011132889
30
0
41
1
10
41.8172590976408
20
0.772756772182049
30
0
0
SPLINE
5
D6
100
AcDbEntity
8
1
62
256
6
ByLayer
370
18
48
1
60
0
100
AcDbSpline
70
4
71
3
72
40
73
36
40
0
40
0
40
0
40
0
40
0.0013277816571388
40
0.0013277816571388
40
0.107552535893559
40
0.107552535893559
40
0.160664913011769
40
0.160664913011769
40
0.213777290129979
40
0.213777290129979
40
0.266889667248189
40
0.266889667248189
40
0.320002044366399
40
0.320002044366399
40
0.373114421484609
40
0.373114421484609
40
0.426226798602819
40
0.426226798602819
40
0.53245155283924
40
0.53245155283924
40
0.585563929957449
40
0.585563929957449
40
0.63867630707566
40
0.63867630707566
40
0.69178868419387
40
0.69178868419387
40
0.74490106131208
40
0.74490106131208
40
0.851125815548498
40
0.851125815548498
40
0.904238192666708
40
0.904238192666708
40
0.957350569784917
40
0.957350569784917
40
1
40
1
40
1
40
1
41
1
10
8.32598313422341
20
3.69479359129187
30
0
41
1
10
8.33082734834227
20
3.69486261058205
30
0
41
1
10
8.33567158431808
20
3.6949287341302
30
0
41
1
10
8.72806505953167
20
3.70004941752671
30
0
41
1
10
9.11583592134917
20
3.68632693744215
30
0
41
1
10
9.69870885868627
20
3.64038288545737
30
0
41
1
10
9.89320876635105
20
3.62084119251
30
0
41
1
10
10.2826069760459
20
3.57373646994191
30
0
41
1
10
10.4774600243602
20
3.54625069488239
30
0
41
1
10
10.8686198415744
20
3.48210780682112
30
0
41
1
10
11.0654224235304
20
3.44525158221592
30
0
41
1
10
11.4582318665421
20
3.36321746478075
30
0
41
1
10
11.6540443924011
20
3.31811609403991
30
0
41
1
10
12.0446696001474
20
3.22064818410681
30
0
41
1
10
12.2394851876791
20
3.16829969592419
30
0
41
1
10
12.6282237229202
20
3.05676850979785
30
-2E-16
41
1
10
12.822109855206
20
2.99763190386221
30
-2E-16
41
1
10
13.4038033844219
20
2.80930398011813
30
-2E-16
41
1
10
13.7918183996576
20
2.66898015840093
30
-2E-16
41
1
10
14.3743149493761
20
2.44115458817083
30
-1E-16
41
1
10
14.5685837697535
20
2.36226695540549
30
-1E-16
41
1
10
14.9572031910145
20
2.19899630272209
30
-1E-16
41
1
10
15.1515023283802
20
2.11463000061559
30
-1E-16
41
1
10
15.5415841407426
20
1.94039622686031
30
-1E-16
41
1
10
15.7372138544055
20
1.85060855976238
30
-1E-16
41
1
10
16.1297093684409
20
1.66619967588275
30
-1E-16
41
1
10
16.326554135618
20
1.57156000104263
30
-1E-16
41
1
10
16.914588284033
20
1.2837297064722
30
-1E-16
41
1
10
17.3049131862967
20
1.08586575067477
30
-1E-16
41
1
10
17.8891334329544
20
0.782791807277249
30
0
41
1
10
18.0837276607639
20
0.680800038083504
30
0
41
1
10
18.4726248501882
20
0.47500742116469
30
0
41
1
10
18.6668297456425
20
0.371066240805476
30
0
41
1
10
19.017867024516
20
0.183829581586281
30
0
41
1
10
19.174429872993
20
0.100371001412753
30
0
41
1
10
19.3312148851225
20
0.0168731425200406
30
0
0
SPLINE
5
D7
100
AcDbEntity
8
1
62
256
6
ByLayer
370
18
48
1
60
0
100
AcDbSpline
70
4
71
3
72
24
73
20
40
0
40
0
40
0
40
0
40
0.0595947608179304
40
0.0595947608179304
40
0.119189521635861
40
0.119189521635861
40
0.23837904327172
40
0.23837904327172
40
0.357568564907578
40
0.357568564907578
40
0.417163325725509
40
0.417163325725509
40
0.476758086543439
40
0.476758086543439
40
0.715137129815159
40
0.715137129815159
40
0.953516173086879
40
0.953516173086879
40
1
40
1
40
1
40
1
41
1
10
41.6074970829033
20
-3.68285995121804
30
0
41
1
10
41.4088020870254
20
-3.66841118857471
30
0
41
1
10
41.2105538371193
20
-3.65027712481626
30
0
41
1
10
40.814962054328
20
-3.60430976083245
30
0
41
1
10
40.6175665737543
20
-3.5769010284672
30
0
41
1
10
40.0261073602261
20
-3.48180431809951
30
0
41
1
10
39.632764133531
20
-3.40124060241112
30
0
41
1
10
38.8457690486568
20
-3.2080634396396
30
0
41
1
10
38.452132118326
20
-3.0954882975908
30
2E-16
41
1
10
37.8594101128119
20
-2.90426311583568
30
2E-16
41
1
10
37.6614529143313
20
-2.83675913624887
30
2E-16
41
1
10
37.2644603860976
20
-2.69452919423844
30
2E-16
41
1
10
37.0650968581274
20
-2.61967529106016
30
2E-16
41
1
10
36.0693925202625
20
-2.23003154887073
30
1E-16
41
1
10
35.2775302385498
20
-1.86987149627382
30
1E-16
41
1
10
33.6829018847674
20
-1.08543230188408
30
1E-16
41
1
10
32.8961563030236
20
-0.669395722339402
30
0
41
1
10
31.9563732531703
20
-0.167075624754744
30
0
41
1
10
31.803043177616
20
-0.0849210787463335
30
0
41
1
10
31.6496579773757
20
-0.0027302583128801
30
0
0
SPLINE
5
D8
100
AcDbEntity
8
1
62
256
6
ByLayer
370
18
48
1
60
0
100
AcDbSpline
70
4
71
3
72
20
73
16
40
0
40
0
40
0
40
0
40
0.16475607686781
40
0.16475607686781
40
0.298785571599175
40
0.298785571599175
40
0.432815066330541
40
0.432815066330541
40
0.566844561061907
40
0.566844561061907
40
0.700874055793273
40
0.700874055793273
40
0.968933045256004
40
0.968933045256004
40
1
40
1
40
1
40
1
41
1
10
3.60219679646679
20
-2.966346288496
30
2E-16
41
1
10
3.60218839427554
20
-3.0423033995514
30
2E-16
41
1
10
3.60217948288832
20
-3.11280869420358
30
1E-16
41
1
10
3.60216278403914
20
-3.23007355756513
30
0
41
1
10
3.60215510031415
20
-3.27878900345343
30
0
41
1
10
3.60213947995106
20
-3.36843199198091
30
0
41
1
10
3.60213153581205
20
-3.40937080446659
30
0
41
1
10
3.60211565111632
20
-3.48263772505186
30
0
41
1
10
3.60210769189598
20
-3.51508292519287
30
0
41
1
10
3.60209180641371
20
-3.57159369409578
30
0
41
1
10
3.60208386129852
20
-3.59569419605279
30
0
41
1
10
3.60206034244393
20
-3.65467061043981
30
0
41
1
10
3.60204501974144
20
-3.67656564644801
30
0
41
1
10
3.60202833837428
20
-3.68126987936969
30
0
41
1
10
3.6020266122791
20
-3.68152045149142
30
0
41
1
10
3.60202489218671
20
-3.68153321975106
30
0
0
SPLINE
5
D9
100
AcDbEntity
8
1
62
256
6
ByLayer
370
18
48
1
60
0
100
AcDbSpline
70
4
71
3
72
24
73
20
40
0
40
0
40
0
40
0
40
0.108631532551558
40
0.108631532551558
40
0.161263100568466
40
0.161263100568466
40
0.213894668585375
40
0.213894668585375
40
0.319157804619189
40
0.319157804619189
40
0.529684076686821
40
0.529684076686821
40
0.634947212720636
40
0.634947212720636
40
0.740210348754452
40
0.740210348754452
40
0.95073662082208
40
0.95073662082208
40
1
40
1
40
1
40
1
41
1
10
9.50692199194324
20
0.21767163602334
30
0
41
1
10
9.91359190099101
20
0.0015047486960498
30
0
41
1
10
10.3212393511956
20
-0.216347917966345
30
0
41
1
10
10.9300439814259
20
-0.538043781655375
30
0
41
1
10
11.1297317237652
20
-0.643077477145539
30
0
41
1
10
11.5278904636571
20
-0.850733693538189
30
1E-16
41
1
10
11.7263370729817
20
-0.953346616543627
30
1E-16
41
1
10
12.3202922737108
20
-1.25666585970089
30
1E-16
41
1
10
12.7144572330308
20
-1.45277647324855
30
1E-16
41
1
10
13.8953651511026
20
-2.01627287295062
30
1E-16
41
1
10
14.6802932681867
20
-2.35929922524869
30
1E-16
41
1
10
15.8694857548335
20
-2.80008225163937
30
2E-16
41
1
10
16.2692683204584
20
-2.93499624462621
30
2E-16
41
1
10
17.0635536102595
20
-3.17291258755844
30
0
41
1
10
17.4589489944347
20
-3.27631121513031
30
0
41
1
10
18.6435544394134
20
-3.53697794464279
30
0
41
1
10
19.4316978859024
20
-3.6445618649685
30
0
41
1
10
20.4141030854459
20
-3.68774891230058
30
0
41
1
10
20.6008789795199
20
-3.69193982988423
30
0
41
1
10
20.7873028706216
20
-3.69207383794546
30
0
0
SPLINE
5
DA
100
AcDbEntity
8
1
62
256
6
ByLayer
370
18
48
1
60
0
100
AcDbSpline
70
4
71
3
72
10
73
6
40
0
40
0
40
0
40
0
40
0.5
40
0.5
40
1
40
1
40
1
40
1
41
1
10
3.50170976796409
20
-3.02315547846379
30
2E-16
41
1
10
3.50170976796409
20
-3.00120506354577
30
2E-16
41
1
10
3.52114167363106
20
-2.97968549647879
30
2E-16
41
1
10
3.58143151896513
20
-2.95707575519373
30
2E-16
41
1
10
3.6203372844837
20
-2.95685802036701
30
2E-16
41
1
10
3.65087718651085
20
-2.96796451134435
30
2E-16
0
SPLINE
5
DB
100
AcDbEntity
8
1
62
256
6
ByLayer
370
18
48
1
60
0
100
AcDbSpline
70
4
71
3
72
63
73
59
40
0
40
0
40
0
40
0
40
0.0625000000000042
40
0.0625000000000042
40
0.125000000000008
40
0.125000000000008
40
0.187500000000013
40
0.187500000000013
40
0.250000000000017
40
0.250000000000017
40
0.28125000000002
40
0.28125000000002
40
0.312500000000022
40
0.312500000000022
40
0.343750000000025
40
0.343750000000025
40
0.359375000000026
40
0.359375000000026
40
0.375000000000027
40
0.390625000000028
40
0.390625000000028
40
0.40625000000003
40
0.40625000000003
40
0.437500000000031
40
0.437500000000031
40
0.468750000000033
40
0.468750000000033
40
0.500000000000035
40
0.500000000000035
40
0.531250000000037
40
0.531250000000037
40
0.562500000000039
40
0.562500000000039
40
0.625000000000042
40
0.625000000000042
40
0.640625000000043
40
0.640625000000043
40
0.648437500000044
40
0.648437500000044
40
0.650390625000045
40
0.650390625000045
40
0.652343750000046
40
0.652343750000046
40
0.656250000000046
40
0.656250000000046
40
0.660156250000045
40
0.660156250000045
40
0.664062500000045
40
0.664062500000045
40
0.671875000000045
40
0.671875000000045
40
0.687500000000044
40
0.687500000000044
40
0.750000000000035
40
0.750000000000035
40
0.875000000000017
40
0.875000000000017
40
1
40
1
40
1
40
1
41
1
10
4.87788009736317
20
-3.045483246689
30
2E-16
41
1
10
4.65964891790424
20
-2.96974478243382
30
2E-16
41
1
10
4.44495057913042
20
-2.88684723360507
30
2E-16
41
1
10
4.02411587231077
20
-2.70325989514498
30
2E-16
41
1
10
3.8179514352972
20
-2.60263096492869
30
2E-16
41
1
10
3.41674116806959
20
-2.37780468915622
30
1E-16
41
1
10
3.22138319611923
20
-2.25362248781408
30
1E-16
41
1
10
2.84783451803114
20
-1.97105614370406
30
1E-16
41
1
10
2.67240177892654
20
-1.81512219718249
30
1E-16
41
1
10
2.43739311152569
20
-1.54699828107954
30
1E-16
41
1
10
2.36496963556902
20
-1.45307993411245
30
1E-16
41
1
10
2.23496867761128
20
-1.25383501139604
30
1E-16
41
1
10
2.17733881513502
20
-1.14854806099055
30
1E-16
41
1
10
2.0819831701817
20
-0.922701165890174
30
1E-16
41
1
10
2.04587459097661
20
-0.805670511367197
30
0
41
1
10
2.01243041135405
20
-0.623569782243493
30
0
41
1
10
2.00471744810684
20
-0.561336306253963
30
0
41
1
10
1.99703310211825
20
-0.43632327288509
30
0
41
1
10
1.9970461235649
20
-0.311727260501243
30
0
41
1
10
2.01208737592628
20
-0.187950166033886
30
0
41
1
10
2.03452824170739
20
-0.0645789447675611
30
0
41
1
10
2.04958612658618
20
-0.002723735291795
30
0
41
1
10
2.10439229989765
20
0.178135192321946
30
0
41
1
10
2.15364233394431
20
0.29326466706442
30
0
41
1
10
2.27275898823862
20
0.514711708716902
30
0
41
1
10
2.34154075362872
20
0.618909425775087
30
0
41
1
10
2.4911770901557
20
0.815089474466106
30
0
41
1
10
2.57235574819958
20
0.907553958703033
30
-1E-16
41
1
10
2.74472732833419
20
1.08366935707221
30
-1E-16
41
1
10
2.83589427285057
20
1.16716483868376
30
-1E-16
41
1
10
3.02274973348909
20
1.32411978180295
30
-1E-16
41
1
10
3.11892199368867
20
1.39806374597475
30
-1E-16
41
1
10
3.41402536953444
20
1.60911133554308
30
-1E-16
41
1
10
3.61946036903652
20
1.7355716635642
30
-1E-16
41
1
10
3.88399675145285
20
1.88121430185527
30
-1E-16
41
1
10
3.93729892603059
20
1.90970794793671
30
-1E-16
41
1
10
4.0178053496405
20
1.95156338270076
30
-1E-16
41
1
10
4.04472969359654
20
1.96536571282258
30
-1E-16
41
1
10
4.07846552749064
20
1.98242509745398
30
-1E-16
41
1
10
4.08521707314947
20
1.98582748248216
30
-1E-16
41
1
10
4.09872878431514
20
1.9926134169246
30
-1E-16
41
1
10
4.10546474693499
20
1.9961006506318
30
-1E-16
41
1
10
4.12678817911646
20
2.0042709927173
30
-1E-16
41
1
10
4.14231819176862
20
2.00690205884729
30
-1E-16
41
1
10
4.17317892952798
20
2.00825597478629
30
-1E-16
41
1
10
4.18882790397345
20
2.00707876960601
30
-1E-16
41
1
10
4.2192160909641
20
2.00167040639425
30
-1E-16
41
1
10
4.23412600681101
20
1.99769729228871
30
-1E-16
41
1
10
4.2789997319133
20
1.98664940400542
30
-1E-16
41
1
10
4.30888556017618
20
1.9791802436977
30
-1E-16
41
1
10
4.39845177909166
20
1.95646043121505
30
-1E-16
41
1
10
4.45803587092388
20
1.94089866123946
30
-1E-16
41
1
10
4.75533179442377
20
1.86099638730224
30
-1E-16
41
1
10
4.99099019254541
20
1.79040148350666
30
-1E-16
41
1
10
5.69096648964086
20
1.5586330564386
30
-1E-16
41
1
10
6.14902322024813
20
1.37673096422259
30
-1E-16
41
1
10
7.04467251799014
20
0.968536292187338
30
-1E-16
41
1
10
7.48337660064183
20
0.742069164884157
30
0
41
1
10
7.91769863796875
20
0.500572977017413
30
0
0
SPLINE
5
DC
100
AcDbEntity
8
1
62
256
6
ByLayer
370
18
48
1
60
0
100
AcDbSpline
70
4
71
3
72
16
73
12
40
0
40
0
40
0
40
0
40
0.125000000000005
40
0.125000000000005
40
0.250000000000011
40
0.250000000000011
40
0.500000000000007
40
0.500000000000007
40
0.750000000000004
40
0.750000000000004
40
1
40
1
40
1
40
1
41
1
10
41.8172590976408
20
0.772756772182078
30
0
41
1
10
41.7851862187463
20
0.776795080803595
30
0
41
1
10
41.7530028984984
20
0.778697960586243
30
0
41
1
10
41.6885891471125
20
0.779870638087345
30
0
41
1
10
41.6563586073824
20
0.779746481564445
30
0
41
1
10
41.5597232518937
20
0.773575924288593
30
0
41
1
10
41.4954093383055
20
0.762414457083764
30
0
41
1
10
41.367969833546
20
0.728680469676902
30
0
41
1
10
41.304801680722
20
0.706899011193002
30
0
41
1
10
41.1805346371043
20
0.650959211108528
30
0
41
1
10
41.1194761264284
20
0.616629838898547
30
0
41
1
10
41.0607752131711
20
0.576465662110593
30
0
0
SPLINE
5
DD
100
AcDbEntity
8
1
62
256
6
ByLayer
370
18
48
1
60
0
100
AcDbSpline
70
4
71
3
72
8
73
4
40
0
40
0
40
0
40
0
40
1
40
1
40
1
40
1
41
1
10
42.6550839753499
20
1.21040750356431
30
0
41
1
10
42.772007097838
20
0.879837270463298
30
0
41
1
10
42.8857960124797
20
0.548145888075027
30
0
41
1
10
42.9964035526349
20
0.215316484243175
30
0
0
SPLINE
5
DE
100
AcDbEntity
8
1
62
256
6
ByLayer
370
18
48
1
60
0
100
AcDbSpline
70
4
71
3
72
8
73
4
40
0
40
0
40
0
40
0
40
1
40
1
40
1
40
1
41
1
10
41.607497082903
20
-3.68285995121798
30
0
41
1
10
41.6017884487646
20
-3.69933077269766
30
0
41
1
10
41.5961045245992
20
-3.71580080810824
30
0
41
1
10
41.5904457938956
20
-3.73227021033176
30
0
0
SPLINE
5
DF
100
AcDbEntity
8
1
62
256
6
ByLayer
370
18
48
1
60
0
100
AcDbSpline
70
4
71
3
72
8
73
4
40
0
40
0
40
0
40
0
40
1
40
1
40
1
40
1
41
1
10
41.6396018169411
20
-3.74263326377013
30
0
41
1
10
41.6417240411735
20
-3.74120355252217
30
0
41
1
10
41.6438462949768
20
-3.73977365117889
30
0
41
1
10
41.6459685787016
20
-3.73834355970564
30
0
0
SPLINE
5
E0
100
AcDbEntity
8
1
62
256
6
ByLayer
370
18
48
1
60
0
100
AcDbSpline
70
4
71
3
72
63
73
59
40
0
40
0
40
0
40
0
40
0.0167873573793147
40
0.0167873573793147
40
0.0351597408384372
40
0.0351597408384372
40
0.0443459325679984
40
0.0443459325679984
40
0.044920069551096
40
0.044920069551096
40
0.0452071380426448
40
0.0452071380426448
40
0.0454942065341936
40
0.0454942065341936
40
0.0466424805003889
40
0.0466424805003889
40
0.0489390284327794
40
0.0489390284327794
40
0.0535321242975606
40
0.0535321242975606
40
0.0719045077566851
40
0.0719045077566851
40
0.108649274674934
40
0.108649274674934
40
0.182138808511432
40
0.182138808511432
40
0.329117876184428
40
0.329117876184428
40
0.402607410020926
40
0.402607410020926
40
0.439352176939175
40
0.439352176939175
40
0.4577245603983
40
0.4577245603983
40
0.462317656263081
40
0.462317656263081
40
0.466910752127862
40
0.466910752127862
40
0.467484889110959
40
0.467484889110959
40
0.467771957602508
40
0.467771957602508
40
0.468059026094057
40
0.468059026094057
40
0.468202560339832
40
0.468202560339832
40
0.468346094585606
40
0.468633163077155
40
0.469207300060253
40
0.471503847992646
40
0.47609694385743
40
0.623076011530536
40
0.623076011530536
40
0.770055079203643
40
0.770055079203643
40
0.91703414687675
40
0.91703414687675
40
1
40
1
40
1
40
1
41
1
10
7.42618751185063
20
0.777508384760836
30
0
41
1
10
7.38965524107743
20
0.782449062165711
30
0
41
1
10
7.35231442239134
20
0.784821749136512
30
0
41
1
10
7.27153867403572
20
0.784868933096448
30
0
41
1
10
7.22751043431938
20
0.782246483238623
30
0
41
1
10
7.15928716466397
20
0.774122212229003
30
0
41
1
10
7.1361743904389
20
0.770713419444462
30
0
41
1
10
7.11132111041905
20
0.766336425999214
30
0
41
1
10
7.10985801740949
20
0.766076174538938
30
0
41
1
10
7.10766172358146
20
0.765681625721527
30
0
41
1
10
7.10619520654967
20
0.765783204453243
30
0
41
1
10
7.10693662204369
20
0.764768359525704
30
0
41
1
10
7.10828550513654
20
0.76412184001407
30
0
41
1
10
7.11381174995125
20
0.761197142582347
30
0
41
1
10
7.11869532578163
20
0.758909763319195
30
0
41
1
10
7.13317744117387
20
0.752041223742452
30
0
41
1
10
7.14299713335384
20
0.747492140164269
30
0
41
1
10
7.17251649100479
20
0.733850574057897
30
0
41
1
10
7.19232546001652
20
0.724775437247786
30
0
41
1
10
7.29147331474994
20
0.679383997779524
30
0
41
1
10
7.37121384640508
20
0.643028345277884
30
0
41
1
10
7.61037972688643
20
0.53353908009521
30
0
41
1
10
7.7699894015598
20
0.460023151378976
30
0
41
1
10
8.24890830267165
20
0.237808233859027
30
0
41
1
10
8.56840776129988
20
0.0875845040449406
30
0
41
1
10
9.5261541712284
20
-0.370140523720409
30
0
41
1
10
10.1636918259423
20
-0.685152283149733
30
0
41
1
10
11.1203697844867
20
-1.1700637132368
30
0
41
1
10
11.4393314264564
20
-1.33355027708339
30
0
41
1
10
11.9172246603917
20
-1.58258174555894
30
0
41
1
10
12.0764553096317
20
-1.6661926426909
30
0
41
1
10
12.3150983347218
20
-1.79263665599433
30
0
41
1
10
12.3946417889865
20
-1.83490133630329
30
0
41
1
10
12.4937359698676
20
-1.88849436413562
30
0
41
1
10
12.5135360413556
20
-1.89925488871543
30
0
41
1
10
12.5530189336047
20
-1.92100975863087
30
0
41
1
10
12.5728467235747
20
-1.93177620317721
30
0
41
1
10
12.5944692890869
20
-1.94506247330901
30
0
41
1
10
12.596858672151
20
-1.94656063582349
30
0
41
1
10
12.6003743350477
20
-1.94892178471338
30
0
41
1
10
12.6015352584527
20
-1.9497252153219
30
0
41
1
10
12.6037786628287
20
-1.95143977066988
30
0
41
1
10
12.6054542891661
20
-1.95216708077999
30
0
41
1
10
12.6055814784995
20
-1.95436421418452
30
0
41
1
10
12.6044464419801
20
-1.95440999555035
30
0
41
1
10
12.6030289193574
20
-1.95464383304164
30
0
41
1
10
12.6009026451384
20
-1.95499457803084
30
0
41
1
10
12.595941406845
20
-1.9558129044249
30
0
41
1
10
12.5803493727034
20
-1.95838429245754
30
0
41
1
10
12.543498866201
20
-1.96445821403501
30
0
41
1
10
11.7839809206273
20
-2.08948039322874
30
0
41
1
10
11.0394199901627
20
-2.20838298376728
30
0
41
1
10
9.60370893514664
20
-2.42849264900355
30
0
41
1
10
8.88980034510013
20
-2.53331263851533
30
0
41
1
10
7.46912819686031
20
-2.73040713344204
30
-1E-16
41
1
10
6.76293309706449
20
-2.82266084050613
30
0
41
1
10
5.66558663301817
20
-2.95600971771827
30
2E-16
41
1
10
5.27107646775295
20
-3.00189797819527
30
2E-16
41
1
10
4.87791811650342
20
-3.04550897980818
30
2E-16
0
SPLINE
5
E1
100
AcDbEntity
8
1
62
256
6
ByLayer
370
18
48
1
60
0
100
AcDbSpline
70
4
71
3
72
14
73
10
40
0
40
0
40
0
40
0
40
0.2650026327567
40
0.2650026327567
40
0.49920882780517
40
0.49920882780517
40
0.779456626638447
40
0.779456626638447
40
1
40
1
40
1
40
1
41
1
10
41.1583128377291
20
-0.0225256990854916
30
0
41
1
10
41.1590543040334
20
-0.0229157440709287
30
0
41
1
10
41.1597753503532
20
-0.023672261035955
30
0
41
1
10
41.1609825239273
20
-0.0255094112756069
30
0
41
1
10
41.1615026356212
20
-0.0265666924783829
30
0
41
1
10
41.1624806147142
20
-0.0291436355240648
30
0
41
1
10
41.1629219405437
20
-0.0307528706764799
30
0
41
1
10
41.1634645686247
20
-0.0337901117080435
30
0
41
1
10
41.1636233799626
20
-0.0352185057779764
30
0
41
1
10
41.1636695091782
20
-0.0366394443008744
30
0
0
SPLINE
5
E2
100
AcDbEntity
8
1
62
256
6
ByLayer
370
18
48
1
60
0
100
AcDbSpline
70
4
71
3
72
50
73
46
40
0
40
0
40
0
40
0
40
0.0312500000000002
40
0.0312500000000002
40
0.0625000000000003
40
0.0625000000000003
40
0.125000000000001
40
0.125000000000001
40
0.156250000000001
40
0.156250000000001
40
0.187500000000001
40
0.187500000000001
40
0.218750000000001
40
0.218750000000001
40
0.250000000000001
40
0.250000000000001
40
0.312500000000002
40
0.312500000000002
40
0.343750000000002
40
0.343750000000002
40
0.375000000000002
40
0.375000000000002
40
0.437500000000002
40
0.437500000000002
40
0.500000000000003
40
0.500000000000003
40
0.562500000000003
40
0.562500000000003
40
0.625000000000003
40
0.625000000000003
40
0.687500000000004
40
0.687500000000004
40
0.750000000000004
40
0.750000000000004
40
0.781250000000003
40
0.781250000000003
40
0.812500000000003
40
0.812500000000003
40
0.843750000000002
40
0.843750000000002
40
0.875000000000002
40
0.875000000000002
40
0.937500000000001
40
0.937500000000001
40
1
40
1
40
1
40
1
41
1
10
17.6
20
3.69129706993545
30
0
41
1
10
17.8483054484293
20
3.73493669654673
30
0
41
1
10
18.0968055244282
20
3.77146905504682
30
0
41
1
10
18.5926182258202
20
3.82968759371394
30
0
41
1
10
18.8400159735788
20
3.8514050019732
30
0
41
1
10
19.5817790109525
20
3.89430739027574
30
0
41
1
10
20.0756306798169
20
3.89327438823105
30
0
41
1
10
20.8193145179617
20
3.84697100888718
30
0
41
1
10
21.0679276492432
20
3.82402620185951
30
0
41
1
10
21.5637513682461
20
3.76364562485642
30
0
41
1
10
21.8113154600767
20
3.72620264598322
30
0
41
1
10
22.3064484510317
20
3.63722302027358
30
0
41
1
10
22.5540148425828
20
3.58568731612158
30
0
41
1
10
23.049768000751
20
3.46888008493201
30
0
41
1
10
23.2983106892044
20
3.40349620032413
30
0
41
1
10
24.042370054594
20
3.18839125118413
30
-2E-16
41
1
10
24.5366850367893
20
3.01970922386792
30
-2E-16
41
1
10
25.279836743758
20
2.73347582798161
30
-2E-16
41
1
10
25.5281454016644
20
2.63239946056345
30
-2E-16
41
1
10
26.0244869357992
20
2.4206308726701
30
-1E-16
41
1
10
26.2721939894247
20
2.31008558550346
30
-1E-16
41
1
10
27.0148724863975
20
1.96589998613825
30
-1E-16
41
1
10
27.5095103750313
20
1.71961111632311
30
-1E-16
41
1
10
28.5026732681546
20
1.20222466863979
30
-1E-16
41
1
10
28.9987243246122
20
0.932493255511474
30
-1E-16
41
1
10
29.9918696790843
20
0.382409718994353
30
0
41
1
10
30.4884795918109
20
0.102199021592696
30
0
41
1
10
31.4816061534134
20
-0.455753962839282
30
0
41
1
10
31.9781231931085
20
-0.733407479081535
30
0
41
1
10
32.9712772419485
20
-1.27311373673166
30
1E-16
41
1
10
33.4680709586365
20
-1.53520495402429
30
1E-16
41
1
10
34.4604150827451
20
-2.03181280575006
30
1E-16
41
1
10
34.9566972025702
20
-2.26666468610787
30
1E-16
41
1
10
35.7007787900485
20
-2.58991815201651
30
2E-16
41
1
10
35.9491416318559
20
-2.69300248372801
30
2E-16
41
1
10
36.4448910645054
20
-2.88796354015258
30
2E-16
41
1
10
36.6923867907752
20
-2.97989879969614
30
2E-16
41
1
10
37.1872660127776
20
-3.15199649279796
30
2E-16
41
1
10
37.4346422684986
20
-3.23216686958128
30
2E-16
41
1
10
37.9299126594145
20
-3.38004615813696
30
0
41
1
10
38.1780584440751
20
-3.44781205505035
30
0
41
1
10
38.9224064401256
20
-3.63080446030193
30
0
41
1
10
39.4185868210277
20
-3.72566458938644
30
0
41
1
10
40.4106491586515
20
-3.85668218358546
30
0
41
1
10
40.90711879053
20
-3.8929440271944
30
0
41
1
10
41.4034641978478
20
-3.89905004024658
30
0
0
SPLINE
5
E3
100
AcDbEntity
8
1
62
256
6
ByLayer
370
18
48
1
60
0
100
AcDbSpline
70
4
71
3
72
8
73
4
40
0
40
0
40
0
40
0
40
1
40
1
40
1
40
1
41
1
10
41.0634528381985
20
0.0299509984383519
30
0
41
1
10
41.0952769855894
20
0.0114912830820515
30
0
41
1
10
41.1268840987598
20
-0.0059927535369297
30
0
41
1
10
41.1583128377292
20
-0.02252569908552
30
0
0
SPLINE
5
E4
100
AcDbEntity
8
1
62
256
6
ByLayer
370
18
48
1
60
0
100
AcDbSpline
70
4
71
3
72
14
73
10
40
0
40
0
40
0
40
0
40
0.0191648636419424
40
0.0191648636419424
40
0.346109909094628
40
0.346109909094628
40
0.673054954547314
40
0.673054954547314
40
1
40
1
40
1
40
1
41
1
10
41.5268894108483
20
0.88261510799191
30
0
41
1
10
41.5293465812817
20
0.884103550739724
30
0
41
1
10
41.5318222506201
20
0.88559600037496
30
0
41
1
10
41.5768681867195
20
0.912617395870825
30
0
41
1
10
41.6238787529287
20
0.939083380856403
30
0
41
1
10
41.7254032563552
20
0.988369015635413
30
0
41
1
10
41.7811499950136
20
1.01153461088967
30
0
41
1
10
41.8957413552528
20
1.04866982265412
30
0
41
1
10
41.955090168485
20
1.06303301353918
30
0
41
1
10
42.016499826392
20
1.07253059075956
30
0
0
SPLINE
5
E5
100
AcDbEntity
8
1
62
256
6
ByLayer
370
18
48
1
60
0
100
AcDbSpline
70
4
71
3
72
8
73
4
40
0
40
0
40
0
40
0
40
1
40
1
40
1
40
1
41
1
10
41.6396018169398
20
3.74263326377101
30
0
41
1
10
41.6417240411726
20
3.74120355252273
30
0
41
1
10
41.6438462949764
20
3.73977365117918
30
0
41
1
10
41.6459685787016
20
3.73834355970567
30
0
0
SPLINE
5
E6
100
AcDbEntity
8
1
62
256
6
ByLayer
370
18
48
1
60
0
100
AcDbSpline
70
4
71
3
72
18
73
14
40
0
40
0
40
0
40
0
40
0.235937545378812
40
0.235937545378812
40
0.431880265257818
40
0.431880265257818
40
0.629591329099979
40
0.629591329099979
40
0.801484010215432
40
0.801484010215432
40
0.966916602642701
40
0.966916602642701
40
1
40
1
40
1
40
1
41
1
10
41.6100816215895
20
-3.67163320834214
30
0
41
1
10
41.6101658316423
20
-3.67180635070125
30
0
41
1
10
41.6101919824161
20
-3.6721653032815
30
0
41
1
10
41.6101055508528
20
-3.67318216867903
30
0
41
1
10
41.6100139370891
20
-3.67379261967403
30
0
41
1
10
41.6097205710355
20
-3.67526663944989
30
0
41
1
10
41.6095122957504
20
-3.67615759326469
30
0
41
1
10
41.6090401775493
20
-3.67795063559924
30
0
41
1
10
41.6087807719938
20
-3.67886012089758
30
0
41
1
10
41.6082409512949
20
-3.68063186905599
30
0
41
1
10
41.6079552961325
20
-3.68151614385934
30
0
41
1
10
41.6076126379766
20
-3.68252488303463
30
0
41
1
10
41.6075548617166
20
-3.68269324504956
30
0
41
1
10
41.607497082903
20
-3.68285995121801
30
0
0
SPLINE
5
E7
100
AcDbEntity
8
1
62
256
6
ByLayer
370
18
48
1
60
0
100
AcDbSpline
70
4
71
3
72
60
73
56
40
0
40
0
40
0
40
0
40
0.0196099382757299
40
0.0196099382757299
40
0.101580654960365
40
0.101580654960365
40
0.142566013302683
40
0.142566013302683
40
0.163058692473842
40
0.163058692473842
40
0.183551371645
40
0.183551371645
40
0.224536729987318
40
0.224536729987318
40
0.265522088329636
40
0.265522088329636
40
0.306507446671954
40
0.306507446671954
40
0.347492805014271
40
0.347492805014271
40
0.388478163356589
40
0.388478163356589
40
0.429463521698906
40
0.429463521698906
40
0.470448880041223
40
0.470448880041223
40
0.51143423838354
40
0.51143423838354
40
0.531926917554699
40
0.531926917554699
40
0.552419596725857
40
0.552419596725857
40
0.593404955068174
40
0.593404955068174
40
0.63439031341049
40
0.63439031341049
40
0.675375671752806
40
0.675375671752806
40
0.716361030095123
40
0.716361030095123
40
0.75734638843744
40
0.75734638843744
40
0.798331746779756
40
0.798331746779756
40
0.839317105122072
40
0.839317105122072
40
0.85980978429323
40
0.85980978429323
40
0.880302463464388
40
0.880302463464388
40
0.921287821806704
40
0.921287821806704
40
0.96227318014902
40
0.96227318014902
40
1
40
1
40
1
40
1
41
1
10
37.0862009272339
20
-2.5785041579999
30
2E-16
41
1
10
36.9045741098403
20
-2.65509453848546
30
2E-16
41
1
10
36.7229849841425
20
-2.7290217800367
30
2E-16
41
1
10
35.7864978559659
20
-3.09589127011492
30
2E-16
41
1
10
35.0381800422376
20
-3.33831657826306
30
2E-16
41
1
10
33.9129935281645
20
-3.6094972241103
30
0
41
1
10
33.5372486882563
20
-3.68433650908727
30
0
41
1
10
32.9715548144305
20
-3.77216506026224
30
0
41
1
10
32.782565432162
20
-3.79731681528156
30
0
41
1
10
32.4033726617976
20
-3.83910547299209
30
0
41
1
10
32.2129464243575
20
-3.85573565110099
30
0
41
1
10
31.644474496107
20
-3.89232695277462
30
0
41
1
10
31.2680258036941
20
-3.89920831481683
30
0
41
1
10
30.5165584526557
20
-3.87854370661438
30
0
41
1
10
30.1417567697179
20
-3.8510594861192
30
0
41
1
10
29.3920666120719
20
-3.76238360560274
30
0
41
1
10
29.0167773027708
20
-3.70136679951187
30
0
41
1
10
28.2638249634533
20
-3.54640067121261
30
0
41
1
10
27.8858193809966
20
-3.45229074966116
30
0
41
1
10
27.1253871633455
20
-3.23307946958789
30
2E-16
41
1
10
26.747821388576
20
-3.10894703298879
30
2E-16
41
1
10
25.9952081325875
20
-2.83529149777874
30
2E-16
41
1
10
25.6199197792654
20
-2.68610372355079
30
2E-16
41
1
10
24.8701886317095
20
-2.36476285869398
30
1E-16
41
1
10
24.4953644954379
20
-2.1930941307352
30
1E-16
41
1
10
23.7432887746441
20
-1.83141847206662
30
1E-16
41
1
10
23.3664805146108
20
-1.6406891093475
30
1E-16
41
1
10
22.7975443615906
20
-1.3435481974422
30
1E-16
41
1
10
22.6070361160628
20
-1.24254143824066
30
1E-16
41
1
10
22.2278811827409
20
-1.0389602242312
30
1E-16
41
1
10
22.0389743355438
20
-0.935975198054791
30
1E-16
41
1
10
21.4733692890429
20
-0.625066227312658
30
0
41
1
10
21.0977084829767
20
-0.415330097774444
30
0
41
1
10
20.3472657694571
20
0.0055482035402861
30
0
41
1
10
19.9727524676561
20
0.217177843764858
30
0
41
1
10
19.2215823656718
20
0.636354517701335
30
0
41
1
10
18.8452931951282
20
0.844569077687311
30
-1E-16
41
1
10
18.0888844272915
20
1.25385201072342
30
-1E-16
41
1
10
17.7072369036305
20
1.45484392967001
30
-1E-16
41
1
10
16.9511673000286
20
1.83962809540978
30
-1E-16
41
1
10
16.5750254600386
20
2.0235764940434
30
-1E-16
41
1
10
15.8237957829995
20
2.37079734326349
30
-1E-16
41
1
10
15.4491361166553
20
2.53470082965467
30
-2E-16
41
1
10
14.6986200339702
20
2.83869812344722
30
-2E-16
41
1
10
14.3227005516005
20
2.97876365995933
30
-2E-16
41
1
10
13.7567509091792
20
3.16934040669446
30
-2E-16
41
1
10
13.5676769925605
20
3.22951526825841
30
-2E-16
41
1
10
13.1883159814512
20
3.34269945016808
30
0
41
1
10
12.9977241861605
20
3.39575773529151
30
0
41
1
10
12.4286797066256
20
3.54254077263934
30
0
41
1
10
12.0518929533999
20
3.62453710456342
30
0
41
1
10
11.2997522813856
20
3.75498510860433
30
0
41
1
10
10.9246782620265
20
3.80367646722172
30
0
41
1
10
10.2042855450832
20
3.86474357811952
30
0
41
1
10
9.85862253792482
20
3.87963515681673
30
0
41
1
10
9.51208650240753
20
3.87994259833099
30
0
0
SPLINE
5
E8
100
AcDbEntity
8
1
62
256
6
ByLayer
370
18
48
1
60
0
100
AcDbSpline
70
4
71
3
72
10
73
6
40
0
40
0
40
0
40
0
40
0.195616262215471
40
0.195616262215471
40
1
40
1
40
1
40
1
41
1
10
14.5925887811307
20
2.87883794245639
30
-2E-16
41
1
10
14.7898642289721
20
2.95321974177497
30
-2E-16
41
1
10
14.987577276503
20
3.02422970514385
30
-2E-16
41
1
10
15.9972927120941
20
3.3676106697846
30
0
41
1
10
16.7983895230134
20
3.57620808034414
30
0
41
1
10
17.6
20
3.71019533067417
30
0
0
SPLINE
5
E9
100
AcDbEntity
8
1
62
256
6
ByLayer
370
18
48
1
60
0
100
AcDbSpline
70
4
71
3
72
8
73
4
40
0
40
0
40
0
40
0
40
1
40
1
40
1
40
1
41
1
10
41.3889405757069
20
-3.84798204148385
30
0
41
1
10
41.3941300645429
20
-3.87798995729619
30
0
41
1
10
41.3989440011404
20
-3.89522049554824
30
0
41
1
10
41.4034641978257
20
-3.89905004024663
30
0
0
SPLINE
5
EA
100
AcDbEntity
8
1
62
256
6
ByLayer
370
18
48
1
60
0
100
AcDbSpline
70
4
71
3
72
28
73
24
40
0
40
0
40
0
40
0
40
0.0667599834678844
40
0.0667599834678844
40
0.170453318638119
40
0.170453318638119
40
0.274146653808354
40
0.274146653808354
40
0.37783998897859
40
0.37783998897859
40
0.429686656563707
40
0.429686656563707
40
0.481533324148824
40
0.481533324148824
40
0.58522665931906
40
0.58522665931906
40
0.688919994489295
40
0.688919994489295
40
0.79261332965953
40
0.79261332965953
40
0.896306664829765
40
0.896306664829765
40
1
40
1
40
1
40
1
41
1
10
29.8364246874509
20
3.70091487894695
30
0
41
1
10
30.0889313353734
20
3.70821407975711
30
0
41
1
10
30.340783157018
20
3.70785562238555
30
0
41
1
10
30.9814176727872
20
3.69000167867355
30
0
41
1
10
31.3689117901977
20
3.66445320853197
30
0
41
1
10
32.1449860323162
20
3.57438366221575
30
0
41
1
10
32.5330701558579
20
3.51174973164177
30
0
41
1
10
33.3109816778218
20
3.35426525127107
30
0
41
1
10
33.7000872328418
20
3.26038360699013
30
0
41
1
10
34.2881943230463
20
3.09423144760478
30
-2E-16
41
1
10
34.4851806501696
20
3.03469560460937
30
-2E-16
41
1
10
34.8782639591284
20
2.90874451868345
30
-2E-16
41
1
10
35.0745429952073
20
2.84227192493205
30
-2E-16
41
1
10
35.6628443591551
20
2.63314126404546
30
-2E-16
41
1
10
36.0541345506744
20
2.48092306266821
30
-2E-16
41
1
10
36.8397569944243
20
2.15234169127029
30
-1E-16
41
1
10
37.2337669581403
20
1.97643754132028
30
-1E-16
41
1
10
38.0182478490578
20
1.60851597979172
30
-1E-16
41
1
10
38.4093867264864
20
1.41599683495116
30
-1E-16
41
1
10
39.1945086673605
20
1.01876147136744
30
-1E-16
41
1
10
39.5887352833709
20
0.813743313528619
30
0
41
1
10
40.3741881721096
20
0.398844947386038
30
0
41
1
10
40.7660847300572
20
0.18851727827672
30
0
41
1
10
41.1583128377292
20
-0.0225256990854916
30
0
0
SPLINE
5
EB
100
AcDbEntity
8
1
62
256
6
ByLayer
370
18
48
1
60
0
100
AcDbSpline
70
4
71
3
72
28
73
24
40
0
40
0
40
0
40
0
40
0.107055888084996
40
0.107055888084996
40
0.214111776169993
40
0.214111776169993
40
0.32116766425499
40
0.32116766425499
40
0.428223552339986
40
0.428223552339986
40
0.535279440424983
40
0.535279440424983
40
0.588807384467481
40
0.588807384467481
40
0.64233532850998
40
0.64233532850998
40
0.749391216594973
40
0.749391216594973
40
0.856447104679967
40
0.856447104679967
40
0.963502992764961
40
0.963502992764961
40
1
40
1
40
1
40
1
41
1
10
41.1636695091941
20
-0.0366394443093725
30
0
41
1
10
40.771337611318
20
0.173887690618784
30
0
41
1
10
40.3793448707043
20
0.38376215225469
30
0
41
1
10
39.5937248187629
20
0.797886957520802
30
0
41
1
10
39.1994085557549
20
1.0025888480005
30
-1E-16
41
1
10
38.4140669647251
20
1.39938922090496
30
-1E-16
41
1
10
38.0228231002349
20
1.59176356381729
30
-1E-16
41
1
10
37.2381652713024
20
1.95951601833514
30
-1E-16
41
1
10
36.8440809455393
20
2.13540361407064
30
-1E-16
41
1
10
36.0582385251788
20
2.46416300368611
30
-2E-16
41
1
10
35.6668420970016
20
2.61654483375912
30
-2E-16
41
1
10
35.0784049751504
20
2.82599911478181
30
-2E-16
41
1
10
34.8820835916916
20
2.89259854355336
30
-2E-16
41
1
10
34.4889211432056
20
3.01884004854145
30
-2E-16
41
1
10
34.2918800070949
20
3.0785445292359
30
-2E-16
41
1
10
33.7035737860419
20
3.2452721562714
30
0
41
1
10
33.3143356468412
20
3.33958754147812
30
0
41
1
10
32.5361805400375
20
3.49803105450511
30
0
41
1
10
32.1479757915139
20
3.56120962013355
30
0
41
1
10
31.3716781724657
20
3.65249790137113
30
0
41
1
10
30.9840742777395
20
3.67868955772434
30
0
41
1
10
30.4613680826286
20
3.69414832208562
30
0
41
1
10
30.3282204227417
20
3.69622600533756
30
0
41
1
10
30.1948529233289
20
3.69629885329294
30
0
0
SPLINE
5
EC
100
AcDbEntity
8
1
62
256
6
ByLayer
370
18
48
1
60
0
100
AcDbSpline
70
4
71
3
72
18
73
14
40
0
40
0
40
0
40
0
40
0.242013485743605
40
0.242013485743605
40
0.363020228615409
40
0.363020228615409
40
0.484026971487214
40
0.484026971487214
40
0.726040457230819
40
0.726040457230819
40
0.968053942974423
40
0.968053942974423
40
1
40
1
40
1
40
1
41
1
10
3.65087718651085
20
-2.96796451134435
30
2E-16
41
1
10
4.04276258029176
20
-3.11048204746186
30
2E-16
41
1
10
4.43445969040738
20
-3.23719014547075
30
2E-16
41
1
10
5.02271080534382
20
-3.40322908948517
30
0
41
1
10
5.21889089619381
20
-3.45458330332238
30
0
41
1
10
5.6114412657605
20
-3.54921830279426
30
0
41
1
10
5.80783143608102
20
-3.59242300151928
30
0
41
1
10
6.39492402207244
20
-3.70824074585471
30
0
41
1
10
6.78452432369343
20
-3.76757081064892
30
0
41
1
10
7.56247481688837
20
-3.85015849505163
30
0
41
1
10
7.95044850957507
20
-3.87347874776904
30
0
41
1
10
8.39053365790423
20
-3.87899313412439
30
0
41
1
10
8.44187263497622
20
-3.87931661227333
30
0
41
1
10
8.49323416314365
20
-3.87932017144669
30
0
0
SPLINE
5
ED
100
AcDbEntity
8
1
62
256
6
ByLayer
370
18
48
1
60
0
100
AcDbSpline
70
4
71
3
72
36
73
32
40
0
40
0
40
0
40
0
40
0.0102573119055366
40
0.0102573119055366
40
0.100233919914126
40
0.100233919914126
40
0.190210527922715
40
0.190210527922715
40
0.235198831927009
40
0.235198831927009
40
0.280187135931304
40
0.280187135931304
40
0.370163743939893
40
0.370163743939893
40
0.415152047944187
40
0.415152047944187
40
0.46014035194848
40
0.46014035194848
40
0.550116959957067
40
0.550116959957067
40
0.640093567965653
40
0.640093567965653
40
0.73007017597424
40
0.73007017597424
40
0.775058479978534
40
0.775058479978534
40
0.820046783982827
40
0.820046783982827
40
0.910023391991414
40
0.910023391991414
40
1
40
1
40
1
40
1
41
1
10
28.0742315486683
20
3.70236028205591
30
0
41
1
10
28.1184804233559
20
3.7100319930878
30
0
41
1
10
28.1627092442871
20
3.71747888363242
30
0
41
1
10
28.5947210177428
20
3.78805398865183
30
0
41
1
10
28.9803690169746
20
3.83413673315354
30
0
41
1
10
29.7546598302478
20
3.88916329670587
30
0
41
1
10
30.1428290670659
20
3.89858032292304
30
0
41
1
10
30.7266329045027
20
3.88523239157803
30
0
41
1
10
30.9215058851933
20
3.87617705112055
30
0
41
1
10
31.3119866345016
20
3.8485750555738
30
0
41
1
10
31.5081216183489
20
3.83000759716916
30
0
41
1
10
32.0962909236481
20
3.76091315369288
30
0
41
1
10
32.4875867730862
20
3.69682262341035
30
0
41
1
10
33.0746614605101
20
3.57461655054624
30
0
41
1
10
33.2702513945338
20
3.52944022802174
30
0
41
1
10
33.6617260421993
20
3.43042929062597
30
0
41
1
10
33.858071489091
20
3.37658609179769
30
0
41
1
10
34.4455925623171
20
3.2039703144691
30
-2E-16
41
1
10
34.8351127052426
20
3.07405115133582
30
-2E-16
41
1
10
35.6111745450123
20
2.78665870644471
30
-2E-16
41
1
10
35.9975232689039
20
2.62882786557219
30
-2E-16
41
1
10
36.7718391313043
20
2.29165240360842
30
-1E-16
41
1
10
37.1593895268929
20
2.11184216768515
30
-1E-16
41
1
10
37.7423018869348
20
1.82650139036457
30
-1E-16
41
1
10
37.9368505284382
20
1.72873862440826
30
-1E-16
41
1
10
38.3269220088879
20
1.5285810565953
30
-1E-16
41
1
10
38.5227972322813
20
1.426194258751
30
-1E-16
41
1
10
39.1111701515139
20
1.11492013678384
30
-1E-16
41
1
10
39.5021026016712
20
0.902439863239181
30
-1E-16
41
1
10
40.2829001412
20
0.470360512924827
30
0
41
1
10
40.6727401009758
20
0.250707804548682
30
0
41
1
10
41.0634528381985
20
0.0299509984383235
30
0
0
SPLINE
5
EE
100
AcDbEntity
8
1
62
256
6
ByLayer
370
18
48
1
60
0
100
AcDbSpline
70
4
71
3
72
10
73
6
40
0
40
0
40
0
40
0
40
0.723690348184758
40
0.723690348184758
40
1
40
1
40
1
40
1
41
1
10
41.8172590976408
20
0.772756772182049
30
0
41
1
10
41.7812146539324
20
0.791146830152996
30
0
41
1
10
41.746781115282
20
0.807048219881551
30
0
41
1
10
41.7021882061963
20
0.824405390237018
30
-1E-16
41
1
10
41.6902146650394
20
0.828663861834684
30
-1E-16
41
1
10
41.6784342998658
20
0.832623898132056
30
-1E-16
0
SPLINE
5
EF
100
AcDbEntity
8
1
62
256
6
ByLayer
370
18
48
1
60
0
100
AcDbSpline
70
4
71
3
72
8
73
4
40
0
40
0
40
0
40
0
40
1
40
1
40
1
40
1
41
1
10
41.3889405757095
20
-3.84798204148086
30
0
41
1
10
41.4559143786326
20
-3.81026403230601
30
0
41
1
10
41.5230723951825
20
-3.77168680343618
30
0
41
1
10
41.5904457938955
20
-3.73227021033173
30
0
0
SPLINE
5
F0
100
AcDbEntity
8
1
62
256
6
ByLayer
370
18
48
1
60
0
100
AcDbSpline
70
4
71
3
72
38
73
34
40
0
40
0
40
0
40
0
40
0.0750585851792824
40
0.0750585851792824
40
0.12707418461998
40
0.12707418461998
40
0.179089784060678
40
0.179089784060678
40
0.283120982942074
40
0.283120982942074
40
0.335136582382773
40
0.335136582382773
40
0.387152181823471
40
0.387152181823471
40
0.43916778126417
40
0.43916778126417
40
0.491183380704869
40
0.491183380704869
40
0.595214579586264
40
0.595214579586264
40
0.647230179026961
40
0.647230179026961
40
0.699245778467659
40
0.699245778467659
40
0.751261377908356
40
0.751261377908356
40
0.803276977349053
40
0.803276977349053
40
0.85529257678975
40
0.85529257678975
40
0.907308176230447
40
0.907308176230447
40
1
40
1
40
1
40
1
41
1
10
19.7062575692247
20
-0.193494599446438
30
0
41
1
10
19.4237960912633
20
-0.0437555181716789
30
0
41
1
10
19.1420541221818
20
0.105962780975034
30
0
41
1
10
18.6662743369375
20
0.359110542688882
30
0
41
1
10
18.472012019542
20
0.462840461307223
30
0
41
1
10
18.0830008692722
20
0.668226995751439
30
0
41
1
10
17.8883524605861
20
0.770031824130598
30
0
41
1
10
17.3039741836592
20
1.07258642050309
30
-1E-16
41
1
10
16.9135497471647
20
1.27015426259049
30
-1E-16
41
1
10
16.3253856278544
20
1.55763591972738
30
-1E-16
41
1
10
16.1285013818647
20
1.65217163614
30
-1E-16
41
1
10
15.7358950113017
20
1.83642162685334
30
-1E-16
41
1
10
15.5402083558178
20
1.92614742849332
30
-1E-16
41
1
10
15.1500106777379
20
2.10029571056634
30
-1E-16
41
1
10
14.9556514197684
20
2.18463563936862
30
-1E-16
41
1
10
14.5669088760121
20
2.34786039264603
30
-1E-16
41
1
10
14.372580310047
20
2.42674344389334
30
-1E-16
41
1
10
13.7899080981543
20
2.65460682164024
30
-2E-16
41
1
10
13.4017833810746
20
2.7950276055121
30
-2E-16
41
1
10
12.8199263981072
20
2.98359859707509
30
-2E-16
41
1
10
12.6259816446068
20
3.0428211544139
30
-2E-16
41
1
10
12.2371304501961
20
3.15454725199976
30
0
41
1
10
12.0422618342388
20
3.20700815890072
30
0
41
1
10
11.6515372591843
20
3.30473048391974
30
0
41
1
10
11.4556791375833
20
3.34997507725012
30
0
41
1
10
11.0627857043449
20
3.4323269038722
30
0
41
1
10
10.8659326615856
20
3.46936119299161
30
0
41
1
10
10.4746657432223
20
3.53388281636694
30
0
41
1
10
10.2797541035014
20
3.5615650607441
30
0
41
1
10
9.89023779163398
20
3.60908287545979
30
0
41
1
10
9.69567951125683
20
3.62884393197919
30
0
41
1
10
9.15500062937676
20
3.67209064255732
30
0
41
1
10
8.8093168750321
20
3.68640576410323
30
0
41
1
10
8.46386014279503
20
3.68600439380242
30
0
0
SPLINE
5
F1
100
AcDbEntity
8
SK1
62
256
6
ByLayer
370
18
48
1
60
0
100
AcDbSpline
70
4
71
3
72
8
73
4
40
0
40
0
40
0
40
0
40
1
40
1
40
1
40
1
41
1
10
-36.0000000000001
20
-2.75779317336779
30
0
41
1
10
-35.9742822024898
20
-2.78484319440807
30
0
41
1
10
-35.948855039111
20
-2.81102226442564
30
0
41
1
10
-35.9237591228049
20
-2.83623969763616
30
0
0
SPLINE
5
F2
100
AcDbEntity
8
SK1
62
256
6
ByLayer
370
18
48
1
60
0
100
AcDbSpline
70
4
71
3
72
8
73
4
40
0
40
0
40
0
40
0
40
1
40
1
40
1
40
1
41
1
10
-35.5
20
3.20868500206646
30
0
41
1
10
-35.533669487537
20
3.17695219842983
30
0
41
1
10
-35.5673239625216
20
3.14520609941846
30
0
41
1
10
-35.6009618943233
20
3.11344534947963
30
0
0
SPLINE
5
F3
100
AcDbEntity
8
SK1
62
256
6
ByLayer
370
18
48
1
60
0
100
AcDbSpline
70
4
71
3
72
10
73
6
40
0
40
0
40
0
40
0
40
0.392665907773101
40
0.392665907773101
40
1
40
1
40
1
40
1
41
1
10
-35.9237589213719
20
2.83623990004449
30
0
41
1
10
-35.8778539520254
20
2.88236713963008
30
0
41
1
10
-35.8330573036262
20
2.925276834898
30
0
41
1
10
-35.7224295033876
20
3.02494713833292
30
0
41
1
10
-35.6578574543336
20
3.0768980226905
30
0
41
1
10
-35.6009618943233
20
3.11344534947963
30
0
0
SPLINE
5
F4
100
AcDbEntity
8
SK1
62
256
6
ByLayer
370
18
48
1
60
0
100
AcDbSpline
70
4
71
3
72
12
73
8
40
0
40
0
40
0
40
0
40
0.500000000000003
40
0.500000000000003
40
0.750000000000001
40
0.750000000000001
40
1
40
1
40
1
40
1
41
1
10
-35.5
20
2.6110395198576
30
1E-16
41
1
10
-35.4764535706457
20
2.63323154812127
30
1E-16
41
1
10
-35.453758325367
20
2.65953497905551
30
1E-16
41
1
10
-35.4256589034923
20
2.70044372230905
30
1E-16
41
1
10
-35.4170915256394
20
2.71467594612247
30
1E-16
41
1
10
-35.4042768359918
20
2.74178189368524
30
1E-16
41
1
10
-35.4
20
2.75494703545047
30
1E-16
41
1
10
-35.4
20
2.76459160779297
30
1E-16
0
SPLINE
5
F5
100
AcDbEntity
8
SK1
62
256
6
ByLayer
370
18
48
1
60
0
100
AcDbSpline
70
4
71
3
72
12
73
8
40
0
40
0
40
0
40
0
40
0.250000000000001
40
0.250000000000001
40
0.500000000000001
40
0.500000000000001
40
1
40
1
40
1
40
1
41
1
10
-35.4
20
3.28255102570728
30
0
41
1
10
-35.4
20
3.28617837253202
30
0
41
1
10
-35.4042405317345
20
3.28545420211157
30
0
41
1
10
-35.4170629445097
20
3.27863345598939
30
0
41
1
10
-35.4255309618335
20
3.27269294842867
30
0
41
1
10
-35.4538111153162
20
3.25079246263664
30
0
41
1
10
-35.4764597265187
20
3.23087122854574
30
0
41
1
10
-35.5
20
3.20868500206652
30
0
0
SPLINE
5
F6
100
AcDbEntity
8
SK1
62
256
6
ByLayer
370
18
48
1
60
0
100
AcDbSpline
70
4
71
3
72
8
73
4
40
0
40
0
40
0
40
0
40
1
40
1
40
1
40
1
41
1
10
-35.6009618943233
20
2.51579986727083
30
1E-16
41
1
10
-35.567323857456
20
2.54756071641199
30
1E-16
41
1
10
-35.53366938572
20
2.57930681218139
30
1E-16
41
1
10
-35.5
20
2.61103951985763
30
1E-16
0
SPLINE
5
F7
100
AcDbEntity
8
SK1
62
256
6
ByLayer
370
18
48
1
60
0
100
AcDbSpline
70
4
71
3
72
10
73
6
40
0
40
0
40
0
40
0
40
0.5
40
0.5
40
1
40
1
40
1
40
1
41
1
10
-35.6009618943233
20
2.51579986727083
30
1E-16
41
1
10
-35.657625994603
20
2.40119325252104
30
1E-16
41
1
10
-35.7212304684705
20
2.28244597566652
30
-1E-16
41
1
10
-35.8564778377541
20
2.04184657056925
30
-1E-16
41
1
10
-35.9271669955654
20
1.92169458981928
30
-1E-16
41
1
10
-36.0000000000001
20
1.80156040183357
30
-1E-16
0
SPLINE
5
F8
100
AcDbEntity
8
1
62
256
6
ByLayer
370
18
48
1
60
0
100
AcDbSpline
70
4
71
3
72
15
73
11
40
0
40
0
40
0
40
0
40
0.213528368715246
40
0.385506272631475
40
0.502464028692232
40
0.549543560927452
40
0.590426899780892
40
0.646455697919506
40
0.794346711503502
40
1
40
1
40
1
40
1
41
1
10
8.484014124699
20
3.68602953934143
30
0
41
1
10
8.13651422089606
20
3.68516996547365
30
0
41
1
10
7.5091332676999
20
3.68404119167624
30
0
41
1
10
6.69141704990184
20
3.68425121610432
30
0
41
1
10
6.14457271424308
20
3.68412039158352
30
0
41
1
10
5.81109010943379
20
3.68362647134345
30
0
41
1
10
5.57692465734624
20
3.68316558795544
30
0
41
1
10
5.17852579483264
20
3.68261287783989
30
0
41
1
10
4.51198086122574
20
3.68353774452811
30
0
41
1
10
3.93666179315142
20
3.68229852753305
30
0
41
1
10
3.6020154372753
20
3.68136782673989
30
0
0
SPLINE
5
F9
100
AcDbEntity
8
1
62
256
6
ByLayer
370
18
48
1
60
0
100
AcDbSpline
70
4
71
2
72
6
73
3
40
0
40
0
40
0
40
1
40
1
40
1
41
1
10
31.6460030325695
20
-0.0008432216652068
30
0
41
1
10
31.6459700940036
20
-0.0008406742575744
30
0
41
1
10
31.6459371558188
20
-0.0008368105743841
30
0
0
SPLINE
5
FA
100
AcDbEntity
8
1
62
256
6
ByLayer
370
18
48
1
60
0
100
AcDbSpline
70
4
71
3
72
12
73
8
40
0
40
0
40
0
40
0
40
0.0791388934684789
40
0.22676287552869
40
0.429566316015452
40
0.687375770179524
40
1
40
1
40
1
40
1
41
1
10
41.6836769976001
20
0.831645566679782
30
-1E-16
41
1
10
41.5590570525392
20
0.873090541909022
30
-1E-16
41
1
10
41.2024246387621
20
0.993189026244266
30
-1E-16
41
1
10
40.5295840171449
20
1.22895248743043
30
-1E-16
41
1
10
39.5812489904103
20
1.57547971530994
30
-1E-16
41
1
10
38.3836880344364
20
2.0385680931972
30
-1E-16
41
1
10
37.5076697690519
20
2.39916118153781
30
-1E-16
41
1
10
37.0297980247389
20
2.60263237096265
30
-2E-16
0
SPLINE
5
FB
100
AcDbEntity
8
1
62
256
6
ByLayer
370
18
48
1
60
0
100
AcDbSpline
70
4
71
3
72
20
73
16
40
0
40
0
40
0
40
0
40
0.0973951892373041
40
0.159669293680605
40
0.2298473520559
40
0.337476754874544
40
0.417176085823333
40
0.479645651191653
40
0.555332866361064
40
0.649670279386203
40
0.729741960650309
40
0.792471387402613
40
0.846478947574785
40
0.922903109810617
40
1
40
1
40
1
40
1
41
1
10
20.7720308023017
20
-3.69207085957976
30
0
41
1
10
21.0091823782283
20
-3.69229887245737
30
0
41
1
10
21.3979672614422
20
-3.69256472249705
30
0
41
1
10
21.9576295287523
20
-3.69281363690359
30
0
41
1
10
22.5422119816053
20
-3.69258411120441
30
0
41
1
10
23.1692278602787
20
-3.6934551906738
30
0
41
1
10
23.7774722426596
20
-3.69428562122121
30
0
41
1
10
24.3079399086536
20
-3.69383055716861
30
0
41
1
10
24.8740510098074
20
-3.69309828251141
30
0
41
1
10
25.4830219767359
20
-3.69418510352656
30
0
41
1
10
26.0604412971621
20
-3.69463668618806
30
0
41
1
10
26.5396587527894
20
-3.69575191053758
30
0
41
1
10
27.0099941489068
20
-3.69594076645618
30
0
41
1
10
27.5153146612088
20
-3.69503935045174
30
0
41
1
10
27.8891302640865
20
-3.69444328097453
30
0
41
1
10
28.0768568037584
20
-3.69430729237061
30
0
0
SPLINE
5
FC
100
AcDbEntity
8
1
62
256
6
ByLayer
370
18
48
1
60
0
100
AcDbSpline
70
4
71
3
72
21
73
17
40
0
40
0
40
0
40
0
40
0.103437008058606
40
0.175796181668095
40
0.260464839133912
40
0.318265824505186
40
0.376373872106558
40
0.451743975981985
40
0.543208906223643
40
0.619244220157555
40
0.672906306462289
40
0.734832434885828
40
0.815191043492431
40
0.910254002557732
40
0.975230501199085
40
1
40
1
40
1
40
1
41
1
10
30.2392012644976
20
3.69620714789252
30
0
41
1
10
29.9861099903085
20
3.69730222741413
30
0
41
1
10
29.5559690818214
20
3.69814237387496
30
0
41
1
10
28.9186592149393
20
3.69641344047892
30
0
41
1
10
28.3930123995498
20
3.69381419999345
30
0
41
1
10
27.9022344417955
20
3.69446854736663
30
0
41
1
10
27.434206750408
20
3.69515036849074
30
0
41
1
10
26.8838105182494
20
3.6962349088603
30
0
41
1
10
26.2895475698749
20
3.69499053678842
30
0
41
1
10
25.7484012645743
20
3.69460041065653
30
0
41
1
10
25.2795330807264
20
3.69358488288776
30
0
41
1
10
24.8000836936095
20
3.69325198336114
30
0
41
1
10
24.2193345988322
20
3.69392405692165
30
0
41
1
10
23.6311208940529
20
3.69436958016598
30
0
41
1
10
23.1789249622805
20
3.69338806998084
30
0
41
1
10
22.959332333604
20
3.69305660253184
30
0
41
1
10
22.8987256828408
20
3.69298127889664
30
0
0
SPLINE
5
FD
100
AcDbEntity
8
1
62
256
6
ByLayer
370
18
48
1
60
0
100
AcDbSpline
70
4
71
3
72
30
73
26
40
0
40
0
40
0
40
0
40
8.9016947945E-06
40
2.37070036475E-05
40
3.65493332126E-05
40
4.88474112726E-05
40
7.50385199583E-05
40
0.0002199522304317
40
0.0003215971822014
40
0.0005043466574469
40
0.0008346425479565
40
0.0014370842353598
40
0.002553181479163
40
0.0046749596950042
40
0.0088754004294977
40
0.0176927588735641
40
0.0376703400959763
40
0.0873181098039189
40
0.188031538188178
40
0.289538681686344
40
0.380420941416384
40
0.476026498824971
40
0.613762188060493
40
0.795211066402314
40
1
40
1
40
1
40
1
41
1
10
22.32764403761
20
0.0860850444746575
30
0
41
1
10
22.3276495385036
20
0.0860840628828328
30
0
41
1
10
22.3276621018496
20
0.0860825067372559
30
0
41
1
10
22.3276704440899
20
0.08608700631288
30
0
41
1
10
22.3276357450697
20
0.0860959042369132
30
0
41
1
10
22.3275623686191
20
0.0861196121279875
30
0
41
1
10
22.3271718396156
20
0.0862372838898011
30
0
41
1
10
22.3265145712348
20
0.0864277904204869
30
0
41
1
10
22.3255351289322
20
0.0867172120305497
30
0
41
1
10
22.3241148399571
20
0.0871349182444874
30
0
41
1
10
22.3215466607469
20
0.0878909725193182
30
0
41
1
10
22.3168178998764
20
0.0892811593127476
30
0
41
1
10
22.3079433323074
20
0.0918869082554465
30
0
41
1
10
22.2907043099751
20
0.0969374242372112
30
0
41
1
10
22.2554814696536
20
0.107228026612745
30
0
41
1
10
22.1783467235806
20
0.129710945280635
30
0
41
1
10
21.9940596846284
20
0.183489524477352
30
0
41
1
10
21.5945158144967
20
0.302037899520968
30
0
41
1
10
21.0051407775325
20
0.482959286813013
30
0
41
1
10
20.3220611319108
20
0.702161536452678
30
0
41
1
10
19.6534148907475
20
0.925539788366308
30
-1E-16
41
1
10
18.9033384460912
20
1.18565030072301
30
-1E-16
41
1
10
17.9482719424154
20
1.53207158785878
30
-1E-16
41
1
10
16.7497472270178
20
1.99207819082335
30
-1E-16
41
1
10
15.8744041066003
20
2.35173714190756
30
-1E-16
41
1
10
15.4124754555147
20
2.54816388109026
30
-2E-16
0
SPLINE
5
FE
100
AcDbEntity
8
1
62
256
6
ByLayer
370
18
48
1
60
0
100
AcDbSpline
70
4
71
3
72
13
73
9
40
0
40
0
40
0
40
0
40
0.247033325418548
40
0.44128229184993
40
0.564928228684923
40
0.712691890910545
40
0.874934065274012
40
1
40
1
40
1
40
1
41
1
10
3.60200078339099
20
-3.68141070231073
30
0
41
1
10
3.84440690916631
20
-3.68219486284045
30
0
41
1
10
4.27742429349613
20
-3.68314903788334
30
0
41
1
10
4.83184507330586
20
-3.68305380283527
30
0
41
1
10
5.28874722568753
20
-3.68276744723639
30
0
41
1
10
5.71422101523157
20
-3.6834415286373
30
0
41
1
10
6.14111946091279
20
-3.68409483239825
30
0
41
1
10
6.42308502165633
20
-3.68412452256698
30
0
41
1
10
6.54581418288382
20
-3.6841541344975
30
0
0
LINE
5
84
100
AcDbEntity
8
1
62
256
6
ByLayer
370
18
48
1
60
0
100
AcDbLine
10
3.50171
20
-3.8762
30
0
11
3.50171
21
-3.023155
31
0
39
0
210
0
220
0
230
1
0
LINE
5
85
100
AcDbEntity
8
1
62
256
6
ByLayer
370
18
48
1
60
0
100
AcDbLine
10
3.50171
20
3.8762
30
0
11
3.50171
21
3.126726
31
0
39
0
210
0
220
0
230
1
0
LINE
5
86
100
AcDbEntity
8
1
62
256
6
ByLayer
370
18
48
1
60
0
100
AcDbLine
10
0.145618
20
3.937097
30
0
11
0.145618
21
0
31
0
39
0
210
0
220
0
230
1
0
LINE
5
87
100
AcDbEntity
8
1
62
256
6
ByLayer
370
18
48
1
60
0
100
AcDbLine
10
0.145618
20
0
30
0
11
0.145618
21
-3.937097
31
0
39
0
210
0
220
0
230
1
0
LINE
5
88
100
AcDbEntity
8
1
62
256
6
ByLayer
370
18
48
1
60
0
100
AcDbLine
10
17.6
20
-3.691297
30
0
11
17.6
21
-3.710195
31
0
39
0
210
0
220
0
230
1
0
LINE
5
89
100
AcDbEntity
8
1
62
256
6
ByLayer
370
18
48
1
60
0
100
AcDbLine
10
42.945614
20
0.046949
30
0
11
42.0165
21
1.072531
31
0
39
0
210
0
220
0
230
1
0
LINE
5
8A
100
AcDbEntity
8
1
62
256
6
ByLayer
370
18
48
1
60
0
100
AcDbLine
10
0.29136
20
3.874193
30
0
11
0.29136
21
0
31
0
39
0
210
0
220
0
230
1
0
LINE
5
8B
100
AcDbEntity
8
1
62
256
6
ByLayer
370
18
48
1
60
0
100
AcDbLine
10
0.29136
20
0
30
0
11
0.29136
21
-3.874193
31
0
39
0
210
0
220
0
230
1
0
LINE
5
8C
100
AcDbEntity
8
1
62
256
6
ByLayer
370
18
48
1
60
0
100
AcDbLine
10
0
20
4
30
0
11
0
21
0
31
0
39
0
210
0
220
0
230
1
0
LINE
5
8D
100
AcDbEntity
8
1
62
256
6
ByLayer
370
18
48
1
60
0
100
AcDbLine
10
0
20
0
30
0
11
0
21
-4
31
0
39
0
210
0
220
0
230
1
0
LINE
5
8E
100
AcDbEntity
8
SK1
62
256
6
ByLayer
370
18
48
1
60
0
100
AcDbLine
10
-34.76
20
-4
30
0
11
-34.76
21
4
31
0
39
0
210
0
220
0
230
1
0
LINE
5
90
100
AcDbEntity
8
SK1
62
256
6
ByLayer
370
18
48
1
60
0
100
AcDbLine
10
-35.600962
20
2.515778
30
0
11
-35.600962
21
3.113445
31
0
39
0
210
0
220
0
230
1
0
LINE
5
91
100
AcDbEntity
8
SK1
62
256
6
ByLayer
370
18
48
1
60
0
100
AcDbLine
10
0
20
4
30
0
11
0
21
-4
31
0
39
0
210
0
220
0
230
1
0
LINE
5
92
100
AcDbEntity
8
SK1
62
256
6
ByLayer
370
18
48
1
60
0
100
AcDbLine
10
-36
20
1.80154
30
0
11
-36
21
2.757793
31
0
39
0
210
0
220
0
230
1
0
LINE
5
93
100
AcDbEntity
8
SK1
62
256
6
ByLayer
370
18
48
1
60
0
100
AcDbLine
10
-36
20
1.80156
30
0
11
-36
21
-2.757793
31
0
39
0
210
0
220
0
230
1
0
LINE
5
94
100
AcDbEntity
8
SK1
62
256
6
ByLayer
370
18
48
1
60
0
100
AcDbLine
10
-35.5
20
2.610981
30
0
11
-35.5
21
3.208685
31
0
39
0
210
0
220
0
230
1
0
LINE
5
95
100
AcDbEntity
8
SK1
62
256
6
ByLayer
370
18
48
1
60
0
100
AcDbLine
10
-35.4
20
2.764592
30
0
11
-35.4
21
3.282551
31
0
39
0
210
0
220
0
230
1
0
LINE
5
96
100
AcDbEntity
8
1
62
256
6
ByLayer
370
18
48
1
60
0
100
AcDbLine
10
8.48672
20
-3.879315
30
0
11
9.493309
21
-3.879944
31
0
39
0
210
0
220
0
230
1
0
LINE
5
97
100
AcDbEntity
8
1
62
256
6
ByLayer
370
18
48
1
60
0
100
AcDbLine
10
30.241272
20
-3.892912
30
0
11
31.222598
21
-3.893525
31
0
39
0
210
0
220
0
230
1
0
LINE
5
98
100
AcDbEntity
8
1
62
256
6
ByLayer
370
18
48
1
60
0
100
AcDbLine
10
31.222598
20
3.893525
30
0
11
30.241272
21
3.892912
31
0
39
0
210
0
220
0
230
1
0
LINE
5
99
100
AcDbEntity
8
1
62
256
6
ByLayer
370
18
48
1
60
0
100
AcDbLine
10
9.493309
20
3.879944
30
0
11
8.48672
21
3.879315
31
0
39
0
210
0
220
0
230
1
0
LINE
5
9A
100
AcDbEntity
8
SK1
62
256
6
ByLayer
370
18
48
1
60
0
100
AcDbLine
10
-35.930651
20
-2.829349
30
0
11
-34.76
21
-4
31
0
39
0
210
0
220
0
230
1
0
LINE
5
9B
100
AcDbEntity
8
SK1
62
256
6
ByLayer
370
18
48
1
60
0
100
AcDbLine
10
-34.76
20
4
30
0
11
-35.930651
21
2.829349
31
0
39
0
210
0
220
0
230
1
0
LINE
5
9C
100
AcDbEntity
8
SK1
62
256
6
ByLayer
370
18
48
1
60
0
100
AcDbLine
10
-34.76
20
-4
30
0
11
0
21
-4
31
0
39
0
210
0
220
0
230
1
0
LINE
5
9D
100
AcDbEntity
8
SK1
62
256
6
ByLayer
370
18
48
1
60
0
100
AcDbLine
10
0
20
4
30
0
11
-34.76
21
4
31
0
39
0
210
0
220
0
230
1
0
LINE
5
9E
100
AcDbEntity
8
1
62
256
6
ByLayer
370
18
48
1
60
0
100
AcDbLine
10
0.29136
20
-3.874193
30
0
11
3.50171
21
-3.8762
31
0
39
0
210
0
220
0
230
1
0
LINE
5
9F
100
AcDbEntity
8
1
62
256
6
ByLayer
370
18
48
1
60
0
100
AcDbLine
10
19.793586
20
-3.886382
30
0
11
20.769542
21
-3.886992
31
0
39
0
210
0
220
0
230
1
0
LINE
5
A0
100
AcDbEntity
8
1
62
256
6
ByLayer
370
18
48
1
60
0
100
AcDbLine
10
20.769542
20
3.886992
30
0
11
19.793586
21
3.886382
31
0
39
0
210
0
220
0
230
1
0
LINE
5
A1
100
AcDbEntity
8
1
62
256
6
ByLayer
370
18
48
1
60
0
100
AcDbLine
10
3.50171
20
3.8762
30
0
11
0.29136
21
3.874193
31
0
39
0
210
0
220
0
230
1
0
LINE
5
A2
100
AcDbEntity
8
SK4
62
256
6
ByLayer
370
18
48
0.05
60
0
100
AcDbLine
10
48
20
0
30
0
11
-41
21
0
31
0
39
0
210
0
220
0
230
1
0
LINE
5
A4
100
AcDbEntity
8
4
62
256
6
ByLayer
370
18
48
0.05
60
0
100
AcDbLine
10
-36
20
0
30
0
11
48
21
0
31
0
39
0
210
0
220
0
230
1
0
LINE
5
A6
100
AcDbEntity
8
80
62
256
6
ByLayer
370
18
48
1
60
0
100
AcDbLine
10
0
20
0
30
0
11
-6
21
0
31
0
39
0
210
0
220
0
230
1
0
LINE
5
A7
100
AcDbEntity
8
81
62
256
6
ByLayer
370
18
48
1
60
0
100
AcDbLine
10
43
20
0
30
0
11
49
21
0
31
0
39
0
210
0
220
0
230
1
0
LINE
5
A8
100
AcDbEntity
8
SK2
62
256
6
ByLayer
370
13
48
1
60
0
100
AcDbLine
10
43.542962
20
1.49176
30
0
11
50.926396
21
21.777348
31
0
39
0
210
0
220
0
230
1
0
LINE
5
AA
100
AcDbEntity
8
SK2
62
256
6
ByLayer
370
13
48
1
60
0
100
AcDbLine
10
43.542962
20
-1.49176
30
0
11
50.926396
21
-21.777348
31
0
39
0
210
0
220
0
230
1
0
LINE
5
AB
100
AcDbEntity
8
1
62
256
6
ByLayer
370
13
48
1
60
0
100
AcDbLine
10
49.840471
20
18.793828
30
0
11
52.937059
21
17.977444
31
0
39
0
210
0
220
0
230
1
0
LINE
5
AC
100
AcDbEntity
8
1
62
256
6
ByLayer
370
13
48
1
60
0
100
AcDbLine
10
49.840471
20
18.793828
30
0
11
52.620252
21
17.203804
31
0
39
0
210
0
220
0
230
1
0
LINE
5
AD
100
AcDbEntity
8
1
62
256
6
ByLayer
370
13
48
1
60
0
100
AcDbLine
10
52.937059
20
17.977444
30
0
11
52.620252
21
17.203804
31
0
39
0
210
0
220
0
230
1
0
LINE
5
AE
100
AcDbEntity
8
1
62
256
6
ByLayer
370
13
48
1
60
0
100
AcDbLine
10
49.840471
20
-18.793828
30
0
11
52.62025
21
-17.203806
31
0
39
0
210
0
220
0
230
1
0
LINE
5
AF
100
AcDbEntity
8
1
62
256
6
ByLayer
370
13
48
1
60
0
100
AcDbLine
10
49.840471
20
-18.793828
30
0
11
52.937062
21
-17.977443
31
0
39
0
210
0
220
0
230
1
0
LINE
5
B0
100
AcDbEntity
8
1
62
256
6
ByLayer
370
13
48
1
60
0
100
AcDbLine
10
52.62025
20
-17.203806
30
0
11
52.937062
21
-17.977443
31
0
39
0
210
0
220
0
230
1
0
MTEXT
5
FF
100
AcDbEntity
8
SK2
62
256
6
ByLayer
370
18
48
1
60
0
100
AcDbMText
10
56.717388
20
-2.467451
30
0
210
0
220
0
230
1
1
\W0.7237;140.00
40
3.50012
41
0
44
1.084337
50
0
71
7
72
5
7
iso_b_vert
0
MTEXT
5
102
100
AcDbEntity
8
SK6
62
256
6
ByLayer
370
18
48
1
60
0
100
AcDbMText
10
-35.795641
20
-65.231593
30
0
210
0
220
0
230
1
1
\W0.7494;860.1-0780-024A1-GM X1BM
40
3.175
41
0
44
1.084337
50
0
71
7
72
5
7
iso_b_vert
0
DIMENSION
5
105
100
AcDbEntity
8
SK2
62
256
6
ByLayer
370
18
48
1
60
0
100
AcDbDimension
2
_U0
10
43
20
-27.50012
30
0
11
21.5
21
-27.50012
31
0
70
32
71
2
72
1
41
1
210
0
220
0
230
1
3
Standard
100
AcDbAlignedDimension
13
0
23
-4
33
0
14
43
24
0
34
0
50
0
100
AcDbRotatedDimension
1001
ACAD
1000
DSTYLE
1002
{
1070
   371
1070
    13
1070
   372
1070
    13
1070
     3
1000

1070
   170
1070
     0
1070
   144
1040
1.0
1070
   277
1070
     2
1070
   284
1070
     8
1070
   278
1070
    46
1070
   146
1040
0.999966
1070
   345
1005
16
1070
   347
1005
16
1070
   346
1005
16
1070
   344
1005
106
1070
   343
1005
106
1070
   172
1070
     1
1070
    76
1070
     0
1070
    75
1070
     0
1070
   282
1070
     0
1070
   281
1070
     0
1070
    71
1070
     0
1070
    74
1070
     0
1070
   279
1070
     0
1070
   173
1070
     1
1070
   340
1005
100
1070
   271
1070
     1
1070
   272
1070
     2
1070
    77
1070
     1
1070
    73
1070
     1
1070
   171
1070
     3
1070
   274
1070
     4
1070
   177
1070
   150
1070
   176
1070
     9
1070
   178
1070
    43
1070
    78
1070
     8
1070
    48
1040
-0.1
1070
    41
1040
3.175
1070
   147
1040
1.75006
1070
    42
1040
1.5875
1070
    44
1040
3.175
1070
   140
1040
3.50012
1002
}
1001
ACAD_DSTYLE_DIM_LINETYPE
1070
   380
1005
16
1001
ACAD_DSTYLE_DIM_EXT1_LINETYPE
1070
   381
1005
16
1001
ACAD_DSTYLE_DIM_EXT2_LINETYPE
1070
   382
1005
16
0
DIMENSION
5
12B
100
AcDbEntity
8
2
62
256
6
ByLayer
370
18
48
1
60
0
100
AcDbDimension
2
_U1
10
49.75006
20
3.9
30
0
11
49.75006
21
19.473233
31
0
70
32
71
1
72
1
41
1
210
0
220
0
230
1
3
Standard
100
AcDbAlignedDimension
13
41.5805
23
-3.9
33
0
14
41.5805
24
3.9
34
0
50
90
100
AcDbRotatedDimension
1001
ACAD
1000
DSTYLE
1002
{
1070
   371
1070
    13
1070
   372
1070
    13
1070
     3
1000

1070
   170
1070
     0
1070
   144
1040
1.0
1070
   277
1070
     2
1070
   284
1070
     8
1070
   278
1070
    46
1070
   146
1040
0.999966
1070
   345
1005
16
1070
   347
1005
16
1070
   346
1005
16
1070
   344
1005
106
1070
   343
1005
106
1070
   172
1070
     1
1070
    76
1070
     0
1070
    75
1070
     0
1070
   282
1070
     0
1070
   281
1070
     0
1070
    71
1070
     0
1070
    74
1070
     0
1070
   279
1070
     0
1070
   173
1070
     1
1070
   340
1005
100
1070
   271
1070
     1
1070
   272
1070
     2
1070
    77
1070
     1
1070
    73
1070
     0
1070
   171
1070
     3
1070
   274
1070
     4
1070
   177
1070
   150
1070
   176
1070
     9
1070
   178
1070
    43
1070
    78
1070
     8
1070
    48
1040
-0.1
1070
    41
1040
3.175
1070
   147
1040
1.75006
1070
    42
1040
1.5875
1070
    44
1040
3.175
1070
   140
1040
3.50012
1002
}
1001
ACAD_DSTYLE_DIM_LINETYPE
1070
   380
1005
16
1001
ACAD_DSTYLE_DIM_EXT1_LINETYPE
1070
   381
1005
16
1001
ACAD_DSTYLE_DIM_EXT2_LINETYPE
1070
   382
1005
16
0
DIMENSION
5
14A
100
AcDbEntity
8
SK2
62
256
6
ByLayer
370
18
48
1
60
0
100
AcDbDimension
2
_U2
10
-39.24994
20
-4
30
0
11
-39.24994
21
18.10734
31
0
70
32
71
1
72
1
41
1
210
0
220
0
230
1
3
Standard
100
AcDbAlignedDimension
13
-36
23
4
33
0
14
-36
24
-4
34
0
50
90
100
AcDbRotatedDimension
1001
ACAD
1000
DSTYLE
1002
{
1070
   371
1070
    13
1070
   372
1070
    13
1070
     3
1000

1070
   170
1070
     0
1070
   144
1040
1.0
1070
   277
1070
     2
1070
   284
1070
     8
1070
   278
1070
    46
1070
   146
1040
0.999966
1070
   345
1005
16
1070
   347
1005
16
1070
   346
1005
16
1070
   344
1005
106
1070
   343
1005
106
1070
   172
1070
     1
1070
    76
1070
     0
1070
    75
1070
     0
1070
   282
1070
     0
1070
   281
1070
     0
1070
    71
1070
     0
1070
    74
1070
     0
1070
   279
1070
     0
1070
   173
1070
     1
1070
   340
1005
100
1070
   271
1070
     1
1070
   272
1070
     2
1070
    77
1070
     1
1070
    73
1070
     0
1070
   171
1070
     3
1070
   274
1070
     4
1070
   177
1070
   150
1070
   176
1070
     9
1070
   178
1070
    43
1070
    78
1070
     8
1070
    48
1040
-0.1
1070
    41
1040
3.175
1070
   147
1040
1.75006
1070
    42
1040
1.5875
1070
    44
1040
3.175
1070
   140
1040
3.50012
1002
}
1001
ACAD_DSTYLE_DIM_LINETYPE
1070
   380
1005
16
1001
ACAD_DSTYLE_DIM_EXT1_LINETYPE
1070
   381
1005
16
1001
ACAD_DSTYLE_DIM_EXT2_LINETYPE
1070
   382
1005
16
0
DIMENSION
5
168
100
AcDbEntity
8
SK2
62
256
6
ByLayer
370
18
48
1
60
0
100
AcDbDimension
2
_U3
10
0
20
-27.50012
30
0
11
-18
21
-27.50012
31
0
70
32
71
1
72
1
41
1
210
0
220
0
230
1
3
Standard
100
AcDbAlignedDimension
13
-36
23
-4
33
0
14
0
24
-4
34
0
50
0
100
AcDbRotatedDimension
1001
ACAD
1000
DSTYLE
1002
{
1070
   371
1070
    13
1070
   372
1070
    13
1070
     3
1000

1070
   170
1070
     0
1070
   144
1040
1.0
1070
   277
1070
     2
1070
   284
1070
     8
1070
   278
1070
    46
1070
   146
1040
0.999966
1070
   345
1005
16
1070
   347
1005
16
1070
   346
1005
16
1070
   344
1005
106
1070
   343
1005
106
1070
   172
1070
     1
1070
    76
1070
     0
1070
    75
1070
     0
1070
   282
1070
     0
1070
   281
1070
     0
1070
    71
1070
     0
1070
    74
1070
     0
1070
   279
1070
     0
1070
   173
1070
     1
1070
   340
1005
100
1070
   271
1070
     1
1070
   272
1070
     2
1070
    77
1070
     1
1070
    73
1070
     1
1070
   171
1070
     3
1070
   274
1070
     4
1070
   177
1070
   150
1070
   176
1070
     9
1070
   178
1070
    43
1070
    78
1070
     8
1070
    48
1040
-0.1
1070
    41
1040
3.175
1070
   147
1040
1.75006
1070
    42
1040
1.5875
1070
    44
1040
3.175
1070
   140
1040
3.50012
1002
}
1001
ACAD_DSTYLE_DIM_LINETYPE
1070
   380
1005
16
1001
ACAD_DSTYLE_DIM_EXT1_LINETYPE
1070
   381
1005
16
1001
ACAD_DSTYLE_DIM_EXT2_LINETYPE
1070
   382
1005
16
0
DIMENSION
5
184
100
AcDbEntity
8
SK2
62
256
6
ByLayer
370
18
48
1
60
0
100
AcDbDimension
2
_U4
10
43
20
-18.74982
30
0
11
22.5
21
-18.74982
31
0
70
32
71
1
72
1
41
1
210
0
220
0
230
1
3
Standard
100
AcDbAlignedDimension
13
2
23
4.4
33
0
14
43
24
0
34
0
50
0
100
AcDbRotatedDimension
1001
ACAD
1000
DSTYLE
1002
{
1070
   371
1070
    13
1070
   372
1070
    13
1070
     3
1000

1070
   170
1070
     0
1070
   144
1040
1.0
1070
   277
1070
     2
1070
   284
1070
     8
1070
   278
1070
    46
1070
   146
1040
0.999966
1070
   345
1005
16
1070
   347
1005
16
1070
   346
1005
16
1070
   344
1005
106
1070
   343
1005
106
1070
   172
1070
     1
1070
    76
1070
     0
1070
    75
1070
     0
1070
   282
1070
     0
1070
   281
1070
     0
1070
    71
1070
     0
1070
    74
1070
     0
1070
   279
1070
     0
1070
   173
1070
     1
1070
   340
1005
100
1070
   271
1070
     1
1070
   272
1070
     2
1070
    77
1070
     1
1070
    73
1070
     1
1070
   171
1070
     3
1070
   274
1070
     4
1070
   177
1070
   150
1070
   176
1070
     9
1070
   178
1070
    43
1070
    78
1070
     8
1070
    48
1040
-0.1
1070
    41
1040
3.175
1070
   147
1040
1.75006
1070
    42
1040
1.5875
1070
    44
1040
3.175
1070
   140
1040
3.50012
1002
}
1001
ACAD_DSTYLE_DIM_LINETYPE
1070
   380
1005
16
1001
ACAD_DSTYLE_DIM_EXT1_LINETYPE
1070
   381
1005
16
1001
ACAD_DSTYLE_DIM_EXT2_LINETYPE
1070
   382
1005
16
0
DIMENSION
5
1A0
100
AcDbEntity
8
SK2
62
256
6
ByLayer
370
18
48
1
60
0
100
AcDbDimension
2
_U5
10
43
20
-10.82
30
0
11
30.6
21
-10.82
31
0
70
32
71
1
72
1
41
1
210
0
220
0
230
1
3
Standard
100
AcDbAlignedDimension
13
18.2
23
-3.9
33
0
14
43
24
0
34
0
50
0
100
AcDbRotatedDimension
1001
ACAD
1000
DSTYLE
1002
{
1070
   371
1070
    13
1070
   372
1070
    13
1070
     3
1000

1070
   170
1070
     0
1070
   144
1040
1.0
1070
   277
1070
     2
1070
   284
1070
     8
1070
   278
1070
    46
1070
   146
1040
1.25
1070
   345
1005
16
1070
   347
1005
16
1070
   346
1005
16
1070
   344
1005
106
1070
   343
1005
106
1070
   172
1070
     1
1070
    76
1070
     0
1070
    75
1070
     0
1070
   282
1070
     0
1070
   281
1070
     0
1070
    71
1070
     0
1070
    74
1070
     0
1070
   279
1070
     0
1070
   173
1070
     1
1070
   340
1005
100
1070
   271
1070
     1
1070
   272
1070
     2
1070
    77
1070
     1
1070
    73
1070
     1
1070
   171
1070
     3
1070
   274
1070
     4
1070
   177
1070
   150
1070
   176
1070
     9
1070
   178
1070
    43
1070
    78
1070
     8
1070
    48
1040
-0.1
1070
    41
1040
3.175
1070
   147
1040
0.42
1070
    42
1040
1.5875
1070
    44
1040
0.5
1070
   140
1040
2.8
1002
}
1001
ACAD_DSTYLE_DIM_LINETYPE
1070
   380
1005
16
1001
ACAD_DSTYLE_DIM_EXT1_LINETYPE
1070
   381
1005
16
1001
ACAD_DSTYLE_DIM_EXT2_LINETYPE
1070
   382
1005
16
0
DIMENSION
5
1BC
100
AcDbEntity
8
SK2
62
256
6
ByLayer
370
18
48
1
60
0
100
AcDbDimension
2
_U6
10
43
20
-37.50012
30
0
11
3.5
21
-37.50012
31
0
70
32
71
1
72
1
41
1
210
0
220
0
230
1
3
Standard
100
AcDbAlignedDimension
13
-36
23
0
33
0
14
43
24
0
34
0
50
0
100
AcDbRotatedDimension
1001
ACAD
1000
DSTYLE
1002
{
1070
   371
1070
    13
1070
   372
1070
    13
1070
     3
1000

1070
   170
1070
     0
1070
   144
1040
1.0
1070
   277
1070
     2
1070
   284
1070
     8
1070
   278
1070
    46
1070
   146
1040
0.999966
1070
   345
1005
16
1070
   347
1005
16
1070
   346
1005
16
1070
   344
1005
106
1070
   343
1005
106
1070
   172
1070
     1
1070
    76
1070
     0
1070
    75
1070
     0
1070
   282
1070
     0
1070
   281
1070
     0
1070
    71
1070
     0
1070
    74
1070
     0
1070
   279
1070
     0
1070
   173
1070
     1
1070
   340
1005
100
1070
   271
1070
     1
1070
   272
1070
     2
1070
    77
1070
     1
1070
    73
1070
     1
1070
   171
1070
     3
1070
   274
1070
     4
1070
   177
1070
   150
1070
   176
1070
     9
1070
   178
1070
    43
1070
    78
1070
     8
1070
    48
1040
-0.1
1070
    41
1040
3.175
1070
   147
1040
1.75006
1070
    42
1040
1.5875
1070
    44
1040
3.175
1070
   140
1040
3.50012
1002
}
1001
ACAD_DSTYLE_DIM_LINETYPE
1070
   380
1005
16
1001
ACAD_DSTYLE_DIM_EXT1_LINETYPE
1070
   381
1005
16
1001
ACAD_DSTYLE_DIM_EXT2_LINETYPE
1070
   382
1005
16
0
ENDSEC
0
SECTION
2
OBJECTS
0
DICTIONARY
5
248
330
0
100
AcDbDictionary
280
0
281
1
3
ACAD_GROUP
350
249
3
ACAD_MLINESTYLE
350
24a
0
DICTIONARY
5
249
330
0
100
AcDbDictionary
280
0
281
1
0
DICTIONARY
5
24a
330
0
100
AcDbDictionary
280
0
281
1
3
Standard
350
18
0
MLINESTYLE
5
18
330
24a
100
AcDbMlineStyle
2
Standard
70
0
3

62
256
51
90
52
90
71
2
49
-0.5
62
256
6
ByLayer
49
0.5
62
256
6
ByLayer
0
RASTERVARIABLES
5
236
330

100
AcDbRasterVariables
90
0
70
1
71
1
72
1
0
ENDSEC
0
EOF
