0
SECTION
2
HEADER
9
$ACADVER
1
AC1015
9
$DWGCODEPAGE
3
ANSI_1252
9
$HANDSEED
5
256
9
$ANGBASE
50
0
9
$ANGDIR
70
0
9
$ATTMODE
70
1
9
$AUNITS
70
0
9
$AUPREC
70
0
9
$CECOLOR
62
256
9
$CELTSCALE
40
1
9
$CELTYPE
6
ByLayer
9
$CELWEIGHT
370
18
9
$CLAYER
8
0
9
$CMLJUST
70
0
9
$CMLSCALE
40
1
9
$CMLSTYLE
2
Standard
9
$DIMSTYLE
2
Standard
9
$TEXTSIZE
40
0.2
9
$TEXTSTYLE
7
Standard
9
$LUNITS
70
2
9
$LUPREC
70
4
9
$EXTNAMES
290
1
9
$INSUNITS
70
4
9
$LTSCALE
40
1
9
$LWDISPLAY
290
1
9
$PDMODE
70
0
9
$PDSIZE
40
0
9
$PLINEGEN
70
0
0
ENDSEC
0
SECTION
2
CLASSES
0
CLASS
1
RASTERVARIABLES
2
AcDbRasterVariables
3
ISM
90
0
280
0
281
0
0
ENDSEC
0
SECTION
2
TABLES
0
TABLE
2
VPORT
5
24c
100
AcDbSymbolTable
0
VPORT
5
1
100
AcDbSymbolTableRecord
100
AcDbViewportTableRecord
2
*Active
70
0
10
0
20
0
11
1
21
1
12
-1
22
1
13
0
23
0
14
0.5
24
0.5
15
10
25
10
16
0
26
0
36
1
17
0
27
0
37
0
0
ENDTAB
0
TABLE
2
LTYPE
5
24d
100
AcDbSymbolTable
0
LTYPE
5
14
100
AcDbSymbolTableRecord
100
AcDbLinetypeTableRecord
70
0
2
ByBlock
3

72
65
73
0
40
0
0
LTYPE
5
15
100
AcDbSymbolTableRecord
100
AcDbLinetypeTableRecord
70
0
2
ByLayer
3

72
65
73
0
40
0
0
LTYPE
5
16
100
AcDbSymbolTableRecord
100
AcDbLinetypeTableRecord
70
0
2
Continuous
3
Solid line
72
65
73
0
40
0
0
LTYPE
5
6E
100
AcDbSymbolTableRecord
100
AcDbLinetypeTableRecord
70
0
2
CENTER
3
____ _ ____ _ ____ _ ____
72
65
73
4
40
47.5
49
22
74
0
49
-8.5
74
0
49
8.5
74
0
49
-8.5
74
0
0
LTYPE
5
6F
100
AcDbSymbolTableRecord
100
AcDbLinetypeTableRecord
70
0
2
DASHED
3
__ __ __ __ __ __ __ __ __
72
65
73
2
40
25.72
49
12.86
74
0
49
-12.86
74
0
0
ENDTAB
0
TABLE
2
LAYER
5
24e
100
AcDbSymbolTable
0
LAYER
5
10
100
AcDbSymbolTableRecord
100
AcDbLayerTableRecord
2
0
70
0
62
7
6
Continuous
290
1
370
-3
390
0
0
LAYER
5
71
100
AcDbSymbolTableRecord
100
AcDbLayerTableRecord
2
80
70
0
62
-6
6
Continuous
290
1
370
-3
390
0
0
LAYER
5
73
100
AcDbSymbolTableRecord
100
AcDbLayerTableRecord
2
81
70
0
62
-3
6
Continuous
290
1
370
-3
390
0
0
LAYER
5
75
100
AcDbSymbolTableRecord
100
AcDbLayerTableRecord
2
1
70
0
62
4
6
Continuous
290
1
370
-3
390
0
0
LAYER
5
A5
100
AcDbSymbolTableRecord
100
AcDbLayerTableRecord
2
4
70
0
62
-2
6
CENTER
290
1
370
-3
390
0
0
LAYER
5
110
100
AcDbSymbolTableRecord
100
AcDbLayerTableRecord
2
Defpoints
70
0
62
7
6
Continuous
290
0
370
-3
390
0
0
LAYER
5
13D
100
AcDbSymbolTableRecord
100
AcDbLayerTableRecord
2
2
70
0
62
7
6
Continuous
290
1
370
-3
390
0
0
LAYER
5
238
100
AcDbSymbolTableRecord
100
AcDbLayerTableRecord
2
SK1
70
0
62
4
6
Continuous
290
1
370
-3
390
0
0
LAYER
5
239
100
AcDbSymbolTableRecord
100
AcDbLayerTableRecord
2
SK4
70
0
62
2
6
CENTER
290
1
370
-3
390
0
0
LAYER
5
23a
100
AcDbSymbolTableRecord
100
AcDbLayerTableRecord
2
SK2
70
0
62
7
6
Continuous
290
1
370
-3
390
0
0
LAYER
5
23b
100
AcDbSymbolTableRecord
100
AcDbLayerTableRecord
2
SK6
70
0
62
5
6
Continuous
290
1
370
-3
390
0
0
ENDTAB
0
TABLE
2
STYLE
5
24f
100
AcDbSymbolTable
0
STYLE
5
11
100
AcDbSymbolTableRecord
100
AcDbTextStyleTableRecord
2
Standard
3
txt
70
0
71
0
40
0
41
1
42
0
50
0
0
STYLE
5
101
100
AcDbSymbolTableRecord
100
AcDbTextStyleTableRecord
2
iso_b_vert
3
simplex.shx
70
0
71
0
40
0
41
1
42
0
50
0
0
STYLE
5
102
100
AcDbSymbolTableRecord
100
AcDbTextStyleTableRecord
2
DWGDirectTextStyle
3
simplex
70
0
71
0
40
0
41
1
42
0
50
0
0
ENDTAB
0
TABLE
2
DIMSTYLE
5
250
100
AcDbSymbolTable
100
AcDbDimStyleTable
0
DIMSTYLE
105
27
100
AcDbSymbolTableRecord
100
AcDbDimStyleTableRecord
2
Standard
70
0
3
<>
41
0.18
42
0.0625
44
0.18
140
0.18
147
0.09
73
0
74
0
77
1
271
2
275
0
278
52
280
0
340
11
0
ENDTAB
0
TABLE
2
VIEW
5
251
100
AcDbSymbolTable
0
ENDTAB
0
TABLE
2
UCS
5
252
100
AcDbSymbolTable
0
ENDTAB
0
TABLE
2
APPID
5
253
100
AcDbSymbolTable
0
APPID
5
12
100
AcDbSymbolTableRecord
100
AcDbRegAppTableRecord
2
ACAD
70
0
0
APPID
5
105
100
AcDbSymbolTableRecord
100
AcDbRegAppTableRecord
2
ACAD_DSTYLE_DIMBREAK
70
0
0
APPID
5
1F7
100
AcDbSymbolTableRecord
100
AcDbRegAppTableRecord
2
ACAD_DSTYLE_DIM_LINETYPE
70
0
0
APPID
5
1F8
100
AcDbSymbolTableRecord
100
AcDbRegAppTableRecord
2
ACAD_DSTYLE_DIM_EXT1_LINETYPE
70
0
0
APPID
5
1F9
100
AcDbSymbolTableRecord
100
AcDbRegAppTableRecord
2
ACAD_DSTYLE_DIM_EXT2_LINETYPE
70
0
0
APPID
5
234
100
AcDbSymbolTableRecord
100
AcDbRegAppTableRecord
2
ACAD_MLEADERVER
70
0
0
ENDTAB
0
TABLE
2
BLOCK_RECORD
5
254
100
AcDbSymbolTable
0
BLOCK_RECORD
5
1F
100
AcDbSymbolTableRecord
100
AcDbBlockTableRecord
2
*Model_Space
340
0
70
0
0
BLOCK_RECORD
5
1B
100
AcDbSymbolTableRecord
100
AcDbBlockTableRecord
2
*Paper_Space
340
0
70
0
0
BLOCK_RECORD
5
23
100
AcDbSymbolTableRecord
100
AcDbBlockTableRecord
2
*Paper_Space0
340
0
70
0
0
BLOCK_RECORD
5
107
100
AcDbSymbolTableRecord
100
AcDbBlockTableRecord
2
_Closed
340
0
70
0
0
BLOCK_RECORD
5
111
100
AcDbSymbolTableRecord
100
AcDbBlockTableRecord
2
*D2
340
0
70
0
0
BLOCK_RECORD
5
11D
100
AcDbSymbolTableRecord
100
AcDbBlockTableRecord
2
_U0
340
0
70
0
0
BLOCK_RECORD
5
12F
100
AcDbSymbolTableRecord
100
AcDbBlockTableRecord
2
*D4
340
0
70
0
0
BLOCK_RECORD
5
13E
100
AcDbSymbolTableRecord
100
AcDbBlockTableRecord
2
_U1
340
0
70
0
0
BLOCK_RECORD
5
14E
100
AcDbSymbolTableRecord
100
AcDbBlockTableRecord
2
*D6
340
0
70
0
0
BLOCK_RECORD
5
15C
100
AcDbSymbolTableRecord
100
AcDbBlockTableRecord
2
_U2
340
0
70
0
0
BLOCK_RECORD
5
16C
100
AcDbSymbolTableRecord
100
AcDbBlockTableRecord
2
*D8
340
0
70
0
0
BLOCK_RECORD
5
178
100
AcDbSymbolTableRecord
100
AcDbBlockTableRecord
2
_U3
340
0
70
0
0
BLOCK_RECORD
5
188
100
AcDbSymbolTableRecord
100
AcDbBlockTableRecord
2
*D10
340
0
70
0
0
BLOCK_RECORD
5
194
100
AcDbSymbolTableRecord
100
AcDbBlockTableRecord
2
_U4
340
0
70
0
0
BLOCK_RECORD
5
1A4
100
AcDbSymbolTableRecord
100
AcDbBlockTableRecord
2
*D12
340
0
70
0
0
BLOCK_RECORD
5
1B0
100
AcDbSymbolTableRecord
100
AcDbBlockTableRecord
2
_U5
340
0
70
0
0
BLOCK_RECORD
5
1C0
100
AcDbSymbolTableRecord
100
AcDbBlockTableRecord
2
*D14
340
0
70
0
0
BLOCK_RECORD
5
1CC
100
AcDbSymbolTableRecord
100
AcDbBlockTableRecord
2
_U6
340
0
70
0
0
ENDTAB
0
ENDSEC
0
SECTION
2
BLOCKS
0
BLOCK
5
20
100
AcDbEntity
8
0
100
AcDbBlockBegin
2
*Model_Space
70
0
10
0
20
0
30
0
3
*Model_Space
0
ENDBLK
5
21
100
AcDbEntity
8
0
100
AcDbBlockEnd
0
BLOCK
5
1C
100
AcDbEntity
8
0
100
AcDbBlockBegin
2
*Paper_Space
70
0
10
0
20
0
30
0
3
*Paper_Space
0
ENDBLK
5
1D
100
AcDbEntity
8
0
100
AcDbBlockEnd
0
BLOCK
5
24
100
AcDbEntity
8
0
100
AcDbBlockBegin
2
*Paper_Space0
70
0
10
0
20
0
30
0
3
*Paper_Space0
0
ENDBLK
5
25
100
AcDbEntity
8
0
100
AcDbBlockEnd
0
BLOCK
5
108
100
AcDbEntity
8
0
100
AcDbBlockBegin
2
_Closed
70
0
10
0
20
0
30
0
3
_Closed
0
LINE
5
10A
100
AcDbEntity
8
0
62
256
6
ByLayer
370
-2
48
1
60
0
100
AcDbLine
10
-1
20
0.166667
30
0
11
0
21
0
31
0
39
0
210
0
220
0
230
1
0
LINE
5
10B
100
AcDbEntity
8
0
62
256
6
ByLayer
370
-2
48
1
60
0
100
AcDbLine
10
0
20
0
30
0
11
-1
21
-0.166667
31
0
39
0
210
0
220
0
230
1
0
LINE
5
10C
100
AcDbEntity
8
0
62
256
6
ByLayer
370
-2
48
1
60
0
100
AcDbLine
10
-1
20
0.166667
30
0
11
-1
21
-0.166667
31
0
39
0
210
0
220
0
230
1
0
LINE
5
10D
100
AcDbEntity
8
0
62
256
6
ByLayer
370
-2
48
1
60
0
100
AcDbLine
10
0
20
0
30
0
11
-1
21
0
31
0
39
0
210
0
220
0
230
1
0
ENDBLK
5
109
100
AcDbEntity
8
0
100
AcDbBlockEnd
0
BLOCK
5
112
100
AcDbEntity
8
0
100
AcDbBlockBegin
2
*D2
70
1
10
0
20
0
30
0
3
*D2
0
LINE
5
114
100
AcDbEntity
8
0
62
256
6
ByLayer
370
-2
48
1
60
0
100
AcDbLine
10
0
20
-5.5875
30
0
11
0
21
-30.67512
31
0
39
0
210
0
220
0
230
1
0
LINE
5
115
100
AcDbEntity
8
0
62
256
6
ByLayer
370
-2
48
1
60
0
100
AcDbLine
10
43
20
-1.5875
30
0
11
43
21
-30.67512
31
0
39
0
210
0
220
0
230
1
0
LINE
5
116
100
AcDbEntity
8
0
62
256
6
ByLayer
370
-2
48
1
60
0
100
AcDbLine
10
3.175
20
-27.50012
30
0
11
39.825
21
-27.50012
31
0
39
0
210
0
220
0
230
1
0
SOLID
5
117
100
AcDbEntity
8
0
62
256
6
ByLayer
370
-1
48
1
60
0
100
AcDbTrace
10
3.175
20
-26.970953
30
0
11
3.175
21
-28.029287
31
0
12
0
22
-27.50012
32
0
13
0
23
-27.50012
33
0
39
0
210
0
220
0
230
1
0
SOLID
5
118
100
AcDbEntity
8
0
62
256
6
ByLayer
370
-1
48
1
60
0
100
AcDbTrace
10
39.825
20
-28.029287
30
0
11
39.825
21
-26.970953
31
0
12
43
22
-27.50012
32
0
13
43
23
-27.50012
33
0
39
0
210
0
220
0
230
1
0
MTEXT
5
119
100
AcDbEntity
8
0
62
256
6
ByLayer
370
18
48
1
60
0
100
AcDbMText
10
21.5
20
-20.193619
30
0
210
0
220
0
230
1
1
\A1;43
40
3.50012
41
0
44
1
50
0
71
5
72
5
7
iso_b_vert
0
POINT
5
11A
100
AcDbEntity
8
Defpoints
62
0
6
ByLayer
370
-1
48
1
60
0
100
AcDbPoint
10
0
20
-4
30
0
39
0
210
0
220
0
230
1
50
360
0
POINT
5
11B
100
AcDbEntity
8
Defpoints
62
0
6
ByLayer
370
-1
48
1
60
0
100
AcDbPoint
10
43
20
0
30
0
39
0
210
0
220
0
230
1
50
360
0
POINT
5
11C
100
AcDbEntity
8
Defpoints
62
0
6
ByLayer
370
-1
48
1
60
0
100
AcDbPoint
10
43
20
-27.50012
30
0
39
0
210
0
220
0
230
1
50
360
0
ENDBLK
5
113
100
AcDbEntity
8
0
100
AcDbBlockEnd
0
BLOCK
5
12A
100
AcDbEntity
8
0
100
AcDbBlockBegin
2
_U0
70
0
10
0
20
0
30
0
3
_U0
0
MTEXT
5
11E
100
AcDbEntity
8
SK2
62
256
6
ByLayer
370
18
48
1
60
0
100
AcDbMText
10
16.086116
20
-26.467451
30
0
210
0
220
0
230
1
1
\W0.7694;43.00
40
3.50012
41
0
44
1.084337
50
0
71
7
72
5
7
iso_b_vert
0
MTEXT
5
11F
100
AcDbEntity
8
SK2
62
256
6
ByLayer
370
18
48
1
60
0
100
AcDbMText
10
12.560056
20
-26.400814
30
0
210
0
220
0
230
1
1
\W0.1790;(
40
3.175
41
0
44
1.084337
50
0
71
7
72
5
7
iso_b_vert
0
MTEXT
5
120
100
AcDbEntity
8
SK2
62
256
6
ByLayer
370
18
48
1
60
0
100
AcDbMText
10
30.442666
20
-26.400814
30
0
210
0
220
0
230
1
1
\W0.1969;)
40
3.175
41
0
44
1.084337
50
0
71
7
72
5
7
iso_b_vert
0
LINE
5
121
100
AcDbEntity
8
SK2
62
256
6
ByLayer
370
13
48
1
60
0
100
AcDbLine
10
0
20
-5.5875
30
0
11
0
21
-30.67512
31
0
39
0
210
0
220
0
230
1
0
LINE
5
122
100
AcDbEntity
8
SK2
62
256
6
ByLayer
370
13
48
1
60
0
100
AcDbLine
10
43
20
-1.5875
30
0
11
43
21
-30.67512
31
0
39
0
210
0
220
0
230
1
0
LINE
5
123
100
AcDbEntity
8
SK2
62
256
6
ByLayer
370
13
48
1
60
0
100
AcDbLine
10
0
20
-27.50012
30
0
11
43
21
-27.50012
31
0
39
0
210
0
220
0
230
1
0
LINE
5
124
100
AcDbEntity
8
SK2
62
256
6
ByLayer
370
13
48
1
60
0
100
AcDbLine
10
0
20
-27.50012
30
0
11
3.174998
21
-27.082123
31
0
39
0
210
0
220
0
230
1
0
LINE
5
125
100
AcDbEntity
8
SK2
62
256
6
ByLayer
370
13
48
1
60
0
100
AcDbLine
10
0
20
-27.50012
30
0
11
3.175002
21
-27.918117
31
0
39
0
210
0
220
0
230
1
0
LINE
5
126
100
AcDbEntity
8
SK2
62
256
6
ByLayer
370
13
48
1
60
0
100
AcDbLine
10
3.174998
20
-27.082123
30
0
11
3.175002
21
-27.918117
31
0
39
0
210
0
220
0
230
1
0
LINE
5
127
100
AcDbEntity
8
SK2
62
256
6
ByLayer
370
13
48
1
60
0
100
AcDbLine
10
43
20
-27.50012
30
0
11
39.825002
21
-27.918117
31
0
39
0
210
0
220
0
230
1
0
LINE
5
128
100
AcDbEntity
8
SK2
62
256
6
ByLayer
370
13
48
1
60
0
100
AcDbLine
10
43
20
-27.50012
30
0
11
39.824998
21
-27.082123
31
0
39
0
210
0
220
0
230
1
0
LINE
5
129
100
AcDbEntity
8
SK2
62
256
6
ByLayer
370
13
48
1
60
0
100
AcDbLine
10
39.825002
20
-27.918117
30
0
11
39.824998
21
-27.082123
31
0
39
0
210
0
220
0
230
1
0
ENDBLK
5
12B
100
AcDbEntity
8
0
100
AcDbBlockEnd
0
BLOCK
5
130
100
AcDbEntity
8
0
100
AcDbBlockBegin
2
*D4
70
1
10
0
20
0
30
0
3
*D4
0
LINE
5
132
100
AcDbEntity
8
0
62
256
6
ByLayer
370
-2
48
1
60
0
100
AcDbLine
10
43.2881
20
-3.57
30
0
11
52.92506
21
-3.57
31
0
39
0
210
0
220
0
230
1
0
LINE
5
133
100
AcDbEntity
8
0
62
256
6
ByLayer
370
-2
48
1
60
0
100
AcDbLine
10
43.2881
20
3.57
30
0
11
52.92506
21
3.57
31
0
39
0
210
0
220
0
230
1
0
LINE
5
134
100
AcDbEntity
8
0
62
256
6
ByLayer
370
-2
48
1
60
0
100
AcDbLine
10
49.75006
20
3.57
30
0
11
49.75006
21
27.366431
31
0
39
0
210
0
220
0
230
1
0
LINE
5
135
100
AcDbEntity
8
0
62
256
6
ByLayer
370
-2
48
1
60
0
100
AcDbLine
10
49.75006
20
-6.745
30
0
11
49.75006
21
-9.92
31
0
39
0
210
0
220
0
230
1
0
LINE
5
136
100
AcDbEntity
8
0
62
256
6
ByLayer
370
-2
48
1
60
0
100
AcDbLine
10
49.75006
20
6.745
30
0
11
49.75006
21
9.92
31
0
39
0
210
0
220
0
230
1
0
SOLID
5
137
100
AcDbEntity
8
0
62
256
6
ByLayer
370
-1
48
1
60
0
100
AcDbTrace
10
50.279227
20
-6.745
30
0
11
49.220893
21
-6.745
31
0
12
49.75006
22
-3.57
32
0
13
49.75006
23
-3.57
33
0
39
0
210
0
220
0
230
1
0
SOLID
5
138
100
AcDbEntity
8
0
62
256
6
ByLayer
370
-1
48
1
60
0
100
AcDbTrace
10
49.220893
20
6.745
30
0
11
50.279227
21
6.745
31
0
12
49.75006
22
3.57
32
0
13
49.75006
23
3.57
33
0
39
0
210
0
220
0
230
1
0
MTEXT
5
139
100
AcDbEntity
8
0
62
256
6
ByLayer
370
18
48
1
60
0
100
AcDbMText
10
42.443559
20
18.643216
30
0
210
0
220
0
230
1
1
\A1;7.1
40
3.50012
41
0
44
1
50
90
71
5
72
5
7
iso_b_vert
0
POINT
5
13A
100
AcDbEntity
8
Defpoints
62
0
6
ByLayer
370
-1
48
1
60
0
100
AcDbPoint
10
41.7006
20
-3.57
30
0
39
0
210
0
220
0
230
1
50
360
0
POINT
5
13B
100
AcDbEntity
8
Defpoints
62
0
6
ByLayer
370
-1
48
1
60
0
100
AcDbPoint
10
41.7006
20
3.57
30
0
39
0
210
0
220
0
230
1
50
360
0
POINT
5
13C
100
AcDbEntity
8
Defpoints
62
0
6
ByLayer
370
-1
48
1
60
0
100
AcDbPoint
10
49.75006
20
3.57
30
0
39
0
210
0
220
0
230
1
50
360
0
ENDBLK
5
131
100
AcDbEntity
8
0
100
AcDbBlockEnd
0
BLOCK
5
149
100
AcDbEntity
8
0
100
AcDbBlockBegin
2
_U1
70
0
10
0
20
0
30
0
3
_U1
0
MTEXT
5
13F
100
AcDbEntity
8
2
62
256
6
ByLayer
370
18
48
1
60
0
100
AcDbMText
10
49.060403
20
7.727505
30
0
210
0
220
0
230
1
1
\W0.6756;7.14
40
3.50012
41
0
44
1.084337
50
90
71
7
72
5
7
iso_b_vert
0
LINE
5
140
100
AcDbEntity
8
2
62
256
6
ByLayer
370
13
48
1
60
0
100
AcDbLine
10
43.2881
20
-3.57
30
0
11
52.92506
21
-3.57
31
0
39
0
210
0
220
0
230
1
0
LINE
5
141
100
AcDbEntity
8
2
62
256
6
ByLayer
370
13
48
1
60
0
100
AcDbLine
10
43.2881
20
3.57
30
0
11
52.92506
21
3.57
31
0
39
0
210
0
220
0
230
1
0
LINE
5
142
100
AcDbEntity
8
2
62
256
6
ByLayer
370
13
48
1
60
0
100
AcDbLine
10
49.75006
20
-3.57
30
0
11
49.75006
21
15.278329
31
0
39
0
210
0
220
0
230
1
0
LINE
5
143
100
AcDbEntity
8
2
62
256
6
ByLayer
370
13
48
1
60
0
100
AcDbLine
10
49.75006
20
-3.57
30
0
11
49.332063
21
-0.395002
31
0
39
0
210
0
220
0
230
1
0
LINE
5
144
100
AcDbEntity
8
2
62
256
6
ByLayer
370
13
48
1
60
0
100
AcDbLine
10
49.75006
20
-3.57
30
0
11
50.168057
21
-0.394998
31
0
39
0
210
0
220
0
230
1
0
LINE
5
145
100
AcDbEntity
8
2
62
256
6
ByLayer
370
13
48
1
60
0
100
AcDbLine
10
49.332063
20
-0.395002
30
0
11
50.168057
21
-0.394998
31
0
39
0
210
0
220
0
230
1
0
LINE
5
146
100
AcDbEntity
8
2
62
256
6
ByLayer
370
13
48
1
60
0
100
AcDbLine
10
49.75006
20
3.57
30
0
11
50.168057
21
0.395002
31
0
39
0
210
0
220
0
230
1
0
LINE
5
147
100
AcDbEntity
8
2
62
256
6
ByLayer
370
13
48
1
60
0
100
AcDbLine
10
49.75006
20
3.57
30
0
11
49.332063
21
0.394998
31
0
39
0
210
0
220
0
230
1
0
LINE
5
148
100
AcDbEntity
8
2
62
256
6
ByLayer
370
13
48
1
60
0
100
AcDbLine
10
50.168057
20
0.395002
30
0
11
49.332063
21
0.394998
31
0
39
0
210
0
220
0
230
1
0
ENDBLK
5
14A
100
AcDbEntity
8
0
100
AcDbBlockEnd
0
BLOCK
5
14F
100
AcDbEntity
8
0
100
AcDbBlockBegin
2
*D6
70
1
10
0
20
0
30
0
3
*D6
0
LINE
5
151
100
AcDbEntity
8
0
62
256
6
ByLayer
370
-2
48
1
60
0
100
AcDbLine
10
-37.5875
20
4
30
0
11
-42.42494
21
4
31
0
39
0
210
0
220
0
230
1
0
LINE
5
152
100
AcDbEntity
8
0
62
256
6
ByLayer
370
-2
48
1
60
0
100
AcDbLine
10
-37.5875
20
-4
30
0
11
-42.42494
21
-4
31
0
39
0
210
0
220
0
230
1
0
LINE
5
153
100
AcDbEntity
8
0
62
256
6
ByLayer
370
-2
48
1
60
0
100
AcDbLine
10
-39.24994
20
4
30
0
11
-39.24994
21
24.830487
31
0
39
0
210
0
220
0
230
1
0
LINE
5
154
100
AcDbEntity
8
0
62
256
6
ByLayer
370
-2
48
1
60
0
100
AcDbLine
10
-39.24994
20
7.175
30
0
11
-39.24994
21
10.35
31
0
39
0
210
0
220
0
230
1
0
LINE
5
155
100
AcDbEntity
8
0
62
256
6
ByLayer
370
-2
48
1
60
0
100
AcDbLine
10
-39.24994
20
-7.175
30
0
11
-39.24994
21
-10.35
31
0
39
0
210
0
220
0
230
1
0
SOLID
5
156
100
AcDbEntity
8
0
62
256
6
ByLayer
370
-1
48
1
60
0
100
AcDbTrace
10
-39.779107
20
7.175
30
0
11
-38.720773
21
7.175
31
0
12
-39.24994
22
4
32
0
13
-39.24994
23
4
33
0
39
0
210
0
220
0
230
1
0
SOLID
5
157
100
AcDbEntity
8
0
62
256
6
ByLayer
370
-1
48
1
60
0
100
AcDbTrace
10
-38.720773
20
-7.175
30
0
11
-39.779107
21
-7.175
31
0
12
-39.24994
22
-4
32
0
13
-39.24994
23
-4
33
0
39
0
210
0
220
0
230
1
0
MTEXT
5
158
100
AcDbEntity
8
0
62
256
6
ByLayer
370
18
48
1
60
0
100
AcDbMText
10
-46.556441
20
18.10734
30
0
210
0
220
0
230
1
1
\A1;8
40
3.50012
41
0
44
1
50
90
71
5
72
5
7
iso_b_vert
0
POINT
5
159
100
AcDbEntity
8
Defpoints
62
0
6
ByLayer
370
-1
48
1
60
0
100
AcDbPoint
10
-36
20
4
30
0
39
0
210
0
220
0
230
1
50
360
0
POINT
5
15A
100
AcDbEntity
8
Defpoints
62
0
6
ByLayer
370
-1
48
1
60
0
100
AcDbPoint
10
-36
20
-4
30
0
39
0
210
0
220
0
230
1
50
360
0
POINT
5
15B
100
AcDbEntity
8
Defpoints
62
0
6
ByLayer
370
-1
48
1
60
0
100
AcDbPoint
10
-39.24994
20
-4
30
0
39
0
210
0
220
0
230
1
50
360
0
ENDBLK
5
150
100
AcDbEntity
8
0
100
AcDbBlockEnd
0
BLOCK
5
167
100
AcDbEntity
8
0
100
AcDbBlockBegin
2
_U2
70
0
10
0
20
0
30
0
3
_U2
0
MTEXT
5
15D
100
AcDbEntity
8
SK2
62
256
6
ByLayer
370
18
48
1
60
0
100
AcDbMText
10
-39.939597
20
14.157505
30
0
210
0
220
0
230
1
1
\W0.7346;8.00
40
3.50012
41
0
44
1.084337
50
90
71
7
72
5
7
iso_b_vert
0
LINE
5
15E
100
AcDbEntity
8
SK2
62
256
6
ByLayer
370
13
48
1
60
0
100
AcDbLine
10
-37.5875
20
4
30
0
11
-42.42494
21
4
31
0
39
0
210
0
220
0
230
1
0
LINE
5
15F
100
AcDbEntity
8
SK2
62
256
6
ByLayer
370
13
48
1
60
0
100
AcDbLine
10
-37.5875
20
-4
30
0
11
-42.42494
21
-4
31
0
39
0
210
0
220
0
230
1
0
LINE
5
160
100
AcDbEntity
8
SK2
62
256
6
ByLayer
370
13
48
1
60
0
100
AcDbLine
10
-39.24994
20
-4
30
0
11
-39.24994
21
22.21468
31
0
39
0
210
0
220
0
230
1
0
LINE
5
161
100
AcDbEntity
8
SK2
62
256
6
ByLayer
370
13
48
1
60
0
100
AcDbLine
10
-39.24994
20
4
30
0
11
-38.831943
21
0.825002
31
0
39
0
210
0
220
0
230
1
0
LINE
5
162
100
AcDbEntity
8
SK2
62
256
6
ByLayer
370
13
48
1
60
0
100
AcDbLine
10
-39.24994
20
4
30
0
11
-39.667937
21
0.824998
31
0
39
0
210
0
220
0
230
1
0
LINE
5
163
100
AcDbEntity
8
SK2
62
256
6
ByLayer
370
13
48
1
60
0
100
AcDbLine
10
-38.831943
20
0.825002
30
0
11
-39.667937
21
0.824998
31
0
39
0
210
0
220
0
230
1
0
LINE
5
164
100
AcDbEntity
8
SK2
62
256
6
ByLayer
370
13
48
1
60
0
100
AcDbLine
10
-39.24994
20
-4
30
0
11
-39.667937
21
-0.825002
31
0
39
0
210
0
220
0
230
1
0
LINE
5
165
100
AcDbEntity
8
SK2
62
256
6
ByLayer
370
13
48
1
60
0
100
AcDbLine
10
-39.24994
20
-4
30
0
11
-38.831943
21
-0.824998
31
0
39
0
210
0
220
0
230
1
0
LINE
5
166
100
AcDbEntity
8
SK2
62
256
6
ByLayer
370
13
48
1
60
0
100
AcDbLine
10
-39.667937
20
-0.825002
30
0
11
-38.831943
21
-0.824998
31
0
39
0
210
0
220
0
230
1
0
ENDBLK
5
168
100
AcDbEntity
8
0
100
AcDbBlockEnd
0
BLOCK
5
16D
100
AcDbEntity
8
0
100
AcDbBlockBegin
2
*D8
70
1
10
0
20
0
30
0
3
*D8
0
LINE
5
16F
100
AcDbEntity
8
0
62
256
6
ByLayer
370
-2
48
1
60
0
100
AcDbLine
10
-36
20
-5.5875
30
0
11
-36
21
-30.67512
31
0
39
0
210
0
220
0
230
1
0
LINE
5
170
100
AcDbEntity
8
0
62
256
6
ByLayer
370
-2
48
1
60
0
100
AcDbLine
10
0
20
-5.5875
30
0
11
0
21
-30.67512
31
0
39
0
210
0
220
0
230
1
0
LINE
5
171
100
AcDbEntity
8
0
62
256
6
ByLayer
370
-2
48
1
60
0
100
AcDbLine
10
-32.825
20
-27.50012
30
0
11
-3.175
21
-27.50012
31
0
39
0
210
0
220
0
230
1
0
SOLID
5
172
100
AcDbEntity
8
0
62
256
6
ByLayer
370
-1
48
1
60
0
100
AcDbTrace
10
-32.825
20
-26.970953
30
0
11
-32.825
21
-28.029287
31
0
12
-36
22
-27.50012
32
0
13
-36
23
-27.50012
33
0
39
0
210
0
220
0
230
1
0
SOLID
5
173
100
AcDbEntity
8
0
62
256
6
ByLayer
370
-1
48
1
60
0
100
AcDbTrace
10
-3.175
20
-28.029287
30
0
11
-3.175
21
-26.970953
31
0
12
0
22
-27.50012
32
0
13
0
23
-27.50012
33
0
39
0
210
0
220
0
230
1
0
MTEXT
5
174
100
AcDbEntity
8
0
62
256
6
ByLayer
370
18
48
1
60
0
100
AcDbMText
10
-18
20
-20.193619
30
0
210
0
220
0
230
1
1
\A1;36
40
3.50012
41
0
44
1
50
0
71
5
72
5
7
iso_b_vert
0
POINT
5
175
100
AcDbEntity
8
Defpoints
62
0
6
ByLayer
370
-1
48
1
60
0
100
AcDbPoint
10
-36
20
-4
30
0
39
0
210
0
220
0
230
1
50
360
0
POINT
5
176
100
AcDbEntity
8
Defpoints
62
0
6
ByLayer
370
-1
48
1
60
0
100
AcDbPoint
10
0
20
-4
30
0
39
0
210
0
220
0
230
1
50
360
0
POINT
5
177
100
AcDbEntity
8
Defpoints
62
0
6
ByLayer
370
-1
48
1
60
0
100
AcDbPoint
10
0
20
-27.50012
30
0
39
0
210
0
220
0
230
1
50
360
0
ENDBLK
5
16E
100
AcDbEntity
8
0
100
AcDbBlockEnd
0
BLOCK
5
183
100
AcDbEntity
8
0
100
AcDbBlockBegin
2
_U3
70
0
10
0
20
0
30
0
3
_U3
0
MTEXT
5
179
100
AcDbEntity
8
SK2
62
256
6
ByLayer
370
18
48
1
60
0
100
AcDbMText
10
-23.229611
20
-26.467451
30
0
210
0
220
0
230
1
1
\W0.7468;36.00
40
3.50012
41
0
44
1.084337
50
0
71
7
72
5
7
iso_b_vert
0
LINE
5
17A
100
AcDbEntity
8
SK2
62
256
6
ByLayer
370
13
48
1
60
0
100
AcDbLine
10
-36
20
-5.5875
30
0
11
-36
21
-30.67512
31
0
39
0
210
0
220
0
230
1
0
LINE
5
17B
100
AcDbEntity
8
SK2
62
256
6
ByLayer
370
13
48
1
60
0
100
AcDbLine
10
0
20
-5.5875
30
0
11
0
21
-30.67512
31
0
39
0
210
0
220
0
230
1
0
LINE
5
17C
100
AcDbEntity
8
SK2
62
256
6
ByLayer
370
13
48
1
60
0
100
AcDbLine
10
-36
20
-27.50012
30
0
11
0
21
-27.50012
31
0
39
0
210
0
220
0
230
1
0
LINE
5
17D
100
AcDbEntity
8
SK2
62
256
6
ByLayer
370
13
48
1
60
0
100
AcDbLine
10
-36
20
-27.50012
30
0
11
-32.825002
21
-27.082123
31
0
39
0
210
0
220
0
230
1
0
LINE
5
17E
100
AcDbEntity
8
SK2
62
256
6
ByLayer
370
13
48
1
60
0
100
AcDbLine
10
-36
20
-27.50012
30
0
11
-32.824998
21
-27.918117
31
0
39
0
210
0
220
0
230
1
0
LINE
5
17F
100
AcDbEntity
8
SK2
62
256
6
ByLayer
370
13
48
1
60
0
100
AcDbLine
10
-32.825002
20
-27.082123
30
0
11
-32.824998
21
-27.918117
31
0
39
0
210
0
220
0
230
1
0
LINE
5
180
100
AcDbEntity
8
SK2
62
256
6
ByLayer
370
13
48
1
60
0
100
AcDbLine
10
0
20
-27.50012
30
0
11
-3.174998
21
-27.918117
31
0
39
0
210
0
220
0
230
1
0
LINE
5
181
100
AcDbEntity
8
SK2
62
256
6
ByLayer
370
13
48
1
60
0
100
AcDbLine
10
0
20
-27.50012
30
0
11
-3.175002
21
-27.082123
31
0
39
0
210
0
220
0
230
1
0
LINE
5
182
100
AcDbEntity
8
SK2
62
256
6
ByLayer
370
13
48
1
60
0
100
AcDbLine
10
-3.174998
20
-27.918117
30
0
11
-3.175002
21
-27.082123
31
0
39
0
210
0
220
0
230
1
0
ENDBLK
5
184
100
AcDbEntity
8
0
100
AcDbBlockEnd
0
BLOCK
5
189
100
AcDbEntity
8
0
100
AcDbBlockBegin
2
*D10
70
1
10
0
20
0
30
0
3
*D10
0
LINE
5
18B
100
AcDbEntity
8
0
62
256
6
ByLayer
370
-2
48
1
60
0
100
AcDbLine
10
2
20
2.4825
30
0
11
2
21
-21.92482
31
0
39
0
210
0
220
0
230
1
0
LINE
5
18C
100
AcDbEntity
8
0
62
256
6
ByLayer
370
-2
48
1
60
0
100
AcDbLine
10
43
20
-1.5875
30
0
11
43
21
-21.92482
31
0
39
0
210
0
220
0
230
1
0
LINE
5
18D
100
AcDbEntity
8
0
62
256
6
ByLayer
370
-2
48
1
60
0
100
AcDbLine
10
5.175
20
-18.74982
30
0
11
39.825
21
-18.74982
31
0
39
0
210
0
220
0
230
1
0
SOLID
5
18E
100
AcDbEntity
8
0
62
256
6
ByLayer
370
-1
48
1
60
0
100
AcDbTrace
10
5.175
20
-18.220653
30
0
11
5.175
21
-19.278987
31
0
12
2
22
-18.74982
32
0
13
2
23
-18.74982
33
0
39
0
210
0
220
0
230
1
0
SOLID
5
18F
100
AcDbEntity
8
0
62
256
6
ByLayer
370
-1
48
1
60
0
100
AcDbTrace
10
39.825
20
-19.278987
30
0
11
39.825
21
-18.220653
31
0
12
43
22
-18.74982
32
0
13
43
23
-18.74982
33
0
39
0
210
0
220
0
230
1
0
MTEXT
5
190
100
AcDbEntity
8
0
62
256
6
ByLayer
370
18
48
1
60
0
100
AcDbMText
10
22.5
20
-11.443319
30
0
210
0
220
0
230
1
1
\A1;41
40
3.50012
41
0
44
1
50
0
71
5
72
5
7
iso_b_vert
0
POINT
5
191
100
AcDbEntity
8
Defpoints
62
0
6
ByLayer
370
-1
48
1
60
0
100
AcDbPoint
10
2
20
4.07
30
0
39
0
210
0
220
0
230
1
50
360
0
POINT
5
192
100
AcDbEntity
8
Defpoints
62
0
6
ByLayer
370
-1
48
1
60
0
100
AcDbPoint
10
43
20
0
30
0
39
0
210
0
220
0
230
1
50
360
0
POINT
5
193
100
AcDbEntity
8
Defpoints
62
0
6
ByLayer
370
-1
48
1
60
0
100
AcDbPoint
10
43
20
-18.74982
30
0
39
0
210
0
220
0
230
1
50
360
0
ENDBLK
5
18A
100
AcDbEntity
8
0
100
AcDbBlockEnd
0
BLOCK
5
19F
100
AcDbEntity
8
0
100
AcDbBlockBegin
2
_U4
70
0
10
0
20
0
30
0
3
_U4
0
MTEXT
5
195
100
AcDbEntity
8
SK2
62
256
6
ByLayer
370
18
48
1
60
0
100
AcDbMText
10
17.523564
20
-17.717151
30
0
210
0
220
0
230
1
1
\W0.7091;41.00
40
3.50012
41
0
44
1.084337
50
0
71
7
72
5
7
iso_b_vert
0
LINE
5
196
100
AcDbEntity
8
SK2
62
256
6
ByLayer
370
13
48
1
60
0
100
AcDbLine
10
2
20
2.4825
30
0
11
2
21
-21.92482
31
0
39
0
210
0
220
0
230
1
0
LINE
5
197
100
AcDbEntity
8
SK2
62
256
6
ByLayer
370
13
48
1
60
0
100
AcDbLine
10
43
20
-1.5875
30
0
11
43
21
-21.92482
31
0
39
0
210
0
220
0
230
1
0
LINE
5
198
100
AcDbEntity
8
SK2
62
256
6
ByLayer
370
13
48
1
60
0
100
AcDbLine
10
2
20
-18.74982
30
0
11
43
21
-18.74982
31
0
39
0
210
0
220
0
230
1
0
LINE
5
199
100
AcDbEntity
8
SK2
62
256
6
ByLayer
370
13
48
1
60
0
100
AcDbLine
10
2
20
-18.74982
30
0
11
5.174998
21
-18.331823
31
0
39
0
210
0
220
0
230
1
0
LINE
5
19A
100
AcDbEntity
8
SK2
62
256
6
ByLayer
370
13
48
1
60
0
100
AcDbLine
10
2
20
-18.74982
30
0
11
5.175002
21
-19.167817
31
0
39
0
210
0
220
0
230
1
0
LINE
5
19B
100
AcDbEntity
8
SK2
62
256
6
ByLayer
370
13
48
1
60
0
100
AcDbLine
10
5.174998
20
-18.331823
30
0
11
5.175002
21
-19.167817
31
0
39
0
210
0
220
0
230
1
0
LINE
5
19C
100
AcDbEntity
8
SK2
62
256
6
ByLayer
370
13
48
1
60
0
100
AcDbLine
10
43
20
-18.74982
30
0
11
39.825002
21
-19.167817
31
0
39
0
210
0
220
0
230
1
0
LINE
5
19D
100
AcDbEntity
8
SK2
62
256
6
ByLayer
370
13
48
1
60
0
100
AcDbLine
10
43
20
-18.74982
30
0
11
39.824998
21
-18.331823
31
0
39
0
210
0
220
0
230
1
0
LINE
5
19E
100
AcDbEntity
8
SK2
62
256
6
ByLayer
370
13
48
1
60
0
100
AcDbLine
10
39.825002
20
-19.167817
30
0
11
39.824998
21
-18.331823
31
0
39
0
210
0
220
0
230
1
0
ENDBLK
5
1A0
100
AcDbEntity
8
0
100
AcDbBlockEnd
0
BLOCK
5
1A5
100
AcDbEntity
8
0
100
AcDbBlockBegin
2
*D12
70
1
10
0
20
0
30
0
3
*D12
0
LINE
5
1A7
100
AcDbEntity
8
0
62
256
6
ByLayer
370
-2
48
1
60
0
100
AcDbLine
10
20.3
20
-5.1575
30
0
11
20.3
21
-11.32
31
0
39
0
210
0
220
0
230
1
0
LINE
5
1A8
100
AcDbEntity
8
0
62
256
6
ByLayer
370
-2
48
1
60
0
100
AcDbLine
10
43
20
-1.5875
30
0
11
43
21
-11.32
31
0
39
0
210
0
220
0
230
1
0
LINE
5
1A9
100
AcDbEntity
8
0
62
256
6
ByLayer
370
-2
48
1
60
0
100
AcDbLine
10
23.475
20
-10.82
30
0
11
39.825
21
-10.82
31
0
39
0
210
0
220
0
230
1
0
SOLID
5
1AA
100
AcDbEntity
8
0
62
256
6
ByLayer
370
-1
48
1
60
0
100
AcDbTrace
10
23.475
20
-10.290833
30
0
11
23.475
21
-11.349167
31
0
12
20.3
22
-10.82
32
0
13
20.3
23
-10.82
33
0
39
0
210
0
220
0
230
1
0
SOLID
5
1AB
100
AcDbEntity
8
0
62
256
6
ByLayer
370
-1
48
1
60
0
100
AcDbTrace
10
39.825
20
-11.349167
30
0
11
39.825
21
-10.290833
31
0
12
43
22
-10.82
32
0
13
43
23
-10.82
33
0
39
0
210
0
220
0
230
1
0
MTEXT
5
1AC
100
AcDbEntity
8
0
62
256
6
ByLayer
370
18
48
1
60
0
100
AcDbMText
10
31.65
20
-4.975
30
0
210
0
220
0
230
1
1
\A1;22.7
40
2.8
41
0
44
1
50
0
71
5
72
5
7
iso_b_vert
0
POINT
5
1AD
100
AcDbEntity
8
Defpoints
62
0
6
ByLayer
370
-1
48
1
60
0
100
AcDbPoint
10
20.3
20
-3.57
30
0
39
0
210
0
220
0
230
1
50
360
0
POINT
5
1AE
100
AcDbEntity
8
Defpoints
62
0
6
ByLayer
370
-1
48
1
60
0
100
AcDbPoint
10
43
20
0
30
0
39
0
210
0
220
0
230
1
50
360
0
POINT
5
1AF
100
AcDbEntity
8
Defpoints
62
0
6
ByLayer
370
-1
48
1
60
0
100
AcDbPoint
10
43
20
-10.82
30
0
39
0
210
0
220
0
230
1
50
360
0
ENDBLK
5
1A6
100
AcDbEntity
8
0
100
AcDbBlockEnd
0
BLOCK
5
1BB
100
AcDbEntity
8
0
100
AcDbBlockBegin
2
_U5
70
0
10
0
20
0
30
0
3
_U5
0
MTEXT
5
1B1
100
AcDbEntity
8
SK2
62
256
6
ByLayer
370
18
48
1
60
0
100
AcDbMText
10
27.466454
20
-10.973893
30
0
210
0
220
0
230
1
1
\W0.7468;22.70
40
2.8
41
0
44
1.084337
50
0
71
7
72
5
7
iso_b_vert
0
LINE
5
1B2
100
AcDbEntity
8
SK2
62
256
6
ByLayer
370
13
48
1
60
0
100
AcDbLine
10
20.3
20
-5.1575
30
0
11
20.3
21
-11.32
31
0
39
0
210
0
220
0
230
1
0
LINE
5
1B3
100
AcDbEntity
8
SK2
62
256
6
ByLayer
370
13
48
1
60
0
100
AcDbLine
10
43
20
-1.5875
30
0
11
43
21
-11.32
31
0
39
0
210
0
220
0
230
1
0
LINE
5
1B4
100
AcDbEntity
8
SK2
62
256
6
ByLayer
370
13
48
1
60
0
100
AcDbLine
10
20.3
20
-10.82
30
0
11
43
21
-10.82
31
0
39
0
210
0
220
0
230
1
0
LINE
5
1B5
100
AcDbEntity
8
SK2
62
256
6
ByLayer
370
13
48
1
60
0
100
AcDbLine
10
20.3
20
-10.82
30
0
11
23.474998
21
-10.402003
31
0
39
0
210
0
220
0
230
1
0
LINE
5
1B6
100
AcDbEntity
8
SK2
62
256
6
ByLayer
370
13
48
1
60
0
100
AcDbLine
10
20.3
20
-10.82
30
0
11
23.475002
21
-11.237997
31
0
39
0
210
0
220
0
230
1
0
LINE
5
1B7
100
AcDbEntity
8
SK2
62
256
6
ByLayer
370
13
48
1
60
0
100
AcDbLine
10
23.474998
20
-10.402003
30
0
11
23.475002
21
-11.237997
31
0
39
0
210
0
220
0
230
1
0
LINE
5
1B8
100
AcDbEntity
8
SK2
62
256
6
ByLayer
370
13
48
1
60
0
100
AcDbLine
10
43
20
-10.82
30
0
11
39.825002
21
-11.237997
31
0
39
0
210
0
220
0
230
1
0
LINE
5
1B9
100
AcDbEntity
8
SK2
62
256
6
ByLayer
370
13
48
1
60
0
100
AcDbLine
10
43
20
-10.82
30
0
11
39.824998
21
-10.402003
31
0
39
0
210
0
220
0
230
1
0
LINE
5
1BA
100
AcDbEntity
8
SK2
62
256
6
ByLayer
370
13
48
1
60
0
100
AcDbLine
10
39.825002
20
-11.237997
30
0
11
39.824998
21
-10.402003
31
0
39
0
210
0
220
0
230
1
0
ENDBLK
5
1BC
100
AcDbEntity
8
0
100
AcDbBlockEnd
0
BLOCK
5
1C1
100
AcDbEntity
8
0
100
AcDbBlockBegin
2
*D14
70
1
10
0
20
0
30
0
3
*D14
0
LINE
5
1C3
100
AcDbEntity
8
0
62
256
6
ByLayer
370
-2
48
1
60
0
100
AcDbLine
10
-36
20
-1.5875
30
0
11
-36
21
-40.67512
31
0
39
0
210
0
220
0
230
1
0
LINE
5
1C4
100
AcDbEntity
8
0
62
256
6
ByLayer
370
-2
48
1
60
0
100
AcDbLine
10
43
20
-1.5875
30
0
11
43
21
-40.67512
31
0
39
0
210
0
220
0
230
1
0
LINE
5
1C5
100
AcDbEntity
8
0
62
256
6
ByLayer
370
-2
48
1
60
0
100
AcDbLine
10
-32.825
20
-37.50012
30
0
11
39.825
21
-37.50012
31
0
39
0
210
0
220
0
230
1
0
SOLID
5
1C6
100
AcDbEntity
8
0
62
256
6
ByLayer
370
-1
48
1
60
0
100
AcDbTrace
10
-32.825
20
-36.970953
30
0
11
-32.825
21
-38.029287
31
0
12
-36
22
-37.50012
32
0
13
-36
23
-37.50012
33
0
39
0
210
0
220
0
230
1
0
SOLID
5
1C7
100
AcDbEntity
8
0
62
256
6
ByLayer
370
-1
48
1
60
0
100
AcDbTrace
10
39.825
20
-38.029287
30
0
11
39.825
21
-36.970953
31
0
12
43
22
-37.50012
32
0
13
43
23
-37.50012
33
0
39
0
210
0
220
0
230
1
0
MTEXT
5
1C8
100
AcDbEntity
8
0
62
256
6
ByLayer
370
18
48
1
60
0
100
AcDbMText
10
3.5
20
-30.193619
30
0
210
0
220
0
230
1
1
\A1;79
40
3.50012
41
0
44
1
50
0
71
5
72
5
7
iso_b_vert
0
POINT
5
1C9
100
AcDbEntity
8
Defpoints
62
0
6
ByLayer
370
-1
48
1
60
0
100
AcDbPoint
10
-36
20
0
30
0
39
0
210
0
220
0
230
1
50
360
0
POINT
5
1CA
100
AcDbEntity
8
Defpoints
62
0
6
ByLayer
370
-1
48
1
60
0
100
AcDbPoint
10
43
20
0
30
0
39
0
210
0
220
0
230
1
50
360
0
POINT
5
1CB
100
AcDbEntity
8
Defpoints
62
0
6
ByLayer
370
-1
48
1
60
0
100
AcDbPoint
10
43
20
-37.50012
30
0
39
0
210
0
220
0
230
1
50
360
0
ENDBLK
5
1C2
100
AcDbEntity
8
0
100
AcDbBlockEnd
0
BLOCK
5
1D7
100
AcDbEntity
8
0
100
AcDbBlockBegin
2
_U6
70
0
10
0
20
0
30
0
3
_U6
0
MTEXT
5
1CD
100
AcDbEntity
8
SK2
62
256
6
ByLayer
370
18
48
1
60
0
100
AcDbMText
10
-1.729611
20
-36.467451
30
0
210
0
220
0
230
1
1
\W0.7468;79.00
40
3.50012
41
0
44
1.084337
50
0
71
7
72
5
7
iso_b_vert
0
LINE
5
1CE
100
AcDbEntity
8
SK2
62
256
6
ByLayer
370
13
48
1
60
0
100
AcDbLine
10
-36
20
-1.5875
30
0
11
-36
21
-40.67512
31
0
39
0
210
0
220
0
230
1
0
LINE
5
1CF
100
AcDbEntity
8
SK2
62
256
6
ByLayer
370
13
48
1
60
0
100
AcDbLine
10
43
20
-1.5875
30
0
11
43
21
-40.67512
31
0
39
0
210
0
220
0
230
1
0
LINE
5
1D0
100
AcDbEntity
8
SK2
62
256
6
ByLayer
370
13
48
1
60
0
100
AcDbLine
10
-36
20
-37.50012
30
0
11
43
21
-37.50012
31
0
39
0
210
0
220
0
230
1
0
LINE
5
1D1
100
AcDbEntity
8
SK2
62
256
6
ByLayer
370
13
48
1
60
0
100
AcDbLine
10
-36
20
-37.50012
30
0
11
-32.825002
21
-37.082123
31
0
39
0
210
0
220
0
230
1
0
LINE
5
1D2
100
AcDbEntity
8
SK2
62
256
6
ByLayer
370
13
48
1
60
0
100
AcDbLine
10
-36
20
-37.50012
30
0
11
-32.824998
21
-37.918117
31
0
39
0
210
0
220
0
230
1
0
LINE
5
1D3
100
AcDbEntity
8
SK2
62
256
6
ByLayer
370
13
48
1
60
0
100
AcDbLine
10
-32.825002
20
-37.082123
30
0
11
-32.824998
21
-37.918117
31
0
39
0
210
0
220
0
230
1
0
LINE
5
1D4
100
AcDbEntity
8
SK2
62
256
6
ByLayer
370
13
48
1
60
0
100
AcDbLine
10
43
20
-37.50012
30
0
11
39.825002
21
-37.918117
31
0
39
0
210
0
220
0
230
1
0
LINE
5
1D5
100
AcDbEntity
8
SK2
62
256
6
ByLayer
370
13
48
1
60
0
100
AcDbLine
10
43
20
-37.50012
30
0
11
39.824998
21
-37.082123
31
0
39
0
210
0
220
0
230
1
0
LINE
5
1D6
100
AcDbEntity
8
SK2
62
256
6
ByLayer
370
13
48
1
60
0
100
AcDbLine
10
39.825002
20
-37.918117
30
0
11
39.824998
21
-37.082123
31
0
39
0
210
0
220
0
230
1
0
ENDBLK
5
1D8
100
AcDbEntity
8
0
100
AcDbBlockEnd
0
ENDSEC
0
SECTION
2
ENTITIES
0
ARC
5
B1
100
AcDbEntity
8
1
62
256
6
ByLayer
370
18
48
1
60
0
100
AcDbCircle
39
0
10
1.117949
20
4.344635
30
0
40
0.8
210
0
220
0
230
1
100
AcDbArc
50
225.67573
51
270.03581
0
ARC
5
B2
100
AcDbEntity
8
1
62
256
6
ByLayer
370
18
48
1
60
0
100
AcDbCircle
39
0
10
1.117949
20
-4.344635
30
0
40
0.8
210
0
220
0
230
1
100
AcDbArc
50
89.96419
51
134.32427
0
ARC
5
B3
100
AcDbEntity
8
1
62
256
6
ByLayer
370
18
48
1
60
0
100
AcDbCircle
39
0
10
0
20
3.2
30
0
40
0.799999999999996
210
0
220
0
230
1
100
AcDbArc
50
45.67573
51
90
0
ARC
5
B4
100
AcDbEntity
8
1
62
256
6
ByLayer
370
18
48
1
60
0
100
AcDbCircle
39
0
10
0
20
-3.2
30
0
40
0.799999999999996
210
0
220
0
230
1
100
AcDbArc
50
270
51
314.32427
0
ARC
5
B5
100
AcDbEntity
8
SK2
62
256
6
ByLayer
370
13
48
1
60
0
100
AcDbCircle
39
0
10
43
20
0
30
0
40
20
210
0
220
0
230
1
100
AcDbArc
50
9.606349
51
69.999628
0
ARC
5
B6
100
AcDbEntity
8
SK2
62
256
6
ByLayer
370
13
48
1
60
0
100
AcDbCircle
39
0
10
43
20
0
30
0
40
20
210
0
220
0
230
1
100
AcDbArc
50
290.000372
51
350.393651
0
ELLIPSE
5
B7
100
AcDbEntity
8
1
62
256
6
ByLayer
370
18
48
1
60
0
100
AcDbEllipse
10
3.601722
20
3.467965
30
0
11
-0.1
21
1.22460635382238E-17
31
0
210
0
220
0
230
1
40
1
41
0.0010912093706778
42
1.57426782406755
0
ELLIPSE
5
B8
100
AcDbEntity
8
1
62
256
6
ByLayer
370
18
48
1
60
0
100
AcDbEllipse
10
3.601722
20
-3.467965
30
0
11
-0.1
21
1.22460635382238E-17
31
0
210
0
220
0
230
1
40
1
41
-1.57229729631082
42
-0.00109120937052237
0
POINT
5
70
100
AcDbEntity
8
80
62
256
6
ByLayer
370
18
48
1
60
0
100
AcDbPoint
10
0
20
0
30
0
39
0
210
0
220
0
230
1
50
360
0
POINT
5
72
100
AcDbEntity
8
81
62
256
6
ByLayer
370
18
48
1
60
0
100
AcDbPoint
10
43
20
0
30
0
39
0
210
0
220
0
230
1
50
360
0
POINT
5
74
100
AcDbEntity
8
1
62
256
6
ByLayer
370
18
48
1
60
0
100
AcDbPoint
10
-36
20
0
30
0
39
0
210
0
220
0
230
1
50
360
0
POINT
5
76
100
AcDbEntity
8
1
62
256
6
ByLayer
370
18
48
1
60
1
100
AcDbPoint
10
0
20
-4
30
0
39
0
210
0
220
0
230
1
50
360
0
POINT
5
77
100
AcDbEntity
8
1
62
256
6
ByLayer
370
18
48
1
60
1
100
AcDbPoint
10
43
20
0
30
0
39
0
210
0
220
0
230
1
50
360
0
POINT
5
78
100
AcDbEntity
8
1
62
256
6
ByLayer
370
18
48
1
60
1
100
AcDbPoint
10
41.7006
20
-3.57
30
0
39
0
210
0
220
0
230
1
50
360
0
POINT
5
79
100
AcDbEntity
8
1
62
256
6
ByLayer
370
18
48
1
60
1
100
AcDbPoint
10
41.7006
20
3.57
30
0
39
0
210
0
220
0
230
1
50
360
0
POINT
5
7A
100
AcDbEntity
8
1
62
256
6
ByLayer
370
18
48
1
60
1
100
AcDbPoint
10
-36
20
4
30
0
39
0
210
0
220
0
230
1
50
360
0
POINT
5
7B
100
AcDbEntity
8
1
62
256
6
ByLayer
370
18
48
1
60
1
100
AcDbPoint
10
-36
20
-4
30
0
39
0
210
0
220
0
230
1
50
360
0
POINT
5
7C
100
AcDbEntity
8
1
62
256
6
ByLayer
370
18
48
1
60
1
100
AcDbPoint
10
-36
20
-4
30
0
39
0
210
0
220
0
230
1
50
360
0
POINT
5
7D
100
AcDbEntity
8
1
62
256
6
ByLayer
370
18
48
1
60
1
100
AcDbPoint
10
0
20
-4
30
0
39
0
210
0
220
0
230
1
50
360
0
POINT
5
7E
100
AcDbEntity
8
1
62
256
6
ByLayer
370
18
48
1
60
1
100
AcDbPoint
10
2
20
4.07
30
0
39
0
210
0
220
0
230
1
50
360
0
POINT
5
7F
100
AcDbEntity
8
1
62
256
6
ByLayer
370
18
48
1
60
1
100
AcDbPoint
10
43
20
0
30
0
39
0
210
0
220
0
230
1
50
360
0
POINT
5
80
100
AcDbEntity
8
1
62
256
6
ByLayer
370
18
48
1
60
1
100
AcDbPoint
10
20.3
20
-3.57
30
0
39
0
210
0
220
0
230
1
50
360
0
POINT
5
81
100
AcDbEntity
8
1
62
256
6
ByLayer
370
18
48
1
60
1
100
AcDbPoint
10
43
20
0
30
0
39
0
210
0
220
0
230
1
50
360
0
POINT
5
82
100
AcDbEntity
8
1
62
256
6
ByLayer
370
18
48
1
60
1
100
AcDbPoint
10
-36
20
0
30
0
39
0
210
0
220
0
230
1
50
360
0
POINT
5
83
100
AcDbEntity
8
1
62
256
6
ByLayer
370
18
48
1
60
1
100
AcDbPoint
10
43
20
0
30
0
39
0
210
0
220
0
230
1
50
360
0
SPLINE
5
B9
100
AcDbEntity
8
1
62
256
6
ByLayer
370
18
48
1
60
0
100
AcDbSpline
70
4
71
3
72
8
73
4
40
0
40
0
40
0
40
0
40
1
40
1
40
1
40
1
41
1
10
41.7538295759376
20
3.42661461647145
30
0
41
1
10
41.7559888488124
20
3.4251601817347
30
0
41
1
10
41.7581481598586
20
3.42370556666694
30
0
41
1
10
41.7603075094673
20
3.42225077130635
30
0
0
SPLINE
5
BA
100
AcDbEntity
8
1
62
256
6
ByLayer
370
18
48
1
60
0
100
AcDbSpline
70
4
71
3
72
34
73
30
40
0
40
0
40
0
40
0
40
0.0854269033443311
40
0.0854269033443311
40
0.13547194250427
40
0.13547194250427
40
0.18551698166421
40
0.18551698166421
40
0.385697138303966
40
0.385697138303966
40
0.435742177463905
40
0.435742177463905
40
0.485787216623845
40
0.485787216623845
40
0.585877294943726
40
0.585877294943726
40
0.635922334103666
40
0.635922334103666
40
0.685967373263606
40
0.685967373263606
40
0.786057451583487
40
0.786057451583487
40
0.836102490743428
40
0.836102490743428
40
0.886147529903368
40
0.886147529903368
40
0.986237608223249
40
0.986237608223249
40
1
40
1
40
1
40
1
41
1
10
19.9449084010069
20
-0.208162073159684
30
0
41
1
10
19.6086631050851
20
-0.0450394597357047
30
0
41
1
10
19.2736430159355
20
0.117804783211597
30
0
41
1
10
18.744351730077
20
0.375100934241288
30
0
41
1
10
18.549416452579
20
0.470153781852815
30
0
41
1
10
18.1594012888348
20
0.658192716754911
30
0
41
1
10
17.9643732022098
20
0.751255725509367
30
0
41
1
10
16.9892580325591
20
1.21155901113897
30
-1E-16
41
1
10
16.2086317453973
20
1.56336290341093
30
-1E-16
41
1
10
15.2229647114425
20
1.96203775873241
30
-1E-16
41
1
10
15.0250661061426
20
2.03976841051346
30
-1E-16
41
1
10
14.6303003525542
20
2.18955764104942
30
-1E-16
41
1
10
14.4331910075829
20
2.26174139733305
30
-1E-16
41
1
10
13.8429446958727
20
2.46963053692753
30
-2E-16
41
1
10
13.450782443984
20
2.59690074555584
30
-2E-16
41
1
10
12.8647732286036
20
2.76644631496404
30
1E-16
41
1
10
12.6697799351442
20
2.81941607162963
30
0
41
1
10
12.2794354882767
20
2.91894443050612
30
0
41
1
10
12.0841137995163
20
2.96546886333911
30
0
41
1
10
11.4976489641118
20
3.09482825435399
30
0
41
1
10
11.1060045991681
20
3.16741836159559
30
0
41
1
10
10.5169124712843
20
3.25110645767828
30
0
41
1
10
10.3202645186038
20
3.2748443291583
30
0
41
1
10
9.92571795703839
20
3.31511078028623
30
0
41
1
10
9.72743641512886
20
3.33162309177942
30
0
41
1
10
9.13428359059191
20
3.36906788418454
30
0
41
1
10
8.74097810775447
20
3.37798965376535
30
0
41
1
10
8.29558394099706
20
3.36813440333523
30
0
41
1
10
8.24177732016284
20
3.36661318832131
30
0
41
1
10
8.18799450582623
20
3.36477794281586
30
0
0
SPLINE
5
BB
100
AcDbEntity
8
1
62
256
6
ByLayer
370
18
48
1
60
0
100
AcDbSpline
70
4
71
3
72
20
73
16
40
0
40
0
40
0
40
0
40
0.250000000000002
40
0.250000000000002
40
0.500000000000005
40
0.500000000000005
40
0.562500000000006
40
0.562500000000006
40
0.625000000000008
40
0.625000000000008
40
0.750000000000006
40
0.750000000000006
40
0.875000000000003
40
0.875000000000003
40
1
40
1
40
1
40
1
41
1
10
41.7603075094672
20
3.42225077130635
30
0
41
1
10
41.8302468235103
20
3.22581033585394
30
0
41
1
10
41.8995533119551
20
3.02800397670407
30
0
41
1
10
42.0389977231981
20
2.63152023913031
30
0
41
1
10
42.1091187064183
20
2.43292357701935
30
0
41
1
10
42.1979181250848
20
2.18514376410377
30
0
41
1
10
42.215650357641
20
2.13557520442598
30
0
41
1
10
42.2519506240158
20
2.03692240136323
30
0
41
1
10
42.2704694751463
20
1.98780731183561
30
0
41
1
10
42.3273848099078
20
1.8411961660218
30
0
41
1
10
42.3671190094823
20
1.74457859677662
30
0
41
1
10
42.4494389179754
20
1.55820059987863
30
0
41
1
10
42.492252824822
20
1.46788891578626
30
0
41
1
10
42.5818377078777
20
1.29297435615871
30
0
41
1
10
42.6289165481871
20
1.20791507302488
30
0
41
1
10
42.6775254883817
20
1.12704238603467
30
0
0
SPLINE
5
BC
100
AcDbEntity
8
1
62
256
6
ByLayer
370
18
48
1
60
0
100
AcDbSpline
70
4
71
3
72
8
73
4
40
0
40
0
40
0
40
0
40
1
40
1
40
1
40
1
41
1
10
41.7250758057676
20
-3.3721136465432
30
0
41
1
10
41.7199534267229
20
-3.38697047646468
30
0
41
1
10
41.7148517504387
20
-3.40182708449035
30
0
41
1
10
41.7097711744399
20
-3.41668358142439
30
0
0
SPLINE
5
BD
100
AcDbEntity
8
1
62
256
6
ByLayer
370
18
48
1
60
0
100
AcDbSpline
70
4
71
3
72
16
73
12
40
0
40
0
40
0
40
0
40
0.230825133891709
40
0.230825133891709
40
0.383788199670092
40
0.383788199670092
40
0.536751265448476
40
0.536751265448476
40
0.842677397005244
40
0.842677397005244
40
1
40
1
40
1
40
1
41
1
10
3.60204458825689
20
3.36797447665864
30
0
41
1
10
3.60203277529618
20
3.36774403083604
30
0
41
1
10
3.60202103933449
20
3.35819328400527
30
0
41
1
10
3.60200141214355
20
3.32721090155576
30
0
41
1
10
3.60199355658963
20
3.31085135586426
30
0
41
1
10
3.60197765668747
20
3.26998306574248
30
0
41
1
10
3.60196957532696
20
3.24533853107766
30
0
41
1
10
3.60194510317817
20
3.15975189852864
30
0
41
1
10
3.60192858935091
20
3.08775111156106
30
0
41
1
10
3.60190230972077
20
2.95681110205243
30
0
41
1
10
3.6018931457034
20
2.90840622616565
30
0
41
1
10
3.60188366657386
20
2.85613854443341
30
0
0
SPLINE
5
BE
100
AcDbEntity
8
1
62
256
6
ByLayer
370
18
48
1
60
0
100
AcDbSpline
70
4
71
3
72
18
73
14
40
0
40
0
40
0
40
0
40
0.234383894508191
40
0.234383894508191
40
0.351575841762288
40
0.351575841762288
40
0.468767789016385
40
0.468767789016385
40
0.703151683524579
40
0.703151683524579
40
0.937535578032773
40
0.937535578032773
40
1
40
1
40
1
40
1
41
1
10
3.64762999800843
20
-2.65554820504312
30
2E-16
41
1
10
4.04070475591291
20
-2.7903523240648
30
2E-16
41
1
10
4.43363984995463
20
-2.91081101569759
30
2E-16
41
1
10
5.02365248169517
20
-3.06969903693803
30
0
41
1
10
5.22040563413276
20
-3.11904145832179
30
0
41
1
10
5.61407014358082
20
-3.2104102325178
30
0
41
1
10
5.81102764828256
20
-3.25236831647658
30
0
41
1
10
6.40006601251056
20
-3.36566542103034
30
0
41
1
10
6.7911749992125
20
-3.42488902200048
30
0
41
1
10
7.57227837144586
20
-3.51023013159431
30
0
41
1
10
7.96189189363204
20
-3.53643572051863
30
0
41
1
10
8.45625252748815
20
-3.54806981074057
30
0
41
1
10
8.56035536357862
20
-3.54931622686016
30
0
41
1
10
8.66454406311661
20
-3.54935886277158
30
0
0
SPLINE
5
BF
100
AcDbEntity
8
1
62
256
6
ByLayer
370
18
48
1
60
0
100
AcDbSpline
70
4
71
3
72
34
73
30
40
0
40
0
40
0
40
0
40
0.0020412985001989
40
0.0020412985001989
40
0.0927648168183643
40
0.0927648168183643
40
0.138126575977447
40
0.138126575977447
40
0.183488335136529
40
0.183488335136529
40
0.274211853454692
40
0.274211853454692
40
0.364935371772855
40
0.364935371772855
40
0.455658890091017
40
0.455658890091017
40
0.54638240840918
40
0.54638240840918
40
0.637105926727342
40
0.637105926727342
40
0.727829445045505
40
0.727829445045505
40
0.773191204204587
40
0.773191204204587
40
0.81855296336367
40
0.81855296336367
40
0.909276481681835
40
0.909276481681835
40
1
40
1
40
1
40
1
41
1
10
28.265952852445
20
3.39092090338016
30
0
41
1
10
28.2746936037915
20
3.39229987934161
30
0
41
1
10
28.2834343233334
20
3.39367098343536
30
0
41
1
10
28.6806464841552
20
3.45562161424587
30
0
41
1
10
29.068490826457
20
3.50068758196636
30
0
41
1
10
29.6541950350666
20
3.5424502920911
30
0
41
1
10
29.8499873355202
20
3.55215988124252
30
0
41
1
10
30.2426513375777
20
3.56312856236406
30
0
41
1
10
30.4398278003923
20
3.56437451116139
30
0
41
1
10
31.0298617077192
20
3.55518360683038
30
0
41
1
10
31.4211782164232
20
3.53162110176291
30
0
41
1
10
32.2058142368441
20
3.45111778421784
30
0
41
1
10
32.5987082501085
20
3.39415590599111
30
0
41
1
10
33.386080940422
20
3.24757219828797
30
0
41
1
10
33.7778178738627
20
3.15779651836843
30
0
41
1
10
34.5624609383975
20
2.94986500349643
30
-2E-16
41
1
10
34.9550324573878
20
2.83156222361842
30
-2E-16
41
1
10
35.7417222154513
20
2.56716994106202
30
-2E-16
41
1
10
36.1341261657153
20
2.42122957451971
30
-1E-16
41
1
10
36.9189305926708
20
2.10981729244179
30
-1E-16
41
1
10
37.3113519609299
20
1.94367325014522
30
-1E-16
41
1
10
37.900825672566
20
1.67992754875883
30
-1E-16
41
1
10
38.0976150715514
20
1.58943383333553
30
-1E-16
41
1
10
38.489920502256
20
1.40525534857653
30
-1E-16
41
1
10
38.685738576862
20
1.31165101761988
30
-1E-16
41
1
10
39.2728966785973
20
1.027660406329
30
-1E-16
41
1
10
39.6636307398505
20
0.833534302527084
30
-1E-16
41
1
10
40.4449011640774
20
0.438033466870792
30
0
41
1
10
40.8354250378362
20
0.236621990567898
30
0
41
1
10
41.2270324941014
20
0.0338038642536276
30
0
0
SPLINE
5
C0
100
AcDbEntity
8
1
62
256
6
ByLayer
370
18
48
1
60
0
100
AcDbSpline
70
4
71
3
72
10
73
6
40
0
40
0
40
0
40
0
40
0.5
40
0.5
40
1
40
1
40
1
40
1
41
1
10
3.50172180472043
20
-2.71352482388417
30
2E-16
41
1
10
3.5017218047204
20
-2.69133576178552
30
2E-16
41
1
10
3.52035755835655
20
-2.66958396969215
30
2E-16
41
1
10
3.57912830746477
20
-2.6459381953371
30
2E-16
41
1
10
3.61700991530356
20
-2.64504711538936
30
2E-16
41
1
10
3.6476299980082
20
-2.65554820504303
30
2E-16
0
SPLINE
5
C1
100
AcDbEntity
8
1
62
256
6
ByLayer
370
18
48
1
60
0
100
AcDbSpline
70
4
71
3
72
8
73
4
40
0
40
0
40
0
40
0
40
1
40
1
40
1
40
1
41
1
10
42.6775254883817
20
1.12704238603467
30
0
41
1
10
42.7869245983465
20
0.818135990052042
30
0
41
1
10
42.893334043542
20
0.50815980860412
30
0
41
1
10
42.9967078673988
20
0.197097397148269
30
0
0
SPLINE
5
C2
100
AcDbEntity
8
1
62
256
6
ByLayer
370
18
48
1
60
0
100
AcDbSpline
70
4
71
3
72
8
73
4
40
0
40
0
40
0
40
0
40
1
40
1
40
1
40
1
41
1
10
41.2270324941013
20
0.0338038642536844
30
0
41
1
10
41.2560329427823
20
0.0182434329370267
30
0
41
1
10
41.2848437731728
20
0.0034900197591128
30
0
41
1
10
41.3134974673087
20
-0.0104760106804633
30
0
0
SPLINE
5
C3
100
AcDbEntity
8
1
62
256
6
ByLayer
370
18
48
1
60
0
100
AcDbSpline
70
4
71
3
72
8
73
4
40
0
40
0
40
0
40
0
40
1
40
1
40
1
40
1
41
1
10
42.9967078674041
20
0.197097397143153
30
0
41
1
10
43.0010977055879
20
0.0656893121846736
30
0
41
1
10
43.0010970495268
20
-0.0657089511058757
30
0
41
1
10
42.9967078674044
20
-0.19709739713133
30
0
0
SPLINE
5
C4
100
AcDbEntity
8
1
62
256
6
ByLayer
370
18
48
1
60
0
100
AcDbSpline
70
4
71
3
72
8
73
4
40
0
40
0
40
0
40
0
40
1
40
1
40
1
40
1
41
1
10
41.7538295759368
20
-3.42661461647194
30
0
41
1
10
41.755988848812
20
-3.42516018173501
30
0
41
1
10
41.7581481598585
20
-3.42370556666708
30
0
41
1
10
41.7603075094673
20
-3.42225077130632
30
0
0
SPLINE
5
C5
100
AcDbEntity
8
1
62
256
6
ByLayer
370
18
48
1
60
0
100
AcDbSpline
70
4
71
3
72
20
73
16
40
0
40
0
40
0
40
0
40
0.157890686465896
40
0.157890686465896
40
0.315781372931792
40
0.315781372931792
40
0.473672059397688
40
0.473672059397688
40
0.631562745863584
40
0.631562745863584
40
0.78945343232948
40
0.78945343232948
40
0.947344118795376
40
0.947344118795376
40
1
40
1
40
1
40
1
41
1
10
41.7538295759377
20
3.42661461647197
30
0
41
1
10
41.4882155701328
20
3.42876451857367
30
0
41
1
10
41.2224479984129
20
3.42340039125168
30
0
41
1
10
40.6919045458295
20
3.39781841297571
30
0
41
1
10
40.4270408605974
20
3.37761256958794
30
0
41
1
10
39.8973106036941
20
3.32209090229526
30
0
41
1
10
39.6324786758377
20
3.28679766664985
30
0
41
1
10
39.1022260335769
20
3.20187186857004
30
0
41
1
10
38.8366057448607
20
3.152219480203
30
0
41
1
10
38.3053757248071
20
3.03916634227306
30
0
41
1
10
38.0396186740461
20
2.97587261176744
30
0
41
1
10
37.5089668311383
20
2.83695858508258
30
0
41
1
10
37.2440307715559
20
2.76129449425207
30
-2E-16
41
1
10
36.8907054608146
20
2.65255319523473
30
-2E-16
41
1
10
36.8023442479031
20
2.62470165267794
30
-2E-16
41
1
10
36.7139742691201
20
2.59620377427666
30
-2E-16
0
SPLINE
5
C6
100
AcDbEntity
8
1
62
256
6
ByLayer
370
18
48
1
60
0
100
AcDbSpline
70
4
71
3
72
8
73
4
40
0
40
0
40
0
40
0
40
1
40
1
40
1
40
1
41
1
10
21.3622166705897
20
-3.35033965504485
30
0
41
1
10
21.2640117777772
20
-3.36063358009034
30
0
41
1
10
21.165755361904
20
-3.36990380712479
30
0
41
1
10
21.0674321365155
20
-3.37812992102178
30
0
0
SPLINE
5
C7
100
AcDbEntity
8
1
62
256
6
ByLayer
370
18
48
1
60
0
100
AcDbSpline
70
4
71
3
72
14
73
10
40
0
40
0
40
0
40
0
40
0.269834270533323
40
0.269834270533323
40
0.506811387557624
40
0.506811387557624
40
0.783553334123701
40
0.783553334123701
40
1
40
1
40
1
40
1
41
1
10
41.3134974673087
20
-0.0104760106804349
30
0
41
1
10
41.3142425204016
20
-0.0108391552762441
30
0
41
1
10
41.3149704062994
20
-0.0115684827556208
30
0
41
1
10
41.3161864305242
20
-0.0133645177438098
30
0
41
1
10
41.3167096866082
20
-0.0144035680789329
30
0
41
1
10
41.3176774799271
20
-0.0169178742547729
30
0
41
1
10
41.3181097197733
20
-0.0184762677219226
30
0
41
1
10
41.318636138931
20
-0.021414123328384
30
0
41
1
10
41.3187883970613
20
-0.0227927853939036
30
0
41
1
10
41.3188309802266
20
-0.0241630575486624
30
0
0
SPLINE
5
C8
100
AcDbEntity
8
1
62
256
6
ByLayer
370
18
48
1
60
0
100
AcDbSpline
70
4
71
3
72
8
73
4
40
0
40
0
40
0
40
0
40
1
40
1
40
1
40
1
41
1
10
16.28
20
3.10208689809491
30
0
41
1
10
16.28
20
3.058608803417
30
0
41
1
10
16.28
20
3.01521842052796
30
0
41
1
10
16.28
20
2.97191475173409
30
0
0
SPLINE
5
C9
100
AcDbEntity
8
1
62
256
6
ByLayer
370
18
48
1
60
0
100
AcDbSpline
70
4
71
3
72
12
73
8
40
0
40
0
40
0
40
0
40
0.424313111597283
40
0.424313111597283
40
0.848626223194566
40
0.848626223194566
40
1
40
1
40
1
40
1
41
1
10
16.2799999241433
20
-3.07631466809542
30
0
41
1
10
16.8077546332519
20
-3.21224942210796
30
0
41
1
10
17.3357905559783
20
-3.32133760787133
30
0
41
1
10
18.3866818330731
20
-3.47942079092644
30
0
41
1
10
18.9102447890278
20
-3.52879634337202
30
0
41
1
10
19.6217325229756
20
-3.55438713103214
30
0
41
1
10
19.8089253765603
20
-3.5572321705767
30
0
41
1
10
19.9963633955613
20
-3.5561639428413
30
0
0
SPLINE
5
CA
100
AcDbEntity
8
1
62
256
6
ByLayer
370
18
48
1
60
0
100
AcDbSpline
70
4
71
3
72
10
73
6
40
0
40
0
40
0
40
0
40
0.48586070549185
40
0.48586070549185
40
1
40
1
40
1
40
1
41
1
10
40.0024564063127
20
3.46674762176798
30
0
41
1
10
40.2514498701901
20
3.49738047809998
30
0
41
1
10
40.5005913545504
20
3.52129678737035
30
0
41
1
10
41.0125787106622
20
3.55635486400229
30
0
41
1
10
41.275642764546
20
3.56670658866563
30
0
41
1
10
41.5388972699104
20
3.56931791154113
30
0
0
SPLINE
5
CB
100
AcDbEntity
8
1
62
256
6
ByLayer
370
18
48
1
60
0
100
AcDbSpline
70
4
71
3
72
70
73
66
40
0
40
0
40
0
40
0
40
0.0166021851175406
40
0.0166021851175406
40
0.0575924666006001
40
0.0575924666006001
40
0.0985827480836596
40
0.0985827480836596
40
0.139573029566719
40
0.139573029566719
40
0.180563311049779
40
0.180563311049779
40
0.201058451791308
40
0.201058451791308
40
0.221553592532838
40
0.221553592532838
40
0.242048733274368
40
0.242048733274368
40
0.262543874015898
40
0.262543874015898
40
0.303534155498956
40
0.303534155498956
40
0.344524436982014
40
0.344524436982014
40
0.365019577723544
40
0.365019577723544
40
0.385514718465074
40
0.385514718465074
40
0.426504999948135
40
0.426504999948135
40
0.467495281431196
40
0.467495281431196
40
0.508485562914258
40
0.508485562914258
40
0.528980703655789
40
0.528980703655789
40
0.54947584439732
40
0.54947584439732
40
0.590466125880381
40
0.590466125880381
40
0.631456407363443
40
0.631456407363443
40
0.651951548104974
40
0.651951548104974
40
0.672446688846506
40
0.672446688846506
40
0.713436970329567
40
0.713436970329567
40
0.754427251812629
40
0.754427251812629
40
0.77492239255416
40
0.77492239255416
40
0.795417533295691
40
0.795417533295691
40
0.836407814778753
40
0.836407814778753
40
0.877398096261815
40
0.877398096261815
40
0.918388377744877
40
0.918388377744877
40
0.938883518486408
40
0.938883518486408
40
0.959378659227939
40
0.959378659227939
40
1
40
1
40
1
40
1
41
1
10
37.1804951255107
20
-2.39146817563986
30
1E-16
41
1
10
37.0272260109443
20
-2.44991911056934
30
2E-16
41
1
10
36.8735648547047
20
-2.50679579674033
30
2E-16
41
1
10
36.3420696528781
20
-2.69773131389431
30
2E-16
41
1
10
35.9658436440509
20
-2.82105810872071
30
2E-16
41
1
10
35.2151089069968
20
-3.04061643743887
30
0
41
1
10
34.8414224159972
20
-3.13771320745039
30
0
41
1
10
34.0935239571469
20
-3.30277824803801
30
0
41
1
10
33.7194034994681
20
-3.37098620170266
30
0
41
1
10
32.9702227982287
20
-3.47801347785961
30
0
41
1
10
32.5944158471625
20
-3.51637344605615
30
0
41
1
10
32.0277692553206
20
-3.5504586219096
30
0
41
1
10
31.8382691022956
20
-3.55794944569021
30
0
41
1
10
31.4597477197212
20
-3.56479745759873
30
0
41
1
10
31.2710056558302
20
-3.56419055719115
30
0
41
1
10
30.8941987172354
20
-3.5551075980903
30
0
41
1
10
30.7060865227731
20
-3.54665544990419
30
0
41
1
10
30.3308156607682
20
-3.52192909570206
30
0
41
1
10
30.1436390739356
20
-3.50562828964678
30
0
41
1
10
29.5822852004457
20
-3.44536098115185
30
0
41
1
10
29.2081385400894
20
-3.39026170101016
30
0
41
1
10
28.4603253153516
20
-3.25012351488692
30
0
41
1
10
28.0861354644265
20
-3.16529524503085
30
0
41
1
10
27.5222214191808
20
-3.01776654943092
30
0
41
1
10
27.33387974717
20
-2.96516536806911
30
0
41
1
10
26.9566650066096
20
-2.85269133332468
30
2E-16
41
1
10
26.7673588595567
20
-2.79298994104042
30
2E-16
41
1
10
26.1988432892426
20
-2.60476445431968
30
2E-16
41
1
10
25.8217153237262
20
-2.46838829872166
30
2E-16
41
1
10
25.0710522461121
20
-2.17449427206881
30
1E-16
41
1
10
24.6967769161043
20
-2.01806228954484
30
1E-16
41
1
10
23.9482797991754
20
-1.68993971843182
30
1E-16
41
1
10
23.5749111080109
20
-1.51673978257315
30
1E-16
41
1
10
23.0129435440235
20
-1.24888034858665
30
1E-16
41
1
10
22.825317037387
20
-1.15824238619106
30
1E-16
41
1
10
22.4495156294835
20
-0.974133714500965
30
1E-16
41
1
10
22.2615369425205
20
-0.8802692399791
30
1E-16
41
1
10
21.6959578902336
20
-0.595903915087945
30
0
41
1
10
21.3153671674512
20
-0.402199929299599
30
0
41
1
10
20.5606159980467
20
-0.0148150432071077
30
0
41
1
10
20.1854854336818
20
0.179621901224465
30
0
41
1
10
19.6232151837275
20
0.466545389232692
30
0
41
1
10
19.4358792796306
20
0.5614420229725
30
0
41
1
10
19.0618669035027
20
0.750697773177166
30
0
41
1
10
18.8749991578826
20
0.844675480811674
30
-1E-16
41
1
10
18.3139972513023
20
1.12308357354138
30
-1E-16
41
1
10
17.9392377844698
20
1.30359055377798
30
-1E-16
41
1
10
17.1886018652408
20
1.65505765884404
30
-1E-16
41
1
10
16.8119611355029
20
1.82457077331284
30
-1E-16
41
1
10
16.2431949035458
20
2.06613741025365
30
-1E-16
41
1
10
16.0535030607147
20
2.14463997259165
30
-1E-16
41
1
10
15.6759592359351
20
2.29631594285641
30
-1E-16
41
1
10
15.4876550171149
20
2.36942659946834
30
-1E-16
41
1
10
14.9235829133449
20
2.57989786431892
30
-2E-16
41
1
10
14.5486428370732
20
2.70845643787951
30
-2E-16
41
1
10
13.8004709227493
20
2.94163510145987
30
-2E-16
41
1
10
13.4264875912018
20
3.04529657071157
30
0
41
1
10
12.6771774866828
20
3.2253381063064
30
0
41
1
10
12.302559824509
20
3.30225157055509
30
0
41
1
10
11.7372934566491
20
3.39483715190585
30
0
41
1
10
11.5483329405791
20
3.42195753340906
30
0
41
1
10
11.1696319662519
20
3.46877632328392
30
0
41
1
10
10.9798342305214
20
3.4884531802048
30
0
41
1
10
10.4161958187789
20
3.53492437818039
30
0
41
1
10
10.0430005852101
20
3.55010610593831
30
0
41
1
10
9.67133373165007
20
3.5499800900995
30
0
0
SPLINE
5
CC
100
AcDbEntity
8
1
62
256
6
ByLayer
370
18
48
1
60
0
100
AcDbSpline
70
4
71
3
72
8
73
4
40
0
40
0
40
0
40
0
40
1
40
1
40
1
40
1
41
1
10
42.9967078674086
20
0.197097397145171
30
0
41
1
10
42.9812873197539
20
0.145699517443347
30
0
41
1
10
42.9657899718715
20
0.0943260307172125
30
0
41
1
10
42.9502161141888
20
0.0429768447224603
30
0
0
SPLINE
5
CD
100
AcDbEntity
8
1
62
256
6
ByLayer
370
18
48
1
60
0
100
AcDbSpline
70
4
71
3
72
22
73
18
40
0
40
0
40
0
40
0
40
0.0326225342288934
40
0.0326225342288934
40
0.161437568908308
40
0.161437568908308
40
0.419067638267139
40
0.419067638267139
40
0.547882672946554
40
0.547882672946554
40
0.676697707625969
40
0.676697707625969
40
0.805512742305384
40
0.805512742305384
40
0.934327776984799
40
0.934327776984799
40
1
40
1
40
1
40
1
41
1
10
3.60221628716417
20
-2.65946618250945
30
1E-16
41
1
10
3.60221477466681
20
-2.67444776710286
30
1E-16
41
1
10
3.6022132377035
20
-2.68921971191102
30
1E-16
41
1
10
3.6022055169675
20
-2.76128489784588
30
-1E-16
41
1
10
3.60219897492425
20
-2.8156424231411
30
0
41
1
10
3.6021787065832
20
-2.96694889857412
30
0
41
1
10
3.60216430228357
20
-3.0528460939442
30
0
41
1
10
3.60214192523
20
-3.15970979397798
30
0
41
1
10
3.60213433332504
20
-3.1916474258162
30
0
41
1
10
3.60211892782979
20
-3.2479921233857
30
0
41
1
10
3.60211109363291
20
-3.27242659048355
30
0
41
1
10
3.60209545033069
20
-3.31291979617978
30
0
41
1
10
3.602087616734
20
-3.32908943641687
30
0
41
1
10
3.60207191423598
20
-3.35329919542394
30
0
41
1
10
3.60206401970052
20
-3.36134835869936
30
0
41
1
10
3.60205213498307
20
-3.36721096820872
30
0
41
1
10
3.60204813608365
20
-3.36811796630641
30
0
41
1
10
3.60204414576538
20
-3.36796148450387
30
0
0
SPLINE
5
CE
100
AcDbEntity
8
1
62
256
6
ByLayer
370
18
48
1
60
0
100
AcDbSpline
70
4
71
3
72
30
73
26
40
0
40
0
40
0
40
0
40
0.0087125145803972
40
0.0087125145803972
40
0.0608855401287972
40
0.0608855401287972
40
0.165231591225598
40
0.165231591225598
40
0.269577642322398
40
0.269577642322398
40
0.373923693419198
40
0.373923693419198
40
0.478269744515999
40
0.478269744515999
40
0.582615795612799
40
0.582615795612799
40
0.686961846709599
40
0.686961846709599
40
0.7913078978064
40
0.7913078978064
40
0.8956539489032
40
0.8956539489032
40
0.9478269744516
40
0.9478269744516
40
1
40
1
40
1
40
1
41
1
10
30.0463411739883
20
3.38840979429415
30
0
41
1
10
30.0793644052541
20
3.38919846023737
30
0
41
1
10
30.1123755931976
20
3.38986993114821
30
0
41
1
10
30.3429219495563
20
3.39375405851712
30
0
41
1
10
30.5398974653568
20
3.39295120305775
30
0
41
1
10
31.129274715523
20
3.37945341033858
30
0
41
1
10
31.5198410060972
20
3.35659796633388
30
0
41
1
10
32.3007394301733
20
3.27468992755038
30
0
41
1
10
32.6906941482368
20
3.2175474130969
30
0
41
1
10
33.4709482067827
20
3.07400043022477
30
0
41
1
10
33.8607443229213
20
2.98833898410746
30
0
41
1
10
34.6445221626159
20
2.78629456738057
30
1E-16
41
1
10
35.0381460336599
20
2.67078173074151
30
-2E-16
41
1
10
35.82948469599
20
2.41385433091097
30
-1E-16
41
1
10
36.2226993453446
20
2.27390366771914
30
-1E-16
41
1
10
37.0065526005916
20
1.97410609108127
30
-1E-16
41
1
10
37.3971853061639
20
1.81466806899095
30
-1E-16
41
1
10
38.1769815068698
20
1.48022515575244
30
-1E-16
41
1
10
38.5659629285281
20
1.30507853944931
30
-1E-16
41
1
10
39.346617381464
20
0.943979831028713
30
-1E-16
41
1
10
39.7379041861984
20
0.758002462630429
30
0
41
1
10
40.3270339654429
20
0.473360288896657
30
0
41
1
10
40.5237746550696
20
0.377523549460676
30
0
41
1
10
40.9181695710397
20
0.184365260807226
30
0
41
1
10
41.1159793449316
20
0.0869769874911412
30
0
41
1
10
41.3134974673087
20
-0.0104760106804633
30
0
0
SPLINE
5
CF
100
AcDbEntity
8
1
62
256
6
ByLayer
370
18
48
1
60
0
100
AcDbSpline
70
4
71
3
72
34
73
30
40
0
40
0
40
0
40
0
40
0.014576957877636
40
0.014576957877636
40
0.11832753053324
40
0.11832753053324
40
0.170202816861043
40
0.170202816861043
40
0.222078103188845
40
0.222078103188845
40
0.32582867584445
40
0.32582867584445
40
0.377703962172251
40
0.377703962172251
40
0.429579248500053
40
0.429579248500053
40
0.533329821155657
40
0.533329821155657
40
0.585205107483458
40
0.585205107483458
40
0.63708039381126
40
0.63708039381126
40
0.84458153912247
40
0.84458153912247
40
0.896456825450273
40
0.896456825450273
40
0.948332111778076
40
0.948332111778076
40
1
40
1
40
1
40
1
41
1
10
8.18766665207846
20
3.37398081974621
30
0
41
1
10
8.24260647558168
20
3.37595077471002
30
0
41
1
10
8.29757119369114
20
3.37759261388547
30
0
41
1
10
8.74401957335465
20
3.38811895670923
30
0
41
1
10
9.13722591604636
20
3.37972568364009
30
0
41
1
10
9.73023809705401
20
3.34300376416158
30
0
41
1
10
9.92848050109984
20
3.32672020999576
30
0
41
1
10
10.322936122647
20
3.28688203680252
30
0
41
1
10
10.5195356963627
20
3.26334744873782
30
0
41
1
10
11.1084883251537
20
3.18024234426068
30
0
41
1
10
11.5000354457356
20
3.10798430979097
30
0
41
1
10
12.0863386549829
20
2.97902756086245
30
0
41
1
10
12.281604636553
20
2.93262275430939
30
0
41
1
10
12.6718334327748
20
2.83330263207208
30
0
41
1
10
12.866767843973
20
2.7804257393482
30
1E-16
41
1
10
13.4526134558252
20
2.61113826741209
30
-2E-16
41
1
10
13.844671074814
20
2.48397006371846
30
-2E-16
41
1
10
14.4347603093171
20
2.27612389760208
30
-1E-16
41
1
10
14.631817720116
20
2.20393628769884
30
-1E-16
41
1
10
15.0264792906725
20
2.05410041877627
30
-1E-16
41
1
10
15.2243384926582
20
1.97633890996897
30
-1E-16
41
1
10
16.2098063511807
20
1.57741292947796
30
-1E-16
41
1
10
16.9902250741882
20
1.22515062573103
30
-1E-16
41
1
10
17.9650617126673
20
0.763998007263552
30
0
41
1
10
18.1600330943261
20
0.670750087861762
30
0
41
1
10
18.549931567008
20
0.482309248326061
30
0
41
1
10
18.7448086297822
20
0.387047713455075
30
0
41
1
10
19.1349670340641
20
0.196880723389029
30
0
41
1
10
19.3300843261562
20
0.101770116481845
30
0
41
1
10
19.5256240181839
20
0.0065050016074224
30
0
0
SPLINE
5
D0
100
AcDbEntity
8
1
62
256
6
ByLayer
370
18
48
1
60
0
100
AcDbSpline
70
4
71
3
72
8
73
4
40
0
40
0
40
0
40
0
40
1
40
1
40
1
40
1
41
1
10
42.6775254883817
20
-1.12704238603467
30
0
41
1
10
42.7869245983486
20
-0.818135990046443
30
0
41
1
10
42.8933340435458
20
-0.508159808592865
30
0
41
1
10
42.9967078674044
20
-0.19709739713133
30
0
0
SPLINE
5
D1
100
AcDbEntity
8
1
62
256
6
ByLayer
370
18
48
1
60
0
100
AcDbSpline
70
4
71
3
72
26
73
22
40
0
40
0
40
0
40
0
40
0.125
40
0.125
40
0.25
40
0.25
40
0.3125
40
0.3125
40
0.375
40
0.375
40
0.4375
40
0.4375
40
0.5
40
0.5
40
0.625
40
0.625
40
0.75
40
0.75
40
0.875
40
0.875
40
1
40
1
40
1
40
1
41
1
10
42.9502161141888
20
0.0429768447224603
30
0
41
1
10
42.9329350374122
20
-0.0140012812929342
30
0
41
1
10
42.9130669037978
20
-0.0696767611990765
30
0
41
1
10
42.8679617257207
20
-0.178235161669477
30
0
41
1
10
42.8426520948673
20
-0.230988116618647
30
0
41
1
10
42.8028504631078
20
-0.30251041600863
30
0
41
1
10
42.7891857821378
20
-0.325297220728146
30
0
41
1
10
42.7610195427316
20
-0.36857324235001
30
0
41
1
10
42.7465511361896
20
-0.388964332599102
30
0
41
1
10
42.7179432680504
20
-0.425657756320703
30
0
41
1
10
42.703659071228
20
-0.442191883418985
30
0
41
1
10
42.6751111415518
20
-0.471559761431564
30
0
41
1
10
42.6607173082997
20
-0.484473964110691
30
0
41
1
10
42.6189240145503
20
-0.51623803507178
30
0
41
1
10
42.5923282487533
20
-0.528667823227607
30
0
41
1
10
42.5429876902197
20
-0.53634150085847
30
0
41
1
10
42.520448601762
20
-0.531634070723413
30
0
41
1
10
42.4794741731446
20
-0.507724039807897
30
0
41
1
10
42.46143310648
20
-0.488906386172829
30
0
41
1
10
42.4287729190544
20
-0.43998289389404
30
0
41
1
10
42.4142031272259
20
-0.409758026579681
30
0
41
1
10
42.401319922132
20
-0.375367780920698
30
0
0
SPLINE
5
D2
100
AcDbEntity
8
1
62
256
6
ByLayer
370
18
48
1
60
0
100
AcDbSpline
70
4
71
3
72
30
73
26
40
0
40
0
40
0
40
0
40
0.362033745619881
40
0.362033745619881
40
0.597101594013829
40
0.597101594013829
40
0.746224476671524
40
0.746224476671524
40
0.840571003277361
40
0.840571003277361
40
0.900303968684454
40
0.900303968684454
40
0.938271981117156
40
0.938271981117156
40
0.96263339083514
40
0.96263339083514
40
0.978042798637103
40
0.978042798637103
40
0.987574088852652
40
0.987574088852652
40
0.993687503285888
40
0.993687503285888
40
0.999847269538141
40
0.999847269538141
40
1
40
1
40
1
40
1
41
1
10
41.5388972699105
20
-3.56931791154113
30
0
41
1
10
41.564771679938
20
-3.55239002372997
30
0
41
1
10
41.5906802906906
20
-3.53534540324728
30
0
41
1
10
41.6334371873661
20
-3.50706808926171
30
0
41
1
10
41.6502766384939
20
-3.49589329813742
30
0
41
1
10
41.6778008803288
20
-3.4775668907777
30
0
41
1
10
41.6884848215441
20
-3.4704381040452
30
0
41
1
10
41.7059540033398
20
-3.45875681551058
30
0
41
1
10
41.7127298548359
20
-3.45421981380593
30
0
41
1
10
41.7238118597127
20
-3.44678967763824
30
0
41
1
10
41.7281155672042
20
-3.44390173011064
30
0
41
1
10
41.7351475048417
20
-3.43917941193257
30
0
41
1
10
41.7378766116699
20
-3.43734580521379
30
0
41
1
10
41.7423328705064
20
-3.43435039477453
30
0
41
1
10
41.7440623970266
20
-3.43318752287033
30
0
41
1
10
41.7469132214561
20
-3.43126985864643
30
0
41
1
10
41.7480259525652
20
-3.43052114444134
30
0
41
1
10
41.7498462794207
20
-3.42929599385482
30
0
41
1
10
41.7505486131342
20
-3.42882321397045
30
0
41
1
10
41.7516915652326
20
-3.42805379692336
30
0
41
1
10
41.7521363357154
20
-3.42775437578564
30
0
41
1
10
41.7530043564599
20
-3.42717004305993
30
0
41
1
10
41.7534391389867
20
-3.42687736508213
30
0
41
1
10
41.753811482173
20
-3.42662679269745
30
0
41
1
10
41.7538205556279
20
-3.42662068674449
30
0
41
1
10
41.7538295760551
20
-3.42661461646347
30
0
0
SPLINE
5
D3
100
AcDbEntity
8
1
62
256
6
ByLayer
370
18
48
1
60
0
100
AcDbSpline
70
4
71
3
72
30
73
26
40
0
40
0
40
0
40
0
40
0.362033745618972
40
0.362033745618972
40
0.597101594012309
40
0.597101594012309
40
0.746224476669489
40
0.746224476669489
40
0.840571003274737
40
0.840571003274737
40
0.900303968681209
40
0.900303968681209
40
0.938271981113917
40
0.938271981113917
40
0.962633390831647
40
0.962633390831647
40
0.97804279863349
40
0.97804279863349
40
0.987574088849043
40
0.987574088849043
40
0.993687503282261
40
0.993687503282261
40
0.999847269534757
40
0.999847269534757
40
1
40
1
40
1
40
1
41
1
10
41.5388972699105
20
3.56931791154113
30
0
41
1
10
41.564771679938
20
3.55239002372997
30
0
41
1
10
41.5906802906907
20
3.53534540324722
30
0
41
1
10
41.6334371873662
20
3.50706808926165
30
0
41
1
10
41.6502766384941
20
3.4958932981373
30
0
41
1
10
41.677800880329
20
3.47756689077758
30
0
41
1
10
41.6884848215442
20
3.47043810404509
30
0
41
1
10
41.7059540033399
20
3.4587568155105
30
0
41
1
10
41.712729854836
20
3.45421981380585
30
0
41
1
10
41.7238118597128
20
3.44678967763818
30
0
41
1
10
41.7281155672043
20
3.44390173011064
30
0
41
1
10
41.7351475048417
20
3.43917941193257
30
0
41
1
10
41.73787661167
20
3.43734580521377
30
0
41
1
10
41.7423328705064
20
3.4343503947745
30
0
41
1
10
41.7440623970267
20
3.4331875228703
30
0
41
1
10
41.7469132214561
20
3.43126985864643
30
0
41
1
10
41.7480259525652
20
3.43052114444132
30
0
41
1
10
41.7498462794207
20
3.42929599385479
30
0
41
1
10
41.7505486131342
20
3.42882321397045
30
0
41
1
10
41.7516915652326
20
3.42805379692334
30
0
41
1
10
41.7521363357155
20
3.42775437578564
30
0
41
1
10
41.75300435646
20
3.42717004305993
30
0
41
1
10
41.7534391389868
20
3.42687736508211
30
0
41
1
10
41.7538114821732
20
3.42662679269728
30
0
41
1
10
41.7538205556284
20
3.4266206867442
30
0
41
1
10
41.7538295760558
20
3.42661461646304
30
0
0
SPLINE
5
D4
100
AcDbEntity
8
1
62
256
6
ByLayer
370
18
48
1
60
0
100
AcDbSpline
70
4
71
3
72
20
73
16
40
0
40
0
40
0
40
0
40
0.125000000000002
40
0.125000000000002
40
0.250000000000003
40
0.250000000000003
40
0.375000000000005
40
0.375000000000005
40
0.500000000000007
40
0.500000000000007
40
0.625000000000008
40
0.625000000000008
40
0.75000000000001
40
0.75000000000001
40
1
40
1
40
1
40
1
41
1
10
41.9647029037991
20
0.613665084850567
30
0
41
1
10
41.9348177300769
20
0.625756579859797
30
0
41
1
10
41.9044688379593
20
0.63484255222707
30
0
41
1
10
41.8431566912867
20
0.647766280646948
30
0
41
1
10
41.8122011361301
20
0.651633695808584
30
0
41
1
10
41.7500758123297
20
0.657178252633713
30
0
41
1
10
41.7189209593101
20
0.659297324542024
30
0
41
1
10
41.6563502636236
20
0.658870846286021
30
0
41
1
10
41.6249614676092
20
0.656653846483664
30
0
41
1
10
41.5621638052519
20
0.648791545485921
30
0
41
1
10
41.5307522314892
20
0.643125268455094
30
0
41
1
10
41.4680712476206
20
0.628906092772809
30
0
41
1
10
41.4369126816208
20
0.620856031976871
30
0
41
1
10
41.3443439038702
20
0.591802826051037
30
0
41
1
10
41.2838553991341
20
0.56590214469378
30
0
41
1
10
41.2251032332127
20
0.533693894906833
30
0
0
SPLINE
5
D5
100
AcDbEntity
8
1
62
256
6
ByLayer
370
18
48
1
60
0
100
AcDbSpline
70
2053
71
3
72
52
73
48
40
0
40
0
40
0
40
0
40
0.0624999999999978
40
0.0624999999999978
40
0.124999999999996
40
0.124999999999996
40
0.187499999999993
40
0.187499999999993
40
0.249999999999991
40
0.249999999999991
40
0.28124999999999
40
0.28124999999999
40
0.312499999999989
40
0.312499999999989
40
0.343749999999988
40
0.343749999999988
40
0.374999999999987
40
0.374999999999987
40
0.406249999999986
40
0.406249999999986
40
0.437499999999985
40
0.437499999999985
40
0.499999999999987
40
0.499999999999987
40
0.56249999999999
40
0.56249999999999
40
0.624999999999992
40
0.624999999999992
40
0.656249999999993
40
0.656249999999993
40
0.687499999999994
40
0.687499999999994
40
0.718749999999996
40
0.718749999999996
40
0.749999999999997
40
0.749999999999997
40
0.781249999999998
40
0.781249999999998
40
0.812499999999999
40
0.812499999999999
40
0.874999999999999
40
0.874999999999999
40
0.9375
40
0.9375
40
0.96875
40
0.96875
40
1
40
1
40
1
40
1
41
1
10
42.1295447920574
20
-1.4127739109161
30
1E-16
41
1
10
42.1031827614259
20
-1.44568669126502
30
1E-16
41
1
10
42.0785086228623
20
-1.46775911485113
30
1E-16
41
1
10
42.0314927259594
20
-1.49077045855634
30
1E-16
41
1
10
42.0104411051476
20
-1.49105451446391
30
1E-16
41
1
10
41.9719991072059
20
-1.46841330808277
30
1E-16
41
1
10
41.9556975983392
20
-1.44616678033444
30
1E-16
41
1
10
41.9281973635299
20
-1.3781144366574
30
1E-16
41
1
10
41.9178033597557
20
-1.33425781111768
30
1E-16
41
1
10
41.9079515695989
20
-1.25310944993362
30
1E-16
41
1
10
41.9057641861107
20
-1.22435507324988
30
1E-16
41
1
10
41.9037389579386
20
-1.16337434943159
30
1E-16
41
1
10
41.9039281943247
20
-1.13064987000868
30
1E-16
41
1
10
41.9070928237528
20
-1.06393965327931
30
1E-16
41
1
10
41.9100165779114
20
-1.03012895342278
30
1E-16
41
1
10
41.9189010931799
20
-0.961590247538254
30
1E-16
41
1
10
41.9248963859621
20
-0.927031460571499
30
1E-16
41
1
10
41.9395665557189
20
-0.860989596124057
30
1E-16
41
1
10
41.9484394063311
20
-0.828608789227985
30
1E-16
41
1
10
41.9685154941891
20
-0.7682267172585
30
0
41
1
10
41.9796496100503
20
-0.74025332706006
30
0
41
1
10
42.0162789510107
20
-0.662576946614877
30
0
41
1
10
42.0441167896309
20
-0.62129286056819
30
0
41
1
10
42.1016965255194
20
-0.560748643575408
30
0
41
1
10
42.1316048682813
20
-0.541256003635027
30
0
41
1
10
42.188999787081
20
-0.523139172939182
30
0
41
1
10
42.2170324780378
20
-0.524369923970994
30
0
41
1
10
42.2544642777899
20
-0.541382286433105
30
0
41
1
10
42.2662065960275
20
-0.549541865981524
30
0
41
1
10
42.2879881712948
20
-0.571177722588544
30
0
41
1
10
42.298074406492
20
-0.584803417098186
30
0
41
1
10
42.3154757456716
20
-0.616974241804741
30
0
41
1
10
42.3228940354435
20
-0.635565392849202
30
0
41
1
10
42.3347671636951
20
-0.678428321362759
30
0
41
1
10
42.3391339951589
20
-0.702598696269717
30
0
41
1
10
42.3441202835893
20
-0.755087725223234
30
0
41
1
10
42.3447807082088
20
-0.784067283483267
30
0
41
1
10
42.3421165068171
20
-0.844971195184996
30
1E-16
41
1
10
42.3388643233491
20
-0.876690420570526
30
1E-16
41
1
10
42.323403287842
20
-0.975857641527114
30
-1E-16
41
1
10
42.3055278004096
20
-1.04518195729284
30
0
41
1
10
42.2618488115194
20
-1.1740236428052
30
0
41
1
10
42.2360533120523
20
-1.23409801908389
30
0
41
1
10
42.1963826664473
20
-1.31111419618563
30
0
41
1
10
42.1828009500601
20
-1.33496750284442
30
0
41
1
10
42.1560439254623
20
-1.37743199731014
30
1E-16
41
1
10
42.1427258073731
20
-1.39631752074163
30
1E-16
41
1
10
42.1295447920574
20
-1.4127739109161
30
1E-16
0
SPLINE
5
D6
100
AcDbEntity
8
1
62
256
6
ByLayer
370
18
48
1
60
0
100
AcDbSpline
70
4
71
3
72
64
73
60
40
0
40
0
40
0
40
0
40
0.0189121176165541
40
0.0189121176165541
40
0.0684871330157242
40
0.0684871330157242
40
0.118062148414894
40
0.118062148414894
40
0.142849656114479
40
0.142849656114479
40
0.167637163814064
40
0.167637163814064
40
0.217212179213233
40
0.217212179213233
40
0.241999686912818
40
0.241999686912818
40
0.266787194612402
40
0.266787194612402
40
0.316362210011571
40
0.316362210011571
40
0.341149717711155
40
0.341149717711155
40
0.36593722541074
40
0.36593722541074
40
0.415512240809909
40
0.415512240809909
40
0.440299748509494
40
0.440299748509494
40
0.465087256209078
40
0.465087256209078
40
0.489874763908663
40
0.489874763908663
40
0.514662271608248
40
0.514662271608248
40
0.564237287007418
40
0.564237287007418
40
0.589024794707003
40
0.589024794707003
40
0.613812302406588
40
0.613812302406588
40
0.663387317805759
40
0.663387317805759
40
0.688174825505345
40
0.688174825505345
40
0.71296233320493
40
0.71296233320493
40
0.762537348604103
40
0.762537348604103
40
0.812112364003275
40
0.812112364003275
40
0.861687379402447
40
0.861687379402447
40
0.911262394801619
40
0.911262394801619
40
0.960837410200791
40
0.960837410200791
40
0.985624917900378
40
0.985624917900378
40
1
40
1
40
1
40
1
41
1
10
6.73445775220114
20
3.41151175186457
30
0
41
1
10
6.88366647341843
20
3.43259425956177
30
0
41
1
10
7.03273713154471
20
3.45128140634026
30
0
41
1
10
7.57227837144586
20
3.51023013159431
30
0
41
1
10
7.96189189363204
20
3.53643572051863
30
0
41
1
10
8.74256110564235
20
3.55480768508056
30
0
41
1
10
9.13397714035159
20
3.54707433635804
30
0
41
1
10
9.7234409228773
20
3.5099298208417
30
0
41
1
10
9.92070567888902
20
3.49323553127718
30
0
41
1
10
10.3135139573565
20
3.45140332119385
30
0
41
1
10
10.5091757520221
20
3.42624581106821
30
0
41
1
10
11.0953731537566
20
3.33897853802912
30
0
41
1
10
11.485142484559
20
3.26525692346243
30
0
41
1
10
12.0684233249724
20
3.13208980488838
30
0
41
1
10
12.2626344537197
20
3.08392853195519
30
0
41
1
10
12.6507275280195
20
2.98007528853736
30
0
41
1
10
12.8445803239603
20
2.9243296994845
30
-2E-16
41
1
10
13.427174144334
20
2.74741904611835
30
-2E-16
41
1
10
13.8170035068735
20
2.6168329224499
30
-2E-16
41
1
10
14.4037470248125
20
2.40175655608186
30
-1E-16
41
1
10
14.599698330993
20
2.3268982685033
30
-1E-16
41
1
10
14.992345793913
20
2.17062198676479
30
-1E-16
41
1
10
15.189181573798
20
2.08908502904083
30
-1E-16
41
1
10
15.7788158190304
20
1.83895104645862
30
-1E-16
41
1
10
16.1712554513969
20
1.66332308240857
30
-1E-16
41
1
10
16.7602694301672
20
1.38899887803853
30
-1E-16
41
1
10
16.9567380410391
20
1.29587126532917
30
-1E-16
41
1
10
17.349986080886
20
1.10632201320578
30
-1E-16
41
1
10
17.5470395236754
20
1.00970452201699
30
-1E-16
41
1
10
17.9402766552701
20
0.814573346062332
30
0
41
1
10
18.1363104953327
20
0.716213947230585
30
0
41
1
10
18.5272063894715
20
0.517896398878378
30
0
41
1
10
18.722006884137
20
0.417816696319449
30
0
41
1
10
19.306477730187
20
0.118864343123135
30
0
41
1
10
19.6955135553833
20
-0.0801612581834945
30
0
41
1
10
20.2783455010537
20
-0.37792909698905
30
0
41
1
10
20.4725137090978
20
-0.477032558102167
30
0
41
1
10
20.8607039683188
20
-0.674778007524793
30
0
41
1
10
21.0547988133551
20
-0.773274069543845
30
0
41
1
10
21.6386312636196
20
-1.06459241350444
30
1E-16
41
1
10
22.0295964488817
20
-1.25389030577136
30
1E-16
41
1
10
22.6186821629524
20
-1.53038101037794
30
1E-16
41
1
10
22.8157512126405
20
-1.62139752502375
30
1E-16
41
1
10
23.2085531937174
20
-1.79950964301273
30
1E-16
41
1
10
23.404623738649
20
-1.88649621644365
30
1E-16
41
1
10
23.9933147360677
20
-2.13889748245825
30
1E-16
41
1
10
24.3860487738906
20
-2.29646091373266
30
1E-16
41
1
10
25.1723652704727
20
-2.58984932190285
30
2E-16
41
1
10
25.5663057359178
20
-2.7259876267876
30
2E-16
41
1
10
26.3484306421699
20
-2.968319444131
30
0
41
1
10
26.7374546465972
20
-3.07540004251365
30
0
41
1
10
27.5151754548817
20
-3.25830484340929
30
0
41
1
10
27.9037035442673
20
-3.33444681151511
30
0
41
1
10
28.6806464841553
20
-3.45562161424587
30
0
41
1
10
29.0684908264571
20
-3.50068758196636
30
0
41
1
10
29.6541950350666
20
-3.5424502920911
30
0
41
1
10
29.8499873355201
20
-3.55215988124252
30
0
41
1
10
30.1601786509978
20
-3.5608247693105
30
0
41
1
10
30.2743219763052
20
-3.56257985351843
30
0
41
1
10
30.3884873771688
20
-3.56289558889728
30
0
0
SPLINE
5
D7
100
AcDbEntity
8
1
62
256
6
ByLayer
370
18
48
1
60
0
100
AcDbSpline
70
4
71
3
72
8
73
4
40
0
40
0
40
0
40
0
40
1
40
1
40
1
40
1
41
1
10
41.525648369306
20
-3.52403951068936
30
0
41
1
10
41.5868680560872
20
-3.48892330394034
30
0
41
1
10
41.6482344016521
20
-3.45313244555246
30
0
41
1
10
41.7097711744399
20
-3.41668358142437
30
0
0
SPLINE
5
D8
100
AcDbEntity
8
1
62
256
6
ByLayer
370
18
48
1
60
0
100
AcDbSpline
70
4
71
3
72
14
73
10
40
0
40
0
40
0
40
0
40
0.23209527897071
40
0.23209527897071
40
0.488063519313807
40
0.488063519313807
40
0.744031759656904
40
0.744031759656904
40
1
40
1
40
1
40
1
41
1
10
41.5637607168022
20
0.745124510246683
30
0
41
1
10
41.5873424313628
20
0.76824378548497
30
0
41
1
10
41.6152685880027
20
0.792385652959211
30
0
41
1
10
41.6841061748572
20
0.843883591511769
30
0
41
1
10
41.7253606912422
20
0.870675197574769
30
0
41
1
10
41.8159941638147
20
0.919845824588236
30
0
41
1
10
41.8662909052938
20
0.942547206384347
30
0
41
1
10
41.9706331994148
20
0.978646015040567
30
0
41
1
10
42.0258046791548
20
0.992463700130429
30
0
41
1
10
42.0820302062059
20
1.00130344063382
30
0
0
SPLINE
5
D9
100
AcDbEntity
8
1
62
256
6
ByLayer
370
18
48
1
60
0
100
AcDbSpline
70
4
71
3
72
28
73
24
40
0
40
0
40
0
40
0
40
0.0742350561418033
40
0.0742350561418033
40
0.177097827681605
40
0.177097827681605
40
0.279960599221404
40
0.279960599221404
40
0.382823370761203
40
0.382823370761203
40
0.485686142301003
40
0.485686142301003
40
0.588548913840802
40
0.588548913840802
40
0.691411685380601
40
0.691411685380601
40
0.7942744569204
40
0.7942744569204
40
0.8971372284602
40
0.8971372284602
40
0.9485686142301
40
0.9485686142301
40
1
40
1
40
1
40
1
41
1
10
31.7598053315666
20
-0.491364628273686
30
0
41
1
10
31.3764216284409
20
-0.303448503495588
30
0
41
1
10
30.9929681707851
20
-0.113178122686804
30
0
41
1
10
30.0781948292743
20
0.339513479841742
30
0
41
1
10
29.5472540459674
20
0.601628359337212
30
0
41
1
10
28.4874558001245
20
1.10948056610249
30
-1E-16
41
1
10
27.9573688938926
20
1.35626775175623
30
-1E-16
41
1
10
26.8946483010779
20
1.82216238706169
30
-1E-16
41
1
10
26.3635165082638
20
2.04109950588963
30
-1E-16
41
1
10
25.3036046374329
20
2.43821539482619
30
-1E-16
41
1
10
24.7737627131531
20
2.61726556105629
30
-2E-16
41
1
10
23.7110078433784
20
2.9261567921551
30
0
41
1
10
23.1798246243678
20
3.0561252724298
30
0
41
1
10
22.1199760852831
20
3.26002959991266
30
0
41
1
10
21.5905010136066
20
3.33468743744416
30
0
41
1
10
20.5276222446759
20
3.42296795213852
30
0
41
1
10
19.9963488157948
20
3.43692021995062
30
0
41
1
10
18.9334790297281
20
3.40416253266702
30
0
41
1
10
18.4024252131792
20
3.35804352123617
30
0
41
1
10
17.6071814510144
20
3.24506328174584
30
0
41
1
10
17.3421334184806
20
3.20011651329864
30
0
41
1
10
16.8114178267048
20
3.0962836202873
30
0
41
1
10
16.5456776590558
20
3.03737297490088
30
0
41
1
10
16.2800000000001
20
2.97191475173327
30
0
0
SPLINE
5
DA
100
AcDbEntity
8
1
62
256
6
ByLayer
370
18
48
1
60
0
100
AcDbSpline
70
4
71
3
72
42
73
38
40
0
40
0
40
0
40
0
40
0.0237099314720922
40
0.0237099314720922
40
0.145746190038081
40
0.145746190038081
40
0.206764319321076
40
0.206764319321076
40
0.26778244860407
40
0.26778244860407
40
0.298291513245567
40
0.298291513245567
40
0.328800577887064
40
0.328800577887064
40
0.389818707170058
40
0.389818707170058
40
0.420327771811554
40
0.420327771811554
40
0.450836836453051
40
0.450836836453051
40
0.511854965736044
40
0.511854965736044
40
0.633891224302031
40
0.633891224302031
40
0.664400288943528
40
0.664400288943528
40
0.694909353585025
40
0.694909353585025
40
0.75592748286802
40
0.75592748286802
40
0.786436547509518
40
0.786436547509518
40
0.816945612151015
40
0.816945612151015
40
0.87796374143401
40
0.87796374143401
40
1
40
1
40
1
40
1
41
1
10
23.0314432915276
20
-3.38887730416533
30
0
41
1
10
22.8775475526563
20
-3.41291056981979
30
0
41
1
10
22.7233511421858
20
-3.434479691213
30
0
41
1
10
21.7732725836041
20
-3.55145920604974
30
0
41
1
10
20.9825754970289
20
-3.58012608645058
30
0
41
1
10
19.7898903810323
20
-3.51759509257863
30
0
41
1
10
19.3925618621679
20
-3.4792104941192
30
0
41
1
10
18.5991897810527
20
-3.36900051430945
30
0
41
1
10
18.2029578492891
20
-3.29694514448542
30
0
41
1
10
17.6069470029464
20
-3.1648125176603
30
0
41
1
10
17.4078645003516
20
-3.11671106356562
30
0
41
1
10
17.0104911876608
20
-3.01317900467382
30
0
41
1
10
16.8120324126355
20
-2.95771256890362
30
0
41
1
10
16.2169655904019
20
-2.78066739149563
30
2E-16
41
1
10
15.8206370476566
20
-2.6484646376677
30
2E-16
41
1
10
15.224843125647
20
-2.43120410343795
30
1E-16
41
1
10
15.025751771493
20
-2.35544727716973
30
1E-16
41
1
10
14.6284923472519
20
-2.19871391838248
30
1E-16
41
1
10
14.4304440514154
20
-2.11780904957416
30
1E-16
41
1
10
13.8376302438043
20
-1.86824787393746
30
1E-16
41
1
10
13.4441834889622
20
-1.6927658780325
30
1E-16
41
1
10
12.2658154461156
20
-1.14513067840238
30
1E-16
41
1
10
11.4827140550196
20
-0.752010000691087
30
0
41
1
10
10.4950791230112
20
-0.248003397676655
30
0
41
1
10
10.2971233189456
20
-0.146556273991536
30
0
41
1
10
9.90006611766529
20
0.0570808145006367
30
0
41
1
10
9.70085466131647
20
0.15931920098572
30
0
41
1
10
9.10482965613934
20
0.464146372895641
30
0
41
1
10
8.7083709381136
20
0.665486221754207
30
0
41
1
10
8.11319841194924
20
0.961186040250965
30
-1E-16
41
1
10
7.91473217111431
20
1.05871177904405
30
-1E-16
41
1
10
7.51740268511506
20
1.25120692659215
30
-1E-16
41
1
10
7.31826298466774
20
1.34628865976509
30
-1E-16
41
1
10
6.7220359703276
20
1.62548151042066
30
-1E-16
41
1
10
6.3262402902277
20
1.80357050117473
30
-1E-16
41
1
10
5.14052194689233
20
2.30832750751176
30
-1E-16
41
1
10
4.35208049856251
20
2.60510503200979
30
-2E-16
41
1
10
3.55613806022336
20
2.84763621064917
30
-2E-16
0
SPLINE
5
DB
100
AcDbEntity
8
1
62
256
6
ByLayer
370
18
48
1
60
0
100
AcDbSpline
70
4
71
3
72
10
73
6
40
0
40
0
40
0
40
0
40
0.5
40
0.5
40
1
40
1
40
1
40
1
41
1
10
41.7603075094673
20
-3.42225077130629
30
0
41
1
10
41.7488190517473
20
-3.42996945231624
30
0
41
1
10
41.7390560680064
20
-3.4332946038657
30
0
41
1
10
41.7224196965166
20
-3.43125677848548
30
0
41
1
10
41.7155940033048
20
-3.42593650134239
30
0
41
1
10
41.7097711744399
20
-3.41668358142431
30
0
0
SPLINE
5
DC
100
AcDbEntity
8
1
62
256
6
ByLayer
370
18
48
1
60
0
100
AcDbSpline
70
4
71
3
72
30
73
26
40
0
40
0
40
0
40
0
40
0.114698629725612
40
0.114698629725612
40
0.229397259451223
40
0.229397259451223
40
0.286746574314029
40
0.286746574314029
40
0.344095889176835
40
0.344095889176835
40
0.401445204039641
40
0.401445204039641
40
0.458794518902447
40
0.458794518902447
40
0.573493148628055
40
0.573493148628055
40
0.688191778353663
40
0.688191778353663
40
0.802890408079272
40
0.802890408079272
40
0.91758903780488
40
0.91758903780488
40
0.974938352667686
40
0.974938352667686
40
1
40
1
40
1
40
1
41
1
10
41.2251032332002
20
0.533693894899926
30
0
41
1
10
40.8488576576664
20
0.726001700037131
30
0
41
1
10
40.473735235708
20
0.914102075745404
30
-1E-16
41
1
10
39.7253796309453
20
1.28146518684207
30
-1E-16
41
1
10
39.3521028627075
20
1.46057354603187
30
-1E-16
41
1
10
38.790799173747
20
1.71742215312935
30
-1E-16
41
1
10
38.603485971029
20
1.80112044635311
30
-1E-16
41
1
10
38.2288880693535
20
1.96542176458169
30
-1E-16
41
1
10
38.0413979540405
20
2.04566448093087
30
-1E-16
41
1
10
37.6655314539127
20
2.20146859839298
30
-1E-16
41
1
10
37.4771617863269
20
2.27704393752765
30
-1E-16
41
1
10
37.0993129167356
20
2.42314477250738
30
-1E-16
41
1
10
36.9094912068337
20
2.49388953418207
30
-2E-16
41
1
10
36.342069652878
20
2.69773131389437
30
-2E-16
41
1
10
35.9658436440509
20
2.82105810872073
30
-2E-16
41
1
10
35.2151089069968
20
3.04061643743887
30
0
41
1
10
34.8414224159972
20
3.13771320745039
30
0
41
1
10
34.093523957147
20
3.30277824803804
30
0
41
1
10
33.7194034994681
20
3.37098620170269
30
0
41
1
10
32.9702227982286
20
3.47801347785958
30
0
41
1
10
32.5944158471625
20
3.51637344605615
30
0
41
1
10
32.0277692553205
20
3.5504586219096
30
0
41
1
10
31.8382691022956
20
3.55794944569021
30
0
41
1
10
31.5663014996834
20
3.56286974205167
30
0
41
1
10
31.4836936300877
20
3.5635962545023
30
0
41
1
10
31.4011697778684
20
3.56356102783226
30
0
0
SPLINE
5
DD
100
AcDbEntity
8
1
62
256
6
ByLayer
370
18
48
1
60
0
100
AcDbSpline
70
4
71
3
72
30
73
26
40
0
40
0
40
0
40
0
40
0.0614158186089046
40
0.0614158186089046
40
0.178738841282792
40
0.178738841282792
40
0.29606186395668
40
0.29606186395668
40
0.354723375293623
40
0.354723375293623
40
0.413384886630566
40
0.413384886630566
40
0.530707909304454
40
0.530707909304454
40
0.648030931978342
40
0.648030931978342
40
0.706692443315285
40
0.706692443315285
40
0.765353954652229
40
0.765353954652229
40
0.882676977326115
40
0.882676977326115
40
0.941338488663058
40
0.941338488663058
40
1
40
1
40
1
40
1
41
1
10
14.7627708209959
20
-2.63214146806089
30
2E-16
41
1
10
14.5664411769913
20
-2.69970237169133
30
2E-16
41
1
10
14.3703820024284
20
-2.7640140208299
30
2E-16
41
1
10
13.8004709227492
20
-2.94163510145989
30
2E-16
41
1
10
13.4264875912018
20
-3.04529657071157
30
0
41
1
10
12.6771774866828
20
-3.22533810630637
30
0
41
1
10
12.302559824509
20
-3.30225157055509
30
0
41
1
10
11.7372934566491
20
-3.39483715190585
30
0
41
1
10
11.5483329405791
20
-3.42195753340906
30
0
41
1
10
11.1696319662519
20
-3.46877632328392
30
0
41
1
10
10.9798342305213
20
-3.4884531802048
30
0
41
1
10
10.4127933134116
20
-3.53520490998449
30
0
41
1
10
10.0362216597935
20
-3.55038058450558
30
0
41
1
10
9.28619271857434
20
-3.54956515263197
30
0
41
1
10
8.91226241494775
20
-3.53339424422455
30
0
41
1
10
8.35072009234679
20
-3.48627911188805
30
0
41
1
10
8.16348585674709
20
-3.46677629425511
30
0
41
1
10
7.78922688001802
20
-3.41994121633312
30
0
41
1
10
7.60198771169078
20
-3.39269012878404
30
0
41
1
10
7.03915852669701
20
-3.29987177367551
30
0
41
1
10
6.66260835652287
20
-3.22326015371357
30
0
41
1
10
6.09546526750847
20
-3.08573478417179
30
0
41
1
10
5.90568448095215
20
-3.03617823585236
30
0
41
1
10
5.52606847195844
20
-2.93082672687251
30
2E-16
41
1
10
5.33615019815991
20
-2.87496233187287
30
2E-16
41
1
10
5.1460377853015
20
-2.81604938860289
30
2E-16
0
SPLINE
5
DE
100
AcDbEntity
8
1
62
256
6
ByLayer
370
18
48
1
60
0
100
AcDbSpline
70
4
71
3
72
8
73
4
40
0
40
0
40
0
40
0
40
1
40
1
40
1
40
1
41
1
10
41.5256483693046
20
-3.52403951069096
30
0
41
1
10
41.5303841922472
20
-3.55099105448767
30
0
41
1
10
41.5347677074097
20
-3.56627286739288
30
0
41
1
10
41.5388972699105
20
-3.56931791154113
30
0
0
SPLINE
5
DF
100
AcDbEntity
8
1
62
256
6
ByLayer
370
18
48
1
60
0
100
AcDbSpline
70
4
71
3
72
56
73
52
40
0
40
0
40
0
40
0
40
0.125000000000003
40
0.125000000000003
40
0.187500000000004
40
0.187500000000004
40
0.250000000000006
40
0.250000000000006
40
0.281250000000006
40
0.281250000000006
40
0.312500000000007
40
0.312500000000007
40
0.343750000000008
40
0.343750000000008
40
0.359375000000009
40
0.359375000000009
40
0.375000000000009
40
0.375000000000009
40
0.39062500000001
40
0.39062500000001
40
0.406250000000011
40
0.406250000000011
40
0.437500000000013
40
0.437500000000013
40
0.468750000000014
40
0.468750000000014
40
0.484375000000015
40
0.484375000000015
40
0.500000000000016
40
0.500000000000016
40
0.531250000000017
40
0.531250000000017
40
0.562500000000019
40
0.562500000000019
40
0.625000000000022
40
0.625000000000022
40
0.687500000000026
40
0.687500000000026
40
0.703125000000028
40
0.703125000000028
40
0.707031250000028
40
0.707031250000028
40
0.710937500000029
40
0.710937500000029
40
0.718750000000029
40
0.718750000000029
40
0.750000000000025
40
0.750000000000025
40
0.875000000000013
40
0.875000000000013
40
1
40
1
40
1
40
1
41
1
10
5.14624521340434
20
-2.81610564677473
30
2E-16
41
1
10
4.73518401884786
20
-2.6878353463199
30
2E-16
41
1
10
4.33375668825383
20
-2.53729376204251
30
2E-16
41
1
10
3.75284250655696
20
-2.25965797125016
30
1E-16
41
1
10
3.56278220988412
20
-2.15837309109099
30
1E-16
41
1
10
3.19242877223513
20
-1.93147557490153
30
1E-16
41
1
10
3.01334483010305
20
-1.80665517508768
30
1E-16
41
1
10
2.7612397498178
20
-1.59647782868885
30
1E-16
41
1
10
2.67952428327453
20
-1.52211794310332
30
1E-16
41
1
10
2.52475421152539
20
-1.36509163858324
30
1E-16
41
1
10
2.45180992003924
20
-1.28262743269337
30
1E-16
41
1
10
2.3171021577206
20
-1.10774317778072
30
1E-16
41
1
10
2.2552996351327
20
-1.01535755177287
30
1E-16
41
1
10
2.17385150639811
20
-0.866760633586381
30
1E-16
41
1
10
2.14853315451956
20
-0.815334624003498
30
0
41
1
10
2.10338396976175
20
-0.710849769577067
30
0
41
1
10
2.08341357296061
20
-0.657574857790905
30
0
41
1
10
2.04923041355181
20
-0.548744593579414
30
0
41
1
10
2.03501587912621
20
-0.49318992770273
30
0
41
1
10
2.01305020173282
20
-0.379523978145045
30
0
41
1
10
2.00540800822822
20
-0.321641728070659
30
0
41
1
10
1.99337698910946
20
-0.14912561523883
30
0
41
1
10
1.99950662105567
20
-0.0340350167489873
30
0
41
1
10
2.0406073475379
20
0.196298077848155
30
0
41
1
10
2.07477646647322
20
0.307022757485782
30
0
41
1
10
2.14250974887446
20
0.466456905260174
30
0
41
1
10
2.16801733504738
20
0.518809711211816
30
0
41
1
10
2.22315499908694
20
0.619868618117977
30
0
41
1
10
2.25280262139813
20
0.668700282308947
30
0
41
1
10
2.34709144041801
20
0.810839560882755
30
0
41
1
10
2.417035217425
20
0.899827313113747
30
-1E-16
41
1
10
2.56792089085289
20
1.06888929423027
30
-1E-16
41
1
10
2.6488415385582
20
1.14877809294507
30
-1E-16
41
1
10
2.89929977329575
20
1.37299473756704
30
-1E-16
41
1
10
3.07826380435108
20
1.50437655419114
30
-1E-16
41
1
10
3.45169563085429
20
1.7441598554411
30
-1E-16
41
1
10
3.64667936734116
20
1.85247097631537
30
-1E-16
41
1
10
3.89542670298962
20
1.97619007452292
30
-1E-16
41
1
10
3.94544213354436
20
2.0003508427998
30
-1E-16
41
1
10
4.00826499002645
20
2.02987519762391
30
-1E-16
41
1
10
4.02163739682612
20
2.03475246637362
30
-1E-16
41
1
10
4.0497349631313
20
2.03931307276014
30
-1E-16
41
1
10
4.06431154891175
20
2.03974891279117
30
-1E-16
41
1
10
4.10693741155268
20
2.03714733467052
30
-1E-16
41
1
10
4.13451944140564
20
2.02915637173894
30
-1E-16
41
1
10
4.27262844691452
20
1.99571841948497
30
-1E-16
41
1
10
4.38270808588123
20
1.96755837504443
30
-1E-16
41
1
10
4.93080721266182
20
1.8196656391784
30
-1E-16
41
1
10
5.36214869570571
20
1.67818829412511
30
-1E-16
41
1
10
6.20827788152297
20
1.35160523985201
30
-1E-16
41
1
10
6.62307292608466
20
1.16663787582487
30
-1E-16
41
1
10
7.03302070686743
20
0.964267147225058
30
-1E-16
0
SPLINE
5
E0
100
AcDbEntity
8
1
62
256
6
ByLayer
370
18
48
1
60
0
100
AcDbSpline
70
4
71
3
72
24
73
20
40
0
40
0
40
0
40
0
40
0.0866532873321401
40
0.0866532873321401
40
0.314989965499108
40
0.314989965499108
40
0.372074135040848
40
0.372074135040848
40
0.429158304582588
40
0.429158304582588
40
0.543326643666072
40
0.543326643666072
40
0.771663321833036
40
0.771663321833036
40
0.885831660916518
40
0.885831660916518
40
0.942915830458259
40
0.942915830458259
40
1
40
1
40
1
40
1
41
1
10
31.3091132410269
20
0.232108563020461
30
0
41
1
10
31.6093114436991
20
0.0856324025373283
30
0
41
1
10
31.908875660195
20
-0.0612081063166556
30
0
41
1
10
32.9973362650151
20
-0.592450705268874
30
0
41
1
10
33.7852051907899
20
-0.973263964668348
30
1E-16
41
1
10
34.7796826187123
20
-1.42083701599316
30
1E-16
41
1
10
34.9790514084222
20
-1.50894813187355
30
1E-16
41
1
10
35.3790353440945
20
-1.68174278875162
30
1E-16
41
1
10
35.5789339027119
20
-1.76610726605406
30
1E-16
41
1
10
36.1762781487573
20
-2.0113132320287
30
1E-16
41
1
10
36.5724360627528
20
-2.16480115353491
30
1E-16
41
1
10
37.7580910659638
20
-2.59051461463415
30
2E-16
41
1
10
38.5445445476265
20
-2.82768201742982
30
0
41
1
10
39.731750387519
20
-3.09684849460314
30
0
41
1
10
40.1287109199473
20
-3.17219117245185
30
0
41
1
10
40.7276089927307
20
-3.26144460623473
30
0
41
1
10
40.927902621875
20
-3.28723275297983
30
0
41
1
10
41.3278274853801
20
-3.33036479655667
30
0
41
1
10
41.5276965484428
20
-3.34742107101792
30
0
41
1
10
41.727666113494
20
-3.3609024130271
30
0
0
SPLINE
5
E1
100
AcDbEntity
8
1
62
256
6
ByLayer
370
18
48
1
60
0
100
AcDbSpline
70
4
71
3
72
28
73
24
40
0
40
0
40
0
40
0
40
0.125
40
0.125
40
0.1875
40
0.1875
40
0.249999999999999
40
0.249999999999999
40
0.374999999999999
40
0.374999999999999
40
0.437499999999999
40
0.437499999999999
40
0.499999999999999
40
0.499999999999999
40
0.624999999999999
40
0.624999999999999
40
0.687499999999999
40
0.687499999999999
40
0.749999999999999
40
0.749999999999999
40
0.875
40
0.875
40
1
40
1
40
1
40
1
41
1
10
41.3188309802265
20
-0.0241630575485487
30
0
41
1
10
41.3251873711407
20
-0.228703641250661
30
0
41
1
10
41.3402987383683
20
-0.429328013230929
30
0
41
1
10
41.3699945560104
20
-0.72519092776389
30
0
41
1
10
41.3810879979001
20
-0.822958796017815
30
1E-16
41
1
10
41.4048614961544
20
-1.016841033389
30
1E-16
41
1
10
41.4176082298809
20
-1.11342125476523
30
1E-16
41
1
10
41.4565987037657
20
-1.39663779934685
30
1E-16
41
1
10
41.4834626603286
20
-1.57668044129824
30
1E-16
41
1
10
41.5216943900786
20
-1.83428158390396
30
1E-16
41
1
10
41.5341116048305
20
-1.91805544208913
30
1E-16
41
1
10
41.5579130466844
20
-2.08134340465941
30
1E-16
41
1
10
41.5693088594268
20
-2.16096842147175
30
1E-16
41
1
10
41.6009387450995
20
-2.38865002053856
30
1E-16
41
1
10
41.6188009418488
20
-2.5272619565452
30
2E-16
41
1
10
41.6410501442481
20
-2.71553934149065
30
2E-16
41
1
10
41.6477245787832
20
-2.77500499263385
30
-1E-16
41
1
10
41.6598387254699
20
-2.88712113421624
30
0
41
1
10
41.6652479846715
20
-2.93949373262171
30
0
41
1
10
41.6799861507131
20
-3.08326936332455
30
0
41
1
10
41.6878835778796
20
-3.162477094162
30
0
41
1
10
41.7050393241813
20
-3.28763309323793
30
0
41
1
10
41.7143654438219
20
-3.33352907850397
30
0
41
1
10
41.7276661134929
20
-3.3609024130271
30
0
0
SPLINE
5
E2
100
AcDbEntity
8
1
62
256
6
ByLayer
370
18
48
1
60
0
100
AcDbSpline
70
4
71
3
72
36
73
32
40
0
40
0
40
0
40
0
40
0.0574743979285616
40
0.0574743979285616
40
0.114948795857123
40
0.114948795857123
40
0.229897591714248
40
0.229897591714248
40
0.287371989642811
40
0.287371989642811
40
0.316109188607092
40
0.316109188607092
40
0.344846387571373
40
0.344846387571373
40
0.459795183428493
40
0.459795183428493
40
0.517269581357052
40
0.517269581357052
40
0.574743979285611
40
0.574743979285611
40
0.632218377214171
40
0.632218377214171
40
0.660955576178449
40
0.660955576178449
40
0.689692775142728
40
0.689692775142728
40
0.804641570999845
40
0.804641570999845
40
0.919590366856962
40
0.919590366856962
40
1
40
1
40
1
40
1
41
1
10
41.5256483693066
20
-3.52403951069036
30
0
41
1
10
41.1286631914539
20
-3.49101803368842
30
0
41
1
10
40.7323410334957
20
-3.44066513505644
30
0
41
1
10
39.9387472344326
20
-3.30671080787388
30
0
41
1
10
39.5405154663954
20
-3.22280656624071
30
0
41
1
10
38.3525560800598
20
-2.92638853567183
30
2E-16
41
1
10
37.5672303009906
20
-2.66891346144226
30
2E-16
41
1
10
36.3844003452507
20
-2.21219723446029
30
1E-16
41
1
10
35.9893970002474
20
-2.0481133577658
30
1E-16
41
1
10
35.3938822538953
20
-1.78690596669776
30
1E-16
41
1
10
35.1949188133831
20
-1.69733241085743
30
1E-16
41
1
10
34.7988567717191
20
-1.51512151100576
30
1E-16
41
1
10
34.6013612401492
20
-1.4223137288995
30
1E-16
41
1
10
33.6157945381582
20
-0.951256430883518
30
1E-16
41
1
10
32.8336779003587
20
-0.551507877930561
30
0
41
1
10
31.6556137295371
20
0.0542496096116167
30
0
41
1
10
31.26219587742
20
0.25735637330294
30
0
41
1
10
30.4714400309267
20
0.661082732155137
30
0
41
1
10
30.0730277050344
20
0.862052797250357
30
-1E-16
41
1
10
29.2793890407042
20
1.25166342324945
30
-1E-16
41
1
10
28.8833495247784
20
1.44103234097918
30
-1E-16
41
1
10
28.2885194200248
20
1.71341127011613
30
-1E-16
41
1
10
28.0901072664719
20
1.80224751077984
30
-1E-16
41
1
10
27.6926916830546
20
1.97544099368116
30
-1E-16
41
1
10
27.4937631950144
20
2.05975349922619
30
-1E-16
41
1
10
26.5033330681318
20
2.46623112317107
30
-2E-16
41
1
10
25.7196457780633
20
2.74580057710884
30
-2E-16
41
1
10
24.1502432644393
20
3.19034920063916
30
0
41
1
10
23.3643129065488
20
3.35556053705793
30
0
41
1
10
22.0123059731628
20
3.52202794514207
30
0
41
1
10
21.4581793061959
20
3.55664360872944
30
0
41
1
10
20.9032466452721
20
3.55698999695647
30
0
0
SPLINE
5
E3
100
AcDbEntity
8
1
62
256
6
ByLayer
370
18
48
1
60
0
100
AcDbSpline
70
4
71
3
72
8
73
4
40
0
40
0
40
0
40
0
40
1
40
1
40
1
40
1
41
1
10
41.2270324941013
20
0.0338038642536844
30
0
41
1
10
41.2196943055865
20
0.201692919535731
30
0
41
1
10
41.2184055485953
20
0.368326682125371
30
0
41
1
10
41.2251032332005
20
0.533693894909106
30
0
0
SPLINE
5
E4
100
AcDbEntity
8
1
62
256
6
ByLayer
370
18
48
1
60
0
100
AcDbSpline
70
4
71
3
72
26
73
22
40
0
40
0
40
0
40
0
40
0.0504629654491424
40
0.0504629654491424
40
0.103083473079773
40
0.103083473079773
40
0.313565503602295
40
0.313565503602295
40
0.418806518863556
40
0.418806518863556
40
0.471427026494186
40
0.471427026494186
40
0.524047534124816
40
0.524047534124816
40
0.734529564647339
40
0.734529564647339
40
0.94501159516986
40
0.94501159516986
40
0.99763210280049
40
0.99763210280049
40
1
40
1
40
1
40
1
41
1
10
9.58565906515818
20
0.218410317820514
30
0
41
1
10
9.77746132389157
20
0.12515960091676
30
0
41
1
10
9.96960574746061
20
0.0314706136693133
30
0
41
1
10
10.3604066858887
20
-0.158840385032079
30
0
41
1
10
10.559395837989
20
-0.255616675007388
30
0
41
1
10
11.5523476704986
20
-0.736521387460897
30
0
41
1
10
12.3403404512793
20
-1.11175144412752
30
1E-16
41
1
10
13.5264184517675
20
-1.63309932009409
30
1E-16
41
1
10
13.9224204861958
20
-1.80005143197187
30
1E-16
41
1
10
14.5190165678074
20
-2.03714491000969
30
1E-16
41
1
10
14.7183140055689
20
-2.11395073273297
30
1E-16
41
1
10
15.1180630498722
20
-2.2624901604996
30
1E-16
41
1
10
15.3185416055415
20
-2.33423265605498
30
1E-16
41
1
10
16.3162206998774
20
-2.6763155251889
30
2E-16
41
1
10
17.1058213500906
20
-2.89894872313422
30
0
41
1
10
18.6855249724377
20
-3.22485248561327
30
0
41
1
10
19.4759186743655
20
-3.32779393579196
30
0
41
1
10
20.474975889435
20
-3.37315999761799
30
0
41
1
10
20.6753915418493
20
-3.37804600731658
30
0
41
1
10
20.8843516988416
20
-3.37863677441425
30
0
41
1
10
20.8933496708921
20
-3.3786538494806
30
0
41
1
10
20.9023474312249
20
-3.37866255210244
30
0
0
SPLINE
5
E5
100
AcDbEntity
8
1
62
256
6
ByLayer
370
18
48
1
60
0
100
AcDbSpline
70
4
71
3
72
16
73
12
40
0
40
0
40
0
40
0
40
0.229361026060775
40
0.229361026060775
40
0.461216358369806
40
0.461216358369806
40
0.658725589278853
40
0.658725589278853
40
0.831026131867034
40
0.831026131867034
40
1
40
1
40
1
40
1
41
1
10
41.7276661134928
20
-3.36090241302702
30
0
41
1
10
41.727747381376
20
-3.36106966572984
30
0
41
1
10
41.7277720223699
20
-3.36141796571823
30
0
41
1
10
41.727680816381
20
-3.36249274518085
30
0
41
1
10
41.7275606097937
20
-3.36324469738997
30
0
41
1
10
41.7272004224667
20
-3.3649368785172
30
0
41
1
10
41.7269745513964
20
-3.3658599694094
30
0
41
1
10
41.7264786012921
20
-3.36768603921087
30
0
41
1
10
41.7262114496737
20
-3.36860027074854
30
0
41
1
10
41.7256579517037
20
-3.37038288444782
30
0
41
1
10
41.7253657247206
20
-3.3712727723053
30
0
41
1
10
41.7250758057676
20
-3.3721136465432
30
0
0
SPLINE
5
E6
100
AcDbEntity
8
1
62
256
6
ByLayer
370
18
48
1
60
0
100
AcDbSpline
70
4
71
3
72
20
73
16
40
0
40
0
40
0
40
0
40
0.250000000000001
40
0.250000000000001
40
0.500000000000002
40
0.500000000000002
40
0.562500000000004
40
0.562500000000004
40
0.625000000000006
40
0.625000000000006
40
0.750000000000004
40
0.750000000000004
40
0.875000000000002
40
0.875000000000002
40
1
40
1
40
1
40
1
41
1
10
41.7603075094673
20
-3.42225077130632
30
0
41
1
10
41.8302468235104
20
-3.22581033585391
30
0
41
1
10
41.8995533119551
20
-3.02800397670401
30
0
41
1
10
42.0389977231982
20
-2.63152023913025
30
0
41
1
10
42.1091187064182
20
-2.43292357701932
30
0
41
1
10
42.1979181250848
20
-2.18514376410374
30
0
41
1
10
42.215650357641
20
-2.13557520442598
30
0
41
1
10
42.2519506240158
20
-2.0369224013632
30
0
41
1
10
42.2704694751463
20
-1.98780731183558
30
0
41
1
10
42.3273848099077
20
-1.84119616602177
30
0
41
1
10
42.3671190094823
20
-1.74457859677659
30
0
41
1
10
42.4494389179754
20
-1.5582005998786
30
0
41
1
10
42.492252824822
20
-1.46788891578626
30
0
41
1
10
42.5818377078777
20
-1.29297435615871
30
0
41
1
10
42.6289165481872
20
-1.20791507302488
30
0
41
1
10
42.6775254883817
20
-1.12704238603467
30
0
0
SPLINE
5
E7
100
AcDbEntity
8
1
62
256
6
ByLayer
370
18
48
1
60
0
100
AcDbSpline
70
4
71
3
72
8
73
4
40
0
40
0
40
0
40
0
40
1
40
1
40
1
40
1
41
1
10
14.7646387458112
20
2.65053042618339
30
-2E-16
41
1
10
15.2688841975902
20
2.82317278645581
30
-1E-16
41
1
10
15.7731637596544
20
2.97480137397568
30
-1E-16
41
1
10
16.2800000000124
20
3.1020868981112
30
0
0
SPLINE
5
E8
100
AcDbEntity
8
1
62
256
6
ByLayer
370
18
48
1
60
0
100
AcDbSpline
70
4
71
3
72
8
73
4
40
0
40
0
40
0
40
0
40
1
40
1
40
1
40
1
41
1
10
42.4013199221322
20
-0.37536778092047
30
0
41
1
10
42.285060107648
20
-0.0650254746965686
30
0
41
1
10
42.1393571536292
20
0.26476041471588
30
0
41
1
10
41.9647029037991
20
0.613665084850624
30
0
0
SPLINE
5
E9
100
AcDbEntity
8
1
62
256
6
ByLayer
370
18
48
1
60
0
100
AcDbSpline
70
4
71
3
72
8
73
4
40
0
40
0
40
0
40
0
40
1
40
1
40
1
40
1
41
1
10
3.55613806022336
20
2.84763621064917
30
-2E-16
41
1
10
3.52328475940607
20
2.85764692170767
30
-2E-16
41
1
10
3.50172180472032
20
2.87850894564841
30
-2E-16
41
1
10
3.50172180472032
20
2.89975534607288
30
-2E-16
0
SPLINE
5
EA
100
AcDbEntity
8
1
62
256
6
ByLayer
370
18
48
1
60
0
100
AcDbSpline
70
4
71
3
72
48
73
44
40
0
40
0
40
0
40
0
40
0.0146524753209074
40
0.0146524753209074
40
0.0511468280867993
40
0.0511468280867993
40
0.124135533618583
40
0.124135533618583
40
0.160629886384475
40
0.160629886384475
40
0.197124239150367
40
0.197124239150367
40
0.270112944682151
40
0.270112944682151
40
0.343101650213935
40
0.343101650213935
40
0.379596002979828
40
0.379596002979828
40
0.41609035574572
40
0.41609035574572
40
0.489079061277506
40
0.489079061277506
40
0.525573414043399
40
0.525573414043399
40
0.562067766809292
40
0.562067766809292
40
0.598562119575185
40
0.598562119575185
40
0.635056472341078
40
0.635056472341078
40
0.708045177872863
40
0.708045177872863
40
0.744539530638755
40
0.744539530638755
40
0.781033883404646
40
0.781033883404646
40
0.854022588936431
40
0.854022588936431
40
0.927011294468215
40
0.927011294468215
40
0.963505647234108
40
0.963505647234108
40
1
40
1
40
1
40
1
41
1
10
19.905749608485
20
3.55637560982717
30
0
41
1
10
20.011181926892
20
3.55648391657348
30
0
41
1
10
20.1166850286515
20
3.55535457703502
30
0
41
1
10
20.4852911659632
20
3.54707397810898
30
0
41
1
10
20.7493174589099
20
3.53340770415235
30
0
41
1
10
21.539612769801
20
3.46958587458227
30
0
41
1
10
22.0648590193406
20
3.39671684919983
30
0
41
1
10
22.8542590919049
20
3.24411164337957
30
0
41
1
10
23.1179784569937
20
3.18594552808921
30
0
41
1
10
23.6451034720114
20
3.05602970400543
30
0
41
1
10
23.908157020477
20
2.98438844457516
30
0
41
1
10
24.6969126792755
20
2.75071158894701
30
-2E-16
41
1
10
25.222266927441
20
2.56994775608859
30
-2E-16
41
1
10
26.2773752609264
20
2.16528709874203
30
-1E-16
41
1
10
26.8025955629105
20
1.9430839308076
30
-1E-16
41
1
10
27.5913145042881
20
1.58720846451288
30
-1E-16
41
1
10
27.854371233728
20
1.46482906844389
30
-1E-16
41
1
10
28.3815072965805
20
1.21379066300526
30
-1E-16
41
1
10
28.6451956213103
20
1.08531152328547
30
-1E-16
41
1
10
29.4344420076806
20
0.694435660362757
30
0
41
1
10
29.9594100596482
20
0.425966352064108
30
0
41
1
10
30.7493704339273
20
0.0196922455963886
30
0
41
1
10
31.01323337758
20
-0.116370485123895
30
0
41
1
10
31.5395371065828
20
-0.386639197030519
30
0
41
1
10
31.8023492729848
20
-0.521033891963469
30
0
41
1
10
32.3280022756369
20
-0.786983464665468
30
0
41
1
10
32.5908418130049
20
-0.918541193939575
30
1E-16
41
1
10
33.1172013848146
20
-1.17756593269283
30
1E-16
41
1
10
33.3810781625764
20
-1.30520043435519
30
1E-16
41
1
10
34.1708915425159
20
-1.67806548374782
30
1E-16
41
1
10
34.6956752072714
20
-1.91357340227307
30
1E-16
41
1
10
35.4847236818692
20
-2.23969538022547
30
1E-16
41
1
10
35.7483881998592
20
-2.34400943345742
30
1E-16
41
1
10
36.2753674094498
20
-2.54184230589684
30
2E-16
41
1
10
36.5383774347943
20
-2.63526691566571
30
2E-16
41
1
10
37.3269290506408
20
-2.89788844189189
30
2E-16
41
1
10
37.8520580938936
20
-3.0494627622555
30
0
41
1
10
38.9064624583139
20
-3.29840547029588
30
0
41
1
10
39.4320504593071
20
-3.3948455366652
30
0
41
1
10
40.2224469563873
20
-3.49457315569566
30
0
41
1
10
40.4861130745253
20
-3.52030539442956
30
0
41
1
10
41.0125787106622
20
-3.55635486400229
30
0
41
1
10
41.2756427645461
20
-3.56670658866563
30
0
41
1
10
41.5388972699105
20
-3.56931791154113
30
0
0
SPLINE
5
EB
100
AcDbEntity
8
1
62
256
6
ByLayer
370
18
48
1
60
0
100
AcDbSpline
70
4
71
3
72
26
73
22
40
0
40
0
40
0
40
0
40
0.0434121309134668
40
0.0434121309134668
40
0.0958425123302123
40
0.0958425123302123
40
0.305564037997194
40
0.305564037997194
40
0.515285563664175
40
0.515285563664175
40
0.56771594508092
40
0.56771594508092
40
0.620146326497665
40
0.620146326497665
40
0.725007089331157
40
0.725007089331157
40
0.934728614998139
40
0.934728614998139
40
0.987158996414884
40
0.987158996414884
40
1
40
1
40
1
40
1
41
1
10
21.3683248253355
20
-3.3807923926617
30
0
41
1
10
21.202847312062
20
-3.38627938488969
30
0
41
1
10
21.0373421190689
20
-3.38887653753875
30
0
41
1
10
20.6717852781412
20
-3.38833757464144
30
0
41
1
10
20.4713511166974
20
-3.38370943076816
30
0
41
1
10
19.4722076008043
20
-3.33954883914748
30
0
41
1
10
18.6817921600384
20
-3.2373394225198
30
0
41
1
10
17.1020555104203
20
-2.91239347719943
30
0
41
1
10
16.3124392371243
20
-2.68997975398534
30
2E-16
41
1
10
15.314694020801
20
-2.34782263701644
30
1E-16
41
1
10
15.1141998960208
20
-2.27604281992666
30
1E-16
41
1
10
14.7144192415128
20
-2.12739675372356
30
1E-16
41
1
10
14.5151079132049
20
-2.05052284820403
30
1E-16
41
1
10
13.9184772852316
20
-1.81317715902304
30
1E-16
41
1
10
13.5224599019274
20
-1.64599628670771
30
1E-16
41
1
10
12.336353412043
20
-1.12377612048536
30
1E-16
41
1
10
11.5483549213395
20
-0.747724107636145
30
0
41
1
10
10.5553606624653
20
-0.265514603105942
30
0
41
1
10
10.3563621387986
20
-0.168461795382484
30
0
41
1
10
10.1079984648158
20
-0.0471610450179298
30
0
41
1
10
10.0590825819981
20
-0.0232621379842897
30
0
41
1
10
10.0101316909862
20
0.0006557450334981
30
0
0
SPLINE
5
EC
100
AcDbEntity
8
1
62
256
6
ByLayer
370
18
48
1
60
0
100
AcDbSpline
70
4
71
3
72
24
73
20
40
0
40
0
40
0
40
0
40
0.0597692971795611
40
0.0597692971795611
40
0.119538594359123
40
0.119538594359123
40
0.239077188718243
40
0.239077188718243
40
0.478154377436487
40
0.478154377436487
40
0.59769297179561
40
0.59769297179561
40
0.657462268975174
40
0.657462268975174
40
0.717231566154737
40
0.717231566154737
40
0.956308754872994
40
0.956308754872994
40
1
40
1
40
1
40
1
41
1
10
41.7250758057675
20
-3.3721136465432
30
0
41
1
10
41.5251206458907
20
-3.35884392593991
30
0
41
1
10
41.3252139077397
20
-3.34204621370469
30
0
41
1
10
40.9252605185749
20
-3.29934025367567
30
0
41
1
10
40.724949588637
20
-3.27374889131571
30
0
41
1
10
40.1259978623907
20
-3.18503455818333
30
0
41
1
10
39.7290126970831
20
-3.10998575524934
30
0
41
1
10
38.5417563623247
20
-2.84150674981174
30
0
41
1
10
37.7553076952154
20
-2.6045341448463
30
2E-16
41
1
10
36.5696287920313
20
-2.17870250680252
30
1E-16
41
1
10
36.173461703462
20
-2.02510441927868
30
1E-16
41
1
10
35.5760915779971
20
-1.77962116179734
30
1E-16
41
1
10
35.3761845082255
20
-1.69514792289724
30
1E-16
41
1
10
34.9761610283551
20
-1.52209271501209
30
1E-16
41
1
10
34.7767757238276
20
-1.43383666074476
30
1E-16
41
1
10
33.7822289917838
20
-0.985467034446827
30
1E-16
41
1
10
32.9943512602249
20
-0.603778794619927
30
0
41
1
10
32.0611159230898
20
-0.147038023536425
30
0
41
1
10
31.9168894438687
20
-0.0762972526820818
30
0
41
1
10
31.772576362987
20
-0.0055066856594408
30
0
0
SPLINE
5
ED
100
AcDbEntity
8
1
62
256
6
ByLayer
370
18
48
1
60
0
100
AcDbSpline
70
4
71
3
72
10
73
6
40
0
40
0
40
0
40
0
40
0.5
40
0.5
40
1
40
1
40
1
40
1
41
1
10
42.0820302062058
20
1.00130344063393
30
0
41
1
10
42.1823580553579
20
1.01707691930599
30
0
41
1
10
42.2823153756819
20
1.0351467218149
30
0
41
1
10
42.4809539051589
20
1.07645113998572
30
0
41
1
10
42.5797171470493
20
1.09960157004608
30
0
41
1
10
42.6775254883817
20
1.1270423860347
30
0
0
SPLINE
5
EE
100
AcDbEntity
8
1
62
256
6
ByLayer
370
18
48
1
60
0
100
AcDbSpline
70
4
71
3
72
64
73
60
40
0
40
0
40
0
40
0
40
0.016848843120513
40
0.016848843120513
40
0.0358056804396115
40
0.0358056804396115
40
0.0547625177587101
40
0.0547625177587101
40
0.0737193550778086
40
0.0737193550778086
40
0.0749041574102522
40
0.075496558576474
40
0.0757927591595848
40
0.0757927591595848
40
0.0760889597426957
40
0.0760889597426957
40
0.0766813609089175
40
0.0766813609089175
40
0.0772737620751393
40
0.0772737620751393
40
0.0784585644075829
40
0.0784585644075829
40
0.0831977737373576
40
0.0831977737373576
40
0.0926761923969068
40
0.0926761923969068
40
0.111633029716005
40
0.111633029716005
40
0.149546704354202
40
0.149546704354202
40
0.225374053630596
40
0.225374053630596
40
0.377028752183384
40
0.377028752183384
40
0.452856101459778
40
0.452856101459778
40
0.490769776097975
40
0.490769776097975
40
0.509726613417073
40
0.509726613417073
40
0.514465822746848
40
0.514465822746848
40
0.515650625079292
40
0.515650625079292
40
0.516243026245513
40
0.516243026245513
40
0.516539226828624
40
0.516539226828624
40
0.51668732712018
40
0.51668732712018
40
0.516835427411736
40
0.516835427411736
40
0.519205032076626
40
0.528683450736188
40
0.680338149289172
40
0.680338149289172
40
0.831992847842156
40
0.831992847842156
40
1
40
1
40
1
40
1
41
1
10
6.89833637217203
20
1.0205859627695
30
-1E-16
41
1
10
6.87036224577204
20
1.02744562672308
30
-1E-16
41
1
10
6.84178862584352
20
1.03168301434758
30
-1E-16
41
1
10
6.77770785870933
20
1.03600220122027
30
-1E-16
41
1
10
6.74170334277522
20
1.03554214530755
30
-1E-16
41
1
10
6.66641315952191
20
1.02854105311792
30
-1E-16
41
1
10
6.62755728135252
20
1.02193584941483
30
-1E-16
41
1
10
6.54522400512894
20
1.00365168998536
30
-1E-16
41
1
10
6.50209526306151
20
0.991814875569332
30
-1E-16
41
1
10
6.45480358321205
20
0.976223565358282
30
-1E-16
41
1
10
6.45062257938415
20
0.974831232072802
30
-1E-16
41
1
10
6.44573062682252
20
0.973177628943319
30
-1E-16
41
1
10
6.44363112319934
20
0.972462685007372
30
-1E-16
41
1
10
6.44223079866288
20
0.971984663247525
30
-1E-16
41
1
10
6.4410147254101
20
0.971842188755147
30
-1E-16
41
1
10
6.44335434965086
20
0.969880926380483
30
-1E-16
41
1
10
6.44603032502772
20
0.968607586546113
30
-1E-16
41
1
10
6.45077309111559
20
0.966095934940938
30
-1E-16
41
1
10
6.45319863628535
20
0.964850318127759
30
-1E-16
41
1
10
6.4605126453998
20
0.961128769044819
30
-1E-16
41
1
10
6.4654523323936
20
0.958666017084909
30
-1E-16
41
1
10
6.49024234807723
20
0.946376859062781
30
-1E-16
41
1
10
6.51035185649994
20
0.936622031360741
30
-1E-16
41
1
10
6.57068397291158
20
0.907346345705463
30
-1E-16
41
1
10
6.61107563237084
20
0.887853590157306
30
-1E-16
41
1
10
6.7323258753184
20
0.829303839071628
30
-1E-16
41
1
10
6.81330497131086
20
0.790191461274873
30
0
41
1
10
7.05629052202613
20
0.672466353160274
30
0
41
1
10
7.21838761736262
20
0.593470777517581
30
0
41
1
10
7.70475470406814
20
0.354958314001749
30
0
41
1
10
8.02919273284158
20
0.193991560078729
30
0
41
1
10
9.0017147600486
20
-0.295893072191689
30
0
41
1
10
9.6493236488937
20
-0.632022576401141
30
0
41
1
10
10.6206632435416
20
-1.14751835236979
30
0
41
1
10
10.9444834830889
20
-1.32112984195379
30
0
41
1
10
11.4296554412011
20
-1.58523619477265
30
0
41
1
10
11.5913338656734
20
-1.67382238722766
30
0
41
1
10
11.8335974016347
20
-1.80781104530396
30
0
41
1
10
11.9143978981956
20
-1.85250045915356
30
0
41
1
10
12.0147484428767
20
-1.90966384623664
30
0
41
1
10
12.0348137082994
20
-1.92111115422247
30
0
41
1
10
12.0595600859957
20
-1.93603490540431
30
0
41
1
10
12.0644947550485
20
-1.93905096877523
30
0
41
1
10
12.0717887478842
20
-1.94375497599432
30
0
41
1
10
12.0742078003875
20
-1.94534662710527
30
0
41
1
10
12.0777260570328
20
-1.94789646356361
30
0
41
1
10
12.0788929937584
20
-1.9487622286309
30
0
41
1
10
12.0804900953147
20
-1.95024703782835
30
0
41
1
10
12.0811421470154
20
-1.9507432205159
30
0
41
1
10
12.0814058734038
20
-1.95221435805158
30
0
41
1
10
12.0802459980461
20
-1.95231947879015
30
0
41
1
10
12.0679858372308
20
-1.95415349351546
30
0
41
1
10
12.0102952356276
20
-1.96277800715353
30
0
41
1
10
11.2144520590726
20
-2.08137246356171
30
0
41
1
10
10.4343315600324
20
-2.19241425820496
30
0
41
1
10
8.9735906818832
20
-2.38875158183663
30
0
41
1
10
8.24714103897986
20
-2.48051755818142
30
0
41
1
10
6.72701138773414
20
-2.65791360753954
30
-1E-16
41
1
10
5.93392105314314
20
-2.74188651229193
30
-1E-16
41
1
10
5.14613646057114
20
-2.81604010042059
30
2E-16
0
SPLINE
5
EF
100
AcDbEntity
8
1
62
256
6
ByLayer
370
18
48
1
60
0
100
AcDbSpline
70
4
71
3
72
18
73
14
40
0
40
0
40
0
40
0
40
0.250000000000001
40
0.250000000000001
40
0.500000000000003
40
0.500000000000003
40
0.562500000000003
40
0.562500000000003
40
0.625000000000003
40
0.625000000000003
40
0.750000000000002
40
0.750000000000002
40
1
40
1
40
1
40
1
41
1
10
7.03302041820408
20
0.964267258353175
30
-1E-16
41
1
10
7.81135383560985
20
0.580384908761545
30
0
41
1
10
8.57981460172115
20
0.182983916321007
30
0
41
1
10
10.114947586982
20
-0.603018785552138
30
0
41
1
10
10.8815237557733
20
-0.99181598534318
30
1E-16
41
1
10
11.8493803015129
20
-1.45100996535194
30
1E-16
41
1
10
12.0436780955702
20
-1.54164642132392
30
1E-16
41
1
10
12.4324575071754
20
-1.71900343842972
30
1E-16
41
1
10
12.6262604169209
20
-1.80546339016718
30
1E-16
41
1
10
13.2062706826851
20
-2.05768786472143
30
1E-16
41
1
10
13.5910496978734
20
-2.21632935096198
30
1E-16
41
1
10
14.7434638197468
20
-2.6583540756568
30
2E-16
41
1
10
15.508772014725
20
-2.90840272456842
30
2E-16
41
1
10
16.2800000000125
20
-3.1020868981112
30
0
0
SPLINE
5
F0
100
AcDbEntity
8
1
62
256
6
ByLayer
370
18
48
1
60
0
100
AcDbSpline
70
4
71
3
72
28
73
24
40
0
40
0
40
0
40
0
40
0.0538444952202532
40
0.0538444952202532
40
0.107688990440507
40
0.107688990440507
40
0.21537798088101
40
0.21537798088101
40
0.323066971321514
40
0.323066971321514
40
0.430755961762018
40
0.430755961762018
40
0.538444952202521
40
0.538444952202521
40
0.646133942643024
40
0.646133942643024
40
0.753822933083528
40
0.753822933083528
40
0.861511923524032
40
0.861511923524032
40
0.969200913964535
40
0.969200913964535
40
1
40
1
40
1
40
1
41
1
10
41.3188309802263
20
-0.0241630575485487
30
0
41
1
10
41.121270295453
20
0.0730253901997173
30
0
41
1
10
40.9234129738896
20
0.170167592978004
30
0
41
1
10
40.5288939555936
20
0.362883532115717
30
0
41
1
10
40.3320914536845
20
0.458516467856612
30
0
41
1
10
39.7427764971389
20
0.74260169657461
30
0
41
1
10
39.3513666305914
20
0.92827565643438
30
-1E-16
41
1
10
38.5704709942466
20
1.28892736197722
30
-1E-16
41
1
10
38.1813696059238
20
1.46392210904793
30
-1E-16
41
1
10
37.4013655718598
20
1.79818139500938
30
-1E-16
41
1
10
37.0106387664547
20
1.9575948876066
30
-1E-16
41
1
10
36.2266237657906
20
2.25750253382344
30
-1E-16
41
1
10
35.8334035375067
20
2.39756465348944
30
-1E-16
41
1
10
35.0418334607939
20
2.65490405285027
30
-2E-16
41
1
10
34.6480893019151
20
2.77069791405666
30
1E-16
41
1
10
33.8640659703906
20
2.97345341429886
30
0
41
1
10
33.4741443750145
20
3.05953213673786
30
0
41
1
10
32.6936647307492
20
3.20398991096195
30
0
41
1
10
32.3036004708858
20
3.26165763010292
30
0
41
1
10
31.5225021876427
20
3.34473678614427
30
0
41
1
10
31.1318392637066
20
3.36823032813146
30
0
41
1
10
30.6264461925253
20
3.38064466898234
30
0
41
1
10
30.5138819021028
20
3.38220139809698
30
0
41
1
10
30.4011381867368
20
3.38247249507606
30
0
0
SPLINE
5
F1
100
AcDbEntity
8
SK1
62
256
6
ByLayer
370
18
48
1
60
0
100
AcDbSpline
70
4
71
3
72
10
73
6
40
0
40
0
40
0
40
0
40
0.5
40
0.5
40
1
40
1
40
1
40
1
41
1
10
-36.0000000000001
20
2.75964338092581
30
0
41
1
10
-35.9272396278271
20
2.83393314928716
30
0
41
1
10
-35.8568055726535
20
2.90110714696652
30
0
41
1
10
-35.7224295033876
20
3.01702362062855
30
0
41
1
10
-35.6578574543336
20
3.06617854818288
30
0
41
1
10
-35.6009618943233
20
3.09976636608158
30
0
0
SPLINE
5
F2
100
AcDbEntity
8
SK1
62
256
6
ByLayer
370
18
48
1
60
0
100
AcDbSpline
70
4
71
3
72
8
73
4
40
0
40
0
40
0
40
0
40
1
40
1
40
1
40
1
41
1
10
-35.6009618943233
20
2.4693907676666
30
1E-16
41
1
10
-35.567323862981
20
2.5008125877695
30
1E-16
41
1
10
-35.5336693910741
20
2.53221981731178
30
1E-16
41
1
10
-35.5
20
2.56361380649267
30
-2E-16
0
SPLINE
5
F3
100
AcDbEntity
8
SK1
62
256
6
ByLayer
370
18
48
1
60
0
100
AcDbSpline
70
4
71
3
72
8
73
4
40
0
40
0
40
0
40
0
40
1
40
1
40
1
40
1
41
1
10
-35.5
20
3.19398940490768
30
0
41
1
10
-35.5336694882303
20
3.16259532513655
30
0
41
1
10
-35.567323963237
20
3.13118809253376
30
0
41
1
10
-35.6009618943233
20
3.09976636608158
30
0
0
SPLINE
5
F4
100
AcDbEntity
8
SK1
62
256
6
ByLayer
370
18
48
1
60
0
100
AcDbSpline
70
4
71
3
72
10
73
6
40
0
40
0
40
0
40
0
40
0.5
40
0.5
40
1
40
1
40
1
40
1
41
1
10
-35.6009618943233
20
2.4693907676666
30
1E-16
41
1
10
-35.657625994603
20
2.35344855467901
30
-1E-16
41
1
10
-35.7212304684705
20
2.2337543406455
30
-1E-16
41
1
10
-35.8564778377541
20
1.99183465529265
30
-1E-16
41
1
10
-35.9271669955654
20
1.87131849954304
30
-1E-16
41
1
10
-36.0000000000001
20
1.75104242346168
30
-1E-16
0
SPLINE
5
F5
100
AcDbEntity
8
SK1
62
256
6
ByLayer
370
18
48
1
60
0
100
AcDbSpline
70
4
71
3
72
12
73
8
40
0
40
0
40
0
40
0
40
0.5
40
0.5
40
0.75
40
0.75
40
1
40
1
40
1
40
1
41
1
10
-35.5
20
2.56361380649261
30
-2E-16
41
1
10
-35.4764535706457
20
2.58556895105608
30
-2E-16
41
1
10
-35.453758325367
20
2.61179948505873
30
-2E-16
41
1
10
-35.4256589034923
20
2.65289778562226
30
-2E-16
41
1
10
-35.4170915256394
20
2.66724690967789
30
-2E-16
41
1
10
-35.4042768359918
20
2.69472705616838
30
1E-16
41
1
10
-35.4
20
2.70815842195654
30
1E-16
41
1
10
-35.4
20
2.71813414101894
30
1E-16
0
SPLINE
5
F6
100
AcDbEntity
8
SK1
62
256
6
ByLayer
370
18
48
1
60
0
100
AcDbSpline
70
4
71
3
72
12
73
8
40
0
40
0
40
0
40
0
40
0.25
40
0.25
40
0.5
40
0.5
40
1
40
1
40
1
40
1
41
1
10
-35.4
20
3.26445965964533
30
0
41
1
10
-35.4
20
3.26848295966386
30
0
41
1
10
-35.4042405317345
20
3.26817021579657
30
0
41
1
10
-35.4170629445097
20
3.2620874060562
30
0
41
1
10
-35.4255309618335
20
3.25647677996517
30
0
41
1
10
-35.4538111153162
20
3.23544145970598
30
0
41
1
10
-35.4764597265186
20
3.21593880961666
30
0
41
1
10
-35.5
20
3.19398940490774
30
0
0
SPLINE
5
F7
100
AcDbEntity
8
1
62
256
6
ByLayer
370
18
48
1
60
0
100
AcDbSpline
70
4
71
3
72
14
73
10
40
0
40
0
40
0
40
0
40
0.188697500882582
40
0.329611744871093
40
0.422099570938822
40
0.490680715841197
40
0.620284574330084
40
0.796251579077685
40
1
40
1
40
1
40
1
41
1
10
8.65984343081175
20
3.37256010300982
30
0
41
1
10
8.34172703778242
20
3.37168543947396
30
0
41
1
10
7.7860408571278
20
3.37057503665398
30
0
41
1
10
7.07438584240612
20
3.37080477772219
30
0
41
1
10
6.56526540368333
20
3.37059142224447
30
0
41
1
10
6.07519721388496
20
3.37057327120544
30
0
41
1
10
5.44439063804552
20
3.3690700731797
30
0
41
1
10
4.58570223725806
20
3.37003152323726
30
0
41
1
10
3.94551418186845
20
3.36867536421559
30
0
41
1
10
3.602000191748
20
3.36779388417247
30
0
0
SPLINE
5
F8
100
AcDbEntity
8
1
62
256
6
ByLayer
370
18
48
1
60
0
100
AcDbSpline
70
4
71
1
72
4
73
2
40
0
40
0
40
1
40
1
41
1
10
41.2928802657063
20
-0.0003045090333273
30
0
41
1
10
41.2928450600099
20
-0.0002869198261806
30
0
0
SPLINE
5
F9
100
AcDbEntity
8
1
62
256
6
ByLayer
370
18
48
1
60
0
100
AcDbSpline
70
4
71
3
72
15
73
11
40
0
40
0
40
0
40
0
40
0.0511301868784604
40
0.123885570357746
40
0.188436024987796
40
0.245293120341747
40
0.324571106821425
40
0.492441204887416
40
0.731193954923565
40
1
40
1
40
1
40
1
41
1
10
41.94695156631
20
0.621367558758095
30
0
41
1
10
41.8755097302604
20
0.644383294936176
30
0
41
1
10
41.7025743401027
20
0.700656786193349
30
0
41
1
10
41.4403275642753
20
0.788728944649336
30
0
41
1
10
41.170429357308
20
0.880435003892302
30
-1E-16
41
1
10
40.8919127908781
20
0.976567445027058
30
-1E-16
41
1
10
40.4706828043614
20
1.12424018420967
30
-1E-16
41
1
10
39.799517218404
20
1.36636892926157
30
-1E-16
41
1
10
38.8711800812852
20
1.71598775675483
30
-1E-16
41
1
10
38.1787846447439
20
1.99214241790548
30
-1E-16
41
1
10
37.8134715143876
20
2.1420553132308
30
-1E-16
0
SPLINE
5
FA
100
AcDbEntity
8
1
62
256
6
ByLayer
370
18
48
1
60
0
100
AcDbSpline
70
4
71
1
72
4
73
2
40
0
40
0
40
1
40
1
41
1
10
37.8134715143876
20
2.1420553132308
30
-1E-16
41
1
10
37.6465750246445
20
2.20859922247891
30
-1E-16
0
SPLINE
5
FB
100
AcDbEntity
8
1
62
256
6
ByLayer
370
18
48
1
60
0
100
AcDbSpline
70
4
71
3
72
17
73
13
40
0
40
0
40
0
40
0
40
0.13099652257474
40
0.232588609341825
40
0.312751070497675
40
0.396565379066088
40
0.483973994371917
40
0.571445133951272
40
0.830257133988763
40
0.889832263090092
40
0.975373080672727
40
1
40
1
40
1
40
1
41
1
10
20.8890670301092
20
-3.37866043075138
30
0
41
1
10
21.2122433413922
20
-3.37896345623292
30
0
41
1
10
21.7860767395349
20
-3.37941237429555
30
0
41
1
10
22.5578600444547
20
-3.37905050913034
30
0
41
1
10
23.2130642701682
20
-3.37974560547076
30
0
41
1
10
23.8333786593026
20
-3.38083730078239
30
0
41
1
10
24.4717168029912
20
-3.3802924753017
30
0
41
1
10
25.5418748487858
20
-3.37938311521015
30
0
41
1
10
26.5433407033958
20
-3.38283454444908
30
0
41
1
10
27.5400673274057
20
-3.38175540707141
30
0
41
1
10
27.9588799617438
20
-3.38068761086183
30
0
41
1
10
28.230713949032
20
-3.38092805527975
30
0
41
1
10
28.2914802531721
20
-3.38101488395901
30
0
0
SPLINE
5
FC
100
AcDbEntity
8
1
62
256
6
ByLayer
370
18
48
1
60
0
100
AcDbSpline
70
4
71
3
72
8
73
4
40
0
40
0
40
0
40
0
40
1
40
1
40
1
40
1
41
1
10
7.13739792339021
20
0.905983593228683
30
-1E-16
41
1
10
7.05073535429773
20
0.944804622601424
30
-1E-16
41
1
10
6.96370774274877
20
0.98461989715392
30
-1E-16
41
1
10
6.87665337566352
20
1.02535824640259
30
-1E-16
0
SPLINE
5
FD
100
AcDbEntity
8
1
62
256
6
ByLayer
370
18
48
1
60
0
100
AcDbSpline
70
4
71
3
72
29
73
25
40
0
40
0
40
0
40
0
40
1.04931121498E-05
40
2.74994796797E-05
40
4.31236038808E-05
40
5.92372676676E-05
40
0.0001819805678094
40
0.0002633028182397
40
0.0004096729931075
40
0.0006747225982497
40
0.0011597486839954
40
0.0020632847612708
40
0.0037962350652433
40
0.0072725996381065
40
0.0187420382791522
40
0.0986047424388068
40
0.207170437378182
40
0.315245584383956
40
0.422809026042326
40
0.510398525555165
40
0.600940798712393
40
0.696206024547998
40
0.832398802499043
40
1
40
1
40
1
40
1
41
1
10
22.2456152920279
20
-0.0070576591223528
30
0
41
1
10
22.2456203050707
20
-0.0070586122969587
30
0
41
1
10
22.2456291249878
20
-0.0070598668419564
30
0
41
1
10
22.2456192989196
20
-0.0070550780734209
30
0
41
1
10
22.2455671451482
20
-0.0070383115639743
30
0
41
1
10
22.2453147949269
20
-0.006962152439371
30
0
41
1
10
22.2448215465099
20
-0.0068211119971693
30
0
41
1
10
22.244119587857
20
-0.0066171814648044
30
0
41
1
10
22.2431073144317
20
-0.0063242364334712
30
0
41
1
10
22.2412799097555
20
-0.0057949134545368
30
0
41
1
10
22.237895295218
20
-0.0048154833699812
30
0
41
1
10
22.2315002419098
20
-0.0029662473704093
30
0
41
1
10
22.2189351740192
20
0.0006623739741087
30
0
41
1
10
22.1845116300937
20
0.0105888989487255
30
0
41
1
10
21.9874992586138
20
0.0673456324796859
30
0
41
1
10
21.5685684779959
20
0.190042187786361
30
0
41
1
10
20.9493927912351
20
0.37899862060641
30
0
41
1
10
20.2747774901782
20
0.593839828176442
30
0
41
1
10
19.6461949043191
20
0.802450606687643
30
0
41
1
10
19.0560002078661
20
1.00540161027231
30
-1E-16
41
1
10
18.4930200548751
20
1.20511134638824
30
-1E-16
41
1
10
17.8322379944156
20
1.4470440854374
30
-1E-16
41
1
10
17.0166745835445
20
1.75669900725052
30
-1E-16
41
1
10
16.3998658292363
20
2.00316336637991
30
-1E-16
41
1
10
16.0607451206244
20
2.14231631637102
30
-1E-16
0
SPLINE
5
FE
100
AcDbEntity
8
1
62
256
6
ByLayer
370
18
48
1
60
0
100
AcDbSpline
70
4
71
3
72
17
73
13
40
0
40
0
40
0
40
0
40
0.147775350677723
40
0.256368383778024
40
0.326890962574156
40
0.386209357349981
40
0.446132664363687
40
0.684583811890002
40
0.793180008534417
40
0.895853007684909
40
0.985904610706079
40
1
40
1
40
1
40
1
41
1
10
30.4155938237284
20
3.38244624647061
30
0
41
1
10
30.0507156212512
20
3.38384684880344
30
0
41
1
10
29.4177007168828
20
3.38526304276476
30
0
41
1
10
28.6105327044199
20
3.38021752605655
30
0
41
1
10
28.0217912484564
20
3.38093970863545
30
0
41
1
10
27.5532185384031
20
3.38162464804515
30
0
41
1
10
26.6699936533233
20
3.3829137190227
30
0
41
1
10
25.6650884840848
20
3.37985077145976
30
0
41
1
10
24.5546249161316
20
3.38009327390611
30
0
41
1
10
23.810590050132
20
3.38095717029614
30
0
41
1
10
23.2999065949117
20
3.37984039169362
30
0
41
1
10
23.0427463453969
20
3.37957132810496
30
0
41
1
10
23.0079419666466
20
3.37953951742955
30
0
0
SPLINE
5
FF
100
AcDbEntity
8
1
62
256
6
ByLayer
370
18
48
1
60
0
100
AcDbSpline
70
4
71
3
72
12
73
8
40
0
40
0
40
0
40
0
40
0.319781006205877
40
0.582486609285709
40
0.758112639469125
40
0.884140982766052
40
1
40
1
40
1
40
1
41
1
10
3.60199637408195
20
-3.36779864416317
30
0
41
1
10
3.93488388463174
20
-3.36871034317545
30
0
41
1
10
4.54124400312875
20
-3.37006374284673
30
0
41
1
10
5.330423759979
20
-3.36895762661817
30
0
41
1
10
5.91791564792749
20
-3.3703831101657
30
0
41
1
10
6.35253695397924
20
-3.37056741905917
30
0
41
1
10
6.60432819887373
20
-3.37065375259644
30
0
41
1
10
6.72493177089669
20
-3.37068104833764
30
0
0
LINE
5
84
100
AcDbEntity
8
1
62
256
6
ByLayer
370
18
48
1
60
0
100
AcDbLine
10
42.950216
20
0.042977
30
0
11
42.08203
21
1.001303
31
0
39
0
210
0
220
0
230
1
0
LINE
5
85
100
AcDbEntity
8
1
62
256
6
ByLayer
370
18
48
1
60
0
100
AcDbLine
10
16.28
20
-3.076315
30
0
11
16.28
21
-3.102087
31
0
39
0
210
0
220
0
230
1
0
LINE
5
86
100
AcDbEntity
8
1
62
256
6
ByLayer
370
18
48
1
60
0
100
AcDbLine
10
3.501722
20
-3.546125
30
0
11
3.501722
21
-2.713525
31
0
39
0
210
0
220
0
230
1
0
LINE
5
87
100
AcDbEntity
8
1
62
256
6
ByLayer
370
18
48
1
60
0
100
AcDbLine
10
0.558975
20
3.772317
30
0
11
0.558975
21
0
31
0
39
0
210
0
220
0
230
1
0
LINE
5
88
100
AcDbEntity
8
1
62
256
6
ByLayer
370
18
48
1
60
0
100
AcDbLine
10
0.558975
20
0
30
0
11
0.558975
21
-3.772317
31
0
39
0
210
0
220
0
230
1
0
LINE
5
89
100
AcDbEntity
8
1
62
256
6
ByLayer
370
18
48
1
60
0
100
AcDbLine
10
0
20
4
30
0
11
0
21
0
31
0
39
0
210
0
220
0
230
1
0
LINE
5
8A
100
AcDbEntity
8
1
62
256
6
ByLayer
370
18
48
1
60
0
100
AcDbLine
10
0
20
0
30
0
11
0
21
-4
31
0
39
0
210
0
220
0
230
1
0
LINE
5
8B
100
AcDbEntity
8
1
62
256
6
ByLayer
370
18
48
1
60
0
100
AcDbLine
10
3.501722
20
3.546125
30
0
11
3.501722
21
2.899755
31
0
39
0
210
0
220
0
230
1
0
LINE
5
8C
100
AcDbEntity
8
1
62
256
6
ByLayer
370
18
48
1
60
0
100
AcDbLine
10
1.118449
20
3.544635
30
0
11
1.118449
21
0
31
0
39
0
210
0
220
0
230
1
0
LINE
5
8D
100
AcDbEntity
8
1
62
256
6
ByLayer
370
18
48
1
60
0
100
AcDbLine
10
1.118449
20
0
30
0
11
1.118449
21
-3.544635
31
0
39
0
210
0
220
0
230
1
0
LINE
5
8E
100
AcDbEntity
8
SK1
62
256
6
ByLayer
370
18
48
1
60
0
100
AcDbLine
10
-35.600962
20
2.46932
30
0
11
-35.600962
21
3.099766
31
0
39
0
210
0
220
0
230
1
0
LINE
5
90
100
AcDbEntity
8
SK1
62
256
6
ByLayer
370
18
48
1
60
0
100
AcDbLine
10
0
20
4
30
0
11
0
21
-4
31
0
39
0
210
0
220
0
230
1
0
LINE
5
91
100
AcDbEntity
8
SK1
62
256
6
ByLayer
370
18
48
1
60
0
100
AcDbLine
10
-35.4
20
2.718134
30
0
11
-35.4
21
3.26446
31
0
39
0
210
0
220
0
230
1
0
LINE
5
92
100
AcDbEntity
8
SK1
62
256
6
ByLayer
370
18
48
1
60
0
100
AcDbLine
10
-35.5
20
2.563532
30
0
11
-35.5
21
3.193989
31
0
39
0
210
0
220
0
230
1
0
LINE
5
93
100
AcDbEntity
8
SK1
62
256
6
ByLayer
370
18
48
1
60
0
100
AcDbLine
10
-36
20
1.751012
30
0
11
-36
21
2.759643
31
0
39
0
210
0
220
0
230
1
0
LINE
5
94
100
AcDbEntity
8
SK1
62
256
6
ByLayer
370
18
48
1
60
0
100
AcDbLine
10
-36
20
1.751042
30
0
11
-36
21
-2.759643
31
0
39
0
210
0
220
0
230
1
0
LINE
5
95
100
AcDbEntity
8
SK1
62
256
6
ByLayer
370
18
48
1
60
0
100
AcDbLine
10
-34.76
20
-4
30
0
11
-34.76
21
4
31
0
39
0
210
0
220
0
230
1
0
LINE
5
96
100
AcDbEntity
8
SK1
62
256
6
ByLayer
370
18
48
1
60
0
100
AcDbLine
10
-34.76
20
-4
30
0
11
0
21
-4
31
0
39
0
210
0
220
0
230
1
0
LINE
5
97
100
AcDbEntity
8
SK1
62
256
6
ByLayer
370
18
48
1
60
0
100
AcDbLine
10
0
20
4
30
0
11
-34.76
21
4
31
0
39
0
210
0
220
0
230
1
0
LINE
5
98
100
AcDbEntity
8
SK1
62
256
6
ByLayer
370
18
48
1
60
0
100
AcDbLine
10
-36
20
-2.76
30
0
11
-34.76
21
-4
31
0
39
0
210
0
220
0
230
1
0
LINE
5
99
100
AcDbEntity
8
SK1
62
256
6
ByLayer
370
18
48
1
60
0
100
AcDbLine
10
-34.76
20
4
30
0
11
-36
21
2.76
31
0
39
0
210
0
220
0
230
1
0
LINE
5
9A
100
AcDbEntity
8
1
62
256
6
ByLayer
370
18
48
1
60
0
100
AcDbLine
10
1.118449
20
-3.544635
30
0
11
3.501722
21
-3.546125
31
0
39
0
210
0
220
0
230
1
0
LINE
5
9B
100
AcDbEntity
8
1
62
256
6
ByLayer
370
18
48
1
60
0
100
AcDbLine
10
8.662575
20
-3.54935
30
0
11
9.667975
21
-3.549979
31
0
39
0
210
0
220
0
230
1
0
LINE
5
9C
100
AcDbEntity
8
1
62
256
6
ByLayer
370
18
48
1
60
0
100
AcDbLine
10
19.911346
20
-3.556381
30
0
11
20.88651
21
-3.55699
31
0
39
0
210
0
220
0
230
1
0
LINE
5
9D
100
AcDbEntity
8
1
62
256
6
ByLayer
370
18
48
1
60
0
100
AcDbLine
10
30.417301
20
-3.562947
30
0
11
31.397888
21
-3.56356
31
0
39
0
210
0
220
0
230
1
0
LINE
5
9E
100
AcDbEntity
8
1
62
256
6
ByLayer
370
18
48
1
60
0
100
AcDbLine
10
31.397888
20
3.56356
30
0
11
30.417301
21
3.562947
31
0
39
0
210
0
220
0
230
1
0
LINE
5
9F
100
AcDbEntity
8
1
62
256
6
ByLayer
370
18
48
1
60
0
100
AcDbLine
10
20.88651
20
3.55699
30
0
11
19.911346
21
3.556381
31
0
39
0
210
0
220
0
230
1
0
LINE
5
A0
100
AcDbEntity
8
1
62
256
6
ByLayer
370
18
48
1
60
0
100
AcDbLine
10
9.667975
20
3.549979
30
0
11
8.662575
21
3.54935
31
0
39
0
210
0
220
0
230
1
0
LINE
5
A1
100
AcDbEntity
8
1
62
256
6
ByLayer
370
18
48
1
60
0
100
AcDbLine
10
3.501722
20
3.546125
30
0
11
1.118449
21
3.544635
31
0
39
0
210
0
220
0
230
1
0
LINE
5
A2
100
AcDbEntity
8
SK4
62
256
6
ByLayer
370
18
48
0.05
60
0
100
AcDbLine
10
48
20
0
30
0
11
-41
21
0
31
0
39
0
210
0
220
0
230
1
0
LINE
5
A4
100
AcDbEntity
8
4
62
256
6
ByLayer
370
18
48
0.05
60
0
100
AcDbLine
10
-36
20
0
30
0
11
48
21
0
31
0
39
0
210
0
220
0
230
1
0
LINE
5
A6
100
AcDbEntity
8
80
62
256
6
ByLayer
370
18
48
1
60
0
100
AcDbLine
10
0
20
0
30
0
11
-6
21
0
31
0
39
0
210
0
220
0
230
1
0
LINE
5
A7
100
AcDbEntity
8
81
62
256
6
ByLayer
370
18
48
1
60
0
100
AcDbLine
10
43
20
0
30
0
11
49
21
0
31
0
39
0
210
0
220
0
230
1
0
LINE
5
A8
100
AcDbEntity
8
SK2
62
256
6
ByLayer
370
13
48
1
60
0
100
AcDbLine
10
43.542967
20
1.491759
30
0
11
50.926458
21
21.777325
31
0
39
0
210
0
220
0
230
1
0
LINE
5
AA
100
AcDbEntity
8
SK2
62
256
6
ByLayer
370
13
48
1
60
0
100
AcDbLine
10
43.542967
20
-1.491759
30
0
11
50.926458
21
-21.777325
31
0
39
0
210
0
220
0
230
1
0
LINE
5
AB
100
AcDbEntity
8
1
62
256
6
ByLayer
370
13
48
1
60
0
100
AcDbLine
10
49.840525
20
18.793808
30
0
11
52.93711
21
17.977416
31
0
39
0
210
0
220
0
230
1
0
LINE
5
AC
100
AcDbEntity
8
1
62
256
6
ByLayer
370
13
48
1
60
0
100
AcDbLine
10
49.840525
20
18.793808
30
0
11
52.620301
21
17.203777
31
0
39
0
210
0
220
0
230
1
0
LINE
5
AD
100
AcDbEntity
8
1
62
256
6
ByLayer
370
13
48
1
60
0
100
AcDbLine
10
52.93711
20
17.977416
30
0
11
52.620301
21
17.203777
31
0
39
0
210
0
220
0
230
1
0
LINE
5
AE
100
AcDbEntity
8
1
62
256
6
ByLayer
370
13
48
1
60
0
100
AcDbLine
10
49.840525
20
-18.793808
30
0
11
52.620299
21
-17.203778
31
0
39
0
210
0
220
0
230
1
0
LINE
5
AF
100
AcDbEntity
8
1
62
256
6
ByLayer
370
13
48
1
60
0
100
AcDbLine
10
49.840525
20
-18.793808
30
0
11
52.937113
21
-17.977415
31
0
39
0
210
0
220
0
230
1
0
LINE
5
B0
100
AcDbEntity
8
1
62
256
6
ByLayer
370
13
48
1
60
0
100
AcDbLine
10
52.620299
20
-17.203778
30
0
11
52.937113
21
-17.977415
31
0
39
0
210
0
220
0
230
1
0
MTEXT
5
100
100
AcDbEntity
8
SK2
62
256
6
ByLayer
370
18
48
1
60
0
100
AcDbMText
10
56.717388
20
-2.467451
30
0
210
0
220
0
230
1
1
\W0.7237;140.00
40
3.50012
41
0
44
1.084337
50
0
71
7
72
5
7
iso_b_vert
0
MTEXT
5
103
100
AcDbEntity
8
SK6
62
256
6
ByLayer
370
18
48
1
60
0
100
AcDbMText
10
-35.831725
20
-67.003872
30
0
210
0
220
0
230
1
1
\W0.7388;860.1-0714-022A1-GM X1BM
40
3.175
41
0
44
1.084337
50
0
71
7
72
5
7
iso_b_vert
0
DIMENSION
5
106
100
AcDbEntity
8
SK2
62
256
6
ByLayer
370
18
48
1
60
0
100
AcDbDimension
2
_U0
10
43
20
-27.50012
30
0
11
21.5
21
-27.50012
31
0
70
32
71
2
72
1
41
1
210
0
220
0
230
1
3
Standard
100
AcDbAlignedDimension
13
0
23
-4
33
0
14
43
24
0
34
0
50
0
100
AcDbRotatedDimension
1001
ACAD
1000
DSTYLE
1002
{
1070
   371
1070
    13
1070
   372
1070
    13
1070
     3
1000

1070
   170
1070
     0
1070
   144
1040
1.0
1070
   277
1070
     2
1070
   284
1070
     8
1070
   278
1070
    46
1070
   146
1040
0.999966
1070
   345
1005
16
1070
   347
1005
16
1070
   346
1005
16
1070
   344
1005
107
1070
   343
1005
107
1070
   172
1070
     1
1070
    76
1070
     0
1070
    75
1070
     0
1070
   282
1070
     0
1070
   281
1070
     0
1070
    71
1070
     0
1070
    74
1070
     0
1070
   279
1070
     0
1070
   173
1070
     1
1070
   340
1005
101
1070
   271
1070
     1
1070
   272
1070
     2
1070
    77
1070
     1
1070
    73
1070
     1
1070
   171
1070
     3
1070
   274
1070
     4
1070
   177
1070
   150
1070
   176
1070
     9
1070
   178
1070
    43
1070
    78
1070
     8
1070
    48
1040
-0.1
1070
    41
1040
3.175
1070
   147
1040
1.75006
1070
    42
1040
1.5875
1070
    44
1040
3.175
1070
   140
1040
3.50012
1002
}
1001
ACAD_DSTYLE_DIM_LINETYPE
1070
   380
1005
16
1001
ACAD_DSTYLE_DIM_EXT1_LINETYPE
1070
   381
1005
16
1001
ACAD_DSTYLE_DIM_EXT2_LINETYPE
1070
   382
1005
16
0
DIMENSION
5
12C
100
AcDbEntity
8
2
62
256
6
ByLayer
370
18
48
1
60
0
100
AcDbDimension
2
_U1
10
49.75006
20
3.57
30
0
11
49.75006
21
18.643216
31
0
70
32
71
1
72
1
41
1
210
0
220
0
230
1
3
Standard
100
AcDbAlignedDimension
13
41.7006
23
-3.57
33
0
14
41.7006
24
3.57
34
0
50
90
100
AcDbRotatedDimension
1001
ACAD
1000
DSTYLE
1002
{
1070
   371
1070
    13
1070
   372
1070
    13
1070
     3
1000

1070
   170
1070
     0
1070
   144
1040
1.0
1070
   277
1070
     2
1070
   284
1070
     8
1070
   278
1070
    46
1070
   146
1040
0.999966
1070
   345
1005
16
1070
   347
1005
16
1070
   346
1005
16
1070
   344
1005
107
1070
   343
1005
107
1070
   172
1070
     1
1070
    76
1070
     0
1070
    75
1070
     0
1070
   282
1070
     0
1070
   281
1070
     0
1070
    71
1070
     0
1070
    74
1070
     0
1070
   279
1070
     0
1070
   173
1070
     1
1070
   340
1005
101
1070
   271
1070
     1
1070
   272
1070
     2
1070
    77
1070
     1
1070
    73
1070
     0
1070
   171
1070
     3
1070
   274
1070
     4
1070
   177
1070
   150
1070
   176
1070
     9
1070
   178
1070
    43
1070
    78
1070
     8
1070
    48
1040
-0.1
1070
    41
1040
3.175
1070
   147
1040
1.75006
1070
    42
1040
1.5875
1070
    44
1040
3.175
1070
   140
1040
3.50012
1002
}
1001
ACAD_DSTYLE_DIM_LINETYPE
1070
   380
1005
16
1001
ACAD_DSTYLE_DIM_EXT1_LINETYPE
1070
   381
1005
16
1001
ACAD_DSTYLE_DIM_EXT2_LINETYPE
1070
   382
1005
16
0
DIMENSION
5
14B
100
AcDbEntity
8
SK2
62
256
6
ByLayer
370
18
48
1
60
0
100
AcDbDimension
2
_U2
10
-39.24994
20
-4
30
0
11
-39.24994
21
18.10734
31
0
70
32
71
1
72
1
41
1
210
0
220
0
230
1
3
Standard
100
AcDbAlignedDimension
13
-36
23
4
33
0
14
-36
24
-4
34
0
50
90
100
AcDbRotatedDimension
1001
ACAD
1000
DSTYLE
1002
{
1070
   371
1070
    13
1070
   372
1070
    13
1070
     3
1000

1070
   170
1070
     0
1070
   144
1040
1.0
1070
   277
1070
     2
1070
   284
1070
     8
1070
   278
1070
    46
1070
   146
1040
0.999966
1070
   345
1005
16
1070
   347
1005
16
1070
   346
1005
16
1070
   344
1005
107
1070
   343
1005
107
1070
   172
1070
     1
1070
    76
1070
     0
1070
    75
1070
     0
1070
   282
1070
     0
1070
   281
1070
     0
1070
    71
1070
     0
1070
    74
1070
     0
1070
   279
1070
     0
1070
   173
1070
     1
1070
   340
1005
101
1070
   271
1070
     1
1070
   272
1070
     2
1070
    77
1070
     1
1070
    73
1070
     0
1070
   171
1070
     3
1070
   274
1070
     4
1070
   177
1070
   150
1070
   176
1070
     9
1070
   178
1070
    43
1070
    78
1070
     8
1070
    48
1040
-0.1
1070
    41
1040
3.175
1070
   147
1040
1.75006
1070
    42
1040
1.5875
1070
    44
1040
3.175
1070
   140
1040
3.50012
1002
}
1001
ACAD_DSTYLE_DIM_LINETYPE
1070
   380
1005
16
1001
ACAD_DSTYLE_DIM_EXT1_LINETYPE
1070
   381
1005
16
1001
ACAD_DSTYLE_DIM_EXT2_LINETYPE
1070
   382
1005
16
0
DIMENSION
5
169
100
AcDbEntity
8
SK2
62
256
6
ByLayer
370
18
48
1
60
0
100
AcDbDimension
2
_U3
10
0
20
-27.50012
30
0
11
-18
21
-27.50012
31
0
70
32
71
1
72
1
41
1
210
0
220
0
230
1
3
Standard
100
AcDbAlignedDimension
13
-36
23
-4
33
0
14
0
24
-4
34
0
50
0
100
AcDbRotatedDimension
1001
ACAD
1000
DSTYLE
1002
{
1070
   371
1070
    13
1070
   372
1070
    13
1070
     3
1000

1070
   170
1070
     0
1070
   144
1040
1.0
1070
   277
1070
     2
1070
   284
1070
     8
1070
   278
1070
    46
1070
   146
1040
0.999966
1070
   345
1005
16
1070
   347
1005
16
1070
   346
1005
16
1070
   344
1005
107
1070
   343
1005
107
1070
   172
1070
     1
1070
    76
1070
     0
1070
    75
1070
     0
1070
   282
1070
     0
1070
   281
1070
     0
1070
    71
1070
     0
1070
    74
1070
     0
1070
   279
1070
     0
1070
   173
1070
     1
1070
   340
1005
101
1070
   271
1070
     1
1070
   272
1070
     2
1070
    77
1070
     1
1070
    73
1070
     1
1070
   171
1070
     3
1070
   274
1070
     4
1070
   177
1070
   150
1070
   176
1070
     9
1070
   178
1070
    43
1070
    78
1070
     8
1070
    48
1040
-0.1
1070
    41
1040
3.175
1070
   147
1040
1.75006
1070
    42
1040
1.5875
1070
    44
1040
3.175
1070
   140
1040
3.50012
1002
}
1001
ACAD_DSTYLE_DIM_LINETYPE
1070
   380
1005
16
1001
ACAD_DSTYLE_DIM_EXT1_LINETYPE
1070
   381
1005
16
1001
ACAD_DSTYLE_DIM_EXT2_LINETYPE
1070
   382
1005
16
0
DIMENSION
5
185
100
AcDbEntity
8
SK2
62
256
6
ByLayer
370
18
48
1
60
0
100
AcDbDimension
2
_U4
10
43
20
-18.74982
30
0
11
22.5
21
-18.74982
31
0
70
32
71
1
72
1
41
1
210
0
220
0
230
1
3
Standard
100
AcDbAlignedDimension
13
2
23
4.07
33
0
14
43
24
0
34
0
50
0
100
AcDbRotatedDimension
1001
ACAD
1000
DSTYLE
1002
{
1070
   371
1070
    13
1070
   372
1070
    13
1070
     3
1000

1070
   170
1070
     0
1070
   144
1040
1.0
1070
   277
1070
     2
1070
   284
1070
     8
1070
   278
1070
    46
1070
   146
1040
0.999966
1070
   345
1005
16
1070
   347
1005
16
1070
   346
1005
16
1070
   344
1005
107
1070
   343
1005
107
1070
   172
1070
     1
1070
    76
1070
     0
1070
    75
1070
     0
1070
   282
1070
     0
1070
   281
1070
     0
1070
    71
1070
     0
1070
    74
1070
     0
1070
   279
1070
     0
1070
   173
1070
     1
1070
   340
1005
101
1070
   271
1070
     1
1070
   272
1070
     2
1070
    77
1070
     1
1070
    73
1070
     1
1070
   171
1070
     3
1070
   274
1070
     4
1070
   177
1070
   150
1070
   176
1070
     9
1070
   178
1070
    43
1070
    78
1070
     8
1070
    48
1040
-0.1
1070
    41
1040
3.175
1070
   147
1040
1.75006
1070
    42
1040
1.5875
1070
    44
1040
3.175
1070
   140
1040
3.50012
1002
}
1001
ACAD_DSTYLE_DIM_LINETYPE
1070
   380
1005
16
1001
ACAD_DSTYLE_DIM_EXT1_LINETYPE
1070
   381
1005
16
1001
ACAD_DSTYLE_DIM_EXT2_LINETYPE
1070
   382
1005
16
0
DIMENSION
5
1A1
100
AcDbEntity
8
SK2
62
256
6
ByLayer
370
18
48
1
60
0
100
AcDbDimension
2
_U5
10
43
20
-10.82
30
0
11
31.65
21
-10.82
31
0
70
32
71
1
72
1
41
1
210
0
220
0
230
1
3
Standard
100
AcDbAlignedDimension
13
20.3
23
-3.57
33
0
14
43
24
0
34
0
50
0
100
AcDbRotatedDimension
1001
ACAD
1000
DSTYLE
1002
{
1070
   371
1070
    13
1070
   372
1070
    13
1070
     3
1000

1070
   170
1070
     0
1070
   144
1040
1.0
1070
   277
1070
     2
1070
   284
1070
     8
1070
   278
1070
    46
1070
   146
1040
1.25
1070
   345
1005
16
1070
   347
1005
16
1070
   346
1005
16
1070
   344
1005
107
1070
   343
1005
107
1070
   172
1070
     1
1070
    76
1070
     0
1070
    75
1070
     0
1070
   282
1070
     0
1070
   281
1070
     0
1070
    71
1070
     0
1070
    74
1070
     0
1070
   279
1070
     0
1070
   173
1070
     1
1070
   340
1005
101
1070
   271
1070
     1
1070
   272
1070
     2
1070
    77
1070
     1
1070
    73
1070
     1
1070
   171
1070
     3
1070
   274
1070
     4
1070
   177
1070
   150
1070
   176
1070
     9
1070
   178
1070
    43
1070
    78
1070
     8
1070
    48
1040
-0.1
1070
    41
1040
3.175
1070
   147
1040
0.42
1070
    42
1040
1.5875
1070
    44
1040
0.5
1070
   140
1040
2.8
1002
}
1001
ACAD_DSTYLE_DIM_LINETYPE
1070
   380
1005
16
1001
ACAD_DSTYLE_DIM_EXT1_LINETYPE
1070
   381
1005
16
1001
ACAD_DSTYLE_DIM_EXT2_LINETYPE
1070
   382
1005
16
0
DIMENSION
5
1BD
100
AcDbEntity
8
SK2
62
256
6
ByLayer
370
18
48
1
60
0
100
AcDbDimension
2
_U6
10
43
20
-37.50012
30
0
11
3.5
21
-37.50012
31
0
70
32
71
1
72
1
41
1
210
0
220
0
230
1
3
Standard
100
AcDbAlignedDimension
13
-36
23
0
33
0
14
43
24
0
34
0
50
0
100
AcDbRotatedDimension
1001
ACAD
1000
DSTYLE
1002
{
1070
   371
1070
    13
1070
   372
1070
    13
1070
     3
1000

1070
   170
1070
     0
1070
   144
1040
1.0
1070
   277
1070
     2
1070
   284
1070
     8
1070
   278
1070
    46
1070
   146
1040
0.999966
1070
   345
1005
16
1070
   347
1005
16
1070
   346
1005
16
1070
   344
1005
107
1070
   343
1005
107
1070
   172
1070
     1
1070
    76
1070
     0
1070
    75
1070
     0
1070
   282
1070
     0
1070
   281
1070
     0
1070
    71
1070
     0
1070
    74
1070
     0
1070
   279
1070
     0
1070
   173
1070
     1
1070
   340
1005
101
1070
   271
1070
     1
1070
   272
1070
     2
1070
    77
1070
     1
1070
    73
1070
     1
1070
   171
1070
     3
1070
   274
1070
     4
1070
   177
1070
   150
1070
   176
1070
     9
1070
   178
1070
    43
1070
    78
1070
     8
1070
    48
1040
-0.1
1070
    41
1040
3.175
1070
   147
1040
1.75006
1070
    42
1040
1.5875
1070
    44
1040
3.175
1070
   140
1040
3.50012
1002
}
1001
ACAD_DSTYLE_DIM_LINETYPE
1070
   380
1005
16
1001
ACAD_DSTYLE_DIM_EXT1_LINETYPE
1070
   381
1005
16
1001
ACAD_DSTYLE_DIM_EXT2_LINETYPE
1070
   382
1005
16
0
ENDSEC
0
SECTION
2
OBJECTS
0
DICTIONARY
5
249
330
0
100
AcDbDictionary
280
0
281
1
3
ACAD_GROUP
350
24a
3
ACAD_MLINESTYLE
350
24b
0
DICTIONARY
5
24a
330
0
100
AcDbDictionary
280
0
281
1
0
DICTIONARY
5
24b
330
0
100
AcDbDictionary
280
0
281
1
3
Standard
350
18
0
MLINESTYLE
5
18
330
24b
100
AcDbMlineStyle
2
Standard
70
0
3

62
256
51
90
52
90
71
2
49
-0.5
62
256
6
ByLayer
49
0.5
62
256
6
ByLayer
0
RASTERVARIABLES
5
237
330

100
AcDbRasterVariables
90
0
70
1
71
1
72
1
0
ENDSEC
0
EOF
