0
SECTION
2
HEADER
9
$ACADVER
1
AC1015
9
$DWGCODEPAGE
3
ANSI_1252
9
$HANDSEED
5
25b
9
$ANGBASE
50
0
9
$ANGDIR
70
0
9
$ATTMODE
70
1
9
$AUNITS
70
0
9
$AUPREC
70
0
9
$CECOLOR
62
256
9
$CELTSCALE
40
1
9
$CELTYPE
6
ByLayer
9
$CELWEIGHT
370
18
9
$CLAYER
8
0
9
$CMLJUST
70
0
9
$CMLSCALE
40
1
9
$CMLSTYLE
2
Standard
9
$DIMSTYLE
2
Standard
9
$TEXTSIZE
40
0.2
9
$TEXTSTYLE
7
Standard
9
$LUNITS
70
2
9
$LUPREC
70
4
9
$EXTNAMES
290
1
9
$INSUNITS
70
4
9
$LTSCALE
40
1
9
$LWDISPLAY
290
1
9
$PDMODE
70
0
9
$PDSIZE
40
0
9
$PLINEGEN
70
0
0
ENDSEC
0
SECTION
2
CLASSES
0
CLASS
1
RASTERVARIABLES
2
AcDbRasterVariables
3
ISM
90
0
280
0
281
0
0
ENDSEC
0
SECTION
2
TABLES
0
TABLE
2
VPORT
5
251
100
AcDbSymbolTable
0
VPORT
5
1
100
AcDbSymbolTableRecord
100
AcDbViewportTableRecord
2
*Active
70
0
10
0
20
0
11
1
21
1
12
-1
22
1
13
0
23
0
14
0.5
24
0.5
15
10
25
10
16
0
26
0
36
1
17
0
27
0
37
0
0
ENDTAB
0
TABLE
2
LTYPE
5
252
100
AcDbSymbolTable
0
LTYPE
5
14
100
AcDbSymbolTableRecord
100
AcDbLinetypeTableRecord
70
0
2
ByBlock
3

72
65
73
0
40
0
0
LTYPE
5
15
100
AcDbSymbolTableRecord
100
AcDbLinetypeTableRecord
70
0
2
ByLayer
3

72
65
73
0
40
0
0
LTYPE
5
16
100
AcDbSymbolTableRecord
100
AcDbLinetypeTableRecord
70
0
2
Continuous
3
Solid line
72
65
73
0
40
0
0
LTYPE
5
6E
100
AcDbSymbolTableRecord
100
AcDbLinetypeTableRecord
70
0
2
CENTER
3
____ _ ____ _ ____ _ ____
72
65
73
4
40
47.5
49
22
74
0
49
-8.5
74
0
49
8.5
74
0
49
-8.5
74
0
0
LTYPE
5
6F
100
AcDbSymbolTableRecord
100
AcDbLinetypeTableRecord
70
0
2
DASHED
3
__ __ __ __ __ __ __ __ __
72
65
73
2
40
25.72
49
12.86
74
0
49
-12.86
74
0
0
ENDTAB
0
TABLE
2
LAYER
5
253
100
AcDbSymbolTable
0
LAYER
5
10
100
AcDbSymbolTableRecord
100
AcDbLayerTableRecord
2
0
70
0
62
7
6
Continuous
290
1
370
-3
390
0
0
LAYER
5
71
100
AcDbSymbolTableRecord
100
AcDbLayerTableRecord
2
80
70
0
62
-6
6
Continuous
290
1
370
-3
390
0
0
LAYER
5
73
100
AcDbSymbolTableRecord
100
AcDbLayerTableRecord
2
81
70
0
62
-3
6
Continuous
290
1
370
-3
390
0
0
LAYER
5
75
100
AcDbSymbolTableRecord
100
AcDbLayerTableRecord
2
1
70
0
62
4
6
Continuous
290
1
370
-3
390
0
0
LAYER
5
A7
100
AcDbSymbolTableRecord
100
AcDbLayerTableRecord
2
4
70
0
62
-2
6
CENTER
290
1
370
-3
390
0
0
LAYER
5
115
100
AcDbSymbolTableRecord
100
AcDbLayerTableRecord
2
Defpoints
70
0
62
7
6
Continuous
290
0
370
-3
390
0
0
LAYER
5
142
100
AcDbSymbolTableRecord
100
AcDbLayerTableRecord
2
2
70
0
62
7
6
Continuous
290
1
370
-3
390
0
0
LAYER
5
23d
100
AcDbSymbolTableRecord
100
AcDbLayerTableRecord
2
SK1
70
0
62
4
6
Continuous
290
1
370
-3
390
0
0
LAYER
5
23e
100
AcDbSymbolTableRecord
100
AcDbLayerTableRecord
2
SK4
70
0
62
2
6
CENTER
290
1
370
-3
390
0
0
LAYER
5
23f
100
AcDbSymbolTableRecord
100
AcDbLayerTableRecord
2
SK2
70
0
62
7
6
Continuous
290
1
370
-3
390
0
0
LAYER
5
240
100
AcDbSymbolTableRecord
100
AcDbLayerTableRecord
2
SK6
70
0
62
5
6
Continuous
290
1
370
-3
390
0
0
ENDTAB
0
TABLE
2
STYLE
5
254
100
AcDbSymbolTable
0
STYLE
5
11
100
AcDbSymbolTableRecord
100
AcDbTextStyleTableRecord
2
Standard
3
txt
70
0
71
0
40
0
41
1
42
0
50
0
0
STYLE
5
106
100
AcDbSymbolTableRecord
100
AcDbTextStyleTableRecord
2
iso_b_vert
3
simplex.shx
70
0
71
0
40
0
41
1
42
0
50
0
0
STYLE
5
107
100
AcDbSymbolTableRecord
100
AcDbTextStyleTableRecord
2
DWGDirectTextStyle
3
simplex
70
0
71
0
40
0
41
1
42
0
50
0
0
ENDTAB
0
TABLE
2
DIMSTYLE
5
255
100
AcDbSymbolTable
100
AcDbDimStyleTable
0
DIMSTYLE
105
27
100
AcDbSymbolTableRecord
100
AcDbDimStyleTableRecord
2
Standard
70
0
3
<>
41
0.18
42
0.0625
44
0.18
140
0.18
147
0.09
73
0
74
0
77
1
271
2
275
0
278
52
280
0
340
11
0
ENDTAB
0
TABLE
2
VIEW
5
256
100
AcDbSymbolTable
0
ENDTAB
0
TABLE
2
UCS
5
257
100
AcDbSymbolTable
0
ENDTAB
0
TABLE
2
APPID
5
258
100
AcDbSymbolTable
0
APPID
5
12
100
AcDbSymbolTableRecord
100
AcDbRegAppTableRecord
2
ACAD
70
0
0
APPID
5
10A
100
AcDbSymbolTableRecord
100
AcDbRegAppTableRecord
2
ACAD_DSTYLE_DIMBREAK
70
0
0
APPID
5
1FC
100
AcDbSymbolTableRecord
100
AcDbRegAppTableRecord
2
ACAD_DSTYLE_DIM_LINETYPE
70
0
0
APPID
5
1FD
100
AcDbSymbolTableRecord
100
AcDbRegAppTableRecord
2
ACAD_DSTYLE_DIM_EXT1_LINETYPE
70
0
0
APPID
5
1FE
100
AcDbSymbolTableRecord
100
AcDbRegAppTableRecord
2
ACAD_DSTYLE_DIM_EXT2_LINETYPE
70
0
0
APPID
5
239
100
AcDbSymbolTableRecord
100
AcDbRegAppTableRecord
2
ACAD_MLEADERVER
70
0
0
ENDTAB
0
TABLE
2
BLOCK_RECORD
5
259
100
AcDbSymbolTable
0
BLOCK_RECORD
5
1F
100
AcDbSymbolTableRecord
100
AcDbBlockTableRecord
2
*Model_Space
340
0
70
0
0
BLOCK_RECORD
5
1B
100
AcDbSymbolTableRecord
100
AcDbBlockTableRecord
2
*Paper_Space
340
0
70
0
0
BLOCK_RECORD
5
23
100
AcDbSymbolTableRecord
100
AcDbBlockTableRecord
2
*Paper_Space0
340
0
70
0
0
BLOCK_RECORD
5
10C
100
AcDbSymbolTableRecord
100
AcDbBlockTableRecord
2
_Closed
340
0
70
0
0
BLOCK_RECORD
5
116
100
AcDbSymbolTableRecord
100
AcDbBlockTableRecord
2
*D2
340
0
70
0
0
BLOCK_RECORD
5
122
100
AcDbSymbolTableRecord
100
AcDbBlockTableRecord
2
_U0
340
0
70
0
0
BLOCK_RECORD
5
134
100
AcDbSymbolTableRecord
100
AcDbBlockTableRecord
2
*D4
340
0
70
0
0
BLOCK_RECORD
5
143
100
AcDbSymbolTableRecord
100
AcDbBlockTableRecord
2
_U1
340
0
70
0
0
BLOCK_RECORD
5
153
100
AcDbSymbolTableRecord
100
AcDbBlockTableRecord
2
*D6
340
0
70
0
0
BLOCK_RECORD
5
161
100
AcDbSymbolTableRecord
100
AcDbBlockTableRecord
2
_U2
340
0
70
0
0
BLOCK_RECORD
5
171
100
AcDbSymbolTableRecord
100
AcDbBlockTableRecord
2
*D8
340
0
70
0
0
BLOCK_RECORD
5
17D
100
AcDbSymbolTableRecord
100
AcDbBlockTableRecord
2
_U3
340
0
70
0
0
BLOCK_RECORD
5
18D
100
AcDbSymbolTableRecord
100
AcDbBlockTableRecord
2
*D10
340
0
70
0
0
BLOCK_RECORD
5
199
100
AcDbSymbolTableRecord
100
AcDbBlockTableRecord
2
_U4
340
0
70
0
0
BLOCK_RECORD
5
1A9
100
AcDbSymbolTableRecord
100
AcDbBlockTableRecord
2
*D12
340
0
70
0
0
BLOCK_RECORD
5
1B5
100
AcDbSymbolTableRecord
100
AcDbBlockTableRecord
2
_U5
340
0
70
0
0
BLOCK_RECORD
5
1C5
100
AcDbSymbolTableRecord
100
AcDbBlockTableRecord
2
*D14
340
0
70
0
0
BLOCK_RECORD
5
1D1
100
AcDbSymbolTableRecord
100
AcDbBlockTableRecord
2
_U6
340
0
70
0
0
ENDTAB
0
ENDSEC
0
SECTION
2
BLOCKS
0
BLOCK
5
20
100
AcDbEntity
8
0
100
AcDbBlockBegin
2
*Model_Space
70
0
10
0
20
0
30
0
3
*Model_Space
0
ENDBLK
5
21
100
AcDbEntity
8
0
100
AcDbBlockEnd
0
BLOCK
5
1C
100
AcDbEntity
8
0
100
AcDbBlockBegin
2
*Paper_Space
70
0
10
0
20
0
30
0
3
*Paper_Space
0
ENDBLK
5
1D
100
AcDbEntity
8
0
100
AcDbBlockEnd
0
BLOCK
5
24
100
AcDbEntity
8
0
100
AcDbBlockBegin
2
*Paper_Space0
70
0
10
0
20
0
30
0
3
*Paper_Space0
0
ENDBLK
5
25
100
AcDbEntity
8
0
100
AcDbBlockEnd
0
BLOCK
5
10D
100
AcDbEntity
8
0
100
AcDbBlockBegin
2
_Closed
70
0
10
0
20
0
30
0
3
_Closed
0
LINE
5
10F
100
AcDbEntity
8
0
62
256
6
ByLayer
370
-2
48
1
60
0
100
AcDbLine
10
-1
20
0.166667
30
0
11
0
21
0
31
0
39
0
210
0
220
0
230
1
0
LINE
5
110
100
AcDbEntity
8
0
62
256
6
ByLayer
370
-2
48
1
60
0
100
AcDbLine
10
0
20
0
30
0
11
-1
21
-0.166667
31
0
39
0
210
0
220
0
230
1
0
LINE
5
111
100
AcDbEntity
8
0
62
256
6
ByLayer
370
-2
48
1
60
0
100
AcDbLine
10
-1
20
0.166667
30
0
11
-1
21
-0.166667
31
0
39
0
210
0
220
0
230
1
0
LINE
5
112
100
AcDbEntity
8
0
62
256
6
ByLayer
370
-2
48
1
60
0
100
AcDbLine
10
0
20
0
30
0
11
-1
21
0
31
0
39
0
210
0
220
0
230
1
0
ENDBLK
5
10E
100
AcDbEntity
8
0
100
AcDbBlockEnd
0
BLOCK
5
117
100
AcDbEntity
8
0
100
AcDbBlockBegin
2
*D2
70
1
10
0
20
0
30
0
3
*D2
0
LINE
5
119
100
AcDbEntity
8
0
62
256
6
ByLayer
370
-2
48
1
60
0
100
AcDbLine
10
0
20
-4.5875
30
0
11
0
21
-29.67512
31
0
39
0
210
0
220
0
230
1
0
LINE
5
11A
100
AcDbEntity
8
0
62
256
6
ByLayer
370
-2
48
1
60
0
100
AcDbLine
10
30
20
-1.5875
30
0
11
30
21
-29.67512
31
0
39
0
210
0
220
0
230
1
0
LINE
5
11B
100
AcDbEntity
8
0
62
256
6
ByLayer
370
-2
48
1
60
0
100
AcDbLine
10
3.175
20
-26.50012
30
0
11
26.825
21
-26.50012
31
0
39
0
210
0
220
0
230
1
0
SOLID
5
11C
100
AcDbEntity
8
0
62
256
6
ByLayer
370
-1
48
1
60
0
100
AcDbTrace
10
3.175
20
-25.970953
30
0
11
3.175
21
-27.029287
31
0
12
0
22
-26.50012
32
0
13
0
23
-26.50012
33
0
39
0
210
0
220
0
230
1
0
SOLID
5
11D
100
AcDbEntity
8
0
62
256
6
ByLayer
370
-1
48
1
60
0
100
AcDbTrace
10
26.825
20
-27.029287
30
0
11
26.825
21
-25.970953
31
0
12
30
22
-26.50012
32
0
13
30
23
-26.50012
33
0
39
0
210
0
220
0
230
1
0
MTEXT
5
11E
100
AcDbEntity
8
0
62
256
6
ByLayer
370
18
48
1
60
0
100
AcDbMText
10
15
20
-19.19362
30
0
210
0
220
0
230
1
1
\A1;30
40
3.50012
41
0
44
1
50
0
71
5
72
5
7
iso_b_vert
0
POINT
5
11F
100
AcDbEntity
8
Defpoints
62
0
6
ByLayer
370
-1
48
1
60
0
100
AcDbPoint
10
0
20
-3
30
0
39
0
210
0
220
0
230
1
50
360
0
POINT
5
120
100
AcDbEntity
8
Defpoints
62
0
6
ByLayer
370
-1
48
1
60
0
100
AcDbPoint
10
30
20
0
30
0
39
0
210
0
220
0
230
1
50
360
0
POINT
5
121
100
AcDbEntity
8
Defpoints
62
0
6
ByLayer
370
-1
48
1
60
0
100
AcDbPoint
10
30
20
-26.50012
30
0
39
0
210
0
220
0
230
1
50
360
0
ENDBLK
5
118
100
AcDbEntity
8
0
100
AcDbBlockEnd
0
BLOCK
5
12F
100
AcDbEntity
8
0
100
AcDbBlockBegin
2
_U0
70
0
10
0
20
0
30
0
3
_U0
0
MTEXT
5
123
100
AcDbEntity
8
SK2
62
256
6
ByLayer
370
18
48
1
60
0
100
AcDbMText
10
9.770389
20
-25.467451
30
0
210
0
220
0
230
1
1
\W0.7468;30.00
40
3.50012
41
0
44
1.084337
50
0
71
7
72
5
7
iso_b_vert
0
MTEXT
5
124
100
AcDbEntity
8
SK2
62
256
6
ByLayer
370
18
48
1
60
0
100
AcDbMText
10
6.244329
20
-25.400814
30
0
210
0
220
0
230
1
1
\W0.1790;(
40
3.175
41
0
44
1.084337
50
0
71
7
72
5
7
iso_b_vert
0
MTEXT
5
125
100
AcDbEntity
8
SK2
62
256
6
ByLayer
370
18
48
1
60
0
100
AcDbMText
10
23.758393
20
-25.400814
30
0
210
0
220
0
230
1
1
\W0.1969;)
40
3.175
41
0
44
1.084337
50
0
71
7
72
5
7
iso_b_vert
0
LINE
5
126
100
AcDbEntity
8
SK2
62
256
6
ByLayer
370
13
48
1
60
0
100
AcDbLine
10
0
20
-4.5875
30
0
11
0
21
-29.67512
31
0
39
0
210
0
220
0
230
1
0
LINE
5
127
100
AcDbEntity
8
SK2
62
256
6
ByLayer
370
13
48
1
60
0
100
AcDbLine
10
30
20
-1.5875
30
0
11
30
21
-29.67512
31
0
39
0
210
0
220
0
230
1
0
LINE
5
128
100
AcDbEntity
8
SK2
62
256
6
ByLayer
370
13
48
1
60
0
100
AcDbLine
10
0
20
-26.50012
30
0
11
30
21
-26.50012
31
0
39
0
210
0
220
0
230
1
0
LINE
5
129
100
AcDbEntity
8
SK2
62
256
6
ByLayer
370
13
48
1
60
0
100
AcDbLine
10
0
20
-26.50012
30
0
11
3.174998
21
-26.082123
31
0
39
0
210
0
220
0
230
1
0
LINE
5
12A
100
AcDbEntity
8
SK2
62
256
6
ByLayer
370
13
48
1
60
0
100
AcDbLine
10
0
20
-26.50012
30
0
11
3.175002
21
-26.918117
31
0
39
0
210
0
220
0
230
1
0
LINE
5
12B
100
AcDbEntity
8
SK2
62
256
6
ByLayer
370
13
48
1
60
0
100
AcDbLine
10
3.174998
20
-26.082123
30
0
11
3.175002
21
-26.918117
31
0
39
0
210
0
220
0
230
1
0
LINE
5
12C
100
AcDbEntity
8
SK2
62
256
6
ByLayer
370
13
48
1
60
0
100
AcDbLine
10
30
20
-26.50012
30
0
11
26.825002
21
-26.918117
31
0
39
0
210
0
220
0
230
1
0
LINE
5
12D
100
AcDbEntity
8
SK2
62
256
6
ByLayer
370
13
48
1
60
0
100
AcDbLine
10
30
20
-26.50012
30
0
11
26.824998
21
-26.082123
31
0
39
0
210
0
220
0
230
1
0
LINE
5
12E
100
AcDbEntity
8
SK2
62
256
6
ByLayer
370
13
48
1
60
0
100
AcDbLine
10
26.825002
20
-26.918117
30
0
11
26.824998
21
-26.082123
31
0
39
0
210
0
220
0
230
1
0
ENDBLK
5
130
100
AcDbEntity
8
0
100
AcDbBlockEnd
0
BLOCK
5
135
100
AcDbEntity
8
0
100
AcDbBlockBegin
2
*D4
70
1
10
0
20
0
30
0
3
*D4
0
LINE
5
137
100
AcDbEntity
8
0
62
256
6
ByLayer
370
-2
48
1
60
0
100
AcDbLine
10
30.5757
20
-2.78
30
0
11
39.92506
21
-2.78
31
0
39
0
210
0
220
0
230
1
0
LINE
5
138
100
AcDbEntity
8
0
62
256
6
ByLayer
370
-2
48
1
60
0
100
AcDbLine
10
30.5757
20
2.78
30
0
11
39.92506
21
2.78
31
0
39
0
210
0
220
0
230
1
0
LINE
5
139
100
AcDbEntity
8
0
62
256
6
ByLayer
370
-2
48
1
60
0
100
AcDbLine
10
36.75006
20
2.78
30
0
11
36.75006
21
27.576466
31
0
39
0
210
0
220
0
230
1
0
LINE
5
13A
100
AcDbEntity
8
0
62
256
6
ByLayer
370
-2
48
1
60
0
100
AcDbLine
10
36.75006
20
-5.955
30
0
11
36.75006
21
-9.13
31
0
39
0
210
0
220
0
230
1
0
LINE
5
13B
100
AcDbEntity
8
0
62
256
6
ByLayer
370
-2
48
1
60
0
100
AcDbLine
10
36.75006
20
5.955
30
0
11
36.75006
21
9.13
31
0
39
0
210
0
220
0
230
1
0
SOLID
5
13C
100
AcDbEntity
8
0
62
256
6
ByLayer
370
-1
48
1
60
0
100
AcDbTrace
10
37.279227
20
-5.955
30
0
11
36.220893
21
-5.955
31
0
12
36.75006
22
-2.78
32
0
13
36.75006
23
-2.78
33
0
39
0
210
0
220
0
230
1
0
SOLID
5
13D
100
AcDbEntity
8
0
62
256
6
ByLayer
370
-1
48
1
60
0
100
AcDbTrace
10
36.220893
20
5.955
30
0
11
37.279227
21
5.955
31
0
12
36.75006
22
2.78
32
0
13
36.75006
23
2.78
33
0
39
0
210
0
220
0
230
1
0
MTEXT
5
13E
100
AcDbEntity
8
0
62
256
6
ByLayer
370
18
48
1
60
0
100
AcDbMText
10
29.443559
20
18.353233
30
0
210
0
220
0
230
1
1
\A1;5.6
40
3.50012
41
0
44
1
50
90
71
5
72
5
7
iso_b_vert
0
POINT
5
13F
100
AcDbEntity
8
Defpoints
62
0
6
ByLayer
370
-1
48
1
60
0
100
AcDbPoint
10
28.9882
20
-2.78
30
0
39
0
210
0
220
0
230
1
50
360
0
POINT
5
140
100
AcDbEntity
8
Defpoints
62
0
6
ByLayer
370
-1
48
1
60
0
100
AcDbPoint
10
28.9882
20
2.78
30
0
39
0
210
0
220
0
230
1
50
360
0
POINT
5
141
100
AcDbEntity
8
Defpoints
62
0
6
ByLayer
370
-1
48
1
60
0
100
AcDbPoint
10
36.75006
20
2.78
30
0
39
0
210
0
220
0
230
1
50
360
0
ENDBLK
5
136
100
AcDbEntity
8
0
100
AcDbBlockEnd
0
BLOCK
5
14E
100
AcDbEntity
8
0
100
AcDbBlockBegin
2
_U1
70
0
10
0
20
0
30
0
3
_U1
0
MTEXT
5
144
100
AcDbEntity
8
2
62
256
6
ByLayer
370
18
48
1
60
0
100
AcDbMText
10
36.060403
20
6.937505
30
0
210
0
220
0
230
1
1
\W0.7346;5.56
40
3.50012
41
0
44
1.084337
50
90
71
7
72
5
7
iso_b_vert
0
LINE
5
145
100
AcDbEntity
8
2
62
256
6
ByLayer
370
13
48
1
60
0
100
AcDbLine
10
30.5757
20
-2.78
30
0
11
39.92506
21
-2.78
31
0
39
0
210
0
220
0
230
1
0
LINE
5
146
100
AcDbEntity
8
2
62
256
6
ByLayer
370
13
48
1
60
0
100
AcDbLine
10
30.5757
20
2.78
30
0
11
39.92506
21
2.78
31
0
39
0
210
0
220
0
230
1
0
LINE
5
147
100
AcDbEntity
8
2
62
256
6
ByLayer
370
13
48
1
60
0
100
AcDbLine
10
36.75006
20
14.99468
30
0
11
36.75006
21
-11.5303
31
0
39
0
210
0
220
0
230
1
0
LINE
5
148
100
AcDbEntity
8
2
62
256
6
ByLayer
370
13
48
1
60
0
100
AcDbLine
10
36.75006
20
-2.78
30
0
11
37.168057
21
-5.954998
31
0
39
0
210
0
220
0
230
1
0
LINE
5
149
100
AcDbEntity
8
2
62
256
6
ByLayer
370
13
48
1
60
0
100
AcDbLine
10
36.75006
20
-2.78
30
0
11
36.332063
21
-5.955002
31
0
39
0
210
0
220
0
230
1
0
LINE
5
14A
100
AcDbEntity
8
2
62
256
6
ByLayer
370
13
48
1
60
0
100
AcDbLine
10
37.168057
20
-5.954998
30
0
11
36.332063
21
-5.955002
31
0
39
0
210
0
220
0
230
1
0
LINE
5
14B
100
AcDbEntity
8
2
62
256
6
ByLayer
370
13
48
1
60
0
100
AcDbLine
10
36.75006
20
2.78
30
0
11
36.332063
21
5.954998
31
0
39
0
210
0
220
0
230
1
0
LINE
5
14C
100
AcDbEntity
8
2
62
256
6
ByLayer
370
13
48
1
60
0
100
AcDbLine
10
36.75006
20
2.78
30
0
11
37.168057
21
5.955002
31
0
39
0
210
0
220
0
230
1
0
LINE
5
14D
100
AcDbEntity
8
2
62
256
6
ByLayer
370
13
48
1
60
0
100
AcDbLine
10
36.332063
20
5.954998
30
0
11
37.168057
21
5.955002
31
0
39
0
210
0
220
0
230
1
0
ENDBLK
5
14F
100
AcDbEntity
8
0
100
AcDbBlockEnd
0
BLOCK
5
154
100
AcDbEntity
8
0
100
AcDbBlockBegin
2
*D6
70
1
10
0
20
0
30
0
3
*D6
0
LINE
5
156
100
AcDbEntity
8
0
62
256
6
ByLayer
370
-2
48
1
60
0
100
AcDbLine
10
-37.5875
20
3
30
0
11
-42.42494
21
3
31
0
39
0
210
0
220
0
230
1
0
LINE
5
157
100
AcDbEntity
8
0
62
256
6
ByLayer
370
-2
48
1
60
0
100
AcDbLine
10
-37.5875
20
-3
30
0
11
-42.42494
21
-3
31
0
39
0
210
0
220
0
230
1
0
LINE
5
158
100
AcDbEntity
8
0
62
256
6
ByLayer
370
-2
48
1
60
0
100
AcDbLine
10
-39.24994
20
3
30
0
11
-39.24994
21
23.747151
31
0
39
0
210
0
220
0
230
1
0
LINE
5
159
100
AcDbEntity
8
0
62
256
6
ByLayer
370
-2
48
1
60
0
100
AcDbLine
10
-39.24994
20
6.175
30
0
11
-39.24994
21
9.35
31
0
39
0
210
0
220
0
230
1
0
LINE
5
15A
100
AcDbEntity
8
0
62
256
6
ByLayer
370
-2
48
1
60
0
100
AcDbLine
10
-39.24994
20
-6.175
30
0
11
-39.24994
21
-9.35
31
0
39
0
210
0
220
0
230
1
0
SOLID
5
15B
100
AcDbEntity
8
0
62
256
6
ByLayer
370
-1
48
1
60
0
100
AcDbTrace
10
-39.779107
20
6.175
30
0
11
-38.720773
21
6.175
31
0
12
-39.24994
22
3
32
0
13
-39.24994
23
3
33
0
39
0
210
0
220
0
230
1
0
SOLID
5
15C
100
AcDbEntity
8
0
62
256
6
ByLayer
370
-1
48
1
60
0
100
AcDbTrace
10
-38.720773
20
-6.175
30
0
11
-39.779107
21
-6.175
31
0
12
-39.24994
22
-3
32
0
13
-39.24994
23
-3
33
0
39
0
210
0
220
0
230
1
0
MTEXT
5
15D
100
AcDbEntity
8
0
62
256
6
ByLayer
370
18
48
1
60
0
100
AcDbMText
10
-46.556441
20
17.10734
30
0
210
0
220
0
230
1
1
\A1;6
40
3.50012
41
0
44
1
50
90
71
5
72
5
7
iso_b_vert
0
POINT
5
15E
100
AcDbEntity
8
Defpoints
62
0
6
ByLayer
370
-1
48
1
60
0
100
AcDbPoint
10
-36
20
3
30
0
39
0
210
0
220
0
230
1
50
360
0
POINT
5
15F
100
AcDbEntity
8
Defpoints
62
0
6
ByLayer
370
-1
48
1
60
0
100
AcDbPoint
10
-36
20
-3
30
0
39
0
210
0
220
0
230
1
50
360
0
POINT
5
160
100
AcDbEntity
8
Defpoints
62
0
6
ByLayer
370
-1
48
1
60
0
100
AcDbPoint
10
-39.24994
20
-3
30
0
39
0
210
0
220
0
230
1
50
360
0
ENDBLK
5
155
100
AcDbEntity
8
0
100
AcDbBlockEnd
0
BLOCK
5
16C
100
AcDbEntity
8
0
100
AcDbBlockBegin
2
_U2
70
0
10
0
20
0
30
0
3
_U2
0
MTEXT
5
162
100
AcDbEntity
8
SK2
62
256
6
ByLayer
370
18
48
1
60
0
100
AcDbMText
10
-39.939597
20
13.157505
30
0
210
0
220
0
230
1
1
\W0.7346;6.00
40
3.50012
41
0
44
1.084337
50
90
71
7
72
5
7
iso_b_vert
0
LINE
5
163
100
AcDbEntity
8
SK2
62
256
6
ByLayer
370
13
48
1
60
0
100
AcDbLine
10
-37.5875
20
3
30
0
11
-42.42494
21
3
31
0
39
0
210
0
220
0
230
1
0
LINE
5
164
100
AcDbEntity
8
SK2
62
256
6
ByLayer
370
13
48
1
60
0
100
AcDbLine
10
-37.5875
20
-3
30
0
11
-42.42494
21
-3
31
0
39
0
210
0
220
0
230
1
0
LINE
5
165
100
AcDbEntity
8
SK2
62
256
6
ByLayer
370
13
48
1
60
0
100
AcDbLine
10
-39.24994
20
-11.7503
30
0
11
-39.24994
21
21.21468
31
0
39
0
210
0
220
0
230
1
0
LINE
5
166
100
AcDbEntity
8
SK2
62
256
6
ByLayer
370
13
48
1
60
0
100
AcDbLine
10
-39.24994
20
3
30
0
11
-39.667937
21
6.174998
31
0
39
0
210
0
220
0
230
1
0
LINE
5
167
100
AcDbEntity
8
SK2
62
256
6
ByLayer
370
13
48
1
60
0
100
AcDbLine
10
-39.24994
20
3
30
0
11
-38.831943
21
6.175002
31
0
39
0
210
0
220
0
230
1
0
LINE
5
168
100
AcDbEntity
8
SK2
62
256
6
ByLayer
370
13
48
1
60
0
100
AcDbLine
10
-39.667937
20
6.174998
30
0
11
-38.831943
21
6.175002
31
0
39
0
210
0
220
0
230
1
0
LINE
5
169
100
AcDbEntity
8
SK2
62
256
6
ByLayer
370
13
48
1
60
0
100
AcDbLine
10
-39.24994
20
-3
30
0
11
-38.831943
21
-6.174998
31
0
39
0
210
0
220
0
230
1
0
LINE
5
16A
100
AcDbEntity
8
SK2
62
256
6
ByLayer
370
13
48
1
60
0
100
AcDbLine
10
-39.24994
20
-3
30
0
11
-39.667937
21
-6.175002
31
0
39
0
210
0
220
0
230
1
0
LINE
5
16B
100
AcDbEntity
8
SK2
62
256
6
ByLayer
370
13
48
1
60
0
100
AcDbLine
10
-38.831943
20
-6.174998
30
0
11
-39.667937
21
-6.175002
31
0
39
0
210
0
220
0
230
1
0
ENDBLK
5
16D
100
AcDbEntity
8
0
100
AcDbBlockEnd
0
BLOCK
5
172
100
AcDbEntity
8
0
100
AcDbBlockBegin
2
*D8
70
1
10
0
20
0
30
0
3
*D8
0
LINE
5
174
100
AcDbEntity
8
0
62
256
6
ByLayer
370
-2
48
1
60
0
100
AcDbLine
10
-36
20
-4.5875
30
0
11
-36
21
-29.67512
31
0
39
0
210
0
220
0
230
1
0
LINE
5
175
100
AcDbEntity
8
0
62
256
6
ByLayer
370
-2
48
1
60
0
100
AcDbLine
10
0
20
-4.5875
30
0
11
0
21
-29.67512
31
0
39
0
210
0
220
0
230
1
0
LINE
5
176
100
AcDbEntity
8
0
62
256
6
ByLayer
370
-2
48
1
60
0
100
AcDbLine
10
-32.825
20
-26.50012
30
0
11
-3.175
21
-26.50012
31
0
39
0
210
0
220
0
230
1
0
SOLID
5
177
100
AcDbEntity
8
0
62
256
6
ByLayer
370
-1
48
1
60
0
100
AcDbTrace
10
-32.825
20
-25.970953
30
0
11
-32.825
21
-27.029287
31
0
12
-36
22
-26.50012
32
0
13
-36
23
-26.50012
33
0
39
0
210
0
220
0
230
1
0
SOLID
5
178
100
AcDbEntity
8
0
62
256
6
ByLayer
370
-1
48
1
60
0
100
AcDbTrace
10
-3.175
20
-27.029287
30
0
11
-3.175
21
-25.970953
31
0
12
0
22
-26.50012
32
0
13
0
23
-26.50012
33
0
39
0
210
0
220
0
230
1
0
MTEXT
5
179
100
AcDbEntity
8
0
62
256
6
ByLayer
370
18
48
1
60
0
100
AcDbMText
10
-18
20
-19.193619
30
0
210
0
220
0
230
1
1
\A1;36
40
3.50012
41
0
44
1
50
0
71
5
72
5
7
iso_b_vert
0
POINT
5
17A
100
AcDbEntity
8
Defpoints
62
0
6
ByLayer
370
-1
48
1
60
0
100
AcDbPoint
10
-36
20
-3
30
0
39
0
210
0
220
0
230
1
50
360
0
POINT
5
17B
100
AcDbEntity
8
Defpoints
62
0
6
ByLayer
370
-1
48
1
60
0
100
AcDbPoint
10
0
20
-3
30
0
39
0
210
0
220
0
230
1
50
360
0
POINT
5
17C
100
AcDbEntity
8
Defpoints
62
0
6
ByLayer
370
-1
48
1
60
0
100
AcDbPoint
10
0
20
-26.50012
30
0
39
0
210
0
220
0
230
1
50
360
0
ENDBLK
5
173
100
AcDbEntity
8
0
100
AcDbBlockEnd
0
BLOCK
5
188
100
AcDbEntity
8
0
100
AcDbBlockBegin
2
_U3
70
0
10
0
20
0
30
0
3
_U3
0
MTEXT
5
17E
100
AcDbEntity
8
SK2
62
256
6
ByLayer
370
18
48
1
60
0
100
AcDbMText
10
-23.229611
20
-25.467451
30
0
210
0
220
0
230
1
1
\W0.7468;36.00
40
3.50012
41
0
44
1.084337
50
0
71
7
72
5
7
iso_b_vert
0
LINE
5
17F
100
AcDbEntity
8
SK2
62
256
6
ByLayer
370
13
48
1
60
0
100
AcDbLine
10
-36
20
-4.5875
30
0
11
-36
21
-29.67512
31
0
39
0
210
0
220
0
230
1
0
LINE
5
180
100
AcDbEntity
8
SK2
62
256
6
ByLayer
370
13
48
1
60
0
100
AcDbLine
10
0
20
-4.5875
30
0
11
0
21
-29.67512
31
0
39
0
210
0
220
0
230
1
0
LINE
5
181
100
AcDbEntity
8
SK2
62
256
6
ByLayer
370
13
48
1
60
0
100
AcDbLine
10
-36
20
-26.50012
30
0
11
0
21
-26.50012
31
0
39
0
210
0
220
0
230
1
0
LINE
5
182
100
AcDbEntity
8
SK2
62
256
6
ByLayer
370
13
48
1
60
0
100
AcDbLine
10
-36
20
-26.50012
30
0
11
-32.825002
21
-26.082123
31
0
39
0
210
0
220
0
230
1
0
LINE
5
183
100
AcDbEntity
8
SK2
62
256
6
ByLayer
370
13
48
1
60
0
100
AcDbLine
10
-36
20
-26.50012
30
0
11
-32.824998
21
-26.918117
31
0
39
0
210
0
220
0
230
1
0
LINE
5
184
100
AcDbEntity
8
SK2
62
256
6
ByLayer
370
13
48
1
60
0
100
AcDbLine
10
-32.825002
20
-26.082123
30
0
11
-32.824998
21
-26.918117
31
0
39
0
210
0
220
0
230
1
0
LINE
5
185
100
AcDbEntity
8
SK2
62
256
6
ByLayer
370
13
48
1
60
0
100
AcDbLine
10
0
20
-26.50012
30
0
11
-3.174998
21
-26.918117
31
0
39
0
210
0
220
0
230
1
0
LINE
5
186
100
AcDbEntity
8
SK2
62
256
6
ByLayer
370
13
48
1
60
0
100
AcDbLine
10
0
20
-26.50012
30
0
11
-3.175002
21
-26.082123
31
0
39
0
210
0
220
0
230
1
0
LINE
5
187
100
AcDbEntity
8
SK2
62
256
6
ByLayer
370
13
48
1
60
0
100
AcDbLine
10
-3.174998
20
-26.918117
30
0
11
-3.175002
21
-26.082123
31
0
39
0
210
0
220
0
230
1
0
ENDBLK
5
189
100
AcDbEntity
8
0
100
AcDbBlockEnd
0
BLOCK
5
18E
100
AcDbEntity
8
0
100
AcDbBlockBegin
2
*D10
70
1
10
0
20
0
30
0
3
*D10
0
LINE
5
190
100
AcDbEntity
8
0
62
256
6
ByLayer
370
-2
48
1
60
0
100
AcDbLine
10
2
20
1.6925
30
0
11
2
21
-20.92482
31
0
39
0
210
0
220
0
230
1
0
LINE
5
191
100
AcDbEntity
8
0
62
256
6
ByLayer
370
-2
48
1
60
0
100
AcDbLine
10
30
20
-1.5875
30
0
11
30
21
-20.92482
31
0
39
0
210
0
220
0
230
1
0
LINE
5
192
100
AcDbEntity
8
0
62
256
6
ByLayer
370
-2
48
1
60
0
100
AcDbLine
10
5.175
20
-17.74982
30
0
11
26.825
21
-17.74982
31
0
39
0
210
0
220
0
230
1
0
SOLID
5
193
100
AcDbEntity
8
0
62
256
6
ByLayer
370
-1
48
1
60
0
100
AcDbTrace
10
5.175
20
-17.220653
30
0
11
5.175
21
-18.278987
31
0
12
2
22
-17.74982
32
0
13
2
23
-17.74982
33
0
39
0
210
0
220
0
230
1
0
SOLID
5
194
100
AcDbEntity
8
0
62
256
6
ByLayer
370
-1
48
1
60
0
100
AcDbTrace
10
26.825
20
-18.278987
30
0
11
26.825
21
-17.220653
31
0
12
30
22
-17.74982
32
0
13
30
23
-17.74982
33
0
39
0
210
0
220
0
230
1
0
MTEXT
5
195
100
AcDbEntity
8
0
62
256
6
ByLayer
370
18
48
1
60
0
100
AcDbMText
10
16
20
-10.44332
30
0
210
0
220
0
230
1
1
\A1;28
40
3.50012
41
0
44
1
50
0
71
5
72
5
7
iso_b_vert
0
POINT
5
196
100
AcDbEntity
8
Defpoints
62
0
6
ByLayer
370
-1
48
1
60
0
100
AcDbPoint
10
2
20
3.28
30
0
39
0
210
0
220
0
230
1
50
360
0
POINT
5
197
100
AcDbEntity
8
Defpoints
62
0
6
ByLayer
370
-1
48
1
60
0
100
AcDbPoint
10
30
20
0
30
0
39
0
210
0
220
0
230
1
50
360
0
POINT
5
198
100
AcDbEntity
8
Defpoints
62
0
6
ByLayer
370
-1
48
1
60
0
100
AcDbPoint
10
30
20
-17.74982
30
0
39
0
210
0
220
0
230
1
50
360
0
ENDBLK
5
18F
100
AcDbEntity
8
0
100
AcDbBlockEnd
0
BLOCK
5
1A4
100
AcDbEntity
8
0
100
AcDbBlockBegin
2
_U4
70
0
10
0
20
0
30
0
3
_U4
0
MTEXT
5
19A
100
AcDbEntity
8
SK2
62
256
6
ByLayer
370
18
48
1
60
0
100
AcDbMText
10
10.770389
20
-16.717151
30
0
210
0
220
0
230
1
1
\W0.7468;28.00
40
3.50012
41
0
44
1.084337
50
0
71
7
72
5
7
iso_b_vert
0
LINE
5
19B
100
AcDbEntity
8
SK2
62
256
6
ByLayer
370
13
48
1
60
0
100
AcDbLine
10
2
20
1.6925
30
0
11
2
21
-20.92482
31
0
39
0
210
0
220
0
230
1
0
LINE
5
19C
100
AcDbEntity
8
SK2
62
256
6
ByLayer
370
13
48
1
60
0
100
AcDbLine
10
30
20
-1.5875
30
0
11
30
21
-20.92482
31
0
39
0
210
0
220
0
230
1
0
LINE
5
19D
100
AcDbEntity
8
SK2
62
256
6
ByLayer
370
13
48
1
60
0
100
AcDbLine
10
2
20
-17.74982
30
0
11
30
21
-17.74982
31
0
39
0
210
0
220
0
230
1
0
LINE
5
19E
100
AcDbEntity
8
SK2
62
256
6
ByLayer
370
13
48
1
60
0
100
AcDbLine
10
2
20
-17.74982
30
0
11
5.174998
21
-17.331823
31
0
39
0
210
0
220
0
230
1
0
LINE
5
19F
100
AcDbEntity
8
SK2
62
256
6
ByLayer
370
13
48
1
60
0
100
AcDbLine
10
2
20
-17.74982
30
0
11
5.175002
21
-18.167817
31
0
39
0
210
0
220
0
230
1
0
LINE
5
1A0
100
AcDbEntity
8
SK2
62
256
6
ByLayer
370
13
48
1
60
0
100
AcDbLine
10
5.174998
20
-17.331823
30
0
11
5.175002
21
-18.167817
31
0
39
0
210
0
220
0
230
1
0
LINE
5
1A1
100
AcDbEntity
8
SK2
62
256
6
ByLayer
370
13
48
1
60
0
100
AcDbLine
10
30
20
-17.74982
30
0
11
26.825002
21
-18.167817
31
0
39
0
210
0
220
0
230
1
0
LINE
5
1A2
100
AcDbEntity
8
SK2
62
256
6
ByLayer
370
13
48
1
60
0
100
AcDbLine
10
30
20
-17.74982
30
0
11
26.824998
21
-17.331823
31
0
39
0
210
0
220
0
230
1
0
LINE
5
1A3
100
AcDbEntity
8
SK2
62
256
6
ByLayer
370
13
48
1
60
0
100
AcDbLine
10
26.825002
20
-18.167817
30
0
11
26.824998
21
-17.331823
31
0
39
0
210
0
220
0
230
1
0
ENDBLK
5
1A5
100
AcDbEntity
8
0
100
AcDbBlockEnd
0
BLOCK
5
1AA
100
AcDbEntity
8
0
100
AcDbBlockBegin
2
*D12
70
1
10
0
20
0
30
0
3
*D12
0
LINE
5
1AC
100
AcDbEntity
8
0
62
256
6
ByLayer
370
-2
48
1
60
0
100
AcDbLine
10
12.4
20
-4.3675
30
0
11
12.4
21
-10.32
31
0
39
0
210
0
220
0
230
1
0
LINE
5
1AD
100
AcDbEntity
8
0
62
256
6
ByLayer
370
-2
48
1
60
0
100
AcDbLine
10
30
20
-1.5875
30
0
11
30
21
-10.32
31
0
39
0
210
0
220
0
230
1
0
LINE
5
1AE
100
AcDbEntity
8
0
62
256
6
ByLayer
370
-2
48
1
60
0
100
AcDbLine
10
15.575
20
-9.82
30
0
11
26.825
21
-9.82
31
0
39
0
210
0
220
0
230
1
0
SOLID
5
1AF
100
AcDbEntity
8
0
62
256
6
ByLayer
370
-1
48
1
60
0
100
AcDbTrace
10
15.575
20
-9.290833
30
0
11
15.575
21
-10.349167
31
0
12
12.4
22
-9.82
32
0
13
12.4
23
-9.82
33
0
39
0
210
0
220
0
230
1
0
SOLID
5
1B0
100
AcDbEntity
8
0
62
256
6
ByLayer
370
-1
48
1
60
0
100
AcDbTrace
10
26.825
20
-10.349167
30
0
11
26.825
21
-9.290833
31
0
12
30
22
-9.82
32
0
13
30
23
-9.82
33
0
39
0
210
0
220
0
230
1
0
MTEXT
5
1B1
100
AcDbEntity
8
0
62
256
6
ByLayer
370
18
48
1
60
0
100
AcDbMText
10
21.2
20
-3.975
30
0
210
0
220
0
230
1
1
\A1;17.6
40
2.8
41
0
44
1
50
0
71
5
72
5
7
iso_b_vert
0
POINT
5
1B2
100
AcDbEntity
8
Defpoints
62
0
6
ByLayer
370
-1
48
1
60
0
100
AcDbPoint
10
12.4
20
-2.78
30
0
39
0
210
0
220
0
230
1
50
360
0
POINT
5
1B3
100
AcDbEntity
8
Defpoints
62
0
6
ByLayer
370
-1
48
1
60
0
100
AcDbPoint
10
30
20
0
30
0
39
0
210
0
220
0
230
1
50
360
0
POINT
5
1B4
100
AcDbEntity
8
Defpoints
62
0
6
ByLayer
370
-1
48
1
60
0
100
AcDbPoint
10
30
20
-9.82
30
0
39
0
210
0
220
0
230
1
50
360
0
ENDBLK
5
1AB
100
AcDbEntity
8
0
100
AcDbBlockEnd
0
BLOCK
5
1C0
100
AcDbEntity
8
0
100
AcDbBlockBegin
2
_U5
70
0
10
0
20
0
30
0
3
_U5
0
MTEXT
5
1B6
100
AcDbEntity
8
SK2
62
256
6
ByLayer
370
18
48
1
60
0
100
AcDbMText
10
17.366401
20
-9.973893
30
0
210
0
220
0
230
1
1
\W0.6864;17.60
40
2.8
41
0
44
1.084337
50
0
71
7
72
5
7
iso_b_vert
0
LINE
5
1B7
100
AcDbEntity
8
SK2
62
256
6
ByLayer
370
13
48
1
60
0
100
AcDbLine
10
12.4
20
-4.3675
30
0
11
12.4
21
-10.32
31
0
39
0
210
0
220
0
230
1
0
LINE
5
1B8
100
AcDbEntity
8
SK2
62
256
6
ByLayer
370
13
48
1
60
0
100
AcDbLine
10
30
20
-1.5875
30
0
11
30
21
-10.32
31
0
39
0
210
0
220
0
230
1
0
LINE
5
1B9
100
AcDbEntity
8
SK2
62
256
6
ByLayer
370
13
48
1
60
0
100
AcDbLine
10
12.4
20
-9.82
30
0
11
30
21
-9.82
31
0
39
0
210
0
220
0
230
1
0
LINE
5
1BA
100
AcDbEntity
8
SK2
62
256
6
ByLayer
370
13
48
1
60
0
100
AcDbLine
10
12.4
20
-9.82
30
0
11
15.574998
21
-9.402003
31
0
39
0
210
0
220
0
230
1
0
LINE
5
1BB
100
AcDbEntity
8
SK2
62
256
6
ByLayer
370
13
48
1
60
0
100
AcDbLine
10
12.4
20
-9.82
30
0
11
15.575002
21
-10.237997
31
0
39
0
210
0
220
0
230
1
0
LINE
5
1BC
100
AcDbEntity
8
SK2
62
256
6
ByLayer
370
13
48
1
60
0
100
AcDbLine
10
15.574998
20
-9.402003
30
0
11
15.575002
21
-10.237997
31
0
39
0
210
0
220
0
230
1
0
LINE
5
1BD
100
AcDbEntity
8
SK2
62
256
6
ByLayer
370
13
48
1
60
0
100
AcDbLine
10
30
20
-9.82
30
0
11
26.825002
21
-10.237997
31
0
39
0
210
0
220
0
230
1
0
LINE
5
1BE
100
AcDbEntity
8
SK2
62
256
6
ByLayer
370
13
48
1
60
0
100
AcDbLine
10
30
20
-9.82
30
0
11
26.824998
21
-9.402003
31
0
39
0
210
0
220
0
230
1
0
LINE
5
1BF
100
AcDbEntity
8
SK2
62
256
6
ByLayer
370
13
48
1
60
0
100
AcDbLine
10
26.825002
20
-10.237997
30
0
11
26.824998
21
-9.402003
31
0
39
0
210
0
220
0
230
1
0
ENDBLK
5
1C1
100
AcDbEntity
8
0
100
AcDbBlockEnd
0
BLOCK
5
1C6
100
AcDbEntity
8
0
100
AcDbBlockBegin
2
*D14
70
1
10
0
20
0
30
0
3
*D14
0
LINE
5
1C8
100
AcDbEntity
8
0
62
256
6
ByLayer
370
-2
48
1
60
0
100
AcDbLine
10
-36
20
-1.5875
30
0
11
-36
21
-39.67512
31
0
39
0
210
0
220
0
230
1
0
LINE
5
1C9
100
AcDbEntity
8
0
62
256
6
ByLayer
370
-2
48
1
60
0
100
AcDbLine
10
30
20
-1.5875
30
0
11
30
21
-39.67512
31
0
39
0
210
0
220
0
230
1
0
LINE
5
1CA
100
AcDbEntity
8
0
62
256
6
ByLayer
370
-2
48
1
60
0
100
AcDbLine
10
-32.825
20
-36.50012
30
0
11
26.825
21
-36.50012
31
0
39
0
210
0
220
0
230
1
0
SOLID
5
1CB
100
AcDbEntity
8
0
62
256
6
ByLayer
370
-1
48
1
60
0
100
AcDbTrace
10
-32.825
20
-35.970953
30
0
11
-32.825
21
-37.029287
31
0
12
-36
22
-36.50012
32
0
13
-36
23
-36.50012
33
0
39
0
210
0
220
0
230
1
0
SOLID
5
1CC
100
AcDbEntity
8
0
62
256
6
ByLayer
370
-1
48
1
60
0
100
AcDbTrace
10
26.825
20
-37.029287
30
0
11
26.825
21
-35.970953
31
0
12
30
22
-36.50012
32
0
13
30
23
-36.50012
33
0
39
0
210
0
220
0
230
1
0
MTEXT
5
1CD
100
AcDbEntity
8
0
62
256
6
ByLayer
370
18
48
1
60
0
100
AcDbMText
10
-3
20
-29.19362
30
0
210
0
220
0
230
1
1
\A1;66
40
3.50012
41
0
44
1
50
0
71
5
72
5
7
iso_b_vert
0
POINT
5
1CE
100
AcDbEntity
8
Defpoints
62
0
6
ByLayer
370
-1
48
1
60
0
100
AcDbPoint
10
-36
20
0
30
0
39
0
210
0
220
0
230
1
50
360
0
POINT
5
1CF
100
AcDbEntity
8
Defpoints
62
0
6
ByLayer
370
-1
48
1
60
0
100
AcDbPoint
10
30
20
0
30
0
39
0
210
0
220
0
230
1
50
360
0
POINT
5
1D0
100
AcDbEntity
8
Defpoints
62
0
6
ByLayer
370
-1
48
1
60
0
100
AcDbPoint
10
30
20
-36.50012
30
0
39
0
210
0
220
0
230
1
50
360
0
ENDBLK
5
1C7
100
AcDbEntity
8
0
100
AcDbBlockEnd
0
BLOCK
5
1DC
100
AcDbEntity
8
0
100
AcDbBlockBegin
2
_U6
70
0
10
0
20
0
30
0
3
_U6
0
MTEXT
5
1D2
100
AcDbEntity
8
SK2
62
256
6
ByLayer
370
18
48
1
60
0
100
AcDbMText
10
-8.229611
20
-35.467451
30
0
210
0
220
0
230
1
1
\W0.7468;66.00
40
3.50012
41
0
44
1.084337
50
0
71
7
72
5
7
iso_b_vert
0
LINE
5
1D3
100
AcDbEntity
8
SK2
62
256
6
ByLayer
370
13
48
1
60
0
100
AcDbLine
10
-36
20
-1.5875
30
0
11
-36
21
-39.67512
31
0
39
0
210
0
220
0
230
1
0
LINE
5
1D4
100
AcDbEntity
8
SK2
62
256
6
ByLayer
370
13
48
1
60
0
100
AcDbLine
10
30
20
-1.5875
30
0
11
30
21
-39.67512
31
0
39
0
210
0
220
0
230
1
0
LINE
5
1D5
100
AcDbEntity
8
SK2
62
256
6
ByLayer
370
13
48
1
60
0
100
AcDbLine
10
-36
20
-36.50012
30
0
11
30
21
-36.50012
31
0
39
0
210
0
220
0
230
1
0
LINE
5
1D6
100
AcDbEntity
8
SK2
62
256
6
ByLayer
370
13
48
1
60
0
100
AcDbLine
10
-36
20
-36.50012
30
0
11
-32.825002
21
-36.082123
31
0
39
0
210
0
220
0
230
1
0
LINE
5
1D7
100
AcDbEntity
8
SK2
62
256
6
ByLayer
370
13
48
1
60
0
100
AcDbLine
10
-36
20
-36.50012
30
0
11
-32.824998
21
-36.918117
31
0
39
0
210
0
220
0
230
1
0
LINE
5
1D8
100
AcDbEntity
8
SK2
62
256
6
ByLayer
370
13
48
1
60
0
100
AcDbLine
10
-32.825002
20
-36.082123
30
0
11
-32.824998
21
-36.918117
31
0
39
0
210
0
220
0
230
1
0
LINE
5
1D9
100
AcDbEntity
8
SK2
62
256
6
ByLayer
370
13
48
1
60
0
100
AcDbLine
10
30
20
-36.50012
30
0
11
26.825002
21
-36.918117
31
0
39
0
210
0
220
0
230
1
0
LINE
5
1DA
100
AcDbEntity
8
SK2
62
256
6
ByLayer
370
13
48
1
60
0
100
AcDbLine
10
30
20
-36.50012
30
0
11
26.824998
21
-36.082123
31
0
39
0
210
0
220
0
230
1
0
LINE
5
1DB
100
AcDbEntity
8
SK2
62
256
6
ByLayer
370
13
48
1
60
0
100
AcDbLine
10
26.825002
20
-36.918117
30
0
11
26.824998
21
-36.082123
31
0
39
0
210
0
220
0
230
1
0
ENDBLK
5
1DD
100
AcDbEntity
8
0
100
AcDbBlockEnd
0
ENDSEC
0
SECTION
2
ENTITIES
0
ARC
5
B3
100
AcDbEntity
8
1
62
256
6
ByLayer
370
18
48
1
60
0
100
AcDbCircle
39
0
10
0.838958
20
3.562406
30
0
40
0.800000000000002
210
0
220
0
230
1
100
AcDbArc
50
238.375577
51
270.03581
0
ARC
5
B4
100
AcDbEntity
8
1
62
256
6
ByLayer
370
18
48
1
60
0
100
AcDbCircle
39
0
10
0.838958
20
-3.562406
30
0
40
0.800000000000002
210
0
220
0
230
1
100
AcDbArc
50
89.96419
51
121.624423
0
ARC
5
B5
100
AcDbEntity
8
1
62
256
6
ByLayer
370
18
48
1
60
0
100
AcDbCircle
39
0
10
0
20
2.2
30
0
40
0.800000000000002
210
0
220
0
230
1
100
AcDbArc
50
58.375577
51
90
0
ARC
5
B6
100
AcDbEntity
8
1
62
256
6
ByLayer
370
18
48
1
60
0
100
AcDbCircle
39
0
10
0
20
-2.2
30
0
40
0.800000000000002
210
0
220
0
230
1
100
AcDbArc
50
270
51
301.624423
0
ARC
5
B7
100
AcDbEntity
8
SK2
62
256
6
ByLayer
370
13
48
1
60
0
100
AcDbCircle
39
0
10
30
20
0
30
0
40
20
210
0
220
0
230
1
100
AcDbArc
50
9.606349
51
70.000678
0
ARC
5
B8
100
AcDbEntity
8
SK2
62
256
6
ByLayer
370
13
48
1
60
0
100
AcDbCircle
39
0
10
30
20
0
30
0
40
20
210
0
220
0
230
1
100
AcDbArc
50
289.999322
51
350.393651
0
ELLIPSE
5
B9
100
AcDbEntity
8
1
62
256
6
ByLayer
370
18
48
1
60
0
100
AcDbEllipse
10
3.643113
20
2.631593
30
0
11
0.000365507075841044
21
-0.00999331799641691
31
0
210
0
220
0
230
1
40
0.455195
41
-0.0655848033352894
42
1.49914576629532
0
ELLIPSE
5
BA
100
AcDbEntity
8
1
62
256
6
ByLayer
370
18
48
1
60
0
100
AcDbEllipse
10
3.602043
20
2.725429
30
0
11
-0.1
21
1.22460635382238E-17
31
0
210
0
220
0
230
1
40
0.99986
41
0.00761332895854446
42
1.58239192369337
0
POINT
5
70
100
AcDbEntity
8
80
62
256
6
ByLayer
370
18
48
1
60
0
100
AcDbPoint
10
0
20
0
30
0
39
0
210
0
220
0
230
1
50
360
0
POINT
5
72
100
AcDbEntity
8
81
62
256
6
ByLayer
370
18
48
1
60
0
100
AcDbPoint
10
30
20
0
30
0
39
0
210
0
220
0
230
1
50
360
0
POINT
5
74
100
AcDbEntity
8
1
62
256
6
ByLayer
370
18
48
1
60
0
100
AcDbPoint
10
-36
20
0
30
0
39
0
210
0
220
0
230
1
50
360
0
POINT
5
76
100
AcDbEntity
8
1
62
256
6
ByLayer
370
18
48
1
60
1
100
AcDbPoint
10
0
20
-3
30
0
39
0
210
0
220
0
230
1
50
360
0
POINT
5
77
100
AcDbEntity
8
1
62
256
6
ByLayer
370
18
48
1
60
1
100
AcDbPoint
10
30
20
0
30
0
39
0
210
0
220
0
230
1
50
360
0
POINT
5
78
100
AcDbEntity
8
1
62
256
6
ByLayer
370
18
48
1
60
1
100
AcDbPoint
10
28.9882
20
-2.78
30
0
39
0
210
0
220
0
230
1
50
360
0
POINT
5
79
100
AcDbEntity
8
1
62
256
6
ByLayer
370
18
48
1
60
1
100
AcDbPoint
10
28.9882
20
2.78
30
0
39
0
210
0
220
0
230
1
50
360
0
POINT
5
7A
100
AcDbEntity
8
1
62
256
6
ByLayer
370
18
48
1
60
1
100
AcDbPoint
10
-36
20
3
30
0
39
0
210
0
220
0
230
1
50
360
0
POINT
5
7B
100
AcDbEntity
8
1
62
256
6
ByLayer
370
18
48
1
60
1
100
AcDbPoint
10
-36
20
-3
30
0
39
0
210
0
220
0
230
1
50
360
0
POINT
5
7C
100
AcDbEntity
8
1
62
256
6
ByLayer
370
18
48
1
60
1
100
AcDbPoint
10
-36
20
-3
30
0
39
0
210
0
220
0
230
1
50
360
0
POINT
5
7D
100
AcDbEntity
8
1
62
256
6
ByLayer
370
18
48
1
60
1
100
AcDbPoint
10
0
20
-3
30
0
39
0
210
0
220
0
230
1
50
360
0
POINT
5
7E
100
AcDbEntity
8
1
62
256
6
ByLayer
370
18
48
1
60
1
100
AcDbPoint
10
2
20
3.28
30
0
39
0
210
0
220
0
230
1
50
360
0
POINT
5
7F
100
AcDbEntity
8
1
62
256
6
ByLayer
370
18
48
1
60
1
100
AcDbPoint
10
30
20
0
30
0
39
0
210
0
220
0
230
1
50
360
0
POINT
5
80
100
AcDbEntity
8
1
62
256
6
ByLayer
370
18
48
1
60
1
100
AcDbPoint
10
12.4
20
-2.78
30
0
39
0
210
0
220
0
230
1
50
360
0
POINT
5
81
100
AcDbEntity
8
1
62
256
6
ByLayer
370
18
48
1
60
1
100
AcDbPoint
10
30
20
0
30
0
39
0
210
0
220
0
230
1
50
360
0
POINT
5
82
100
AcDbEntity
8
1
62
256
6
ByLayer
370
18
48
1
60
1
100
AcDbPoint
10
-36
20
0
30
0
39
0
210
0
220
0
230
1
50
360
0
POINT
5
83
100
AcDbEntity
8
1
62
256
6
ByLayer
370
18
48
1
60
1
100
AcDbPoint
10
30
20
0
30
0
39
0
210
0
220
0
230
1
50
360
0
SPLINE
5
BB
100
AcDbEntity
8
1
62
256
6
ByLayer
370
18
48
1
60
0
100
AcDbSpline
70
4
71
3
72
8
73
4
40
0
40
0
40
0
40
0
40
1
40
1
40
1
40
1
41
1
10
3.64767668468753
20
2.6310434228715
30
0
41
1
10
3.63372900822492
20
2.63054012558828
30
0
41
1
10
3.61842210256546
20
2.63020748573433
30
0
41
1
10
3.60274772616651
20
2.63010134375824
30
0
0
SPLINE
5
BC
100
AcDbEntity
8
1
62
256
6
ByLayer
370
18
48
1
60
0
100
AcDbSpline
70
4
71
3
72
60
73
56
40
0
40
0
40
0
40
0
40
0.0317243403650684
40
0.0317243403650684
40
0.0684634517990153
40
0.0684634517990153
40
0.105202563232962
40
0.105202563232962
40
0.141941674666909
40
0.141941674666909
40
0.178680786100856
40
0.178680786100856
40
0.215419897534803
40
0.215419897534803
40
0.25215900896875
40
0.25215900896875
40
0.288898120402697
40
0.288898120402697
40
0.325637231836643
40
0.325637231836643
40
0.36237634327059
40
0.36237634327059
40
0.399115454704537
40
0.399115454704537
40
0.435854566138484
40
0.435854566138484
40
0.509332789006378
40
0.509332789006378
40
0.546071900440325
40
0.546071900440325
40
0.582811011874272
40
0.582811011874272
40
0.619550123308218
40
0.619550123308218
40
0.656289234742165
40
0.656289234742165
40
0.693028346176112
40
0.693028346176112
40
0.729767457610059
40
0.729767457610059
40
0.766506569044006
40
0.766506569044006
40
0.803245680477953
40
0.803245680477953
40
0.8399847919119
40
0.8399847919119
40
0.876723903345847
40
0.876723903345847
40
0.913463014779794
40
0.913463014779794
40
0.95020212621374
40
0.95020212621374
40
0.986941237647687
40
0.986941237647687
40
1
40
1
40
1
40
1
41
1
10
25.4709316248112
20
-1.83723367844965
30
1E-16
41
1
10
25.2514801205477
20
-1.92520745317606
30
1E-16
41
1
10
25.0323467455621
20
-2.00786562328008
30
-1E-16
41
1
10
24.5595547485869
20
-2.17421014391061
30
-1E-16
41
1
10
24.3063102996344
20
-2.25642357807064
30
-1E-16
41
1
10
23.7981591736239
20
-2.40369048047668
30
-1E-16
41
1
10
23.5434491826208
20
-2.46908730264224
30
-1E-16
41
1
10
23.036012290506
20
-2.58160080764387
30
-1E-16
41
1
10
22.7823354954275
20
-2.62852671687787
30
0
41
1
10
22.2748431285558
20
-2.70368085958828
30
1E-16
41
1
10
22.0206453261118
20
-2.73186844434994
30
-1E-16
41
1
10
21.5120339012232
20
-2.76818800822863
30
0
41
1
10
21.2584644359042
20
-2.77648401090539
30
0
41
1
10
20.7512711041862
20
-2.77320194306097
30
0
41
1
10
20.4973399465948
20
-2.76170846596776
30
0
41
1
10
19.9889812095042
20
-2.7188156538835
30
1E-16
41
1
10
19.7346844605836
20
-2.68744697124504
30
1E-16
41
1
10
19.2269187002867
20
-2.60621281673758
30
0
41
1
10
18.9735896360285
20
-2.55598787627301
30
-1E-16
41
1
10
18.4658198390215
20
-2.43774388803519
30
-1E-16
41
1
10
18.2108609307617
20
-2.36970261756159
30
-1E-16
41
1
10
17.7029662770311
20
-2.21675146767768
30
-1E-16
41
1
10
17.4493199356714
20
-2.13239388143418
30
-1E-16
41
1
10
16.9416663833491
20
-1.94926996057791
30
-1E-16
41
1
10
16.6881089345313
20
-1.84987338752796
30
1E-16
41
1
10
15.9243537063337
20
-1.5332663130234
30
1E-16
41
1
10
15.4179464136525
20
-1.29818825334237
30
1E-16
41
1
10
14.6555883194006
20
-0.922060995873096
30
1E-16
41
1
10
14.4010374748918
20
-0.792059993868719
30
0
41
1
10
13.8929242682069
20
-0.529370390616748
30
0
41
1
10
13.6393596296996
20
-0.395674613387598
30
0
41
1
10
13.1318383215221
20
-0.126131987061768
30
0
41
1
10
12.8771861759171
20
0.0092211251016181
30
0
41
1
10
12.3684962407534
20
0.28020447075491
30
0
41
1
10
12.1148332498267
20
0.414905859450073
30
0
41
1
10
11.6070725327051
20
0.679416963441298
30
0
41
1
10
11.3535129458487
20
0.810219019249274
30
0
41
1
10
10.8449273855608
20
1.06503069908197
30
-1E-16
41
1
10
10.5900227293858
20
1.1887445768935
30
-1E-16
41
1
10
10.0824593919714
20
1.42734881430346
30
-1E-16
41
1
10
9.8288012145828
20
1.54154844187639
30
-1E-16
41
1
10
9.32064090871452
20
1.75811412921286
30
-1E-16
41
1
10
9.06614157781237
20
1.86135758853629
30
-1E-16
41
1
10
8.55754945603357
20
2.05245484109824
30
1E-16
41
1
10
8.30366500095425
20
2.14064864585109
30
1E-16
41
1
10
7.79625765244958
20
2.30175126341948
30
1E-16
41
1
10
7.54220329867462
20
2.37406162568681
30
1E-16
41
1
10
7.03294851263016
20
2.50173152145723
30
1E-16
41
1
10
6.77884310750687
20
2.55697001587268
30
1E-16
41
1
10
6.27042015589063
20
2.64814705396478
30
-1E-16
41
1
10
6.01618686736222
20
2.68439451721596
30
-1E-16
41
1
10
5.50685422579679
20
2.73761011361151
30
0
41
1
10
5.25249465216967
20
2.75436872406038
30
0
41
1
10
4.90818207330932
20
2.76370526143805
30
0
41
1
10
4.81788214064301
20
2.76489417219335
30
0
41
1
10
4.72753245976565
20
2.76483089667681
30
0
0
SPLINE
5
BD
100
AcDbEntity
8
1
62
256
6
ByLayer
370
18
48
1
60
0
100
AcDbSpline
70
4
71
3
72
26
73
22
40
0
40
0
40
0
40
0
40
0.0358348175902921
40
0.0358348175902921
40
0.223206174187749
40
0.223206174187749
40
0.316891852486476
40
0.316891852486476
40
0.410577530785204
40
0.410577530785204
40
0.597948887382659
40
0.597948887382659
40
0.785320243980113
40
0.785320243980113
40
0.832163083129477
40
0.832163083129477
40
0.879005922278841
40
0.879005922278841
40
0.972691600577566
40
0.972691600577566
40
1
40
1
40
1
40
1
41
1
10
4.88679635818022
20
0.148741606169466
30
0
41
1
10
4.98752527139897
20
0.0979853152501846
30
0
41
1
10
5.08817832473542
20
0.0471722244793398
30
0
41
1
10
5.71486708273417
20
-0.269243182423992
30
0
41
1
10
6.2399910650808
20
-0.534097033052575
30
0
41
1
10
7.03319694924579
20
-0.916149812920906
30
1E-16
41
1
10
7.29850740011463
20
-1.04098093762758
30
1E-16
41
1
10
7.8322507768566
20
-1.28302659272322
30
1E-16
41
1
10
8.09753777004002
20
-1.39865141201722
30
1E-16
41
1
10
8.89024548936447
20
-1.72664353636878
30
1E-16
41
1
10
9.41461545938068
20
-1.92059579283
30
-1E-16
41
1
10
10.4650444416966
20
-2.24488374202531
30
-1E-16
41
1
10
10.9910001758374
20
-2.3755017188864
30
-1E-16
41
1
10
11.6554612031399
20
-2.49196309145225
30
0
41
1
10
11.7889816189881
20
-2.51297917653642
30
0
41
1
10
12.0553356437142
20
-2.54977186971638
30
0
41
1
10
12.1881397691058
20
-2.56557397911027
30
0
41
1
10
12.5857139493033
20
-2.60541263115263
30
0
41
1
10
12.8496435831877
20
-2.62188279751641
30
0
41
1
10
13.1898334975093
20
-2.63023266808094
30
0
41
1
10
13.266573175714
20
-2.6312485081136
30
0
41
1
10
13.3432861691066
20
-2.63140024361445
30
0
0
SPLINE
5
BE
100
AcDbEntity
8
1
62
256
6
ByLayer
370
18
48
1
60
0
100
AcDbSpline
70
4
71
3
72
26
73
22
40
0
40
0
40
0
40
0
40
0.10076070452017
40
0.10076070452017
40
0.20152140904034
40
0.20152140904034
40
0.302282113560511
40
0.302282113560511
40
0.403042818080681
40
0.403042818080681
40
0.503803522600853
40
0.503803522600853
40
0.604564227121026
40
0.604564227121026
40
0.705324931641198
40
0.705324931641198
40
0.806085636161371
40
0.806085636161371
40
0.906846340681543
40
0.906846340681543
40
1
40
1
40
1
40
1
41
1
10
28.6212065926746
20
0.323861303954601
30
0
41
1
10
28.3676351515989
20
0.458588918612861
30
0
41
1
10
28.1139469331312
20
0.591462843416593
30
0
41
1
10
27.6065123426879
20
0.853811313108025
30
-1E-16
41
1
10
27.3519290157609
20
0.982695397900045
30
-1E-16
41
1
10
26.8438793100977
20
1.231094954301
30
-1E-16
41
1
10
26.5906418024236
20
1.35168164306725
30
-1E-16
41
1
10
26.0834024360148
20
1.58171711196491
30
-1E-16
41
1
10
25.8292898680482
20
1.69129869694058
30
-1E-16
41
1
10
25.3207597092215
20
1.89893597427687
30
-1E-16
41
1
10
25.0669775385726
20
1.99568131665219
30
1E-16
41
1
10
24.559554748587
20
2.17421014391064
30
1E-16
41
1
10
24.3063102996345
20
2.25642357807064
30
1E-16
41
1
10
23.798159173624
20
2.40369048047668
30
1E-16
41
1
10
23.5434491826208
20
2.46908730264224
30
1E-16
41
1
10
23.036012290506
20
2.58160080764387
30
1E-16
41
1
10
22.7823354954275
20
2.6285267168779
30
0
41
1
10
22.2748431285558
20
2.70368085958828
30
-1E-16
41
1
10
22.0206453261118
20
2.73186844434994
30
1E-16
41
1
10
21.5312330032821
20
2.76681701461834
30
0
41
1
10
21.2967556687409
20
2.77517515811778
30
0
41
1
10
21.0623043487731
20
2.77504477028685
30
0
0
SPLINE
5
BF
100
AcDbEntity
8
1
62
256
6
ByLayer
370
18
48
1
60
0
100
AcDbSpline
70
4
71
3
72
18
73
14
40
0
40
0
40
0
40
0
40
0.132846787865733
40
0.132846787865733
40
0.306277430292587
40
0.306277430292587
40
0.47970807271944
40
0.47970807271944
40
0.653138715146293
40
0.653138715146293
40
0.826569357573147
40
0.826569357573147
40
1
40
1
40
1
40
1
41
1
10
8.6333895723449
20
-2.02277122986544
30
0
41
1
10
8.43873825601054
20
-2.09331214957197
30
-1E-16
41
1
10
8.24429675510447
20
-2.15949815568777
30
-1E-16
41
1
10
7.79625765244958
20
-2.30175126341948
30
-1E-16
41
1
10
7.54220329867456
20
-2.37406162568681
30
-1E-16
41
1
10
7.03294851263013
20
-2.50173152145726
30
-1E-16
41
1
10
6.77884310750684
20
-2.55697001587268
30
-1E-16
41
1
10
6.27042015589063
20
-2.64814705396478
30
1E-16
41
1
10
6.01618686736219
20
-2.68439451721596
30
1E-16
41
1
10
5.50685422579679
20
-2.73761011361154
30
0
41
1
10
5.25249465216967
20
-2.75436872406038
30
0
41
1
10
4.74445134666013
20
-2.76814505871266
30
0
41
1
10
4.49035840659292
20
-2.76506455198796
30
0
41
1
10
4.23528694690805
20
-2.75217732642554
30
0
0
SPLINE
5
C0
100
AcDbEntity
8
1
62
256
6
ByLayer
370
18
48
1
60
0
100
AcDbSpline
70
4
71
3
72
10
73
6
40
0
40
0
40
0
40
0
40
0.5
40
0.5
40
1
40
1
40
1
40
1
41
1
10
29.036078359374
20
2.66498290424897
30
0
41
1
10
29.0252954372746
20
2.67237135401686
30
0
41
1
10
29.0159051737746
20
2.67617643822766
30
0
41
1
10
28.9996848712207
20
2.67663879040325
30
0
41
1
10
28.9928105963465
20
2.6733420703865
30
0
41
1
10
28.9868031325321
20
2.66674335223721
30
0
0
SPLINE
5
C1
100
AcDbEntity
8
1
62
256
6
ByLayer
370
18
48
1
60
0
100
AcDbSpline
70
4
71
3
72
10
73
6
40
0
40
0
40
0
40
0
40
0.5
40
0.5
40
1
40
1
40
1
40
1
41
1
10
3.50204266083571
20
-2.76285264806722
30
0
41
1
10
3.50204266083571
20
-2.76182205905695
30
0
41
1
10
3.52102081053096
20
-2.76006305253395
30
0
41
1
10
3.58044835027565
20
-2.75794385539817
30
0
41
1
10
3.61882314049382
20
-2.7578974528362
30
0
41
1
10
3.64941011628937
20
-2.75892838398295
30
0
0
SPLINE
5
C2
100
AcDbEntity
8
1
62
256
6
ByLayer
370
18
48
1
60
0
100
AcDbSpline
70
4
71
3
72
20
73
16
40
0
40
0
40
0
40
0
40
0.273593195324191
40
0.273593195324191
40
0.410389792986287
40
0.410389792986287
40
0.547186390648382
40
0.547186390648382
40
0.683982988310478
40
0.683982988310478
40
0.820779585972573
40
0.820779585972573
40
0.957576183634669
40
0.957576183634669
40
1
40
1
40
1
40
1
41
1
10
6.15744342615909
20
-0.942679443814257
30
1E-16
41
1
10
6.73913878511249
20
-1.23351650765701
30
1E-16
41
1
10
7.31698324965754
20
-1.50489520502973
30
1E-16
41
1
10
8.1888123654721
20
-1.8650088592093
30
1E-16
41
1
10
8.47918657920087
20
-1.97681400839767
30
-1E-16
41
1
10
9.05884926311683
20
-2.18063903058615
30
-1E-16
41
1
10
9.3485162035858
20
-2.27282477675487
30
-1E-16
41
1
10
9.92927493472064
20
-2.43564212178859
30
-1E-16
41
1
10
10.2199995618335
20
-2.50609819787186
30
-1E-16
41
1
10
10.7997227256387
20
-2.62267936325114
30
0
41
1
10
11.0893042546366
20
-2.66898202971166
30
1E-16
41
1
10
11.6696892635663
20
-2.7365073497003
30
0
41
1
10
11.960611406082
20
-2.75766539731578
30
0
41
1
10
12.3404378912217
20
-2.76836185770031
30
0
41
1
10
12.4303100622953
20
-2.76965346906334
30
0
41
1
10
12.5201713219499
20
-2.76970557556328
30
0
0
SPLINE
5
C3
100
AcDbEntity
8
1
62
256
6
ByLayer
370
18
48
1
60
0
100
AcDbSpline
70
4
71
3
72
30
73
26
40
0
40
0
40
0
40
0
40
0.0077606613629962
40
0.0077606613629962
40
0.149509138311141
40
0.149509138311141
40
0.220383376785214
40
0.220383376785214
40
0.291257615259287
40
0.291257615259287
40
0.43300609220743
40
0.43300609220743
40
0.574754569155574
40
0.574754569155574
40
0.610191688392609
40
0.610191688392609
40
0.645628807629645
40
0.645628807629645
40
0.716503046103716
40
0.716503046103716
40
0.858251523051858
40
0.858251523051858
40
0.929125761525929
40
0.929125761525929
40
1
40
1
40
1
40
1
41
1
10
14.7083874302718
20
-2.67501753807576
30
0
41
1
10
14.6796013231714
20
-2.67900084745727
30
0
41
1
10
14.6508240330433
20
-2.68286016671331
30
0
41
1
10
14.0965822574592
20
-2.75481647229597
30
0
41
1
10
13.5737033410516
20
-2.78154832600922
30
0
41
1
10
12.7855358273965
20
-2.75800804305121
30
0
41
1
10
12.5221202152759
20
-2.73957139785065
30
0
41
1
10
11.9926804539696
20
-2.68138228916342
30
1E-16
41
1
10
11.7262468466838
20
-2.64148075705174
30
1E-16
41
1
10
10.933633377122
20
-2.49254489288464
30
-1E-16
41
1
10
10.4097985649012
20
-2.35416687037244
30
-1E-16
41
1
10
9.36116287545923
20
-2.01049923545005
30
-1E-16
41
1
10
8.8363348604646
20
-1.80519808386981
30
1E-16
41
1
10
8.17293443906797
20
-1.51478672995779
30
1E-16
41
1
10
8.03983680759305
20
-1.45497834195959
30
1E-16
41
1
10
7.77484987771473
20
-1.33320076627695
30
1E-16
41
1
10
7.64270108385534
20
-1.27111449288242
30
1E-16
41
1
10
7.24704360341761
20
-1.08171891998487
30
1E-16
41
1
10
6.9843082153069
20
-0.951299181964941
30
1E-16
41
1
10
6.1970879330953
20
-0.551542161203315
30
0
41
1
10
5.6737264692338
20
-0.273455281523184
30
0
41
1
10
4.88323418001175
20
0.146681703631486
30
0
41
1
10
4.61868957585159
20
0.287224105151637
30
0
41
1
10
4.08673789092455
20
0.566233277588253
30
0
41
1
10
3.82106413300755
20
0.703770327312355
30
0
41
1
10
3.55513442756109
20
0.838314163036301
30
-1E-16
0
SPLINE
5
C4
100
AcDbEntity
8
1
62
256
6
ByLayer
370
18
48
1
60
0
100
AcDbSpline
70
4
71
3
72
8
73
4
40
0
40
0
40
0
40
0
40
1
40
1
40
1
40
1
41
1
10
28.8524580993544
20
-2.74449170787185
30
0
41
1
10
28.897130195966
20
-2.71906551368357
30
0
41
1
10
28.941906466011
20
-2.6931459152384
30
0
41
1
10
28.9868031325319
20
-2.66674335223738
30
0
0
SPLINE
5
C5
100
AcDbEntity
8
1
62
256
6
ByLayer
370
18
48
1
60
0
100
AcDbSpline
70
4
71
3
72
8
73
4
40
0
40
0
40
0
40
0
40
1
40
1
40
1
40
1
41
1
10
29.7739992788808
20
0.839124598296621
30
0
41
1
10
29.8497373879307
20
0.625831991080901
30
0
41
1
10
29.9237297708526
20
0.411911412541713
30
0
41
1
10
29.9959536182298
20
0.197354657692358
30
0
0
SPLINE
5
C6
100
AcDbEntity
8
1
62
256
6
ByLayer
370
18
48
1
60
0
100
AcDbSpline
70
4
71
3
72
18
73
14
40
0
40
0
40
0
40
0
40
0.234485828785764
40
0.234485828785764
40
0.429941225091113
40
0.429941225091113
40
0.627117534247119
40
0.627117534247119
40
0.799067133240299
40
0.799067133240299
40
0.965203240952944
40
0.965203240952944
40
1
40
1
40
1
40
1
41
1
10
29.0028515612358
20
-2.61694843301623
30
0
41
1
10
29.0029567243428
20
-2.61712083001177
30
0
41
1
10
29.0030040428381
20
-2.61747732234275
30
0
41
1
10
29.0029534852001
20
-2.61848765848211
30
0
41
1
10
29.0028770456021
20
-2.6190955918629
30
0
41
1
10
29.0026092222764
20
-2.62056285271802
30
0
41
1
10
29.0024116946056
20
-2.62144920922569
30
0
41
1
10
29.0019527502176
20
-2.62323495378013
30
0
41
1
10
29.0016965789203
20
-2.62414201077127
30
0
41
1
10
29.0011565785865
20
-2.62591307290356
30
0
41
1
10
29.0008676154935
20
-2.62679898431517
30
0
41
1
10
29.0005155670091
20
-2.62781818483478
30
0
41
1
10
29.0004537887875
20
-2.62799488368111
30
0
41
1
10
29.0003919210522
20
-2.62816976827261
30
0
0
SPLINE
5
C7
100
AcDbEntity
8
1
62
256
6
ByLayer
370
18
48
1
60
0
100
AcDbSpline
70
4
71
3
72
8
73
4
40
0
40
0
40
0
40
0
40
1
40
1
40
1
40
1
41
1
10
13.12
20
2.75166186439992
30
0
41
1
10
13.12
20
2.71949277126225
30
0
41
1
10
13.12
20
2.6870337708755
30
0
41
1
10
13.12
20
2.6542874119927
30
0
0
SPLINE
5
C8
100
AcDbEntity
8
1
62
256
6
ByLayer
370
18
48
1
60
0
100
AcDbSpline
70
4
71
3
72
8
73
4
40
0
40
0
40
0
40
0
40
1
40
1
40
1
40
1
41
1
10
28.8524580993514
20
-2.74449170787543
30
0
41
1
10
28.8567270308329
20
-2.76540267319842
30
0
41
1
10
28.8604586776544
20
-2.77723781566942
30
0
41
1
10
28.8637911223084
20
-2.77951352067467
30
0
0
SPLINE
5
C9
100
AcDbEntity
8
1
62
256
6
ByLayer
370
18
48
1
60
0
100
AcDbSpline
70
4
71
3
72
8
73
4
40
0
40
0
40
0
40
0
40
1
40
1
40
1
40
1
41
1
10
29.0003919210502
20
-2.62816976827804
30
0
41
1
10
28.9958428932118
20
-2.64102873056942
30
0
41
1
10
28.9913131480634
20
-2.65388654267019
30
0
41
1
10
28.986803132532
20
-2.66674335223746
30
0
0
SPLINE
5
CA
100
AcDbEntity
8
1
62
256
6
ByLayer
370
18
48
1
60
0
100
AcDbSpline
70
4
71
3
72
8
73
4
40
0
40
0
40
0
40
0
40
1
40
1
40
1
40
1
41
1
10
29.3082229417552
20
0.751611532396964
30
0
41
1
10
29.4648171404764
20
0.773105107363421
30
0
41
1
10
29.6204384416748
20
0.800191957075924
30
0
41
1
10
29.7739992788806
20
0.839124598296536
30
0
0
SPLINE
5
CB
100
AcDbEntity
8
1
62
256
6
ByLayer
370
18
48
1
60
0
100
AcDbSpline
70
4
71
3
72
24
73
20
40
0
40
0
40
0
40
0
40
0.0001000350086652
40
0.0001000350086652
40
0.100090031507798
40
0.100090031507798
40
0.200080028006931
40
0.200080028006931
40
0.300070024506065
40
0.300070024506065
40
0.400060021005197
40
0.400060021005197
40
0.600040014003463
40
0.600040014003463
40
0.800020007001732
40
0.800020007001732
40
0.900010003500866
40
0.900010003500866
40
1
40
1
40
1
40
1
41
1
10
21.0526315619098
20
0.242239601527899
30
0
41
1
10
21.0528953868303
20
0.242106693414627
30
0
41
1
10
21.0531592124323
20
0.241973784200951
30
0
41
1
10
21.3171306104605
20
0.108990365998125
30
0
41
1
10
21.5813864450148
20
-0.0252991403257568
30
0
41
1
10
22.1123337041342
20
-0.29414912433478
30
0
41
1
10
22.3794716189201
20
-0.428562585909731
30
0
41
1
10
22.9115475794873
20
-0.691897711703916
30
0
41
1
10
23.1771053139107
20
-0.821303242717306
30
1E-16
41
1
10
23.7086025636954
20
-1.07299753046419
30
1E-16
41
1
10
23.9752470391107
20
-1.19543154513889
30
1E-16
41
1
10
24.7738328258362
20
-1.54673768450587
30
1E-16
41
1
10
25.3002146061001
20
-1.75783079675389
30
1E-16
41
1
10
26.3522940385558
20
-2.12028865219142
30
-1E-16
41
1
10
26.8774000998693
20
-2.27144202718719
30
-1E-16
41
1
10
27.6715930582277
20
-2.44423366985151
30
-1E-16
41
1
10
27.9380324758212
20
-2.49293435231996
30
0
41
1
10
28.4706730073249
20
-2.57018685609131
30
0
41
1
10
28.7365820871789
20
-2.59845780921501
30
0
41
1
10
29.0028515612294
20
-2.61694843301578
30
0
0
SPLINE
5
CC
100
AcDbEntity
8
1
62
256
6
ByLayer
370
18
48
1
60
0
100
AcDbSpline
70
4
71
3
72
16
73
12
40
0
40
0
40
0
40
0
40
0.0940258583483848
40
0.0940258583483848
40
0.320519393761289
40
0.320519393761289
40
0.547012929174192
40
0.547012929174192
40
0.773506464587096
40
0.773506464587096
40
1
40
1
40
1
40
1
41
1
10
28.7496088442836
20
0.545295914774073
30
0
41
1
10
28.7617460153198
20
0.551122604601858
30
0
41
1
10
28.7744656818179
20
0.557360064137782
30
0
41
1
10
28.8198568365933
20
0.579871463856591
30
0
41
1
10
28.8559323054939
20
0.598010545491945
30
0
41
1
10
28.9330949152207
20
0.63497906842332
30
0
41
1
10
28.9743862457742
20
0.653902106193783
30
0
41
1
10
29.0634759421362
20
0.689903922132601
30
0
41
1
10
29.1102481466598
20
0.706493039337886
30
0
41
1
10
29.2067338691326
20
0.733791664152534
30
0
41
1
10
29.2571294074289
20
0.744598611616141
30
0
41
1
10
29.3082229417553
20
0.751611532396822
30
0
0
SPLINE
5
CD
100
AcDbEntity
8
1
62
256
6
ByLayer
370
18
48
1
60
0
100
AcDbSpline
70
4
71
3
72
8
73
4
40
0
40
0
40
0
40
0
40
1
40
1
40
1
40
1
41
1
10
3.64941011628937
20
2.75892838398295
30
0
41
1
10
3.64884114790522
20
2.71629940729778
30
0
41
1
10
3.64826334682755
20
2.67367107095887
30
0
41
1
10
3.64767668468755
20
2.6310434228715
30
0
0
SPLINE
5
CE
100
AcDbEntity
8
1
62
256
6
ByLayer
370
18
48
1
60
0
100
AcDbSpline
70
4
71
3
72
12
73
8
40
0
40
0
40
0
40
0
40
0.25
40
0.25
40
0.5
40
0.5
40
1
40
1
40
1
40
1
41
1
10
3.60274772616651
20
2.63010134375824
30
0
41
1
10
3.58713407947783
20
2.62999561302476
30
0
41
1
10
3.5719753642621
20
2.63350586483554
30
0
41
1
10
3.5459479290291
20
2.64540192967235
30
0
41
1
10
3.53519092467849
20
2.65357808572187
30
0
41
1
10
3.50982251250502
20
2.681165550186
30
0
41
1
10
3.50204266083574
20
2.70306870739918
30
0
41
1
10
3.50204266083574
20
2.72465308355802
30
0
0
SPLINE
5
CF
100
AcDbEntity
8
1
62
256
6
ByLayer
370
18
48
1
60
0
100
AcDbSpline
70
4
71
3
72
8
73
4
40
0
40
0
40
0
40
0
40
1
40
1
40
1
40
1
41
1
10
29.4563444356606
20
-0.449208437150048
30
0
41
1
10
29.2953038561724
20
-0.180446673820995
30
0
41
1
10
29.0974723177015
20
0.121739221765893
30
0
41
1
10
28.8581250722198
20
0.461641624894185
30
0
0
SPLINE
5
D0
100
AcDbEntity
8
1
62
256
6
ByLayer
370
18
48
1
60
0
100
AcDbSpline
70
4
71
3
72
20
73
16
40
0
40
0
40
0
40
0
40
0.518161766541386
40
0.518161766541386
40
0.700056751825293
40
0.700056751825293
40
0.818900767155698
40
0.818900767155698
40
0.896513324934511
40
0.896513324934511
40
0.947242822640154
40
0.947242822640154
40
0.980421602049837
40
0.980421602049837
40
1
40
1
40
1
40
1
41
1
10
28.8637911223083
20
-2.7795135206747
30
0
41
1
10
28.8916033727479
20
-2.76132464728818
30
0
41
1
10
28.9194603312814
20
-2.74295579266322
30
0
41
1
10
28.9571537930775
20
-2.71790613617711
30
0
41
1
10
28.966953297793
20
-2.71137603012059
30
0
41
1
10
28.9831642487127
20
-2.70054469888936
30
0
41
1
10
28.9895726894912
20
-2.69625546746892
30
0
41
1
10
29.0001699944935
20
-2.68915042783792
30
0
41
1
10
29.0043575675945
20
-2.6863397028383
30
0
41
1
10
29.0112838448916
20
-2.68168559371551
30
0
41
1
10
29.0140219973191
20
-2.67984436338855
30
0
41
1
10
29.0185516802147
20
-2.6767962554585
30
0
41
1
10
29.0203428350796
20
-2.67559038812885
30
0
41
1
10
29.0231919158285
20
-2.67367139004713
30
0
41
1
10
29.0242494787337
20
-2.67295887191872
30
0
41
1
10
29.0253075053138
20
-2.67224584649466
30
0
0
SPLINE
5
D1
100
AcDbEntity
8
1
62
256
6
ByLayer
370
18
48
1
60
0
100
AcDbSpline
70
4
71
3
72
10
73
6
40
0
40
0
40
0
40
0
40
0.5
40
0.5
40
1
40
1
40
1
40
1
41
1
10
28.8581250722197
20
0.461641624894156
30
0
41
1
10
28.8166985625382
20
0.446386956891899
30
0
41
1
10
28.7761368556713
20
0.426782020741541
30
0
41
1
10
28.6969233935726
20
0.381405777882947
30
0
41
1
10
28.6583747012861
20
0.354786408242461
30
0
41
1
10
28.6212065926816
20
0.323861303960456
30
0
0
SPLINE
5
D2
100
AcDbEntity
8
1
62
256
6
ByLayer
370
18
48
1
60
0
100
AcDbSpline
70
4
71
3
72
18
73
14
40
0
40
0
40
0
40
0
40
0.0307912069797204
40
0.0307912069797204
40
0.224632965583776
40
0.224632965583776
40
0.418474724187832
40
0.418474724187832
40
0.612316482791888
40
0.612316482791888
40
0.806158241395944
40
0.806158241395944
40
1
40
1
40
1
40
1
41
1
10
8.63086142893417
20
2.02941879760252
30
1E-16
41
1
10
8.67692646963286
20
2.04609988463972
30
1E-16
41
1
10
8.72297904437755
20
2.06253800961912
30
1E-16
41
1
10
9.05884926311683
20
2.18063903058615
30
1E-16
41
1
10
9.34851620358583
20
2.27282477675487
30
1E-16
41
1
10
9.92927493472064
20
2.43564212178862
30
1E-16
41
1
10
10.2199995618335
20
2.50609819787186
30
1E-16
41
1
10
10.7997227256387
20
2.62267936325114
30
0
41
1
10
11.0893042546366
20
2.66898202971166
30
-1E-16
41
1
10
11.6696892635663
20
2.7365073497003
30
0
41
1
10
11.960611406082
20
2.75766539731581
30
0
41
1
10
12.5404445813486
20
2.77399433390008
30
0
41
1
10
12.8299689064158
20
2.76926187839302
30
0
41
1
10
13.12
20
2.75166186439142
30
0
0
SPLINE
5
D3
100
AcDbEntity
8
1
62
256
6
ByLayer
370
18
48
1
60
0
100
AcDbSpline
70
4
71
3
72
8
73
4
40
0
40
0
40
0
40
0
40
1
40
1
40
1
40
1
41
1
10
29.9959536182298
20
0.197354657692358
30
0
41
1
10
30.001351849054
20
0.0657103809181763
30
0
41
1
10
30.0013457421788
20
-0.065859306587754
30
0
41
1
10
29.9959536182303
20
-0.197354657682013
30
0
0
SPLINE
5
D4
100
AcDbEntity
8
1
62
256
6
ByLayer
370
18
48
1
60
0
100
AcDbSpline
70
4
71
3
72
22
73
18
40
0
40
0
40
0
40
0
40
0.10801468811622
40
0.10801468811622
40
0.21602937623244
40
0.21602937623244
40
0.43205875246488
40
0.43205875246488
40
0.64808812869732
40
0.64808812869732
40
0.756102816813538
40
0.756102816813538
40
0.864117504929757
40
0.864117504929757
40
0.972132193045976
40
0.972132193045976
40
1
40
1
40
1
40
1
41
1
10
29.0003919210371
20
-2.62816976827159
30
0
41
1
10
28.7341516761686
20
-2.6100501631189
30
0
41
1
10
28.4681646018737
20
-2.58223224547146
30
0
41
1
10
27.9354643623645
20
-2.50565343797004
30
0
41
1
10
27.6689811960248
20
-2.45723582778604
30
-1E-16
41
1
10
26.8747016114789
20
-2.2851386555327
30
-1E-16
41
1
10
26.3495790034295
20
-2.13423153299743
30
-1E-16
41
1
10
25.2974468473748
20
-1.77186338228319
30
1E-16
41
1
10
24.7710519668564
20
-1.56057863517225
30
1E-16
41
1
10
23.9723855580381
20
-1.20866970638485
30
1E-16
41
1
10
23.7057027461941
20
-1.08596497137231
30
1E-16
41
1
10
23.1741501561565
20
-0.83364387822121
30
1E-16
41
1
10
22.9085637669174
20
-0.703881990518227
30
0
41
1
10
22.3764274368527
20
-0.439741508845543
30
0
41
1
10
22.1092569995106
20
-0.304862737597574
30
0
41
1
10
21.7752548216628
20
-0.135132452351854
30
0
41
1
10
21.7068365036867
20
-0.100330257405204
30
0
41
1
10
21.6384880602677
20
-0.0655576985452058
30
0
0
SPLINE
5
D5
100
AcDbEntity
8
1
62
256
6
ByLayer
370
18
48
1
60
0
100
AcDbSpline
70
4
71
3
72
10
73
6
40
0
40
0
40
0
40
0
40
0.428298920784268
40
0.428298920784268
40
1
40
1
40
1
40
1
41
1
10
7.88395468014315
20
-1.70974028902421
30
0
41
1
10
7.3577179028492
20
-1.85597622842096
30
0
41
1
10
6.8337609013183
20
-2.00378855341265
30
0
41
1
10
5.61602452839168
20
-2.35103410965002
30
0
41
1
10
4.92360141140233
20
-2.55131133446596
30
0
41
1
10
4.23528694685069
20
-2.75217732644228
30
0
0
SPLINE
5
D6
100
AcDbEntity
8
1
62
256
6
ByLayer
370
18
48
1
60
0
100
AcDbSpline
70
4
71
3
72
8
73
4
40
0
40
0
40
0
40
0
40
1
40
1
40
1
40
1
41
1
10
3.64941011628935
20
-2.75892838398295
30
0
41
1
10
3.75613345211474
20
-2.76252548399449
30
0
41
1
10
3.86283285714001
20
-2.76434431974343
30
0
41
1
10
3.96952865561715
20
-2.76440246356231
30
0
0
SPLINE
5
D7
100
AcDbEntity
8
1
62
256
6
ByLayer
370
18
48
1
60
0
100
AcDbSpline
70
4
71
3
72
34
73
30
40
0
40
0
40
0
40
0
40
0.0583020072199837
40
0.0583020072199837
40
0.136776839951652
40
0.136776839951652
40
0.176014256317486
40
0.176014256317486
40
0.21525167268332
40
0.21525167268332
40
0.293726505414988
40
0.293726505414988
40
0.372201338146656
40
0.372201338146656
40
0.450676170878324
40
0.450676170878324
40
0.529151003609992
40
0.529151003609992
40
0.60762583634166
40
0.60762583634166
40
0.686100669073328
40
0.686100669073328
40
0.764575501804996
40
0.764575501804996
40
0.843050334536664
40
0.843050334536664
40
0.921525167268332
40
0.921525167268332
40
1
40
1
40
1
40
1
41
1
10
18.6843386245532
20
2.63743094465892
30
0
41
1
10
18.876449904333
20
2.66929984748711
30
0
41
1
10
19.0685645901919
20
2.69575877472943
30
0
41
1
10
19.5201115626236
20
2.74462191754185
30
0
41
1
10
19.779878065198
20
2.76259633381295
30
0
41
1
10
20.1705385958041
20
2.77415786069096
30
0
41
1
10
20.3008902580866
20
2.77542781918081
30
0
41
1
10
20.5622658689819
20
2.77264802626044
30
0
41
1
10
20.6935467789358
20
2.76858651967405
30
0
41
1
10
21.0860625639174
20
2.74863877383592
30
0
41
1
10
21.3467083392284
20
2.72507799106646
30
1E-16
41
1
10
21.8658974184068
20
2.65792001564495
30
-1E-16
41
1
10
22.1242747819992
20
2.61410161622294
30
0
41
1
10
22.6416846171553
20
2.50801583594122
30
1E-16
41
1
10
22.9004941715709
20
2.44570076938848
30
1E-16
41
1
10
23.418715929023
20
2.30277582497573
30
1E-16
41
1
10
23.678002012223
20
2.22194017579119
30
1E-16
41
1
10
24.1995814789531
20
2.04417065014377
30
1E-16
41
1
10
24.4626718621724
20
1.94667885253676
30
1E-16
41
1
10
24.9850506114399
20
1.73838395007786
30
-1E-16
41
1
10
25.2446184410431
20
1.62723910832406
30
-1E-16
41
1
10
25.7632782642003
20
1.39549839269947
30
-1E-16
41
1
10
26.0221310842756
20
1.27455961851359
30
-1E-16
41
1
10
26.5393371066341
20
1.02334373078563
30
-1E-16
41
1
10
26.7975303697864
20
0.892739887062703
30
-1E-16
41
1
10
27.3159805964081
20
0.626683185239898
30
0
41
1
10
27.5760776873836
20
0.490981362565179
30
0
41
1
10
28.0984753016448
20
0.21496060254745
30
0
41
1
10
28.3611215119359
20
0.0744697319377963
30
0
41
1
10
28.6229281916257
20
-0.0659899803426072
30
0
0
SPLINE
5
D8
100
AcDbEntity
8
1
62
256
6
ByLayer
370
18
48
1
60
0
100
AcDbSpline
70
4
71
3
72
32
73
28
40
0
40
0
40
0
40
0
40
0.182865520585021
40
0.182865520585021
40
0.274298280877532
40
0.274298280877532
40
0.365731041170042
40
0.365731041170042
40
0.411447421316298
40
0.411447421316298
40
0.457163801462555
40
0.457163801462555
40
0.548596561755067
40
0.548596561755067
40
0.64002932204758
40
0.64002932204758
40
0.685745702193835
40
0.685745702193835
40
0.73146208234009
40
0.73146208234009
40
0.8228948426326
40
0.8228948426326
40
0.868611222778857
40
0.868611222778857
40
0.914327602925113
40
0.914327602925113
40
1
40
1
40
1
40
1
41
1
10
3.64767668468755
20
2.6310434228715
30
0
41
1
10
4.17142535503706
20
2.65110797885231
30
0
41
1
10
4.69181161517542
20
2.62552567197699
30
0
41
1
10
5.47235087279572
20
2.53116279809473
30
0
41
1
10
5.73219122325821
20
2.49087311858838
30
0
41
1
10
6.25306785361426
20
2.39156365205693
30
1E-16
41
1
10
6.51422004683121
20
2.33233854438941
30
1E-16
41
1
10
6.90803857653492
20
2.22980158034218
30
1E-16
41
1
10
7.03955760397207
20
2.19335760759986
30
1E-16
41
1
10
7.30148598191133
20
2.11669261116666
30
1E-16
41
1
10
7.43212992609492
20
2.07641258440805
30
1E-16
41
1
10
7.82328232012995
20
1.95017835607643
30
1E-16
41
1
10
8.08273676282172
20
1.85894216834518
30
1E-16
41
1
10
8.60124310548935
20
1.6634300984756
30
-1E-16
41
1
10
8.86046056877976
20
1.55903716098422
30
-1E-16
41
1
10
9.24926021589465
20
1.39439274507626
30
-1E-16
41
1
10
9.3788553707036
20
1.33816654331505
30
-1E-16
41
1
10
9.63801993227827
20
1.22312969843924
30
-1E-16
41
1
10
9.76759159562891
20
1.16432778275629
30
-1E-16
41
1
10
10.1573379286867
20
0.984677709617557
30
-1E-16
41
1
10
10.4185257227098
20
0.860590066057938
30
-1E-16
41
1
10
10.8120938715417
20
0.669283694826305
30
0
41
1
10
10.9437510627265
20
0.604562969162146
30
0
41
1
10
11.2059170318322
20
0.474356889241477
30
0
41
1
10
11.3366151983126
20
0.408771448839929
30
0
41
1
10
11.7115248574901
20
0.219851470296931
30
0
41
1
10
11.9549866946383
20
0.0958418134612486
30
0
41
1
10
12.1981190142511
20
-0.027608809845475
30
0
0
SPLINE
5
D9
100
AcDbEntity
8
1
62
256
6
ByLayer
370
18
48
1
60
0
100
AcDbSpline
70
4
71
3
72
8
73
4
40
0
40
0
40
0
40
0
40
1
40
1
40
1
40
1
41
1
10
29.9959536182298
20
0.197354657692358
30
0
41
1
10
29.9807448338511
20
0.145923548496796
30
0
41
1
10
29.9654416425765
20
0.0945226817941318
30
0
41
1
10
29.9500444853312
20
0.0431519163375071
30
0
0
SPLINE
5
DA
100
AcDbEntity
8
1
62
256
6
ByLayer
370
18
48
1
60
0
100
AcDbSpline
70
4
71
3
72
22
73
18
40
0
40
0
40
0
40
0
40
0.125
40
0.125
40
0.25
40
0.25
40
0.375
40
0.375
40
0.5
40
0.5
40
0.625
40
0.625
40
0.75
40
0.75
40
0.875
40
0.875
40
1
40
1
40
1
40
1
41
1
10
28.692559743675
20
-0.109297008773979
30
0
41
1
10
28.6970966609551
20
-0.263801965640056
30
0
41
1
10
28.7075513614607
20
-0.415067700486844
30
0
41
1
10
28.7348477854011
20
-0.711851753792956
30
0
41
1
10
28.7517875353033
20
-0.857909040482951
30
1E-16
41
1
10
28.7878161843248
20
-1.1419750286656
30
1E-16
41
1
10
28.8066992629722
20
-1.27857951501707
30
1E-16
41
1
10
28.842797758499
20
-1.53808208101168
30
1E-16
41
1
10
28.8599718607469
20
-1.66074815975548
30
1E-16
41
1
10
28.8906643584793
20
-1.88827097824551
30
-1E-16
41
1
10
28.904192803778
20
-1.99323859490664
30
-1E-16
41
1
10
28.9275109173169
20
-2.18173438267041
30
-1E-16
41
1
10
28.9373438006723
20
-2.26556183894462
30
-1E-16
41
1
10
28.9551210772827
20
-2.40895981063676
30
-1E-16
41
1
10
28.9631385072485
20
-2.46891277969976
30
0
41
1
10
28.9806616143038
20
-2.5623631102813
30
0
41
1
10
28.9901897463641
20
-2.59619154494487
30
0
41
1
10
29.0028515612354
20
-2.61694843301572
30
0
0
SPLINE
5
DB
100
AcDbEntity
8
1
62
256
6
ByLayer
370
18
48
1
60
0
100
AcDbSpline
70
4
71
3
72
16
73
12
40
0
40
0
40
0
40
0
40
0.500000000000003
40
0.500000000000003
40
0.625000000000002
40
0.625000000000002
40
0.750000000000002
40
0.750000000000002
40
0.875000000000001
40
0.875000000000001
40
1
40
1
40
1
40
1
41
1
10
29.0360783593738
20
2.66498290424911
30
0
41
1
10
29.1466357625756
20
2.350763178547
30
0
41
1
10
29.2562288258219
20
2.03156580789485
30
0
41
1
10
29.3982104777021
20
1.63465646009965
30
0
41
1
10
29.4275419828949
20
1.55579963070591
30
0
41
1
10
29.488783394482
20
1.4015643075779
30
0
41
1
10
29.5207213787382
20
1.3258990761193
30
0
41
1
10
29.5881003268026
20
1.1778520827925
30
0
41
1
10
29.6236979187995
20
1.10525434886552
30
0
41
1
10
29.6969331632819
20
0.967513709015435
30
0
41
1
10
29.7347827919083
20
0.901798712917838
30
0
41
1
10
29.7739992788808
20
0.83912459829665
30
0
0
SPLINE
5
DC
100
AcDbEntity
8
1
62
256
6
ByLayer
370
18
48
1
60
0
100
AcDbSpline
70
4
71
3
72
16
73
12
40
0
40
0
40
0
40
0
40
0.190841004794651
40
0.190841004794651
40
0.538794169065141
40
0.538794169065141
40
0.712770751200387
40
0.712770751200387
40
0.886747333335632
40
0.886747333335632
40
1
40
1
40
1
40
1
41
1
10
13.5423445284393
20
-2.63941206549035
30
0
41
1
10
13.3980627109308
20
-2.64225440703402
30
0
41
1
10
13.2537317246192
20
-2.64204052374814
30
0
41
1
10
12.8458319626928
20
-2.6327187822105
30
0
41
1
10
12.5818858364396
20
-2.61664996410764
30
0
41
1
10
12.1842803291229
20
-2.5773496342006
30
0
41
1
10
12.0514647762844
20
-2.56171629249079
30
0
41
1
10
11.7850817705352
20
-2.52523891379755
30
0
41
1
10
11.6515416669751
20
-2.50436840787853
30
0
41
1
10
11.4321182379277
20
-2.46612989094865
30
0
41
1
10
11.3457504737499
20
-2.45005539613234
30
0
41
1
10
11.2595111193873
20
-2.43300916390206
30
0
0
SPLINE
5
DD
100
AcDbEntity
8
1
62
256
6
ByLayer
370
18
48
1
60
0
100
AcDbSpline
70
4
71
3
72
16
73
12
40
0
40
0
40
0
40
0
40
0.0357611217986715
40
0.0357611217986715
40
0.363845138290136
40
0.363845138290136
40
0.527887146535868
40
0.527887146535868
40
0.691929154781601
40
0.691929154781601
40
1
40
1
40
1
40
1
41
1
10
10.1075853509256
20
-2.14807833165156
30
-1E-16
41
1
10
10.0503113447602
20
-2.13117894105287
30
-1E-16
41
1
10
9.99305260770558
20
-2.11389492848238
30
-1E-16
41
1
10
9.41057471194668
20
-1.93420668170219
30
-1E-16
41
1
10
8.88619482301169
20
-1.74016658502029
30
1E-16
41
1
10
8.0934435989434
20
-1.41170554331165
30
1E-16
41
1
10
7.82813765181868
20
-1.29587619688061
30
1E-16
41
1
10
7.2943240835483
20
-1.05329628336611
30
1E-16
41
1
10
7.02898895148121
20
-0.928150030428128
30
1E-16
41
1
10
6.2679752991304
20
-0.560617249956266
30
0
41
1
10
5.77465038128929
20
-0.311679918146154
30
0
41
1
10
5.28072009035535
20
-0.0614437574262752
30
0
0
SPLINE
5
DE
100
AcDbEntity
8
1
62
256
6
ByLayer
370
18
48
1
60
0
100
AcDbSpline
70
4
71
3
72
8
73
4
40
0
40
0
40
0
40
0
40
1
40
1
40
1
40
1
41
1
10
28.8524580993544
20
2.74449170787187
30
0
41
1
10
28.897130195966
20
2.71906551368357
30
0
41
1
10
28.941906466011
20
2.6931459152384
30
0
41
1
10
28.9868031325319
20
2.66674335223738
30
0
0
SPLINE
5
DF
100
AcDbEntity
8
1
62
256
6
ByLayer
370
18
48
1
60
0
100
AcDbSpline
70
4
71
3
72
36
73
32
40
0
40
0
40
0
40
0
40
0.101874370926567
40
0.101874370926567
40
0.152811556389849
40
0.152811556389849
40
0.203748741853132
40
0.203748741853132
40
0.3056231127797
40
0.3056231127797
40
0.356560298242984
40
0.356560298242984
40
0.407497483706269
40
0.407497483706269
40
0.509371854632838
40
0.509371854632838
40
0.560309040096122
40
0.560309040096122
40
0.585777632827765
40
0.585777632827765
40
0.611246225559408
40
0.611246225559408
40
0.713120596485978
40
0.713120596485978
40
0.81499496741255
40
0.81499496741255
40
0.865932152875835
40
0.865932152875835
40
0.916869338339121
40
0.916869338339121
40
1
40
1
40
1
40
1
41
1
10
28.8524580993557
20
-2.74449170787415
30
0
41
1
10
28.3221251384519
20
-2.69898704498957
30
1E-16
41
1
10
27.7942193035352
20
-2.61100128305696
30
0
41
1
10
26.998618197857
20
-2.42009387162699
30
-1E-16
41
1
10
26.7328555735924
20
-2.34651637982029
30
-1E-16
41
1
10
26.2051512138305
20
-2.18299475860221
30
-1E-16
41
1
10
25.9423801269532
20
-2.09289071348775
30
-1E-16
41
1
10
25.1552582399933
20
-1.80054964324509
30
1E-16
41
1
10
24.6326638937671
20
-1.57542201227767
30
1E-16
41
1
10
23.8430895423387
20
-1.20563157019893
30
1E-16
41
1
10
23.5791590795162
20
-1.07667944281852
30
1E-16
41
1
10
23.048164686516
20
-0.809959831713428
30
0
41
1
10
22.7834851084154
20
-0.673506860902023
30
0
41
1
10
21.9932415223826
20
-0.26027110071206
30
0
41
1
10
21.4705439781799
20
0.0220376422165032
30
0
41
1
10
20.6837547787705
20
0.438587982263783
30
0
41
1
10
20.4212623195141
20
0.576722224230622
30
0
41
1
10
20.0259418402005
20
0.780479519725787
30
0
41
1
10
19.8938917023952
20
0.847799955237491
30
-1E-16
41
1
10
19.6290918589885
20
0.98096364684497
30
-1E-16
41
1
10
19.4960767293897
20
1.04693421307044
30
-1E-16
41
1
10
18.8327856383533
20
1.37043861892923
30
-1E-16
41
1
10
18.3081641281412
20
1.60914808883229
30
-1E-16
41
1
10
17.2599618730883
20
2.03030619041741
30
1E-16
41
1
10
16.7362924102584
20
2.21269184801878
30
1E-16
41
1
10
15.9440123812269
20
2.43372322556698
30
1E-16
41
1
10
15.677661205726
20
2.49872348194322
30
1E-16
41
1
10
15.1481881901369
20
2.6080121090138
30
0
41
1
10
14.8847908757169
20
2.65248463320199
30
-1E-16
41
1
10
14.1932631206765
20
2.74226455354113
30
0
41
1
10
13.766198515255
20
2.77030713237642
30
0
41
1
10
13.3380573314579
20
2.77021439452918
30
0
0
SPLINE
5
E0
100
AcDbEntity
8
1
62
256
6
ByLayer
370
18
48
1
60
0
100
AcDbSpline
70
4
71
3
72
22
73
18
40
0
40
0
40
0
40
0
40
0.151357596898243
40
0.151357596898243
40
0.302715193796486
40
0.302715193796486
40
0.45407279069473
40
0.45407279069473
40
0.605430387592973
40
0.605430387592973
40
0.681109186042094
40
0.681109186042094
40
0.756787984491216
40
0.756787984491216
40
0.908145581389459
40
0.908145581389459
40
1
40
1
40
1
40
1
41
1
10
29.9500444853312
20
0.0431519163375071
30
0
41
1
10
29.9351056018311
20
-0.0066898738214718
30
0
41
1
10
29.9181220437257
20
-0.0555106996395693
30
0
41
1
10
29.8800571263951
20
-0.151032862246126
30
0
41
1
10
29.858701239792
20
-0.198175459365757
30
0
41
1
10
29.8140162105142
20
-0.284982985988677
30
0
41
1
10
29.7904525132695
20
-0.325335928405764
30
0
41
1
10
29.7410937237351
20
-0.398446420334409
30
0
41
1
10
29.7165444694026
20
-0.42938243304215
30
0
41
1
10
29.679860536353
20
-0.467259797794384
30
0
41
1
10
29.6675606888139
20
-0.478505571670354
30
0
41
1
10
29.6437248765496
20
-0.497347257850293
30
0
41
1
10
29.6321219447176
20
-0.505034664866201
30
0
41
1
10
29.598134971802
20
-0.523066498946093
30
0
41
1
10
29.576455050929
20
-0.528248315840699
30
0
41
1
10
29.5446604630924
20
-0.525995676608858
30
0
41
1
10
29.5331646793263
20
-0.522732779275117
30
0
41
1
10
29.5222623215958
20
-0.517323637823523
30
0
0
SPLINE
5
E1
100
AcDbEntity
8
1
62
256
6
ByLayer
370
18
48
1
60
0
100
AcDbSpline
70
4
71
3
72
8
73
4
40
0
40
0
40
0
40
0
40
1
40
1
40
1
40
1
41
1
10
29.4833130997814
20
-0.486506425618245
30
0
41
1
10
29.4738110606342
20
-0.475902037240843
30
0
41
1
10
29.4648575808917
20
-0.46341608550236
30
0
41
1
10
29.4563444356605
20
-0.449208437150048
30
0
0
SPLINE
5
E2
100
AcDbEntity
8
1
62
256
6
ByLayer
370
18
48
1
60
0
100
AcDbSpline
70
4
71
3
72
16
73
12
40
0
40
0
40
0
40
0
40
0.499999999999997
40
0.499999999999997
40
0.624999999999998
40
0.624999999999998
40
0.749999999999998
40
0.749999999999998
40
0.874999999999999
40
0.874999999999999
40
1
40
1
40
1
40
1
41
1
10
29.0360783593738
20
-2.66498290424909
30
0
41
1
10
29.1466357625758
20
-2.35076317854632
30
0
41
1
10
29.2562288258224
20
-2.03156580789363
30
0
41
1
10
29.3982104777029
20
-1.63465646009737
30
0
41
1
10
29.4275419828949
20
-1.55579963070605
30
0
41
1
10
29.4887833944817
20
-1.40156430757827
30
0
41
1
10
29.5207213787384
20
-1.32589907611865
30
0
41
1
10
29.5881003268049
20
-1.17785208278764
30
0
41
1
10
29.6236979188013
20
-1.10525434886191
30
0
41
1
10
29.6969331632819
20
-0.967513709015293
30
0
41
1
10
29.7347827919081
20
-0.901798712918236
30
0
41
1
10
29.7739992788808
20
-0.839124598296678
30
0
0
SPLINE
5
E3
100
AcDbEntity
8
1
62
256
6
ByLayer
370
18
48
1
60
0
100
AcDbSpline
70
4
71
3
72
14
73
10
40
0
40
0
40
0
40
0
40
0.269769941968919
40
0.269769941968919
40
0.503914950078192
40
0.503914950078192
40
0.780058702327421
40
0.780058702327421
40
1
40
1
40
1
40
1
41
1
10
28.6873806834107
20
-0.095860544834494
30
0
41
1
10
28.6881096204436
20
-0.0961795877494751
30
0
41
1
10
28.6888205608822
20
-0.0968724258418376
30
0
41
1
10
28.6899981274742
20
-0.0986009252961537
30
0
41
1
10
28.6905008174202
20
-0.0996025098496318
30
0
41
1
10
28.6914357397699
20
-0.102051221015529
30
0
41
1
10
28.6918541329096
20
-0.103583602910618
30
0
41
1
10
28.692369139069
20
-0.106510820428923
30
0
41
1
10
28.692518852126
20
-0.107904444920251
30
0
41
1
10
28.692559743675
20
-0.109297008774803
30
0
0
SPLINE
5
E4
100
AcDbEntity
8
1
62
256
6
ByLayer
370
18
48
1
60
0
100
AcDbSpline
70
4
71
3
72
58
73
54
40
0
40
0
40
0
40
0
40
0.124999999999999
40
0.124999999999999
40
0.187499999999998
40
0.187499999999998
40
0.249999999999998
40
0.249999999999998
40
0.281249999999998
40
0.281249999999998
40
0.312499999999999
40
0.312499999999999
40
0.343749999999999
40
0.343749999999999
40
0.359374999999999
40
0.359374999999999
40
0.374999999999999
40
0.374999999999999
40
0.406249999999999
40
0.406249999999999
40
0.437499999999999
40
0.437499999999999
40
0.453124999999999
40
0.453124999999999
40
0.468749999999999
40
0.468749999999999
40
0.499999999999999
40
0.499999999999999
40
0.531249999999999
40
0.531249999999999
40
0.5625
40
0.5625
40
0.625
40
0.625
40
0.656249999999999
40
0.656249999999999
40
0.671874999999997
40
0.671874999999997
40
0.679687499999996
40
0.679687499999996
40
0.687499999999996
40
0.687499999999996
40
0.695312499999995
40
0.695312499999995
40
0.703124999999994
40
0.703124999999994
40
0.718749999999993
40
0.718749999999993
40
0.749999999999992
40
0.749999999999992
40
0.874999999999996
40
0.874999999999996
40
1
40
1
40
1
40
1
41
1
10
4.23527690270683
20
-2.75217841104859
30
0
41
1
10
3.91612928408352
20
-2.73610384268659
30
0
41
1
10
3.60531720483971
20
-2.70444935581949
30
1E-16
41
1
10
3.15878695273739
20
-2.61758793186814
30
0
41
1
10
3.01319593502683
20
-2.5819688167588
30
0
41
1
10
2.73193574694937
20
-2.49109640271942
30
-1E-16
41
1
10
2.59820638400129
20
-2.43665543055622
30
-1E-16
41
1
10
2.41391849716365
20
-2.33351921090599
30
-1E-16
41
1
10
2.3557190150085
20
-2.29570861470222
30
-1E-16
41
1
10
2.24873779497864
20
-2.21215867404121
30
-1E-16
41
1
10
2.19975491966287
20
-2.16635338265181
30
-1E-16
41
1
10
2.11394874077234
20
-2.06389204853377
30
-1E-16
41
1
10
2.07735381449245
20
-2.00709161245894
30
-1E-16
41
1
10
2.03717315886496
20
-1.91535388525054
30
-1E-16
41
1
10
2.02611737934177
20
-1.88355126136213
30
1E-16
41
1
10
2.00925993748626
20
-1.81720781012029
30
1E-16
41
1
10
2.00352630695207
20
-1.78267818713681
30
1E-16
41
1
10
1.99521046936013
20
-1.67800965938648
30
1E-16
41
1
10
2.00117635437988
20
-1.60577860846709
30
1E-16
41
1
10
2.0363299774267
20
-1.45648950299918
30
1E-16
41
1
10
2.06472425681884
20
-1.38265598922004
30
1E-16
41
1
10
2.12032020466384
20
-1.27328984440507
30
1E-16
41
1
10
2.14113650418011
20
-1.23692205875886
30
1E-16
41
1
10
2.18583565448429
20
-1.16597555739182
30
1E-16
41
1
10
2.20978988736022
20
-1.13122668192446
30
1E-16
41
1
10
2.28576144070851
20
-1.02884761585901
30
1E-16
41
1
10
2.34185315965806
20
-0.963069979451717
30
1E-16
41
1
10
2.46242543605155
20
-0.835384652403292
30
1E-16
41
1
10
2.52666421772759
20
-0.773810013494824
30
0
41
1
10
2.65902126612571
20
-0.656151167978578
30
0
41
1
10
2.72749374588506
20
-0.5997109442811
30
0
41
1
10
2.93832247420508
20
-0.436057497219366
30
0
41
1
10
3.08607544302112
20
-0.334399711621188
30
0
41
1
10
3.3149736433551
20
-0.189919447563796
30
0
41
1
10
3.39221890932313
20
-0.143299217814899
30
0
41
1
10
3.50929501646669
20
-0.0753382819306125
30
0
41
1
10
3.54852250341452
20
-0.0530140859197843
30
0
41
1
10
3.60764564410641
20
-0.0199875644409246
30
0
41
1
10
3.62740144084586
20
-0.0090548478065386
30
0
41
1
10
3.6669988715777
20
0.0126594682229211
30
0
41
1
10
3.68668542593039
20
0.0237313680228226
30
0
41
1
10
3.72678576294911
20
0.0445031114743131
30
0
41
1
10
3.74930262925284
20
0.0488805123686404
30
0
41
1
10
3.79396425057655
20
0.0479082814315746
30
0
41
1
10
3.81574542742092
20
0.0425702497070688
30
0
41
1
10
3.87936742258665
20
0.0226436276022355
30
0
41
1
10
3.92174589302289
20
0.0092468853799232
30
0
41
1
10
4.04856507719623
20
-0.0319269831125268
30
0
41
1
10
4.13277619035128
20
-0.0604208998933302
30
0
41
1
10
4.55192496316684
20
-0.207794267675553
30
0
41
1
10
4.88149403024931
20
-0.341857533738846
30
0
41
1
10
5.52719841294731
20
-0.630420172513908
30
0
41
1
10
5.84395124546927
20
-0.784942271932124
30
0
41
1
10
6.15744418437529
20
-0.942679684697595
30
1E-16
0
SPLINE
5
E5
100
AcDbEntity
8
1
62
256
6
ByLayer
370
18
48
1
60
0
100
AcDbSpline
70
4
71
3
72
30
73
26
40
0
40
0
40
0
40
0
40
0.49905525057744
40
0.49905525057744
40
0.674243103706725
40
0.674243103706725
40
0.788704906329099
40
0.788704906329099
40
0.8634556057657
40
0.8634556057657
40
0.912314521694298
40
0.912314521694298
40
0.944269878382787
40
0.944269878382787
40
0.96517572609711
40
0.96517572609711
40
0.978851649581609
40
0.978851649581609
40
0.987800656629869
40
0.987800656629869
40
0.993658745845979
40
0.993658745845979
40
0.997494761921629
40
0.997494761921629
40
1
40
1
40
1
40
1
41
1
10
28.8637911223084
20
2.7795135206747
30
0
41
1
10
28.8916033727483
20
2.76132464728789
30
0
41
1
10
28.9194603312822
20
2.74295579266268
30
0
41
1
10
28.9571537930782
20
2.7179061361766
30
0
41
1
10
28.9669532977933
20
2.71137603012039
30
0
41
1
10
28.9831642487124
20
2.70054469888956
30
0
41
1
10
28.9895726894908
20
2.6962554674692
30
0
41
1
10
29.000169994493
20
2.68915042783823
30
0
41
1
10
29.0043575675941
20
2.68633970283861
30
0
41
1
10
29.0112838448912
20
2.68168559371577
30
0
41
1
10
29.0140219973188
20
2.67984436338878
30
0
41
1
10
29.0185516802144
20
2.67679625545873
30
0
41
1
10
29.0203428350793
20
2.67559038812905
30
0
41
1
10
29.0233068268594
20
2.67359399173262
30
0
41
1
10
29.0244793598781
20
2.67280399040874
30
0
41
1
10
29.0264199141768
20
2.67149613415691
30
0
41
1
10
29.0271875941726
20
2.670978646121
30
0
41
1
10
29.0284581632612
20
2.6701219966269
30
0
41
1
10
29.0289608631106
20
2.66978302054812
30
0
41
1
10
29.0297929029093
20
2.6692218960452
30
0
41
1
10
29.0301221501512
20
2.66899983460837
30
0
41
1
10
29.0306671195676
20
2.66863224881712
30
0
41
1
10
29.0308839440194
20
2.66848599738179
30
0
41
1
10
29.031236290524
20
2.66824829752912
30
0
41
1
10
29.0313738162623
20
2.66815550786723
30
0
41
1
10
29.0315031553811
20
2.66806821156376
30
0
0
SPLINE
5
E6
100
AcDbEntity
8
1
62
256
6
ByLayer
370
18
48
1
60
0
100
AcDbSpline
70
4
71
3
72
8
73
4
40
0
40
0
40
0
40
0
40
1
40
1
40
1
40
1
41
1
10
3.55513442756103
20
0.83831416303633
30
-1E-16
41
1
10
3.52297496255366
20
0.854584845432129
30
-1E-16
41
1
10
3.50204266083551
20
0.887703542883173
30
-1E-16
41
1
10
3.50204266083557
20
0.922032086482716
30
-1E-16
0
SPLINE
5
E7
100
AcDbEntity
8
1
62
256
6
ByLayer
370
18
48
1
60
0
100
AcDbSpline
70
4
71
3
72
18
73
14
40
0
40
0
40
0
40
0
40
0.269331116751605
40
0.269331116751605
40
0.538662233503211
40
0.538662233503211
40
0.673327791879026
40
0.673327791879026
40
0.807993350254842
40
0.807993350254842
40
0.942658908630658
40
0.942658908630658
40
1
40
1
40
1
40
1
41
1
10
28.8581250722197
20
0.461641624894156
30
0
41
1
10
28.8213830771447
20
0.494184648670341
30
0
41
1
10
28.7860318042654
20
0.52471796102995
30
0
41
1
10
28.718584024636
20
0.581081172897996
30
0
41
1
10
28.6857356020575
20
0.607918119825001
30
0
41
1
10
28.641309838286
20
0.642124005761787
30
0
41
1
10
28.6272719994172
20
0.652545895701849
30
0
41
1
10
28.601030848163
20
0.671056921361043
30
0
41
1
10
28.5889636237339
20
0.678973009835175
30
0
41
1
10
28.5661354031283
20
0.693144208052701
30
0
41
1
10
28.5551069239554
20
0.699775490485678
30
0
41
1
10
28.5416823703506
20
0.706578359030857
30
0
41
1
10
28.5379523775943
20
0.708287378785684
30
0
41
1
10
28.5345299353667
20
0.709640957553319
30
0
0
SPLINE
5
E8
100
AcDbEntity
8
1
62
256
6
ByLayer
370
18
48
1
60
0
100
AcDbSpline
70
4
71
3
72
8
73
4
40
0
40
0
40
0
40
0
40
1
40
1
40
1
40
1
41
1
10
28.8524580993515
20
2.74449170787543
30
0
41
1
10
28.856727030833
20
2.76540267319842
30
0
41
1
10
28.8604586776544
20
2.77723781566942
30
0
41
1
10
28.8637911223084
20
2.77951352067467
30
0
0
SPLINE
5
E9
100
AcDbEntity
8
1
62
256
6
ByLayer
370
18
48
1
60
0
100
AcDbSpline
70
4
71
3
72
14
73
10
40
0
40
0
40
0
40
0
40
0.250893863930276
40
0.250893863930276
40
0.501787727860552
40
0.501787727860552
40
0.752681591790828
40
0.752681591790828
40
1
40
1
40
1
40
1
41
1
10
29.0315031553809
20
2.66806821157132
30
0
41
1
10
28.6996994485678
20
2.67115229910158
30
0
41
1
10
28.3684623285927
20
2.65807682303063
30
0
41
1
10
27.7046469519871
20
2.59960219106341
30
0
41
1
10
27.372720581449
20
2.55426955544172
30
0
41
1
10
26.7089271116402
20
2.43329687576775
30
1E-16
41
1
10
26.3771471021881
20
2.35767270387134
30
1E-16
41
1
10
25.7195191987739
20
2.18067631170811
30
1E-16
41
1
10
25.3930870739664
20
2.07947739176888
30
1E-16
41
1
10
25.0660261397517
20
1.96610226137165
30
1E-16
0
SPLINE
5
EA
100
AcDbEntity
8
1
62
256
6
ByLayer
370
18
48
1
60
0
100
AcDbSpline
70
4
71
3
72
30
73
26
40
0
40
0
40
0
40
0
40
0.0860911580173579
40
0.0860911580173579
40
0.179872635233043
40
0.179872635233043
40
0.226763373840884
40
0.226763373840884
40
0.273654112448726
40
0.273654112448726
40
0.367435589664409
40
0.367435589664409
40
0.461217066880092
40
0.461217066880092
40
0.554998544095776
40
0.554998544095776
40
0.648780021311459
40
0.648780021311459
40
0.742561498527142
40
0.742561498527142
40
0.836342975742823
40
0.836342975742823
40
0.930124452958504
40
0.930124452958504
40
1
40
1
40
1
40
1
41
1
10
20.1452693135528
20
2.64252974608897
30
0
41
1
10
20.3829984694731
20
2.64695322497425
30
0
41
1
10
20.6203250225114
20
2.64414313615364
30
0
41
1
10
21.1178357437206
20
2.61828208804448
30
0
41
1
10
21.3780535980131
20
2.59416223580501
30
0
41
1
10
21.7694055865973
20
2.54432979339737
30
0
41
1
10
21.8999734920171
20
2.52553927831275
30
0
41
1
10
22.1617308299394
20
2.48320523648178
30
0
41
1
10
22.2931465272852
20
2.45947091043004
30
0
41
1
10
22.6866755505501
20
2.3809694085391
30
1E-16
41
1
10
22.9486047062969
20
2.31918855540673
30
1E-16
41
1
10
23.4720940230053
20
2.17916721139144
30
1E-16
41
1
10
23.7335302585558
20
2.10104187148565
30
1E-16
41
1
10
24.2583603192259
20
1.92808378562586
30
1E-16
41
1
10
24.5208962725996
20
1.83381604245497
30
1E-16
41
1
10
25.0423823317427
20
1.63358871149583
30
-1E-16
41
1
10
25.3019136177927
20
1.52740619789768
30
-1E-16
41
1
10
25.8207109065472
20
1.3046675422805
30
-1E-16
41
1
10
26.079822577645
20
1.18826604541636
30
-1E-16
41
1
10
26.5979369652263
20
0.947161462379796
30
-1E-16
41
1
10
26.8567490773347
20
0.82230019987108
30
-1E-16
41
1
10
27.3768471519975
20
0.567176567373934
30
0
41
1
10
27.637923124941
20
0.436852583895614
30
0
41
1
10
28.0955848098202
20
0.205959767783156
30
0
41
1
10
28.29131355494
20
0.106431526196872
30
0
41
1
10
28.4868198826904
20
0.0066346561483215
30
0
0
SPLINE
5
EB
100
AcDbEntity
8
1
62
256
6
ByLayer
370
18
48
1
60
0
100
AcDbSpline
70
4
71
3
72
8
73
4
40
0
40
0
40
0
40
0
40
1
40
1
40
1
40
1
41
1
10
28.6229281916257
20
-0.0659899803426072
30
0
41
1
10
28.6175530494506
20
0.0644715367589583
30
0
41
1
10
28.6164823325233
20
0.194423366962269
30
0
41
1
10
28.6212065926748
20
0.323861303961138
30
0
0
SPLINE
5
EC
100
AcDbEntity
8
1
62
256
6
ByLayer
370
18
48
1
60
0
100
AcDbSpline
70
2053
71
3
72
50
73
46
40
0
40
0
40
0
40
0
40
0.0625
40
0.0625
40
0.125
40
0.125
40
0.1875
40
0.1875
40
0.25
40
0.25
40
0.28125
40
0.28125
40
0.3125
40
0.3125
40
0.34375
40
0.34375
40
0.375
40
0.375
40
0.40625
40
0.40625
40
0.4375
40
0.4375
40
0.500000000000001
40
0.500000000000001
40
0.562500000000001
40
0.562500000000001
40
0.625000000000001
40
0.625000000000001
40
0.656250000000001
40
0.656250000000001
40
0.687500000000001
40
0.687500000000001
40
0.718750000000001
40
0.718750000000001
40
0.750000000000001
40
0.750000000000001
40
0.781250000000001
40
0.781250000000001
40
0.812500000000001
40
0.812500000000001
40
0.875
40
0.875
40
0.9375
40
0.9375
40
1
40
1
40
1
40
1
41
1
10
29.302676124002
20
-1.11202111456338
30
0
41
1
10
29.2813556157528
20
-1.13739040576294
30
0
41
1
10
29.2614209522154
20
-1.15405758738768
30
0
41
1
10
29.2234727923894
20
-1.17050078437438
30
1E-16
41
1
10
29.2064632585672
20
-1.16980990792601
30
1E-16
41
1
10
29.1754856045956
20
-1.15003075776124
30
1E-16
41
1
10
29.162327827865
20
-1.13147265453409
30
1E-16
41
1
10
29.1402844796534
20
-1.07584002770793
30
1E-16
41
1
10
29.1319893384194
20
-1.04031820569295
30
1E-16
41
1
10
29.1242766513544
20
-0.974581064602262
30
1E-16
41
1
10
29.1226160908501
20
-0.951356725561965
30
1E-16
41
1
10
29.1212373948157
20
-0.902248618596985
30
1E-16
41
1
10
29.1215397535466
20
-0.875990578599414
30
1E-16
41
1
10
29.1244502689939
20
-0.822311353722142
30
1E-16
41
1
10
29.1270112157635
20
-0.795192242703081
30
0
41
1
10
29.1346119625707
20
-0.740402202100597
30
0
41
1
10
29.1396983361142
20
-0.71275855288863
30
0
41
1
10
29.1520235856616
20
-0.660163514308039
30
0
41
1
10
29.1594243087152
20
-0.634487400745485
30
0
41
1
10
29.1760970109148
20
-0.586704329540623
30
0
41
1
10
29.1852967526732
20
-0.564669164138394
30
0
41
1
10
29.2154095577085
20
-0.503746058564076
30
0
41
1
10
29.2381334678665
20
-0.471690632464117
30
0
41
1
10
29.2848518993155
20
-0.425238279802443
30
0
41
1
10
29.308983164307
20
-0.410653867463878
30
0
41
1
10
29.3551405238003
20
-0.398016184371613
30
0
41
1
10
29.3775906188991
20
-0.399868750565901
30
0
41
1
10
29.407500857105
20
-0.414641786899466
30
0
41
1
10
29.4168621493722
20
-0.421533303067008
30
0
41
1
10
29.4341850390182
20
-0.439511215567222
30
0
41
1
10
29.4421994834532
20
-0.45073452686978
30
0
41
1
10
29.4559985404759
20
-0.47710031869363
30
0
41
1
10
29.461851802439
20
-0.492257683622881
30
0
41
1
10
29.4711532999614
20
-0.527036544262103
30
0
41
1
10
29.474548119145
20
-0.546659745130256
30
0
41
1
10
29.4782918660189
20
-0.589107461547627
30
0
41
1
10
29.4786804408656
20
-0.612459650784388
30
0
41
1
10
29.4762325836322
20
-0.661595636142266
30
0
41
1
10
29.4734558976677
20
-0.687118054033306
30
0
41
1
10
29.4605334150389
20
-0.766696260926267
30
0
41
1
10
29.4457953668664
20
-0.822217347991511
30
1E-16
41
1
10
29.4100388758792
20
-0.924800211349748
30
-1E-16
41
1
10
29.389030682236
20
-0.972329753808253
30
-1E-16
41
1
10
29.346072757646
20
-1.05307424486509
30
0
41
1
10
29.3239966322512
20
-1.08665182336381
30
0
41
1
10
29.302676124002
20
-1.11202111456338
30
0
0
SPLINE
5
ED
100
AcDbEntity
8
1
62
256
6
ByLayer
370
18
48
1
60
0
100
AcDbSpline
70
4
71
3
72
10
73
6
40
0
40
0
40
0
40
0
40
0.5
40
0.5
40
1
40
1
40
1
40
1
41
1
10
3.50204266083571
20
2.76285264806722
30
0
41
1
10
3.50204266083571
20
2.76182205905695
30
0
41
1
10
3.52102081053099
20
2.76006305253395
30
0
41
1
10
3.58044835027565
20
2.75794385539817
30
0
41
1
10
3.61882314049382
20
2.7578974528362
30
0
41
1
10
3.64941011628937
20
2.75892838398295
30
0
0
SPLINE
5
EE
100
AcDbEntity
8
1
62
256
6
ByLayer
370
18
48
1
60
0
100
AcDbSpline
70
4
71
3
72
30
73
26
40
0
40
0
40
0
40
0
40
0.0932400863046176
40
0.0932400863046176
40
0.186480172609235
40
0.186480172609235
40
0.279720258913852
40
0.279720258913852
40
0.372960345218472
40
0.372960345218472
40
0.466200431523091
40
0.466200431523091
40
0.55944051782771
40
0.55944051782771
40
0.65268060413233
40
0.65268060413233
40
0.745920690436949
40
0.745920690436949
40
0.792540733589258
40
0.792540733589258
40
0.839160776741567
40
0.839160776741567
40
0.932400863046183
40
0.932400863046183
40
1
40
1
40
1
40
1
41
1
10
28.6925597436737
20
-0.109297008774092
30
0
41
1
10
28.4303654847386
20
0.0243044838715036
30
0
41
1
10
28.1674631338766
20
0.157872397312644
30
0
41
1
10
27.6427078800297
20
0.421772281935802
30
0
41
1
10
27.3815096440675
20
0.551789144689877
30
0
41
1
10
26.8611648821975
20
0.806426620624279
30
0
41
1
10
26.6022312898038
20
0.931098789783022
30
-1E-16
41
1
10
26.0838955771335
20
1.17192431336144
30
-1E-16
41
1
10
25.8246778251257
20
1.28823603018978
30
-1E-16
41
1
10
25.3056831657922
20
1.51092203015634
30
-1E-16
41
1
10
25.0460609379804
20
1.6171375547865
30
-1E-16
41
1
10
24.5244187195922
20
1.81751186425285
30
1E-16
41
1
10
24.2618376187709
20
1.91189869840011
30
1E-16
41
1
10
23.7367995695846
20
2.08526743203782
30
1E-16
41
1
10
23.4752616498723
20
2.16365543959813
30
1E-16
41
1
10
22.9515880796885
20
2.30427031411742
30
1E-16
41
1
10
22.689571726072
20
2.36640063154527
30
1E-16
41
1
10
22.2959228733499
20
2.44551550016311
30
0
41
1
10
22.1644592591135
20
2.46947751328784
30
0
41
1
10
21.9025833037019
20
2.51226843046257
30
0
41
1
10
21.7719583325898
20
2.53128367700319
30
0
41
1
10
21.3804356434013
20
2.58183447796705
30
0
41
1
10
21.1201025372931
20
2.60648573304775
30
0
41
1
10
20.6724517918141
20
2.63073595746698
30
0
41
1
10
20.4848040026029
20
2.63497654415744
30
0
41
1
10
20.2970657690707
20
2.63440360452142
30
0
0
SPLINE
5
EF
100
AcDbEntity
8
1
62
256
6
ByLayer
370
18
48
1
60
0
100
AcDbSpline
70
4
71
3
72
8
73
4
40
0
40
0
40
0
40
0
40
1
40
1
40
1
40
1
41
1
10
28.6229281916257
20
-0.0659899803426072
30
0
41
1
10
28.6445225036388
20
-0.076549895586453
30
0
41
1
10
28.6659986096095
20
-0.0865019873117205
30
0
41
1
10
28.6873806834107
20
-0.095860544834494
30
0
0
SPLINE
5
F0
100
AcDbEntity
8
1
62
256
6
ByLayer
370
18
48
1
60
0
100
AcDbSpline
70
4
71
3
72
34
73
30
40
0
40
0
40
0
40
0
40
0.0385875893436448
40
0.0385875893436448
40
0.125988717585133
40
0.125988717585133
40
0.169689281705877
40
0.169689281705877
40
0.213389845826621
40
0.213389845826621
40
0.300790974068109
40
0.300790974068109
40
0.344491538188853
40
0.344491538188853
40
0.388192102309597
40
0.388192102309597
40
0.475593230551083
40
0.475593230551083
40
0.562994358792569
40
0.562994358792569
40
0.606694922913312
40
0.606694922913312
40
0.650395487034055
40
0.650395487034055
40
0.737796615275542
40
0.737796615275542
40
0.825197743517028
40
0.825197743517028
40
1
40
1
40
1
40
1
41
1
10
12.589774802213
20
-0.235924199287297
30
0
41
1
10
12.4752249595295
20
-0.178503730039893
30
0
41
1
10
12.3606557546304
20
-0.120844880350518
30
0
41
1
10
11.9865332992133
20
0.0682974177254039
30
0
41
1
10
11.7266696267756
20
0.200276955845595
30
0
41
1
10
11.335187214792
20
0.396907625973597
30
0
41
1
10
11.2044440938095
20
0.462309270598183
30
0
41
1
10
10.9421923539274
20
0.592163338093826
30
0
41
1
10
10.8104921768272
20
0.656719724828946
30
0
41
1
10
10.4167724577865
20
0.847586162268215
30
-1E-16
41
1
10
10.1554817296292
20
0.971437778747088
30
-1E-16
41
1
10
9.76557486925842
20
1.15082280531701
30
-1E-16
41
1
10
9.63594539466436
20
1.20954072534266
30
-1E-16
41
1
10
9.3766641656149
20
1.32442372867462
30
-1E-16
41
1
10
9.24701223150191
20
1.38058670619739
30
-1E-16
41
1
10
8.85804475955655
20
1.54507803401779
30
-1E-16
41
1
10
8.59872207098704
20
1.64942498149026
30
-1E-16
41
1
10
8.08001118695782
20
1.84495376030353
30
1E-16
41
1
10
7.82044346371839
20
1.93621729227286
30
1E-16
41
1
10
7.42914406393231
20
2.06257357046053
30
1E-16
41
1
10
7.29845381824563
20
2.10290715745083
30
1E-16
41
1
10
7.03643772104095
20
2.17970325590179
30
1E-16
41
1
10
6.90487961613721
20
2.21622442221314
30
1E-16
41
1
10
6.51092191446656
20
2.31903306254665
30
1E-16
41
1
10
6.24966754079321
20
2.37848358617043
30
1E-16
41
1
10
5.72857756023302
20
2.47833002685366
30
0
41
1
10
5.46861915440579
20
2.51892148237945
30
0
41
1
10
4.68774407495695
20
2.61430238156191
30
0
41
1
10
4.16714324133062
20
2.64071599935542
30
0
41
1
10
3.64317987819115
20
2.62161014991591
30
0
0
SPLINE
5
F1
100
AcDbEntity
8
1
62
256
6
ByLayer
370
18
48
1
60
0
100
AcDbSpline
70
4
71
3
72
48
73
44
40
0
40
0
40
0
40
0
40
0.0936307427626556
40
0.0936307427626556
40
0.140446114143983
40
0.140446114143983
40
0.187261485525311
40
0.187261485525311
40
0.234076856906639
40
0.234076856906639
40
0.280892228287967
40
0.280892228287967
40
0.327707599669295
40
0.327707599669295
40
0.351115285359959
40
0.351115285359959
40
0.374522971050623
40
0.374522971050623
40
0.421338342431952
40
0.421338342431952
40
0.468153713813281
40
0.468153713813281
40
0.514969085194609
40
0.514969085194609
40
0.561784456575938
40
0.561784456575938
40
0.608599827957267
40
0.608599827957267
40
0.655415199338596
40
0.655415199338596
40
0.702230570719924
40
0.702230570719924
40
0.749045942101253
40
0.749045942101253
40
0.795861313482582
40
0.795861313482582
40
0.84267668486391
40
0.84267668486391
40
0.936307427626569
40
0.936307427626569
40
0.983122799007898
40
0.983122799007898
40
1
40
1
40
1
40
1
41
1
10
3.64941011628937
20
2.75892838398295
30
0
41
1
10
4.17257885454271
20
2.77656173717466
30
0
41
1
10
4.69517252108147
20
2.75146231618834
30
0
41
1
10
5.4817917242832
20
2.65281906811455
30
-1E-16
41
1
10
5.74443304829401
20
2.60933822735933
30
0
41
1
10
6.26601138669662
20
2.50359056237232
30
1E-16
41
1
10
6.525783805488
20
2.44135523699853
30
1E-16
41
1
10
7.04458579935007
20
2.29979273861477
30
1E-16
41
1
10
7.30358763923272
20
2.22045347219358
30
1E-16
41
1
10
7.82161978130856
20
2.04564239263686
30
1E-16
41
1
10
8.08028367011735
20
1.94964689388939
30
1E-16
41
1
10
8.59971943534509
20
1.74395743680975
30
-1E-16
41
1
10
8.86063312488363
20
1.6345862107359
30
-1E-16
41
1
10
9.25368443289369
20
1.46034168406328
30
-1E-16
41
1
10
9.38510297172439
20
1.4005091827336
30
-1E-16
41
1
10
9.64654385020054
20
1.27840188923065
30
-1E-16
41
1
10
9.77682506066276
20
1.21605015874283
30
-1E-16
41
1
10
10.1673543741646
20
1.02692077764814
30
-1E-16
41
1
10
10.4271728114491
20
0.897883419609343
30
-1E-16
41
1
10
10.9456650520605
20
0.63388277156659
30
0
41
1
10
11.2042035683031
20
0.498650940060202
30
0
41
1
10
11.7216927911763
20
0.225116649039563
30
0
41
1
10
11.980624545697
20
0.0867796167459858
30
0
41
1
10
12.5005138731754
20
-0.189868517891654
30
0
41
1
10
12.7617562951473
20
-0.327602414678438
30
0
41
1
10
13.2866117264443
20
-0.602426591981754
30
0
41
1
10
13.5475934137041
20
-0.738615494436516
30
0
41
1
10
14.0675859299611
20
-1.00209363048319
30
1E-16
41
1
10
14.3271415924333
20
-1.12920914880496
30
1E-16
41
1
10
14.8450932625282
20
-1.37493938612533
30
1E-16
41
1
10
15.1034363926137
20
-1.49358161209233
30
1E-16
41
1
10
15.6211134134366
20
-1.71864084356335
30
1E-16
41
1
10
15.8806621865394
20
-1.82477956083127
30
1E-16
41
1
10
16.4010645017352
20
-2.0243287124338
30
-1E-16
41
1
10
16.6623235258157
20
-2.11795360670351
30
-1E-16
41
1
10
17.1865248631172
20
-2.28790888206379
30
-1E-16
41
1
10
17.4475346383436
20
-2.36358066312886
30
-1E-16
41
1
10
18.2273604146509
20
-2.56364209632912
30
-1E-16
41
1
10
18.7428950438531
20
-2.66051717524175
30
1E-16
41
1
10
19.520111562628
20
-2.74462191754219
30
0
41
1
10
19.7798780652024
20
-2.76259633381321
30
0
41
1
10
20.1342086107036
20
-2.77308268143344
30
0
41
1
10
20.2281671560791
20
-2.77451809440447
30
0
41
1
10
20.3222707654288
20
-2.77458178160416
30
0
0
SPLINE
5
F2
100
AcDbEntity
8
1
62
256
6
ByLayer
370
18
48
1
60
0
100
AcDbSpline
70
4
71
3
72
8
73
4
40
0
40
0
40
0
40
0
40
1
40
1
40
1
40
1
41
1
10
29.0315031553809
20
2.66806821156226
30
0
41
1
10
29.0330282010332
20
2.66703989404769
30
0
41
1
10
29.0345532689769
20
2.66601145825695
30
0
41
1
10
29.0360783593739
20
2.66498290424909
30
0
0
SPLINE
5
F3
100
AcDbEntity
8
1
62
256
6
ByLayer
370
18
48
1
60
0
100
AcDbSpline
70
4
71
3
72
22
73
18
40
0
40
0
40
0
40
0
40
0.0070433035319017
40
0.0070433035319017
40
0.131162890590414
40
0.131162890590414
40
0.255282477648926
40
0.255282477648926
40
0.379402064707439
40
0.379402064707439
40
0.503521651765951
40
0.503521651765951
40
0.627641238824463
40
0.627641238824463
40
0.751760825882976
40
0.751760825882976
40
1
40
1
40
1
40
1
41
1
10
21.1324042214872
20
-0.191047536746595
30
0
41
1
10
21.1136150052307
20
-0.181435197917296
30
0
41
1
10
21.09482705994
20
-0.171819770822793
30
0
41
1
10
20.7449758970951
20
0.0072884567302935
30
0
41
1
10
20.4132212601151
20
0.178081457105662
30
0
41
1
10
19.7502962174257
20
0.515113143423349
30
0
41
1
10
19.4195305174414
20
0.68116421475392
30
0
41
1
10
18.7568547105397
20
1.00356086149554
30
-1E-16
41
1
10
18.4248756252346
20
1.1599588415701
30
-1E-16
41
1
10
17.7626668383965
20
1.4559503415218
30
-1E-16
41
1
10
17.431604097197
20
1.59593695150977
30
-1E-16
41
1
10
16.7680631664533
20
1.85533880057662
30
1E-16
41
1
10
16.4371980259458
20
1.97418246728338
30
1E-16
41
1
10
15.7748389876004
20
2.18698546299311
30
1E-16
41
1
10
15.4429154361264
20
2.28089718265389
30
1E-16
41
1
10
14.4472697112346
20
2.51913620762895
30
0
41
1
10
13.7834940513642
20
2.61966084468671
30
0
41
1
10
13.1199999999995
20
2.654287411995
30
0
0
SPLINE
5
F4
100
AcDbEntity
8
1
62
256
6
ByLayer
370
18
48
1
60
0
100
AcDbSpline
70
4
71
3
72
26
73
22
40
0
40
0
40
0
40
0
40
0.0710643655723412
40
0.0710643655723412
40
0.203769456204864
40
0.203769456204864
40
0.336474546837387
40
0.336474546837387
40
0.402827092153648
40
0.402827092153648
40
0.46917963746991
40
0.46917963746991
40
0.601884728102432
40
0.601884728102432
40
0.668237273418693
40
0.668237273418693
40
0.734589818734955
40
0.734589818734955
40
0.867294909367477
40
0.867294909367477
40
1
40
1
40
1
40
1
41
1
10
3.6027297816587
20
2.62546769503859
30
0
41
1
10
3.60272234850123
20
2.62424140899816
30
0
41
1
10
3.6027143332235
20
2.6195262310433
30
0
41
1
10
3.60269005012176
20
2.59620173451245
30
0
41
1
10
3.60267262005283
20
2.56923750930076
30
0
41
1
10
3.60263497322904
20
2.49183695329737
30
0
41
1
10
3.6026145962492
20
2.44086502130529
30
0
41
1
10
3.60258273487278
20
2.34828639539151
30
1E-16
41
1
10
3.60257187732503
20
2.31472379787547
30
1E-16
41
1
10
3.60254965344251
20
2.24218349744203
30
1E-16
41
1
10
3.60253824309717
20
2.20304507721406
30
1E-16
41
1
10
3.60250349563583
20
2.07860687175471
30
1E-16
41
1
10
3.60247973624314
20
1.9866901765817
30
1E-16
41
1
10
3.60244269558279
20
1.83579537306795
30
1E-16
41
1
10
3.60243011202579
20
1.78331568604173
30
-1E-16
41
1
10
3.60240434515416
20
1.67392669992194
30
-1E-16
41
1
10
3.60239110704373
20
1.61677673578782
30
-1E-16
41
1
10
3.60235065543731
20
1.44020077427896
30
-1E-16
41
1
10
3.60232295423094
20
1.31677824953468
30
-1E-16
41
1
10
3.60226497027597
20
1.05890693673015
30
-1E-16
41
1
10
3.60223463392026
20
0.924200684899176
30
-1E-16
41
1
10
3.60220244125
20
0.784253798372333
30
0
0
SPLINE
5
F5
100
AcDbEntity
8
1
62
256
6
ByLayer
370
18
48
1
60
0
100
AcDbSpline
70
4
71
3
72
8
73
4
40
0
40
0
40
0
40
0
40
1
40
1
40
1
40
1
41
1
10
29.7739992788808
20
-0.839124598296621
30
0
41
1
10
29.8497373879325
20
-0.625831991076041
30
0
41
1
10
29.923729770856
20
-0.411911412531936
30
0
41
1
10
29.9959536182348
20
-0.197354657677664
30
0
0
SPLINE
5
F6
100
AcDbEntity
8
1
62
256
6
ByLayer
370
18
48
1
60
0
100
AcDbSpline
70
4
71
3
72
10
73
6
40
0
40
0
40
0
40
0
40
0.5
40
0.5
40
1
40
1
40
1
40
1
41
1
10
29.0360783593739
20
-2.664982904249
30
0
41
1
10
29.0252954372746
20
-2.67237135401689
30
0
41
1
10
29.0159051737746
20
-2.67617643822766
30
0
41
1
10
28.9996848712206
20
-2.67663879040325
30
0
41
1
10
28.9928105963465
20
-2.6733420703865
30
0
41
1
10
28.9868031325321
20
-2.66674335223721
30
0
0
SPLINE
5
F7
100
AcDbEntity
8
1
62
256
6
ByLayer
370
18
48
1
60
0
100
AcDbSpline
70
4
71
3
72
38
73
34
40
0
40
0
40
0
40
0
40
0.0624999999999997
40
0.0624999999999997
40
0.124999999999999
40
0.124999999999999
40
0.187499999999999
40
0.187499999999999
40
0.249999999999999
40
0.249999999999999
40
0.312499999999998
40
0.312499999999998
40
0.374999999999998
40
0.374999999999998
40
0.437499999999998
40
0.437499999999998
40
0.499999999999997
40
0.499999999999997
40
0.562499999999997
40
0.562499999999997
40
0.624999999999997
40
0.624999999999997
40
0.687499999999996
40
0.687499999999996
40
0.749999999999996
40
0.749999999999996
40
0.812499999999996
40
0.812499999999996
40
0.843749999999996
40
0.843749999999996
40
0.874999999999996
40
0.874999999999996
40
1
40
1
40
1
40
1
41
1
10
13.12
20
2.75634216221425
30
0
41
1
10
13.4487760738671
20
2.73913113747679
30
0
41
1
10
13.7777367901774
20
2.7053220319311
30
-1E-16
41
1
10
14.4346510115182
20
2.60600160252602
30
0
41
1
10
14.7622242707352
20
2.54059744450419
30
1E-16
41
1
10
15.4181945022441
20
2.38025733769774
30
1E-16
41
1
10
15.747380103907
20
2.2850537634348
30
1E-16
41
1
10
16.4037965832567
20
2.06903427363554
30
1E-16
41
1
10
16.7312745898077
20
1.94820376676177
30
1E-16
41
1
10
17.3874013325084
20
1.68430230903724
30
-1E-16
41
1
10
17.7165514128096
20
1.54098069666839
30
-1E-16
41
1
10
18.3725366329853
20
1.23877940290026
30
-1E-16
41
1
10
18.7000336226732
20
1.07961450157688
30
-1E-16
41
1
10
19.3565566935513
20
0.749426459342629
30
0
41
1
10
19.6854867093816
20
0.578452783760412
30
0
41
1
10
20.3411474448225
20
0.232765812147676
30
0
41
1
10
20.6686594546696
20
0.057628004432587
30
0
41
1
10
21.3256132974475
20
-0.292422226588371
30
0
41
1
10
21.6540457203157
20
-0.466755371379179
30
0
41
1
10
22.3095405896811
20
-0.807037562268164
30
0
41
1
10
22.6372023217568
20
-0.97329612557624
30
1E-16
41
1
10
23.2947948340367
20
-1.29359530961955
30
1E-16
41
1
10
23.6224496785354
20
-1.44657021157701
30
1E-16
41
1
10
24.2777112917489
20
-1.7336669978441
30
1E-16
41
1
10
24.6059141723238
20
-1.86799051095258
30
1E-16
41
1
10
25.2629050515117
20
-2.11280599406109
30
-1E-16
41
1
10
25.5904322175603
20
-2.22287429348631
30
-1E-16
41
1
10
26.0820873678386
20
-2.36748317856294
30
-1E-16
41
1
10
26.246033825139
20
-2.41226890052985
30
-1E-16
41
1
10
26.5743686912959
20
-2.49465664075976
30
-1E-16
41
1
10
26.7388900778867
20
-2.53227576246593
30
-1E-16
41
1
10
27.5586439178768
20
-2.70065267028153
30
1E-16
41
1
10
28.2089100103969
20
-2.77311448423489
30
0
41
1
10
28.8637911223083
20
-2.77951352067467
30
0
0
SPLINE
5
F8
100
AcDbEntity
8
SK1
62
256
6
ByLayer
370
18
48
1
60
0
100
AcDbSpline
70
4
71
3
72
12
73
8
40
0
40
0
40
0
40
0
40
0.25
40
0.25
40
0.500000000000001
40
0.500000000000001
40
1
40
1
40
1
40
1
41
1
10
-35.65
20
-1.01938354297974
30
1E-16
41
1
10
-35.65
20
-1.0034483605522
30
1E-16
41
1
10
-35.6543403470552
20
-0.985846426007981
30
1E-16
41
1
10
-35.6670034572333
20
-0.953186153044584
30
1E-16
41
1
10
-35.6754069618006
20
-0.937633102450491
30
1E-16
41
1
10
-35.7033744297257
20
-0.89521208115525
30
1E-16
41
1
10
-35.7260009806424
20
-0.871635475631933
30
1E-16
41
1
10
-35.7500000000001
20
-0.855133454611632
30
1E-16
0
SPLINE
5
F9
100
AcDbEntity
8
SK1
62
256
6
ByLayer
370
18
48
1
60
0
100
AcDbSpline
70
4
71
3
72
8
73
4
40
0
40
0
40
0
40
0
40
1
40
1
40
1
40
1
41
1
10
-36.0000000000001
20
-0.456863472708676
30
0
41
1
10
-35.9478735570756
20
-0.563818998092955
30
0
41
1
10
-35.897619057052
20
-0.672962170242272
30
0
41
1
10
-35.8509618943233
20
-0.78552418445895
30
0
0
SPLINE
5
FA
100
AcDbEntity
8
SK1
62
256
6
ByLayer
370
18
48
1
60
0
100
AcDbSpline
70
4
71
3
72
8
73
4
40
0
40
0
40
0
40
0
40
1
40
1
40
1
40
1
41
1
10
-35.75
20
-0.855133454611661
30
1E-16
41
1
10
-35.783701995084
20
-0.831959548086019
30
1E-16
41
1
10
-35.8173582796213
20
-0.808757867537992
30
0
41
1
10
-35.8509618943233
20
-0.78552418445895
30
0
0
SPLINE
5
FB
100
AcDbEntity
8
SK1
62
256
6
ByLayer
370
18
48
1
60
0
100
AcDbSpline
70
4
71
3
72
10
73
6
40
0
40
0
40
0
40
0
40
0.5
40
0.5
40
1
40
1
40
1
40
1
41
1
10
-35.8509618943233
20
-1.92474939973519
30
-1E-16
41
1
10
-35.8741904300927
20
-1.92982235980887
30
-1E-16
41
1
10
-35.8986222732874
20
-1.93164653285655
30
0
41
1
10
-35.9485161922248
20
-1.92967445149043
30
0
41
1
10
-35.974056478015
20
-1.92590777855045
30
0
41
1
10
-35.9999999999999
20
-1.91973196046641
30
0
0
SPLINE
5
FC
100
AcDbEntity
8
SK1
62
256
6
ByLayer
370
18
48
1
60
0
100
AcDbSpline
70
4
71
3
72
8
73
4
40
0
40
0
40
0
40
0
40
1
40
1
40
1
40
1
41
1
10
-35.8509618943233
20
-1.92474939973519
30
-1E-16
41
1
10
-35.8173603415982
20
-1.94798165715463
30
-1E-16
41
1
10
-35.7837033176817
20
-1.97118385392781
30
-1E-16
41
1
10
-35.7499999999999
20
-1.99435866988796
30
-1E-16
0
SPLINE
5
FD
100
AcDbEntity
8
SK1
62
256
6
ByLayer
370
18
48
1
60
0
100
AcDbSpline
70
4
71
3
72
12
73
8
40
0
40
0
40
0
40
0
40
0.5
40
0.5
40
0.75
40
0.75
40
1
40
1
40
1
40
1
41
1
10
-35.75
20
-1.99435866988807
30
-1E-16
41
1
10
-35.7259913046562
20
-2.01086734423549
30
-1E-16
41
1
10
-35.7033433879313
20
-2.02201777155744
30
-1E-16
41
1
10
-35.6754686754417
20
-2.02783149114671
30
-1E-16
41
1
10
-35.667025596347
20
-2.0279109185569
30
-1E-16
41
1
10
-35.6543350076412
20
-2.02234081673981
30
-1E-16
41
1
10
-35.65
20
-2.01647727542741
30
-1E-16
41
1
10
-35.65
20
-2.00671206288581
30
-1E-16
0
SPLINE
5
FE
100
AcDbEntity
8
1
62
256
6
ByLayer
370
18
48
1
60
0
100
AcDbSpline
70
4
71
2
72
6
73
3
40
0
40
0
40
0
40
1
40
1
40
1
41
1
10
4.12112275897428
20
2.62701387346505
30
0
41
1
10
3.8619195350023
20
2.62653963616003
30
0
41
1
10
3.60271604688683
20
2.62459758590924
30
0
0
SPLINE
5
FF
100
AcDbEntity
8
1
62
256
6
ByLayer
370
18
48
1
60
0
100
AcDbSpline
70
4
71
1
72
4
73
2
40
0
40
0
40
1
40
1
41
1
10
29.0369190802596
20
2.66442057583248
30
0
41
1
10
29.0253083240874
20
2.67224534314909
30
0
0
SPLINE
5
100
100
AcDbEntity
8
1
62
256
6
ByLayer
370
18
48
1
60
0
100
AcDbSpline
70
4
71
1
72
4
73
2
40
0
40
0
40
1
40
1
41
1
10
29.0253083240874
20
-2.67224534314912
30
0
41
1
10
29.0369190802596
20
-2.66442057583248
30
0
0
SPLINE
5
101
100
AcDbEntity
8
1
62
256
6
ByLayer
370
18
48
1
60
0
100
AcDbSpline
70
4
71
3
72
14
73
10
40
0
40
0
40
0
40
0
40
0.0333757216291325
40
0.209059671101657
40
0.342013682254117
40
0.436185534653484
40
0.577234430473606
40
0.765171711961497
40
1
40
1
40
1
40
1
41
1
10
28.5411489780777
20
0.708572871355557
30
0
41
1
10
28.5055162180381
20
0.720166747854108
30
0
41
1
10
28.2824593855406
20
0.793218113363196
30
0
41
1
10
27.9200050397501
20
0.920372484191745
30
-1E-16
41
1
10
27.4935185049678
20
1.07106496506284
30
-1E-16
41
1
10
27.1048657641748
20
1.21188711487685
30
-1E-16
41
1
10
26.6591794371472
20
1.37655819889767
30
-1E-16
41
1
10
26.067359521497
20
1.60149219842018
30
-1E-16
41
1
10
25.6255310586495
20
1.77523195729566
30
-1E-16
41
1
10
25.3807117457261
20
1.87332707023808
30
-1E-16
0
SPLINE
5
102
100
AcDbEntity
8
1
62
256
6
ByLayer
370
18
48
1
60
0
100
AcDbSpline
70
4
71
3
72
27
73
23
40
0
40
0
40
0
40
0
40
9.2930083693E-06
40
4.44386007161E-05
40
0.0001610421374088
40
0.0002550846124633
40
0.0003440652012526
40
0.0008414025360274
40
0.0012248891848733
40
0.0019197025063508
40
0.0031923943636111
40
0.005567032244813
40
0.0101404595116966
40
0.019882339836269
40
0.0866234777316306
40
0.183369260003508
40
0.273457110788874
40
0.368664364493658
40
0.467762006512642
40
0.60913525727987
40
0.794071870361121
40
1
40
1
40
1
40
1
41
1
10
14.3542713446072
20
0.0262101370658689
30
0
41
1
10
14.3542722782272
20
0.0262105676159933
30
0
41
1
10
14.3542713922649
20
0.0262126919541572
30
0
41
1
10
14.3542151483536
20
0.0262361534734907
30
0
41
1
10
14.3540251158724
20
0.026301886081626
30
0
41
1
10
14.3536306197859
20
0.0264275639771938
30
0
41
1
10
14.3524770412486
20
0.0267783261186025
30
0
41
1
10
14.3507473726289
20
0.0272925658655652
30
0
41
1
10
14.3480444628558
20
0.0281097147982052
30
0
41
1
10
14.343972291704
20
0.0293348051131943
30
0
41
1
10
14.3364695000624
20
0.0315921551768383
30
0
41
1
10
14.3222315585395
20
0.0358640547771074
30
0
41
1
10
14.2932908909018
20
0.0445218606202502
30
0
41
1
10
14.152019453427
20
0.0865147553506063
30
0
41
1
10
13.847763280487
20
0.177046702223521
30
0
41
1
10
13.4027613140767
20
0.313705118315653
30
0
41
1
10
12.909260057626
20
0.470147429639212
30
0
41
1
10
12.413023613039
20
0.632433520191199
30
0
41
1
10
11.8290871440433
20
0.82944924055127
30
-1E-16
41
1
10
11.0918830180994
20
1.08767374295957
30
-1E-16
41
1
10
10.1742735112793
20
1.42458277551089
30
-1E-16
41
1
10
9.50515249184642
20
1.68475514609042
30
-1E-16
41
1
10
9.15389037413576
20
1.82531585914251
30
-1E-16
0
SPLINE
5
103
100
AcDbEntity
8
1
62
256
6
ByLayer
370
18
48
1
60
0
100
AcDbSpline
70
4
71
3
72
18
73
14
40
0
40
0
40
0
40
0
40
0.160831996086021
40
0.270003830921517
40
0.35601914857068
40
0.448182136867138
40
0.54156395989858
40
0.634901827440379
40
0.714904392478869
40
0.794915384515851
40
0.874848413471427
40
0.951466902836173
40
1
40
1
40
1
40
1
41
1
10
13.3351810846007
20
-2.63142649646619
30
0
41
1
10
13.6217472471529
20
-2.63163558858574
30
0
41
1
10
14.1028540035027
20
-2.63198041571329
30
0
41
1
10
14.7374183618084
20
-2.6320103612739
30
0
41
1
10
15.2494069454709
20
-2.63261964612227
30
0
41
1
10
15.7334414362944
20
-2.63298409285323
30
0
41
1
10
16.2304809015822
20
-2.63252276348732
30
0
41
1
10
16.7058589094411
20
-2.63350346889507
30
0
41
1
10
17.1574038011225
20
-2.63399418728011
30
0
41
1
10
17.5850575127747
20
-2.63326206798095
30
0
41
1
10
18.0066780318725
20
-2.6333211031077
30
0
41
1
10
18.3722030708259
20
-2.63384578304778
30
0
41
1
10
18.5952013439208
20
-2.63424150639994
30
0
41
1
10
18.6816819141843
20
-2.63437187559086
30
0
0
SPLINE
5
104
100
AcDbEntity
8
1
62
256
6
ByLayer
370
18
48
1
60
0
100
AcDbSpline
70
4
71
3
72
19
73
15
40
0
40
0
40
0
40
0
40
0.158369343365947
40
0.267355004401606
40
0.338818639032638
40
0.411834573722937
40
0.488009200372568
40
0.56425812432703
40
0.640499017515333
40
0.729448195410503
40
0.818439262034981
40
0.906268802790883
40
0.988239732626608
40
1
40
1
40
1
40
1
41
1
10
20.3229974948295
20
2.63449944958387
30
0
41
1
10
20.026888546074
20
2.63469339500875
30
0
41
1
10
19.5269876951424
20
2.63476126204003
30
0
41
1
10
18.8932433379813
20
2.63478839311622
30
0
41
1
10
18.4193568477016
20
2.6339134682627
30
0
41
1
10
18.0066780318725
20
2.6333211031077
30
0
41
1
10
17.5850575127747
20
2.63326206798095
30
0
41
1
10
17.1574038011225
20
2.63399418728011
30
0
41
1
10
16.7058589094411
20
2.63350346889507
30
0
41
1
10
16.2304809015822
20
2.63252276348732
30
0
41
1
10
15.7334414362944
20
2.63298409285323
30
0
41
1
10
15.2494069454709
20
2.63261964612227
30
0
41
1
10
14.9099484061023
20
2.63221567823842
30
0
41
1
10
14.7346708550241
20
2.63210804917355
30
0
41
1
10
14.7126787268604
20
2.63209587823471
30
0
0
LINE
5
84
100
AcDbEntity
8
1
62
256
6
ByLayer
370
18
48
1
60
0
100
AcDbLine
10
29.950044
20
0.043152
30
0
11
29.308223
21
0.751612
31
0
39
0
210
0
220
0
230
1
0
LINE
5
85
100
AcDbEntity
8
1
62
256
6
ByLayer
370
18
48
1
60
0
100
AcDbLine
10
0
20
3
30
0
11
0
21
0
31
0
39
0
210
0
220
0
230
1
0
LINE
5
86
100
AcDbEntity
8
1
62
256
6
ByLayer
370
18
48
1
60
0
100
AcDbLine
10
0
20
0
30
0
11
0
21
-3
31
0
39
0
210
0
220
0
230
1
0
LINE
5
87
100
AcDbEntity
8
1
62
256
6
ByLayer
370
18
48
1
60
0
100
AcDbLine
10
0.419479
20
2.881203
30
0
11
0.419479
21
0
31
0
39
0
210
0
220
0
230
1
0
LINE
5
88
100
AcDbEntity
8
1
62
256
6
ByLayer
370
18
48
1
60
0
100
AcDbLine
10
0.419479
20
0
30
0
11
0.419479
21
-2.881203
31
0
39
0
210
0
220
0
230
1
0
LINE
5
89
100
AcDbEntity
8
1
62
256
6
ByLayer
370
18
48
1
60
0
100
AcDbLine
10
3.502043
20
2.76407
30
0
11
3.502043
21
0.922032
31
0
39
0
210
0
220
0
230
1
0
LINE
5
8A
100
AcDbEntity
8
1
62
256
6
ByLayer
370
18
48
1
60
0
100
AcDbLine
10
3.502043
20
-2.762853
30
0
11
3.502043
21
-2.76407
31
0
39
0
210
0
220
0
230
1
0
LINE
5
8B
100
AcDbEntity
8
1
62
256
6
ByLayer
370
18
48
1
60
0
100
AcDbLine
10
3.602775
20
2.624483
30
0
11
3.602748
21
2.630101
31
0
39
0
210
0
220
0
230
1
0
LINE
5
8C
100
AcDbEntity
8
1
62
256
6
ByLayer
370
18
48
1
60
0
100
AcDbLine
10
13.12
20
2.756342
30
0
11
13.12
21
2.751662
31
0
39
0
210
0
220
0
230
1
0
LINE
5
8D
100
AcDbEntity
8
1
62
256
6
ByLayer
370
18
48
1
60
0
100
AcDbLine
10
0.839458
20
2.762406
30
0
11
0.839458
21
0
31
0
39
0
210
0
220
0
230
1
0
LINE
5
8E
100
AcDbEntity
8
1
62
256
6
ByLayer
370
18
48
1
60
0
100
AcDbLine
10
0.839458
20
0
30
0
11
0.839458
21
-2.762406
31
0
39
0
210
0
220
0
230
1
0
LINE
5
8F
100
AcDbEntity
8
SK1
62
256
6
ByLayer
370
18
48
1
60
0
100
AcDbLine
10
-36
20
2.065
30
0
11
-36
21
-0.456863
31
0
39
0
210
0
220
0
230
1
0
LINE
5
91
100
AcDbEntity
8
SK1
62
256
6
ByLayer
370
18
48
1
60
0
100
AcDbLine
10
-36
20
-1.919732
30
0
11
-36
21
-0.4569
31
0
39
0
210
0
220
0
230
1
0
LINE
5
92
100
AcDbEntity
8
SK1
62
256
6
ByLayer
370
18
48
1
60
0
100
AcDbLine
10
0
20
3
30
0
11
0
21
-3
31
0
39
0
210
0
220
0
230
1
0
LINE
5
93
100
AcDbEntity
8
SK1
62
256
6
ByLayer
370
18
48
1
60
0
100
AcDbLine
10
-35.75
20
-1.994359
30
0
11
-35.75
21
-0.855096
31
0
39
0
210
0
220
0
230
1
0
LINE
5
94
100
AcDbEntity
8
SK1
62
256
6
ByLayer
370
18
48
1
60
0
100
AcDbLine
10
-35.850962
20
-1.924749
30
0
11
-35.850962
21
-0.785503
31
0
39
0
210
0
220
0
230
1
0
LINE
5
95
100
AcDbEntity
8
SK1
62
256
6
ByLayer
370
18
48
1
60
0
100
AcDbLine
10
-35.065
20
-3
30
0
11
-35.065
21
3
31
0
39
0
210
0
220
0
230
1
0
LINE
5
96
100
AcDbEntity
8
SK1
62
256
6
ByLayer
370
18
48
1
60
0
100
AcDbLine
10
-36
20
-2.065
30
0
11
-36
21
-1.919732
31
0
39
0
210
0
220
0
230
1
0
LINE
5
97
100
AcDbEntity
8
SK1
62
256
6
ByLayer
370
18
48
1
60
0
100
AcDbLine
10
-35.65
20
-2.006712
30
0
11
-35.65
21
-1.019384
31
0
39
0
210
0
220
0
230
1
0
LINE
5
98
100
AcDbEntity
8
SK1
62
256
6
ByLayer
370
18
48
1
60
0
100
AcDbLine
10
-36
20
-2.065
30
0
11
-35.065
21
-3
31
0
39
0
210
0
220
0
230
1
0
LINE
5
99
100
AcDbEntity
8
SK1
62
256
6
ByLayer
370
18
48
1
60
0
100
AcDbLine
10
-35.065
20
3
30
0
11
-36
21
2.065
31
0
39
0
210
0
220
0
230
1
0
LINE
5
9A
100
AcDbEntity
8
SK1
62
256
6
ByLayer
370
18
48
1
60
0
100
AcDbLine
10
-35.065
20
-3
30
0
11
0
21
-3
31
0
39
0
210
0
220
0
230
1
0
LINE
5
9B
100
AcDbEntity
8
SK1
62
256
6
ByLayer
370
18
48
1
60
0
100
AcDbLine
10
0
20
3
30
0
11
-35.065
21
3
31
0
39
0
210
0
220
0
230
1
0
LINE
5
9C
100
AcDbEntity
8
1
62
256
6
ByLayer
370
18
48
1
60
0
100
AcDbLine
10
0.839458
20
-2.762406
30
0
11
3.502043
21
-2.76407
31
0
39
0
210
0
220
0
230
1
0
LINE
5
9D
100
AcDbEntity
8
1
62
256
6
ByLayer
370
18
48
1
60
0
100
AcDbLine
10
3.967643
20
-2.764361
30
0
11
4.726288
21
-2.764835
31
0
39
0
210
0
220
0
230
1
0
LINE
5
9E
100
AcDbEntity
8
1
62
256
6
ByLayer
370
18
48
1
60
0
100
AcDbLine
10
12.519959
20
-2.769706
30
0
11
13.335722
21
-2.770216
31
0
39
0
210
0
220
0
230
1
0
LINE
5
9F
100
AcDbEntity
8
1
62
256
6
ByLayer
370
18
48
1
60
0
100
AcDbLine
10
20.323254
20
-2.774583
30
0
11
21.061676
21
-2.775045
31
0
39
0
210
0
220
0
230
1
0
LINE
5
A0
100
AcDbEntity
8
1
62
256
6
ByLayer
370
18
48
1
60
0
100
AcDbLine
10
21.061676
20
2.775045
30
0
11
20.323254
21
2.774583
31
0
39
0
210
0
220
0
230
1
0
LINE
5
A1
100
AcDbEntity
8
1
62
256
6
ByLayer
370
18
48
1
60
0
100
AcDbLine
10
13.335722
20
2.770216
30
0
11
12.519959
21
2.769706
31
0
39
0
210
0
220
0
230
1
0
LINE
5
A2
100
AcDbEntity
8
1
62
256
6
ByLayer
370
18
48
1
60
0
100
AcDbLine
10
4.726288
20
2.764835
30
0
11
3.967643
21
2.764361
31
0
39
0
210
0
220
0
230
1
0
LINE
5
A3
100
AcDbEntity
8
1
62
256
6
ByLayer
370
18
48
1
60
0
100
AcDbLine
10
3.502043
20
2.76407
30
0
11
0.839458
21
2.762406
31
0
39
0
210
0
220
0
230
1
0
LINE
5
A4
100
AcDbEntity
8
SK4
62
256
6
ByLayer
370
18
48
0.05
60
0
100
AcDbLine
10
35
20
0
30
0
11
-41
21
0
31
0
39
0
210
0
220
0
230
1
0
LINE
5
A6
100
AcDbEntity
8
4
62
256
6
ByLayer
370
18
48
0.05
60
0
100
AcDbLine
10
-36
20
0
30
0
11
35
21
0
31
0
39
0
210
0
220
0
230
1
0
LINE
5
A8
100
AcDbEntity
8
80
62
256
6
ByLayer
370
18
48
1
60
0
100
AcDbLine
10
0
20
0
30
0
11
-6
21
0
31
0
39
0
210
0
220
0
230
1
0
LINE
5
A9
100
AcDbEntity
8
81
62
256
6
ByLayer
370
18
48
1
60
0
100
AcDbLine
10
30
20
0
30
0
11
36
21
0
31
0
39
0
210
0
220
0
230
1
0
LINE
5
AA
100
AcDbEntity
8
SK2
62
256
6
ByLayer
370
13
48
1
60
0
100
AcDbLine
10
30.542939
20
1.491768
30
0
11
37.926059
21
21.77747
31
0
39
0
210
0
220
0
230
1
0
LINE
5
AC
100
AcDbEntity
8
SK2
62
256
6
ByLayer
370
13
48
1
60
0
100
AcDbLine
10
30.542939
20
-1.491768
30
0
11
37.926059
21
-21.77747
31
0
39
0
210
0
220
0
230
1
0
LINE
5
AD
100
AcDbEntity
8
1
62
256
6
ByLayer
370
13
48
1
60
0
100
AcDbLine
10
36.84018
20
18.793933
30
0
11
39.936781
21
17.977598
31
0
39
0
210
0
220
0
230
1
0
LINE
5
AE
100
AcDbEntity
8
1
62
256
6
ByLayer
370
13
48
1
60
0
100
AcDbLine
10
36.84018
20
18.793933
30
0
11
39.619986
21
17.203953
31
0
39
0
210
0
220
0
230
1
0
LINE
5
AF
100
AcDbEntity
8
1
62
256
6
ByLayer
370
13
48
1
60
0
100
AcDbLine
10
39.936781
20
17.977598
30
0
11
39.619986
21
17.203953
31
0
39
0
210
0
220
0
230
1
0
LINE
5
B0
100
AcDbEntity
8
1
62
256
6
ByLayer
370
13
48
1
60
0
100
AcDbLine
10
36.84018
20
-18.793933
30
0
11
39.619983
21
-17.203955
31
0
39
0
210
0
220
0
230
1
0
LINE
5
B1
100
AcDbEntity
8
1
62
256
6
ByLayer
370
13
48
1
60
0
100
AcDbLine
10
36.84018
20
-18.793933
30
0
11
39.936784
21
-17.977597
31
0
39
0
210
0
220
0
230
1
0
LINE
5
B2
100
AcDbEntity
8
1
62
256
6
ByLayer
370
13
48
1
60
0
100
AcDbLine
10
39.619983
20
-17.203955
30
0
11
39.936784
21
-17.977597
31
0
39
0
210
0
220
0
230
1
0
MTEXT
5
105
100
AcDbEntity
8
SK2
62
256
6
ByLayer
370
18
48
1
60
0
100
AcDbMText
10
43.717388
20
-2.467451
30
0
210
0
220
0
230
1
1
\W0.7237;140.00
40
3.50012
41
0
44
1.084337
50
0
71
7
72
5
7
iso_b_vert
0
MTEXT
5
108
100
AcDbEntity
8
SK6
62
256
6
ByLayer
370
18
48
1
60
0
100
AcDbMText
10
-42.331725
20
-53.213934
30
0
210
0
220
0
230
1
1
\W0.7348;860.1-0556-016A1-GM X1BM
40
3.175
41
0
44
1.084337
50
0
71
7
72
5
7
iso_b_vert
0
DIMENSION
5
10B
100
AcDbEntity
8
SK2
62
256
6
ByLayer
370
18
48
1
60
0
100
AcDbDimension
2
_U0
10
30
20
-26.50012
30
0
11
15
21
-26.50012
31
0
70
32
71
2
72
1
41
1
210
0
220
0
230
1
3
Standard
100
AcDbAlignedDimension
13
0
23
-3
33
0
14
30
24
0
34
0
50
0
100
AcDbRotatedDimension
1001
ACAD
1000
DSTYLE
1002
{
1070
   371
1070
    13
1070
   372
1070
    13
1070
     3
1000

1070
   170
1070
     0
1070
   144
1040
1.0
1070
   277
1070
     2
1070
   284
1070
     8
1070
   278
1070
    46
1070
   146
1040
0.999966
1070
   345
1005
16
1070
   347
1005
16
1070
   346
1005
16
1070
   344
1005
10C
1070
   343
1005
10C
1070
   172
1070
     1
1070
    76
1070
     0
1070
    75
1070
     0
1070
   282
1070
     0
1070
   281
1070
     0
1070
    71
1070
     0
1070
    74
1070
     0
1070
   279
1070
     0
1070
   173
1070
     1
1070
   340
1005
106
1070
   271
1070
     1
1070
   272
1070
     2
1070
    77
1070
     1
1070
    73
1070
     1
1070
   171
1070
     3
1070
   274
1070
     4
1070
   177
1070
   150
1070
   176
1070
     9
1070
   178
1070
    43
1070
    78
1070
     8
1070
    48
1040
-0.1
1070
    41
1040
3.175
1070
   147
1040
1.75006
1070
    42
1040
1.5875
1070
    44
1040
3.175
1070
   140
1040
3.50012
1002
}
1001
ACAD_DSTYLE_DIM_LINETYPE
1070
   380
1005
16
1001
ACAD_DSTYLE_DIM_EXT1_LINETYPE
1070
   381
1005
16
1001
ACAD_DSTYLE_DIM_EXT2_LINETYPE
1070
   382
1005
16
0
DIMENSION
5
131
100
AcDbEntity
8
2
62
256
6
ByLayer
370
18
48
1
60
0
100
AcDbDimension
2
_U1
10
36.75006
20
2.78
30
0
11
36.75006
21
18.353233
31
0
70
32
71
1
72
1
41
1
210
0
220
0
230
1
3
Standard
100
AcDbAlignedDimension
13
28.9882
23
-2.78
33
0
14
28.9882
24
2.78
34
0
50
90
100
AcDbRotatedDimension
1001
ACAD
1000
DSTYLE
1002
{
1070
   371
1070
    13
1070
   372
1070
    13
1070
     3
1000

1070
   170
1070
     0
1070
   144
1040
1.0
1070
   277
1070
     2
1070
   284
1070
     8
1070
   278
1070
    46
1070
   146
1040
0.999966
1070
   345
1005
16
1070
   347
1005
16
1070
   346
1005
16
1070
   344
1005
10C
1070
   343
1005
10C
1070
   172
1070
     1
1070
    76
1070
     0
1070
    75
1070
     0
1070
   282
1070
     0
1070
   281
1070
     0
1070
    71
1070
     0
1070
    74
1070
     0
1070
   279
1070
     0
1070
   173
1070
     1
1070
   340
1005
106
1070
   271
1070
     1
1070
   272
1070
     2
1070
    77
1070
     1
1070
    73
1070
     0
1070
   171
1070
     3
1070
   274
1070
     4
1070
   177
1070
   150
1070
   176
1070
     9
1070
   178
1070
    43
1070
    78
1070
     8
1070
    48
1040
-0.1
1070
    41
1040
3.175
1070
   147
1040
1.75006
1070
    42
1040
1.5875
1070
    44
1040
3.175
1070
   140
1040
3.50012
1002
}
1001
ACAD_DSTYLE_DIM_LINETYPE
1070
   380
1005
16
1001
ACAD_DSTYLE_DIM_EXT1_LINETYPE
1070
   381
1005
16
1001
ACAD_DSTYLE_DIM_EXT2_LINETYPE
1070
   382
1005
16
0
DIMENSION
5
150
100
AcDbEntity
8
SK2
62
256
6
ByLayer
370
18
48
1
60
0
100
AcDbDimension
2
_U2
10
-39.24994
20
-3
30
0
11
-39.24994
21
17.10734
31
0
70
32
71
1
72
1
41
1
210
0
220
0
230
1
3
Standard
100
AcDbAlignedDimension
13
-36
23
3
33
0
14
-36
24
-3
34
0
50
90
100
AcDbRotatedDimension
1001
ACAD
1000
DSTYLE
1002
{
1070
   371
1070
    13
1070
   372
1070
    13
1070
     3
1000

1070
   170
1070
     0
1070
   144
1040
1.0
1070
   277
1070
     2
1070
   284
1070
     8
1070
   278
1070
    46
1070
   146
1040
0.999966
1070
   345
1005
16
1070
   347
1005
16
1070
   346
1005
16
1070
   344
1005
10C
1070
   343
1005
10C
1070
   172
1070
     1
1070
    76
1070
     0
1070
    75
1070
     0
1070
   282
1070
     0
1070
   281
1070
     0
1070
    71
1070
     0
1070
    74
1070
     0
1070
   279
1070
     0
1070
   173
1070
     1
1070
   340
1005
106
1070
   271
1070
     1
1070
   272
1070
     2
1070
    77
1070
     1
1070
    73
1070
     0
1070
   171
1070
     3
1070
   274
1070
     4
1070
   177
1070
   150
1070
   176
1070
     9
1070
   178
1070
    43
1070
    78
1070
     8
1070
    48
1040
-0.1
1070
    41
1040
3.175
1070
   147
1040
1.75006
1070
    42
1040
1.5875
1070
    44
1040
3.175
1070
   140
1040
3.50012
1002
}
1001
ACAD_DSTYLE_DIM_LINETYPE
1070
   380
1005
16
1001
ACAD_DSTYLE_DIM_EXT1_LINETYPE
1070
   381
1005
16
1001
ACAD_DSTYLE_DIM_EXT2_LINETYPE
1070
   382
1005
16
0
DIMENSION
5
16E
100
AcDbEntity
8
SK2
62
256
6
ByLayer
370
18
48
1
60
0
100
AcDbDimension
2
_U3
10
0
20
-26.50012
30
0
11
-18
21
-26.50012
31
0
70
32
71
1
72
1
41
1
210
0
220
0
230
1
3
Standard
100
AcDbAlignedDimension
13
-36
23
-3
33
0
14
0
24
-3
34
0
50
0
100
AcDbRotatedDimension
1001
ACAD
1000
DSTYLE
1002
{
1070
   371
1070
    13
1070
   372
1070
    13
1070
     3
1000

1070
   170
1070
     0
1070
   144
1040
1.0
1070
   277
1070
     2
1070
   284
1070
     8
1070
   278
1070
    46
1070
   146
1040
0.999966
1070
   345
1005
16
1070
   347
1005
16
1070
   346
1005
16
1070
   344
1005
10C
1070
   343
1005
10C
1070
   172
1070
     1
1070
    76
1070
     0
1070
    75
1070
     0
1070
   282
1070
     0
1070
   281
1070
     0
1070
    71
1070
     0
1070
    74
1070
     0
1070
   279
1070
     0
1070
   173
1070
     1
1070
   340
1005
106
1070
   271
1070
     1
1070
   272
1070
     2
1070
    77
1070
     1
1070
    73
1070
     1
1070
   171
1070
     3
1070
   274
1070
     4
1070
   177
1070
   150
1070
   176
1070
     9
1070
   178
1070
    43
1070
    78
1070
     8
1070
    48
1040
-0.1
1070
    41
1040
3.175
1070
   147
1040
1.75006
1070
    42
1040
1.5875
1070
    44
1040
3.175
1070
   140
1040
3.50012
1002
}
1001
ACAD_DSTYLE_DIM_LINETYPE
1070
   380
1005
16
1001
ACAD_DSTYLE_DIM_EXT1_LINETYPE
1070
   381
1005
16
1001
ACAD_DSTYLE_DIM_EXT2_LINETYPE
1070
   382
1005
16
0
DIMENSION
5
18A
100
AcDbEntity
8
SK2
62
256
6
ByLayer
370
18
48
1
60
0
100
AcDbDimension
2
_U4
10
30
20
-17.74982
30
0
11
16
21
-17.74982
31
0
70
32
71
1
72
1
41
1
210
0
220
0
230
1
3
Standard
100
AcDbAlignedDimension
13
2
23
3.28
33
0
14
30
24
0
34
0
50
0
100
AcDbRotatedDimension
1001
ACAD
1000
DSTYLE
1002
{
1070
   371
1070
    13
1070
   372
1070
    13
1070
     3
1000

1070
   170
1070
     0
1070
   144
1040
1.0
1070
   277
1070
     2
1070
   284
1070
     8
1070
   278
1070
    46
1070
   146
1040
0.999966
1070
   345
1005
16
1070
   347
1005
16
1070
   346
1005
16
1070
   344
1005
10C
1070
   343
1005
10C
1070
   172
1070
     1
1070
    76
1070
     0
1070
    75
1070
     0
1070
   282
1070
     0
1070
   281
1070
     0
1070
    71
1070
     0
1070
    74
1070
     0
1070
   279
1070
     0
1070
   173
1070
     1
1070
   340
1005
106
1070
   271
1070
     1
1070
   272
1070
     2
1070
    77
1070
     1
1070
    73
1070
     1
1070
   171
1070
     3
1070
   274
1070
     4
1070
   177
1070
   150
1070
   176
1070
     9
1070
   178
1070
    43
1070
    78
1070
     8
1070
    48
1040
-0.1
1070
    41
1040
3.175
1070
   147
1040
1.75006
1070
    42
1040
1.5875
1070
    44
1040
3.175
1070
   140
1040
3.50012
1002
}
1001
ACAD_DSTYLE_DIM_LINETYPE
1070
   380
1005
16
1001
ACAD_DSTYLE_DIM_EXT1_LINETYPE
1070
   381
1005
16
1001
ACAD_DSTYLE_DIM_EXT2_LINETYPE
1070
   382
1005
16
0
DIMENSION
5
1A6
100
AcDbEntity
8
SK2
62
256
6
ByLayer
370
18
48
1
60
0
100
AcDbDimension
2
_U5
10
30
20
-9.82
30
0
11
21.2
21
-9.82
31
0
70
32
71
1
72
1
41
1
210
0
220
0
230
1
3
Standard
100
AcDbAlignedDimension
13
12.4
23
-2.78
33
0
14
30
24
0
34
0
50
0
100
AcDbRotatedDimension
1001
ACAD
1000
DSTYLE
1002
{
1070
   371
1070
    13
1070
   372
1070
    13
1070
     3
1000

1070
   170
1070
     0
1070
   144
1040
1.0
1070
   277
1070
     2
1070
   284
1070
     8
1070
   278
1070
    46
1070
   146
1040
1.25
1070
   345
1005
16
1070
   347
1005
16
1070
   346
1005
16
1070
   344
1005
10C
1070
   343
1005
10C
1070
   172
1070
     1
1070
    76
1070
     0
1070
    75
1070
     0
1070
   282
1070
     0
1070
   281
1070
     0
1070
    71
1070
     0
1070
    74
1070
     0
1070
   279
1070
     0
1070
   173
1070
     1
1070
   340
1005
106
1070
   271
1070
     1
1070
   272
1070
     2
1070
    77
1070
     1
1070
    73
1070
     1
1070
   171
1070
     3
1070
   274
1070
     4
1070
   177
1070
   150
1070
   176
1070
     9
1070
   178
1070
    43
1070
    78
1070
     8
1070
    48
1040
-0.1
1070
    41
1040
3.175
1070
   147
1040
0.42
1070
    42
1040
1.5875
1070
    44
1040
0.5
1070
   140
1040
2.8
1002
}
1001
ACAD_DSTYLE_DIM_LINETYPE
1070
   380
1005
16
1001
ACAD_DSTYLE_DIM_EXT1_LINETYPE
1070
   381
1005
16
1001
ACAD_DSTYLE_DIM_EXT2_LINETYPE
1070
   382
1005
16
0
DIMENSION
5
1C2
100
AcDbEntity
8
SK2
62
256
6
ByLayer
370
18
48
1
60
0
100
AcDbDimension
2
_U6
10
30
20
-36.50012
30
0
11
-3
21
-36.50012
31
0
70
32
71
1
72
1
41
1
210
0
220
0
230
1
3
Standard
100
AcDbAlignedDimension
13
-36
23
0
33
0
14
30
24
0
34
0
50
0
100
AcDbRotatedDimension
1001
ACAD
1000
DSTYLE
1002
{
1070
   371
1070
    13
1070
   372
1070
    13
1070
     3
1000

1070
   170
1070
     0
1070
   144
1040
1.0
1070
   277
1070
     2
1070
   284
1070
     8
1070
   278
1070
    46
1070
   146
1040
0.999966
1070
   345
1005
16
1070
   347
1005
16
1070
   346
1005
16
1070
   344
1005
10C
1070
   343
1005
10C
1070
   172
1070
     1
1070
    76
1070
     0
1070
    75
1070
     0
1070
   282
1070
     0
1070
   281
1070
     0
1070
    71
1070
     0
1070
    74
1070
     0
1070
   279
1070
     0
1070
   173
1070
     1
1070
   340
1005
106
1070
   271
1070
     1
1070
   272
1070
     2
1070
    77
1070
     1
1070
    73
1070
     1
1070
   171
1070
     3
1070
   274
1070
     4
1070
   177
1070
   150
1070
   176
1070
     9
1070
   178
1070
    43
1070
    78
1070
     8
1070
    48
1040
-0.1
1070
    41
1040
3.175
1070
   147
1040
1.75006
1070
    42
1040
1.5875
1070
    44
1040
3.175
1070
   140
1040
3.50012
1002
}
1001
ACAD_DSTYLE_DIM_LINETYPE
1070
   380
1005
16
1001
ACAD_DSTYLE_DIM_EXT1_LINETYPE
1070
   381
1005
16
1001
ACAD_DSTYLE_DIM_EXT2_LINETYPE
1070
   382
1005
16
0
ENDSEC
0
SECTION
2
OBJECTS
0
DICTIONARY
5
24e
330
0
100
AcDbDictionary
280
0
281
1
3
ACAD_GROUP
350
24f
3
ACAD_MLINESTYLE
350
250
0
DICTIONARY
5
24f
330
0
100
AcDbDictionary
280
0
281
1
0
DICTIONARY
5
250
330
0
100
AcDbDictionary
280
0
281
1
3
Standard
350
18
0
MLINESTYLE
5
18
330
250
100
AcDbMlineStyle
2
Standard
70
0
3

62
256
51
90
52
90
71
2
49
-0.5
62
256
6
ByLayer
49
0.5
62
256
6
ByLayer
0
RASTERVARIABLES
5
23c
330

100
AcDbRasterVariables
90
0
70
1
71
1
72
1
0
ENDSEC
0
EOF
