0
SECTION
2
HEADER
9
$ACADVER
1
AC1015
9
$DWGCODEPAGE
3
ANSI_1252
9
$HANDSEED
5
25d
9
$ANGBASE
50
0
9
$ANGDIR
70
0
9
$ATTMODE
70
1
9
$AUNITS
70
0
9
$AUPREC
70
0
9
$CECOLOR
62
256
9
$CELTSCALE
40
1
9
$CELTYPE
6
ByLayer
9
$CELWEIGHT
370
18
9
$CLAYER
8
0
9
$CMLJUST
70
0
9
$CMLSCALE
40
1
9
$CMLSTYLE
2
Standard
9
$DIMSTYLE
2
Standard
9
$TEXTSIZE
40
0.2
9
$TEXTSTYLE
7
Standard
9
$LUNITS
70
2
9
$LUPREC
70
4
9
$EXTNAMES
290
1
9
$INSUNITS
70
4
9
$LTSCALE
40
1
9
$LWDISPLAY
290
1
9
$PDMODE
70
0
9
$PDSIZE
40
0
9
$PLINEGEN
70
0
0
ENDSEC
0
SECTION
2
CLASSES
0
CLASS
1
RASTERVARIABLES
2
AcDbRasterVariables
3
ISM
90
0
280
0
281
0
0
ENDSEC
0
SECTION
2
TABLES
0
TABLE
2
VPORT
5
253
100
AcDbSymbolTable
0
VPORT
5
1
100
AcDbSymbolTableRecord
100
AcDbViewportTableRecord
2
*Active
70
0
10
0
20
0
11
1
21
1
12
-1
22
1
13
0
23
0
14
0.5
24
0.5
15
10
25
10
16
0
26
0
36
1
17
0
27
0
37
0
0
ENDTAB
0
TABLE
2
LTYPE
5
254
100
AcDbSymbolTable
0
LTYPE
5
14
100
AcDbSymbolTableRecord
100
AcDbLinetypeTableRecord
70
0
2
ByBlock
3

72
65
73
0
40
0
0
LTYPE
5
15
100
AcDbSymbolTableRecord
100
AcDbLinetypeTableRecord
70
0
2
ByLayer
3

72
65
73
0
40
0
0
LTYPE
5
16
100
AcDbSymbolTableRecord
100
AcDbLinetypeTableRecord
70
0
2
Continuous
3
Solid line
72
65
73
0
40
0
0
LTYPE
5
6E
100
AcDbSymbolTableRecord
100
AcDbLinetypeTableRecord
70
0
2
CENTER
3
____ _ ____ _ ____ _ ____
72
65
73
4
40
47.5
49
22
74
0
49
-8.5
74
0
49
8.5
74
0
49
-8.5
74
0
0
LTYPE
5
6F
100
AcDbSymbolTableRecord
100
AcDbLinetypeTableRecord
70
0
2
DASHED
3
__ __ __ __ __ __ __ __ __
72
65
73
2
40
25.72
49
12.86
74
0
49
-12.86
74
0
0
ENDTAB
0
TABLE
2
LAYER
5
255
100
AcDbSymbolTable
0
LAYER
5
10
100
AcDbSymbolTableRecord
100
AcDbLayerTableRecord
2
0
70
0
62
7
6
Continuous
290
1
370
-3
390
0
0
LAYER
5
71
100
AcDbSymbolTableRecord
100
AcDbLayerTableRecord
2
80
70
0
62
-6
6
Continuous
290
1
370
-3
390
0
0
LAYER
5
73
100
AcDbSymbolTableRecord
100
AcDbLayerTableRecord
2
81
70
0
62
-3
6
Continuous
290
1
370
-3
390
0
0
LAYER
5
75
100
AcDbSymbolTableRecord
100
AcDbLayerTableRecord
2
1
70
0
62
4
6
Continuous
290
1
370
-3
390
0
0
LAYER
5
A6
100
AcDbSymbolTableRecord
100
AcDbLayerTableRecord
2
4
70
0
62
-2
6
CENTER
290
1
370
-3
390
0
0
LAYER
5
117
100
AcDbSymbolTableRecord
100
AcDbLayerTableRecord
2
Defpoints
70
0
62
7
6
Continuous
290
0
370
-3
390
0
0
LAYER
5
144
100
AcDbSymbolTableRecord
100
AcDbLayerTableRecord
2
2
70
0
62
7
6
Continuous
290
1
370
-3
390
0
0
LAYER
5
23f
100
AcDbSymbolTableRecord
100
AcDbLayerTableRecord
2
SK1
70
0
62
4
6
Continuous
290
1
370
-3
390
0
0
LAYER
5
240
100
AcDbSymbolTableRecord
100
AcDbLayerTableRecord
2
SK4
70
0
62
2
6
CENTER
290
1
370
-3
390
0
0
LAYER
5
241
100
AcDbSymbolTableRecord
100
AcDbLayerTableRecord
2
SK2
70
0
62
7
6
Continuous
290
1
370
-3
390
0
0
LAYER
5
242
100
AcDbSymbolTableRecord
100
AcDbLayerTableRecord
2
SK6
70
0
62
5
6
Continuous
290
1
370
-3
390
0
0
ENDTAB
0
TABLE
2
STYLE
5
256
100
AcDbSymbolTable
0
STYLE
5
11
100
AcDbSymbolTableRecord
100
AcDbTextStyleTableRecord
2
Standard
3
txt
70
0
71
0
40
0
41
1
42
0
50
0
0
STYLE
5
108
100
AcDbSymbolTableRecord
100
AcDbTextStyleTableRecord
2
iso_b_vert
3
simplex.shx
70
0
71
0
40
0
41
1
42
0
50
0
0
STYLE
5
109
100
AcDbSymbolTableRecord
100
AcDbTextStyleTableRecord
2
DWGDirectTextStyle
3
simplex
70
0
71
0
40
0
41
1
42
0
50
0
0
ENDTAB
0
TABLE
2
DIMSTYLE
5
257
100
AcDbSymbolTable
100
AcDbDimStyleTable
0
DIMSTYLE
105
27
100
AcDbSymbolTableRecord
100
AcDbDimStyleTableRecord
2
Standard
70
0
3
<>
41
0.18
42
0.0625
44
0.18
140
0.18
147
0.09
73
0
74
0
77
1
271
2
275
0
278
52
280
0
340
11
0
ENDTAB
0
TABLE
2
VIEW
5
258
100
AcDbSymbolTable
0
ENDTAB
0
TABLE
2
UCS
5
259
100
AcDbSymbolTable
0
ENDTAB
0
TABLE
2
APPID
5
25a
100
AcDbSymbolTable
0
APPID
5
12
100
AcDbSymbolTableRecord
100
AcDbRegAppTableRecord
2
ACAD
70
0
0
APPID
5
10C
100
AcDbSymbolTableRecord
100
AcDbRegAppTableRecord
2
ACAD_DSTYLE_DIMBREAK
70
0
0
APPID
5
1FE
100
AcDbSymbolTableRecord
100
AcDbRegAppTableRecord
2
ACAD_DSTYLE_DIM_LINETYPE
70
0
0
APPID
5
1FF
100
AcDbSymbolTableRecord
100
AcDbRegAppTableRecord
2
ACAD_DSTYLE_DIM_EXT1_LINETYPE
70
0
0
APPID
5
200
100
AcDbSymbolTableRecord
100
AcDbRegAppTableRecord
2
ACAD_DSTYLE_DIM_EXT2_LINETYPE
70
0
0
APPID
5
23B
100
AcDbSymbolTableRecord
100
AcDbRegAppTableRecord
2
ACAD_MLEADERVER
70
0
0
ENDTAB
0
TABLE
2
BLOCK_RECORD
5
25b
100
AcDbSymbolTable
0
BLOCK_RECORD
5
1F
100
AcDbSymbolTableRecord
100
AcDbBlockTableRecord
2
*Model_Space
340
0
70
0
0
BLOCK_RECORD
5
1B
100
AcDbSymbolTableRecord
100
AcDbBlockTableRecord
2
*Paper_Space
340
0
70
0
0
BLOCK_RECORD
5
23
100
AcDbSymbolTableRecord
100
AcDbBlockTableRecord
2
*Paper_Space0
340
0
70
0
0
BLOCK_RECORD
5
10E
100
AcDbSymbolTableRecord
100
AcDbBlockTableRecord
2
_Closed
340
0
70
0
0
BLOCK_RECORD
5
118
100
AcDbSymbolTableRecord
100
AcDbBlockTableRecord
2
*D2
340
0
70
0
0
BLOCK_RECORD
5
124
100
AcDbSymbolTableRecord
100
AcDbBlockTableRecord
2
_U0
340
0
70
0
0
BLOCK_RECORD
5
136
100
AcDbSymbolTableRecord
100
AcDbBlockTableRecord
2
*D4
340
0
70
0
0
BLOCK_RECORD
5
145
100
AcDbSymbolTableRecord
100
AcDbBlockTableRecord
2
_U1
340
0
70
0
0
BLOCK_RECORD
5
155
100
AcDbSymbolTableRecord
100
AcDbBlockTableRecord
2
*D6
340
0
70
0
0
BLOCK_RECORD
5
163
100
AcDbSymbolTableRecord
100
AcDbBlockTableRecord
2
_U2
340
0
70
0
0
BLOCK_RECORD
5
173
100
AcDbSymbolTableRecord
100
AcDbBlockTableRecord
2
*D8
340
0
70
0
0
BLOCK_RECORD
5
17F
100
AcDbSymbolTableRecord
100
AcDbBlockTableRecord
2
_U3
340
0
70
0
0
BLOCK_RECORD
5
18F
100
AcDbSymbolTableRecord
100
AcDbBlockTableRecord
2
*D10
340
0
70
0
0
BLOCK_RECORD
5
19B
100
AcDbSymbolTableRecord
100
AcDbBlockTableRecord
2
_U4
340
0
70
0
0
BLOCK_RECORD
5
1AB
100
AcDbSymbolTableRecord
100
AcDbBlockTableRecord
2
*D12
340
0
70
0
0
BLOCK_RECORD
5
1B7
100
AcDbSymbolTableRecord
100
AcDbBlockTableRecord
2
_U5
340
0
70
0
0
BLOCK_RECORD
5
1C7
100
AcDbSymbolTableRecord
100
AcDbBlockTableRecord
2
*D14
340
0
70
0
0
BLOCK_RECORD
5
1D3
100
AcDbSymbolTableRecord
100
AcDbBlockTableRecord
2
_U6
340
0
70
0
0
ENDTAB
0
ENDSEC
0
SECTION
2
BLOCKS
0
BLOCK
5
20
100
AcDbEntity
8
0
100
AcDbBlockBegin
2
*Model_Space
70
0
10
0
20
0
30
0
3
*Model_Space
0
ENDBLK
5
21
100
AcDbEntity
8
0
100
AcDbBlockEnd
0
BLOCK
5
1C
100
AcDbEntity
8
0
100
AcDbBlockBegin
2
*Paper_Space
70
0
10
0
20
0
30
0
3
*Paper_Space
0
ENDBLK
5
1D
100
AcDbEntity
8
0
100
AcDbBlockEnd
0
BLOCK
5
24
100
AcDbEntity
8
0
100
AcDbBlockBegin
2
*Paper_Space0
70
0
10
0
20
0
30
0
3
*Paper_Space0
0
ENDBLK
5
25
100
AcDbEntity
8
0
100
AcDbBlockEnd
0
BLOCK
5
10F
100
AcDbEntity
8
0
100
AcDbBlockBegin
2
_Closed
70
0
10
0
20
0
30
0
3
_Closed
0
LINE
5
111
100
AcDbEntity
8
0
62
256
6
ByLayer
370
-2
48
1
60
0
100
AcDbLine
10
-1
20
0.166667
30
0
11
0
21
0
31
0
39
0
210
0
220
0
230
1
0
LINE
5
112
100
AcDbEntity
8
0
62
256
6
ByLayer
370
-2
48
1
60
0
100
AcDbLine
10
0
20
0
30
0
11
-1
21
-0.166667
31
0
39
0
210
0
220
0
230
1
0
LINE
5
113
100
AcDbEntity
8
0
62
256
6
ByLayer
370
-2
48
1
60
0
100
AcDbLine
10
-1
20
0.166667
30
0
11
-1
21
-0.166667
31
0
39
0
210
0
220
0
230
1
0
LINE
5
114
100
AcDbEntity
8
0
62
256
6
ByLayer
370
-2
48
1
60
0
100
AcDbLine
10
0
20
0
30
0
11
-1
21
0
31
0
39
0
210
0
220
0
230
1
0
ENDBLK
5
110
100
AcDbEntity
8
0
100
AcDbBlockEnd
0
BLOCK
5
119
100
AcDbEntity
8
0
100
AcDbBlockBegin
2
*D2
70
1
10
0
20
0
30
0
3
*D2
0
LINE
5
11B
100
AcDbEntity
8
0
62
256
6
ByLayer
370
-2
48
1
60
0
100
AcDbLine
10
0
20
-4.5875
30
0
11
0
21
-29.67512
31
0
39
0
210
0
220
0
230
1
0
LINE
5
11C
100
AcDbEntity
8
0
62
256
6
ByLayer
370
-2
48
1
60
0
100
AcDbLine
10
30
20
-1.5875
30
0
11
30
21
-29.67512
31
0
39
0
210
0
220
0
230
1
0
LINE
5
11D
100
AcDbEntity
8
0
62
256
6
ByLayer
370
-2
48
1
60
0
100
AcDbLine
10
3.175
20
-26.50012
30
0
11
26.825
21
-26.50012
31
0
39
0
210
0
220
0
230
1
0
SOLID
5
11E
100
AcDbEntity
8
0
62
256
6
ByLayer
370
-1
48
1
60
0
100
AcDbTrace
10
3.175
20
-25.970953
30
0
11
3.175
21
-27.029287
31
0
12
0
22
-26.50012
32
0
13
0
23
-26.50012
33
0
39
0
210
0
220
0
230
1
0
SOLID
5
11F
100
AcDbEntity
8
0
62
256
6
ByLayer
370
-1
48
1
60
0
100
AcDbTrace
10
26.825
20
-27.029287
30
0
11
26.825
21
-25.970953
31
0
12
30
22
-26.50012
32
0
13
30
23
-26.50012
33
0
39
0
210
0
220
0
230
1
0
MTEXT
5
120
100
AcDbEntity
8
0
62
256
6
ByLayer
370
18
48
1
60
0
100
AcDbMText
10
15
20
-19.19362
30
0
210
0
220
0
230
1
1
\A1;30
40
3.50012
41
0
44
1
50
0
71
5
72
5
7
iso_b_vert
0
POINT
5
121
100
AcDbEntity
8
Defpoints
62
0
6
ByLayer
370
-1
48
1
60
0
100
AcDbPoint
10
0
20
-3
30
0
39
0
210
0
220
0
230
1
50
360
0
POINT
5
122
100
AcDbEntity
8
Defpoints
62
0
6
ByLayer
370
-1
48
1
60
0
100
AcDbPoint
10
30
20
0
30
0
39
0
210
0
220
0
230
1
50
360
0
POINT
5
123
100
AcDbEntity
8
Defpoints
62
0
6
ByLayer
370
-1
48
1
60
0
100
AcDbPoint
10
30
20
-26.50012
30
0
39
0
210
0
220
0
230
1
50
360
0
ENDBLK
5
11A
100
AcDbEntity
8
0
100
AcDbBlockEnd
0
BLOCK
5
131
100
AcDbEntity
8
0
100
AcDbBlockBegin
2
_U0
70
0
10
0
20
0
30
0
3
_U0
0
MTEXT
5
125
100
AcDbEntity
8
SK2
62
256
6
ByLayer
370
18
48
1
60
0
100
AcDbMText
10
9.770389
20
-25.467451
30
0
210
0
220
0
230
1
1
\W0.7468;30.00
40
3.50012
41
0
44
1.084337
50
0
71
7
72
5
7
iso_b_vert
0
MTEXT
5
126
100
AcDbEntity
8
SK2
62
256
6
ByLayer
370
18
48
1
60
0
100
AcDbMText
10
6.244329
20
-25.400814
30
0
210
0
220
0
230
1
1
\W0.1790;(
40
3.175
41
0
44
1.084337
50
0
71
7
72
5
7
iso_b_vert
0
MTEXT
5
127
100
AcDbEntity
8
SK2
62
256
6
ByLayer
370
18
48
1
60
0
100
AcDbMText
10
23.758393
20
-25.400814
30
0
210
0
220
0
230
1
1
\W0.1969;)
40
3.175
41
0
44
1.084337
50
0
71
7
72
5
7
iso_b_vert
0
LINE
5
128
100
AcDbEntity
8
SK2
62
256
6
ByLayer
370
13
48
1
60
0
100
AcDbLine
10
0
20
-4.5875
30
0
11
0
21
-29.67512
31
0
39
0
210
0
220
0
230
1
0
LINE
5
129
100
AcDbEntity
8
SK2
62
256
6
ByLayer
370
13
48
1
60
0
100
AcDbLine
10
30
20
-1.5875
30
0
11
30
21
-29.67512
31
0
39
0
210
0
220
0
230
1
0
LINE
5
12A
100
AcDbEntity
8
SK2
62
256
6
ByLayer
370
13
48
1
60
0
100
AcDbLine
10
0
20
-26.50012
30
0
11
30
21
-26.50012
31
0
39
0
210
0
220
0
230
1
0
LINE
5
12B
100
AcDbEntity
8
SK2
62
256
6
ByLayer
370
13
48
1
60
0
100
AcDbLine
10
0
20
-26.50012
30
0
11
3.174998
21
-26.082123
31
0
39
0
210
0
220
0
230
1
0
LINE
5
12C
100
AcDbEntity
8
SK2
62
256
6
ByLayer
370
13
48
1
60
0
100
AcDbLine
10
0
20
-26.50012
30
0
11
3.175002
21
-26.918117
31
0
39
0
210
0
220
0
230
1
0
LINE
5
12D
100
AcDbEntity
8
SK2
62
256
6
ByLayer
370
13
48
1
60
0
100
AcDbLine
10
3.174998
20
-26.082123
30
0
11
3.175002
21
-26.918117
31
0
39
0
210
0
220
0
230
1
0
LINE
5
12E
100
AcDbEntity
8
SK2
62
256
6
ByLayer
370
13
48
1
60
0
100
AcDbLine
10
30
20
-26.50012
30
0
11
26.825002
21
-26.918117
31
0
39
0
210
0
220
0
230
1
0
LINE
5
12F
100
AcDbEntity
8
SK2
62
256
6
ByLayer
370
13
48
1
60
0
100
AcDbLine
10
30
20
-26.50012
30
0
11
26.824998
21
-26.082123
31
0
39
0
210
0
220
0
230
1
0
LINE
5
130
100
AcDbEntity
8
SK2
62
256
6
ByLayer
370
13
48
1
60
0
100
AcDbLine
10
26.825002
20
-26.918117
30
0
11
26.824998
21
-26.082123
31
0
39
0
210
0
220
0
230
1
0
ENDBLK
5
132
100
AcDbEntity
8
0
100
AcDbBlockEnd
0
BLOCK
5
137
100
AcDbEntity
8
0
100
AcDbBlockBegin
2
*D4
70
1
10
0
20
0
30
0
3
*D4
0
LINE
5
139
100
AcDbEntity
8
0
62
256
6
ByLayer
370
-2
48
1
60
0
100
AcDbLine
10
30.6776
20
-2.5
30
0
11
39.92506
21
-2.5
31
0
39
0
210
0
220
0
230
1
0
LINE
5
13A
100
AcDbEntity
8
0
62
256
6
ByLayer
370
-2
48
1
60
0
100
AcDbLine
10
30.6776
20
2.5
30
0
11
39.92506
21
2.5
31
0
39
0
210
0
220
0
230
1
0
LINE
5
13B
100
AcDbEntity
8
0
62
256
6
ByLayer
370
-2
48
1
60
0
100
AcDbLine
10
36.75006
20
2.5
30
0
11
36.75006
21
22.296294
31
0
39
0
210
0
220
0
230
1
0
LINE
5
13C
100
AcDbEntity
8
0
62
256
6
ByLayer
370
-2
48
1
60
0
100
AcDbLine
10
36.75006
20
-5.675
30
0
11
36.75006
21
-8.85
31
0
39
0
210
0
220
0
230
1
0
LINE
5
13D
100
AcDbEntity
8
0
62
256
6
ByLayer
370
-2
48
1
60
0
100
AcDbLine
10
36.75006
20
5.675
30
0
11
36.75006
21
8.85
31
0
39
0
210
0
220
0
230
1
0
SOLID
5
13E
100
AcDbEntity
8
0
62
256
6
ByLayer
370
-1
48
1
60
0
100
AcDbTrace
10
37.279227
20
-5.675
30
0
11
36.220893
21
-5.675
31
0
12
36.75006
22
-2.5
32
0
13
36.75006
23
-2.5
33
0
39
0
210
0
220
0
230
1
0
SOLID
5
13F
100
AcDbEntity
8
0
62
256
6
ByLayer
370
-1
48
1
60
0
100
AcDbTrace
10
36.220893
20
5.675
30
0
11
37.279227
21
5.675
31
0
12
36.75006
22
2.5
32
0
13
36.75006
23
2.5
33
0
39
0
210
0
220
0
230
1
0
MTEXT
5
140
100
AcDbEntity
8
0
62
256
6
ByLayer
370
18
48
1
60
0
100
AcDbMText
10
29.443559
20
15.573147
30
0
210
0
220
0
230
1
1
\A1;5
40
3.50012
41
0
44
1
50
90
71
5
72
5
7
iso_b_vert
0
POINT
5
141
100
AcDbEntity
8
Defpoints
62
0
6
ByLayer
370
-1
48
1
60
0
100
AcDbPoint
10
29.0901
20
-2.5
30
0
39
0
210
0
220
0
230
1
50
360
0
POINT
5
142
100
AcDbEntity
8
Defpoints
62
0
6
ByLayer
370
-1
48
1
60
0
100
AcDbPoint
10
29.0901
20
2.5
30
0
39
0
210
0
220
0
230
1
50
360
0
POINT
5
143
100
AcDbEntity
8
Defpoints
62
0
6
ByLayer
370
-1
48
1
60
0
100
AcDbPoint
10
36.75006
20
2.5
30
0
39
0
210
0
220
0
230
1
50
360
0
ENDBLK
5
138
100
AcDbEntity
8
0
100
AcDbBlockEnd
0
BLOCK
5
150
100
AcDbEntity
8
0
100
AcDbBlockBegin
2
_U1
70
0
10
0
20
0
30
0
3
_U1
0
MTEXT
5
146
100
AcDbEntity
8
2
62
256
6
ByLayer
370
18
48
1
60
0
100
AcDbMText
10
36.060403
20
6.657505
30
0
210
0
220
0
230
1
1
\W0.7346;5.00
40
3.50012
41
0
44
1.084337
50
90
71
7
72
5
7
iso_b_vert
0
LINE
5
147
100
AcDbEntity
8
2
62
256
6
ByLayer
370
13
48
1
60
0
100
AcDbLine
10
30.6776
20
-2.5
30
0
11
39.92506
21
-2.5
31
0
39
0
210
0
220
0
230
1
0
LINE
5
148
100
AcDbEntity
8
2
62
256
6
ByLayer
370
13
48
1
60
0
100
AcDbLine
10
30.6776
20
2.5
30
0
11
39.92506
21
2.5
31
0
39
0
210
0
220
0
230
1
0
LINE
5
149
100
AcDbEntity
8
2
62
256
6
ByLayer
370
13
48
1
60
0
100
AcDbLine
10
36.75006
20
14.71468
30
0
11
36.75006
21
-11.2503
31
0
39
0
210
0
220
0
230
1
0
LINE
5
14A
100
AcDbEntity
8
2
62
256
6
ByLayer
370
13
48
1
60
0
100
AcDbLine
10
36.75006
20
-2.5
30
0
11
37.168057
21
-5.674998
31
0
39
0
210
0
220
0
230
1
0
LINE
5
14B
100
AcDbEntity
8
2
62
256
6
ByLayer
370
13
48
1
60
0
100
AcDbLine
10
36.75006
20
-2.5
30
0
11
36.332063
21
-5.675002
31
0
39
0
210
0
220
0
230
1
0
LINE
5
14C
100
AcDbEntity
8
2
62
256
6
ByLayer
370
13
48
1
60
0
100
AcDbLine
10
37.168057
20
-5.674998
30
0
11
36.332063
21
-5.675002
31
0
39
0
210
0
220
0
230
1
0
LINE
5
14D
100
AcDbEntity
8
2
62
256
6
ByLayer
370
13
48
1
60
0
100
AcDbLine
10
36.75006
20
2.5
30
0
11
36.332063
21
5.674998
31
0
39
0
210
0
220
0
230
1
0
LINE
5
14E
100
AcDbEntity
8
2
62
256
6
ByLayer
370
13
48
1
60
0
100
AcDbLine
10
36.75006
20
2.5
30
0
11
37.168057
21
5.675002
31
0
39
0
210
0
220
0
230
1
0
LINE
5
14F
100
AcDbEntity
8
2
62
256
6
ByLayer
370
13
48
1
60
0
100
AcDbLine
10
36.332063
20
5.674998
30
0
11
37.168057
21
5.675002
31
0
39
0
210
0
220
0
230
1
0
ENDBLK
5
151
100
AcDbEntity
8
0
100
AcDbBlockEnd
0
BLOCK
5
156
100
AcDbEntity
8
0
100
AcDbBlockBegin
2
*D6
70
1
10
0
20
0
30
0
3
*D6
0
LINE
5
158
100
AcDbEntity
8
0
62
256
6
ByLayer
370
-2
48
1
60
0
100
AcDbLine
10
-37.5875
20
3
30
0
11
-42.42494
21
3
31
0
39
0
210
0
220
0
230
1
0
LINE
5
159
100
AcDbEntity
8
0
62
256
6
ByLayer
370
-2
48
1
60
0
100
AcDbLine
10
-37.5875
20
-3
30
0
11
-42.42494
21
-3
31
0
39
0
210
0
220
0
230
1
0
LINE
5
15A
100
AcDbEntity
8
0
62
256
6
ByLayer
370
-2
48
1
60
0
100
AcDbLine
10
-39.24994
20
3
30
0
11
-39.24994
21
23.747151
31
0
39
0
210
0
220
0
230
1
0
LINE
5
15B
100
AcDbEntity
8
0
62
256
6
ByLayer
370
-2
48
1
60
0
100
AcDbLine
10
-39.24994
20
6.175
30
0
11
-39.24994
21
9.35
31
0
39
0
210
0
220
0
230
1
0
LINE
5
15C
100
AcDbEntity
8
0
62
256
6
ByLayer
370
-2
48
1
60
0
100
AcDbLine
10
-39.24994
20
-6.175
30
0
11
-39.24994
21
-9.35
31
0
39
0
210
0
220
0
230
1
0
SOLID
5
15D
100
AcDbEntity
8
0
62
256
6
ByLayer
370
-1
48
1
60
0
100
AcDbTrace
10
-39.779107
20
6.175
30
0
11
-38.720773
21
6.175
31
0
12
-39.24994
22
3
32
0
13
-39.24994
23
3
33
0
39
0
210
0
220
0
230
1
0
SOLID
5
15E
100
AcDbEntity
8
0
62
256
6
ByLayer
370
-1
48
1
60
0
100
AcDbTrace
10
-38.720773
20
-6.175
30
0
11
-39.779107
21
-6.175
31
0
12
-39.24994
22
-3
32
0
13
-39.24994
23
-3
33
0
39
0
210
0
220
0
230
1
0
MTEXT
5
15F
100
AcDbEntity
8
0
62
256
6
ByLayer
370
18
48
1
60
0
100
AcDbMText
10
-46.556441
20
17.10734
30
0
210
0
220
0
230
1
1
\A1;6
40
3.50012
41
0
44
1
50
90
71
5
72
5
7
iso_b_vert
0
POINT
5
160
100
AcDbEntity
8
Defpoints
62
0
6
ByLayer
370
-1
48
1
60
0
100
AcDbPoint
10
-36
20
3
30
0
39
0
210
0
220
0
230
1
50
360
0
POINT
5
161
100
AcDbEntity
8
Defpoints
62
0
6
ByLayer
370
-1
48
1
60
0
100
AcDbPoint
10
-36
20
-3
30
0
39
0
210
0
220
0
230
1
50
360
0
POINT
5
162
100
AcDbEntity
8
Defpoints
62
0
6
ByLayer
370
-1
48
1
60
0
100
AcDbPoint
10
-39.24994
20
-3
30
0
39
0
210
0
220
0
230
1
50
360
0
ENDBLK
5
157
100
AcDbEntity
8
0
100
AcDbBlockEnd
0
BLOCK
5
16E
100
AcDbEntity
8
0
100
AcDbBlockBegin
2
_U2
70
0
10
0
20
0
30
0
3
_U2
0
MTEXT
5
164
100
AcDbEntity
8
SK2
62
256
6
ByLayer
370
18
48
1
60
0
100
AcDbMText
10
-39.939597
20
13.157505
30
0
210
0
220
0
230
1
1
\W0.7346;6.00
40
3.50012
41
0
44
1.084337
50
90
71
7
72
5
7
iso_b_vert
0
LINE
5
165
100
AcDbEntity
8
SK2
62
256
6
ByLayer
370
13
48
1
60
0
100
AcDbLine
10
-37.5875
20
3
30
0
11
-42.42494
21
3
31
0
39
0
210
0
220
0
230
1
0
LINE
5
166
100
AcDbEntity
8
SK2
62
256
6
ByLayer
370
13
48
1
60
0
100
AcDbLine
10
-37.5875
20
-3
30
0
11
-42.42494
21
-3
31
0
39
0
210
0
220
0
230
1
0
LINE
5
167
100
AcDbEntity
8
SK2
62
256
6
ByLayer
370
13
48
1
60
0
100
AcDbLine
10
-39.24994
20
-11.7503
30
0
11
-39.24994
21
21.21468
31
0
39
0
210
0
220
0
230
1
0
LINE
5
168
100
AcDbEntity
8
SK2
62
256
6
ByLayer
370
13
48
1
60
0
100
AcDbLine
10
-39.24994
20
3
30
0
11
-39.667937
21
6.174998
31
0
39
0
210
0
220
0
230
1
0
LINE
5
169
100
AcDbEntity
8
SK2
62
256
6
ByLayer
370
13
48
1
60
0
100
AcDbLine
10
-39.24994
20
3
30
0
11
-38.831943
21
6.175002
31
0
39
0
210
0
220
0
230
1
0
LINE
5
16A
100
AcDbEntity
8
SK2
62
256
6
ByLayer
370
13
48
1
60
0
100
AcDbLine
10
-39.667937
20
6.174998
30
0
11
-38.831943
21
6.175002
31
0
39
0
210
0
220
0
230
1
0
LINE
5
16B
100
AcDbEntity
8
SK2
62
256
6
ByLayer
370
13
48
1
60
0
100
AcDbLine
10
-39.24994
20
-3
30
0
11
-38.831943
21
-6.174998
31
0
39
0
210
0
220
0
230
1
0
LINE
5
16C
100
AcDbEntity
8
SK2
62
256
6
ByLayer
370
13
48
1
60
0
100
AcDbLine
10
-39.24994
20
-3
30
0
11
-39.667937
21
-6.175002
31
0
39
0
210
0
220
0
230
1
0
LINE
5
16D
100
AcDbEntity
8
SK2
62
256
6
ByLayer
370
13
48
1
60
0
100
AcDbLine
10
-38.831943
20
-6.174998
30
0
11
-39.667937
21
-6.175002
31
0
39
0
210
0
220
0
230
1
0
ENDBLK
5
16F
100
AcDbEntity
8
0
100
AcDbBlockEnd
0
BLOCK
5
174
100
AcDbEntity
8
0
100
AcDbBlockBegin
2
*D8
70
1
10
0
20
0
30
0
3
*D8
0
LINE
5
176
100
AcDbEntity
8
0
62
256
6
ByLayer
370
-2
48
1
60
0
100
AcDbLine
10
-36
20
-4.5875
30
0
11
-36
21
-29.67512
31
0
39
0
210
0
220
0
230
1
0
LINE
5
177
100
AcDbEntity
8
0
62
256
6
ByLayer
370
-2
48
1
60
0
100
AcDbLine
10
0
20
-4.5875
30
0
11
0
21
-29.67512
31
0
39
0
210
0
220
0
230
1
0
LINE
5
178
100
AcDbEntity
8
0
62
256
6
ByLayer
370
-2
48
1
60
0
100
AcDbLine
10
-32.825
20
-26.50012
30
0
11
-3.175
21
-26.50012
31
0
39
0
210
0
220
0
230
1
0
SOLID
5
179
100
AcDbEntity
8
0
62
256
6
ByLayer
370
-1
48
1
60
0
100
AcDbTrace
10
-32.825
20
-25.970953
30
0
11
-32.825
21
-27.029287
31
0
12
-36
22
-26.50012
32
0
13
-36
23
-26.50012
33
0
39
0
210
0
220
0
230
1
0
SOLID
5
17A
100
AcDbEntity
8
0
62
256
6
ByLayer
370
-1
48
1
60
0
100
AcDbTrace
10
-3.175
20
-27.029287
30
0
11
-3.175
21
-25.970953
31
0
12
0
22
-26.50012
32
0
13
0
23
-26.50012
33
0
39
0
210
0
220
0
230
1
0
MTEXT
5
17B
100
AcDbEntity
8
0
62
256
6
ByLayer
370
18
48
1
60
0
100
AcDbMText
10
-18
20
-19.193619
30
0
210
0
220
0
230
1
1
\A1;36
40
3.50012
41
0
44
1
50
0
71
5
72
5
7
iso_b_vert
0
POINT
5
17C
100
AcDbEntity
8
Defpoints
62
0
6
ByLayer
370
-1
48
1
60
0
100
AcDbPoint
10
-36
20
-3
30
0
39
0
210
0
220
0
230
1
50
360
0
POINT
5
17D
100
AcDbEntity
8
Defpoints
62
0
6
ByLayer
370
-1
48
1
60
0
100
AcDbPoint
10
0
20
-3
30
0
39
0
210
0
220
0
230
1
50
360
0
POINT
5
17E
100
AcDbEntity
8
Defpoints
62
0
6
ByLayer
370
-1
48
1
60
0
100
AcDbPoint
10
0
20
-26.50012
30
0
39
0
210
0
220
0
230
1
50
360
0
ENDBLK
5
175
100
AcDbEntity
8
0
100
AcDbBlockEnd
0
BLOCK
5
18A
100
AcDbEntity
8
0
100
AcDbBlockBegin
2
_U3
70
0
10
0
20
0
30
0
3
_U3
0
MTEXT
5
180
100
AcDbEntity
8
SK2
62
256
6
ByLayer
370
18
48
1
60
0
100
AcDbMText
10
-23.229611
20
-25.467451
30
0
210
0
220
0
230
1
1
\W0.7468;36.00
40
3.50012
41
0
44
1.084337
50
0
71
7
72
5
7
iso_b_vert
0
LINE
5
181
100
AcDbEntity
8
SK2
62
256
6
ByLayer
370
13
48
1
60
0
100
AcDbLine
10
-36
20
-4.5875
30
0
11
-36
21
-29.67512
31
0
39
0
210
0
220
0
230
1
0
LINE
5
182
100
AcDbEntity
8
SK2
62
256
6
ByLayer
370
13
48
1
60
0
100
AcDbLine
10
0
20
-4.5875
30
0
11
0
21
-29.67512
31
0
39
0
210
0
220
0
230
1
0
LINE
5
183
100
AcDbEntity
8
SK2
62
256
6
ByLayer
370
13
48
1
60
0
100
AcDbLine
10
-36
20
-26.50012
30
0
11
0
21
-26.50012
31
0
39
0
210
0
220
0
230
1
0
LINE
5
184
100
AcDbEntity
8
SK2
62
256
6
ByLayer
370
13
48
1
60
0
100
AcDbLine
10
-36
20
-26.50012
30
0
11
-32.825002
21
-26.082123
31
0
39
0
210
0
220
0
230
1
0
LINE
5
185
100
AcDbEntity
8
SK2
62
256
6
ByLayer
370
13
48
1
60
0
100
AcDbLine
10
-36
20
-26.50012
30
0
11
-32.824998
21
-26.918117
31
0
39
0
210
0
220
0
230
1
0
LINE
5
186
100
AcDbEntity
8
SK2
62
256
6
ByLayer
370
13
48
1
60
0
100
AcDbLine
10
-32.825002
20
-26.082123
30
0
11
-32.824998
21
-26.918117
31
0
39
0
210
0
220
0
230
1
0
LINE
5
187
100
AcDbEntity
8
SK2
62
256
6
ByLayer
370
13
48
1
60
0
100
AcDbLine
10
0
20
-26.50012
30
0
11
-3.174998
21
-26.918117
31
0
39
0
210
0
220
0
230
1
0
LINE
5
188
100
AcDbEntity
8
SK2
62
256
6
ByLayer
370
13
48
1
60
0
100
AcDbLine
10
0
20
-26.50012
30
0
11
-3.175002
21
-26.082123
31
0
39
0
210
0
220
0
230
1
0
LINE
5
189
100
AcDbEntity
8
SK2
62
256
6
ByLayer
370
13
48
1
60
0
100
AcDbLine
10
-3.174998
20
-26.918117
30
0
11
-3.175002
21
-26.082123
31
0
39
0
210
0
220
0
230
1
0
ENDBLK
5
18B
100
AcDbEntity
8
0
100
AcDbBlockEnd
0
BLOCK
5
190
100
AcDbEntity
8
0
100
AcDbBlockBegin
2
*D10
70
1
10
0
20
0
30
0
3
*D10
0
LINE
5
192
100
AcDbEntity
8
0
62
256
6
ByLayer
370
-2
48
1
60
0
100
AcDbLine
10
2
20
1.4125
30
0
11
2
21
-20.92482
31
0
39
0
210
0
220
0
230
1
0
LINE
5
193
100
AcDbEntity
8
0
62
256
6
ByLayer
370
-2
48
1
60
0
100
AcDbLine
10
30
20
-1.5875
30
0
11
30
21
-20.92482
31
0
39
0
210
0
220
0
230
1
0
LINE
5
194
100
AcDbEntity
8
0
62
256
6
ByLayer
370
-2
48
1
60
0
100
AcDbLine
10
5.175
20
-17.74982
30
0
11
26.825
21
-17.74982
31
0
39
0
210
0
220
0
230
1
0
SOLID
5
195
100
AcDbEntity
8
0
62
256
6
ByLayer
370
-1
48
1
60
0
100
AcDbTrace
10
5.175
20
-17.220653
30
0
11
5.175
21
-18.278987
31
0
12
2
22
-17.74982
32
0
13
2
23
-17.74982
33
0
39
0
210
0
220
0
230
1
0
SOLID
5
196
100
AcDbEntity
8
0
62
256
6
ByLayer
370
-1
48
1
60
0
100
AcDbTrace
10
26.825
20
-18.278987
30
0
11
26.825
21
-17.220653
31
0
12
30
22
-17.74982
32
0
13
30
23
-17.74982
33
0
39
0
210
0
220
0
230
1
0
MTEXT
5
197
100
AcDbEntity
8
0
62
256
6
ByLayer
370
18
48
1
60
0
100
AcDbMText
10
16
20
-10.44332
30
0
210
0
220
0
230
1
1
\A1;28
40
3.50012
41
0
44
1
50
0
71
5
72
5
7
iso_b_vert
0
POINT
5
198
100
AcDbEntity
8
Defpoints
62
0
6
ByLayer
370
-1
48
1
60
0
100
AcDbPoint
10
2
20
3
30
0
39
0
210
0
220
0
230
1
50
360
0
POINT
5
199
100
AcDbEntity
8
Defpoints
62
0
6
ByLayer
370
-1
48
1
60
0
100
AcDbPoint
10
30
20
0
30
0
39
0
210
0
220
0
230
1
50
360
0
POINT
5
19A
100
AcDbEntity
8
Defpoints
62
0
6
ByLayer
370
-1
48
1
60
0
100
AcDbPoint
10
30
20
-17.74982
30
0
39
0
210
0
220
0
230
1
50
360
0
ENDBLK
5
191
100
AcDbEntity
8
0
100
AcDbBlockEnd
0
BLOCK
5
1A6
100
AcDbEntity
8
0
100
AcDbBlockBegin
2
_U4
70
0
10
0
20
0
30
0
3
_U4
0
MTEXT
5
19C
100
AcDbEntity
8
SK2
62
256
6
ByLayer
370
18
48
1
60
0
100
AcDbMText
10
10.770389
20
-16.717151
30
0
210
0
220
0
230
1
1
\W0.7468;28.00
40
3.50012
41
0
44
1.084337
50
0
71
7
72
5
7
iso_b_vert
0
LINE
5
19D
100
AcDbEntity
8
SK2
62
256
6
ByLayer
370
13
48
1
60
0
100
AcDbLine
10
2
20
1.4125
30
0
11
2
21
-20.92482
31
0
39
0
210
0
220
0
230
1
0
LINE
5
19E
100
AcDbEntity
8
SK2
62
256
6
ByLayer
370
13
48
1
60
0
100
AcDbLine
10
30
20
-1.5875
30
0
11
30
21
-20.92482
31
0
39
0
210
0
220
0
230
1
0
LINE
5
19F
100
AcDbEntity
8
SK2
62
256
6
ByLayer
370
13
48
1
60
0
100
AcDbLine
10
2
20
-17.74982
30
0
11
30
21
-17.74982
31
0
39
0
210
0
220
0
230
1
0
LINE
5
1A0
100
AcDbEntity
8
SK2
62
256
6
ByLayer
370
13
48
1
60
0
100
AcDbLine
10
2
20
-17.74982
30
0
11
5.174998
21
-17.331823
31
0
39
0
210
0
220
0
230
1
0
LINE
5
1A1
100
AcDbEntity
8
SK2
62
256
6
ByLayer
370
13
48
1
60
0
100
AcDbLine
10
2
20
-17.74982
30
0
11
5.175002
21
-18.167817
31
0
39
0
210
0
220
0
230
1
0
LINE
5
1A2
100
AcDbEntity
8
SK2
62
256
6
ByLayer
370
13
48
1
60
0
100
AcDbLine
10
5.174998
20
-17.331823
30
0
11
5.175002
21
-18.167817
31
0
39
0
210
0
220
0
230
1
0
LINE
5
1A3
100
AcDbEntity
8
SK2
62
256
6
ByLayer
370
13
48
1
60
0
100
AcDbLine
10
30
20
-17.74982
30
0
11
26.825002
21
-18.167817
31
0
39
0
210
0
220
0
230
1
0
LINE
5
1A4
100
AcDbEntity
8
SK2
62
256
6
ByLayer
370
13
48
1
60
0
100
AcDbLine
10
30
20
-17.74982
30
0
11
26.824998
21
-17.331823
31
0
39
0
210
0
220
0
230
1
0
LINE
5
1A5
100
AcDbEntity
8
SK2
62
256
6
ByLayer
370
13
48
1
60
0
100
AcDbLine
10
26.825002
20
-18.167817
30
0
11
26.824998
21
-17.331823
31
0
39
0
210
0
220
0
230
1
0
ENDBLK
5
1A7
100
AcDbEntity
8
0
100
AcDbBlockEnd
0
BLOCK
5
1AC
100
AcDbEntity
8
0
100
AcDbBlockBegin
2
*D12
70
1
10
0
20
0
30
0
3
*D12
0
LINE
5
1AE
100
AcDbEntity
8
0
62
256
6
ByLayer
370
-2
48
1
60
0
100
AcDbLine
10
14.1
20
-4.0875
30
0
11
14.1
21
-10.32
31
0
39
0
210
0
220
0
230
1
0
LINE
5
1AF
100
AcDbEntity
8
0
62
256
6
ByLayer
370
-2
48
1
60
0
100
AcDbLine
10
30
20
-1.5875
30
0
11
30
21
-10.32
31
0
39
0
210
0
220
0
230
1
0
LINE
5
1B0
100
AcDbEntity
8
0
62
256
6
ByLayer
370
-2
48
1
60
0
100
AcDbLine
10
17.275
20
-9.82
30
0
11
26.825
21
-9.82
31
0
39
0
210
0
220
0
230
1
0
SOLID
5
1B1
100
AcDbEntity
8
0
62
256
6
ByLayer
370
-1
48
1
60
0
100
AcDbTrace
10
17.275
20
-9.290833
30
0
11
17.275
21
-10.349167
31
0
12
14.1
22
-9.82
32
0
13
14.1
23
-9.82
33
0
39
0
210
0
220
0
230
1
0
SOLID
5
1B2
100
AcDbEntity
8
0
62
256
6
ByLayer
370
-1
48
1
60
0
100
AcDbTrace
10
26.825
20
-10.349167
30
0
11
26.825
21
-9.290833
31
0
12
30
22
-9.82
32
0
13
30
23
-9.82
33
0
39
0
210
0
220
0
230
1
0
MTEXT
5
1B3
100
AcDbEntity
8
0
62
256
6
ByLayer
370
18
48
1
60
0
100
AcDbMText
10
22.05
20
-3.975
30
0
210
0
220
0
230
1
1
\A1;15.9
40
2.8
41
0
44
1
50
0
71
5
72
5
7
iso_b_vert
0
POINT
5
1B4
100
AcDbEntity
8
Defpoints
62
0
6
ByLayer
370
-1
48
1
60
0
100
AcDbPoint
10
14.1
20
-2.5
30
0
39
0
210
0
220
0
230
1
50
360
0
POINT
5
1B5
100
AcDbEntity
8
Defpoints
62
0
6
ByLayer
370
-1
48
1
60
0
100
AcDbPoint
10
30
20
0
30
0
39
0
210
0
220
0
230
1
50
360
0
POINT
5
1B6
100
AcDbEntity
8
Defpoints
62
0
6
ByLayer
370
-1
48
1
60
0
100
AcDbPoint
10
30
20
-9.82
30
0
39
0
210
0
220
0
230
1
50
360
0
ENDBLK
5
1AD
100
AcDbEntity
8
0
100
AcDbBlockEnd
0
BLOCK
5
1C2
100
AcDbEntity
8
0
100
AcDbBlockBegin
2
_U5
70
0
10
0
20
0
30
0
3
_U5
0
MTEXT
5
1B8
100
AcDbEntity
8
SK2
62
256
6
ByLayer
370
18
48
1
60
0
100
AcDbMText
10
18.216401
20
-9.973893
30
0
210
0
220
0
230
1
1
\W0.6864;15.90
40
2.8
41
0
44
1.084337
50
0
71
7
72
5
7
iso_b_vert
0
LINE
5
1B9
100
AcDbEntity
8
SK2
62
256
6
ByLayer
370
13
48
1
60
0
100
AcDbLine
10
14.1
20
-4.0875
30
0
11
14.1
21
-10.32
31
0
39
0
210
0
220
0
230
1
0
LINE
5
1BA
100
AcDbEntity
8
SK2
62
256
6
ByLayer
370
13
48
1
60
0
100
AcDbLine
10
30
20
-1.5875
30
0
11
30
21
-10.32
31
0
39
0
210
0
220
0
230
1
0
LINE
5
1BB
100
AcDbEntity
8
SK2
62
256
6
ByLayer
370
13
48
1
60
0
100
AcDbLine
10
7.1
20
-9.82
30
0
11
37
21
-9.82
31
0
39
0
210
0
220
0
230
1
0
LINE
5
1BC
100
AcDbEntity
8
SK2
62
256
6
ByLayer
370
13
48
1
60
0
100
AcDbLine
10
14.1
20
-9.82
30
0
11
10.925002
21
-10.237997
31
0
39
0
210
0
220
0
230
1
0
LINE
5
1BD
100
AcDbEntity
8
SK2
62
256
6
ByLayer
370
13
48
1
60
0
100
AcDbLine
10
14.1
20
-9.82
30
0
11
10.924998
21
-9.402003
31
0
39
0
210
0
220
0
230
1
0
LINE
5
1BE
100
AcDbEntity
8
SK2
62
256
6
ByLayer
370
13
48
1
60
0
100
AcDbLine
10
10.925002
20
-10.237997
30
0
11
10.924998
21
-9.402003
31
0
39
0
210
0
220
0
230
1
0
LINE
5
1BF
100
AcDbEntity
8
SK2
62
256
6
ByLayer
370
13
48
1
60
0
100
AcDbLine
10
30
20
-9.82
30
0
11
33.174998
21
-9.402003
31
0
39
0
210
0
220
0
230
1
0
LINE
5
1C0
100
AcDbEntity
8
SK2
62
256
6
ByLayer
370
13
48
1
60
0
100
AcDbLine
10
30
20
-9.82
30
0
11
33.175002
21
-10.237997
31
0
39
0
210
0
220
0
230
1
0
LINE
5
1C1
100
AcDbEntity
8
SK2
62
256
6
ByLayer
370
13
48
1
60
0
100
AcDbLine
10
33.174998
20
-9.402003
30
0
11
33.175002
21
-10.237997
31
0
39
0
210
0
220
0
230
1
0
ENDBLK
5
1C3
100
AcDbEntity
8
0
100
AcDbBlockEnd
0
BLOCK
5
1C8
100
AcDbEntity
8
0
100
AcDbBlockBegin
2
*D14
70
1
10
0
20
0
30
0
3
*D14
0
LINE
5
1CA
100
AcDbEntity
8
0
62
256
6
ByLayer
370
-2
48
1
60
0
100
AcDbLine
10
-36
20
-1.5875
30
0
11
-36
21
-39.67512
31
0
39
0
210
0
220
0
230
1
0
LINE
5
1CB
100
AcDbEntity
8
0
62
256
6
ByLayer
370
-2
48
1
60
0
100
AcDbLine
10
30
20
-1.5875
30
0
11
30
21
-39.67512
31
0
39
0
210
0
220
0
230
1
0
LINE
5
1CC
100
AcDbEntity
8
0
62
256
6
ByLayer
370
-2
48
1
60
0
100
AcDbLine
10
-32.825
20
-36.50012
30
0
11
26.825
21
-36.50012
31
0
39
0
210
0
220
0
230
1
0
SOLID
5
1CD
100
AcDbEntity
8
0
62
256
6
ByLayer
370
-1
48
1
60
0
100
AcDbTrace
10
-32.825
20
-35.970953
30
0
11
-32.825
21
-37.029287
31
0
12
-36
22
-36.50012
32
0
13
-36
23
-36.50012
33
0
39
0
210
0
220
0
230
1
0
SOLID
5
1CE
100
AcDbEntity
8
0
62
256
6
ByLayer
370
-1
48
1
60
0
100
AcDbTrace
10
26.825
20
-37.029287
30
0
11
26.825
21
-35.970953
31
0
12
30
22
-36.50012
32
0
13
30
23
-36.50012
33
0
39
0
210
0
220
0
230
1
0
MTEXT
5
1CF
100
AcDbEntity
8
0
62
256
6
ByLayer
370
18
48
1
60
0
100
AcDbMText
10
-3
20
-29.19362
30
0
210
0
220
0
230
1
1
\A1;66
40
3.50012
41
0
44
1
50
0
71
5
72
5
7
iso_b_vert
0
POINT
5
1D0
100
AcDbEntity
8
Defpoints
62
0
6
ByLayer
370
-1
48
1
60
0
100
AcDbPoint
10
-36
20
0
30
0
39
0
210
0
220
0
230
1
50
360
0
POINT
5
1D1
100
AcDbEntity
8
Defpoints
62
0
6
ByLayer
370
-1
48
1
60
0
100
AcDbPoint
10
30
20
0
30
0
39
0
210
0
220
0
230
1
50
360
0
POINT
5
1D2
100
AcDbEntity
8
Defpoints
62
0
6
ByLayer
370
-1
48
1
60
0
100
AcDbPoint
10
30
20
-36.50012
30
0
39
0
210
0
220
0
230
1
50
360
0
ENDBLK
5
1C9
100
AcDbEntity
8
0
100
AcDbBlockEnd
0
BLOCK
5
1DE
100
AcDbEntity
8
0
100
AcDbBlockBegin
2
_U6
70
0
10
0
20
0
30
0
3
_U6
0
MTEXT
5
1D4
100
AcDbEntity
8
SK2
62
256
6
ByLayer
370
18
48
1
60
0
100
AcDbMText
10
-8.229611
20
-35.467451
30
0
210
0
220
0
230
1
1
\W0.7468;66.00
40
3.50012
41
0
44
1.084337
50
0
71
7
72
5
7
iso_b_vert
0
LINE
5
1D5
100
AcDbEntity
8
SK2
62
256
6
ByLayer
370
13
48
1
60
0
100
AcDbLine
10
-36
20
-1.5875
30
0
11
-36
21
-39.67512
31
0
39
0
210
0
220
0
230
1
0
LINE
5
1D6
100
AcDbEntity
8
SK2
62
256
6
ByLayer
370
13
48
1
60
0
100
AcDbLine
10
30
20
-1.5875
30
0
11
30
21
-39.67512
31
0
39
0
210
0
220
0
230
1
0
LINE
5
1D7
100
AcDbEntity
8
SK2
62
256
6
ByLayer
370
13
48
1
60
0
100
AcDbLine
10
-36
20
-36.50012
30
0
11
30
21
-36.50012
31
0
39
0
210
0
220
0
230
1
0
LINE
5
1D8
100
AcDbEntity
8
SK2
62
256
6
ByLayer
370
13
48
1
60
0
100
AcDbLine
10
-36
20
-36.50012
30
0
11
-32.825002
21
-36.082123
31
0
39
0
210
0
220
0
230
1
0
LINE
5
1D9
100
AcDbEntity
8
SK2
62
256
6
ByLayer
370
13
48
1
60
0
100
AcDbLine
10
-36
20
-36.50012
30
0
11
-32.824998
21
-36.918117
31
0
39
0
210
0
220
0
230
1
0
LINE
5
1DA
100
AcDbEntity
8
SK2
62
256
6
ByLayer
370
13
48
1
60
0
100
AcDbLine
10
-32.825002
20
-36.082123
30
0
11
-32.824998
21
-36.918117
31
0
39
0
210
0
220
0
230
1
0
LINE
5
1DB
100
AcDbEntity
8
SK2
62
256
6
ByLayer
370
13
48
1
60
0
100
AcDbLine
10
30
20
-36.50012
30
0
11
26.825002
21
-36.918117
31
0
39
0
210
0
220
0
230
1
0
LINE
5
1DC
100
AcDbEntity
8
SK2
62
256
6
ByLayer
370
13
48
1
60
0
100
AcDbLine
10
30
20
-36.50012
30
0
11
26.824998
21
-36.082123
31
0
39
0
210
0
220
0
230
1
0
LINE
5
1DD
100
AcDbEntity
8
SK2
62
256
6
ByLayer
370
13
48
1
60
0
100
AcDbLine
10
26.825002
20
-36.918117
30
0
11
26.824998
21
-36.082123
31
0
39
0
210
0
220
0
230
1
0
ENDBLK
5
1DF
100
AcDbEntity
8
0
100
AcDbBlockEnd
0
ENDSEC
0
SECTION
2
ENTITIES
0
ARC
5
B2
100
AcDbEntity
8
1
62
256
6
ByLayer
370
18
48
1
60
0
100
AcDbCircle
39
0
10
1.178167
20
3.282554
30
0
40
0.800000000000003
210
0
220
0
230
1
100
AcDbArc
50
222.578227
51
270.03581
0
ARC
5
B3
100
AcDbEntity
8
1
62
256
6
ByLayer
370
18
48
1
60
0
100
AcDbCircle
39
0
10
1.178167
20
-3.282554
30
0
40
0.800000000000003
210
0
220
0
230
1
100
AcDbArc
50
89.96419
51
137.421773
0
ARC
5
B4
100
AcDbEntity
8
1
62
256
6
ByLayer
370
18
48
1
60
0
100
AcDbCircle
39
0
10
0
20
2.2
30
0
40
0.800000000000003
210
0
220
0
230
1
100
AcDbArc
50
42.578227
51
90
0
ARC
5
B5
100
AcDbEntity
8
1
62
256
6
ByLayer
370
18
48
1
60
0
100
AcDbCircle
39
0
10
0
20
-2.2
30
0
40
0.800000000000003
210
0
220
0
230
1
100
AcDbArc
50
270
51
317.421773
0
ARC
5
B6
100
AcDbEntity
8
SK2
62
256
6
ByLayer
370
13
48
1
60
0
100
AcDbCircle
39
0
10
30
20
0
30
0
40
20
210
0
220
0
230
1
100
AcDbArc
50
9.606349
51
70.000518
0
ARC
5
B7
100
AcDbEntity
8
SK2
62
256
6
ByLayer
370
13
48
1
60
0
100
AcDbCircle
39
0
10
30
20
0
30
0
40
20
210
0
220
0
230
1
100
AcDbArc
50
289.999482
51
350.393651
0
ELLIPSE
5
B8
100
AcDbEntity
8
1
62
256
6
ByLayer
370
18
48
1
60
0
100
AcDbEllipse
10
3.63979
20
2.361567
30
0
11
0.000464468306403143
21
-0.00998920763586117
31
0
210
0
220
0
230
1
40
0.417267
41
-0.0934371793738174
42
1.47077598823532
0
ELLIPSE
5
B9
100
AcDbEntity
8
1
62
256
6
ByLayer
370
18
48
1
60
0
100
AcDbEllipse
10
3.602747
20
2.36057
30
0
11
-8.43559920388207E-05
21
0.00999964419700057
31
0
210
0
220
0
230
1
40
0.007059
41
3.05316910561194
42
-1.65960621972278
0
ELLIPSE
5
BA
100
AcDbEntity
8
1
62
256
6
ByLayer
370
18
48
1
60
0
100
AcDbEllipse
10
3.602047
20
2.459812
30
0
11
-0.1
21
1.22460635382238E-17
31
0
210
0
220
0
230
1
40
0.999995
41
0.000227162177107965
42
1.5802407431182
0
POINT
5
70
100
AcDbEntity
8
80
62
256
6
ByLayer
370
18
48
1
60
0
100
AcDbPoint
10
0
20
0
30
0
39
0
210
0
220
0
230
1
50
360
0
POINT
5
72
100
AcDbEntity
8
81
62
256
6
ByLayer
370
18
48
1
60
0
100
AcDbPoint
10
30
20
0
30
0
39
0
210
0
220
0
230
1
50
360
0
POINT
5
74
100
AcDbEntity
8
1
62
256
6
ByLayer
370
18
48
1
60
0
100
AcDbPoint
10
-36
20
0
30
0
39
0
210
0
220
0
230
1
50
360
0
POINT
5
76
100
AcDbEntity
8
1
62
256
6
ByLayer
370
18
48
1
60
1
100
AcDbPoint
10
0
20
-3
30
0
39
0
210
0
220
0
230
1
50
360
0
POINT
5
77
100
AcDbEntity
8
1
62
256
6
ByLayer
370
18
48
1
60
1
100
AcDbPoint
10
30
20
0
30
0
39
0
210
0
220
0
230
1
50
360
0
POINT
5
78
100
AcDbEntity
8
1
62
256
6
ByLayer
370
18
48
1
60
1
100
AcDbPoint
10
29.0901
20
-2.5
30
0
39
0
210
0
220
0
230
1
50
360
0
POINT
5
79
100
AcDbEntity
8
1
62
256
6
ByLayer
370
18
48
1
60
1
100
AcDbPoint
10
29.0901
20
2.5
30
0
39
0
210
0
220
0
230
1
50
360
0
POINT
5
7A
100
AcDbEntity
8
1
62
256
6
ByLayer
370
18
48
1
60
1
100
AcDbPoint
10
-36
20
3
30
0
39
0
210
0
220
0
230
1
50
360
0
POINT
5
7B
100
AcDbEntity
8
1
62
256
6
ByLayer
370
18
48
1
60
1
100
AcDbPoint
10
-36
20
-3
30
0
39
0
210
0
220
0
230
1
50
360
0
POINT
5
7C
100
AcDbEntity
8
1
62
256
6
ByLayer
370
18
48
1
60
1
100
AcDbPoint
10
-36
20
-3
30
0
39
0
210
0
220
0
230
1
50
360
0
POINT
5
7D
100
AcDbEntity
8
1
62
256
6
ByLayer
370
18
48
1
60
1
100
AcDbPoint
10
0
20
-3
30
0
39
0
210
0
220
0
230
1
50
360
0
POINT
5
7E
100
AcDbEntity
8
1
62
256
6
ByLayer
370
18
48
1
60
1
100
AcDbPoint
10
2
20
3
30
0
39
0
210
0
220
0
230
1
50
360
0
POINT
5
7F
100
AcDbEntity
8
1
62
256
6
ByLayer
370
18
48
1
60
1
100
AcDbPoint
10
30
20
0
30
0
39
0
210
0
220
0
230
1
50
360
0
POINT
5
80
100
AcDbEntity
8
1
62
256
6
ByLayer
370
18
48
1
60
1
100
AcDbPoint
10
14.1
20
-2.5
30
0
39
0
210
0
220
0
230
1
50
360
0
POINT
5
81
100
AcDbEntity
8
1
62
256
6
ByLayer
370
18
48
1
60
1
100
AcDbPoint
10
30
20
0
30
0
39
0
210
0
220
0
230
1
50
360
0
POINT
5
82
100
AcDbEntity
8
1
62
256
6
ByLayer
370
18
48
1
60
1
100
AcDbPoint
10
-36
20
0
30
0
39
0
210
0
220
0
230
1
50
360
0
POINT
5
83
100
AcDbEntity
8
1
62
256
6
ByLayer
370
18
48
1
60
1
100
AcDbPoint
10
30
20
0
30
0
39
0
210
0
220
0
230
1
50
360
0
SPLINE
5
BB
100
AcDbEntity
8
1
62
256
6
ByLayer
370
18
48
1
60
0
100
AcDbSpline
70
4
71
3
72
24
73
20
40
0
40
0
40
0
40
0
40
0.22173637106094
40
0.22173637106094
40
0.314785591194773
40
0.314785591194773
40
0.407834811328605
40
0.407834811328605
40
0.593933251596271
40
0.593933251596271
40
0.780031691863936
40
0.780031691863936
40
0.826556301930853
40
0.826556301930853
40
0.87308091199777
40
0.87308091199777
40
0.966130132131607
40
0.966130132131607
40
1
40
1
40
1
40
1
41
1
10
4.89363710373331
20
0.175785722968413
30
0
41
1
10
5.52556245944518
20
-0.109921974297038
30
0
41
1
10
6.15545564349716
20
-0.39893904989421
30
0
41
1
10
7.05696578056239
20
-0.790988292464675
30
0
41
1
10
7.32519733754066
20
-0.905041679614015
30
1E-16
41
1
10
7.85928979650402
20
-1.12418652837658
30
1E-16
41
1
10
8.12505098887266
20
-1.22914983980562
30
1E-16
41
1
10
8.92005551981686
20
-1.52765088769476
30
1E-16
41
1
10
9.44704974406119
20
-1.70509969445817
30
1E-16
41
1
10
10.5033075343317
20
-2.0029182607137
30
-1E-16
41
1
10
11.032504947204
20
-2.12351520848449
30
-1E-16
41
1
10
11.7005192625461
20
-2.23183589261319
30
0
41
1
10
11.8346299235352
20
-2.25141806697425
30
0
41
1
10
12.1017546892308
20
-2.28579179129199
30
0
41
1
10
12.2349663013752
20
-2.30064171856029
30
0
41
1
10
12.6337973847101
20
-2.33836901780234
30
0
41
1
10
12.8986093206277
20
-2.3544213490753
30
0
41
1
10
13.2590472070816
20
-2.3640112185461
30
0
41
1
10
13.3551587337693
20
-2.36533817081312
30
0
41
1
10
13.4512194011541
20
-2.36544397982752
30
0
0
SPLINE
5
BC
100
AcDbEntity
8
1
62
256
6
ByLayer
370
18
48
1
60
0
100
AcDbSpline
70
4
71
3
72
8
73
4
40
0
40
0
40
0
40
0
40
1
40
1
40
1
40
1
41
1
10
29.9963611674938
20
0.177477210157519
30
0
41
1
10
30.0012193597337
20
0.0590026164171604
30
0
41
1
10
30.001206545519
20
-0.0593151110088286
30
0
41
1
10
29.9963611674949
20
-0.177477210130775
30
0
0
SPLINE
5
BD
100
AcDbEntity
8
1
62
256
6
ByLayer
370
18
48
1
60
0
100
AcDbSpline
70
4
71
3
72
20
73
16
40
0
40
0
40
0
40
0
40
0.199737275524007
40
0.199737275524007
40
0.492535604539756
40
0.492535604539756
40
0.688175297905504
40
0.688175297905504
40
0.818819267848747
40
0.818819267848747
40
0.906074577633146
40
0.906074577633146
40
0.964347076277749
40
0.964347076277749
40
1
40
1
40
1
40
1
41
1
10
28.9788005820435
20
-2.49969234507216
30
0
41
1
10
28.9880593167059
20
-2.49360224847567
30
0
41
1
10
28.9973228872578
20
-2.48749344945969
30
0
41
1
10
29.0201781407356
20
-2.47238406321722
30
0
41
1
10
29.0337766600936
20
-2.46336138067613
30
0
41
1
10
29.0564745419862
20
-2.44824820911708
30
0
41
1
10
29.0655692880836
20
-2.44217839167823
30
0
41
1
10
29.0807394087112
20
-2.43203061773093
30
0
41
1
10
29.0868133861327
20
-2.42796133319007
30
0
41
1
10
29.0969472333429
20
-2.42116174172341
30
0
41
1
10
29.1010065549932
20
-2.41843523898118
30
0
41
1
10
29.1077824019287
20
-2.41387954082299
30
0
41
1
10
29.1104970927761
20
-2.41205310724519
30
0
41
1
10
29.1148760170978
20
-2.40910504280214
30
0
41
1
10
29.1165396438801
20
-2.40798457396005
30
0
41
1
10
29.1182024262241
20
-2.40686423020597
30
0
0
SPLINE
5
BE
100
AcDbEntity
8
1
62
256
6
ByLayer
370
18
48
1
60
0
100
AcDbSpline
70
4
71
3
72
28
73
24
40
0
40
0
40
0
40
0
40
0.0265633283058108
40
0.0265633283058108
40
0.165625709976408
40
0.165625709976408
40
0.304688091647006
40
0.304688091647006
40
0.374219282482305
40
0.374219282482305
40
0.443750473317604
40
0.443750473317604
40
0.582812854988203
40
0.582812854988203
40
0.721875236658802
40
0.721875236658802
40
0.756640832076452
40
0.756640832076452
40
0.791406427494101
40
0.791406427494101
40
0.860937618329401
40
0.860937618329401
40
1
40
1
40
1
40
1
41
1
10
14.9850105455108
20
-2.38105626236157
30
0
41
1
10
14.8832374969748
20
-2.39531745483359
30
0
41
1
10
14.7812556627619
20
-2.40824345442144
30
0
41
1
10
14.1463205484177
20
-2.48001819730698
30
0
41
1
10
13.6187363460564
20
-2.50146405020368
30
0
41
1
10
12.5654822148587
20
-2.46792139196776
30
0
41
1
10
12.0397836569018
20
-2.41298291727639
30
0
41
1
10
11.2461996258795
20
-2.27556917640877
30
-1E-16
41
1
10
10.9808067522561
20
-2.22062110730803
30
-1E-16
41
1
10
10.4471180254362
20
-2.09308909913136
30
-1E-16
41
1
10
10.1811163252823
20
-2.02101575107463
30
-1E-16
41
1
10
9.38685209671428
20
-1.78319288891581
30
1E-16
41
1
10
8.86101561450982
20
-1.59560331976959
30
1E-16
41
1
10
7.80775920787775
20
-1.17734662252641
30
1E-16
41
1
10
7.28040997687975
20
-0.946541722770036
30
1E-16
41
1
10
6.61458560663755
20
-0.641381259216075
30
0
41
1
10
6.48091287338465
20
-0.579446258065076
30
0
41
1
10
6.21433570128926
20
-0.454917199500414
30
0
41
1
10
6.08128556505167
20
-0.392258155205326
30
0
41
1
10
5.68265126527692
20
-0.203521755796601
30
0
41
1
10
5.41756408363887
20
-0.0767263775429115
30
0
41
1
10
4.62255531997516
20
0.302843817664552
30
0
41
1
10
4.09280288202797
20
0.554624721800025
30
0
41
1
10
3.55896327057326
20
0.795944280866905
30
0
0
SPLINE
5
BF
100
AcDbEntity
8
1
62
256
6
ByLayer
370
18
48
1
60
0
100
AcDbSpline
70
4
71
3
72
12
73
8
40
0
40
0
40
0
40
0
40
0.27735406578133
40
0.27735406578133
40
0.55470813156266
40
0.55470813156266
40
1
40
1
40
1
40
1
41
1
10
29.1290213091841
20
2.3995682043919
30
0
41
1
10
28.772204345955
20
2.40267270862662
30
0
41
1
10
28.4151500546978
20
2.38862514878912
30
0
41
1
10
27.6996488310763
20
2.32706998192549
30
0
41
1
10
27.3442830628977
20
2.27967979603403
30
0
41
1
10
26.421079553274
20
2.11660995861288
30
1E-16
41
1
10
25.8549121868426
20
1.97740193866704
30
1E-16
41
1
10
25.2862896417343
20
1.80479581567599
30
0
0
SPLINE
5
C0
100
AcDbEntity
8
1
62
256
6
ByLayer
370
18
48
1
60
0
100
AcDbSpline
70
4
71
3
72
10
73
6
40
0
40
0
40
0
40
0
40
0.658548701719968
40
0.658548701719968
40
1
40
1
40
1
40
1
41
1
10
8.00415551964338
20
-1.54403075330782
30
0
41
1
10
7.22747658690406
20
-1.74676635800961
30
0
41
1
10
6.4554836320558
20
-1.95216475075807
30
0
41
1
10
5.2910218332309
20
-2.26488921424286
30
0
41
1
10
4.89488701309045
20
-2.3717884694664
30
0
41
1
10
4.50014662237885
20
-2.47863972119291
30
0
0
SPLINE
5
C1
100
AcDbEntity
8
1
62
256
6
ByLayer
370
18
48
1
60
0
100
AcDbSpline
70
4
71
3
72
34
73
30
40
0
40
0
40
0
40
0
40
0.185359490826782
40
0.185359490826782
40
0.457081176421301
40
0.457081176421301
40
0.638638043324265
40
0.638638043324265
40
0.759877805330454
40
0.759877805330454
40
0.840852174041342
40
0.840852174041342
40
0.894930015293648
40
0.894930015293648
40
0.931048347745139
40
0.931048347745139
40
0.955182191299864
40
0.955182191299864
40
0.971333055452393
40
0.971333055452393
40
0.982137081577521
40
0.982137081577521
40
0.989313030604209
40
0.989313030604209
40
0.994063094808029
40
0.994063094808029
40
0.99726960119173
40
0.99726960119173
40
1
40
1
40
1
40
1
41
1
10
28.9788005820435
20
2.49969234507213
30
0
41
1
10
28.9880593167059
20
2.49360224847567
30
0
41
1
10
28.9973228872578
20
2.48749344945969
30
0
41
1
10
29.0201781407356
20
2.47238406321722
30
0
41
1
10
29.0337766600936
20
2.46336138067611
30
0
41
1
10
29.0564745419862
20
2.44824820911705
30
0
41
1
10
29.0655692880836
20
2.4421783916782
30
0
41
1
10
29.0807394087113
20
2.4320306177309
30
0
41
1
10
29.0868133861328
20
2.42796133319001
30
0
41
1
10
29.096947233343
20
2.42116174172335
30
0
41
1
10
29.1010065549933
20
2.41843523898115
30
0
41
1
10
29.1077824019288
20
2.41387954082296
30
0
41
1
10
29.1104970927762
20
2.41205310724516
30
0
41
1
10
29.1150283290071
20
2.40900250042168
30
0
41
1
10
29.1168445436953
20
2.40777921719175
30
0
41
1
10
29.1198722313064
20
2.40573908421334
30
0
41
1
10
29.1210840436431
20
2.40492229827373
30
0
41
1
10
29.123101634657
20
2.40356197883926
30
0
41
1
10
29.1239080934474
20
2.40301812160808
30
0
41
1
10
29.125255088245
20
2.40210955328453
30
0
41
1
10
29.1257959960468
20
2.40174465605904
30
0
41
1
10
29.1267014729309
20
2.40113377343141
30
0
41
1
10
29.1270642733727
20
2.40088899695164
30
0
41
1
10
29.1276700654389
20
2.40048026700742
30
0
41
1
10
29.1279124509233
20
2.40031672886224
30
0
41
1
10
29.1283144491028
20
2.40004545649086
30
0
41
1
10
29.1284755750022
20
2.39993671583124
30
0
41
1
10
29.1287668017464
20
2.39974011688332
30
0
41
1
10
29.128899035829
20
2.39965082953441
30
0
41
1
10
29.1290213088686
20
2.39956820622964
30
0
0
SPLINE
5
C2
100
AcDbEntity
8
1
62
256
6
ByLayer
370
18
48
1
60
0
100
AcDbSpline
70
4
71
3
72
10
73
6
40
0
40
0
40
0
40
0
40
0.5
40
0.5
40
1
40
1
40
1
40
1
41
1
10
3.50204684913885
20
2.48061188187015
30
0
41
1
10
3.50204684913882
20
2.47883393099653
30
0
41
1
10
3.52010480315141
20
2.47631126361137
30
0
41
1
10
3.57774499832578
20
2.47322851512425
30
0
41
1
10
3.61500913095412
20
2.47303897036034
30
0
41
1
10
3.64562968507766
20
2.47436892396411
30
0
0
SPLINE
5
C3
100
AcDbEntity
8
1
62
256
6
ByLayer
370
18
48
1
60
0
100
AcDbSpline
70
4
71
3
72
8
73
4
40
0
40
0
40
0
40
0
40
1
40
1
40
1
40
1
41
1
10
28.9687210385704
20
-2.46947003792985
30
0
41
1
10
28.9725988239088
20
-2.48783056769193
30
0
41
1
10
28.9759290196323
20
-2.49805049873197
30
0
41
1
10
28.9788005820435
20
-2.49969234507216
30
0
0
SPLINE
5
C4
100
AcDbEntity
8
1
62
256
6
ByLayer
370
18
48
1
60
0
100
AcDbSpline
70
4
71
3
72
8
73
4
40
0
40
0
40
0
40
0
40
1
40
1
40
1
40
1
41
1
10
3.64562968507766
20
2.47436892396411
30
0
41
1
10
3.64508815811206
20
2.43649910138979
30
0
41
1
10
3.64453957179981
20
2.39863009306049
30
0
41
1
10
3.64398395782047
20
2.36076194824582
30
0
0
SPLINE
5
C5
100
AcDbEntity
8
1
62
256
6
ByLayer
370
18
48
1
60
0
100
AcDbSpline
70
4
71
3
72
14
73
10
40
0
40
0
40
0
40
0
40
0.103512207319759
40
0.103512207319759
40
0.231581891988366
40
0.231581891988366
40
0.487721261325579
40
0.487721261325579
40
1
40
1
40
1
40
1
41
1
10
8.7764805544746
20
1.83796558804102
30
1E-16
41
1
10
8.88787664438291
20
1.87389988110184
30
1E-16
41
1
10
8.99943676612162
20
1.90863590540388
30
1E-16
41
1
10
9.24949682354512
20
1.98348854679895
30
1E-16
41
1
10
9.3883499364205
20
2.02299177284797
30
1E-16
41
1
10
9.80426676597853
20
2.13468436240999
30
1E-16
41
1
10
10.0800779521514
20
2.199977151144
30
1E-16
41
1
10
10.9049831825387
20
2.36704765954511
30
0
41
1
10
11.4516352487903
20
2.43986465553104
30
0
41
1
10
12.0000000000144
20
2.4715201071138
30
0
0
SPLINE
5
C6
100
AcDbEntity
8
1
62
256
6
ByLayer
370
18
48
1
60
0
100
AcDbSpline
70
4
71
3
72
22
73
18
40
0
40
0
40
0
40
0
40
0.0880072536012878
40
0.0880072536012878
40
0.189339780978923
40
0.189339780978923
40
0.392004835734191
40
0.392004835734191
40
0.493337363111825
40
0.493337363111825
40
0.594669890489459
40
0.594669890489459
40
0.797334945244728
40
0.797334945244728
40
0.898667472622364
40
0.898667472622364
40
1
40
1
40
1
40
1
41
1
10
21.2312943918719
20
0.181959132649183
30
0
41
1
10
21.4611272053492
20
0.0776616723340737
30
0
41
1
10
21.6912866515335
20
-0.0274712910079984
30
0
41
1
10
22.1879984924988
20
-0.253523165928357
30
0
41
1
10
22.4553753228297
20
-0.37463667712251
30
0
41
1
10
23.2577782208833
20
-0.732314122659915
30
0
41
1
10
23.7902575644299
20
-0.96201205727192
30
1E-16
41
1
10
24.5919113791344
20
-1.27955934573606
30
1E-16
41
1
10
24.8599791359353
20
-1.38108615108592
30
1E-16
41
1
10
25.3926045513134
20
-1.57143755060463
30
1E-16
41
1
10
25.6577928882077
20
-1.66051102847538
30
1E-16
41
1
10
26.4515663328921
20
-1.90665508024583
30
-1E-16
41
1
10
26.978685243157
20
-2.04291644835808
30
-1E-16
41
1
10
27.7719660470176
20
-2.19809595694858
30
0
41
1
10
28.0368578752092
20
-2.24165464854897
30
0
41
1
10
28.5685160336054
20
-2.31108665262568
30
0
41
1
10
28.8357107058503
20
-2.33674594116513
30
0
41
1
10
29.1033133415457
20
-2.35341792052179
30
0
0
SPLINE
5
C7
100
AcDbEntity
8
1
62
256
6
ByLayer
370
18
48
1
60
0
100
AcDbSpline
70
4
71
3
72
10
73
6
40
0
40
0
40
0
40
0
40
0.5
40
0.5
40
1
40
1
40
1
40
1
41
1
10
3.5589632705732
20
0.795944280866934
30
0
41
1
10
3.54188624478366
20
0.803663866010623
30
0
41
1
10
3.52747458160249
20
0.815863320936586
30
0
41
1
10
3.50752174735473
20
0.845635300281145
30
-1E-16
41
1
10
3.50204684913891
20
0.863199258725132
30
-1E-16
41
1
10
3.50204684913885
20
0.880892747531362
30
-1E-16
0
SPLINE
5
C8
100
AcDbEntity
8
1
62
256
6
ByLayer
370
18
48
1
60
0
100
AcDbSpline
70
4
71
3
72
8
73
4
40
0
40
0
40
0
40
0
40
1
40
1
40
1
40
1
41
1
10
28.9687210385719
20
2.46947003792801
30
0
41
1
10
29.0086951178555
20
2.44627167391829
30
0
41
1
10
29.0487469439536
20
2.42270539718274
30
0
41
1
10
29.0888880121339
20
2.3987788723505
30
0
0
SPLINE
5
C9
100
AcDbEntity
8
1
62
256
6
ByLayer
370
18
48
1
60
0
100
AcDbSpline
70
4
71
3
72
10
73
6
40
0
40
0
40
0
40
0
40
0.5
40
0.5
40
1
40
1
40
1
40
1
41
1
10
29.133025363712
20
-2.39686787139002
30
0
41
1
10
29.123375817993
20
-2.40353700652148
30
0
41
1
10
29.114964940897
20
-2.40701002250714
30
0
41
1
10
29.1004209264582
20
-2.4075401703204
30
0
41
1
10
29.0942642853181
20
-2.40463520535255
30
0
41
1
10
29.088888012134
20
-2.39877887235039
30
0
0
SPLINE
5
CA
100
AcDbEntity
8
1
62
256
6
ByLayer
370
18
48
1
60
0
100
AcDbSpline
70
4
71
3
72
8
73
4
40
0
40
0
40
0
40
0
40
1
40
1
40
1
40
1
41
1
10
28.9687210385719
20
-2.46947003792798
30
0
41
1
10
29.0086951178555
20
-2.44627167391829
30
0
41
1
10
29.0487469439536
20
-2.42270539718274
30
0
41
1
10
29.0888880121339
20
-2.3987788723505
30
0
0
SPLINE
5
CB
100
AcDbEntity
8
1
62
256
6
ByLayer
370
18
48
1
60
0
100
AcDbSpline
70
4
71
3
72
8
73
4
40
0
40
0
40
0
40
0
40
1
40
1
40
1
40
1
41
1
10
29.7895265899977
20
0.774965825584985
30
0
41
1
10
29.8601612506429
20
0.576410698825811
30
0
41
1
10
29.9291136945667
20
0.377250554913076
30
0
41
1
10
29.9963611674885
20
0.177477210162834
30
0
0
SPLINE
5
CC
100
AcDbEntity
8
1
62
256
6
ByLayer
370
18
48
1
60
0
100
AcDbSpline
70
4
71
3
72
20
73
16
40
0
40
0
40
0
40
0
40
0.151357551738618
40
0.151357551738618
40
0.302715103477236
40
0.302715103477236
40
0.454072655215854
40
0.454072655215854
40
0.605430206954472
40
0.605430206954472
40
0.75678775869309
40
0.75678775869309
40
0.908145310431708
40
0.908145310431708
40
1
40
1
40
1
40
1
41
1
10
29.9550759760338
20
0.038805680141337
30
0
41
1
10
29.9416417282814
20
-0.0060160735984311
30
0
41
1
10
29.926368744373
20
-0.0499196939381079
30
0
41
1
10
29.8921377036069
20
-0.135820919302972
30
0
41
1
10
29.8729327696107
20
-0.178215341172717
30
0
41
1
10
29.8327483907629
20
-0.256279663674434
30
0
41
1
10
29.8115580155423
20
-0.292568280955578
30
0
41
1
10
29.7671706148812
20
-0.35831512621408
30
0
41
1
10
29.7450939473157
20
-0.386135281526378
30
0
41
1
10
29.7011084160808
20
-0.431551786024699
30
0
41
1
10
29.6793623522496
20
-0.448762638057786
30
0
41
1
10
29.6386105861637
20
-0.470383542230024
30
0
41
1
10
29.6191142544435
20
-0.475043449509286
30
0
41
1
10
29.5905219641189
20
-0.473017692319388
30
0
41
1
10
29.5801839969936
20
-0.470083415550079
30
0
41
1
10
29.5703796900794
20
-0.465219051373282
30
0
0
SPLINE
5
CD
100
AcDbEntity
8
1
62
256
6
ByLayer
370
18
48
1
60
0
100
AcDbSpline
70
4
71
3
72
8
73
4
40
0
40
0
40
0
40
0
40
1
40
1
40
1
40
1
41
1
10
29.5353533485787
20
-0.437505601635962
30
0
41
1
10
29.5268084082534
20
-0.42796931917519
30
0
41
1
10
29.5187567700464
20
-0.416741005135236
30
0
41
1
10
29.5111011112176
20
-0.403964421911098
30
0
0
SPLINE
5
CE
100
AcDbEntity
8
1
62
256
6
ByLayer
370
18
48
1
60
0
100
AcDbSpline
70
4
71
3
72
28
73
24
40
0
40
0
40
0
40
0
40
0.125000000000001
40
0.125000000000001
40
0.1875
40
0.1875
40
0.25
40
0.25
40
0.374999999999999
40
0.374999999999999
40
0.4375
40
0.4375
40
0.5
40
0.5
40
0.624999999999999
40
0.624999999999999
40
0.687499999999999
40
0.687499999999999
40
0.75
40
0.75
40
0.875
40
0.875
40
1
40
1
40
1
40
1
41
1
10
28.824270989235
20
-0.0966996550276065
30
0
41
1
10
28.8283228043229
20
-0.236346900409075
30
0
41
1
10
28.8377585033768
20
-0.373068278473255
30
0
41
1
10
28.8562623433756
20
-0.574256343321593
30
0
41
1
10
28.8631696984074
20
-0.640664838785796
30
0
41
1
10
28.8779768717297
20
-0.772199024376476
30
0
41
1
10
28.8859136740041
20
-0.837607627711861
30
1E-16
41
1
10
28.9103005361923
20
-1.02974127178675
30
1E-16
41
1
10
28.9271531243378
20
-1.15159270314018
30
1E-16
41
1
10
28.9513386348592
20
-1.32548547340028
30
1E-16
41
1
10
28.9592295227154
20
-1.38195837541113
30
1E-16
41
1
10
28.9744588032786
20
-1.49187658389806
30
1E-16
41
1
10
28.9818274772651
20
-1.54555223306804
30
1E-16
41
1
10
29.0025519327752
20
-1.69923726708396
30
1E-16
41
1
10
29.0145701859737
20
-1.79253552838131
30
1E-16
41
1
10
29.0302132752088
20
-1.91898066869541
30
-1E-16
41
1
10
29.0350399839339
20
-1.95886541088075
30
-1E-16
41
1
10
29.0440950965434
20
-2.03398664190272
30
-1E-16
41
1
10
29.0483355243293
20
-2.06931667963323
30
-1E-16
41
1
10
29.0603487037363
20
-2.16623826883566
30
0
41
1
10
29.067463537266
20
-2.21950499628386
30
0
41
1
10
29.0831869258525
20
-2.30368786658355
30
0
41
1
10
29.0918578307548
20
-2.33467050592145
30
0
41
1
10
29.1033133415617
20
-2.35341792052165
30
0
0
SPLINE
5
CF
100
AcDbEntity
8
1
62
256
6
ByLayer
370
18
48
1
60
0
100
AcDbSpline
70
4
71
3
72
24
73
20
40
0
40
0
40
0
40
0
40
0.125
40
0.125
40
0.25
40
0.25
40
0.375
40
0.375
40
0.5
40
0.5
40
0.625
40
0.625
40
0.6875
40
0.6875
40
0.75
40
0.75
40
0.875
40
0.875
40
1
40
1
40
1
40
1
41
1
10
3.60282477725542
20
2.35060889611012
30
0
41
1
10
3.60281397563432
20
2.36230506378206
30
0
41
1
10
3.60280033061815
20
2.36278945643059
30
0
41
1
10
3.60276876519711
20
2.34193800386748
30
0
41
1
10
3.60275083336751
20
2.32076279148265
30
0
41
1
10
3.60271094495766
20
2.25704565652185
30
0
41
1
10
3.60268879849704
20
2.2140308538373
30
0
41
1
10
3.60264144417707
20
2.10813788539355
30
1E-16
41
1
10
3.6026160612405
20
2.04494533731725
30
1E-16
41
1
10
3.60256231641679
20
1.90000848289756
30
1E-16
41
1
10
3.60253429034225
20
1.81923587543537
30
1E-16
41
1
10
3.60249011267061
20
1.68600769470601
30
-1E-16
41
1
10
3.60247502725963
20
1.63957602524579
30
-1E-16
41
1
10
3.60244402845109
20
1.54260493271053
30
-1E-16
41
1
10
3.60242804521363
20
1.49184000176336
30
-1E-16
41
1
10
3.60237916576634
20
1.33484428450163
30
-1E-16
41
1
10
3.60234559837815
20
1.22478256234976
30
-1E-16
41
1
10
3.60227565887132
20
0.994217941253169
30
-1E-16
41
1
10
3.60223920218161
20
0.873422826925349
30
-1E-16
41
1
10
3.60220098987693
20
0.747769763696851
30
0
0
SPLINE
5
D0
100
AcDbEntity
8
1
62
256
6
ByLayer
370
18
48
1
60
0
100
AcDbSpline
70
4
71
3
72
8
73
4
40
0
40
0
40
0
40
0
40
1
40
1
40
1
40
1
41
1
10
28.9687210385704
20
2.46947003792985
30
0
41
1
10
28.9725988239088
20
2.48783056769193
30
0
41
1
10
28.9759290196323
20
2.49805049873197
30
0
41
1
10
28.9788005820435
20
2.49969234507216
30
0
0
SPLINE
5
D1
100
AcDbEntity
8
1
62
256
6
ByLayer
370
18
48
1
60
0
100
AcDbSpline
70
4
71
3
72
16
73
12
40
0
40
0
40
0
40
0
40
0.178956334903403
40
0.178956334903403
40
0.384217251177552
40
0.384217251177552
40
0.589478167451702
40
0.589478167451702
40
0.794739083725851
40
0.794739083725851
40
1
40
1
40
1
40
1
41
1
10
28.858635848789
20
0.455866477892357
30
0
41
1
10
28.8748187677832
20
0.469974315541123
30
0
41
1
10
28.8938558715701
20
0.485327726316342
30
0
41
1
10
28.9410888482855
20
0.520465968537536
30
0
41
1
10
28.9701742306955
20
0.540555605962624
30
0
41
1
10
29.0341003959086
20
0.579941390906157
30
0
41
1
10
29.0698037391011
20
0.599660303101928
30
0
41
1
10
29.146113113866
20
0.63555246450332
30
0
41
1
10
29.1863793516536
20
0.651596431086404
30
0
41
1
10
29.271479733321
20
0.678030693867868
30
0
41
1
10
29.3158811505979
20
0.688197031031734
30
0
41
1
10
29.360888621873
20
0.6946854165096
30
0
0
SPLINE
5
D2
100
AcDbEntity
8
1
62
256
6
ByLayer
370
18
48
1
60
0
100
AcDbSpline
70
4
71
3
72
8
73
4
40
0
40
0
40
0
40
0
40
1
40
1
40
1
40
1
41
1
10
29.7895265899977
20
-0.774965825584985
30
0
41
1
10
29.8601612506475
20
-0.576410698813135
30
0
41
1
10
29.9291136945755
20
-0.377250554887667
30
0
41
1
10
29.9963611675015
20
-0.177477210124579
30
0
0
SPLINE
5
D3
100
AcDbEntity
8
1
62
256
6
ByLayer
370
18
48
1
60
0
100
AcDbSpline
70
4
71
3
72
8
73
4
40
0
40
0
40
0
40
0
40
1
40
1
40
1
40
1
41
1
10
3.64562968507769
20
-2.47436892396411
30
0
41
1
10
3.7992529058422
20
-2.48104129688244
30
0
41
1
10
3.95285509953334
20
-2.48438537936764
30
0
41
1
10
4.10647892434963
20
-2.48445105975995
30
0
0
SPLINE
5
D4
100
AcDbEntity
8
1
62
256
6
ByLayer
370
18
48
1
60
0
100
AcDbSpline
70
4
71
3
72
28
73
24
40
0
40
0
40
0
40
0
40
0.0235177240694117
40
0.0235177240694117
40
0.104891247063627
40
0.104891247063627
40
0.186264770057843
40
0.186264770057843
40
0.267638293052059
40
0.267638293052059
40
0.349011816046274
40
0.349011816046274
40
0.43038533904049
40
0.43038533904049
40
0.511758862034706
40
0.511758862034706
40
0.674505908023137
40
0.674505908023137
40
0.755879431017353
40
0.755879431017353
40
0.837252954011569
40
0.837252954011569
40
1
40
1
40
1
40
1
41
1
10
19.1219627268624
20
2.41204607454671
30
0
41
1
10
19.1972932521757
20
2.42126128324421
30
0
41
1
10
19.2725899721841
20
2.42970598301156
30
0
41
1
10
19.608357324458
20
2.46390574139016
30
0
41
1
10
19.8686682270872
20
2.48122841116157
30
0
41
1
10
20.3888950089421
20
2.49743387290846
30
0
41
1
10
20.648726486727
20
2.49617773400493
30
0
41
1
10
21.1706002773362
20
2.4748708243109
30
0
41
1
10
21.4324766621401
20
2.45494938929849
30
0
41
1
10
21.9579991373775
20
2.39605828397987
30
0
41
1
10
22.2217915391675
20
2.35669955911291
30
0
41
1
10
22.7465042398112
20
2.26178860307752
30
1E-16
41
1
10
23.008190012943
20
2.20620113492768
30
1E-16
41
1
10
23.5294412414165
20
2.07818762098879
30
1E-16
41
1
10
23.7887523176503
20
2.00528016319558
30
1E-16
41
1
10
24.5686213845649
20
1.76714215132768
30
-1E-16
41
1
10
25.0896905545783
20
1.58136333102314
30
-1E-16
41
1
10
25.8760378287394
20
1.26603625997265
30
-1E-16
41
1
10
26.1397067821986
20
1.15416824942946
30
-1E-16
41
1
10
26.6655941862656
20
0.924278406445069
30
-1E-16
41
1
10
26.9278317395136
20
0.806037675987966
30
0
41
1
10
27.7137633416641
20
0.444245041755409
30
0
41
1
10
28.2367010952779
20
0.193710227091287
30
0
41
1
10
28.7616555163931
20
-0.060055525122948
30
0
0
SPLINE
5
D5
100
AcDbEntity
8
1
62
256
6
ByLayer
370
18
48
1
60
0
100
AcDbSpline
70
4
71
3
72
34
73
30
40
0
40
0
40
0
40
0
40
0.0077653363963632
40
0.0077653363963632
40
0.050905973944347
40
0.050905973944347
40
0.137187249040313
40
0.137187249040313
40
0.223468524136279
40
0.223468524136279
40
0.309749799232245
40
0.309749799232245
40
0.352890436780229
40
0.352890436780229
40
0.396031074328213
40
0.396031074328213
40
0.482312349424181
40
0.482312349424181
40
0.525452986972165
40
0.525452986972165
40
0.568593624520149
40
0.568593624520149
40
0.654874899616119
40
0.654874899616119
40
0.741156174712089
40
0.741156174712089
40
0.827437449808058
40
0.827437449808058
40
1
40
1
40
1
40
1
41
1
10
12.7458685687345
20
-0.221438984755281
30
0
41
1
10
12.722110285946
20
-0.210740759858993
30
0
41
1
10
12.698343514651
20
-0.200031792080097
30
0
41
1
10
12.5424828457855
20
-0.1297561850634
30
0
41
1
10
12.4099102765131
20
-0.0697538317828332
30
0
41
1
10
12.0140507610919
20
0.11017383036932
30
0
41
1
10
11.7517089626202
20
0.229756250194924
30
0
41
1
10
11.2287361005825
20
0.465153129576578
30
0
41
1
10
10.9680838918073
20
0.581001300889852
30
0
41
1
10
10.4471136686542
20
0.806651885373327
30
0
41
1
10
10.1869485918128
20
0.916690214367833
30
-1E-16
41
1
10
9.79716087168697
20
1.07635684941741
30
-1E-16
41
1
10
9.6673138359113
20
1.12867165395755
30
-1E-16
41
1
10
9.40730100201395
20
1.23105423816963
30
-1E-16
41
1
10
9.27712809554581
20
1.28111588105625
30
-1E-16
41
1
10
8.88611322255065
20
1.42775510689785
30
-1E-16
41
1
10
8.62478442950669
20
1.52081805190292
30
-1E-16
41
1
10
8.23151575082878
20
1.65146715227013
30
-1E-16
41
1
10
8.1002214678162
20
1.69351507175907
30
-1E-16
41
1
10
7.83690592583321
20
1.77455303735658
30
-1E-16
41
1
10
7.70473361217819
20
1.81358966055748
30
1E-16
41
1
10
7.30797230753475
20
1.92548651781533
30
1E-16
41
1
10
7.04463926482873
20
1.99273225836356
30
1E-16
41
1
10
6.5198065784862
20
2.11088975242654
30
1E-16
41
1
10
6.25832003923296
20
2.16179537727965
30
0
41
1
10
5.73606769840606
20
2.24627969054703
30
0
41
1
10
5.4752029413354
20
2.2800390692075
30
0
41
1
10
4.6910598239518
20
2.35770781217136
30
0
41
1
10
4.16739647701772
20
2.37604638701311
30
0
41
1
10
3.6398637941825
20
2.35160285219155
30
0
0
SPLINE
5
D6
100
AcDbEntity
8
1
62
256
6
ByLayer
370
18
48
1
60
0
100
AcDbSpline
70
4
71
3
72
8
73
4
40
0
40
0
40
0
40
0
40
1
40
1
40
1
40
1
41
1
10
29.1008454624304
20
-2.36461935300161
30
0
41
1
10
29.0968438688455
20
-2.37600629923122
30
0
41
1
10
29.0928579344749
20
-2.38739277272481
30
0
41
1
10
29.0888880121339
20
-2.39877887235053
30
0
0
SPLINE
5
D7
100
AcDbEntity
8
1
62
256
6
ByLayer
370
18
48
1
60
0
100
AcDbSpline
70
4
71
3
72
58
73
54
40
0
40
0
40
0
40
0
40
0.125000000000009
40
0.125000000000009
40
0.187500000000012
40
0.187500000000012
40
0.250000000000015
40
0.250000000000015
40
0.281250000000017
40
0.281250000000017
40
0.31250000000002
40
0.31250000000002
40
0.343750000000023
40
0.343750000000023
40
0.375000000000025
40
0.375000000000025
40
0.406250000000028
40
0.406250000000028
40
0.421875000000029
40
0.421875000000029
40
0.43750000000003
40
0.43750000000003
40
0.468750000000032
40
0.468750000000032
40
0.484375000000032
40
0.484375000000032
40
0.500000000000033
40
0.500000000000033
40
0.531250000000033
40
0.531250000000033
40
0.562500000000033
40
0.562500000000033
40
0.625000000000035
40
0.625000000000035
40
0.687500000000038
40
0.687500000000038
40
0.75000000000004
40
0.75000000000004
40
0.75390625000004
40
0.75390625000004
40
0.757812500000039
40
0.757812500000039
40
0.765625000000037
40
0.765625000000037
40
0.773437500000034
40
0.773437500000034
40
0.781250000000031
40
0.781250000000031
40
0.812500000000028
40
0.812500000000028
40
0.87500000000002
40
0.87500000000002
40
1
40
1
40
1
40
1
41
1
10
4.50014510473306
20
-2.47863958943415
30
0
41
1
10
4.20278472960678
20
-2.46867169550103
30
0
41
1
10
3.910969792998
20
-2.44657073901024
30
0
41
1
10
3.48508773557671
20
-2.38541144099818
30
0
41
1
10
3.34512184467607
20
-2.36030210771372
30
0
41
1
10
3.07044237555206
20
-2.2972820509533
30
0
41
1
10
2.93545777448617
20
-2.25929293190004
30
-1E-16
41
1
10
2.74205707672792
20
-2.18940428303657
30
-1E-16
41
1
10
2.6789988212758
20
-2.16391577084462
30
-1E-16
41
1
10
2.55639084737274
20
-2.10744757974405
30
-1E-16
41
1
10
2.49692848940185
20
-2.07648261527325
30
-1E-16
41
1
10
2.38423009553293
20
-2.00852754387469
30
-1E-16
41
1
10
2.33078284458216
20
-1.97146789290525
30
-1E-16
41
1
10
2.23148264723989
20
-1.88927452215071
30
-1E-16
41
1
10
2.18525536027721
20
-1.84372123542718
30
-1E-16
41
1
10
2.1052921117344
20
-1.74354295936473
30
1E-16
41
1
10
2.07171215134173
20
-1.6893189504174
30
1E-16
41
1
10
2.03394977421337
20
-1.59987462492049
30
1E-16
41
1
10
2.0235456967402
20
-1.56871747797806
30
1E-16
41
1
10
2.00801195198881
20
-1.50526066828556
30
1E-16
41
1
10
2.00278379649794
20
-1.47275317858285
30
1E-16
41
1
10
1.99506377006395
20
-1.37280152932524
30
1E-16
41
1
10
2.00097989180483
20
-1.30179444235188
30
1E-16
41
1
10
2.02555029700102
20
-1.1966116629836
30
1E-16
41
1
10
2.0362663689468
20
-1.16161692664292
30
1E-16
41
1
10
2.06237698584931
20
-1.09176104953221
30
1E-16
41
1
10
2.07788712317034
20
-1.05670153798076
30
1E-16
41
1
10
2.12977728758693
20
-0.953956377755162
30
1E-16
41
1
10
2.17151174143712
20
-0.888200158438593
30
1E-16
41
1
10
2.26560801358954
20
-0.760820413398477
30
0
41
1
10
2.31832687525502
20
-0.698935254961413
30
0
41
1
10
2.48467537782153
20
-0.522796436536424
30
0
41
1
10
2.60734003562931
20
-0.416091130674033
30
0
41
1
10
2.8668499291459
20
-0.215737179915436
30
0
41
1
10
3.00351738859754
20
-0.122606445479931
30
0
41
1
10
3.28288540993753
20
0.0517314567715061
30
0
41
1
10
3.42636460754045
20
0.133389582861838
30
0
41
1
10
3.58110856170418
20
0.215411408371097
30
0
41
1
10
3.59005810720367
20
0.220573690665361
30
0
41
1
10
3.60902593555926
20
0.228619679796566
30
0
41
1
10
3.61884892938463
20
0.231490346725252
30
0
41
1
10
3.64937017608736
20
0.235641135738831
30
0
41
1
10
3.66977498054308
20
0.234678785518469
30
0
41
1
10
3.7099615261169
20
0.226255086142373
30
0
41
1
10
3.7292322243182
20
0.219267585635293
30
0
41
1
10
3.76823515298327
20
0.206846199647117
30
0
41
1
10
3.78771889113719
20
0.200578120407982
30
0
41
1
10
3.88505008438597
20
0.168961236797088
30
0
41
1
10
3.96262413266837
20
0.142767698438064
30
0
41
1
10
4.19447924827131
20
0.0616147377530183
30
0
41
1
10
4.34774551841667
20
0.0041147721535424
30
0
41
1
10
4.80383960222593
20
-0.177336631199495
30
0
41
1
10
5.1032201217231
20
-0.310478955723568
30
0
41
1
10
5.39836944821451
20
-0.450266806425191
30
0
0
SPLINE
5
D8
100
AcDbEntity
8
1
62
256
6
ByLayer
370
18
48
1
60
0
100
AcDbSpline
70
4
71
3
72
38
73
34
40
0
40
0
40
0
40
0
40
0.1021841509944
40
0.1021841509944
40
0.153276226491602
40
0.153276226491602
40
0.204368301988802
40
0.204368301988802
40
0.306552452983201
40
0.306552452983201
40
0.357644528480401
40
0.357644528480401
40
0.408736603977601
40
0.408736603977601
40
0.510920754972002
40
0.510920754972002
40
0.613104905966402
40
0.613104905966402
40
0.638650943715002
40
0.638650943715002
40
0.664196981463602
40
0.664196981463602
40
0.715289056960801
40
0.715289056960801
40
0.817473207955197
40
0.817473207955197
40
0.868565283452394
40
0.868565283452394
40
0.894111321200993
40
0.894111321200993
40
0.919657358949592
40
0.919657358949592
40
1
40
1
40
1
40
1
41
1
10
28.9687210385726
20
-2.46947003792917
30
0
41
1
10
28.4360386016551
20
-2.42921894781037
30
0
41
1
10
27.9054564050866
20
-2.35029133264052
30
0
41
1
10
27.1063274205001
20
-2.17854286398997
30
-1E-16
41
1
10
26.8393662252564
20
-2.1123267797762
30
-1E-16
41
1
10
26.3090149773107
20
-1.96496650055957
30
-1E-16
41
1
10
26.0449848762539
20
-1.88355494330804
30
-1E-16
41
1
10
25.2543481050987
20
-1.61916983012512
30
1E-16
41
1
10
24.729090190642
20
-1.41622170467562
30
1E-16
41
1
10
23.9375884976141
20
-1.08266140389054
30
1E-16
41
1
10
23.6732015334568
20
-0.966521065283104
30
1E-16
41
1
10
23.1420265909902
20
-0.726667635067514
30
0
41
1
10
22.8745780931139
20
-0.602660122211461
30
0
41
1
10
22.0781191934722
20
-0.227750862916651
30
0
41
1
10
21.5519292451111
20
0.0276901973111876
30
0
41
1
10
20.4992886515913
20
0.52855301773991
30
0
41
1
10
19.9734025709705
20
0.775173215698601
30
0
41
1
10
19.3103203213984
20
1.06545937260691
30
-1E-16
41
1
10
19.1774345623517
20
1.12265342228332
30
-1E-16
41
1
10
18.9110187706364
20
1.23509001503777
30
-1E-16
41
1
10
18.7774843138824
20
1.29031292472601
30
-1E-16
41
1
10
18.3785386516987
20
1.45125903993852
30
-1E-16
41
1
10
18.1138190404143
20
1.55270420148105
30
-1E-16
41
1
10
17.3216799886084
20
1.83703903023516
30
1E-16
41
1
10
16.7964067627438
20
2.00008875049639
30
1E-16
41
1
10
16.0060747297823
20
2.19599496344824
30
1E-16
41
1
10
15.7421801016056
20
2.25314820517519
30
1E-16
41
1
10
15.344879037805
20
2.32572927528338
30
0
41
1
10
15.2122023855139
20
2.34773185530361
30
0
41
1
10
14.9462320159586
20
2.38719995209274
30
0
41
1
10
14.8126994972202
20
2.40468896029663
30
0
41
1
10
14.2602695105227
20
2.46713710556642
30
0
41
1
10
13.8445271021657
20
2.49052261633744
30
0
41
1
10
13.429979175399
20
2.49020314694184
30
0
0
SPLINE
5
D9
100
AcDbEntity
8
1
62
256
6
ByLayer
370
18
48
1
60
0
100
AcDbSpline
70
4
71
3
72
10
73
6
40
0
40
0
40
0
40
0
40
0.758730010325658
40
0.758730010325658
40
1
40
1
40
1
40
1
41
1
10
12
20
-2.46689790153007
30
0
41
1
10
12.1778404155266
20
-2.47839771933647
30
0
41
1
10
12.3555686031501
20
-2.48557468260782
30
0
41
1
10
12.5899041861018
20
-2.4892874438797
30
0
41
1
10
12.6464628679409
20
-2.48974067948944
30
0
41
1
10
12.703012057668
20
-2.48975314562375
30
0
0
SPLINE
5
DA
100
AcDbEntity
8
1
62
256
6
ByLayer
370
18
48
1
60
0
100
AcDbSpline
70
4
71
3
72
52
73
48
40
0
40
0
40
0
40
0
40
0.0933991074773785
40
0.0933991074773785
40
0.140098661216067
40
0.140098661216067
40
0.186798214954756
40
0.186798214954756
40
0.233497768693445
40
0.233497768693445
40
0.280197322432134
40
0.280197322432134
40
0.326896876170822
40
0.326896876170822
40
0.350246653040166
40
0.350246653040166
40
0.37359642990951
40
0.37359642990951
40
0.420295983648198
40
0.420295983648198
40
0.466995537386886
40
0.466995537386886
40
0.513695091125573
40
0.513695091125573
40
0.560394644864261
40
0.560394644864261
40
0.583744421733605
40
0.583744421733605
40
0.607094198602948
40
0.607094198602948
40
0.653793752341636
40
0.653793752341636
40
0.700493306080323
40
0.700493306080323
40
0.747192859819011
40
0.747192859819011
40
0.793892413557699
40
0.793892413557699
40
0.840591967296386
40
0.840591967296386
40
0.887291521035074
40
0.887291521035074
40
0.933991074773762
40
0.933991074773762
40
0.98069062851245
40
0.98069062851245
40
1
40
1
40
1
40
1
41
1
10
3.64562968507769
20
2.47436892396411
30
0
41
1
10
4.17175095858457
20
2.49722013955275
30
0
41
1
10
4.69762560724774
20
2.48103410567728
30
0
41
1
10
5.48863792488837
20
2.40120509988162
30
0
41
1
10
5.75269944218238
20
2.36492583125255
30
0
41
1
10
6.27740291692893
20
2.27501095847964
30
1E-16
41
1
10
6.53877460658685
20
2.22142504214483
30
1E-16
41
1
10
7.0606739399318
20
2.0985151813974
30
1E-16
41
1
10
7.32117536509446
20
2.02917933202761
30
1E-16
41
1
10
7.8419693995649
20
1.87566216240671
30
1E-16
41
1
10
8.10192123060983
20
1.79095162131182
30
-1E-16
41
1
10
8.62342942466577
20
1.60905071616591
30
-1E-16
41
1
10
8.88508749683933
20
1.51213429019035
30
-1E-16
41
1
10
9.27883768234153
20
1.35753704648292
30
-1E-16
41
1
10
9.41030579125919
20
1.30447130258742
30
-1E-16
41
1
10
9.67371902897204
20
1.19523287668807
30
-1E-16
41
1
10
9.80553154861303
20
1.1391510050434
30
-1E-16
41
1
10
10.1997791680045
20
0.969230244184018
30
-1E-16
41
1
10
10.4617946015462
20
0.853140209923964
30
-1E-16
41
1
10
10.9842011822428
20
0.615434984040263
30
0
41
1
10
11.2444637910543
20
0.493540952060812
30
0
41
1
10
11.7647139966397
20
0.247041895143042
30
0
41
1
10
12.0246592405382
20
0.122347911120642
30
0
41
1
10
12.5456424993473
20
-0.126812686782699
30
0
41
1
10
12.8068931343237
20
-0.250809618836115
30
0
41
1
10
13.1997591256322
20
-0.436271371531859
30
0
41
1
10
13.3308849447168
20
-0.497992874603653
30
0
41
1
10
13.5936207611782
20
-0.620936088715098
30
0
41
1
10
13.7254403764953
20
-0.682291631626242
30
0
41
1
10
14.1205759280612
20
-0.863298117720831
30
1E-16
41
1
10
14.3830974962386
20
-0.979523916917316
30
1E-16
41
1
10
14.9059998941669
20
-1.20421931274276
30
1E-16
41
1
10
15.1663195134349
20
-1.31271902507945
30
1E-16
41
1
10
15.6868505796603
20
-1.51806361831447
30
1E-16
41
1
10
15.9471612637858
20
-1.61480889483747
30
1E-16
41
1
10
16.4677802612538
20
-1.79662797412811
30
1E-16
41
1
10
16.7280213467566
20
-1.88172859744748
30
-1E-16
41
1
10
17.2506114634691
20
-2.03682142494088
30
-1E-16
41
1
10
17.5130479350717
20
-2.10677268571706
30
-1E-16
41
1
10
18.0402470527039
20
-2.2312246099969
30
-1E-16
41
1
10
18.303457709463
20
-2.2852666161518
30
-1E-16
41
1
10
18.8267337547865
20
-2.37501082545538
30
0
41
1
10
19.0873877845613
20
-2.41084211782336
30
0
41
1
10
19.608357324458
20
-2.46390574139016
30
0
41
1
10
19.8686682270872
20
-2.48122841116157
30
0
41
1
10
20.2363335257355
20
-2.49268146613821
30
0
41
1
10
20.3438372357759
20
-2.49443173779105
30
0
41
1
10
20.4513908204012
20
-2.49457923918243
30
0
0
SPLINE
5
DB
100
AcDbEntity
8
1
62
256
6
ByLayer
370
18
48
1
60
0
100
AcDbSpline
70
4
71
3
72
38
73
34
40
0
40
0
40
0
40
0
40
0.0222282608565229
40
0.0222282608565229
40
0.0874130434660885
40
0.0874130434660885
40
0.21778260868522
40
0.21778260868522
40
0.250374999990002
40
0.250374999990002
40
0.282967391294784
40
0.282967391294784
40
0.348152173904349
40
0.348152173904349
40
0.413336956513914
40
0.413336956513914
40
0.478521739123479
40
0.478521739123479
40
0.543706521733044
40
0.543706521733044
40
0.576298913037826
40
0.576298913037826
40
0.608891304342609
40
0.608891304342609
40
0.739260869561738
40
0.739260869561738
40
0.804445652171302
40
0.804445652171302
40
0.837038043476085
40
0.837038043476085
40
0.869630434780867
40
0.869630434780867
40
1
40
1
40
1
40
1
41
1
10
12.7030122925742
20
2.48975314567551
30
0
41
1
10
12.8242952006473
20
2.48977987958605
30
0
41
1
10
12.9455344459605
20
2.4877791271453
30
0
41
1
10
13.4209732332891
20
2.47200678187295
30
0
41
1
10
13.7735303570392
20
2.44300761394203
30
0
41
1
10
14.8291550971362
20
2.30695957114136
30
0
41
1
10
15.5301192972214
20
2.15065344867529
30
1E-16
41
1
10
16.415989947894
20
1.88421347794517
30
1E-16
41
1
10
16.593951353988
20
1.82728244199728
30
1E-16
41
1
10
16.9492677666184
20
1.70739636064692
30
-1E-16
41
1
10
17.1266849145358
20
1.64443734871026
30
-1E-16
41
1
10
17.6587562076107
20
1.44740618381891
30
-1E-16
41
1
10
18.0132477402028
20
1.30520818951121
30
-1E-16
41
1
10
18.7244160089414
20
1.00362480787484
30
-1E-16
41
1
10
19.0793748310721
20
0.84490123338486
30
-1E-16
41
1
10
19.7886411711402
20
0.518044756504338
30
0
41
1
10
20.1438853883573
20
0.349512291222112
30
0
41
1
10
20.8546203832092
20
0.0098216442946182
30
0
41
1
10
21.2089762599335
20
-0.16082647389203
30
0
41
1
10
21.7410360598928
20
-0.413722908987637
30
0
41
1
10
21.9184791714039
20
-0.497504708581914
30
0
41
1
10
22.2738990123958
20
-0.66329599047944
30
0
41
1
10
22.4516463935636
20
-0.74519203423489
30
0
41
1
10
23.3366721843992
20
-1.14582458017679
30
1E-16
41
1
10
24.0370364511822
20
-1.44015151159169
30
1E-16
41
1
10
25.0923685822751
20
-1.81353614601724
30
-1E-16
41
1
10
25.4449653739292
20
-1.92665427791425
30
-1E-16
41
1
10
25.9770114741135
20
-2.07615674628423
30
-1E-16
41
1
10
26.1550566018456
20
-2.12265242790269
30
-1E-16
41
1
10
26.5095418136984
20
-2.20770536501118
30
-1E-16
41
1
10
26.6863392928865
20
-2.24637035103459
30
-1E-16
41
1
10
27.5689682997615
20
-2.41977602392225
30
0
41
1
10
28.2706340911942
20
-2.49456737296134
30
0
41
1
10
28.9788005820435
20
-2.49969234507216
30
0
0
SPLINE
5
DC
100
AcDbEntity
8
1
62
256
6
ByLayer
370
18
48
1
60
0
100
AcDbSpline
70
4
71
3
72
26
73
22
40
0
40
0
40
0
40
0
40
0.0746176671813205
40
0.0746176671813205
40
0.168713152950605
40
0.168713152950605
40
0.262808638719889
40
0.262808638719889
40
0.356904124489173
40
0.356904124489173
40
0.450999610258457
40
0.450999610258457
40
0.545095096027741
40
0.545095096027741
40
0.639190581797025
40
0.639190581797025
40
0.73328606756631
40
0.73328606756631
40
0.827381553335594
40
0.827381553335594
40
1
40
1
40
1
40
1
41
1
10
20.3217556563873
20
2.37732729609399
30
0
41
1
10
20.5284739993899
20
2.38025257445705
30
0
41
1
10
20.735008352047
20
2.37800116414903
30
0
41
1
10
21.2029972505718
20
2.35823025266029
30
0
41
1
10
21.4646181605444
20
2.33758271357169
30
0
41
1
10
21.9887182792472
20
2.28006576508389
30
0
41
1
10
22.2509886141779
20
2.2435738483351
30
0
41
1
10
22.7797207621833
20
2.15035430884012
30
1E-16
41
1
10
23.0441938283039
20
2.0946258847363
30
1E-16
41
1
10
23.5713713202417
20
1.96949499154488
30
1E-16
41
1
10
23.8340581043915
20
1.90009290115782
30
1E-16
41
1
10
24.3613363813455
20
1.74522067899429
30
-1E-16
41
1
10
24.6263228477668
20
1.66009693468652
30
-1E-16
41
1
10
25.1541704363685
20
1.4786145797195
30
-1E-16
41
1
10
25.4169108828951
20
1.38238224186037
30
-1E-16
41
1
10
25.9406400729927
20
1.18062006998011
30
-1E-16
41
1
10
26.201540213293
20
1.07501831081089
30
-1E-16
41
1
10
26.7233350740575
20
0.856735448742967
30
-1E-16
41
1
10
26.9841425618392
20
0.744068775509447
30
0
41
1
10
27.7244537470267
20
0.417934935639153
30
0
41
1
10
28.2049442557213
20
0.199039011576105
30
0
41
1
10
28.6882416906609
20
-0.0234488952431775
30
0
0
SPLINE
5
DD
100
AcDbEntity
8
1
62
256
6
ByLayer
370
18
48
1
60
0
100
AcDbSpline
70
4
71
3
72
8
73
4
40
0
40
0
40
0
40
0
40
1
40
1
40
1
40
1
41
1
10
3.64398395782047
20
2.36076194824582
30
0
41
1
10
3.63102429170618
20
2.36016655673268
30
0
41
1
10
3.61709980046521
20
2.35979258646995
30
0
41
1
10
3.60282477725539
20
2.35968321886892
30
0
0
SPLINE
5
DE
100
AcDbEntity
8
1
62
256
6
ByLayer
370
18
48
1
60
0
100
AcDbSpline
70
4
71
3
72
18
73
14
40
0
40
0
40
0
40
0
40
0.249999999999987
40
0.249999999999987
40
0.374999999999984
40
0.374999999999984
40
0.437499999999983
40
0.437499999999983
40
0.499999999999981
40
0.499999999999981
40
0.749999999999991
40
0.749999999999991
40
1
40
1
40
1
40
1
41
1
10
29.1330253637117
20
2.39686787139033
30
0
41
1
10
29.1822370705997
20
2.25702963567053
30
0
41
1
10
29.2309216414808
20
2.11623583007525
30
0
41
1
10
29.3041024633791
20
1.90432249171047
30
0
41
1
10
29.3285107849492
20
1.83358910322215
30
0
41
1
10
29.3652168510273
20
1.72745002927508
30
0
41
1
10
29.3774254117477
20
1.69205719675273
30
0
41
1
10
29.4023657034756
20
1.62130019896893
30
0
41
1
10
29.4150262702073
20
1.5860170097385
30
0
41
1
10
29.4792719437277
20
1.41093638418022
30
0
41
1
10
29.5340103381886
20
1.27447931938644
30
0
41
1
10
29.6554071499753
20
1.0107419307846
30
0
41
1
10
29.7201052617788
20
0.888092631357722
30
0
41
1
10
29.7895265899977
20
0.774965825585014
30
0
0
SPLINE
5
DF
100
AcDbEntity
8
1
62
256
6
ByLayer
370
18
48
1
60
0
100
AcDbSpline
70
4
71
3
72
10
73
6
40
0
40
0
40
0
40
0
40
0.5
40
0.5
40
1
40
1
40
1
40
1
41
1
10
28.9950539461055
20
0.383950151973266
30
0
41
1
10
28.9549724241972
20
0.377460050927169
30
0
41
1
10
28.9150538977323
20
0.365486353175385
30
0
41
1
10
28.8362412121466
20
0.333616704282775
30
0
41
1
10
28.7974437946302
20
0.314559474261699
30
0
41
1
10
28.7600537975401
20
0.290579156135635
30
0
0
SPLINE
5
E0
100
AcDbEntity
8
1
62
256
6
ByLayer
370
18
48
1
60
0
100
AcDbSpline
70
4
71
3
72
16
73
12
40
0
40
0
40
0
40
0
40
0.18791016731747
40
0.18791016731747
40
0.37582033463494
40
0.37582033463494
40
0.75164066926983
40
0.75164066926983
40
0.939550836587275
40
0.939550836587275
40
1
40
1
40
1
40
1
41
1
10
28.9950539461051
20
0.38395015197338
30
0
41
1
10
28.9818463717979
20
0.394685657064173
30
0
41
1
10
28.9690947389047
20
0.404784009870156
30
0
41
1
10
28.9441587341279
20
0.424188000371004
30
0
41
1
10
28.9318824702291
20
0.433642160986636
30
0
41
1
10
28.8967634425198
20
0.459887775643949
30
0
41
1
10
28.8760491167431
20
0.47400535457956
30
0
41
1
10
28.8513932621968
20
0.487246364089572
30
0
41
1
10
28.8440074485627
20
0.490706909018371
30
0
41
1
10
28.834716994049
20
0.494741274251368
30
0
41
1
10
28.8325743187354
20
0.495587519278303
30
0
41
1
10
28.8305786822983
20
0.496265481824082
30
0
0
SPLINE
5
E1
100
AcDbEntity
8
1
62
256
6
ByLayer
370
18
48
1
60
0
100
AcDbSpline
70
4
71
3
72
10
73
6
40
0
40
0
40
0
40
0
40
0.5
40
0.5
40
1
40
1
40
1
40
1
41
1
10
3.50204684913885
20
-2.48061188187015
30
0
41
1
10
3.50204684913882
20
-2.47883393099653
30
0
41
1
10
3.52010480315141
20
-2.47631126361137
30
0
41
1
10
3.57774499832581
20
-2.47322851512425
30
0
41
1
10
3.61500913095415
20
-2.47303897036034
30
0
41
1
10
3.64562968507769
20
-2.47436892396411
30
0
0
SPLINE
5
E2
100
AcDbEntity
8
1
62
256
6
ByLayer
370
18
48
1
60
0
100
AcDbSpline
70
4
71
3
72
32
73
28
40
0
40
0
40
0
40
0
40
0.178939129750752
40
0.178939129750752
40
0.268408694626129
40
0.268408694626129
40
0.357878259501505
40
0.357878259501505
40
0.447347824376882
40
0.447347824376882
40
0.49208260681457
40
0.49208260681457
40
0.536817389252258
40
0.536817389252258
40
0.626286954127636
40
0.626286954127636
40
0.671021736565326
40
0.671021736565326
40
0.715756519003015
40
0.715756519003015
40
0.805226083878395
40
0.805226083878395
40
0.894695648753776
40
0.894695648753776
40
0.984165213629156
40
0.984165213629156
40
1
40
1
40
1
40
1
41
1
10
3.64398395782047
20
2.36076194824582
30
0
41
1
10
4.17109401356424
20
2.38620383950004
30
0
41
1
10
4.69433034798664
20
2.36876398433745
30
0
41
1
10
5.47781019535412
20
2.29224718915896
30
0
41
1
10
5.73844763386319
20
2.25884010617926
30
0
41
1
10
6.26025823937289
20
2.17501080567791
30
0
41
1
10
6.52152555444138
20
2.12439582834278
30
1E-16
41
1
10
7.04593151829462
20
2.00674380019063
30
1E-16
41
1
10
7.3090563865135
20
1.93971016836889
30
1E-16
41
1
10
7.70551176003716
20
1.82805122085051
30
1E-16
41
1
10
7.83759862007338
20
1.78907484498802
30
-1E-16
41
1
10
8.10072214221321
20
1.70814286872431
30
-1E-16
41
1
10
8.23191928006813
20
1.66614343082793
30
-1E-16
41
1
10
8.62489641952641
20
1.53561629271061
30
-1E-16
41
1
10
8.88602360447646
20
1.44258152546999
30
-1E-16
41
1
10
9.27672170837786
20
1.29590516509688
30
-1E-16
41
1
10
9.40678738583443
20
1.24581967475947
30
-1E-16
41
1
10
9.66658104968278
20
1.14336481440077
30
-1E-16
41
1
10
9.79631649519507
20
1.09100565724754
30
-1E-16
41
1
10
10.185773101767
20
0.931188166440506
30
-1E-16
41
1
10
10.4457171244794
20
0.820993467012897
30
-1E-16
41
1
10
10.9662399391653
20
0.594927073970837
30
0
41
1
10
11.2266670474403
20
0.478821173044679
30
0
41
1
10
11.7491843960981
20
0.242818675461876
30
0
41
1
10
12.0113025019334
20
0.122881962797948
30
0
41
1
10
12.3216506272015
20
-0.0187787530601327
30
0
41
1
10
12.3683982522165
20
-0.0400864101986542
30
0
41
1
10
12.4151762984071
20
-0.0613785984165816
30
0
0
SPLINE
5
E3
100
AcDbEntity
8
1
62
256
6
ByLayer
370
18
48
1
60
0
100
AcDbSpline
70
4
71
3
72
16
73
12
40
0
40
0
40
0
40
0
40
0.227200524726777
40
0.227200524726777
40
0.456781886101221
40
0.456781886101221
40
0.653712584198784
40
0.653712584198784
40
0.826835438574544
40
0.826835438574544
40
1
40
1
40
1
40
1
41
1
10
29.1033133415624
20
-2.35341792052284
30
0
41
1
10
29.1034144867587
20
-2.35358344879668
30
0
41
1
10
29.1034593221499
20
-2.35392791135604
30
0
41
1
10
29.1034063646376
20
-2.35498908633767
30
0
41
1
10
29.1033049038905
20
-2.35573045301814
30
0
41
1
10
29.1029739653814
20
-2.35740193665606
30
0
41
1
10
29.1027589789991
20
-2.35831680853903
30
0
41
1
10
29.1022754199307
20
-2.36013429066469
30
0
41
1
10
29.1020102717157
20
-2.36104854377879
30
0
41
1
10
29.1014495336316
20
-2.36285066241157
30
0
41
1
10
29.1011473581159
20
-2.36376027776944
30
0
41
1
10
29.1008454624304
20
-2.36461935300164
30
0
0
SPLINE
5
E4
100
AcDbEntity
8
1
62
256
6
ByLayer
370
18
48
1
60
0
100
AcDbSpline
70
4
71
3
72
8
73
4
40
0
40
0
40
0
40
0
40
1
40
1
40
1
40
1
41
1
10
12
20
2.47152010711307
30
0
41
1
10
12
20
2.4408418652757
30
0
41
1
10
12
20
2.41003568719449
30
0
41
1
10
12
20
2.3791031384709
30
0
0
SPLINE
5
E5
100
AcDbEntity
8
1
62
256
6
ByLayer
370
18
48
1
60
0
100
AcDbSpline
70
4
71
3
72
18
73
14
40
0
40
0
40
0
40
0
40
0.250000000000016
40
0.250000000000016
40
0.37500000000002
40
0.37500000000002
40
0.437500000000018
40
0.437500000000018
40
0.500000000000016
40
0.500000000000016
40
0.750000000000008
40
0.750000000000008
40
1
40
1
40
1
40
1
41
1
10
29.1330253637117
20
-2.3968678713903
30
0
41
1
10
29.1822370705997
20
-2.25702963567051
30
0
41
1
10
29.2309216414809
20
-2.1162358300752
30
0
41
1
10
29.3041024633793
20
-1.90432249171042
30
0
41
1
10
29.3285107849492
20
-1.83358910322207
30
0
41
1
10
29.3652168510273
20
-1.72745002927499
30
0
41
1
10
29.3774254117477
20
-1.69205719675267
30
0
41
1
10
29.4023657034756
20
-1.62130019896884
30
0
41
1
10
29.4150262702073
20
-1.58601700973841
30
0
41
1
10
29.4792719437277
20
-1.41093638418022
30
0
41
1
10
29.5340103381886
20
-1.27447931938639
30
0
41
1
10
29.6554071499754
20
-1.01074193078432
30
0
41
1
10
29.7201052617788
20
-0.88809263135775
30
0
41
1
10
29.7895265899977
20
-0.774965825585014
30
0
0
SPLINE
5
E6
100
AcDbEntity
8
1
62
256
6
ByLayer
370
18
48
1
60
0
100
AcDbSpline
70
4
71
3
72
8
73
4
40
0
40
0
40
0
40
0
40
1
40
1
40
1
40
1
41
1
10
29.3608886218731
20
0.6946854165096
30
0
41
1
10
29.5048189158794
20
0.715434754408335
30
0
41
1
10
29.6485234249246
20
0.74051339249894
30
0
41
1
10
29.7895265899973
20
0.774965825584843
30
0
0
SPLINE
5
E7
100
AcDbEntity
8
1
62
256
6
ByLayer
370
18
48
1
60
0
100
AcDbSpline
70
4
71
3
72
8
73
4
40
0
40
0
40
0
40
0
40
1
40
1
40
1
40
1
41
1
10
29.5111011112177
20
-0.403964421910985
30
0
41
1
10
29.3712607455901
20
-0.170583845596497
30
0
41
1
10
29.2005567343932
20
0.0908615843532914
30
0
41
1
10
28.9950539461055
20
0.383950151973238
30
0
0
SPLINE
5
E8
100
AcDbEntity
8
1
62
256
6
ByLayer
370
18
48
1
60
0
100
AcDbSpline
70
2053
71
3
72
46
73
42
40
0
40
0
40
0
40
0
40
0.0625000000000005
40
0.0625000000000005
40
0.125000000000001
40
0.125000000000001
40
0.187500000000002
40
0.187500000000002
40
0.250000000000002
40
0.250000000000002
40
0.281250000000002
40
0.281250000000002
40
0.312500000000002
40
0.312500000000002
40
0.343750000000003
40
0.343750000000003
40
0.375000000000003
40
0.375000000000003
40
0.406250000000003
40
0.406250000000003
40
0.437500000000003
40
0.437500000000003
40
0.499999999999998
40
0.499999999999998
40
0.624999999999989
40
0.624999999999989
40
0.656249999999989
40
0.656249999999989
40
0.68749999999999
40
0.68749999999999
40
0.74999999999999
40
0.74999999999999
40
0.781249999999991
40
0.781249999999991
40
0.812499999999991
40
0.812499999999991
40
0.874999999999994
40
0.874999999999994
40
0.937499999999997
40
0.937499999999997
40
1
40
1
40
1
40
1
41
1
10
29.323882004789
20
-1.1426187169032
30
0
41
1
10
29.3035581208947
20
-1.16998903401054
30
0
41
1
10
29.2845819543769
20
-1.18870536508228
30
0
41
1
10
29.2485219045202
20
-1.20922435280895
30
1E-16
41
1
10
29.2323769220667
20
-1.21045456373426
30
1E-16
41
1
10
29.202877910802
20
-1.19433105346775
30
1E-16
41
1
10
29.1902819920102
20
-1.17741803557715
30
1E-16
41
1
10
29.1687491778993
20
-1.12481985691451
30
1E-16
41
1
10
29.1603900722977
20
-1.09052427760523
30
1E-16
41
1
10
29.1519197939587
20
-1.02690103881912
30
1E-16
41
1
10
29.1498815509831
20
-1.00428009022983
30
1E-16
41
1
10
29.1475000349165
20
-0.956151795503615
30
1E-16
41
1
10
29.1471697238753
20
-0.930253253335678
30
1E-16
41
1
10
29.1485813632638
20
-0.87730003874475
30
1E-16
41
1
10
29.1502877177929
20
-0.850366213488826
30
1E-16
41
1
10
29.1560105544468
20
-0.795563107556546
30
0
41
1
10
29.1600663017975
20
-0.76775611986983
30
0
41
1
10
29.1703314831471
20
-0.71445594290671
30
0
41
1
10
29.1766760006077
20
-0.688231090861564
30
0
41
1
10
29.1913632449742
20
-0.63901589648998
30
0
41
1
10
29.1996226164462
20
-0.616160168802793
30
0
41
1
10
29.2271208772936
20
-0.552533659391997
30
0
41
1
10
29.2484913153559
20
-0.518401666072947
30
0
41
1
10
29.3154464841111
20
-0.442990459106198
30
0
41
1
10
29.3640288105867
20
-0.427656000515242
30
0
41
1
10
29.4137058720727
20
-0.448237139463572
30
0
41
1
10
29.4230989014682
20
-0.454331292372018
30
0
41
1
10
29.4406093907384
20
-0.470742557183428
30
0
41
1
10
29.4487410484009
20
-0.481147478089241
30
0
41
1
10
29.4699501283426
20
-0.518210666004478
30
0
41
1
10
29.4803505956608
20
-0.55174891125418
30
0
41
1
10
29.4872107021113
20
-0.613270224677478
30
0
41
1
10
29.4880753954536
20
-0.636004529916704
30
0
41
1
10
29.4866567111991
20
-0.683964713599835
30
0
41
1
10
29.4844285052361
20
-0.709041196642005
30
0
41
1
10
29.473210279196
20
-0.787762618736735
30
0
41
1
10
29.4596665893535
20
-0.843302873879225
30
1E-16
41
1
10
29.4261293647743
20
-0.947204635928586
30
-1E-16
41
1
10
29.4061768151832
20
-0.995964515611121
30
-1E-16
41
1
10
29.3652677316218
20
-1.07981029953623
30
0
41
1
10
29.3442058886833
20
-1.11524839979586
30
0
41
1
10
29.323882004789
20
-1.1426187169032
30
0
0
SPLINE
5
E9
100
AcDbEntity
8
1
62
256
6
ByLayer
370
18
48
1
60
0
100
AcDbSpline
70
4
71
3
72
30
73
26
40
0
40
0
40
0
40
0
40
0.100230566581728
40
0.100230566581728
40
0.200461133163456
40
0.200461133163456
40
0.300691699745184
40
0.300691699745184
40
0.350806983036047
40
0.350806983036047
40
0.40092226632691
40
0.40092226632691
40
0.501152832908635
40
0.501152832908635
40
0.601383399490361
40
0.601383399490361
40
0.651498682781225
40
0.651498682781225
40
0.701613966072089
40
0.701613966072089
40
0.801844532653817
40
0.801844532653817
40
0.902075099235545
40
0.902075099235545
40
1
40
1
40
1
40
1
41
1
10
28.760053797531
20
0.29057915612978
30
0
41
1
10
28.5068446267357
20
0.411421113525705
30
0
41
1
10
28.2542848888623
20
0.530239238793399
30
0
41
1
10
27.7509106777376
20
0.764817081939327
30
0
41
1
10
27.4993000713952
20
0.878908096130516
30
-1E-16
41
1
10
26.9959486439375
20
1.10026656701672
30
-1E-16
41
1
10
26.744732508832
20
1.20850962941859
30
-1E-16
41
1
10
26.3663558436456
20
1.36290442597388
30
-1E-16
41
1
10
26.2399962278981
20
1.41310031985486
30
-1E-16
41
1
10
25.9870369707978
20
1.51135587554961
30
-1E-16
41
1
10
25.860544923675
20
1.55959793244736
30
-1E-16
41
1
10
25.4800276990925
20
1.69985067866611
30
-1E-16
41
1
10
25.2241135057
20
1.78748203676463
30
-1E-16
41
1
10
24.7161531274952
20
1.94911594417854
30
1E-16
41
1
10
24.4635903754807
20
2.02329505548173
30
1E-16
41
1
10
24.0849683247603
20
2.12239071889525
30
1E-16
41
1
10
23.9588217381206
20
2.15345483565929
30
1E-16
41
1
10
23.7070613875055
20
2.21208914492678
30
1E-16
41
1
10
23.5813840562142
20
2.23956914129016
30
1E-16
41
1
10
23.204089163178
20
2.31566670179652
30
0
41
1
10
22.9521930935496
20
2.35806247761781
30
0
41
1
10
22.448662735429
20
2.42684603890507
30
0
41
1
10
22.1965508416719
20
2.45280946362274
30
0
41
1
10
21.695741210376
20
2.48670103762174
30
0
41
1
10
21.4473683052907
20
2.49522443724447
30
0
41
1
10
21.1984021555745
20
2.4950662387937
30
0
0
SPLINE
5
EA
100
AcDbEntity
8
1
62
256
6
ByLayer
370
18
48
1
60
0
100
AcDbSpline
70
4
71
3
72
20
73
16
40
0
40
0
40
0
40
0
40
0.025765185756858
40
0.025765185756858
40
0.114331987051691
40
0.114331987051691
40
0.291465589641353
40
0.291465589641353
40
0.468599192231015
40
0.468599192231015
40
0.645732794820676
40
0.645732794820676
40
0.822866397410338
40
0.822866397410338
40
1
40
1
40
1
40
1
41
1
10
8.77658542661354
20
-1.81555373015382
30
1E-16
41
1
10
8.73948998207942
20
-1.82762361265478
30
1E-16
41
1
10
8.70242120831557
20
-1.83955018131138
30
0
41
1
10
8.53815813129941
20
-1.89182344398483
30
-1E-16
41
1
10
8.41141232396907
20
-1.9308337387362
30
-1E-16
41
1
10
8.03173996360758
20
-2.04204480407128
30
-1E-16
41
1
10
7.77921870766417
20
-2.10832592108954
30
-1E-16
41
1
10
7.27564915742445
20
-2.22600734237315
30
-1E-16
41
1
10
7.0247766675898
20
-2.27744528035859
30
-1E-16
41
1
10
6.52217056649269
20
-2.36321414591936
30
0
41
1
10
6.27085911744533
20
-2.39797798068793
30
0
41
1
10
5.7676947344948
20
-2.4507490598597
30
0
41
1
10
5.51543637061638
20
-2.46860238192423
30
0
41
1
10
5.00982039900606
20
-2.48692283903591
30
0
41
1
10
4.75595753030296
20
-2.48718871608315
30
0
41
1
10
4.50014662237174
20
-2.47863972119484
30
0
0
SPLINE
5
EB
100
AcDbEntity
8
1
62
256
6
ByLayer
370
18
48
1
60
0
100
AcDbSpline
70
4
71
3
72
8
73
4
40
0
40
0
40
0
40
0
40
1
40
1
40
1
40
1
41
1
10
28.761655516393
20
-0.0600555251229196
30
0
41
1
10
28.7568213255505
20
0.056897830050076
30
0
41
1
10
28.7558104358476
20
0.173769472016744
30
0
41
1
10
28.7600537975312
20
0.290579156135806
30
0
0
SPLINE
5
EC
100
AcDbEntity
8
1
62
256
6
ByLayer
370
18
48
1
60
0
100
AcDbSpline
70
4
71
3
72
26
73
22
40
0
40
0
40
0
40
0
40
0.187634630916475
40
0.187634630916475
40
0.281451946374713
40
0.281451946374713
40
0.375269261832948
40
0.375269261832948
40
0.469086577291184
40
0.469086577291184
40
0.562903892749419
40
0.562903892749419
40
0.656721208207655
40
0.656721208207655
40
0.75053852366589
40
0.75053852366589
40
0.844355839124125
40
0.844355839124125
40
0.938173154582361
40
0.938173154582361
40
1
40
1
40
1
40
1
41
1
10
28.824270989235
20
-0.0966996550276349
30
0
41
1
10
28.299072641389
20
0.144436947417717
30
0
41
1
10
27.7768531717687
20
0.382217537065799
30
0
41
1
10
26.9951592026901
20
0.725744153519599
30
0
41
1
10
26.7348371143938
20
0.837995428711793
30
-1E-16
41
1
10
26.2137567711197
20
1.05572623571837
30
-1E-16
41
1
10
25.9530805532272
20
1.16119428279126
30
-1E-16
41
1
10
25.4296267960523
20
1.36290152794152
30
-1E-16
41
1
10
25.166925049878
20
1.45921704902492
30
-1E-16
41
1
10
24.6389462027823
20
1.64108967540778
30
-1E-16
41
1
10
24.3736940788386
20
1.72654878047064
30
-1E-16
41
1
10
23.845973956723
20
1.88221446206015
30
1E-16
41
1
10
23.5830765243132
20
1.95206130225821
30
1E-16
41
1
10
23.0555432841797
20
2.0780837479968
30
1E-16
41
1
10
22.7909697871662
20
2.13431768345239
30
1E-16
41
1
10
22.2617269819803
20
2.22878633642631
30
0
41
1
10
21.9992032338828
20
2.265935464888
30
0
41
1
10
21.4746516354166
20
2.32472715409756
30
0
41
1
10
21.2128015021765
20
2.34607473416869
30
0
41
1
10
20.7794024210079
20
2.36561013209379
30
0
41
1
10
20.6075534487113
20
2.36889820356953
30
0
41
1
10
20.4356577883236
20
2.36845185276138
30
0
0
SPLINE
5
ED
100
AcDbEntity
8
1
62
256
6
ByLayer
370
18
48
1
60
0
100
AcDbSpline
70
4
71
3
72
10
73
6
40
0
40
0
40
0
40
0
40
0.5
40
0.5
40
1
40
1
40
1
40
1
41
1
10
29.133025363712
20
2.39686787139004
30
0
41
1
10
29.123375817993
20
2.40353700652153
30
0
41
1
10
29.114964940897
20
2.40701002250714
30
0
41
1
10
29.1004209264582
20
2.4075401703204
30
0
41
1
10
29.0942642853181
20
2.40463520535255
30
0
41
1
10
29.088888012134
20
2.39877887235039
30
0
0
SPLINE
5
EE
100
AcDbEntity
8
1
62
256
6
ByLayer
370
18
48
1
60
0
100
AcDbSpline
70
4
71
3
72
14
73
10
40
0
40
0
40
0
40
0
40
0.275191904218822
40
0.275191904218822
40
0.51215747565885
40
0.51215747565885
40
0.784292958791435
40
0.784292958791435
40
1
40
1
40
1
40
1
41
1
10
28.819111235779
20
-0.0837477699324438
30
0
41
1
10
28.8198431683765
20
-0.084032722271985
30
0
41
1
10
28.8205611429247
20
-0.0846912502738633
30
0
41
1
10
28.8217475584701
20
-0.0863679963730419
30
0
41
1
10
28.8222533128964
20
-0.087346431991449
30
0
41
1
10
28.8231777764441
20
-0.0897229938695432
30
0
41
1
10
28.8235872148418
20
-0.0911989140780634
30
0
41
1
10
28.8240877786194
20
-0.0940186666910279
30
0
41
1
10
28.8242321192365
20
-0.0953599867302444
30
0
41
1
10
28.824270989235
20
-0.0966996550276065
30
0
0
SPLINE
5
EF
100
AcDbEntity
8
1
62
256
6
ByLayer
370
18
48
1
60
0
100
AcDbSpline
70
4
71
3
72
8
73
4
40
0
40
0
40
0
40
0
40
1
40
1
40
1
40
1
41
1
10
29.1008454624304
20
-2.36461935300167
30
0
41
1
10
29.0546758013112
20
-2.36180936225691
30
0
41
1
10
29.0085444402012
20
-2.35873607886475
30
0
41
1
10
28.9624491094947
20
-2.35539781275432
30
0
0
SPLINE
5
F0
100
AcDbEntity
8
1
62
256
6
ByLayer
370
18
48
1
60
0
100
AcDbSpline
70
4
71
3
72
22
73
18
40
0
40
0
40
0
40
0
40
0.0498207847472981
40
0.0498207847472981
40
0.165014969305805
40
0.165014969305805
40
0.395403338422814
40
0.395403338422814
40
0.510597522981318
40
0.510597522981318
40
0.625791707539821
40
0.625791707539821
40
0.85618007665683
40
0.85618007665683
40
0.971374261215333
40
0.971374261215333
40
1
40
1
40
1
40
1
41
1
10
28.6476623688451
20
-2.32840863987556
30
0
41
1
10
28.5328127735659
20
-2.31702065645433
30
0
41
1
10
28.4181559983635
20
-2.30395266314866
30
0
41
1
10
28.0389143453559
20
-2.2550173027829
30
0
41
1
10
27.7749675309157
20
-2.21201640204998
30
0
41
1
10
26.9841248786476
20
-2.05841352452856
30
-1E-16
41
1
10
26.458100361814
20
-1.92308058711859
30
-1E-16
41
1
10
25.6652089942967
20
-1.6777715130151
30
1E-16
41
1
10
25.4001810842966
20
-1.58888589665224
30
1E-16
41
1
10
24.8676153567875
20
-1.39867652307771
30
1E-16
41
1
10
24.5993840555165
20
-1.29708282230408
30
1E-16
41
1
10
23.7972161381211
20
-0.979097968293274
30
1E-16
41
1
10
23.2644464766867
20
-0.74882228135931
30
0
41
1
10
22.4616111841267
20
-0.389902754662842
30
0
41
1
10
22.1940226498674
20
-0.268278529618073
30
0
41
1
10
21.8619162303167
20
-0.116548565559526
30
0
41
1
10
21.7958737588143
20
-0.0863406839474408
30
0
41
1
10
21.7298816386027
20
-0.0561460784066412
30
0
0
SPLINE
5
F1
100
AcDbEntity
8
1
62
256
6
ByLayer
370
18
48
1
60
0
100
AcDbSpline
70
4
71
3
72
8
73
4
40
0
40
0
40
0
40
0
40
1
40
1
40
1
40
1
41
1
10
29.9963611674984
20
0.177477210159651
30
0
41
1
10
29.9826841269235
20
0.131225954981773
30
0
41
1
10
29.9689222634408
20
0.0850021546890787
30
0
41
1
10
29.9550759760338
20
0.038805680141337
30
0
0
SPLINE
5
F2
100
AcDbEntity
8
1
62
256
6
ByLayer
370
18
48
1
60
0
100
AcDbSpline
70
4
71
3
72
74
73
70
40
0
40
0
40
0
40
0
40
0.0329076809599053
40
0.0329076809599053
40
0.0693694928411983
40
0.0693694928411983
40
0.0876003987818445
40
0.0876003987818445
40
0.105831304722491
40
0.105831304722491
40
0.142293116603783
40
0.142293116603783
40
0.178754928485075
40
0.178754928485075
40
0.215216740366367
40
0.215216740366367
40
0.25167855224766
40
0.25167855224766
40
0.288140364128952
40
0.288140364128952
40
0.324602176010244
40
0.324602176010244
40
0.361063987891536
40
0.361063987891536
40
0.397525799772829
40
0.397525799772829
40
0.415756705713475
40
0.415756705713475
40
0.433987611654121
40
0.433987611654121
40
0.452218517594767
40
0.452218517594767
40
0.470449423535413
40
0.470449423535413
40
0.506911235416705
40
0.506911235416705
40
0.543373047297996
40
0.543373047297996
40
0.561603953238642
40
0.561603953238642
40
0.579834859179288
40
0.579834859179288
40
0.598065765119934
40
0.598065765119934
40
0.616296671060581
40
0.616296671060581
40
0.652758482941873
40
0.652758482941873
40
0.689220294823165
40
0.689220294823165
40
0.725682106704457
40
0.725682106704457
40
0.762143918585749
40
0.762143918585749
40
0.798605730467042
40
0.798605730467042
40
0.816836636407688
40
0.816836636407688
40
0.835067542348334
40
0.835067542348334
40
0.871529354229625
40
0.871529354229625
40
0.907991166110917
40
0.907991166110917
40
0.944452977992208
40
0.944452977992208
40
0.9809147898735
40
0.9809147898735
40
1
40
1
40
1
40
1
41
1
10
25.6594638110181
20
-1.63352303392557
30
1E-16
41
1
10
25.4301553810488
20
-1.71686974112194
30
1E-16
41
1
10
25.1993566766525
20
-1.79535970436592
30
1E-16
41
1
10
24.7161531274952
20
-1.94911594417852
30
-1E-16
41
1
10
24.4635903754807
20
-2.02329505548173
30
-1E-16
41
1
10
24.0849683247603
20
-2.12239071889525
30
-1E-16
41
1
10
23.9588217381206
20
-2.15345483565929
30
-1E-16
41
1
10
23.7070613875055
20
-2.21208914492678
30
-1E-16
41
1
10
23.5813840562142
20
-2.23956914129016
30
-1E-16
41
1
10
23.204089163178
20
-2.31566670179652
30
0
41
1
10
22.9521930935497
20
-2.35806247761781
30
0
41
1
10
22.448662735429
20
-2.42684603890507
30
0
41
1
10
22.1965508416719
20
-2.45280946362274
30
0
41
1
10
21.6899139694559
20
-2.48709538779897
30
0
41
1
10
21.4356718144979
20
-2.49562124843419
30
0
41
1
10
20.9259587163714
20
-2.49445999095877
30
0
41
1
10
20.6720225001538
20
-2.48498111403168
30
0
41
1
10
20.1667862737473
20
-2.44835884184593
30
0
41
1
10
19.914726912947
20
-2.42138188702569
30
0
41
1
10
19.4109123275235
20
-2.35102669876756
30
0
41
1
10
19.1598476766721
20
-2.30711403381298
30
0
41
1
10
18.6564916614507
20
-2.20397155882918
30
-1E-16
41
1
10
18.4044378843048
20
-2.14467462272532
30
-1E-16
41
1
10
17.8997596113176
20
-2.01008547179336
30
-1E-16
41
1
10
17.6463595420357
20
-1.9357189449828
30
-1E-16
41
1
10
17.2646432150824
20
-1.81351360931754
30
-1E-16
41
1
10
17.1370735763688
20
-1.77065115243084
30
1E-16
41
1
10
16.8824891796735
20
-1.68224844336069
30
1E-16
41
1
10
16.7554464404852
20
-1.63670253623266
30
1E-16
41
1
10
16.5017529032983
20
-1.5431501451346
30
1E-16
41
1
10
16.3750562512007
20
-1.49522729993365
30
1E-16
41
1
10
16.1222898288169
20
-1.39652651993416
30
1E-16
41
1
10
15.996268542109
20
-1.34565108993368
30
1E-16
41
1
10
15.6182539921933
20
-1.19033751078143
30
1E-16
41
1
10
15.36627472484
20
-1.08333494119756
30
1E-16
41
1
10
14.8631329031132
20
-0.861032004816082
30
1E-16
41
1
10
14.6117892186584
20
-0.746029369680798
30
0
41
1
10
14.2334543781479
20
-0.571148114014704
30
0
41
1
10
14.1071601449542
20
-0.512391942380305
30
0
41
1
10
13.8545863570385
20
-0.393113142742521
30
0
41
1
10
13.7281994228953
20
-0.332812611583364
30
0
41
1
10
13.474722854394
20
-0.21197641152628
30
0
41
1
10
13.3476829084589
20
-0.151334742175294
30
0
41
1
10
13.0928978130434
20
-0.0298324849909761
30
0
41
1
10
12.9650419433411
20
0.0311920773806946
30
0
41
1
10
12.5834196629155
20
0.214443411230121
30
0
41
1
10
12.330136791119
20
0.33548632357406
30
0
41
1
10
11.8244512229423
20
0.572544375198163
30
0
41
1
10
11.5728137089989
20
0.690182499703894
30
0
41
1
10
11.0693017355532
20
0.918145181257245
30
-1E-16
41
1
10
10.8174461533983
20
1.02857537513469
30
-1E-16
41
1
10
10.3142233306293
20
1.24361739719089
30
-1E-16
41
1
10
10.0620440434222
20
1.34665139262256
30
-1E-16
41
1
10
9.55607026786231
20
1.54290561471083
30
-1E-16
41
1
10
9.30287012849752
20
1.63713749228913
30
-1E-16
41
1
10
8.92050274650779
20
1.76861171845627
30
-1E-16
41
1
10
8.79264955889249
20
1.81083691016136
30
-1E-16
41
1
10
8.53815813129941
20
1.89182344398483
30
1E-16
41
1
10
8.41141232396907
20
1.9308337387362
30
1E-16
41
1
10
8.03173996360755
20
2.04204480407128
30
1E-16
41
1
10
7.77921870766417
20
2.10832592108954
30
1E-16
41
1
10
7.27564915742448
20
2.22600734237315
30
1E-16
41
1
10
7.0247766675898
20
2.27744528035859
30
1E-16
41
1
10
6.52217056649272
20
2.36321414591936
30
0
41
1
10
6.27085911744533
20
2.39797798068793
30
0
41
1
10
5.7676947344948
20
2.4507490598597
30
0
41
1
10
5.51543637061641
20
2.46860238192423
30
0
41
1
10
5.1303010735285
20
2.48255734990124
30
0
41
1
10
4.99768474640217
20
2.48491522309814
30
0
41
1
10
4.86465131686688
20
2.4848476281488
30
0
0
SPLINE
5
F3
100
AcDbEntity
8
1
62
256
6
ByLayer
370
18
48
1
60
0
100
AcDbSpline
70
4
71
3
72
16
73
12
40
0
40
0
40
0
40
0
40
0.22949386183824
40
0.22949386183824
40
0.541948690826401
40
0.541948690826401
40
0.698176105320484
40
0.698176105320484
40
0.854403519814569
40
0.854403519814569
40
1
40
1
40
1
40
1
41
1
10
13.7457632639107
20
-2.37128276240554
30
0
41
1
10
13.551993632845
20
-2.37651696431954
30
0
41
1
10
13.3581204356244
20
-2.37680096725191
30
0
41
1
10
12.8995599544382
20
-2.3655605474205
30
0
41
1
10
12.6346182601638
20
-2.35000400520767
30
0
41
1
10
12.2355869495796
20
-2.31294470173285
30
0
41
1
10
12.1023079263521
20
-2.29830482138743
30
0
41
1
10
11.8350433479915
20
-2.2643259149844
30
0
41
1
10
11.7008509803336
20
-2.24492621161787
30
0
41
1
10
11.4425722887992
20
-2.2033850027604
30
0
41
1
10
11.3182673889163
20
-2.18148983049525
30
0
41
1
10
11.1941955163673
20
-2.1578098124493
30
0
0
SPLINE
5
F4
100
AcDbEntity
8
1
62
256
6
ByLayer
370
18
48
1
60
0
100
AcDbSpline
70
4
71
3
72
16
73
12
40
0
40
0
40
0
40
0
40
0.0078585230613733
40
0.0078585230613733
40
0.349534538851535
40
0.349534538851535
40
0.520372546746615
40
0.520372546746615
40
0.691210554641696
40
0.691210554641696
40
1
40
1
40
1
40
1
41
1
10
10.0109897539386
20
-1.87867357090752
30
0
41
1
10
9.99883546038828
20
-1.87528242818581
30
0
41
1
10
9.98668179358492
20
-1.87187611114115
30
0
41
1
10
9.44613174571489
20
-1.71969669785028
30
1E-16
41
1
10
8.91888511047881
20
-1.54215298960176
30
1E-16
41
1
10
8.12348245752023
20
-1.24312500535467
30
1E-16
41
1
10
7.85758413920149
20
-1.13792972896385
30
1E-16
41
1
10
7.32319585982242
20
-0.918191119159985
30
1E-16
41
1
10
7.0547945038509
20
-0.803767515792742
30
0
41
1
10
6.30620481802316
20
-0.477260837191409
30
0
41
1
10
5.82723064819336
20
-0.259503400435079
30
0
41
1
10
5.34808043940501
20
-0.0412764363572933
30
0
0
SPLINE
5
F5
100
AcDbEntity
8
1
62
256
6
ByLayer
370
18
48
1
60
0
100
AcDbSpline
70
4
71
3
72
8
73
4
40
0
40
0
40
0
40
0
40
1
40
1
40
1
40
1
41
1
10
28.761655516393
20
-0.060055525122948
30
0
41
1
10
28.7808977566043
20
-0.0684304330918337
30
0
41
1
10
28.800045664012
20
-0.0763252568508506
30
0
41
1
10
28.819111235779
20
-0.0837477699324722
30
0
0
SPLINE
5
F6
100
AcDbEntity
8
1
62
256
6
ByLayer
370
18
48
1
60
0
100
AcDbSpline
70
4
71
3
72
18
73
14
40
0
40
0
40
0
40
0
40
0.250000000000001
40
0.250000000000001
40
0.500000000000001
40
0.500000000000001
40
0.562500000000001
40
0.562500000000001
40
0.625
40
0.625
40
0.749999999999999
40
0.749999999999999
40
1
40
1
40
1
40
1
41
1
10
5.39837896222247
20
-0.450269628034846
30
0
41
1
10
5.95387515156438
20
-0.711066334144931
30
0
41
1
10
6.50297007740917
20
-0.961715907114097
30
1E-16
41
1
10
7.59932222905258
20
-1.42168149223556
30
1E-16
41
1
10
8.14630015996957
20
-1.63155976391241
30
1E-16
41
1
10
8.83495497810623
20
-1.85734621265866
30
-1E-16
41
1
10
8.97291982153973
20
-1.90069835886354
30
-1E-16
41
1
10
9.24949682354506
20
-1.98348854679895
30
-1E-16
41
1
10
9.38834993642044
20
-2.02299177284795
30
-1E-16
41
1
10
9.8042667659785
20
-2.13468436240999
30
-1E-16
41
1
10
10.0800779521514
20
-2.199977151144
30
-1E-16
41
1
10
10.9049831825387
20
-2.36704765954511
30
0
41
1
10
11.4516352487903
20
-2.43986465553104
30
0
41
1
10
12.0000000000144
20
-2.4715201071138
30
0
0
SPLINE
5
F7
100
AcDbEntity
8
1
62
256
6
ByLayer
370
18
48
1
60
0
100
AcDbSpline
70
4
71
3
72
8
73
4
40
0
40
0
40
0
40
0
40
1
40
1
40
1
40
1
41
1
10
29.1290213088692
20
2.39956820622885
30
0
41
1
10
29.1303559719673
20
2.39866817640106
30
0
41
1
10
29.1316906568567
20
2.39776806477579
30
0
41
1
10
29.1330253637121
20
2.39686787139004
30
0
0
SPLINE
5
F8
100
AcDbEntity
8
1
62
256
6
ByLayer
370
18
48
1
60
0
100
AcDbSpline
70
4
71
3
72
26
73
22
40
0
40
0
40
0
40
0
40
0.0026870524449722
40
0.0026870524449722
40
0.113499602173309
40
0.113499602173309
40
0.224312151901645
40
0.224312151901645
40
0.335124701629981
40
0.335124701629981
40
0.445937251358318
40
0.445937251358318
40
0.556749801086654
40
0.556749801086654
40
0.667562350814991
40
0.667562350814991
40
0.778374900543327
40
0.778374900543327
40
0.889187450271664
40
0.889187450271664
40
1
40
1
40
1
40
1
41
1
10
21.6793899803225
20
-0.377557529287941
30
0
41
1
10
21.6707229999098
20
-0.373610676373715
30
0
41
1
10
21.6620569207444
20
-0.369662704409763
30
0
41
1
10
21.2960481866711
20
-0.202859113324962
30
0
41
1
10
20.9395822412912
20
-0.0378014989036046
30
0
41
1
10
20.2257061760847
20
0.290853273323904
30
0
41
1
10
19.8675541296323
20
0.455029779547004
30
0
41
1
10
19.1530550398586
20
0.773459517835846
30
0
41
1
10
18.7966117360187
20
0.928152199745028
30
-1E-16
41
1
10
18.0825828460766
20
1.2225561070218
30
-1E-16
41
1
10
17.7245800417647
20
1.36275132026819
30
-1E-16
41
1
10
17.0085946872579
20
1.62116905475003
30
-1E-16
41
1
10
16.6506812147775
20
1.73983300643238
30
-1E-16
41
1
10
15.934694422572
20
1.95051033926038
30
1E-16
41
1
10
15.5776570966149
20
2.04286499618294
30
1E-16
41
1
10
14.8633949315361
20
2.1971871703397
30
0
41
1
10
14.5057080659715
20
2.25960115105863
30
0
41
1
10
13.7895989880432
20
2.35149041195368
30
0
41
1
10
13.4315629490289
20
2.38119094506993
30
0
41
1
10
12.7155903728394
20
2.40552735659298
30
0
41
1
10
12.3578907796576
20
2.40068996171223
30
0
41
1
10
11.9999999999999
20
2.37910313847158
30
0
0
SPLINE
5
F9
100
AcDbEntity
8
SK1
62
256
6
ByLayer
370
18
48
1
60
0
100
AcDbSpline
70
4
71
3
72
12
73
8
40
0
40
0
40
0
40
0
40
0.25
40
0.25
40
0.499999999999999
40
0.499999999999999
40
1
40
1
40
1
40
1
41
1
10
-35.65
20
-1.08936132748582
30
1E-16
41
1
10
-35.65
20
-1.07367336205843
30
1E-16
41
1
10
-35.6543403470552
20
-1.0561830189329
30
1E-16
41
1
10
-35.6670034572333
20
-1.02355752131953
30
1E-16
41
1
10
-35.6754069618006
20
-1.00793257738562
30
1E-16
41
1
10
-35.7033744297257
20
-0.965131411934408
30
1E-16
41
1
10
-35.7260009806424
20
-0.941085322142925
30
1E-16
41
1
10
-35.7500000000001
20
-0.923971402844785
30
1E-16
0
SPLINE
5
FA
100
AcDbEntity
8
SK1
62
256
6
ByLayer
370
18
48
1
60
0
100
AcDbSpline
70
4
71
3
72
8
73
4
40
0
40
0
40
0
40
0
40
1
40
1
40
1
40
1
41
1
10
-36.0000000000001
20
-0.52148161374086
30
0
41
1
10
-35.9478735570756
20
-0.629321615779133
30
0
41
1
10
-35.897619057052
20
-0.739045869909887
30
0
41
1
10
-35.8509618943233
20
-0.85178100687267
30
1E-16
0
SPLINE
5
FB
100
AcDbEntity
8
SK1
62
256
6
ByLayer
370
18
48
1
60
0
100
AcDbSpline
70
4
71
3
72
8
73
4
40
0
40
0
40
0
40
0
40
1
40
1
40
1
40
1
41
1
10
-35.75
20
-0.923971402844813
30
1E-16
41
1
10
-35.783702003857
20
-0.899938196920886
30
1E-16
41
1
10
-35.8173582887913
20
-0.875876193045315
30
1E-16
41
1
10
-35.8509618943233
20
-0.85178100687267
30
1E-16
0
SPLINE
5
FC
100
AcDbEntity
8
SK1
62
256
6
ByLayer
370
18
48
1
60
0
100
AcDbSpline
70
4
71
3
72
12
73
8
40
0
40
0
40
0
40
0
40
0.499999999999999
40
0.499999999999999
40
0.749999999999999
40
0.749999999999999
40
1
40
1
40
1
40
1
41
1
10
-35.75
20
-2.031180466092
30
-1E-16
41
1
10
-35.7259913046562
20
-2.048301285424
30
-1E-16
41
1
10
-35.7033433879313
20
-2.060271889543
30
-1E-16
41
1
10
-35.6754686754417
20
-2.06748908608296
30
-1E-16
41
1
10
-35.667025596347
20
-2.06807734524975
30
-1E-16
41
1
10
-35.6543350076412
20
-2.06354865046606
30
-1E-16
41
1
10
-35.65
20
-2.05823297394042
30
-1E-16
41
1
10
-35.65
20
-2.04894251563326
30
-1E-16
0
SPLINE
5
FD
100
AcDbEntity
8
SK1
62
256
6
ByLayer
370
18
48
1
60
0
100
AcDbSpline
70
4
71
3
72
8
73
4
40
0
40
0
40
0
40
0
40
1
40
1
40
1
40
1
41
1
10
-35.8509618943233
20
-1.95899007011971
30
-1E-16
41
1
10
-35.8173573146985
20
-1.98308595475746
30
-1E-16
41
1
10
-35.7837010719747
20
-2.00714792470171
30
-1E-16
41
1
10
-35.7499999999999
20
-2.03118046609188
30
-1E-16
0
SPLINE
5
FE
100
AcDbEntity
8
SK1
62
256
6
ByLayer
370
18
48
1
60
0
100
AcDbSpline
70
4
71
3
72
10
73
6
40
0
40
0
40
0
40
0
40
0.5
40
0.5
40
1
40
1
40
1
40
1
41
1
10
-35.8509618943233
20
-1.95899007011971
30
-1E-16
41
1
10
-35.8741904300927
20
-1.96225936540625
30
0
41
1
10
-35.8986222732874
20
-1.96227111231329
30
0
41
1
10
-35.9485161922248
20
-1.95671825157618
30
0
41
1
10
-35.974056478015
20
-1.95117692945152
30
0
41
1
10
-35.9999999999999
20
-1.94323845888854
30
0
0
SPLINE
5
FF
100
AcDbEntity
8
1
62
256
6
ByLayer
370
18
48
1
60
0
100
AcDbSpline
70
4
71
2
72
6
73
3
40
0
40
0
40
0
40
1
40
1
40
1
41
1
10
4.19114555580992
20
2.36217528886331
30
0
41
1
10
3.89695518457256
20
2.36179063276165
30
0
41
1
10
3.60277527076207
20
2.35935090114245
30
0
0
SPLINE
5
100
100
AcDbEntity
8
1
62
256
6
ByLayer
370
18
48
1
60
0
100
AcDbSpline
70
4
71
1
72
4
73
2
40
0
40
0
40
1
40
1
41
1
10
9.85015873086456
20
1.43125478964276
30
-1E-16
41
1
10
9.63884242535948
20
1.51039006092924
30
-1E-16
0
SPLINE
5
101
100
AcDbEntity
8
1
62
256
6
ByLayer
370
18
48
1
60
0
100
AcDbSpline
70
4
71
1
72
4
73
2
40
0
40
0
40
1
40
1
41
1
10
29.1182026055415
20
-2.40686413799526
30
0
41
1
10
29.1336965960113
20
-2.39642462850458
30
0
0
SPLINE
5
102
100
AcDbEntity
8
1
62
256
6
ByLayer
370
18
48
1
60
0
100
AcDbSpline
70
4
71
3
72
11
73
7
40
0
40
0
40
0
40
0
40
0.0047084065423603
40
0.258453785772514
40
0.607212130357053
40
1
40
1
40
1
40
1
41
1
10
28.8351426084629
20
0.494843763205608
30
0
41
1
10
28.8307891553313
20
0.496256309283609
30
0
41
1
10
28.5918313950753
20
0.573830338061725
30
0
41
1
10
28.0324430134663
20
0.762539534007544
30
0
41
1
10
27.1195440966922
20
1.08310285003398
30
-1E-16
41
1
10
26.4446126299865
20
1.33599703510248
30
-1E-16
41
1
10
26.0884368534961
20
1.47355996490796
30
-1E-16
0
SPLINE
5
103
100
AcDbEntity
8
1
62
256
6
ByLayer
370
18
48
1
60
0
100
AcDbSpline
70
4
71
1
72
4
73
2
40
0
40
0
40
1
40
1
41
1
10
26.0884368534961
20
1.47355996490796
30
-1E-16
41
1
10
25.9498127955447
20
1.52545167349982
30
-1E-16
0
SPLINE
5
104
100
AcDbEntity
8
1
62
256
6
ByLayer
370
18
48
1
60
0
100
AcDbSpline
70
4
71
3
72
25
73
21
40
0
40
0
40
0
40
0
40
3.3604885903E-06
40
4.18828864647E-05
40
0.0001573163412103
40
0.0002025320571297
40
0.0002429308196559
40
0.0005405059429583
40
0.0007753782649592
40
0.0012087951851601
40
0.0020275196869273
40
0.0036328272870251
40
0.0069587151616753
40
0.0725642659645038
40
0.177300864510627
40
0.298902228754206
40
0.416909510903385
40
0.578998003535587
40
0.789430702911718
40
1
40
1
40
1
40
1
41
1
10
14.2877611976936
20
-0.0624082669445868
30
0
41
1
10
14.2877621829404
20
-0.0624084385558188
30
0
41
1
10
14.2877682121986
20
-0.0624094314817114
30
0
41
1
10
14.2877590194335
20
-0.0624038198930634
30
0
41
1
10
14.2876346846331
20
-0.0623643969344982
30
0
41
1
10
14.2874602997016
20
-0.062311021948517
30
0
41
1
10
14.2870221649914
20
-0.0621798018688935
30
0
41
1
10
14.2860752198605
20
-0.0619062560677719
30
0
41
1
10
14.2847405421405
20
-0.0615144002797194
30
0
41
1
10
14.2825837477911
20
-0.0608848794487074
30
0
41
1
10
14.2784837113878
20
-0.0596888502444983
30
0
41
1
10
14.2701345281777
20
-0.0572614837999197
30
0
41
1
10
14.1669192386902
20
-0.0273680150380642
30
0
41
1
10
13.9058880205223
20
0.0486144031536071
30
0
41
1
10
13.4703750912611
20
0.180341483269359
30
0
41
1
10
12.9570053568663
20
0.340621348443136
30
0
41
1
10
12.3598837536206
20
0.533978411213326
30
0
41
1
10
11.6334076014726
20
0.778571726545607
30
0
41
1
10
10.7739033530407
20
1.08195874751959
30
-1E-16
41
1
10
10.1574928955308
20
1.31290219442468
30
-1E-16
41
1
10
9.85015873086456
20
1.43125478964276
30
-1E-16
0
SPLINE
5
105
100
AcDbEntity
8
1
62
256
6
ByLayer
370
18
48
1
60
0
100
AcDbSpline
70
4
71
3
72
19
73
15
40
0
40
0
40
0
40
0
40
0.149044914202311
40
0.250920847099131
40
0.336311970335962
40
0.42751704314488
40
0.519421998134962
40
0.611291947822401
40
0.689635345990286
40
0.763598475906955
40
0.832534006420904
40
0.897945096082477
40
0.962978479213574
40
1
40
1
40
1
40
1
41
1
10
13.4325093506489
20
-2.36547396908156
30
0
41
1
10
13.715078348945
20
-2.365635647771
30
0
41
1
10
14.1908026924552
20
-2.36593455114553
30
0
41
1
10
14.8284940357585
20
-2.36598860183864
30
0
41
1
10
15.3564623949605
20
-2.36668985202726
30
0
41
1
10
15.8655902801061
20
-2.36688263962893
30
0
41
1
10
16.3869861240282
20
-2.36656267389594
30
0
41
1
10
16.8839980042794
20
-2.36767805218369
30
0
41
1
10
17.3469899214288
20
-2.36782849836547
30
0
41
1
10
17.7664936358958
20
-2.36719486898474
30
0
41
1
10
18.1614768532878
20
-2.36721220877791
30
0
41
1
10
18.5395272833854
20
-2.36775108673601
30
0
41
1
10
18.8570646467713
20
-2.36852607098959
30
0
41
1
10
19.050572145385
20
-2.36865705979699
30
0
41
1
10
19.120768905502
20
-2.36867774780711
30
0
0
SPLINE
5
106
100
AcDbEntity
8
1
62
256
6
ByLayer
370
18
48
1
60
0
100
AcDbSpline
70
4
71
3
72
18
73
14
40
0
40
0
40
0
40
0
40
0.17106635639403
40
0.282976830916347
40
0.350499971270551
40
0.418415278383474
40
0.489989957081988
40
0.566784713281779
40
0.648127433214598
40
0.743514559155359
40
0.8389380305521
40
0.933634825271798
40
1
40
1
40
1
40
1
41
1
10
20.4604783167649
20
2.36858150812876
30
0
41
1
10
20.1480829259679
20
2.36864102907995
30
0
41
1
10
19.6313172439553
20
2.36850405479004
30
0
41
1
10
18.9912396088114
20
2.3688535394856
30
0
41
1
10
18.5395272833854
20
2.36775108673601
30
0
41
1
10
18.1614768532879
20
2.36721220877791
30
0
41
1
10
17.7664936358958
20
2.36719486898474
30
0
41
1
10
17.3469899214289
20
2.36782849836547
30
0
41
1
10
16.8839980042794
20
2.36767805218369
30
0
41
1
10
16.3869861240283
20
2.36656267389594
30
0
41
1
10
15.8655902801062
20
2.36688263962893
30
0
41
1
10
15.3971791939286
20
2.36670526994928
30
0
41
1
10
15.1030693792544
20
2.36634859306813
30
0
41
1
10
14.9818805675778
20
2.36622965123971
30
0
0
LINE
5
84
100
AcDbEntity
8
1
62
256
6
ByLayer
370
18
48
1
60
0
100
AcDbLine
10
3.502047
20
2.484006
30
0
11
3.502047
21
0.880893
31
0
39
0
210
0
220
0
230
1
0
LINE
5
85
100
AcDbEntity
8
1
62
256
6
ByLayer
370
18
48
1
60
0
100
AcDbLine
10
3.502047
20
-2.480612
30
0
11
3.502047
21
-2.484006
31
0
39
0
210
0
220
0
230
1
0
LINE
5
86
100
AcDbEntity
8
1
62
256
6
ByLayer
370
18
48
1
60
0
100
AcDbLine
10
0
20
3
30
0
11
0
21
0
31
0
39
0
210
0
220
0
230
1
0
LINE
5
87
100
AcDbEntity
8
1
62
256
6
ByLayer
370
18
48
1
60
0
100
AcDbLine
10
0
20
0
30
0
11
0
21
-3
31
0
39
0
210
0
220
0
230
1
0
LINE
5
88
100
AcDbEntity
8
1
62
256
6
ByLayer
370
18
48
1
60
0
100
AcDbLine
10
1.178667
20
2.482554
30
0
11
1.178667
21
0
31
0
39
0
210
0
220
0
230
1
0
LINE
5
89
100
AcDbEntity
8
1
62
256
6
ByLayer
370
18
48
1
60
0
100
AcDbLine
10
1.178667
20
0
30
0
11
1.178667
21
-2.482554
31
0
39
0
210
0
220
0
230
1
0
LINE
5
8A
100
AcDbEntity
8
1
62
256
6
ByLayer
370
18
48
1
60
0
100
AcDbLine
10
0.589083
20
2.741277
30
0
11
0.589083
21
0
31
0
39
0
210
0
220
0
230
1
0
LINE
5
8B
100
AcDbEntity
8
1
62
256
6
ByLayer
370
18
48
1
60
0
100
AcDbLine
10
0.589083
20
0
30
0
11
0.589083
21
-2.741277
31
0
39
0
210
0
220
0
230
1
0
LINE
5
8C
100
AcDbEntity
8
1
62
256
6
ByLayer
370
18
48
1
60
0
100
AcDbLine
10
29.955076
20
0.038806
30
0
11
29.360889
21
0.694685
31
0
39
0
210
0
220
0
230
1
0
LINE
5
8D
100
AcDbEntity
8
1
62
256
6
ByLayer
370
18
48
1
60
0
100
AcDbLine
10
12
20
-2.466898
30
0
11
12
21
-2.47152
31
0
39
0
210
0
220
0
230
1
0
LINE
5
8E
100
AcDbEntity
8
SK1
62
256
6
ByLayer
370
18
48
1
60
0
100
AcDbLine
10
-35.75
20
-2.03118
30
0
11
-35.75
21
-0.923968
31
0
39
0
210
0
220
0
230
1
0
LINE
5
90
100
AcDbEntity
8
SK1
62
256
6
ByLayer
370
18
48
1
60
0
100
AcDbLine
10
-35.065
20
-3
30
0
11
-35.065
21
3
31
0
39
0
210
0
220
0
230
1
0
LINE
5
91
100
AcDbEntity
8
SK1
62
256
6
ByLayer
370
18
48
1
60
0
100
AcDbLine
10
0
20
3
30
0
11
0
21
-3
31
0
39
0
210
0
220
0
230
1
0
LINE
5
92
100
AcDbEntity
8
SK1
62
256
6
ByLayer
370
18
48
1
60
0
100
AcDbLine
10
-36
20
-2.065
30
0
11
-36
21
-1.943238
31
0
39
0
210
0
220
0
230
1
0
LINE
5
93
100
AcDbEntity
8
SK1
62
256
6
ByLayer
370
18
48
1
60
0
100
AcDbLine
10
-35.850962
20
-1.95899
30
0
11
-35.850962
21
-0.851766
31
0
39
0
210
0
220
0
230
1
0
LINE
5
94
100
AcDbEntity
8
SK1
62
256
6
ByLayer
370
18
48
1
60
0
100
AcDbLine
10
-36
20
2.065
30
0
11
-36
21
-0.521482
31
0
39
0
210
0
220
0
230
1
0
LINE
5
95
100
AcDbEntity
8
SK1
62
256
6
ByLayer
370
18
48
1
60
0
100
AcDbLine
10
-36
20
-1.943238
30
0
11
-36
21
-0.521519
31
0
39
0
210
0
220
0
230
1
0
LINE
5
96
100
AcDbEntity
8
SK1
62
256
6
ByLayer
370
18
48
1
60
0
100
AcDbLine
10
-35.65
20
-2.048943
30
0
11
-35.65
21
-1.089361
31
0
39
0
210
0
220
0
230
1
0
LINE
5
97
100
AcDbEntity
8
1
62
256
6
ByLayer
370
18
48
1
60
0
100
AcDbLine
10
4.104069
20
-2.484382
30
0
11
4.8613
21
-2.484856
31
0
39
0
210
0
220
0
230
1
0
LINE
5
98
100
AcDbEntity
8
1
62
256
6
ByLayer
370
18
48
1
60
0
100
AcDbLine
10
4.8613
20
2.484856
30
0
11
4.104069
21
2.484382
31
0
39
0
210
0
220
0
230
1
0
LINE
5
99
100
AcDbEntity
8
SK1
62
256
6
ByLayer
370
18
48
1
60
0
100
AcDbLine
10
-36
20
-2.065
30
0
11
-35.065
21
-3
31
0
39
0
210
0
220
0
230
1
0
LINE
5
9A
100
AcDbEntity
8
SK1
62
256
6
ByLayer
370
18
48
1
60
0
100
AcDbLine
10
-35.065
20
3
30
0
11
-36
21
2.065
31
0
39
0
210
0
220
0
230
1
0
LINE
5
9B
100
AcDbEntity
8
SK1
62
256
6
ByLayer
370
18
48
1
60
0
100
AcDbLine
10
-35.065
20
-3
30
0
11
0
21
-3
31
0
39
0
210
0
220
0
230
1
0
LINE
5
9C
100
AcDbEntity
8
SK1
62
256
6
ByLayer
370
18
48
1
60
0
100
AcDbLine
10
0
20
3
30
0
11
-35.065
21
3
31
0
39
0
210
0
220
0
230
1
0
LINE
5
9D
100
AcDbEntity
8
1
62
256
6
ByLayer
370
18
48
1
60
0
100
AcDbLine
10
1.178667
20
-2.482554
30
0
11
3.502047
21
-2.484006
31
0
39
0
210
0
220
0
230
1
0
LINE
5
9E
100
AcDbEntity
8
1
62
256
6
ByLayer
370
18
48
1
60
0
100
AcDbLine
10
12.698874
20
-2.489754
30
0
11
13.429685
21
-2.490211
31
0
39
0
210
0
220
0
230
1
0
LINE
5
9F
100
AcDbEntity
8
1
62
256
6
ByLayer
370
18
48
1
60
0
100
AcDbLine
10
20.457251
20
-2.494603
30
0
11
21.199313
21
-2.495067
31
0
39
0
210
0
220
0
230
1
0
LINE
5
A0
100
AcDbEntity
8
1
62
256
6
ByLayer
370
18
48
1
60
0
100
AcDbLine
10
21.199313
20
2.495067
30
0
11
20.457251
21
2.494603
31
0
39
0
210
0
220
0
230
1
0
LINE
5
A1
100
AcDbEntity
8
1
62
256
6
ByLayer
370
18
48
1
60
0
100
AcDbLine
10
13.429685
20
2.490211
30
0
11
12.698874
21
2.489754
31
0
39
0
210
0
220
0
230
1
0
LINE
5
A2
100
AcDbEntity
8
1
62
256
6
ByLayer
370
18
48
1
60
0
100
AcDbLine
10
3.502047
20
2.484006
30
0
11
1.178667
21
2.482554
31
0
39
0
210
0
220
0
230
1
0
LINE
5
A3
100
AcDbEntity
8
SK4
62
256
6
ByLayer
370
18
48
0.05
60
0
100
AcDbLine
10
35
20
0
30
0
11
-41
21
0
31
0
39
0
210
0
220
0
230
1
0
LINE
5
A5
100
AcDbEntity
8
4
62
256
6
ByLayer
370
18
48
0.05
60
0
100
AcDbLine
10
-36
20
0
30
0
11
35
21
0
31
0
39
0
210
0
220
0
230
1
0
LINE
5
A7
100
AcDbEntity
8
80
62
256
6
ByLayer
370
18
48
1
60
0
100
AcDbLine
10
0
20
0
30
0
11
-6
21
0
31
0
39
0
210
0
220
0
230
1
0
LINE
5
A8
100
AcDbEntity
8
81
62
256
6
ByLayer
370
18
48
1
60
0
100
AcDbLine
10
30
20
0
30
0
11
36
21
0
31
0
39
0
210
0
220
0
230
1
0
LINE
5
A9
100
AcDbEntity
8
SK2
62
256
6
ByLayer
370
13
48
1
60
0
100
AcDbLine
10
30.542943
20
1.491767
30
0
11
37.92612
21
21.777448
31
0
39
0
210
0
220
0
230
1
0
LINE
5
AB
100
AcDbEntity
8
SK2
62
256
6
ByLayer
370
13
48
1
60
0
100
AcDbLine
10
30.542943
20
-1.491767
30
0
11
37.92612
21
-21.777448
31
0
39
0
210
0
220
0
230
1
0
LINE
5
AC
100
AcDbEntity
8
1
62
256
6
ByLayer
370
13
48
1
60
0
100
AcDbLine
10
36.840233
20
18.793914
30
0
11
39.936831
21
17.97757
31
0
39
0
210
0
220
0
230
1
0
LINE
5
AD
100
AcDbEntity
8
1
62
256
6
ByLayer
370
13
48
1
60
0
100
AcDbLine
10
36.840233
20
18.793914
30
0
11
39.620034
21
17.203926
31
0
39
0
210
0
220
0
230
1
0
LINE
5
AE
100
AcDbEntity
8
1
62
256
6
ByLayer
370
13
48
1
60
0
100
AcDbLine
10
39.936831
20
17.97757
30
0
11
39.620034
21
17.203926
31
0
39
0
210
0
220
0
230
1
0
LINE
5
AF
100
AcDbEntity
8
1
62
256
6
ByLayer
370
13
48
1
60
0
100
AcDbLine
10
36.840233
20
-18.793914
30
0
11
39.620031
21
-17.203928
31
0
39
0
210
0
220
0
230
1
0
LINE
5
B0
100
AcDbEntity
8
1
62
256
6
ByLayer
370
13
48
1
60
0
100
AcDbLine
10
36.840233
20
-18.793914
30
0
11
39.936834
21
-17.977569
31
0
39
0
210
0
220
0
230
1
0
LINE
5
B1
100
AcDbEntity
8
1
62
256
6
ByLayer
370
13
48
1
60
0
100
AcDbLine
10
39.620031
20
-17.203928
30
0
11
39.936834
21
-17.977569
31
0
39
0
210
0
220
0
230
1
0
MTEXT
5
107
100
AcDbEntity
8
SK2
62
256
6
ByLayer
370
18
48
1
60
0
100
AcDbMText
10
43.717388
20
-2.467451
30
0
210
0
220
0
230
1
1
\W0.7237;140.00
40
3.50012
41
0
44
1.084337
50
0
71
7
72
5
7
iso_b_vert
0
MTEXT
5
10A
100
AcDbEntity
8
SK6
62
256
6
ByLayer
370
18
48
1
60
0
100
AcDbMText
10
-42.331725
20
-54.264548
30
0
210
0
220
0
230
1
1
\W0.7348;860.1-0500-015A1-GM X1BM
40
3.175
41
0
44
1.084337
50
0
71
7
72
5
7
iso_b_vert
0
DIMENSION
5
10D
100
AcDbEntity
8
SK2
62
256
6
ByLayer
370
18
48
1
60
0
100
AcDbDimension
2
_U0
10
30
20
-26.50012
30
0
11
15
21
-26.50012
31
0
70
32
71
2
72
1
41
1
210
0
220
0
230
1
3
Standard
100
AcDbAlignedDimension
13
0
23
-3
33
0
14
30
24
0
34
0
50
0
100
AcDbRotatedDimension
1001
ACAD
1000
DSTYLE
1002
{
1070
   371
1070
    13
1070
   372
1070
    13
1070
     3
1000

1070
   170
1070
     0
1070
   144
1040
1.0
1070
   277
1070
     2
1070
   284
1070
     8
1070
   278
1070
    46
1070
   146
1040
0.999966
1070
   345
1005
16
1070
   347
1005
16
1070
   346
1005
16
1070
   344
1005
10E
1070
   343
1005
10E
1070
   172
1070
     1
1070
    76
1070
     0
1070
    75
1070
     0
1070
   282
1070
     0
1070
   281
1070
     0
1070
    71
1070
     0
1070
    74
1070
     0
1070
   279
1070
     0
1070
   173
1070
     1
1070
   340
1005
108
1070
   271
1070
     1
1070
   272
1070
     2
1070
    77
1070
     1
1070
    73
1070
     1
1070
   171
1070
     3
1070
   274
1070
     4
1070
   177
1070
   150
1070
   176
1070
     9
1070
   178
1070
    43
1070
    78
1070
     8
1070
    48
1040
-0.1
1070
    41
1040
3.175
1070
   147
1040
1.75006
1070
    42
1040
1.5875
1070
    44
1040
3.175
1070
   140
1040
3.50012
1002
}
1001
ACAD_DSTYLE_DIM_LINETYPE
1070
   380
1005
16
1001
ACAD_DSTYLE_DIM_EXT1_LINETYPE
1070
   381
1005
16
1001
ACAD_DSTYLE_DIM_EXT2_LINETYPE
1070
   382
1005
16
0
DIMENSION
5
133
100
AcDbEntity
8
2
62
256
6
ByLayer
370
18
48
1
60
0
100
AcDbDimension
2
_U1
10
36.75006
20
2.5
30
0
11
36.75006
21
15.573147
31
0
70
32
71
1
72
1
41
1
210
0
220
0
230
1
3
Standard
100
AcDbAlignedDimension
13
29.0901
23
-2.5
33
0
14
29.0901
24
2.5
34
0
50
90
100
AcDbRotatedDimension
1001
ACAD
1000
DSTYLE
1002
{
1070
   371
1070
    13
1070
   372
1070
    13
1070
     3
1000

1070
   170
1070
     0
1070
   144
1040
1.0
1070
   277
1070
     2
1070
   284
1070
     8
1070
   278
1070
    46
1070
   146
1040
0.999966
1070
   345
1005
16
1070
   347
1005
16
1070
   346
1005
16
1070
   344
1005
10E
1070
   343
1005
10E
1070
   172
1070
     1
1070
    76
1070
     0
1070
    75
1070
     0
1070
   282
1070
     0
1070
   281
1070
     0
1070
    71
1070
     0
1070
    74
1070
     0
1070
   279
1070
     0
1070
   173
1070
     1
1070
   340
1005
108
1070
   271
1070
     1
1070
   272
1070
     2
1070
    77
1070
     1
1070
    73
1070
     0
1070
   171
1070
     3
1070
   274
1070
     4
1070
   177
1070
   150
1070
   176
1070
     9
1070
   178
1070
    43
1070
    78
1070
     8
1070
    48
1040
-0.1
1070
    41
1040
3.175
1070
   147
1040
1.75006
1070
    42
1040
1.5875
1070
    44
1040
3.175
1070
   140
1040
3.50012
1002
}
1001
ACAD_DSTYLE_DIM_LINETYPE
1070
   380
1005
16
1001
ACAD_DSTYLE_DIM_EXT1_LINETYPE
1070
   381
1005
16
1001
ACAD_DSTYLE_DIM_EXT2_LINETYPE
1070
   382
1005
16
0
DIMENSION
5
152
100
AcDbEntity
8
SK2
62
256
6
ByLayer
370
18
48
1
60
0
100
AcDbDimension
2
_U2
10
-39.24994
20
-3
30
0
11
-39.24994
21
17.10734
31
0
70
32
71
1
72
1
41
1
210
0
220
0
230
1
3
Standard
100
AcDbAlignedDimension
13
-36
23
3
33
0
14
-36
24
-3
34
0
50
90
100
AcDbRotatedDimension
1001
ACAD
1000
DSTYLE
1002
{
1070
   371
1070
    13
1070
   372
1070
    13
1070
     3
1000

1070
   170
1070
     0
1070
   144
1040
1.0
1070
   277
1070
     2
1070
   284
1070
     8
1070
   278
1070
    46
1070
   146
1040
0.999966
1070
   345
1005
16
1070
   347
1005
16
1070
   346
1005
16
1070
   344
1005
10E
1070
   343
1005
10E
1070
   172
1070
     1
1070
    76
1070
     0
1070
    75
1070
     0
1070
   282
1070
     0
1070
   281
1070
     0
1070
    71
1070
     0
1070
    74
1070
     0
1070
   279
1070
     0
1070
   173
1070
     1
1070
   340
1005
108
1070
   271
1070
     1
1070
   272
1070
     2
1070
    77
1070
     1
1070
    73
1070
     0
1070
   171
1070
     3
1070
   274
1070
     4
1070
   177
1070
   150
1070
   176
1070
     9
1070
   178
1070
    43
1070
    78
1070
     8
1070
    48
1040
-0.1
1070
    41
1040
3.175
1070
   147
1040
1.75006
1070
    42
1040
1.5875
1070
    44
1040
3.175
1070
   140
1040
3.50012
1002
}
1001
ACAD_DSTYLE_DIM_LINETYPE
1070
   380
1005
16
1001
ACAD_DSTYLE_DIM_EXT1_LINETYPE
1070
   381
1005
16
1001
ACAD_DSTYLE_DIM_EXT2_LINETYPE
1070
   382
1005
16
0
DIMENSION
5
170
100
AcDbEntity
8
SK2
62
256
6
ByLayer
370
18
48
1
60
0
100
AcDbDimension
2
_U3
10
0
20
-26.50012
30
0
11
-18
21
-26.50012
31
0
70
32
71
1
72
1
41
1
210
0
220
0
230
1
3
Standard
100
AcDbAlignedDimension
13
-36
23
-3
33
0
14
0
24
-3
34
0
50
0
100
AcDbRotatedDimension
1001
ACAD
1000
DSTYLE
1002
{
1070
   371
1070
    13
1070
   372
1070
    13
1070
     3
1000

1070
   170
1070
     0
1070
   144
1040
1.0
1070
   277
1070
     2
1070
   284
1070
     8
1070
   278
1070
    46
1070
   146
1040
0.999966
1070
   345
1005
16
1070
   347
1005
16
1070
   346
1005
16
1070
   344
1005
10E
1070
   343
1005
10E
1070
   172
1070
     1
1070
    76
1070
     0
1070
    75
1070
     0
1070
   282
1070
     0
1070
   281
1070
     0
1070
    71
1070
     0
1070
    74
1070
     0
1070
   279
1070
     0
1070
   173
1070
     1
1070
   340
1005
108
1070
   271
1070
     1
1070
   272
1070
     2
1070
    77
1070
     1
1070
    73
1070
     1
1070
   171
1070
     3
1070
   274
1070
     4
1070
   177
1070
   150
1070
   176
1070
     9
1070
   178
1070
    43
1070
    78
1070
     8
1070
    48
1040
-0.1
1070
    41
1040
3.175
1070
   147
1040
1.75006
1070
    42
1040
1.5875
1070
    44
1040
3.175
1070
   140
1040
3.50012
1002
}
1001
ACAD_DSTYLE_DIM_LINETYPE
1070
   380
1005
16
1001
ACAD_DSTYLE_DIM_EXT1_LINETYPE
1070
   381
1005
16
1001
ACAD_DSTYLE_DIM_EXT2_LINETYPE
1070
   382
1005
16
0
DIMENSION
5
18C
100
AcDbEntity
8
SK2
62
256
6
ByLayer
370
18
48
1
60
0
100
AcDbDimension
2
_U4
10
30
20
-17.74982
30
0
11
16
21
-17.74982
31
0
70
32
71
1
72
1
41
1
210
0
220
0
230
1
3
Standard
100
AcDbAlignedDimension
13
2
23
3
33
0
14
30
24
0
34
0
50
0
100
AcDbRotatedDimension
1001
ACAD
1000
DSTYLE
1002
{
1070
   371
1070
    13
1070
   372
1070
    13
1070
     3
1000

1070
   170
1070
     0
1070
   144
1040
1.0
1070
   277
1070
     2
1070
   284
1070
     8
1070
   278
1070
    46
1070
   146
1040
0.999966
1070
   345
1005
16
1070
   347
1005
16
1070
   346
1005
16
1070
   344
1005
10E
1070
   343
1005
10E
1070
   172
1070
     1
1070
    76
1070
     0
1070
    75
1070
     0
1070
   282
1070
     0
1070
   281
1070
     0
1070
    71
1070
     0
1070
    74
1070
     0
1070
   279
1070
     0
1070
   173
1070
     1
1070
   340
1005
108
1070
   271
1070
     1
1070
   272
1070
     2
1070
    77
1070
     1
1070
    73
1070
     1
1070
   171
1070
     3
1070
   274
1070
     4
1070
   177
1070
   150
1070
   176
1070
     9
1070
   178
1070
    43
1070
    78
1070
     8
1070
    48
1040
-0.1
1070
    41
1040
3.175
1070
   147
1040
1.75006
1070
    42
1040
1.5875
1070
    44
1040
3.175
1070
   140
1040
3.50012
1002
}
1001
ACAD_DSTYLE_DIM_LINETYPE
1070
   380
1005
16
1001
ACAD_DSTYLE_DIM_EXT1_LINETYPE
1070
   381
1005
16
1001
ACAD_DSTYLE_DIM_EXT2_LINETYPE
1070
   382
1005
16
0
DIMENSION
5
1A8
100
AcDbEntity
8
SK2
62
256
6
ByLayer
370
18
48
1
60
0
100
AcDbDimension
2
_U5
10
30
20
-9.82
30
0
11
22.05
21
-9.82
31
0
70
32
71
1
72
1
41
1
210
0
220
0
230
1
3
Standard
100
AcDbAlignedDimension
13
14.1
23
-2.5
33
0
14
30
24
0
34
0
50
0
100
AcDbRotatedDimension
1001
ACAD
1000
DSTYLE
1002
{
1070
   371
1070
    13
1070
   372
1070
    13
1070
     3
1000

1070
   170
1070
     0
1070
   144
1040
1.0
1070
   277
1070
     2
1070
   284
1070
     8
1070
   278
1070
    46
1070
   146
1040
1.25
1070
   345
1005
16
1070
   347
1005
16
1070
   346
1005
16
1070
   344
1005
10E
1070
   343
1005
10E
1070
   172
1070
     1
1070
    76
1070
     0
1070
    75
1070
     0
1070
   282
1070
     0
1070
   281
1070
     0
1070
    71
1070
     0
1070
    74
1070
     0
1070
   279
1070
     0
1070
   173
1070
     1
1070
   340
1005
108
1070
   271
1070
     1
1070
   272
1070
     2
1070
    77
1070
     1
1070
    73
1070
     1
1070
   171
1070
     3
1070
   274
1070
     4
1070
   177
1070
   150
1070
   176
1070
     9
1070
   178
1070
    43
1070
    78
1070
     8
1070
    48
1040
-0.1
1070
    41
1040
3.175
1070
   147
1040
0.42
1070
    42
1040
1.5875
1070
    44
1040
0.5
1070
   140
1040
2.8
1002
}
1001
ACAD_DSTYLE_DIM_LINETYPE
1070
   380
1005
16
1001
ACAD_DSTYLE_DIM_EXT1_LINETYPE
1070
   381
1005
16
1001
ACAD_DSTYLE_DIM_EXT2_LINETYPE
1070
   382
1005
16
0
DIMENSION
5
1C4
100
AcDbEntity
8
SK2
62
256
6
ByLayer
370
18
48
1
60
0
100
AcDbDimension
2
_U6
10
30
20
-36.50012
30
0
11
-3
21
-36.50012
31
0
70
32
71
1
72
1
41
1
210
0
220
0
230
1
3
Standard
100
AcDbAlignedDimension
13
-36
23
0
33
0
14
30
24
0
34
0
50
0
100
AcDbRotatedDimension
1001
ACAD
1000
DSTYLE
1002
{
1070
   371
1070
    13
1070
   372
1070
    13
1070
     3
1000

1070
   170
1070
     0
1070
   144
1040
1.0
1070
   277
1070
     2
1070
   284
1070
     8
1070
   278
1070
    46
1070
   146
1040
0.999966
1070
   345
1005
16
1070
   347
1005
16
1070
   346
1005
16
1070
   344
1005
10E
1070
   343
1005
10E
1070
   172
1070
     1
1070
    76
1070
     0
1070
    75
1070
     0
1070
   282
1070
     0
1070
   281
1070
     0
1070
    71
1070
     0
1070
    74
1070
     0
1070
   279
1070
     0
1070
   173
1070
     1
1070
   340
1005
108
1070
   271
1070
     1
1070
   272
1070
     2
1070
    77
1070
     1
1070
    73
1070
     1
1070
   171
1070
     3
1070
   274
1070
     4
1070
   177
1070
   150
1070
   176
1070
     9
1070
   178
1070
    43
1070
    78
1070
     8
1070
    48
1040
-0.1
1070
    41
1040
3.175
1070
   147
1040
1.75006
1070
    42
1040
1.5875
1070
    44
1040
3.175
1070
   140
1040
3.50012
1002
}
1001
ACAD_DSTYLE_DIM_LINETYPE
1070
   380
1005
16
1001
ACAD_DSTYLE_DIM_EXT1_LINETYPE
1070
   381
1005
16
1001
ACAD_DSTYLE_DIM_EXT2_LINETYPE
1070
   382
1005
16
0
ENDSEC
0
SECTION
2
OBJECTS
0
DICTIONARY
5
250
330
0
100
AcDbDictionary
280
0
281
1
3
ACAD_GROUP
350
251
3
ACAD_MLINESTYLE
350
252
0
DICTIONARY
5
251
330
0
100
AcDbDictionary
280
0
281
1
0
DICTIONARY
5
252
330
0
100
AcDbDictionary
280
0
281
1
3
Standard
350
18
0
MLINESTYLE
5
18
330
252
100
AcDbMlineStyle
2
Standard
70
0
3

62
256
51
90
52
90
71
2
49
-0.5
62
256
6
ByLayer
49
0.5
62
256
6
ByLayer
0
RASTERVARIABLES
5
23e
330

100
AcDbRasterVariables
90
0
70
1
71
1
72
1
0
ENDSEC
0
EOF
