0
SECTION
2
HEADER
9
$ACADVER
1
AC1015
9
$DWGCODEPAGE
3
ANSI_1252
9
$HANDSEED
5
269
9
$ANGBASE
50
0
9
$ANGDIR
70
0
9
$ATTMODE
70
1
9
$AUNITS
70
0
9
$AUPREC
70
0
9
$CECOLOR
62
256
9
$CELTSCALE
40
1
9
$CELTYPE
6
ByLayer
9
$CELWEIGHT
370
18
9
$CLAYER
8
0
9
$CMLJUST
70
0
9
$CMLSCALE
40
1
9
$CMLSTYLE
2
Standard
9
$DIMSTYLE
2
Standard
9
$TEXTSIZE
40
0.2
9
$TEXTSTYLE
7
Standard
9
$LUNITS
70
2
9
$LUPREC
70
4
9
$EXTNAMES
290
1
9
$INSUNITS
70
4
9
$LTSCALE
40
1
9
$LWDISPLAY
290
1
9
$PDMODE
70
0
9
$PDSIZE
40
0
9
$PLINEGEN
70
0
0
ENDSEC
0
SECTION
2
CLASSES
0
CLASS
1
RASTERVARIABLES
2
AcDbRasterVariables
3
ISM
90
0
280
0
281
0
0
ENDSEC
0
SECTION
2
TABLES
0
TABLE
2
VPORT
5
25f
100
AcDbSymbolTable
0
VPORT
5
1
100
AcDbSymbolTableRecord
100
AcDbViewportTableRecord
2
*Active
70
0
10
0
20
0
11
1
21
1
12
-1
22
1
13
0
23
0
14
0.5
24
0.5
15
10
25
10
16
0
26
0
36
1
17
0
27
0
37
0
0
ENDTAB
0
TABLE
2
LTYPE
5
260
100
AcDbSymbolTable
0
LTYPE
5
14
100
AcDbSymbolTableRecord
100
AcDbLinetypeTableRecord
70
0
2
ByBlock
3

72
65
73
0
40
0
0
LTYPE
5
15
100
AcDbSymbolTableRecord
100
AcDbLinetypeTableRecord
70
0
2
ByLayer
3

72
65
73
0
40
0
0
LTYPE
5
16
100
AcDbSymbolTableRecord
100
AcDbLinetypeTableRecord
70
0
2
Continuous
3
Solid line
72
65
73
0
40
0
0
LTYPE
5
6E
100
AcDbSymbolTableRecord
100
AcDbLinetypeTableRecord
70
0
2
CENTER
3
____ _ ____ _ ____ _ ____
72
65
73
4
40
47.5
49
22
74
0
49
-8.5
74
0
49
8.5
74
0
49
-8.5
74
0
0
LTYPE
5
6F
100
AcDbSymbolTableRecord
100
AcDbLinetypeTableRecord
70
0
2
DASHED
3
__ __ __ __ __ __ __ __ __
72
65
73
2
40
25.72
49
12.86
74
0
49
-12.86
74
0
0
ENDTAB
0
TABLE
2
LAYER
5
261
100
AcDbSymbolTable
0
LAYER
5
10
100
AcDbSymbolTableRecord
100
AcDbLayerTableRecord
2
0
70
0
62
7
6
Continuous
290
1
370
-3
390
0
0
LAYER
5
71
100
AcDbSymbolTableRecord
100
AcDbLayerTableRecord
2
80
70
0
62
-6
6
Continuous
290
1
370
-3
390
0
0
LAYER
5
73
100
AcDbSymbolTableRecord
100
AcDbLayerTableRecord
2
81
70
0
62
-3
6
Continuous
290
1
370
-3
390
0
0
LAYER
5
75
100
AcDbSymbolTableRecord
100
AcDbLayerTableRecord
2
1
70
0
62
4
6
Continuous
290
1
370
-3
390
0
0
LAYER
5
A8
100
AcDbSymbolTableRecord
100
AcDbLayerTableRecord
2
4
70
0
62
-2
6
CENTER
290
1
370
-3
390
0
0
LAYER
5
122
100
AcDbSymbolTableRecord
100
AcDbLayerTableRecord
2
Defpoints
70
0
62
7
6
Continuous
290
0
370
-3
390
0
0
LAYER
5
14F
100
AcDbSymbolTableRecord
100
AcDbLayerTableRecord
2
2
70
0
62
7
6
Continuous
290
1
370
-3
390
0
0
LAYER
5
24b
100
AcDbSymbolTableRecord
100
AcDbLayerTableRecord
2
SK1
70
0
62
4
6
Continuous
290
1
370
-3
390
0
0
LAYER
5
24c
100
AcDbSymbolTableRecord
100
AcDbLayerTableRecord
2
SK4
70
0
62
2
6
CENTER
290
1
370
-3
390
0
0
LAYER
5
24d
100
AcDbSymbolTableRecord
100
AcDbLayerTableRecord
2
SK2
70
0
62
7
6
Continuous
290
1
370
-3
390
0
0
LAYER
5
24e
100
AcDbSymbolTableRecord
100
AcDbLayerTableRecord
2
SK6
70
0
62
5
6
Continuous
290
1
370
-3
390
0
0
ENDTAB
0
TABLE
2
STYLE
5
262
100
AcDbSymbolTable
0
STYLE
5
11
100
AcDbSymbolTableRecord
100
AcDbTextStyleTableRecord
2
Standard
3
txt
70
0
71
0
40
0
41
1
42
0
50
0
0
STYLE
5
113
100
AcDbSymbolTableRecord
100
AcDbTextStyleTableRecord
2
iso_b_vert
3
simplex.shx
70
0
71
0
40
0
41
1
42
0
50
0
0
STYLE
5
114
100
AcDbSymbolTableRecord
100
AcDbTextStyleTableRecord
2
DWGDirectTextStyle
3
simplex
70
0
71
0
40
0
41
1
42
0
50
0
0
ENDTAB
0
TABLE
2
DIMSTYLE
5
263
100
AcDbSymbolTable
100
AcDbDimStyleTable
0
DIMSTYLE
105
27
100
AcDbSymbolTableRecord
100
AcDbDimStyleTableRecord
2
Standard
70
0
3
<>
41
0.18
42
0.0625
44
0.18
140
0.18
147
0.09
73
0
74
0
77
1
271
2
275
0
278
52
280
0
340
11
0
ENDTAB
0
TABLE
2
VIEW
5
264
100
AcDbSymbolTable
0
ENDTAB
0
TABLE
2
UCS
5
265
100
AcDbSymbolTable
0
ENDTAB
0
TABLE
2
APPID
5
266
100
AcDbSymbolTable
0
APPID
5
12
100
AcDbSymbolTableRecord
100
AcDbRegAppTableRecord
2
ACAD
70
0
0
APPID
5
117
100
AcDbSymbolTableRecord
100
AcDbRegAppTableRecord
2
ACAD_DSTYLE_DIMBREAK
70
0
0
APPID
5
20A
100
AcDbSymbolTableRecord
100
AcDbRegAppTableRecord
2
ACAD_DSTYLE_DIM_LINETYPE
70
0
0
APPID
5
20B
100
AcDbSymbolTableRecord
100
AcDbRegAppTableRecord
2
ACAD_DSTYLE_DIM_EXT1_LINETYPE
70
0
0
APPID
5
20C
100
AcDbSymbolTableRecord
100
AcDbRegAppTableRecord
2
ACAD_DSTYLE_DIM_EXT2_LINETYPE
70
0
0
APPID
5
247
100
AcDbSymbolTableRecord
100
AcDbRegAppTableRecord
2
ACAD_MLEADERVER
70
0
0
ENDTAB
0
TABLE
2
BLOCK_RECORD
5
267
100
AcDbSymbolTable
0
BLOCK_RECORD
5
1F
100
AcDbSymbolTableRecord
100
AcDbBlockTableRecord
2
*Model_Space
340
0
70
0
0
BLOCK_RECORD
5
1B
100
AcDbSymbolTableRecord
100
AcDbBlockTableRecord
2
*Paper_Space
340
0
70
0
0
BLOCK_RECORD
5
23
100
AcDbSymbolTableRecord
100
AcDbBlockTableRecord
2
*Paper_Space0
340
0
70
0
0
BLOCK_RECORD
5
119
100
AcDbSymbolTableRecord
100
AcDbBlockTableRecord
2
_Closed
340
0
70
0
0
BLOCK_RECORD
5
123
100
AcDbSymbolTableRecord
100
AcDbBlockTableRecord
2
*D2
340
0
70
0
0
BLOCK_RECORD
5
12F
100
AcDbSymbolTableRecord
100
AcDbBlockTableRecord
2
_U0
340
0
70
0
0
BLOCK_RECORD
5
141
100
AcDbSymbolTableRecord
100
AcDbBlockTableRecord
2
*D4
340
0
70
0
0
BLOCK_RECORD
5
150
100
AcDbSymbolTableRecord
100
AcDbBlockTableRecord
2
_U1
340
0
70
0
0
BLOCK_RECORD
5
160
100
AcDbSymbolTableRecord
100
AcDbBlockTableRecord
2
*D6
340
0
70
0
0
BLOCK_RECORD
5
16E
100
AcDbSymbolTableRecord
100
AcDbBlockTableRecord
2
_U2
340
0
70
0
0
BLOCK_RECORD
5
17E
100
AcDbSymbolTableRecord
100
AcDbBlockTableRecord
2
*D8
340
0
70
0
0
BLOCK_RECORD
5
18A
100
AcDbSymbolTableRecord
100
AcDbBlockTableRecord
2
_U3
340
0
70
0
0
BLOCK_RECORD
5
19A
100
AcDbSymbolTableRecord
100
AcDbBlockTableRecord
2
*D10
340
0
70
0
0
BLOCK_RECORD
5
1A6
100
AcDbSymbolTableRecord
100
AcDbBlockTableRecord
2
_U4
340
0
70
0
0
BLOCK_RECORD
5
1B6
100
AcDbSymbolTableRecord
100
AcDbBlockTableRecord
2
*D12
340
0
70
0
0
BLOCK_RECORD
5
1C3
100
AcDbSymbolTableRecord
100
AcDbBlockTableRecord
2
_U5
340
0
70
0
0
BLOCK_RECORD
5
1D3
100
AcDbSymbolTableRecord
100
AcDbBlockTableRecord
2
*D14
340
0
70
0
0
BLOCK_RECORD
5
1DF
100
AcDbSymbolTableRecord
100
AcDbBlockTableRecord
2
_U6
340
0
70
0
0
ENDTAB
0
ENDSEC
0
SECTION
2
BLOCKS
0
BLOCK
5
20
100
AcDbEntity
8
0
100
AcDbBlockBegin
2
*Model_Space
70
0
10
0
20
0
30
0
3
*Model_Space
0
ENDBLK
5
21
100
AcDbEntity
8
0
100
AcDbBlockEnd
0
BLOCK
5
1C
100
AcDbEntity
8
0
100
AcDbBlockBegin
2
*Paper_Space
70
0
10
0
20
0
30
0
3
*Paper_Space
0
ENDBLK
5
1D
100
AcDbEntity
8
0
100
AcDbBlockEnd
0
BLOCK
5
24
100
AcDbEntity
8
0
100
AcDbBlockBegin
2
*Paper_Space0
70
0
10
0
20
0
30
0
3
*Paper_Space0
0
ENDBLK
5
25
100
AcDbEntity
8
0
100
AcDbBlockEnd
0
BLOCK
5
11A
100
AcDbEntity
8
0
100
AcDbBlockBegin
2
_Closed
70
0
10
0
20
0
30
0
3
_Closed
0
LINE
5
11C
100
AcDbEntity
8
0
62
256
6
ByLayer
370
-2
48
1
60
0
100
AcDbLine
10
-1
20
0.166667
30
0
11
0
21
0
31
0
39
0
210
0
220
0
230
1
0
LINE
5
11D
100
AcDbEntity
8
0
62
256
6
ByLayer
370
-2
48
1
60
0
100
AcDbLine
10
0
20
0
30
0
11
-1
21
-0.166667
31
0
39
0
210
0
220
0
230
1
0
LINE
5
11E
100
AcDbEntity
8
0
62
256
6
ByLayer
370
-2
48
1
60
0
100
AcDbLine
10
-1
20
0.166667
30
0
11
-1
21
-0.166667
31
0
39
0
210
0
220
0
230
1
0
LINE
5
11F
100
AcDbEntity
8
0
62
256
6
ByLayer
370
-2
48
1
60
0
100
AcDbLine
10
0
20
0
30
0
11
-1
21
0
31
0
39
0
210
0
220
0
230
1
0
ENDBLK
5
11B
100
AcDbEntity
8
0
100
AcDbBlockEnd
0
BLOCK
5
124
100
AcDbEntity
8
0
100
AcDbBlockBegin
2
*D2
70
1
10
0
20
0
30
0
3
*D2
0
LINE
5
126
100
AcDbEntity
8
0
62
256
6
ByLayer
370
-2
48
1
60
0
100
AcDbLine
10
0
20
-4.5875
30
0
11
0
21
-29.67512
31
0
39
0
210
0
220
0
230
1
0
LINE
5
127
100
AcDbEntity
8
0
62
256
6
ByLayer
370
-2
48
1
60
0
100
AcDbLine
10
30
20
-1.5875
30
0
11
30
21
-29.67512
31
0
39
0
210
0
220
0
230
1
0
LINE
5
128
100
AcDbEntity
8
0
62
256
6
ByLayer
370
-2
48
1
60
0
100
AcDbLine
10
3.175
20
-26.50012
30
0
11
26.825
21
-26.50012
31
0
39
0
210
0
220
0
230
1
0
SOLID
5
129
100
AcDbEntity
8
0
62
256
6
ByLayer
370
-1
48
1
60
0
100
AcDbTrace
10
3.175
20
-25.970953
30
0
11
3.175
21
-27.029287
31
0
12
0
22
-26.50012
32
0
13
0
23
-26.50012
33
0
39
0
210
0
220
0
230
1
0
SOLID
5
12A
100
AcDbEntity
8
0
62
256
6
ByLayer
370
-1
48
1
60
0
100
AcDbTrace
10
26.825
20
-27.029287
30
0
11
26.825
21
-25.970953
31
0
12
30
22
-26.50012
32
0
13
30
23
-26.50012
33
0
39
0
210
0
220
0
230
1
0
MTEXT
5
12B
100
AcDbEntity
8
0
62
256
6
ByLayer
370
18
48
1
60
0
100
AcDbMText
10
15
20
-19.193619
30
0
210
0
220
0
230
1
1
\A1;30
40
3.50012
41
0
44
1
50
0
71
5
72
5
7
iso_b_vert
0
POINT
5
12C
100
AcDbEntity
8
Defpoints
62
0
6
ByLayer
370
-1
48
1
60
0
100
AcDbPoint
10
0
20
-3
30
0
39
0
210
0
220
0
230
1
50
360
0
POINT
5
12D
100
AcDbEntity
8
Defpoints
62
0
6
ByLayer
370
-1
48
1
60
0
100
AcDbPoint
10
30
20
0
30
0
39
0
210
0
220
0
230
1
50
360
0
POINT
5
12E
100
AcDbEntity
8
Defpoints
62
0
6
ByLayer
370
-1
48
1
60
0
100
AcDbPoint
10
30
20
-26.50012
30
0
39
0
210
0
220
0
230
1
50
360
0
ENDBLK
5
125
100
AcDbEntity
8
0
100
AcDbBlockEnd
0
BLOCK
5
13C
100
AcDbEntity
8
0
100
AcDbBlockBegin
2
_U0
70
0
10
0
20
0
30
0
3
_U0
0
MTEXT
5
130
100
AcDbEntity
8
SK2
62
256
6
ByLayer
370
18
48
1
60
0
100
AcDbMText
10
9.770389
20
-25.467451
30
0
210
0
220
0
230
1
1
\W0.7468;30.00
40
3.50012
41
0
44
1.084337
50
0
71
7
72
5
7
iso_b_vert
0
MTEXT
5
131
100
AcDbEntity
8
SK2
62
256
6
ByLayer
370
18
48
1
60
0
100
AcDbMText
10
6.244329
20
-25.400814
30
0
210
0
220
0
230
1
1
\W0.1790;(
40
3.175
41
0
44
1.084337
50
0
71
7
72
5
7
iso_b_vert
0
MTEXT
5
132
100
AcDbEntity
8
SK2
62
256
6
ByLayer
370
18
48
1
60
0
100
AcDbMText
10
23.758393
20
-25.400814
30
0
210
0
220
0
230
1
1
\W0.1969;)
40
3.175
41
0
44
1.084337
50
0
71
7
72
5
7
iso_b_vert
0
LINE
5
133
100
AcDbEntity
8
SK2
62
256
6
ByLayer
370
13
48
1
60
0
100
AcDbLine
10
0
20
-4.5875
30
0
11
0
21
-29.67512
31
0
39
0
210
0
220
0
230
1
0
LINE
5
134
100
AcDbEntity
8
SK2
62
256
6
ByLayer
370
13
48
1
60
0
100
AcDbLine
10
30
20
-1.5875
30
0
11
30
21
-29.67512
31
0
39
0
210
0
220
0
230
1
0
LINE
5
135
100
AcDbEntity
8
SK2
62
256
6
ByLayer
370
13
48
1
60
0
100
AcDbLine
10
0
20
-26.50012
30
0
11
30
21
-26.50012
31
0
39
0
210
0
220
0
230
1
0
LINE
5
136
100
AcDbEntity
8
SK2
62
256
6
ByLayer
370
13
48
1
60
0
100
AcDbLine
10
0
20
-26.50012
30
0
11
3.174998
21
-26.082123
31
0
39
0
210
0
220
0
230
1
0
LINE
5
137
100
AcDbEntity
8
SK2
62
256
6
ByLayer
370
13
48
1
60
0
100
AcDbLine
10
0
20
-26.50012
30
0
11
3.175002
21
-26.918117
31
0
39
0
210
0
220
0
230
1
0
LINE
5
138
100
AcDbEntity
8
SK2
62
256
6
ByLayer
370
13
48
1
60
0
100
AcDbLine
10
3.174998
20
-26.082123
30
0
11
3.175002
21
-26.918117
31
0
39
0
210
0
220
0
230
1
0
LINE
5
139
100
AcDbEntity
8
SK2
62
256
6
ByLayer
370
13
48
1
60
0
100
AcDbLine
10
30
20
-26.50012
30
0
11
26.825002
21
-26.918117
31
0
39
0
210
0
220
0
230
1
0
LINE
5
13A
100
AcDbEntity
8
SK2
62
256
6
ByLayer
370
13
48
1
60
0
100
AcDbLine
10
30
20
-26.50012
30
0
11
26.824998
21
-26.082123
31
0
39
0
210
0
220
0
230
1
0
LINE
5
13B
100
AcDbEntity
8
SK2
62
256
6
ByLayer
370
13
48
1
60
0
100
AcDbLine
10
26.825002
20
-26.918117
30
0
11
26.824998
21
-26.082123
31
0
39
0
210
0
220
0
230
1
0
ENDBLK
5
13D
100
AcDbEntity
8
0
100
AcDbBlockEnd
0
BLOCK
5
142
100
AcDbEntity
8
0
100
AcDbBlockBegin
2
*D4
70
1
10
0
20
0
30
0
3
*D4
0
LINE
5
144
100
AcDbEntity
8
0
62
256
6
ByLayer
370
-2
48
1
60
0
100
AcDbLine
10
30.8596
20
-2
30
0
11
39.92506
21
-2
31
0
39
0
210
0
220
0
230
1
0
LINE
5
145
100
AcDbEntity
8
0
62
256
6
ByLayer
370
-2
48
1
60
0
100
AcDbLine
10
30.8596
20
2
30
0
11
39.92506
21
2
31
0
39
0
210
0
220
0
230
1
0
LINE
5
146
100
AcDbEntity
8
0
62
256
6
ByLayer
370
-2
48
1
60
0
100
AcDbLine
10
36.75006
20
2
30
0
11
36.75006
21
21.962967
31
0
39
0
210
0
220
0
230
1
0
LINE
5
147
100
AcDbEntity
8
0
62
256
6
ByLayer
370
-2
48
1
60
0
100
AcDbLine
10
36.75006
20
-5.175
30
0
11
36.75006
21
-8.35
31
0
39
0
210
0
220
0
230
1
0
LINE
5
148
100
AcDbEntity
8
0
62
256
6
ByLayer
370
-2
48
1
60
0
100
AcDbLine
10
36.75006
20
5.175
30
0
11
36.75006
21
8.35
31
0
39
0
210
0
220
0
230
1
0
SOLID
5
149
100
AcDbEntity
8
0
62
256
6
ByLayer
370
-1
48
1
60
0
100
AcDbTrace
10
37.279227
20
-5.175
30
0
11
36.220893
21
-5.175
31
0
12
36.75006
22
-2
32
0
13
36.75006
23
-2
33
0
39
0
210
0
220
0
230
1
0
SOLID
5
14A
100
AcDbEntity
8
0
62
256
6
ByLayer
370
-1
48
1
60
0
100
AcDbTrace
10
36.220893
20
5.175
30
0
11
37.279227
21
5.175
31
0
12
36.75006
22
2
32
0
13
36.75006
23
2
33
0
39
0
210
0
220
0
230
1
0
MTEXT
5
14B
100
AcDbEntity
8
0
62
256
6
ByLayer
370
18
48
1
60
0
100
AcDbMText
10
29.443559
20
15.156483
30
0
210
0
220
0
230
1
1
\A1;4
40
3.50012
41
0
44
1
50
90
71
5
72
5
7
iso_b_vert
0
POINT
5
14C
100
AcDbEntity
8
Defpoints
62
0
6
ByLayer
370
-1
48
1
60
0
100
AcDbPoint
10
29.2721
20
-2
30
0
39
0
210
0
220
0
230
1
50
360
0
POINT
5
14D
100
AcDbEntity
8
Defpoints
62
0
6
ByLayer
370
-1
48
1
60
0
100
AcDbPoint
10
29.2721
20
2
30
0
39
0
210
0
220
0
230
1
50
360
0
POINT
5
14E
100
AcDbEntity
8
Defpoints
62
0
6
ByLayer
370
-1
48
1
60
0
100
AcDbPoint
10
36.75006
20
2
30
0
39
0
210
0
220
0
230
1
50
360
0
ENDBLK
5
143
100
AcDbEntity
8
0
100
AcDbBlockEnd
0
BLOCK
5
15B
100
AcDbEntity
8
0
100
AcDbBlockBegin
2
_U1
70
0
10
0
20
0
30
0
3
_U1
0
MTEXT
5
151
100
AcDbEntity
8
2
62
256
6
ByLayer
370
18
48
1
60
0
100
AcDbMText
10
36.060403
20
6.157505
30
0
210
0
220
0
230
1
1
\W0.7640;4.00
40
3.50012
41
0
44
1.084337
50
90
71
7
72
5
7
iso_b_vert
0
LINE
5
152
100
AcDbEntity
8
2
62
256
6
ByLayer
370
13
48
1
60
0
100
AcDbLine
10
30.8596
20
-2
30
0
11
39.92506
21
-2
31
0
39
0
210
0
220
0
230
1
0
LINE
5
153
100
AcDbEntity
8
2
62
256
6
ByLayer
370
13
48
1
60
0
100
AcDbLine
10
30.8596
20
2
30
0
11
39.92506
21
2
31
0
39
0
210
0
220
0
230
1
0
LINE
5
154
100
AcDbEntity
8
2
62
256
6
ByLayer
370
13
48
1
60
0
100
AcDbLine
10
36.75006
20
14.583226
30
0
11
36.75006
21
-10.7503
31
0
39
0
210
0
220
0
230
1
0
LINE
5
155
100
AcDbEntity
8
2
62
256
6
ByLayer
370
13
48
1
60
0
100
AcDbLine
10
36.75006
20
-2
30
0
11
37.168057
21
-5.174998
31
0
39
0
210
0
220
0
230
1
0
LINE
5
156
100
AcDbEntity
8
2
62
256
6
ByLayer
370
13
48
1
60
0
100
AcDbLine
10
36.75006
20
-2
30
0
11
36.332063
21
-5.175002
31
0
39
0
210
0
220
0
230
1
0
LINE
5
157
100
AcDbEntity
8
2
62
256
6
ByLayer
370
13
48
1
60
0
100
AcDbLine
10
37.168057
20
-5.174998
30
0
11
36.332063
21
-5.175002
31
0
39
0
210
0
220
0
230
1
0
LINE
5
158
100
AcDbEntity
8
2
62
256
6
ByLayer
370
13
48
1
60
0
100
AcDbLine
10
36.75006
20
2
30
0
11
36.332063
21
5.174998
31
0
39
0
210
0
220
0
230
1
0
LINE
5
159
100
AcDbEntity
8
2
62
256
6
ByLayer
370
13
48
1
60
0
100
AcDbLine
10
36.75006
20
2
30
0
11
37.168057
21
5.175002
31
0
39
0
210
0
220
0
230
1
0
LINE
5
15A
100
AcDbEntity
8
2
62
256
6
ByLayer
370
13
48
1
60
0
100
AcDbLine
10
36.332063
20
5.174998
30
0
11
37.168057
21
5.175002
31
0
39
0
210
0
220
0
230
1
0
ENDBLK
5
15C
100
AcDbEntity
8
0
100
AcDbBlockEnd
0
BLOCK
5
161
100
AcDbEntity
8
0
100
AcDbBlockBegin
2
*D6
70
1
10
0
20
0
30
0
3
*D6
0
LINE
5
163
100
AcDbEntity
8
0
62
256
6
ByLayer
370
-2
48
1
60
0
100
AcDbLine
10
-37.5875
20
3
30
0
11
-42.42494
21
3
31
0
39
0
210
0
220
0
230
1
0
LINE
5
164
100
AcDbEntity
8
0
62
256
6
ByLayer
370
-2
48
1
60
0
100
AcDbLine
10
-37.5875
20
-3
30
0
11
-42.42494
21
-3
31
0
39
0
210
0
220
0
230
1
0
LINE
5
165
100
AcDbEntity
8
0
62
256
6
ByLayer
370
-2
48
1
60
0
100
AcDbLine
10
-39.24994
20
3
30
0
11
-39.24994
21
23.747151
31
0
39
0
210
0
220
0
230
1
0
LINE
5
166
100
AcDbEntity
8
0
62
256
6
ByLayer
370
-2
48
1
60
0
100
AcDbLine
10
-39.24994
20
6.175
30
0
11
-39.24994
21
9.35
31
0
39
0
210
0
220
0
230
1
0
LINE
5
167
100
AcDbEntity
8
0
62
256
6
ByLayer
370
-2
48
1
60
0
100
AcDbLine
10
-39.24994
20
-6.175
30
0
11
-39.24994
21
-9.35
31
0
39
0
210
0
220
0
230
1
0
SOLID
5
168
100
AcDbEntity
8
0
62
256
6
ByLayer
370
-1
48
1
60
0
100
AcDbTrace
10
-39.779107
20
6.175
30
0
11
-38.720773
21
6.175
31
0
12
-39.24994
22
3
32
0
13
-39.24994
23
3
33
0
39
0
210
0
220
0
230
1
0
SOLID
5
169
100
AcDbEntity
8
0
62
256
6
ByLayer
370
-1
48
1
60
0
100
AcDbTrace
10
-38.720773
20
-6.175
30
0
11
-39.779107
21
-6.175
31
0
12
-39.24994
22
-3
32
0
13
-39.24994
23
-3
33
0
39
0
210
0
220
0
230
1
0
MTEXT
5
16A
100
AcDbEntity
8
0
62
256
6
ByLayer
370
18
48
1
60
0
100
AcDbMText
10
-46.556441
20
17.10734
30
0
210
0
220
0
230
1
1
\A1;6
40
3.50012
41
0
44
1
50
90
71
5
72
5
7
iso_b_vert
0
POINT
5
16B
100
AcDbEntity
8
Defpoints
62
0
6
ByLayer
370
-1
48
1
60
0
100
AcDbPoint
10
-36
20
3
30
0
39
0
210
0
220
0
230
1
50
360
0
POINT
5
16C
100
AcDbEntity
8
Defpoints
62
0
6
ByLayer
370
-1
48
1
60
0
100
AcDbPoint
10
-36
20
-3
30
0
39
0
210
0
220
0
230
1
50
360
0
POINT
5
16D
100
AcDbEntity
8
Defpoints
62
0
6
ByLayer
370
-1
48
1
60
0
100
AcDbPoint
10
-39.24994
20
-3
30
0
39
0
210
0
220
0
230
1
50
360
0
ENDBLK
5
162
100
AcDbEntity
8
0
100
AcDbBlockEnd
0
BLOCK
5
179
100
AcDbEntity
8
0
100
AcDbBlockBegin
2
_U2
70
0
10
0
20
0
30
0
3
_U2
0
MTEXT
5
16F
100
AcDbEntity
8
SK2
62
256
6
ByLayer
370
18
48
1
60
0
100
AcDbMText
10
-39.939597
20
13.157505
30
0
210
0
220
0
230
1
1
\W0.7346;6.00
40
3.50012
41
0
44
1.084337
50
90
71
7
72
5
7
iso_b_vert
0
LINE
5
170
100
AcDbEntity
8
SK2
62
256
6
ByLayer
370
13
48
1
60
0
100
AcDbLine
10
-37.5875
20
3
30
0
11
-42.42494
21
3
31
0
39
0
210
0
220
0
230
1
0
LINE
5
171
100
AcDbEntity
8
SK2
62
256
6
ByLayer
370
13
48
1
60
0
100
AcDbLine
10
-37.5875
20
-3
30
0
11
-42.42494
21
-3
31
0
39
0
210
0
220
0
230
1
0
LINE
5
172
100
AcDbEntity
8
SK2
62
256
6
ByLayer
370
13
48
1
60
0
100
AcDbLine
10
-39.24994
20
-11.7503
30
0
11
-39.24994
21
21.21468
31
0
39
0
210
0
220
0
230
1
0
LINE
5
173
100
AcDbEntity
8
SK2
62
256
6
ByLayer
370
13
48
1
60
0
100
AcDbLine
10
-39.24994
20
3
30
0
11
-39.667937
21
6.174998
31
0
39
0
210
0
220
0
230
1
0
LINE
5
174
100
AcDbEntity
8
SK2
62
256
6
ByLayer
370
13
48
1
60
0
100
AcDbLine
10
-39.24994
20
3
30
0
11
-38.831943
21
6.175002
31
0
39
0
210
0
220
0
230
1
0
LINE
5
175
100
AcDbEntity
8
SK2
62
256
6
ByLayer
370
13
48
1
60
0
100
AcDbLine
10
-39.667937
20
6.174998
30
0
11
-38.831943
21
6.175002
31
0
39
0
210
0
220
0
230
1
0
LINE
5
176
100
AcDbEntity
8
SK2
62
256
6
ByLayer
370
13
48
1
60
0
100
AcDbLine
10
-39.24994
20
-3
30
0
11
-38.831943
21
-6.174998
31
0
39
0
210
0
220
0
230
1
0
LINE
5
177
100
AcDbEntity
8
SK2
62
256
6
ByLayer
370
13
48
1
60
0
100
AcDbLine
10
-39.24994
20
-3
30
0
11
-39.667937
21
-6.175002
31
0
39
0
210
0
220
0
230
1
0
LINE
5
178
100
AcDbEntity
8
SK2
62
256
6
ByLayer
370
13
48
1
60
0
100
AcDbLine
10
-38.831943
20
-6.174998
30
0
11
-39.667937
21
-6.175002
31
0
39
0
210
0
220
0
230
1
0
ENDBLK
5
17A
100
AcDbEntity
8
0
100
AcDbBlockEnd
0
BLOCK
5
17F
100
AcDbEntity
8
0
100
AcDbBlockBegin
2
*D8
70
1
10
0
20
0
30
0
3
*D8
0
LINE
5
181
100
AcDbEntity
8
0
62
256
6
ByLayer
370
-2
48
1
60
0
100
AcDbLine
10
-36
20
-4.5875
30
0
11
-36
21
-29.67512
31
0
39
0
210
0
220
0
230
1
0
LINE
5
182
100
AcDbEntity
8
0
62
256
6
ByLayer
370
-2
48
1
60
0
100
AcDbLine
10
0
20
-4.5875
30
0
11
0
21
-29.67512
31
0
39
0
210
0
220
0
230
1
0
LINE
5
183
100
AcDbEntity
8
0
62
256
6
ByLayer
370
-2
48
1
60
0
100
AcDbLine
10
-32.825
20
-26.50012
30
0
11
-3.175
21
-26.50012
31
0
39
0
210
0
220
0
230
1
0
SOLID
5
184
100
AcDbEntity
8
0
62
256
6
ByLayer
370
-1
48
1
60
0
100
AcDbTrace
10
-32.825
20
-25.970953
30
0
11
-32.825
21
-27.029287
31
0
12
-36
22
-26.50012
32
0
13
-36
23
-26.50012
33
0
39
0
210
0
220
0
230
1
0
SOLID
5
185
100
AcDbEntity
8
0
62
256
6
ByLayer
370
-1
48
1
60
0
100
AcDbTrace
10
-3.175
20
-27.029287
30
0
11
-3.175
21
-25.970953
31
0
12
0
22
-26.50012
32
0
13
0
23
-26.50012
33
0
39
0
210
0
220
0
230
1
0
MTEXT
5
186
100
AcDbEntity
8
0
62
256
6
ByLayer
370
18
48
1
60
0
100
AcDbMText
10
-18
20
-19.193619
30
0
210
0
220
0
230
1
1
\A1;36
40
3.50012
41
0
44
1
50
0
71
5
72
5
7
iso_b_vert
0
POINT
5
187
100
AcDbEntity
8
Defpoints
62
0
6
ByLayer
370
-1
48
1
60
0
100
AcDbPoint
10
-36
20
-3
30
0
39
0
210
0
220
0
230
1
50
360
0
POINT
5
188
100
AcDbEntity
8
Defpoints
62
0
6
ByLayer
370
-1
48
1
60
0
100
AcDbPoint
10
0
20
-3
30
0
39
0
210
0
220
0
230
1
50
360
0
POINT
5
189
100
AcDbEntity
8
Defpoints
62
0
6
ByLayer
370
-1
48
1
60
0
100
AcDbPoint
10
0
20
-26.50012
30
0
39
0
210
0
220
0
230
1
50
360
0
ENDBLK
5
180
100
AcDbEntity
8
0
100
AcDbBlockEnd
0
BLOCK
5
195
100
AcDbEntity
8
0
100
AcDbBlockBegin
2
_U3
70
0
10
0
20
0
30
0
3
_U3
0
MTEXT
5
18B
100
AcDbEntity
8
SK2
62
256
6
ByLayer
370
18
48
1
60
0
100
AcDbMText
10
-23.229611
20
-25.467451
30
0
210
0
220
0
230
1
1
\W0.7468;36.00
40
3.50012
41
0
44
1.084337
50
0
71
7
72
5
7
iso_b_vert
0
LINE
5
18C
100
AcDbEntity
8
SK2
62
256
6
ByLayer
370
13
48
1
60
0
100
AcDbLine
10
-36
20
-4.5875
30
0
11
-36
21
-29.67512
31
0
39
0
210
0
220
0
230
1
0
LINE
5
18D
100
AcDbEntity
8
SK2
62
256
6
ByLayer
370
13
48
1
60
0
100
AcDbLine
10
0
20
-4.5875
30
0
11
0
21
-29.67512
31
0
39
0
210
0
220
0
230
1
0
LINE
5
18E
100
AcDbEntity
8
SK2
62
256
6
ByLayer
370
13
48
1
60
0
100
AcDbLine
10
-36
20
-26.50012
30
0
11
0
21
-26.50012
31
0
39
0
210
0
220
0
230
1
0
LINE
5
18F
100
AcDbEntity
8
SK2
62
256
6
ByLayer
370
13
48
1
60
0
100
AcDbLine
10
-36
20
-26.50012
30
0
11
-32.825002
21
-26.082123
31
0
39
0
210
0
220
0
230
1
0
LINE
5
190
100
AcDbEntity
8
SK2
62
256
6
ByLayer
370
13
48
1
60
0
100
AcDbLine
10
-36
20
-26.50012
30
0
11
-32.824998
21
-26.918117
31
0
39
0
210
0
220
0
230
1
0
LINE
5
191
100
AcDbEntity
8
SK2
62
256
6
ByLayer
370
13
48
1
60
0
100
AcDbLine
10
-32.825002
20
-26.082123
30
0
11
-32.824998
21
-26.918117
31
0
39
0
210
0
220
0
230
1
0
LINE
5
192
100
AcDbEntity
8
SK2
62
256
6
ByLayer
370
13
48
1
60
0
100
AcDbLine
10
0
20
-26.50012
30
0
11
-3.174998
21
-26.918117
31
0
39
0
210
0
220
0
230
1
0
LINE
5
193
100
AcDbEntity
8
SK2
62
256
6
ByLayer
370
13
48
1
60
0
100
AcDbLine
10
0
20
-26.50012
30
0
11
-3.175002
21
-26.082123
31
0
39
0
210
0
220
0
230
1
0
LINE
5
194
100
AcDbEntity
8
SK2
62
256
6
ByLayer
370
13
48
1
60
0
100
AcDbLine
10
-3.174998
20
-26.918117
30
0
11
-3.175002
21
-26.082123
31
0
39
0
210
0
220
0
230
1
0
ENDBLK
5
196
100
AcDbEntity
8
0
100
AcDbBlockEnd
0
BLOCK
5
19B
100
AcDbEntity
8
0
100
AcDbBlockBegin
2
*D10
70
1
10
0
20
0
30
0
3
*D10
0
LINE
5
19D
100
AcDbEntity
8
0
62
256
6
ByLayer
370
-2
48
1
60
0
100
AcDbLine
10
6
20
0.9125
30
0
11
6
21
-20.92482
31
0
39
0
210
0
220
0
230
1
0
LINE
5
19E
100
AcDbEntity
8
0
62
256
6
ByLayer
370
-2
48
1
60
0
100
AcDbLine
10
30
20
-1.5875
30
0
11
30
21
-20.92482
31
0
39
0
210
0
220
0
230
1
0
LINE
5
19F
100
AcDbEntity
8
0
62
256
6
ByLayer
370
-2
48
1
60
0
100
AcDbLine
10
9.175
20
-17.74982
30
0
11
26.825
21
-17.74982
31
0
39
0
210
0
220
0
230
1
0
SOLID
5
1A0
100
AcDbEntity
8
0
62
256
6
ByLayer
370
-1
48
1
60
0
100
AcDbTrace
10
9.175
20
-17.220653
30
0
11
9.175
21
-18.278987
31
0
12
6
22
-17.74982
32
0
13
6
23
-17.74982
33
0
39
0
210
0
220
0
230
1
0
SOLID
5
1A1
100
AcDbEntity
8
0
62
256
6
ByLayer
370
-1
48
1
60
0
100
AcDbTrace
10
26.825
20
-18.278987
30
0
11
26.825
21
-17.220653
31
0
12
30
22
-17.74982
32
0
13
30
23
-17.74982
33
0
39
0
210
0
220
0
230
1
0
MTEXT
5
1A2
100
AcDbEntity
8
0
62
256
6
ByLayer
370
18
48
1
60
0
100
AcDbMText
10
18
20
-10.443319
30
0
210
0
220
0
230
1
1
\A1;24
40
3.50012
41
0
44
1
50
0
71
5
72
5
7
iso_b_vert
0
POINT
5
1A3
100
AcDbEntity
8
Defpoints
62
0
6
ByLayer
370
-1
48
1
60
0
100
AcDbPoint
10
6
20
2.5
30
0
39
0
210
0
220
0
230
1
50
360
0
POINT
5
1A4
100
AcDbEntity
8
Defpoints
62
0
6
ByLayer
370
-1
48
1
60
0
100
AcDbPoint
10
30
20
0
30
0
39
0
210
0
220
0
230
1
50
360
0
POINT
5
1A5
100
AcDbEntity
8
Defpoints
62
0
6
ByLayer
370
-1
48
1
60
0
100
AcDbPoint
10
30
20
-17.74982
30
0
39
0
210
0
220
0
230
1
50
360
0
ENDBLK
5
19C
100
AcDbEntity
8
0
100
AcDbBlockEnd
0
BLOCK
5
1B1
100
AcDbEntity
8
0
100
AcDbBlockBegin
2
_U4
70
0
10
0
20
0
30
0
3
_U4
0
MTEXT
5
1A7
100
AcDbEntity
8
SK2
62
256
6
ByLayer
370
18
48
1
60
0
100
AcDbMText
10
12.586116
20
-16.717151
30
0
210
0
220
0
230
1
1
\W0.7694;24.00
40
3.50012
41
0
44
1.084337
50
0
71
7
72
5
7
iso_b_vert
0
LINE
5
1A8
100
AcDbEntity
8
SK2
62
256
6
ByLayer
370
13
48
1
60
0
100
AcDbLine
10
6
20
0.9125
30
0
11
6
21
-20.92482
31
0
39
0
210
0
220
0
230
1
0
LINE
5
1A9
100
AcDbEntity
8
SK2
62
256
6
ByLayer
370
13
48
1
60
0
100
AcDbLine
10
30
20
-1.5875
30
0
11
30
21
-20.92482
31
0
39
0
210
0
220
0
230
1
0
LINE
5
1AA
100
AcDbEntity
8
SK2
62
256
6
ByLayer
370
13
48
1
60
0
100
AcDbLine
10
6
20
-17.74982
30
0
11
30
21
-17.74982
31
0
39
0
210
0
220
0
230
1
0
LINE
5
1AB
100
AcDbEntity
8
SK2
62
256
6
ByLayer
370
13
48
1
60
0
100
AcDbLine
10
6
20
-17.74982
30
0
11
9.174998
21
-17.331823
31
0
39
0
210
0
220
0
230
1
0
LINE
5
1AC
100
AcDbEntity
8
SK2
62
256
6
ByLayer
370
13
48
1
60
0
100
AcDbLine
10
6
20
-17.74982
30
0
11
9.175002
21
-18.167817
31
0
39
0
210
0
220
0
230
1
0
LINE
5
1AD
100
AcDbEntity
8
SK2
62
256
6
ByLayer
370
13
48
1
60
0
100
AcDbLine
10
9.174998
20
-17.331823
30
0
11
9.175002
21
-18.167817
31
0
39
0
210
0
220
0
230
1
0
LINE
5
1AE
100
AcDbEntity
8
SK2
62
256
6
ByLayer
370
13
48
1
60
0
100
AcDbLine
10
30
20
-17.74982
30
0
11
26.825002
21
-18.167817
31
0
39
0
210
0
220
0
230
1
0
LINE
5
1AF
100
AcDbEntity
8
SK2
62
256
6
ByLayer
370
13
48
1
60
0
100
AcDbLine
10
30
20
-17.74982
30
0
11
26.824998
21
-17.331823
31
0
39
0
210
0
220
0
230
1
0
LINE
5
1B0
100
AcDbEntity
8
SK2
62
256
6
ByLayer
370
13
48
1
60
0
100
AcDbLine
10
26.825002
20
-18.167817
30
0
11
26.824998
21
-17.331823
31
0
39
0
210
0
220
0
230
1
0
ENDBLK
5
1B2
100
AcDbEntity
8
0
100
AcDbBlockEnd
0
BLOCK
5
1B7
100
AcDbEntity
8
0
100
AcDbBlockBegin
2
*D12
70
1
10
0
20
0
30
0
3
*D12
0
LINE
5
1B9
100
AcDbEntity
8
0
62
256
6
ByLayer
370
-2
48
1
60
0
100
AcDbLine
10
17.3
20
-3.5875
30
0
11
17.3
21
-10.32
31
0
39
0
210
0
220
0
230
1
0
LINE
5
1BA
100
AcDbEntity
8
0
62
256
6
ByLayer
370
-2
48
1
60
0
100
AcDbLine
10
30
20
-1.5875
30
0
11
30
21
-10.32
31
0
39
0
210
0
220
0
230
1
0
LINE
5
1BB
100
AcDbEntity
8
0
62
256
6
ByLayer
370
-2
48
1
60
0
100
AcDbLine
10
14.125
20
-9.82
30
0
11
10.95
21
-9.82
31
0
39
0
210
0
220
0
230
1
0
LINE
5
1BC
100
AcDbEntity
8
0
62
256
6
ByLayer
370
-2
48
1
60
0
100
AcDbLine
10
33.175
20
-9.82
30
0
11
36.35
21
-9.82
31
0
39
0
210
0
220
0
230
1
0
SOLID
5
1BD
100
AcDbEntity
8
0
62
256
6
ByLayer
370
-1
48
1
60
0
100
AcDbTrace
10
14.125
20
-10.349167
30
0
11
14.125
21
-9.290833
31
0
12
17.3
22
-9.82
32
0
13
17.3
23
-9.82
33
0
39
0
210
0
220
0
230
1
0
SOLID
5
1BE
100
AcDbEntity
8
0
62
256
6
ByLayer
370
-1
48
1
60
0
100
AcDbTrace
10
33.175
20
-9.290833
30
0
11
33.175
21
-10.349167
31
0
12
30
22
-9.82
32
0
13
30
23
-9.82
33
0
39
0
210
0
220
0
230
1
0
MTEXT
5
1BF
100
AcDbEntity
8
0
62
256
6
ByLayer
370
18
48
1
60
0
100
AcDbMText
10
23.65
20
-3.975
30
0
210
0
220
0
230
1
1
\A1;12.7
40
2.8
41
0
44
1
50
0
71
5
72
5
7
iso_b_vert
0
POINT
5
1C0
100
AcDbEntity
8
Defpoints
62
0
6
ByLayer
370
-1
48
1
60
0
100
AcDbPoint
10
17.3
20
-2
30
0
39
0
210
0
220
0
230
1
50
360
0
POINT
5
1C1
100
AcDbEntity
8
Defpoints
62
0
6
ByLayer
370
-1
48
1
60
0
100
AcDbPoint
10
30
20
0
30
0
39
0
210
0
220
0
230
1
50
360
0
POINT
5
1C2
100
AcDbEntity
8
Defpoints
62
0
6
ByLayer
370
-1
48
1
60
0
100
AcDbPoint
10
30
20
-9.82
30
0
39
0
210
0
220
0
230
1
50
360
0
ENDBLK
5
1B8
100
AcDbEntity
8
0
100
AcDbBlockEnd
0
BLOCK
5
1CE
100
AcDbEntity
8
0
100
AcDbBlockBegin
2
_U5
70
0
10
0
20
0
30
0
3
_U5
0
MTEXT
5
1C4
100
AcDbEntity
8
SK2
62
256
6
ByLayer
370
18
48
1
60
0
100
AcDbMText
10
19.816401
20
-9.973893
30
0
210
0
220
0
230
1
1
\W0.6864;12.70
40
2.8
41
0
44
1.084337
50
0
71
7
72
5
7
iso_b_vert
0
LINE
5
1C5
100
AcDbEntity
8
SK2
62
256
6
ByLayer
370
13
48
1
60
0
100
AcDbLine
10
17.3
20
-3.5875
30
0
11
17.3
21
-10.32
31
0
39
0
210
0
220
0
230
1
0
LINE
5
1C6
100
AcDbEntity
8
SK2
62
256
6
ByLayer
370
13
48
1
60
0
100
AcDbLine
10
30
20
-1.5875
30
0
11
30
21
-10.32
31
0
39
0
210
0
220
0
230
1
0
LINE
5
1C7
100
AcDbEntity
8
SK2
62
256
6
ByLayer
370
13
48
1
60
0
100
AcDbLine
10
10.3
20
-9.82
30
0
11
37
21
-9.82
31
0
39
0
210
0
220
0
230
1
0
LINE
5
1C8
100
AcDbEntity
8
SK2
62
256
6
ByLayer
370
13
48
1
60
0
100
AcDbLine
10
17.3
20
-9.82
30
0
11
14.125002
21
-10.237997
31
0
39
0
210
0
220
0
230
1
0
LINE
5
1C9
100
AcDbEntity
8
SK2
62
256
6
ByLayer
370
13
48
1
60
0
100
AcDbLine
10
17.3
20
-9.82
30
0
11
14.124998
21
-9.402003
31
0
39
0
210
0
220
0
230
1
0
LINE
5
1CA
100
AcDbEntity
8
SK2
62
256
6
ByLayer
370
13
48
1
60
0
100
AcDbLine
10
14.125002
20
-10.237997
30
0
11
14.124998
21
-9.402003
31
0
39
0
210
0
220
0
230
1
0
LINE
5
1CB
100
AcDbEntity
8
SK2
62
256
6
ByLayer
370
13
48
1
60
0
100
AcDbLine
10
30
20
-9.82
30
0
11
33.174998
21
-9.402003
31
0
39
0
210
0
220
0
230
1
0
LINE
5
1CC
100
AcDbEntity
8
SK2
62
256
6
ByLayer
370
13
48
1
60
0
100
AcDbLine
10
30
20
-9.82
30
0
11
33.175002
21
-10.237997
31
0
39
0
210
0
220
0
230
1
0
LINE
5
1CD
100
AcDbEntity
8
SK2
62
256
6
ByLayer
370
13
48
1
60
0
100
AcDbLine
10
33.174998
20
-9.402003
30
0
11
33.175002
21
-10.237997
31
0
39
0
210
0
220
0
230
1
0
ENDBLK
5
1CF
100
AcDbEntity
8
0
100
AcDbBlockEnd
0
BLOCK
5
1D4
100
AcDbEntity
8
0
100
AcDbBlockBegin
2
*D14
70
1
10
0
20
0
30
0
3
*D14
0
LINE
5
1D6
100
AcDbEntity
8
0
62
256
6
ByLayer
370
-2
48
1
60
0
100
AcDbLine
10
-36
20
-1.5875
30
0
11
-36
21
-39.67512
31
0
39
0
210
0
220
0
230
1
0
LINE
5
1D7
100
AcDbEntity
8
0
62
256
6
ByLayer
370
-2
48
1
60
0
100
AcDbLine
10
30
20
-1.5875
30
0
11
30
21
-39.67512
31
0
39
0
210
0
220
0
230
1
0
LINE
5
1D8
100
AcDbEntity
8
0
62
256
6
ByLayer
370
-2
48
1
60
0
100
AcDbLine
10
-32.825
20
-36.50012
30
0
11
26.825
21
-36.50012
31
0
39
0
210
0
220
0
230
1
0
SOLID
5
1D9
100
AcDbEntity
8
0
62
256
6
ByLayer
370
-1
48
1
60
0
100
AcDbTrace
10
-32.825
20
-35.970953
30
0
11
-32.825
21
-37.029287
31
0
12
-36
22
-36.50012
32
0
13
-36
23
-36.50012
33
0
39
0
210
0
220
0
230
1
0
SOLID
5
1DA
100
AcDbEntity
8
0
62
256
6
ByLayer
370
-1
48
1
60
0
100
AcDbTrace
10
26.825
20
-37.029287
30
0
11
26.825
21
-35.970953
31
0
12
30
22
-36.50012
32
0
13
30
23
-36.50012
33
0
39
0
210
0
220
0
230
1
0
MTEXT
5
1DB
100
AcDbEntity
8
0
62
256
6
ByLayer
370
18
48
1
60
0
100
AcDbMText
10
-3
20
-29.19362
30
0
210
0
220
0
230
1
1
\A1;66
40
3.50012
41
0
44
1
50
0
71
5
72
5
7
iso_b_vert
0
POINT
5
1DC
100
AcDbEntity
8
Defpoints
62
0
6
ByLayer
370
-1
48
1
60
0
100
AcDbPoint
10
-36
20
0
30
0
39
0
210
0
220
0
230
1
50
360
0
POINT
5
1DD
100
AcDbEntity
8
Defpoints
62
0
6
ByLayer
370
-1
48
1
60
0
100
AcDbPoint
10
30
20
0
30
0
39
0
210
0
220
0
230
1
50
360
0
POINT
5
1DE
100
AcDbEntity
8
Defpoints
62
0
6
ByLayer
370
-1
48
1
60
0
100
AcDbPoint
10
30
20
-36.50012
30
0
39
0
210
0
220
0
230
1
50
360
0
ENDBLK
5
1D5
100
AcDbEntity
8
0
100
AcDbBlockEnd
0
BLOCK
5
1EA
100
AcDbEntity
8
0
100
AcDbBlockBegin
2
_U6
70
0
10
0
20
0
30
0
3
_U6
0
MTEXT
5
1E0
100
AcDbEntity
8
SK2
62
256
6
ByLayer
370
18
48
1
60
0
100
AcDbMText
10
-8.229611
20
-35.467451
30
0
210
0
220
0
230
1
1
\W0.7468;66.00
40
3.50012
41
0
44
1.084337
50
0
71
7
72
5
7
iso_b_vert
0
LINE
5
1E1
100
AcDbEntity
8
SK2
62
256
6
ByLayer
370
13
48
1
60
0
100
AcDbLine
10
-36
20
-1.5875
30
0
11
-36
21
-39.67512
31
0
39
0
210
0
220
0
230
1
0
LINE
5
1E2
100
AcDbEntity
8
SK2
62
256
6
ByLayer
370
13
48
1
60
0
100
AcDbLine
10
30
20
-1.5875
30
0
11
30
21
-39.67512
31
0
39
0
210
0
220
0
230
1
0
LINE
5
1E3
100
AcDbEntity
8
SK2
62
256
6
ByLayer
370
13
48
1
60
0
100
AcDbLine
10
-36
20
-36.50012
30
0
11
30
21
-36.50012
31
0
39
0
210
0
220
0
230
1
0
LINE
5
1E4
100
AcDbEntity
8
SK2
62
256
6
ByLayer
370
13
48
1
60
0
100
AcDbLine
10
-36
20
-36.50012
30
0
11
-32.825002
21
-36.082123
31
0
39
0
210
0
220
0
230
1
0
LINE
5
1E5
100
AcDbEntity
8
SK2
62
256
6
ByLayer
370
13
48
1
60
0
100
AcDbLine
10
-36
20
-36.50012
30
0
11
-32.824998
21
-36.918117
31
0
39
0
210
0
220
0
230
1
0
LINE
5
1E6
100
AcDbEntity
8
SK2
62
256
6
ByLayer
370
13
48
1
60
0
100
AcDbLine
10
-32.825002
20
-36.082123
30
0
11
-32.824998
21
-36.918117
31
0
39
0
210
0
220
0
230
1
0
LINE
5
1E7
100
AcDbEntity
8
SK2
62
256
6
ByLayer
370
13
48
1
60
0
100
AcDbLine
10
30
20
-36.50012
30
0
11
26.825002
21
-36.918117
31
0
39
0
210
0
220
0
230
1
0
LINE
5
1E8
100
AcDbEntity
8
SK2
62
256
6
ByLayer
370
13
48
1
60
0
100
AcDbLine
10
30
20
-36.50012
30
0
11
26.824998
21
-36.082123
31
0
39
0
210
0
220
0
230
1
0
LINE
5
1E9
100
AcDbEntity
8
SK2
62
256
6
ByLayer
370
13
48
1
60
0
100
AcDbLine
10
26.825002
20
-36.918117
30
0
11
26.824998
21
-36.082123
31
0
39
0
210
0
220
0
230
1
0
ENDBLK
5
1EB
100
AcDbEntity
8
0
100
AcDbBlockEnd
0
ENDSEC
0
SECTION
2
ENTITIES
0
ARC
5
B4
100
AcDbEntity
8
1
62
256
6
ByLayer
370
18
48
1
60
0
100
AcDbCircle
39
0
10
1.490146
20
2.782635
30
0
40
0.800000000000004
210
0
220
0
230
1
100
AcDbArc
50
201.355095
51
270.03581
0
ARC
5
B5
100
AcDbEntity
8
1
62
256
6
ByLayer
370
18
48
1
60
0
100
AcDbCircle
39
0
10
1.490146
20
-2.782635
30
0
40
0.800000000000004
210
0
220
0
230
1
100
AcDbArc
50
89.96419
51
158.644905
0
ARC
5
B6
100
AcDbEntity
8
1
62
256
6
ByLayer
370
18
48
1
60
0
100
AcDbCircle
39
0
10
0
20
2.2
30
0
40
0.800000000000001
210
0
220
0
230
1
100
AcDbArc
50
21.355095
51
90
0
ARC
5
B7
100
AcDbEntity
8
1
62
256
6
ByLayer
370
18
48
1
60
0
100
AcDbCircle
39
0
10
0
20
-2.2
30
0
40
0.800000000000001
210
0
220
0
230
1
100
AcDbArc
50
270
51
338.644905
0
ARC
5
B8
100
AcDbEntity
8
SK2
62
256
6
ByLayer
370
13
48
1
60
0
100
AcDbCircle
39
0
10
30
20
0
30
0
40
20
210
0
220
0
230
1
100
AcDbArc
50
9.606349
51
70.001024
0
ARC
5
B9
100
AcDbEntity
8
SK2
62
256
6
ByLayer
370
13
48
1
60
0
100
AcDbCircle
39
0
10
30
20
0
30
0
40
20
210
0
220
0
230
1
100
AcDbArc
50
289.998976
51
350.393651
0
ELLIPSE
5
BA
100
AcDbEntity
8
1
62
256
6
ByLayer
370
18
48
1
60
0
100
AcDbEllipse
10
7.6022
20
-1.888072
30
0
11
0.000482577764215291
21
-0.00998834914795659
31
0
210
0
220
0
230
1
40
0.465249
41
3.03436046176602
42
-1.68154147530562
0
ELLIPSE
5
BB
100
AcDbEntity
8
1
62
256
6
ByLayer
370
18
48
1
60
0
100
AcDbEllipse
10
7.602042
20
-1.986589
30
0
11
0.1
21
0
31
0
210
0
220
0
230
1
40
0.999994
41
1.5797544831036
42
3.14135897345601
0
POINT
5
70
100
AcDbEntity
8
80
62
256
6
ByLayer
370
18
48
1
60
0
100
AcDbPoint
10
0
20
0
30
0
39
0
210
0
220
0
230
1
50
360
0
POINT
5
72
100
AcDbEntity
8
81
62
256
6
ByLayer
370
18
48
1
60
0
100
AcDbPoint
10
30
20
0
30
0
39
0
210
0
220
0
230
1
50
360
0
POINT
5
74
100
AcDbEntity
8
1
62
256
6
ByLayer
370
18
48
1
60
0
100
AcDbPoint
10
-36
20
0
30
0
39
0
210
0
220
0
230
1
50
360
0
POINT
5
76
100
AcDbEntity
8
1
62
256
6
ByLayer
370
18
48
1
60
1
100
AcDbPoint
10
0
20
-3
30
0
39
0
210
0
220
0
230
1
50
360
0
POINT
5
77
100
AcDbEntity
8
1
62
256
6
ByLayer
370
18
48
1
60
1
100
AcDbPoint
10
30
20
0
30
0
39
0
210
0
220
0
230
1
50
360
0
POINT
5
78
100
AcDbEntity
8
1
62
256
6
ByLayer
370
18
48
1
60
1
100
AcDbPoint
10
29.2721
20
-2
30
0
39
0
210
0
220
0
230
1
50
360
0
POINT
5
79
100
AcDbEntity
8
1
62
256
6
ByLayer
370
18
48
1
60
1
100
AcDbPoint
10
29.2721
20
2
30
0
39
0
210
0
220
0
230
1
50
360
0
POINT
5
7A
100
AcDbEntity
8
1
62
256
6
ByLayer
370
18
48
1
60
1
100
AcDbPoint
10
-36
20
3
30
0
39
0
210
0
220
0
230
1
50
360
0
POINT
5
7B
100
AcDbEntity
8
1
62
256
6
ByLayer
370
18
48
1
60
1
100
AcDbPoint
10
-36
20
-3
30
0
39
0
210
0
220
0
230
1
50
360
0
POINT
5
7C
100
AcDbEntity
8
1
62
256
6
ByLayer
370
18
48
1
60
1
100
AcDbPoint
10
-36
20
-3
30
0
39
0
210
0
220
0
230
1
50
360
0
POINT
5
7D
100
AcDbEntity
8
1
62
256
6
ByLayer
370
18
48
1
60
1
100
AcDbPoint
10
0
20
-3
30
0
39
0
210
0
220
0
230
1
50
360
0
POINT
5
7E
100
AcDbEntity
8
1
62
256
6
ByLayer
370
18
48
1
60
1
100
AcDbPoint
10
6
20
2.5
30
0
39
0
210
0
220
0
230
1
50
360
0
POINT
5
7F
100
AcDbEntity
8
1
62
256
6
ByLayer
370
18
48
1
60
1
100
AcDbPoint
10
30
20
0
30
0
39
0
210
0
220
0
230
1
50
360
0
POINT
5
80
100
AcDbEntity
8
1
62
256
6
ByLayer
370
18
48
1
60
1
100
AcDbPoint
10
17.3
20
-2
30
0
39
0
210
0
220
0
230
1
50
360
0
POINT
5
81
100
AcDbEntity
8
1
62
256
6
ByLayer
370
18
48
1
60
1
100
AcDbPoint
10
30
20
0
30
0
39
0
210
0
220
0
230
1
50
360
0
POINT
5
82
100
AcDbEntity
8
1
62
256
6
ByLayer
370
18
48
1
60
1
100
AcDbPoint
10
-36
20
0
30
0
39
0
210
0
220
0
230
1
50
360
0
POINT
5
83
100
AcDbEntity
8
1
62
256
6
ByLayer
370
18
48
1
60
1
100
AcDbPoint
10
30
20
0
30
0
39
0
210
0
220
0
230
1
50
360
0
SPLINE
5
BC
100
AcDbEntity
8
1
62
256
6
ByLayer
370
18
48
1
60
0
100
AcDbSpline
70
4
71
3
72
8
73
4
40
0
40
0
40
0
40
0
40
1
40
1
40
1
40
1
41
1
10
29.4816633326893
20
0.56352762187268
30
0
41
1
10
29.5966989106017
20
0.584161942373328
30
0
41
1
10
29.7115400885651
20
0.609828438846478
30
0
41
1
10
29.8217084898736
20
0.647794006477142
30
0
0
SPLINE
5
BD
100
AcDbEntity
8
1
62
256
6
ByLayer
370
18
48
1
60
0
100
AcDbSpline
70
4
71
3
72
8
73
4
40
0
40
0
40
0
40
0
40
1
40
1
40
1
40
1
41
1
10
7.60221737373527
20
-1.87811686569668
30
0
41
1
10
7.58586890980891
20
-1.87882099839496
30
0
41
1
10
7.56985956446522
20
-1.88335940430497
30
0
41
1
10
7.55512000032388
20
-1.89174369294082
30
0
0
SPLINE
5
BE
100
AcDbEntity
8
1
62
256
6
ByLayer
370
18
48
1
60
0
100
AcDbSpline
70
4
71
3
72
36
73
32
40
0
40
0
40
0
40
0
40
0.126582086874678
40
0.126582086874678
40
0.158227608593347
40
0.158227608593347
40
0.189873130312017
40
0.189873130312017
40
0.253164173749353
40
0.253164173749353
40
0.379746260624029
40
0.379746260624029
40
0.411391782342698
40
0.411391782342698
40
0.443037304061367
40
0.443037304061367
40
0.506328347498704
40
0.506328347498704
40
0.632910434373379
40
0.632910434373379
40
0.696201477810718
40
0.696201477810718
40
0.759492521248056
40
0.759492521248056
40
0.822783564685394
40
0.822783564685394
40
0.854429086404062
40
0.854429086404062
40
0.886074608122731
40
0.886074608122731
40
1
40
1
40
1
40
1
41
1
10
29.1520865265954
20
-1.97286060752103
30
0
41
1
10
28.7004211811594
20
-1.93106307077895
30
0
41
1
10
28.2525654635649
20
-1.84262186506223
30
0
41
1
10
27.6890589975004
20
-1.68026023421683
30
1E-16
41
1
10
27.5761785104287
20
-1.64518524866642
30
1E-16
41
1
10
27.3498637497808
20
-1.56993255257583
30
1E-16
41
1
10
27.2365291760252
20
-1.52978593730316
30
1E-16
41
1
10
26.8982379330034
20
-1.40342889492067
30
1E-16
41
1
10
26.6740105043159
20
-1.31096055936103
30
1E-16
41
1
10
26.00244844262
20
-1.013254753111
30
1E-16
41
1
10
25.5570008311229
20
-0.786466349755415
30
0
41
1
10
24.9926482670876
20
-0.483802153527847
30
0
41
1
10
24.879130141728
20
-0.422121406176103
30
0
41
1
10
24.6529060870538
20
-0.298036576929604
30
0
41
1
10
24.540204847153
20
-0.235649391579614
30
0
41
1
10
24.2029079300548
20
-0.0482332886907386
30
0
41
1
10
23.9791229778494
20
0.0770585781603188
30
0
41
1
10
23.3083119864727
20
0.449088038687989
30
0
41
1
10
22.8620370155144
20
0.692332441061581
30
0
41
1
10
22.1819902432206
20
1.02832773492739
30
-1E-16
41
1
10
21.9564520370295
20
1.13438333978994
30
-1E-16
41
1
10
21.5078675895946
20
1.33100909305799
30
-1E-16
41
1
10
21.284363738926
20
1.42158454392427
30
-1E-16
41
1
10
20.8370428792045
20
1.58501953832217
30
-1E-16
41
1
10
20.6133423689916
20
1.65801835781588
30
-1E-16
41
1
10
20.2762932615424
20
1.75268050697738
30
0
41
1
10
20.1636866455718
20
1.78175776333413
30
0
41
1
10
19.9377938027132
20
1.83472871849369
30
0
41
1
10
19.8242405522801
20
1.85864961722572
30
0
41
1
10
19.304294435041
20
1.95508367322057
30
0
41
1
10
18.9020461715445
20
1.99306737751729
30
0
41
1
10
18.499473068662
20
1.99326380734686
30
0
0
SPLINE
5
BF
100
AcDbEntity
8
1
62
256
6
ByLayer
370
18
48
1
60
0
100
AcDbSpline
70
4
71
3
72
8
73
4
40
0
40
0
40
0
40
0
40
1
40
1
40
1
40
1
41
1
10
8.22626945155864
20
-1.91222213186322
30
0
41
1
10
8.00302501384002
20
-1.94570929011027
30
0
41
1
10
7.7791264111317
20
-1.96814750708282
30
0
41
1
10
7.55359811617086
20
-1.97888082768074
30
0
0
SPLINE
5
C0
100
AcDbEntity
8
1
62
256
6
ByLayer
370
18
48
1
60
0
100
AcDbSpline
70
4
71
3
72
32
73
28
40
0
40
0
40
0
40
0
40
0.0543654226572153
40
0.0543654226572153
40
0.163737883128375
40
0.163737883128375
40
0.273110343599535
40
0.273110343599535
40
0.382482804070695
40
0.382482804070695
40
0.437169034306276
40
0.437169034306276
40
0.491855264541857
40
0.491855264541857
40
0.601227725013018
40
0.601227725013018
40
0.71060018548418
40
0.71060018548418
40
0.765286415719761
40
0.765286415719761
40
0.819972645955342
40
0.819972645955342
40
0.929345106426503
40
0.929345106426503
40
0.984031336662084
40
0.984031336662084
40
1
40
1
40
1
40
1
41
1
10
24.0394163480042
20
-0.233994259807105
30
0
41
1
10
23.8807902922684
20
-0.150483799521112
30
0
41
1
10
23.7222854986997
20
-0.0663803497769209
30
0
41
1
10
23.2450328392514
20
0.186698168613617
30
0
41
1
10
22.925163668179
20
0.356259603508391
30
0
41
1
10
22.2853448246458
20
0.682872804934647
30
0
41
1
10
21.9654299150554
20
0.8398167840013
30
-1E-16
41
1
10
21.3259498515644
20
1.12993470186316
30
-1E-16
41
1
10
21.0066261725042
20
1.26299878530503
30
-1E-16
41
1
10
20.5277752893615
20
1.43755362777617
30
-1E-16
41
1
10
20.3677926381327
20
1.4917613715549
30
-1E-16
41
1
10
20.0482498312549
20
1.59073011686061
30
-1E-16
41
1
10
19.8886996521803
20
1.63553575913269
30
0
41
1
10
19.4099159906531
20
1.75533472850506
30
0
41
1
10
19.0895815339152
20
1.81528223904178
30
0
41
1
10
18.4543846881755
20
1.88955299119411
30
0
41
1
10
18.1382352971323
20
1.90439443903111
30
0
41
1
10
17.662557233946
20
1.89390199831263
30
0
41
1
10
17.5037728106254
20
1.88497068580074
30
0
41
1
10
17.1850913011064
20
1.85596017240593
30
0
41
1
10
17.0249177508539
20
1.83586479024953
30
0
41
1
10
16.5460861983835
20
1.75940055136743
30
0
41
1
10
16.2280483264052
20
1.68644824114429
30
0
41
1
10
15.7488478951887
20
1.54743268965967
30
-1E-16
41
1
10
15.5890824341677
20
1.49630891911963
30
-1E-16
41
1
10
15.3835156437216
20
1.42502446341828
30
-1E-16
41
1
10
15.3370869445145
20
1.40856965061963
30
-1E-16
41
1
10
15.2906825810785
20
1.39177846090308
30
-1E-16
0
SPLINE
5
C1
100
AcDbEntity
8
1
62
256
6
ByLayer
370
18
48
1
60
0
100
AcDbSpline
70
4
71
3
72
18
73
14
40
0
40
0
40
0
40
0
40
0.238502957656429
40
0.238502957656429
40
0.43378671885768
40
0.43378671885768
40
0.630947295569315
40
0.630947295569315
40
0.801162318606949
40
0.801162318606949
40
0.964387646551586
40
0.964387646551586
40
1
40
1
40
1
40
1
41
1
10
29.2828003132886
20
-1.88297490223707
30
0
41
1
10
29.2829079905004
20
-1.88314944315749
30
0
41
1
10
29.2829569201703
20
-1.88351081366028
30
0
41
1
10
29.2829055808019
20
-1.88453191947448
30
0
41
1
10
29.2828292710901
20
-1.88513924269725
30
0
41
1
10
29.2825605902995
20
-1.88660774915948
30
0
41
1
10
29.2823617948787
20
-1.88749672735676
30
0
41
1
10
29.2819008419758
20
-1.88928122480826
30
0
41
1
10
29.281644824453
20
-1.89018319060176
30
0
41
1
10
29.2811075834842
20
-1.89193646456678
30
0
41
1
10
29.2808215231829
20
-1.89280955059704
30
0
41
1
10
29.2804708868574
20
-1.89382083452557
30
0
41
1
10
29.2804072625177
20
-1.89400206220557
30
0
41
1
10
29.2803435628564
20
-1.89418132507257
30
0
0
SPLINE
5
C2
100
AcDbEntity
8
1
62
256
6
ByLayer
370
18
48
1
60
0
100
AcDbSpline
70
4
71
3
72
22
73
18
40
0
40
0
40
0
40
0
40
0.125
40
0.125
40
0.25
40
0.25
40
0.375
40
0.375
40
0.5
40
0.5
40
0.625
40
0.625
40
0.75
40
0.75
40
0.875
40
0.875
40
1
40
1
40
1
40
1
41
1
10
8.53215792924414
20
1.72458538945878
30
0
41
1
10
8.76073067038993
20
1.66190032515479
30
-1E-16
41
1
10
8.98827243718566
20
1.5888272871064
30
-1E-16
41
1
10
9.44329850457058
20
1.42397351349908
30
-1E-16
41
1
10
9.67155936753554
20
1.33233822744356
30
-1E-16
41
1
10
10.1276546964647
20
1.13379700010378
30
-1E-16
41
1
10
10.3549772774036
20
1.02723742489431
30
-1E-16
41
1
10
10.8103267035129
20
0.802890067287933
30
0
41
1
10
11.038815168573
20
0.68463198828195
30
0
41
1
10
11.4944098015267
20
0.441945303782205
30
0
41
1
10
11.7217587114811
20
0.317491468808981
30
0
41
1
10
12.1772991676154
20
0.0654447445162702
30
0
41
1
10
12.4057931596754
20
-0.0620798356788157
30
0
41
1
10
12.8610677620818
20
-0.313945827498316
30
0
41
1
10
13.0883540990258
20
-0.438706138436515
30
0
41
1
10
13.5443899770732
20
-0.682012551556369
30
0
41
1
10
13.7724844997548
20
-0.800330541306209
30
0
41
1
10
14.0000000000001
20
-0.912830761279508
30
1E-16
0
SPLINE
5
C3
100
AcDbEntity
8
1
62
256
6
ByLayer
370
18
48
1
60
0
100
AcDbSpline
70
4
71
3
72
20
73
16
40
0
40
0
40
0
40
0
40
0.13116475309319
40
0.13116475309319
40
0.26232950618638
40
0.26232950618638
40
0.52465901237276
40
0.52465901237276
40
0.590241388919355
40
0.590241388919355
40
0.65582376546595
40
0.65582376546595
40
0.786988518559143
40
0.786988518559143
40
1
40
1
40
1
40
1
41
1
10
29.2803435628397
20
-1.8941813250714
30
0
41
1
10
29.0531384476228
20
-1.87829884651475
30
0
41
1
10
28.8255437806758
20
-1.85149149441543
30
0
41
1
10
28.3711995699762
20
-1.77516765439108
30
0
41
1
10
28.1455214510225
20
-1.72624201088325
30
0
41
1
10
27.4705406003684
20
-1.55053475325997
30
1E-16
41
1
10
27.0236256936292
20
-1.39468197277617
30
1E-16
41
1
10
26.459164130383
20
-1.16169503089418
30
1E-16
41
1
10
26.3459612721733
20
-1.11320251732144
30
1E-16
41
1
10
26.118899656987
20
-1.01266387486717
30
1E-16
41
1
10
26.004943007508
20
-0.960539873371403
30
1E-16
41
1
10
25.6649086330384
20
-0.800910926093735
30
0
41
1
10
25.439597592453
20
-0.689770135971344
30
0
41
1
10
24.8496982819159
20
-0.390223778459756
30
0
41
1
10
24.4860833136747
20
-0.196618881197367
30
0
41
1
10
24.1202281246297
20
-0.0018213401132812
30
0
0
SPLINE
5
C4
100
AcDbEntity
8
1
62
256
6
ByLayer
370
18
48
1
60
0
100
AcDbSpline
70
4
71
3
72
10
73
6
40
0
40
0
40
0
40
0
40
0.274519192148881
40
0.274519192148881
40
1
40
1
40
1
40
1
41
1
10
18.522019239573
20
1.9035120915556
30
0
41
1
10
18.4973725383957
20
1.90361206108543
30
0
41
1
10
18.4727099064682
20
1.90357814603985
30
0
41
1
10
18.3828089202036
20
1.90296539517269
30
0
41
1
10
18.317628780987
20
1.90156189083288
30
0
41
1
10
18.2524966667809
20
1.8992132839108
30
0
0
SPLINE
5
C5
100
AcDbEntity
8
1
62
256
6
ByLayer
370
18
48
1
60
0
100
AcDbSpline
70
4
71
3
72
20
73
16
40
0
40
0
40
0
40
0
40
0.125
40
0.125
40
0.25
40
0.25
40
0.375
40
0.375
40
0.5
40
0.5
40
0.625
40
0.625
40
0.75
40
0.75
40
1
40
1
40
1
40
1
41
1
10
29.0614184218869
20
-0.139326603915947
30
0
41
1
10
29.0661418278867
20
-0.248329709024091
30
0
41
1
10
29.0746047757342
20
-0.354797765212027
30
0
41
1
10
29.0953893039746
20
-0.563210860519007
30
0
41
1
10
29.1077770652933
20
-0.665517378439745
30
0
41
1
10
29.1336127266983
20
-0.864100740785432
30
1E-16
41
1
10
29.1467703838448
20
-0.95835136924606
30
1E-16
41
1
10
29.1717216285237
20
-1.13728579480494
30
1E-16
41
1
10
29.183578344383
20
-1.22239973062221
30
1E-16
41
1
10
29.2047801017972
20
-1.38066365869193
30
1E-16
41
1
10
29.2139532287737
20
-1.45251754220539
30
1E-16
41
1
10
29.2298934680669
20
-1.58205344423976
30
1E-16
41
1
10
29.2366915239752
20
-1.6400313349173
30
0
41
1
10
29.2553712620377
20
-1.78938648046085
30
0
41
1
10
29.2648371537945
20
-1.85385726128195
30
0
41
1
10
29.2828003132886
20
-1.88297490223707
30
0
0
SPLINE
5
C6
100
AcDbEntity
8
1
62
256
6
ByLayer
370
18
48
1
60
0
100
AcDbSpline
70
4
71
3
72
54
73
50
40
0
40
0
40
0
40
0
40
0.124999999999997
40
0.124999999999997
40
0.187499999999997
40
0.187499999999997
40
0.249999999999997
40
0.249999999999997
40
0.312499999999997
40
0.312499999999997
40
0.343749999999998
40
0.343749999999998
40
0.374999999999999
40
0.374999999999999
40
0.40625
40
0.40625
40
0.437500000000001
40
0.437500000000001
40
0.468750000000002
40
0.468750000000002
40
0.500000000000002
40
0.500000000000002
40
0.562500000000006
40
0.562500000000006
40
0.62500000000001
40
0.62500000000001
40
0.687500000000014
40
0.687500000000014
40
0.718750000000017
40
0.718750000000017
40
0.734375000000019
40
0.734375000000019
40
0.74218750000002
40
0.74218750000002
40
0.75000000000002
40
0.75000000000002
40
0.757812500000021
40
0.757812500000021
40
0.765625000000022
40
0.765625000000022
40
0.773437500000023
40
0.773437500000023
40
0.781250000000024
40
0.781250000000024
40
0.81250000000002
40
0.81250000000002
40
0.875000000000013
40
0.875000000000013
40
1
40
1
40
1
40
1
41
1
10
7.62178546158657
20
-0.429274505617315
30
0
41
1
10
7.40927531822464
20
-0.314998474513572
30
0
41
1
10
7.2021194332109
20
-0.192141956683997
30
0
41
1
10
6.90322798961253
20
0.0111883842811551
30
0
41
1
10
6.80559421724402
20
0.0821764754599315
30
0
41
1
10
6.61575818152335
20
0.232898334949084
30
0
41
1
10
6.52366466142357
20
0.312571013271025
30
0
41
1
10
6.35185234845716
20
0.480774242614416
30
0
41
1
10
6.27115501655152
20
0.570298813900706
30
0
41
1
10
6.16809690859475
20
0.710651977916001
30
0
41
1
10
6.13662116399641
20
0.758582172776926
30
0
41
1
10
6.08117351385505
20
0.857439998494954
30
-1E-16
41
1
10
6.05728780279972
20
0.908471769514364
30
-1E-16
41
1
10
6.02116661538773
20
1.00988720550075
30
-1E-16
41
1
10
6.00856763763278
20
1.06125384739875
30
-1E-16
41
1
10
5.99706616289836
20
1.16210184290776
30
-1E-16
41
1
10
5.99816450362704
20
1.21059648725768
30
-1E-16
41
1
10
6.01390010917191
20
1.30383687824076
30
-1E-16
41
1
10
6.02877242569753
20
1.34859523340853
30
-1E-16
41
1
10
6.06940714886593
20
1.43047353330417
30
-1E-16
41
1
10
6.09548585565159
20
1.4685277731098
30
-1E-16
41
1
10
6.18565018827604
20
1.57259331218384
30
-1E-16
41
1
10
6.26030950487296
20
1.62844013589043
30
-1E-16
41
1
10
6.42749619743003
20
1.72396443690067
30
0
41
1
10
6.51781420257657
20
1.76217386942602
30
0
41
1
10
6.70631719147266
20
1.82668737750643
30
0
41
1
10
6.80471321430286
20
1.85291926014637
30
0
41
1
10
6.956809931024
20
1.8859245537036
30
0
41
1
10
7.00826756786111
20
1.8958468014693
30
0
41
1
10
7.08611936054899
20
1.90928332558064
30
0
41
1
10
7.11219610166
20
1.9135236826516
30
0
41
1
10
7.15148843825153
20
1.91955204878411
30
0
41
1
10
7.16461591633151
20
1.92150617484955
30
0
41
1
10
7.19092591037617
20
1.92530716467118
30
0
41
1
10
7.20394897360086
20
1.92722465510855
30
0
41
1
10
7.23076956708888
20
1.93063498590956
30
0
41
1
10
7.24546516037043
20
1.93162103096878
30
0
41
1
10
7.27555236410524
20
1.93210783450937
30
0
41
1
10
7.29050514193375
20
1.93181299055351
30
0
41
1
10
7.31997628621576
20
1.93025877447459
30
0
41
1
10
7.33399828674231
20
1.92898278992584
30
0
41
1
10
7.36225490370595
20
1.92653102227354
30
0
41
1
10
7.37636771342252
20
1.92527503381282
30
0
41
1
10
7.44685315496983
20
1.91883860812584
30
0
41
1
10
7.50296406075188
20
1.91319154434376
30
0
41
1
10
7.6704805915202
20
1.89457884689463
30
0
41
1
10
7.78088259385927
20
1.87995507818135
30
0
41
1
10
8.1084406814096
20
1.82814652613629
30
0
41
1
10
8.32230453961546
20
1.78281622682067
30
0
41
1
10
8.53215293679295
20
1.72458814403322
30
0
0
SPLINE
5
C7
100
AcDbEntity
8
1
62
256
6
ByLayer
370
18
48
1
60
0
100
AcDbSpline
70
4
71
3
72
20
73
16
40
0
40
0
40
0
40
0
40
0.138557826695258
40
0.138557826695258
40
0.277115653390517
40
0.277115653390517
40
0.415673480085775
40
0.415673480085775
40
0.554231306781033
40
0.554231306781033
40
0.692789133476292
40
0.692789133476292
40
0.83134696017155
40
0.83134696017155
40
1
40
1
40
1
40
1
41
1
10
7.60241559627264
20
-0.683491923274687
30
0
41
1
10
7.6024041795807
20
-0.778960788532146
30
0
41
1
10
7.60239253792753
20
-0.870367767908789
30
1E-16
41
1
10
7.60236991390707
20
-1.04527482125241
30
1E-16
41
1
10
7.6023588462991
20
-1.1294089389861
30
1E-16
41
1
10
7.60233847179614
20
-1.28588742069661
30
1E-16
41
1
10
7.60232918204599
20
-1.35810115787083
30
1E-16
41
1
10
7.60231238682914
20
-1.49072665999029
30
1E-16
41
1
10
7.60230484538235
20
-1.55143972626507
30
1E-16
41
1
10
7.60229127189063
20
-1.65893019361729
30
0
41
1
10
7.6022852588074
20
-1.70552235075755
30
0
41
1
10
7.60227382940781
20
-1.78340636436292
30
0
41
1
10
7.60226848013158
20
-1.81422556347161
30
0
41
1
10
7.60225580573345
20
-1.86517101849989
30
0
41
1
10
7.60224827135227
20
-1.88144560229063
30
0
41
1
10
7.60223871261911
20
-1.88552190436593
30
0
0
SPLINE
5
C8
100
AcDbEntity
8
1
62
256
6
ByLayer
370
18
48
1
60
0
100
AcDbSpline
70
4
71
3
72
8
73
4
40
0
40
0
40
0
40
0
40
1
40
1
40
1
40
1
41
1
10
7.59752787817413
20
-1.88719111480267
30
0
41
1
10
7.58282733129033
20
-1.88793783679614
30
0
41
1
10
7.56842031822049
20
-1.8921173341142
30
0
41
1
10
7.55512000032388
20
-1.89976959422785
30
0
0
SPLINE
5
C9
100
AcDbEntity
8
1
62
256
6
ByLayer
370
18
48
1
60
0
100
AcDbSpline
70
4
71
3
72
10
73
6
40
0
40
0
40
0
40
0
40
0.5
40
0.5
40
1
40
1
40
1
40
1
41
1
10
7.50204288912389
20
-0.802380194389656
30
0
41
1
10
7.50220416335071
20
-0.770473701184898
30
0
41
1
10
7.52158006596403
20
-0.73941435329499
30
0
41
1
10
7.58156651057931
20
-0.706765953576195
30
0
41
1
10
7.62024148425786
20
-0.706326681856609
30
0
41
1
10
7.65073091768966
20
-0.722166356661916
30
0
0
SPLINE
5
CA
100
AcDbEntity
8
1
62
256
6
ByLayer
370
18
48
1
60
0
100
AcDbSpline
70
4
71
3
72
8
73
4
40
0
40
0
40
0
40
0
40
1
40
1
40
1
40
1
41
1
10
29.0121814187418
20
-0.107418145317098
30
0
41
1
10
29.0070438807289
20
-0.013554093069331
30
0
41
1
10
29.0047215726951
20
0.0808779356176501
30
0
41
1
10
29.0064952137448
20
0.175965929553314
30
0
0
SPLINE
5
CB
100
AcDbEntity
8
1
62
256
6
ByLayer
370
18
48
1
60
0
100
AcDbSpline
70
4
71
3
72
8
73
4
40
0
40
0
40
0
40
0
40
1
40
1
40
1
40
1
41
1
10
29.8217084898736
20
-0.647794006477142
30
0
41
1
10
29.8816824309563
20
-0.479733564927898
30
0
41
1
10
29.940149756749
20
-0.311132063162773
30
0
41
1
10
29.997088934002
20
-0.141981768096286
30
0
0
SPLINE
5
CC
100
AcDbEntity
8
1
62
256
6
ByLayer
370
18
48
1
60
0
100
AcDbSpline
70
4
71
3
72
26
73
22
40
0
40
0
40
0
40
0
40
0.0130042060236416
40
0.0130042060236416
40
0.132865264617103
40
0.132865264617103
40
0.252726323210566
40
0.252726323210566
40
0.372587381804027
40
0.372587381804027
40
0.492448440397489
40
0.492448440397489
40
0.73217055758441
40
0.73217055758441
40
0.792101086881139
40
0.792101086881139
40
0.852031616177869
40
0.852031616177869
40
0.971892674771331
40
0.971892674771331
40
1
40
1
40
1
40
1
41
1
10
18.5220192395643
20
-1.90351209155557
30
0
41
1
10
18.4973725383926
20
-1.90361206108534
30
0
41
1
10
18.4727099064708
20
-1.90357814603982
30
0
41
1
10
18.2205565324387
20
-1.90185950862562
30
0
41
1
10
17.9935850955621
20
-1.88864407573152
30
0
41
1
10
17.5412175442415
20
-1.8400594542411
30
0
41
1
10
17.3154702244328
20
-1.80460933410296
30
0
41
1
10
16.8632840345544
20
-1.71249088935988
30
0
41
1
10
16.6366906648628
20
-1.65588784061993
30
0
41
1
10
16.1811017819713
20
-1.52282461341755
30
1E-16
41
1
10
15.9550472962899
20
-1.447148199905
30
1E-16
41
1
10
15.279153790276
20
-1.19633750475469
30
1E-16
41
1
10
14.8315838889993
20
-0.998265925864985
30
1E-16
41
1
10
14.2673396181783
20
-0.724973337200481
30
0
41
1
10
14.1542651836714
20
-0.669040649275985
30
0
41
1
10
13.9274018007645
20
-0.554991139874488
30
0
41
1
10
13.8133306386131
20
-0.496727344340485
30
0
41
1
10
13.472436411776
20
-0.320643222411434
30
0
41
1
10
13.2466792779526
20
-0.201432082174108
30
0
41
1
10
12.9687596666253
20
-0.0541108549933256
30
0
41
1
10
12.916004937224
20
-0.0261142458728898
30
0
41
1
10
12.8632757621536
20
0.0018717230801713
30
0
0
SPLINE
5
CD
100
AcDbEntity
8
1
62
256
6
ByLayer
370
18
48
1
60
0
100
AcDbSpline
70
4
71
3
72
8
73
4
40
0
40
0
40
0
40
0
40
1
40
1
40
1
40
1
41
1
10
29.2803435628543
20
-1.89418132507876
30
0
41
1
10
29.2796121788062
20
-1.89623957780586
30
0
41
1
10
29.2788814997141
20
-1.89829778132108
30
0
41
1
10
29.278151529249
20
-1.90035593671763
30
0
0
SPLINE
5
CE
100
AcDbEntity
8
1
62
256
6
ByLayer
370
18
48
1
60
0
100
AcDbSpline
70
4
71
3
72
16
73
12
40
0
40
0
40
0
40
0
40
0.11886365317387
40
0.11886365317387
40
0.237727306347741
40
0.237727306347741
40
0.475454612695481
40
0.475454612695481
40
0.950909225390962
40
0.950909225390962
40
1
40
1
40
1
40
1
41
1
10
14
20
-0.878840033091024
30
1E-16
41
1
10
14.1592906573711
20
-0.958317032405063
30
1E-16
41
1
10
14.3187225604194
20
-1.03530360747382
30
1E-16
41
1
10
14.6364437470171
20
-1.18222863364764
30
1E-16
41
1
10
14.7948717059473
20
-1.25224184885926
30
1E-16
41
1
10
15.2698994271923
20
-1.45054148358975
30
1E-16
41
1
10
15.5862149552755
20
-1.56713922888102
30
1E-16
41
1
10
16.5419698136616
20
-1.85966032226489
30
0
41
1
10
17.1660879865577
20
-1.97092531294587
30
0
41
1
10
17.8618118278131
20
-1.99197085034626
30
0
41
1
10
17.9269934365697
20
-1.99295569475194
30
0
41
1
10
17.9922703994668
20
-1.99294660269308
30
0
0
SPLINE
5
CF
100
AcDbEntity
8
1
62
256
6
ByLayer
370
18
48
1
60
0
100
AcDbSpline
70
4
71
3
72
8
73
4
40
0
40
0
40
0
40
0
40
1
40
1
40
1
40
1
41
1
10
28.8154517454207
20
1.98581417104478
30
0
41
1
10
28.930452929201
20
1.99344721285848
30
0
41
1
10
29.0453815061929
20
1.9980019983166
30
0
41
1
10
29.1603625172372
20
1.99946204907397
30
0
0
SPLINE
5
D0
100
AcDbEntity
8
1
62
256
6
ByLayer
370
18
48
1
60
0
100
AcDbSpline
70
4
71
3
72
8
73
4
40
0
40
0
40
0
40
0
40
1
40
1
40
1
40
1
41
1
10
29.1520865265931
20
1.97286060752171
30
0
41
1
10
29.1552450844651
20
1.98840964995807
30
0
41
1
10
29.1580058586437
20
1.99738617000884
30
0
41
1
10
29.1603625172231
20
1.99946204907397
30
0
0
SPLINE
5
D1
100
AcDbEntity
8
1
62
256
6
ByLayer
370
18
48
1
60
0
100
AcDbSpline
70
4
71
3
72
28
73
24
40
0
40
0
40
0
40
0
40
0.11357812008211
40
0.11357812008211
40
0.22715624016422
40
0.22715624016422
40
0.34073436024633
40
0.34073436024633
40
0.454312480328439
40
0.454312480328439
40
0.511101540369497
40
0.511101540369497
40
0.567890600410554
40
0.567890600410554
40
0.681468720492669
40
0.681468720492669
40
0.795046840574784
40
0.795046840574784
40
0.9086249606569
40
0.9086249606569
40
0.965414020697957
40
0.965414020697957
40
1
40
1
40
1
40
1
41
1
10
29.0614184218987
20
-0.139326603914896
30
0
41
1
10
28.8373540652001
20
-0.0205803114536138
30
0
41
1
10
28.6126246212501
20
0.0992041430954202
30
0
41
1
10
28.1655785908972
20
0.334417132088504
30
0
41
1
10
27.9432506422394
20
0.449959705723813
30
0
41
1
10
27.4998679013413
20
0.674250152525872
30
0
41
1
10
27.279052382914
20
0.782933170636625
30
0
41
1
10
26.8362807085725
20
0.990266449105775
30
-1E-16
41
1
10
26.6143784003193
20
1.08897156816545
30
-1E-16
41
1
10
26.2799403190403
20
1.22757166077335
30
-1E-16
41
1
10
26.168198270693
20
1.27216154552079
30
-1E-16
41
1
10
25.9439814476058
20
1.35760681122827
30
-1E-16
41
1
10
25.8318414698426
20
1.39836515524919
30
-1E-16
41
1
10
25.4967069751907
20
1.51405532458929
30
-1E-16
41
1
10
25.2742764143115
20
1.58260157355508
30
-1E-16
41
1
10
24.8306659184568
20
1.70023868698888
30
0
41
1
10
24.6096737324415
20
1.74871193000416
30
0
41
1
10
24.166247550872
20
1.82681353106761
30
0
41
1
10
23.9440375343828
20
1.8560279455009
30
0
41
1
10
23.6091244590673
20
1.88306556630906
30
0
41
1
10
23.4972058223617
20
1.88925300130688
30
0
41
1
10
23.3165333375827
20
1.89415007371247
30
0
41
1
10
23.2482872159657
20
1.89489880274596
30
0
41
1
10
23.180123178631
20
1.89471975117419
30
0
0
SPLINE
5
D2
100
AcDbEntity
8
1
62
256
6
ByLayer
370
18
48
1
60
0
100
AcDbSpline
70
4
71
3
72
22
73
18
40
0
40
0
40
0
40
0
40
0.0229471373674201
40
0.0229471373674201
40
0.267210353025571
40
0.267210353025571
40
0.389341960854644
40
0.389341960854644
40
0.45040776476918
40
0.45040776476918
40
0.511473568683716
40
0.511473568683716
40
0.755736784341858
40
0.755736784341858
40
0.877868392170929
40
0.877868392170929
40
1
40
1
40
1
40
1
41
1
10
23.7410812707367
20
0.209843711361998
30
0
41
1
10
23.7836754507146
20
0.187420355601546
30
0
41
1
10
23.8262195016231
20
0.164979940290493
30
0
41
1
10
24.320730497277
20
-0.0962000789623971
30
0
41
1
10
24.7681058495413
20
-0.335847439589514
30
0
41
1
10
25.4424756295598
20
-0.677052419901656
30
0
41
1
10
25.6677587154921
20
-0.787844237317955
30
0
41
1
10
26.007739543514
20
-0.947043812373693
30
1E-16
41
1
10
26.1216764441285
20
-0.999039458630762
30
1E-16
41
1
10
26.3487133375022
20
-1.09938573170208
30
1E-16
41
1
10
26.4619042329817
20
-1.1478093018024
30
1E-16
41
1
10
27.0263178199646
20
-1.38054901832132
30
1E-16
41
1
10
27.4732357914145
20
-1.53653221152672
30
1E-16
41
1
10
28.1481486960416
20
-1.71293049371326
30
0
41
1
10
28.3737953082643
20
-1.76216640155306
30
0
41
1
10
28.8280512526706
20
-1.83926996506327
30
0
41
1
10
29.055548496077
20
-1.86664179011558
30
0
41
1
10
29.2828003132885
20
-1.88297490223707
30
0
0
SPLINE
5
D3
100
AcDbEntity
8
1
62
256
6
ByLayer
370
18
48
1
60
0
100
AcDbSpline
70
4
71
3
72
8
73
4
40
0
40
0
40
0
40
0
40
1
40
1
40
1
40
1
41
1
10
7.55359811617248
20
-1.97888082768066
30
0
41
1
10
7.52231205219712
20
-1.98036979098327
30
0
41
1
10
7.50212027136286
20
-1.98299072744666
30
0
41
1
10
7.50204205773798
20
-1.98453626220132
30
0
0
SPLINE
5
D4
100
AcDbEntity
8
1
62
256
6
ByLayer
370
18
48
1
60
0
100
AcDbSpline
70
4
71
3
72
36
73
32
40
0
40
0
40
0
40
0
40
0.0942029570752714
40
0.0942029570752714
40
0.150815272258068
40
0.150815272258068
40
0.207427587440865
40
0.207427587440865
40
0.320652217806459
40
0.320652217806459
40
0.377264532989256
40
0.377264532989256
40
0.405570690580654
40
0.405570690580654
40
0.433876848172052
40
0.433876848172052
40
0.490489163354847
40
0.490489163354847
40
0.547101478537642
40
0.547101478537642
40
0.603713793720436
40
0.603713793720436
40
0.660326108903231
40
0.660326108903231
40
0.773550739268821
40
0.773550739268821
40
0.830163054451616
40
0.830163054451616
40
0.886775369634411
40
0.886775369634411
40
1
40
1
40
1
40
1
41
1
10
19.4837964689546
20
-1.91795558622741
30
0
41
1
10
19.109080359607
20
-1.97477593433777
30
0
41
1
10
18.7375564510519
20
-1.99951314004389
30
0
41
1
10
18.1415579110134
20
-1.98737235730039
30
0
41
1
10
17.9174179363144
20
-1.97113411650312
30
0
41
1
10
17.4665698069546
20
-1.91532368303189
30
0
41
1
10
17.2390541093071
20
-1.87543452155055
30
0
41
1
10
16.5629502888726
20
-1.72413200712032
30
1E-16
41
1
10
16.1171239209493
20
-1.58114238465234
30
1E-16
41
1
10
15.4449730090867
20
-1.31565931259621
30
1E-16
41
1
10
15.2202861114773
20
-1.21875867670215
30
1E-16
41
1
10
14.8809902933907
20
-1.06232348821501
30
1E-16
41
1
10
14.767397138717
20
-1.00826248037018
30
1E-16
41
1
10
14.540879855954
20
-0.897646942058174
30
1E-16
41
1
10
14.4277649610357
20
-0.84099904655119
30
1E-16
41
1
10
14.0885602303359
20
-0.667523784473502
30
0
41
1
10
13.8625517293356
20
-0.547258069432075
30
0
41
1
10
13.408794444253
20
-0.300872945659819
30
0
41
1
10
13.1825139797671
20
-0.175507296777823
30
0
41
1
10
12.7301994102749
20
0.0758058448733152
30
0
41
1
10
12.5034550806554
20
0.202215927475208
30
0
41
1
10
12.0505794964447
20
0.45049447749426
30
0
41
1
10
11.8256629579005
20
0.571665837328936
30
0
41
1
10
11.1527647589024
20
0.921892456048965
30
-1E-16
41
1
10
10.7069421029689
20
1.13812084191662
30
-1E-16
41
1
10
10.0306672309932
20
1.41765468602847
30
-1E-16
41
1
10
9.80312936243183
20
1.5038328433329
30
-1E-16
41
1
10
9.3517953035095
20
1.65574230095888
30
-1E-16
41
1
10
9.12728024488169
20
1.72178316001649
30
-1E-16
41
1
10
8.4545167753447
20
1.88830837763254
30
0
41
1
10
8.00735598666319
20
1.95728562740365
30
0
41
1
10
7.55359811617089
20
1.97888082768074
30
0
0
SPLINE
5
D5
100
AcDbEntity
8
1
62
256
6
ByLayer
370
18
48
1
60
0
100
AcDbSpline
70
4
71
3
72
14
73
10
40
0
40
0
40
0
40
0
40
0.149691991423975
40
0.149691991423975
40
0.574845995711953
40
0.574845995711953
40
0.787422997855977
40
0.787422997855977
40
1
40
1
40
1
40
1
41
1
10
29.0951653097905
20
0.369169388345028
30
0
41
1
10
29.1060905747442
20
0.378643066092963
30
0
41
1
10
29.1185050545831
20
0.38874329628868
30
0
41
1
10
29.1720226581468
20
0.429631874316073
30
0
41
1
10
29.2231198102112
20
0.464247667848497
30
0
41
1
10
29.3127457314417
20
0.509850049543672
30
0
41
1
10
29.3442127839731
20
0.523897172049203
30
0
41
1
10
29.4109513759614
20
0.547615093782326
30
0
41
1
10
29.4460154372647
20
0.55713333835871
30
0
41
1
10
29.4816633326892
20
0.56352762187268
30
0
0
SPLINE
5
D6
100
AcDbEntity
8
1
62
256
6
ByLayer
370
18
48
1
60
0
100
AcDbSpline
70
4
71
3
72
30
73
26
40
0
40
0
40
0
40
0
40
0.0286024289434335
40
0.0286024289434335
40
0.082568960668799
40
0.082568960668799
40
0.136535492394164
40
0.136535492394164
40
0.244468555844895
40
0.244468555844895
40
0.352401619295626
40
0.352401619295626
40
0.460334682746357
40
0.460334682746357
40
0.514301214471722
40
0.514301214471722
40
0.568267746197088
40
0.568267746197088
40
0.676200809647816
40
0.676200809647816
40
0.784133873098544
40
0.784133873098544
40
0.892066936549272
40
0.892066936549272
40
1
40
1
40
1
40
1
41
1
10
22.8690125809177
20
1.89672342674598
30
0
41
1
10
22.9281492505784
20
1.89943044822147
30
0
41
1
10
22.987329022972
20
1.90142770244765
30
0
41
1
10
23.1582746354142
20
1.90527668903184
30
0
41
1
10
23.2700865124665
20
1.90558953082021
30
0
41
1
10
23.4946057730699
20
1.90028266185558
30
0
41
1
10
23.6064952181571
20
1.89447909726269
30
0
41
1
10
23.9413007944233
20
1.8684985284163
30
0
41
1
10
24.1634204967562
20
1.83992619625033
30
0
41
1
10
24.6066406479379
20
1.76291603651643
30
0
41
1
10
24.8275111430758
20
1.7149544502465
30
0
41
1
10
25.2708743579718
20
1.5981801419837
30
-1E-16
41
1
10
25.4931777161578
20
1.52997986103429
30
-1E-16
41
1
10
25.8281205987449
20
1.41467627286443
30
-1E-16
41
1
10
25.9401735933813
20
1.37403424952444
30
-1E-16
41
1
10
26.1643398633698
20
1.28875178032541
30
-1E-16
41
1
10
26.2760524674179
20
1.2442268292441
30
-1E-16
41
1
10
26.6103817659227
20
1.10572787656309
30
-1E-16
41
1
10
26.8321930809949
20
1.00699780578373
30
-1E-16
41
1
10
27.2747535094854
20
0.799447179688883
30
0
41
1
10
27.495445573222
20
0.6905909046136
30
0
41
1
10
27.9385761218624
20
0.46577106854167
30
0
41
1
10
28.1607709047564
20
0.349865811042605
30
0
41
1
10
28.6075471595555
20
0.113760387217724
30
0
41
1
10
28.8321941833507
20
-0.006590185986397
30
0
41
1
10
29.0561629549144
20
-0.125971461893556
30
0
0
SPLINE
5
D7
100
AcDbEntity
8
1
62
256
6
ByLayer
370
18
48
1
60
0
100
AcDbSpline
70
4
71
3
72
10
73
6
40
0
40
0
40
0
40
0
40
0.5
40
0.5
40
1
40
1
40
1
40
1
41
1
10
29.2141098948881
20
0.2813350993695
30
0
41
1
10
29.1781936888847
20
0.272904702711912
30
0
41
1
10
29.1425235732607
20
0.261350825972983
30
0
41
1
10
29.0725986459773
20
0.226228119601871
30
0
41
1
10
29.0387058935212
20
0.20314836220021
30
0
41
1
10
29.0064952137536
20
0.175965929554849
30
0
0
SPLINE
5
D8
100
AcDbEntity
8
1
62
256
6
ByLayer
370
18
48
1
60
0
100
AcDbSpline
70
4
71
3
72
10
73
6
40
0
40
0
40
0
40
0
40
0.5
40
0.5
40
1
40
1
40
1
40
1
41
1
10
29.3159164039992
20
-1.89592571024332
30
0
41
1
10
29.307759738441
20
-1.90184946992124
30
0
41
1
10
29.3006683071557
20
-1.90518096745169
30
0
41
1
10
29.2881863570989
20
-1.90664825120578
30
0
41
1
10
29.282801185478
20
-1.9047290328682
30
0
41
1
10
29.278151529249
20
-1.90035593671766
30
0
0
SPLINE
5
D9
100
AcDbEntity
8
1
62
256
6
ByLayer
370
18
48
1
60
0
100
AcDbSpline
70
4
71
3
72
8
73
4
40
0
40
0
40
0
40
0
40
1
40
1
40
1
40
1
41
1
10
7.50360265745502
20
-1.96647755392823
30
0
41
1
10
7.50257229106285
20
-1.97249040023769
30
0
41
1
10
7.5020534783647
20
-1.97853931691122
30
0
41
1
10
7.50204201422477
20
-1.98453798621193
30
0
0
SPLINE
5
DA
100
AcDbEntity
8
1
62
256
6
ByLayer
370
18
48
1
60
0
100
AcDbSpline
70
4
71
3
72
50
73
46
40
0
40
0
40
0
40
0
40
0.0073039451724447
40
0.0073039451724447
40
0.0616091152610184
40
0.0616091152610184
40
0.115914285349592
40
0.115914285349592
40
0.170219455438166
40
0.170219455438166
40
0.22452462552674
40
0.22452462552674
40
0.278829795615314
40
0.278829795615314
40
0.3059823806596
40
0.3059823806596
40
0.333134965703887
40
0.333134965703887
40
0.387440135792463
40
0.387440135792463
40
0.441745305881038
40
0.441745305881038
40
0.496050475969613
40
0.496050475969613
40
0.550355646058188
40
0.550355646058188
40
0.604660816146763
40
0.604660816146763
40
0.658965986235338
40
0.658965986235338
40
0.686118571279626
40
0.686118571279626
40
0.713271156323913
40
0.713271156323913
40
0.767576326412488
40
0.767576326412488
40
0.821881496501064
40
0.821881496501064
40
0.876186666589639
40
0.876186666589639
40
0.930491836678214
40
0.930491836678214
40
0.984797006766789
40
0.984797006766789
40
1
40
1
40
1
40
1
41
1
10
10.9025574832019
20
1.90508455066316
30
0
41
1
10
10.9323597211965
20
1.90983057143313
30
0
41
1
10
10.9621650145546
20
1.91438161736238
30
0
41
1
10
11.2136072751812
20
1.9511231877311
30
0
41
1
10
11.4351761746651
20
1.97272572006977
30
0
41
1
10
11.8813299012785
20
1.99269676559024
30
0
41
1
10
12.1067598781191
20
1.99105272698117
30
0
41
1
10
12.5527380565353
20
1.96475296203414
30
0
41
1
10
12.7739616232819
20
1.93997364667172
30
0
41
1
10
13.2166129102258
20
1.86885104697481
30
0
41
1
10
13.4381646898992
20
1.82277126332093
30
0
41
1
10
13.8817472973275
20
1.70971592161899
30
-1E-16
41
1
10
14.1036095115159
20
1.64242775583358
30
-1E-16
41
1
10
14.4389477310294
20
1.52716387801783
30
-1E-16
41
1
10
14.5513978423451
20
1.48635663690823
30
-1E-16
41
1
10
14.775069937699
20
1.40090363097824
30
-1E-16
41
1
10
14.8865229610938
20
1.35618153242737
30
-1E-16
41
1
10
15.2202537931494
20
1.21682375656883
30
-1E-16
41
1
10
15.4417960986973
20
1.11686477876753
30
-1E-16
41
1
10
15.8842773080252
20
0.904867740106255
30
-1E-16
41
1
10
16.1050615080306
20
0.792533599324031
30
0
41
1
10
16.5488497855487
20
0.5603095191303
30
0
41
1
10
16.7720559991709
20
0.440870346636871
30
0
41
1
10
17.2209015376852
20
0.194637890888657
30
0
41
1
10
17.443260682235
20
0.0695561065117261
30
0
41
1
10
17.8869979646796
20
-0.177562493299433
30
0
41
1
10
18.108642610476
20
-0.29933625626694
30
0
41
1
10
18.5510998727247
20
-0.540067275326265
30
0
41
1
10
18.7718857783064
20
-0.659027503446765
30
0
41
1
10
19.1052353031204
20
-0.830311206800531
30
1E-16
41
1
10
19.2167298794413
20
-0.886191705068512
30
1E-16
41
1
10
19.4404755988638
20
-0.995521035624478
30
1E-16
41
1
10
19.5529118041628
20
-1.04907495117166
30
1E-16
41
1
10
19.8891290993584
20
-1.20493278418013
30
1E-16
41
1
10
20.1122858515428
20
-1.30257758611199
30
1E-16
41
1
10
20.5592857019254
20
-1.48151279038115
30
1E-16
41
1
10
20.7835322548589
20
-1.5631588526455
30
1E-16
41
1
10
21.231522511319
20
-1.70600055614924
30
1E-16
41
1
10
21.4552446971201
20
-1.76756463099906
30
0
41
1
10
21.9027031875602
20
-1.87032828473389
30
0
41
1
10
22.1266062009222
20
-1.91152270001899
30
0
41
1
10
22.5722810420709
20
-1.96961418401466
30
0
41
1
10
22.7944030333217
20
-1.9872161518966
30
0
41
1
10
23.0775959265345
20
-1.99533686609146
30
0
41
1
10
23.1394733626875
20
-1.99621106113116
30
0
41
1
10
23.2013315694021
20
-1.99618610838453
30
0
0
SPLINE
5
DB
100
AcDbEntity
8
1
62
256
6
ByLayer
370
18
48
1
60
0
100
AcDbSpline
70
4
71
3
72
28
73
24
40
0
40
0
40
0
40
0
40
0.0430023263468703
40
0.0430023263468703
40
0.15411959716491
40
0.15411959716491
40
0.265236867982949
40
0.265236867982949
40
0.376354138800989
40
0.376354138800989
40
0.598588680437068
40
0.598588680437068
40
0.654147315846088
40
0.654147315846088
40
0.709705951255108
40
0.709705951255108
40
0.820823222073147
40
0.820823222073147
40
0.876381857482168
40
0.876381857482168
40
0.931940492891189
40
0.931940492891189
40
1
40
1
40
1
40
1
41
1
10
17.9523954041209
20
-0.213567096070193
30
0
41
1
10
17.8656805039713
20
-0.168255312549889
30
0
41
1
10
17.7790901854117
20
-0.122773488529305
30
0
41
1
10
17.4692623782642
20
0.040941999551336
30
0
41
1
10
17.2466104304785
20
0.159883682342155
30
0
41
1
10
16.7994529897194
20
0.393450044077298
30
0
41
1
10
16.5745495479485
20
0.508582170541928
30
0
41
1
10
16.1250074738595
20
0.732838199884924
30
0
41
1
10
15.9022148333473
20
0.840683594830466
30
-1E-16
41
1
10
15.2346368359086
20
1.14614381585483
30
-1E-16
41
1
10
14.7918053299235
20
1.32715854400163
30
-1E-16
41
1
10
14.2342342220249
20
1.51090850937834
30
-1E-16
41
1
10
14.1225349532673
20
1.54542249905987
30
-1E-16
41
1
10
13.8983323951506
20
1.6102252103517
30
0
41
1
10
13.7856153609795
20
1.64056420021117
30
0
41
1
10
13.4487809682595
20
1.72421382753544
30
0
41
1
10
13.2253133401725
20
1.77058877116201
30
0
41
1
10
12.8918881943248
20
1.82246128488669
30
0
41
1
10
12.7810614519091
20
1.83671625387004
30
0
41
1
10
12.5593058629882
20
1.86028569270334
30
0
41
1
10
12.4483610836852
20
1.86962641174134
30
0
41
1
10
12.2012732523504
20
1.8847707891544
30
0
41
1
10
12.0650820200587
20
1.88932427687391
30
0
41
1
10
11.9286415753082
20
1.88961716250125
30
0
0
SPLINE
5
DC
100
AcDbEntity
8
1
62
256
6
ByLayer
370
18
48
1
60
0
100
AcDbSpline
70
4
71
3
72
14
73
10
40
0
40
0
40
0
40
0
40
0.344056167453041
40
0.344056167453041
40
0.516084251179561
40
0.516084251179561
40
0.688112334906081
40
0.688112334906081
40
1
40
1
40
1
40
1
41
1
10
29.3103756154527
20
1.89967561647364
30
0
41
1
10
28.991248873613
20
1.90357867625477
30
0
41
1
10
28.6732833614735
20
1.88488896404527
30
0
41
1
10
28.1942678864177
20
1.82362348027541
30
0
41
1
10
28.0342549197011
20
1.79770949148764
30
0
41
1
10
27.7152064031946
20
1.7356532890378
30
0
41
1
10
27.5558590962993
20
1.69942201907006
30
0
41
1
10
27.1073875102666
20
1.58349237242669
30
-1E-16
41
1
10
26.8174476168305
20
1.49193626587686
30
-1E-16
41
1
10
26.5275171580341
20
1.38674093737359
30
-1E-16
0
SPLINE
5
DD
100
AcDbEntity
8
1
62
256
6
ByLayer
370
18
48
1
60
0
100
AcDbSpline
70
4
71
3
72
22
73
18
40
0
40
0
40
0
40
0
40
0.155568904515331
40
0.155568904515331
40
0.311137809030661
40
0.311137809030661
40
0.388922261288325
40
0.388922261288325
40
0.466706713545989
40
0.466706713545989
40
0.622275618061319
40
0.622275618061319
40
0.77784452257665
40
0.77784452257665
40
0.933413427091981
40
0.933413427091981
40
1
40
1
40
1
40
1
41
1
10
7.65073091768966
20
-0.722166356661916
30
0
41
1
10
7.87452232698436
20
-0.838429033545935
30
1E-16
41
1
10
8.09758638188137
20
-0.949126701095594
30
1E-16
41
1
10
8.54318651115764
20
-1.15833336222394
30
1E-16
41
1
10
8.76524754663737
20
-1.25749338340154
30
1E-16
41
1
10
9.09984244084814
20
-1.39413693991014
30
1E-16
41
1
10
9.21162619525859
20
-1.43768243815981
30
1E-16
41
1
10
9.43579785758718
20
-1.52062784319798
30
1E-16
41
1
10
9.54830565754435
20
-1.56005365461951
30
1E-16
41
1
10
9.88398334329838
20
-1.67082729862807
30
1E-16
41
1
10
10.10580403799
20
-1.73543872650231
30
0
41
1
10
10.5489259885238
20
-1.84317405265171
30
0
41
1
10
10.7703412203796
20
-1.88635169345656
30
0
41
1
10
11.2136072751812
20
-1.9511231877311
30
0
41
1
10
11.4351761746651
20
-1.97272572006977
30
0
41
1
10
11.7537343545559
20
-1.98698524438174
30
0
41
1
10
11.8496467637925
20
-1.98912869915523
30
0
41
1
10
11.9456143506049
20
-1.98915130829022
30
0
0
SPLINE
5
DE
100
AcDbEntity
8
1
62
256
6
ByLayer
370
18
48
1
60
0
100
AcDbSpline
70
4
71
3
72
28
73
24
40
0
40
0
40
0
40
0
40
0.0319819381204464
40
0.0319819381204464
40
0.128783744308403
40
0.128783744308403
40
0.225585550496359
40
0.225585550496359
40
0.322387356684315
40
0.322387356684315
40
0.370788259778293
40
0.370788259778293
40
0.419189162872271
40
0.419189162872271
40
0.515990969060227
40
0.515990969060227
40
0.612792775248184
40
0.612792775248184
40
0.709594581436138
40
0.709594581436138
40
0.806396387624092
40
0.806396387624092
40
1
40
1
40
1
40
1
41
1
10
22.128272442874
20
1.90787201671847
30
0
41
1
10
22.2020826867352
20
1.92004975765417
30
0
41
1
10
22.2758213113726
20
1.93097214252802
30
0
41
1
10
22.572281042071
20
1.96961418401466
30
0
41
1
10
22.7944030333217
20
1.98721615189657
30
0
41
1
10
23.2369075536211
20
1.99990521587179
30
0
41
1
10
23.4573534704422
20
1.99474109445217
30
0
41
1
10
23.9006403406051
20
1.96165436008903
30
0
41
1
10
24.1230554476577
20
1.933786903981
30
0
41
1
10
24.4587597867754
20
1.87490178938762
30
0
41
1
10
24.5709141117188
20
1.85233582003241
30
0
41
1
10
24.7939596953443
20
1.80208350745906
30
0
41
1
10
24.9051877435412
20
1.77440027066208
30
0
41
1
10
25.2383407699382
20
1.68415041021518
30
-1E-16
41
1
10
25.4596772974214
20
1.61436654484865
30
-1E-16
41
1
10
25.9017745709174
20
1.45671433055739
30
-1E-16
41
1
10
26.1225280238458
20
1.36874596029352
30
-1E-16
41
1
10
26.5665122860381
20
1.17842097372352
30
-1E-16
41
1
10
26.7899188486032
20
1.07547284080872
30
-1E-16
41
1
10
27.2377360221336
20
0.856618674922174
30
-1E-16
41
1
10
27.4598150626175
20
0.741769672323528
30
0
41
1
10
28.1253830111174
20
0.389442186758998
30
0
41
1
10
28.5666131599214
20
0.141477033386394
30
0
41
1
10
29.0121814187421
20
-0.107418145317268
30
0
0
SPLINE
5
DF
100
AcDbEntity
8
1
62
256
6
ByLayer
370
18
48
1
60
0
100
AcDbSpline
70
4
71
3
72
16
73
12
40
0
40
0
40
0
40
0
40
0.250000000000005
40
0.250000000000005
40
0.375000000000007
40
0.375000000000007
40
0.50000000000001
40
0.50000000000001
40
0.750000000000005
40
0.750000000000005
40
1
40
1
40
1
40
1
41
1
10
29.3159164039989
20
-1.89592571024329
30
0
41
1
10
29.3540619019138
20
-1.78877698627869
30
0
41
1
10
29.3920485748049
20
-1.68095053119549
30
0
41
1
10
29.4494528035131
20
-1.5189158093585
30
0
41
1
10
29.4686527980477
20
-1.46486570506784
30
0
41
1
10
29.5072393044275
20
-1.35677825051985
30
0
41
1
10
29.5264520765869
20
-1.30270481958081
30
0
41
1
10
29.5862980132484
20
-1.14110446458253
30
0
41
1
10
29.6282786620905
20
-1.03639360472698
30
0
41
1
10
29.7193959845583
20
-0.835073310565093
30
0
41
1
10
29.7691975210044
20
-0.737442278480529
30
0
41
1
10
29.8217084898735
20
-0.647794006476943
30
0
0
SPLINE
5
E0
100
AcDbEntity
8
1
62
256
6
ByLayer
370
18
48
1
60
0
100
AcDbSpline
70
4
71
3
72
10
73
6
40
0
40
0
40
0
40
0
40
0.5
40
0.5
40
1
40
1
40
1
40
1
41
1
10
29.3159164039992
20
1.89592571024332
30
0
41
1
10
29.3077597384411
20
1.90184946992124
30
0
41
1
10
29.3006683071558
20
1.90518096745166
30
0
41
1
10
29.288186357099
20
1.90664825120575
30
0
41
1
10
29.282801185478
20
1.90472903286817
30
0
41
1
10
29.278151529249
20
1.90035593671766
30
0
0
SPLINE
5
E1
100
AcDbEntity
8
1
62
256
6
ByLayer
370
18
48
1
60
0
100
AcDbSpline
70
4
71
3
72
26
73
22
40
0
40
0
40
0
40
0
40
0.125873320709627
40
0.125873320709627
40
0.18880998106444
40
0.18880998106444
40
0.251746641419254
40
0.251746641419254
40
0.377619962128881
40
0.377619962128881
40
0.503493282838508
40
0.503493282838508
40
0.629366603548135
40
0.629366603548135
40
0.69230326390295
40
0.69230326390295
40
0.755239924257765
40
0.755239924257765
40
0.881113244967395
40
0.881113244967395
40
1
40
1
40
1
40
1
41
1
10
29.0064952137446
20
0.175965929547345
30
0
41
1
10
28.784267514014
20
0.299912385457304
30
0
41
1
10
28.5622812738801
20
0.423217304600399
30
0
41
1
10
28.2273600188967
20
0.602597679791018
30
0
41
1
10
28.115858683388
20
0.661381262850711
30
0
41
1
10
27.8936134429258
20
0.777725376048579
30
0
41
1
10
27.7825762177155
20
0.834781297334104
30
-1E-16
41
1
10
27.4491208988126
20
1.00165117080672
30
-1E-16
41
1
10
27.2257595097746
20
1.10719107577395
30
-1E-16
41
1
10
26.7805423245052
20
1.30617951436255
30
-1E-16
41
1
10
26.5583119757472
20
1.39786707196492
30
-1E-16
41
1
10
26.1129826417586
20
1.56390855002735
30
-1E-16
41
1
10
25.8902843437113
20
1.63944495342034
30
-1E-16
41
1
10
25.5561617710995
20
1.73647486931674
30
0
41
1
10
25.4447823611625
20
1.76619637852832
30
0
41
1
10
25.2222484128374
20
1.82063524340978
30
0
41
1
10
25.1112952851505
20
1.84547807951782
30
0
41
1
10
24.7776911528891
20
1.91154350955452
30
0
41
1
10
24.5538569270396
20
1.94446386193656
30
0
41
1
10
24.1212884097612
20
1.98651786198909
30
0
41
1
10
23.9117172401226
20
1.99669851389061
30
0
41
1
10
23.7012367053611
20
1.99651592031813
30
0
0
SPLINE
5
E2
100
AcDbEntity
8
1
62
256
6
ByLayer
370
18
48
1
60
0
100
AcDbSpline
70
4
71
3
72
36
73
32
40
0
40
0
40
0
40
0
40
0.0796905375383347
40
0.0796905375383347
40
0.163355034125761
40
0.163355034125761
40
0.205187282419473
40
0.205187282419473
40
0.247019530713185
40
0.247019530713185
40
0.33068402730061
40
0.33068402730061
40
0.414348523888035
40
0.414348523888035
40
0.498013020475459
40
0.498013020475459
40
0.53984526876917
40
0.53984526876917
40
0.581677517062882
40
0.581677517062882
40
0.665342013650306
40
0.665342013650306
40
0.749006510237731
40
0.749006510237731
40
0.790838758531443
40
0.790838758531443
40
0.832671006825155
40
0.832671006825155
40
0.916335503412577
40
0.916335503412577
40
1
40
1
40
1
40
1
41
1
10
15.6136975337853
20
-1.2681696866554
30
1E-16
41
1
10
15.4018118426327
20
-1.35922002724308
30
1E-16
41
1
10
15.1894844092725
20
-1.44281536945141
30
1E-16
41
1
10
14.7538601658134
20
-1.59952527367361
30
1E-16
41
1
10
14.5313987058514
20
-1.67096851794901
30
1E-16
41
1
10
14.1972348229993
20
-1.76211685863933
30
0
41
1
10
14.0857707863744
20
-1.78995073385005
30
0
41
1
10
13.8632093917507
20
-1.84083159727982
30
0
41
1
10
13.7517057139294
20
-1.86365236617379
30
0
41
1
10
13.4169813060747
20
-1.92363544382937
30
0
41
1
10
13.1940471265871
20
-1.952285983168
30
0
41
1
10
12.7492880661942
20
-1.98720937914465
30
0
41
1
10
12.525922802533
20
-1.99307024805961
30
0
41
1
10
12.0794670441192
20
-1.98172347854609
30
0
41
1
10
11.8576191988965
20
-1.96433880308007
30
0
41
1
10
11.5234105221166
20
-1.92152417745578
30
0
41
1
10
11.411794050868
20
-1.90450513817373
30
0
41
1
10
11.1883670207169
20
-1.8648333679568
30
0
41
1
10
11.0769803053562
20
-1.84205707513681
30
0
41
1
10
10.7429774868599
20
-1.76614353408223
30
0
41
1
10
10.5200812504406
20
-1.70562974634109
30
1E-16
41
1
10
10.0744816213133
20
-1.56429341382113
30
1E-16
41
1
10
9.85128715828228
20
-1.48347257021848
30
1E-16
41
1
10
9.51683616899788
20
-1.35153076382446
30
1E-16
41
1
10
9.40534015922375
20
-1.3056744837325
30
1E-16
41
1
10
9.18285666672745
20
-1.20941923471298
30
1E-16
41
1
10
9.07159675037047
20
-1.15938089429852
30
1E-16
41
1
10
8.73688483049142
20
-1.00483736466057
30
1E-16
41
1
10
8.51340167067866
20
-0.895892103566524
30
1E-16
41
1
10
8.06873656031743
20
-0.667238246351246
30
0
41
1
10
7.84602183172743
20
-0.549133733878762
30
0
41
1
10
7.62183692236476
20
-0.429302178104734
30
0
0
SPLINE
5
E3
100
AcDbEntity
8
1
62
256
6
ByLayer
370
18
48
1
60
0
100
AcDbSpline
70
4
71
3
72
8
73
4
40
0
40
0
40
0
40
0
40
1
40
1
40
1
40
1
41
1
10
7.55512000032391
20
-1.89976959422782
30
0
41
1
10
7.55460559270944
20
-1.92613928295978
30
0
41
1
10
7.55409830999301
20
-1.95250971010017
30
0
41
1
10
7.55359811617228
20
-1.97888082769126
30
0
0
SPLINE
5
E4
100
AcDbEntity
8
1
62
256
6
ByLayer
370
18
48
1
60
0
100
AcDbSpline
70
4
71
3
72
8
73
4
40
0
40
0
40
0
40
0
40
1
40
1
40
1
40
1
41
1
10
29.9970889339952
20
0.141981768116352
30
0
41
1
10
30.0009827901122
20
0.0470240145341165
30
0
41
1
10
30.0009579997182
20
-0.0476285669391814
30
0
41
1
10
29.9970889339958
20
-0.141981768101886
30
0
0
SPLINE
5
E5
100
AcDbEntity
8
1
62
256
6
ByLayer
370
18
48
1
60
0
100
AcDbSpline
70
4
71
3
72
10
73
6
40
0
40
0
40
0
40
0
40
0.5
40
0.5
40
1
40
1
40
1
40
1
41
1
10
29.5758061759768
20
-0.268496063589566
30
0
41
1
10
29.5716644212694
20
-0.266938996347221
30
0
41
1
10
29.5687630165101
20
-0.266867612117125
30
0
41
1
10
29.5658704884627
20
-0.269761136452502
30
0
41
1
10
29.5658033602681
20
-0.272684988580522
30
0
41
1
10
29.5670427508708
20
-0.276989492762738
30
0
0
SPLINE
5
E6
100
AcDbEntity
8
1
62
256
6
ByLayer
370
18
48
1
60
0
100
AcDbSpline
70
4
71
3
72
8
73
4
40
0
40
0
40
0
40
0
40
1
40
1
40
1
40
1
41
1
10
29.5758061759718
20
-0.268496063585047
30
0
41
1
10
29.4747778274765
20
-0.103027743428498
30
0
41
1
10
29.3549097057071
20
0.0796136926238376
30
0
41
1
10
29.2141098948881
20
0.281335099369528
30
0
0
SPLINE
5
E7
100
AcDbEntity
8
1
62
256
6
ByLayer
370
18
48
1
60
0
100
AcDbSpline
70
4
71
3
72
8
73
4
40
0
40
0
40
0
40
0
40
1
40
1
40
1
40
1
41
1
10
29.9970889339952
20
0.141981768116352
30
0
41
1
10
29.9861473101881
20
0.104980793235086
30
0
41
1
10
29.9751378194964
20
0.0680017529242321
30
0
41
1
10
29.964060780827
20
0.0310445441131435
30
0
0
SPLINE
5
E8
100
AcDbEntity
8
1
62
256
6
ByLayer
370
18
48
1
60
0
100
AcDbSpline
70
4
71
3
72
14
73
10
40
0
40
0
40
0
40
0
40
0.601705710293983
40
0.601705710293983
40
0.834156204816841
40
0.834156204816841
40
0.977546065963578
40
0.977546065963578
40
1
40
1
40
1
40
1
41
1
10
29.1603625172366
20
-1.99946204906482
30
0
41
1
10
29.1852630341045
20
-1.98325172370761
30
0
41
1
10
29.21020720723
20
-1.96682948203326
30
0
41
1
10
29.2448982630522
20
-1.94374784228498
30
0
41
1
10
29.2545833833083
20
-1.93727778905574
30
0
41
1
10
29.2702535202853
20
-1.9267693723591
30
0
41
1
10
29.2762328368208
20
-1.92275023393412
30
0
41
1
10
29.2831408796575
20
-1.91809593494622
30
0
41
1
10
29.2840760124896
20
-1.91746565678369
30
0
41
1
10
29.2850109518374
20
-1.91683527581208
30
0
0
SPLINE
5
E9
100
AcDbEntity
8
1
62
256
6
ByLayer
370
18
48
1
60
0
100
AcDbSpline
70
4
71
3
72
8
73
4
40
0
40
0
40
0
40
0
40
1
40
1
40
1
40
1
41
1
10
29.8217084898736
20
0.647794006477142
30
0
41
1
10
29.8816824309539
20
0.479733564934548
30
0
41
1
10
29.9401497567444
20
0.311132063176103
30
0
41
1
10
29.9970889339952
20
0.141981768116352
30
0
0
SPLINE
5
EA
100
AcDbEntity
8
1
62
256
6
ByLayer
370
18
48
1
60
0
100
AcDbSpline
70
4
71
3
72
57
73
53
40
0
40
0
40
0
40
0
40
0.0101775458967164
40
0.0101775458967164
40
0.0300744678791132
40
0.0300744678791132
40
0.0499713898615099
40
0.0499713898615099
40
0.0698683118439067
40
0.0698683118439067
40
0.079816772835105
40
0.079816772835105
40
0.0823038880829047
40
0.0823038880829047
40
0.0835474457068044
40
0.0835474457068044
40
0.0841692245187543
40
0.0841692245187543
40
0.0847910033307042
40
0.0847910033307042
40
0.0897652338263033
40
0.0897652338263033
40
0.1096621558087
40
0.1096621558087
40
0.129559077791097
40
0.129559077791097
40
0.16935292175589
40
0.16935292175589
40
0.248940609685476
40
0.248940609685476
40
0.408115985544649
40
0.408115985544649
40
0.487703673474236
40
0.487703673474236
40
0.507600595456632
40
0.507600595456632
40
0.51754905644783
40
0.51754905644783
40
0.52252328694343
40
0.52252328694343
40
0.525010402191229
40
0.525010402191229
40
0.525632181003179
40
0.525632181003179
40
0.526253959815129
40
0.526253959815129
40
0.527497517439029
40
0.56729136140382
40
0.56729136140382
40
0.885642113122149
40
0.885642113122149
40
1
40
1
40
1
40
1
41
1
10
8.53215792924732
20
1.72458538950372
30
0
41
1
10
8.53081460435581
20
1.7054983116503
30
0
41
1
10
8.52886028067178
20
1.68619842910755
30
0
41
1
10
8.52156654580654
20
1.62836387967315
30
0
41
1
10
8.51502178600103
20
1.58903961582064
30
0
41
1
10
8.49736453901099
20
1.50978491035136
30
0
41
1
10
8.48628404348418
20
1.46969745906057
30
0
41
1
10
8.46079436201501
20
1.38796947285365
30
0
41
1
10
8.44614101346519
20
1.34644675727017
30
0
41
1
10
8.42000201249667
20
1.28370917279662
30
0
41
1
10
8.41069034867269
20
1.2626746010335
30
0
41
1
10
8.39838227994755
20
1.23618884976648
30
0
41
1
10
8.39588926762576
20
1.23088648217356
30
0
41
1
10
8.39210422508913
20
1.22292423682765
30
0
41
1
10
8.39036071756891
20
1.22051119992852
30
0
41
1
10
8.38927462542469
20
1.2161018033579
30
0
41
1
10
8.3901527935414
20
1.2144149472696
30
0
41
1
10
8.39211761884553
20
1.21154532449785
30
0
41
1
10
8.39328474689773
20
1.21019881889689
30
0
41
1
10
8.40409910578524
20
1.19843708104429
30
0
41
1
10
8.41542005812695
20
1.18956520694067
30
0
41
1
10
8.4705372352575
20
1.14411848762521
30
0
41
1
10
8.51619137284069
20
1.10960044365547
30
0
41
1
10
8.60731165915331
20
1.04044399996946
30
0
41
1
10
8.65309159493131
20
1.0061540054991
30
0
41
1
10
8.79067937695592
20
0.903607521991319
30
0
41
1
10
8.88274720254478
20
0.835686326461172
30
0
41
1
10
9.15922436891046
20
0.632362167861771
30
0
41
1
10
9.34380274359941
20
0.497212550670611
30
0
41
1
10
9.89706863528798
20
0.0912530956368869
30
0
41
1
10
10.265706044737
20
-0.179566424914498
30
0
41
1
10
10.8185464453928
20
-0.585227048671783
30
0
41
1
10
11.0030354128534
20
-0.72009872361707
30
0
41
1
10
11.2316187550692
20
-0.891067546316378
30
1E-16
41
1
10
11.2772301784912
20
-0.92537948050952
30
-1E-16
41
1
10
11.3450764595405
20
-0.977515295367851
30
-1E-16
41
1
10
11.3676150123481
20
-0.994983471898792
30
-1E-16
41
1
10
11.4009117869263
20
-1.02173592955305
30
0
41
1
10
11.4119727715369
20
-1.03071943063193
30
0
41
1
10
11.42796393608
20
-1.044760544273
30
0
41
1
10
11.4335845210529
20
-1.04934456391953
30
0
41
1
10
11.43875918412
20
-1.05625202047986
30
0
41
1
10
11.4399710178884
20
-1.05836196161405
30
0
41
1
10
11.4372280150417
20
-1.05965059013494
30
0
41
1
10
11.4353660540375
20
-1.05921081110677
30
0
41
1
10
11.4302950484409
20
-1.05861066034612
30
0
41
1
10
11.3187364597192
20
-1.04539308704551
30
0
41
1
10
11.207298240449
20
-1.03175124984969
30
0
41
1
10
10.2358104942955
20
-0.909087538400939
30
-1E-16
41
1
10
9.38012985419905
20
-0.774399558623259
30
0
41
1
10
8.22785308637614
20
-0.555303323891849
30
0
41
1
10
7.92432124551419
20
-0.493978374010624
30
0
41
1
10
7.62181060837298
20
-0.429280115272348
30
0
0
SPLINE
5
EB
100
AcDbEntity
8
1
62
256
6
ByLayer
370
18
48
1
60
0
100
AcDbSpline
70
4
71
3
72
8
73
4
40
0
40
0
40
0
40
0
40
1
40
1
40
1
40
1
41
1
10
29.1520865265931
20
-1.97286060752174
30
0
41
1
10
29.1552450844652
20
-1.98840964995819
30
0
41
1
10
29.1580058586437
20
-1.99738617000898
30
0
41
1
10
29.1603625172231
20
-1.99946204907403
30
0
0
SPLINE
5
EC
100
AcDbEntity
8
1
62
256
6
ByLayer
370
18
48
1
60
0
100
AcDbSpline
70
4
71
3
72
40
73
36
40
0
40
0
40
0
40
0
40
0.0624999999999954
40
0.0624999999999954
40
0.124999999999991
40
0.124999999999991
40
0.156249999999991
40
0.156249999999991
40
0.187499999999992
40
0.187499999999992
40
0.249999999999992
40
0.249999999999992
40
0.312499999999993
40
0.312499999999993
40
0.374999999999994
40
0.374999999999994
40
0.437499999999995
40
0.437499999999995
40
0.499999999999995
40
0.499999999999995
40
0.562499999999996
40
0.562499999999996
40
0.624999999999997
40
0.624999999999997
40
0.687499999999997
40
0.687499999999997
40
0.718749999999997
40
0.718749999999997
40
0.749999999999998
40
0.749999999999998
40
0.812499999999998
40
0.812499999999998
40
0.874999999999999
40
0.874999999999999
40
1
40
1
40
1
40
1
41
1
10
29.6640791666342
20
-0.375488464008242
30
0
41
1
10
29.6695691506433
20
-0.403622032966666
30
0
41
1
10
29.6711391401723
20
-0.43766874666207
30
0
41
1
10
29.6652497556476
20
-0.512208424778066
30
0
41
1
10
29.6576939764333
20
-0.553501804249777
30
0
41
1
10
29.6413897580842
20
-0.614565321946344
30
0
41
1
10
29.635052071983
20
-0.635145837340559
30
0
41
1
10
29.6214076325787
20
-0.67478468684709
30
0
41
1
10
29.6140641316726
20
-0.694024119719529
30
0
41
1
10
29.590710417887
20
-0.750143818138355
30
0
41
1
10
29.5740371380759
20
-0.783902906165537
30
0
41
1
10
29.5404946308379
20
-0.842782160569953
30
0
41
1
10
29.5237681067863
20
-0.867598675959499
30
0
41
1
10
29.4918558362896
20
-0.906567570164384
30
1E-16
41
1
10
29.4768092128698
20
-0.920645537516634
30
-1E-16
41
1
10
29.4482628422798
20
-0.937687426602366
30
-1E-16
41
1
10
29.435368766882
20
-0.940304737302682
30
-1E-16
41
1
10
29.4116258123057
20
-0.933502484532255
30
-1E-16
41
1
10
29.4011095396301
20
-0.924034645099653
30
-1E-16
41
1
10
29.3829204167442
20
-0.893117020813946
30
1E-16
41
1
10
29.3752082630939
20
-0.871435452394564
30
1E-16
41
1
10
29.3634905486397
20
-0.817812760131574
30
1E-16
41
1
10
29.3593389703376
20
-0.785062302602569
30
0
41
1
10
29.3558737918553
20
-0.712749145021121
30
0
41
1
10
29.3565381548738
20
-0.671965608481599
30
0
41
1
10
29.3621008818911
20
-0.609988977051756
30
0
41
1
10
29.3647597465968
20
-0.588712026595033
30
0
41
1
10
29.371637977135
20
-0.547026940514485
30
0
41
1
10
29.3758249408029
20
-0.526661975641559
30
0
41
1
10
29.3907940562398
20
-0.467014527038316
30
0
41
1
10
29.4038336955674
20
-0.430271639140813
30
0
41
1
10
29.4341430015367
20
-0.367455932993693
30
0
41
1
10
29.4511225229409
20
-0.341766111069148
30
0
41
1
10
29.5042330588777
20
-0.281915922309935
30
0
41
1
10
29.5422079948034
20
-0.264824294238053
30
0
41
1
10
29.5758061759703
20
-0.268496063588117
30
0
0
SPLINE
5
ED
100
AcDbEntity
8
1
62
256
6
ByLayer
370
18
48
1
60
0
100
AcDbSpline
70
4
71
3
72
28
73
24
40
0
40
0
40
0
40
0
40
0.0126490359011375
40
0.0126490359011375
40
0.12458723326005
40
0.12458723326005
40
0.180556331939506
40
0.180556331939506
40
0.236525430618962
40
0.236525430618962
40
0.348463627977874
40
0.348463627977874
40
0.404432726657331
40
0.404432726657331
40
0.460401825336789
40
0.460401825336789
40
0.684278220054619
40
0.684278220054619
40
0.796216417413533
40
0.796216417413533
40
0.908154614772448
40
0.908154614772448
40
1
40
1
40
1
40
1
41
1
10
11.5965116015591
20
1.89055578154725
30
0
41
1
10
11.6217609251978
20
1.89191649256884
30
0
41
1
10
11.6469976436822
20
1.89312489687566
30
0
41
1
10
11.8954697672755
20
1.90346355561655
30
0
41
1
10
12.1178818713591
20
1.90053887674839
30
0
41
1
10
12.4508661233155
20
1.88093430813268
30
0
41
1
10
12.5617527573964
20
1.87185108543341
30
0
41
1
10
12.7833879487151
20
1.8487687881277
30
0
41
1
10
12.8941553978103
20
1.83474945046152
30
0
41
1
10
13.2274194908096
20
1.78355598230749
30
0
41
1
10
13.4507817396343
20
1.73755368238071
30
0
41
1
10
13.7874591303292
20
1.65434443818287
30
0
41
1
10
13.9001332742089
20
1.62413146756054
30
0
41
1
10
14.1242474533098
20
1.55954152061707
30
-1E-16
41
1
10
14.2359001639519
20
1.52512191246026
30
-1E-16
41
1
10
14.7932468842388
20
1.34178701047628
30
-1E-16
41
1
10
15.235846358128
20
1.16076055548683
30
-1E-16
41
1
10
15.9030784266444
20
0.854849885529802
30
-1E-16
41
1
10
16.125750400795
20
0.746767556858117
30
0
41
1
10
16.5750768866966
20
0.5219186532604
30
0
41
1
10
16.7999356401479
20
0.406375424618716
30
0
41
1
10
17.2067847363072
20
0.192912508851578
30
0
41
1
10
17.3895191291722
20
0.0952102682742861
30
0
41
1
10
17.5725445587098
20
-0.0022910027209093
30
0
0
SPLINE
5
EE
100
AcDbEntity
8
1
62
256
6
ByLayer
370
18
48
1
60
0
100
AcDbSpline
70
4
71
3
72
8
73
4
40
0
40
0
40
0
40
0
40
1
40
1
40
1
40
1
41
1
10
29.0121814187418
20
-0.107418145317098
30
0
41
1
10
29.0269095555122
20
-0.114020000083997
30
0
41
1
10
29.0415668125928
20
-0.120201816090969
30
0
41
1
10
29.0561629549107
20
-0.125971461891396
30
0
0
SPLINE
5
EF
100
AcDbEntity
8
1
62
256
6
ByLayer
370
18
48
1
60
0
100
AcDbSpline
70
4
71
3
72
16
73
12
40
0
40
0
40
0
40
0
40
0.375305472554805
40
0.375305472554805
40
0.562958208832177
40
0.562958208832177
40
0.750610945109548
40
0.750610945109548
40
0.93826368138692
40
0.93826368138692
40
1
40
1
40
1
40
1
41
1
10
29.214109894888
20
0.281335099369585
30
0
41
1
10
29.1910036024437
20
0.301301327917827
30
0
41
1
10
29.1691480071383
20
0.319618594691946
30
0
41
1
10
29.1393541510802
20
0.343152987419472
30
0
41
1
10
29.1299583351844
20
0.350291803796381
30
0
41
1
10
29.1123403420808
20
0.363022071266442
30
0
41
1
10
29.104203147726
20
0.368499184237237
30
0
41
1
10
29.0878023835797
20
0.379633447791861
30
0
41
1
10
29.0801154208888
20
0.384586858142143
30
0
41
1
10
29.0714902266367
20
0.389268417681365
30
0
41
1
10
29.06947008777
20
0.390282704750575
30
0
41
1
10
29.06760169117
20
0.391117499712891
30
0
0
SPLINE
5
F0
100
AcDbEntity
8
1
62
256
6
ByLayer
370
18
48
1
60
0
100
AcDbSpline
70
4
71
3
72
8
73
4
40
0
40
0
40
0
40
0
40
1
40
1
40
1
40
1
41
1
10
7.55359811617248
20
1.97888082768066
30
0
41
1
10
7.52231205219712
20
1.98036979098327
30
0
41
1
10
7.50212027136286
20
1.98299072744666
30
0
41
1
10
7.50204205773798
20
1.98453626220132
30
0
0
SPLINE
5
F1
100
AcDbEntity
8
1
62
256
6
ByLayer
370
18
48
1
60
0
100
AcDbSpline
70
4
71
3
72
20
73
16
40
0
40
0
40
0
40
0
40
0.250000000000018
40
0.250000000000018
40
0.375000000000015
40
0.375000000000015
40
0.500000000000012
40
0.500000000000012
40
0.625000000000009
40
0.625000000000009
40
0.750000000000006
40
0.750000000000006
40
0.875000000000003
40
0.875000000000003
40
1
40
1
40
1
40
1
41
1
10
29.964060780827
20
0.0310445441131435
30
0
41
1
10
29.9468369861574
20
-0.0264205776690005
30
0
41
1
10
29.9256722069224
20
-0.0825359112573096
30
0
41
1
10
29.8887011565924
20
-0.161963072129424
30
0
41
1
10
29.8758091933148
20
-0.18698814638384
30
0
41
1
10
29.8489496030458
20
-0.234010643194637
30
0
41
1
10
29.834770792952
20
-0.256294662042421
30
0
41
1
10
29.8063736793234
20
-0.295758907836955
30
0
41
1
10
29.7922353438992
20
-0.312915145752186
30
0
41
1
10
29.7640400357407
20
-0.341942313842679
30
0
41
1
10
29.7499887263287
20
-0.35370740430551
30
0
41
1
10
29.7233654258918
20
-0.370560786884994
30
0
41
1
10
29.7104633269063
20
-0.375893770298319
30
0
41
1
10
29.6861257743799
20
-0.380219443620462
30
0
41
1
10
29.6747862813599
20
-0.37926603842169
30
0
41
1
10
29.6640791666353
20
-0.375488464006707
30
0
0
SPLINE
5
F2
100
AcDbEntity
8
1
62
256
6
ByLayer
370
18
48
1
60
0
100
AcDbSpline
70
4
71
3
72
38
73
34
40
0
40
0
40
0
40
0
40
0.0248866010660675
40
0.0248866010660675
40
0.0672828358023269
40
0.0672828358023269
40
0.152075305274844
40
0.152075305274844
40
0.236867774747362
40
0.236867774747362
40
0.27926400948362
40
0.27926400948362
40
0.321660244219878
40
0.321660244219878
40
0.406452713692396
40
0.406452713692396
40
0.448848948428654
40
0.448848948428654
40
0.491245183164913
40
0.491245183164913
40
0.660830122109944
40
0.660830122109944
40
0.703226356846201
40
0.703226356846201
40
0.745622591582459
40
0.745622591582459
40
0.830415061054973
40
0.830415061054973
40
0.915207530527488
40
0.915207530527488
40
0.957603765263744
40
0.957603765263744
40
1
40
1
40
1
40
1
41
1
10
17.9922699308932
20
1.99294660275831
30
0
41
1
10
18.0850484473717
20
1.99293368692395
30
0
41
1
10
18.1780195895638
20
1.99091291034944
30
0
41
1
10
18.4300862955022
20
1.97994987142664
30
0
41
1
10
18.5894624136782
20
1.96709877517444
30
0
41
1
10
19.0641174247442
20
1.91170595373205
30
0
41
1
10
19.3781540793925
20
1.85229331315566
30
0
41
1
10
20.0062332785441
20
1.69238558100832
30
-1E-16
41
1
10
20.3202780470319
20
1.59185438446485
30
-1E-16
41
1
10
20.7953734630366
20
1.41358092299103
30
-1E-16
41
1
10
20.9549485255744
20
1.34934281107695
30
-1E-16
41
1
10
21.272133395978
20
1.21406852559011
30
-1E-16
41
1
10
21.4300016579199
20
1.14295574975526
30
-1E-16
41
1
10
21.9023994285749
20
0.920796807082667
30
-1E-16
41
1
10
22.2157282150792
20
0.76092983876606
30
0
41
1
10
22.6872930261214
20
0.51018941325168
30
0
41
1
10
22.8447428210942
20
0.424787972682964
30
0
41
1
10
23.1607877145854
20
0.251402924240835
30
0
41
1
10
23.3197167552947
20
0.16322345120696
30
0
41
1
10
24.1149652722794
20
-0.279539980268765
30
0
41
1
10
24.7377232023576
20
-0.630529886357749
30
0
41
1
10
25.5260891183183
20
-1.01833203573642
30
1E-16
41
1
10
25.6842254265924
20
-1.09340800482806
30
1E-16
41
1
10
26.0020519115801
20
-1.23749101998146
30
1E-16
41
1
10
26.1611072246798
20
-1.30617811206841
30
1E-16
41
1
10
26.6351123830133
20
-1.49892089092859
30
1E-16
41
1
10
26.9487598585447
20
-1.61044765335566
30
1E-16
41
1
10
27.5766150256551
20
-1.7942912763977
30
0
41
1
10
27.890737912343
20
-1.866708244731
30
0
41
1
10
28.3659905432009
20
-1.94231626172481
30
0
41
1
10
28.5253888189169
20
-1.96200845938367
30
0
41
1
10
28.8430546314864
20
-1.9895356961411
30
0
41
1
10
29.0016586277166
20
-1.99744679688587
30
0
41
1
10
29.1603625172368
20
-1.99946204907397
30
0
0
SPLINE
5
F3
100
AcDbEntity
8
1
62
256
6
ByLayer
370
18
48
1
60
0
100
AcDbSpline
70
4
71
3
72
8
73
4
40
0
40
0
40
0
40
0
40
1
40
1
40
1
40
1
41
1
10
29.3103756154256
20
1.8996756165746
30
0
41
1
10
29.3122224778599
20
1.89842594562242
30
0
41
1
10
29.3140694070337
20
1.8971759768063
30
0
41
1
10
29.3159164039992
20
1.89592571024332
30
0
0
SPLINE
5
F4
100
AcDbEntity
8
1
62
256
6
ByLayer
370
18
48
1
60
0
100
AcDbSpline
70
4
71
3
72
8
73
4
40
0
40
0
40
0
40
0
40
1
40
1
40
1
40
1
41
1
10
29.1520865265947
20
-1.97286060751981
30
0
41
1
10
29.1939678721648
20
-1.94933635794106
30
0
41
1
10
29.2359804479037
20
-1.92516217064897
30
0
41
1
10
29.278151529249
20
-1.90035593671763
30
0
0
SPLINE
5
F5
100
AcDbEntity
8
1
62
256
6
ByLayer
370
18
48
1
60
0
100
AcDbSpline
70
4
71
3
72
26
73
22
40
0
40
0
40
0
40
0
40
0.500064045326849
40
0.500064045326849
40
0.693248408767635
40
0.693248408767635
40
0.812416488436639
40
0.812416488436639
40
0.886252776621335
40
0.886252776621335
40
0.932092784346095
40
0.932092784346095
40
0.960538161541807
40
0.960538161541807
40
0.978171155247359
40
0.978171155247359
40
0.988962655670183
40
0.988962655670183
40
0.995384853108257
40
0.995384853108257
40
1
40
1
40
1
40
1
41
1
10
29.1603625172334
20
1.99946204906698
30
0
41
1
10
29.1852630341023
20
1.98325172370906
30
0
41
1
10
29.2102072072289
20
1.966829482034
30
0
41
1
10
29.244898263052
20
1.94374784228512
30
0
41
1
10
29.2545833833079
20
1.937277789056
30
0
41
1
10
29.2702535202847
20
1.92676937235945
30
0
41
1
10
29.2762328368203
20
1.92275023393444
30
0
41
1
10
29.2859062876716
20
1.91623273924441
30
0
41
1
10
29.289604464329
20
1.9137374621983
30
0
41
1
10
29.2955912684644
20
1.90969194319456
30
0
41
1
10
29.297882671454
20
1.90814211454335
30
0
41
1
10
29.3015922790219
20
1.90563066857155
30
0
41
1
10
29.3030118858617
20
1.90466900988002
30
0
41
1
10
29.3053098388665
20
1.90311140850039
30
0
41
1
10
29.3061865217049
20
1.90251689843529
30
0
41
1
10
29.3076151478218
20
1.90154808683116
30
0
41
1
10
29.3081658746694
20
1.9011747191706
30
0
41
1
10
29.3090524992294
20
1.90057375324247
30
0
41
1
10
29.3093842164788
20
1.9003489066213
30
0
41
1
10
29.3099387243426
20
1.89997266692475
30
0
41
1
10
29.3101670856713
20
1.8998176023394
30
0
41
1
10
29.3103756154252
20
1.89967561657545
30
0
0
SPLINE
5
F6
100
AcDbEntity
8
1
62
256
6
ByLayer
370
18
48
1
60
0
100
AcDbSpline
70
4
71
3
72
21
73
17
40
0
40
0
40
0
40
0
40
0.0922428178368559
40
0.0922428178368559
40
0.221922415288734
40
0.221922415288734
40
0.351602012740611
40
0.351602012740611
40
0.481281610192489
40
0.481281610192489
40
0.610961207644367
40
0.610961207644367
40
0.740640805096245
40
0.870320402548122
40
0.870320402548122
40
1
40
1
40
1
40
1
41
1
10
7.50204203352448
20
-1.9863853711862
30
0
41
1
10
7.50204204904381
20
-1.98635652896701
30
0
41
1
10
7.50204206374886
20
-1.9825333396052
30
0
41
1
10
7.50204209723097
20
-1.96447839807425
30
0
41
1
10
7.50204211539938
20
-1.94669040038761
30
0
41
1
10
7.50204215147483
20
-1.89654458445685
30
0
41
1
10
7.50204216953949
20
-1.86382703997825
30
0
41
1
10
7.50204220759338
20
-1.7855151015153
30
0
41
1
10
7.50204222768627
20
-1.73987503716231
30
0
41
1
10
7.5020422731713
20
-1.63576280098076
30
1E-16
41
1
10
7.50204229878679
20
-1.57679337890653
30
1E-16
41
1
10
7.50204235735191
20
-1.44773882728515
30
1E-16
41
1
10
7.50204242277704
20
-1.30868365031537
30
1E-16
41
1
10
7.50204250479015
20
-1.15017431066804
30
1E-16
41
1
10
7.50204259526839
20
-0.98154653326435
30
1E-16
41
1
10
7.50204264399108
20
-0.893599313417468
30
1E-16
41
1
10
7.50204269444606
20
-0.802457371182584
30
0
0
SPLINE
5
F7
100
AcDbEntity
8
1
62
256
6
ByLayer
370
18
48
1
60
0
100
AcDbSpline
70
4
71
3
72
64
73
60
40
0
40
0
40
0
40
0
40
0.0353407378309215
40
0.0353407378309215
40
0.0818105226317341
40
0.0818105226317341
40
0.10504541503214
40
0.10504541503214
40
0.128280307432546
40
0.128280307432546
40
0.174750092233356
40
0.174750092233356
40
0.221219877034166
40
0.221219877034166
40
0.244454769434571
40
0.244454769434571
40
0.267689661834976
40
0.267689661834976
40
0.314159446635785
40
0.314159446635785
40
0.360629231436594
40
0.360629231436594
40
0.407099016237403
40
0.407099016237403
40
0.430333908637809
40
0.430333908637809
40
0.453568801038214
40
0.453568801038214
40
0.476803693438619
40
0.476803693438619
40
0.500038585839024
40
0.500038585839024
40
0.546508370639833
40
0.546508370639833
40
0.569743263040238
40
0.569743263040238
40
0.592978155440643
40
0.592978155440643
40
0.639447940241452
40
0.639447940241452
40
0.685917725042261
40
0.685917725042261
40
0.732387509843071
40
0.732387509843071
40
0.755622402243476
40
0.755622402243476
40
0.778857294643881
40
0.778857294643881
40
0.825327079444693
40
0.825327079444693
40
0.871796864245504
40
0.871796864245504
40
0.89503175664591
40
0.89503175664591
40
0.918266649046315
40
0.918266649046315
40
0.964736433847126
40
0.964736433847126
40
1
40
1
40
1
40
1
41
1
10
26.8432672689814
20
-1.27681381654702
30
1E-16
41
1
10
26.6740735386829
20
-1.3495989244247
30
1E-16
41
1
10
26.5049860232354
20
-1.41774970555394
30
1E-16
41
1
10
26.1129826417584
20
-1.56390855002741
30
1E-16
41
1
10
25.8902843437112
20
-1.63944495342037
30
1E-16
41
1
10
25.5561617710994
20
-1.73647486931679
30
0
41
1
10
25.4447823611624
20
-1.76619637852838
30
0
41
1
10
25.2222484128372
20
-1.82063524340981
30
0
41
1
10
25.1112952851503
20
-1.84547807951785
30
0
41
1
10
24.7776911528888
20
-1.91154350955455
30
0
41
1
10
24.5538569270393
20
-1.94446386193658
30
0
41
1
10
24.1089409370507
20
-1.98771827440299
30
0
41
1
10
23.8870875491607
20
-1.99785969254196
30
0
41
1
10
23.552635233363
20
-1.99563465876434
30
0
41
1
10
23.4408045058991
20
-1.99201770359821
30
0
41
1
10
23.2181619396795
20
-1.97890008750795
30
0
41
1
10
23.1070031473148
20
-1.96943679939594
30
0
41
1
10
22.7733902155247
20
-1.93262227740345
30
0
41
1
10
22.5506406950195
20
-1.89705618963242
30
0
41
1
10
22.1051030646642
20
-1.80321569775265
30
0
41
1
10
21.8822344077637
20
-1.74566469866196
30
0
41
1
10
21.4368750530116
20
-1.61178782952641
30
1E-16
41
1
10
21.2148593013751
20
-1.53424827533908
30
1E-16
41
1
10
20.8800250313662
20
-1.4059486675223
30
1E-16
41
1
10
20.7684784357666
20
-1.36132739648096
30
1E-16
41
1
10
20.5457394433209
20
-1.2681203651874
30
1E-16
41
1
10
20.4347550026891
20
-1.21922887758851
30
1E-16
41
1
10
20.2124332398381
20
-1.11841135713411
30
1E-16
41
1
10
20.1011754493282
20
-1.06638322745349
30
1E-16
41
1
10
19.8781768078463
20
-0.959558962603239
30
1E-16
41
1
10
19.7662553937004
20
-0.904799032414132
30
1E-16
41
1
10
19.4319923080887
20
-0.735873634367778
30
0
41
1
10
19.2100574821056
20
-0.618163785420165
30
0
41
1
10
18.8758829134912
20
-0.438520990031662
30
0
41
1
10
18.7643442947214
20
-0.378027173104243
30
0
41
1
10
18.5414855764615
20
-0.254858235751811
30
0
41
1
10
18.4299917894776
20
-0.192776794361862
30
0
41
1
10
18.0959493902774
20
-0.0068843463582482
30
0
41
1
10
17.873190947016
20
0.116558089558197
30
0
41
1
10
17.4282277443498
20
0.363692431004665
30
0
41
1
10
17.2047283147189
20
0.485694314792624
30
0
41
1
10
16.7589909102504
20
0.721114978701308
30
0
41
1
10
16.5372133997411
20
0.836445773290166
30
-1E-16
41
1
10
16.2026990482917
20
1.00001414444961
30
-1E-16
41
1
10
16.0908004758353
20
1.05307608448578
30
-1E-16
41
1
10
15.8676919186587
20
1.15605055388883
30
-1E-16
41
1
10
15.7565952429503
20
1.20630660939722
30
-1E-16
41
1
10
15.4229878097371
20
1.3508648926092
30
-1E-16
41
1
10
15.200081896601
20
1.43900306733747
30
-1E-16
41
1
10
14.7538601658127
20
1.59952527367383
30
-1E-16
41
1
10
14.5313987058507
20
1.67096851794923
30
-1E-16
41
1
10
14.1972348229985
20
1.76211685863953
30
0
41
1
10
14.0857707863737
20
1.78995073385022
30
0
41
1
10
13.86320939175
20
1.84083159727999
30
0
41
1
10
13.7517057139287
20
1.86365236617394
30
0
41
1
10
13.4169813060739
20
1.92363544382948
30
0
41
1
10
13.1940471265863
20
1.95228598316808
30
0
41
1
10
12.802915033671
20
1.98299847938563
30
0
41
1
10
12.6335948340286
20
1.98956891303206
30
0
41
1
10
12.4641977833452
20
1.98948807455935
30
0
0
SPLINE
5
F8
100
AcDbEntity
8
1
62
256
6
ByLayer
370
18
48
1
60
0
100
AcDbSpline
70
4
71
3
72
14
73
10
40
0
40
0
40
0
40
0
40
0.26711164939661
40
0.26711164939661
40
0.49731645024023
40
0.49731645024023
40
0.774881403460726
40
0.774881403460726
40
1
40
1
40
1
40
1
41
1
10
29.0561629549138
20
-0.12597146189475
30
0
41
1
10
29.056880840177
20
-0.126255231647548
30
0
41
1
10
29.0575838592228
20
-0.126920118191606
30
0
41
1
10
29.0587491324756
20
-0.128593545324804
30
0
41
1
10
29.059247195818
20
-0.129564309434187
30
0
41
1
10
29.0601948593267
20
-0.13197295611036
30
0
41
1
10
29.0606284205649
20
-0.133501954356689
30
0
41
1
10
29.0611846926034
20
-0.136461136419967
30
0
41
1
10
29.061356163647
20
-0.137889856460958
30
0
41
1
10
29.0614184218872
20
-0.139326603923138
30
0
0
SPLINE
5
F9
100
AcDbEntity
8
1
62
256
6
ByLayer
370
18
48
1
60
0
100
AcDbSpline
70
4
71
3
72
16
73
12
40
0
40
0
40
0
40
0
40
0.25
40
0.25
40
0.375
40
0.375
40
0.5
40
0.5
40
0.75
40
0.75
40
1
40
1
40
1
40
1
41
1
10
29.3159164039988
20
1.89592571024329
30
0
41
1
10
29.3540619019138
20
1.78877698627869
30
0
41
1
10
29.3920485748049
20
1.68095053119552
30
0
41
1
10
29.449452803513
20
1.51891580935859
30
0
41
1
10
29.4686527980477
20
1.46486570506792
30
0
41
1
10
29.5072393044275
20
1.35677825051997
30
0
41
1
10
29.5264520765868
20
1.3027048195809
30
0
41
1
10
29.5862980132484
20
1.14110446458267
30
0
41
1
10
29.6282786620906
20
1.03639360472693
30
0
41
1
10
29.7193959845584
20
0.835073310565093
30
0
41
1
10
29.7691975210044
20
0.737442278480557
30
0
41
1
10
29.8217084898735
20
0.647794006476943
30
0
0
SPLINE
5
FA
100
AcDbEntity
8
1
62
256
6
ByLayer
370
18
48
1
60
0
100
AcDbSpline
70
4
71
3
72
8
73
4
40
0
40
0
40
0
40
0
40
1
40
1
40
1
40
1
41
1
10
29.1520865265947
20
1.97286060751978
30
0
41
1
10
29.1939678721648
20
1.94933635794106
30
0
41
1
10
29.2359804479037
20
1.92516217064895
30
0
41
1
10
29.278151529249
20
1.9003559367176
30
0
0
SPLINE
5
FB
100
AcDbEntity
8
1
62
256
6
ByLayer
370
18
48
1
60
0
100
AcDbSpline
70
4
71
3
72
10
73
6
40
0
40
0
40
0
40
0
40
0.5
40
0.5
40
1
40
1
40
1
40
1
41
1
10
29.5670427508707
20
-0.276989492762738
30
0
41
1
10
29.5697757255226
20
-0.286481335603355
30
0
41
1
10
29.584233449694
20
-0.30229064709323
30
0
41
1
10
29.619657139289
20
-0.336694458672923
30
0
41
1
10
29.6412495206964
20
-0.355797799207466
30
0
41
1
10
29.664079166636
20
-0.375488464008129
30
0
0
SPLINE
5
FC
100
AcDbEntity
8
1
62
256
6
ByLayer
370
18
48
1
60
0
100
AcDbSpline
70
4
71
3
72
26
73
22
40
0
40
0
40
0
40
0
40
0.0900207614077938
40
0.0900207614077938
40
0.202336221628349
40
0.202336221628349
40
0.258493951738627
40
0.258493951738627
40
0.314651681848904
40
0.314651681848904
40
0.539282602290012
40
0.539282602290012
40
0.651598062510566
40
0.651598062510566
40
0.763913522731119
40
0.763913522731119
40
0.876228982951674
40
0.876228982951674
40
0.988544443172227
40
0.988544443172227
40
1
40
1
40
1
40
1
41
1
10
12.4852078343396
20
0.212322133156164
30
0
41
1
10
12.665238047566
20
0.117855475908328
30
0
41
1
10
12.8452300054969
20
0.0225889483974697
30
0
41
1
10
13.2507654809763
20
-0.19129247331395
30
0
41
1
10
13.476496539252
20
-0.309948413532027
30
0
41
1
10
13.8173337394048
20
-0.485279601322503
30
0
41
1
10
13.9313848700246
20
-0.543308016845117
30
0
41
1
10
14.1582219158621
20
-0.65692907948943
30
0
41
1
10
14.2712872524809
20
-0.712666022512138
30
0
41
1
10
14.8354859839363
20
-0.985091720796532
30
1E-16
41
1
10
15.2830415204639
20
-1.18278989432181
30
1E-16
41
1
10
15.958875303722
20
-1.43351281647401
30
1E-16
41
1
10
16.1849040812342
20
-1.50924035995689
30
1E-16
41
1
10
16.6404064048519
20
-1.64256447650675
30
0
41
1
10
16.8669769176818
20
-1.69938695005732
30
0
41
1
10
17.3191159623914
20
-1.79210189413487
30
0
41
1
10
17.544844033824
20
-1.82793562735154
30
0
41
1
10
17.9971565469158
20
-1.87741997162752
30
0
41
1
10
18.2240808388393
20
-1.89115199163973
30
0
41
1
10
18.4747229934586
20
-1.89351013950875
30
0
41
1
10
18.4979061876971
20
-1.89361033647103
30
0
41
1
10
18.5210753438683
20
-1.89359280249735
30
0
0
SPLINE
5
FD
100
AcDbEntity
8
SK1
62
256
6
ByLayer
370
18
48
1
60
0
100
AcDbSpline
70
4
71
3
72
12
73
8
40
0
40
0
40
0
40
0
40
0.25
40
0.25
40
0.5
40
0.5
40
1
40
1
40
1
40
1
41
1
10
-35.65
20
-2.11975826995536
30
-1E-16
41
1
10
-35.65
20
-2.11133626402295
30
-1E-16
41
1
10
-35.6543403470552
20
-2.09905750781871
30
-1E-16
41
1
10
-35.6670034572333
20
-2.0730995185443
30
-1E-16
41
1
10
-35.6754069618006
20
-2.05910810409134
30
-1E-16
41
1
10
-35.7033744297257
20
-2.01755466087974
30
-1E-16
41
1
10
-35.7260009806424
20
-1.98970191325196
30
-1E-16
41
1
10
-35.7500000000001
20
-1.96498634430333
30
-1E-16
0
SPLINE
5
FE
100
AcDbEntity
8
SK1
62
256
6
ByLayer
370
18
48
1
60
0
100
AcDbSpline
70
4
71
3
72
8
73
4
40
0
40
0
40
0
40
0
40
1
40
1
40
1
40
1
41
1
10
-35.8509618943233
20
-2.1985270987544
30
0
41
1
10
-35.8173588690915
20
-2.23332426827872
30
0
41
1
10
-35.7837025590613
20
-2.26807414667803
30
0
41
1
10
-35.7499999999999
20
-2.30278297831032
30
0
0
SPLINE
5
FF
100
AcDbEntity
8
SK1
62
256
6
ByLayer
370
18
48
1
60
0
100
AcDbSpline
70
4
71
3
72
10
73
6
40
0
40
0
40
0
40
0
40
0.5
40
0.5
40
1
40
1
40
1
40
1
41
1
10
-35.8509618943233
20
2.1985270987544
30
0
41
1
10
-35.8741904300927
20
2.16942032012332
30
0
41
1
10
-35.8986222732874
20
2.13750624285777
30
0
41
1
10
-35.9485161922248
20
2.06991294218946
30
0
41
1
10
-35.974056478015
20
2.03414178728849
30
0
41
1
10
-35.9999999999999
20
1.99662967913994
30
0
0
SPLINE
5
100
100
AcDbEntity
8
SK1
62
256
6
ByLayer
370
18
48
1
60
0
100
AcDbSpline
70
4
71
3
72
12
73
8
40
0
40
0
40
0
40
0
40
0.500000000000002
40
0.500000000000002
40
0.750000000000001
40
0.750000000000001
40
1
40
1
40
1
40
1
41
1
10
-35.75
20
2.3027829783104
30
0
41
1
10
-35.7259913046562
20
2.32750851214544
30
0
41
1
10
-35.7033433879313
20
2.35170388495848
30
0
41
1
10
-35.6754686754417
20
2.38230214817332
30
0
41
1
10
-35.667025596347
20
2.3917436738511
30
0
41
1
10
-35.6543350076412
20
2.40639855837807
30
0
41
1
10
-35.65
20
2.4117193814825
30
0
41
1
10
-35.65
20
2.4125153527614
30
0
0
SPLINE
5
101
100
AcDbEntity
8
SK1
62
256
6
ByLayer
370
18
48
1
60
0
100
AcDbSpline
70
4
71
3
72
12
73
8
40
0
40
0
40
0
40
0
40
0.499999999999998
40
0.499999999999998
40
0.749999999999999
40
0.749999999999999
40
1
40
1
40
1
40
1
41
1
10
-35.75
20
-2.3027829783104
30
0
41
1
10
-35.7259913046562
20
-2.32750851214544
30
0
41
1
10
-35.7033433879313
20
-2.35170388495848
30
0
41
1
10
-35.6754686754417
20
-2.38230214817332
30
0
41
1
10
-35.667025596347
20
-2.3917436738511
30
0
41
1
10
-35.6543350076412
20
-2.40639855837807
30
0
41
1
10
-35.65
20
-2.4117193814825
30
0
41
1
10
-35.65
20
-2.4125153527614
30
0
0
SPLINE
5
102
100
AcDbEntity
8
SK1
62
256
6
ByLayer
370
18
48
1
60
0
100
AcDbSpline
70
4
71
3
72
8
73
4
40
0
40
0
40
0
40
0
40
1
40
1
40
1
40
1
41
1
10
-35.75
20
-1.96498634430327
30
-1E-16
41
1
10
-35.7837021932866
20
-1.93027788936678
30
-1E-16
41
1
10
-35.8173584867877
20
-1.89552803016136
30
-1E-16
41
1
10
-35.8509618943233
20
-1.86073046474741
30
-1E-16
0
SPLINE
5
103
100
AcDbEntity
8
SK1
62
256
6
ByLayer
370
18
48
1
60
0
100
AcDbSpline
70
4
71
3
72
8
73
4
40
0
40
0
40
0
40
0
40
1
40
1
40
1
40
1
41
1
10
-36.0000000000001
20
-1.56286816777788
30
1E-16
41
1
10
-35.9478735570755
20
-1.66627304803586
30
1E-16
41
1
10
-35.897619057052
20
-1.76586855924708
30
1E-16
41
1
10
-35.8509618943233
20
-1.86073046474741
30
-1E-16
0
SPLINE
5
104
100
AcDbEntity
8
SK1
62
256
6
ByLayer
370
18
48
1
60
0
100
AcDbSpline
70
4
71
3
72
10
73
6
40
0
40
0
40
0
40
0
40
0.5
40
0.5
40
1
40
1
40
1
40
1
41
1
10
-35.8509618943233
20
-2.1985270987544
30
0
41
1
10
-35.8741904300927
20
-2.16942032012329
30
0
41
1
10
-35.8986222732874
20
-2.13750624285777
30
0
41
1
10
-35.9485161922248
20
-2.06991294218946
30
0
41
1
10
-35.974056478015
20
-2.03414178728849
30
0
41
1
10
-35.9999999999999
20
-1.99662967913994
30
0
0
SPLINE
5
105
100
AcDbEntity
8
SK1
62
256
6
ByLayer
370
18
48
1
60
0
100
AcDbSpline
70
4
71
3
72
8
73
4
40
0
40
0
40
0
40
0
40
1
40
1
40
1
40
1
41
1
10
-35.8509618943233
20
2.1985270987544
30
0
41
1
10
-35.8173588690915
20
2.23332426827872
30
0
41
1
10
-35.7837025590613
20
2.26807414667803
30
0
41
1
10
-35.7499999999999
20
2.30278297831032
30
0
0
SPLINE
5
106
100
AcDbEntity
8
1
62
256
6
ByLayer
370
18
48
1
60
0
100
AcDbSpline
70
4
71
2
72
6
73
3
40
0
40
0
40
0
40
1
40
1
40
1
41
1
10
17.5678763606786
20
0.0002179353474219
30
0
41
1
10
17.5678165630265
20
0.0002579777362826
30
0
41
1
10
17.5677567646271
20
0.0002996093163574
30
0
0
SPLINE
5
107
100
AcDbEntity
8
1
62
256
6
ByLayer
370
18
48
1
60
0
100
AcDbSpline
70
4
71
1
72
4
73
2
40
0
40
0
40
1
40
1
41
1
10
24.1176663961699
20
0.0004721481273293
30
0
41
1
10
24.1176547549594
20
0.0004623945647211
30
0
0
SPLINE
5
108
100
AcDbEntity
8
1
62
256
6
ByLayer
370
18
48
1
60
0
100
AcDbSpline
70
4
71
1
72
4
73
2
40
0
40
0
40
1
40
1
41
1
10
15.6204689661121
20
1.26678185037602
30
-1E-16
41
1
10
15.4985010476692
20
1.31733759576772
30
-1E-16
0
SPLINE
5
109
100
AcDbEntity
8
1
62
256
6
ByLayer
370
18
48
1
60
0
100
AcDbSpline
70
4
71
1
72
4
73
2
40
0
40
0
40
1
40
1
41
1
10
29.2850081978816
20
-1.91683727796533
30
0
41
1
10
29.316228390202
20
-1.89578699972819
30
0
0
SPLINE
5
10A
100
AcDbEntity
8
1
62
256
6
ByLayer
370
18
48
1
60
0
100
AcDbSpline
70
4
71
3
72
12
73
8
40
0
40
0
40
0
40
0
40
0.0893909736063673
40
0.23905367874339
40
0.403123368828031
40
0.654859565079798
40
1
40
1
40
1
40
1
41
1
10
29.069143409361
20
0.391339439582197
30
0
41
1
10
28.9996349873243
20
0.41682475033619
30
0
41
1
10
28.8139615223491
20
0.485547433219836
30
0
41
1
10
28.5020202394355
20
0.604700988341989
30
0
41
1
10
28.0655411807635
20
0.774501921677199
30
0
41
1
10
27.4805635971608
20
1.00916530115376
30
-1E-16
41
1
10
27.0242724331857
20
1.19958176024559
30
-1E-16
41
1
10
26.7612930354349
20
1.31187060378221
30
-1E-16
0
SPLINE
5
10B
100
AcDbEntity
8
1
62
256
6
ByLayer
370
18
48
1
60
0
100
AcDbSpline
70
4
71
1
72
4
73
2
40
0
40
0
40
1
40
1
41
1
10
29.6001002621406
20
-0.268720503649945
30
0
41
1
10
29.5724704264077
20
-0.262863710425819
30
0
0
SPLINE
5
10C
100
AcDbEntity
8
1
62
256
6
ByLayer
370
18
48
1
60
0
100
AcDbSpline
70
4
71
1
72
4
73
2
40
0
40
0
40
1
40
1
41
1
10
29.316228390202
20
1.89578699972819
30
0
41
1
10
29.2891546076274
20
1.91404155275205
30
0
0
SPLINE
5
10D
100
AcDbEntity
8
1
62
256
6
ByLayer
370
18
48
1
60
0
100
AcDbSpline
70
4
71
3
72
24
73
20
40
0
40
0
40
0
40
0
40
3.64080273903E-05
40
0.0001031980287495
40
0.0002246412063243
40
0.0003299246947713
40
0.0004267036755762
40
0.0010148840630139
40
0.001472171010536
40
0.0023014506743022
40
0.0038227944088368
40
0.0066685910100091
40
0.0121621031108506
40
0.0232849526481028
40
0.0473341495826845
40
0.281988162567274
40
0.498135460300958
40
0.719089884710723
40
1
40
1
40
1
40
1
41
1
10
18.9871277900945
20
-0.027902371912603
30
0
41
1
10
18.9871349464062
20
-0.0279027356271797
30
0
41
1
10
18.9871493379979
20
-0.0279017082762607
30
0
41
1
10
18.9871347107546
20
-0.0278835701478499
30
0
41
1
10
18.9869656691116
20
-0.0278107577319702
30
0
41
1
10
18.9867263731021
20
-0.0277144510714038
30
0
41
1
10
18.9859557297307
20
-0.0274246117470796
30
0
41
1
10
18.9845733543761
20
-0.0269496128007916
30
0
41
1
10
18.9824849514295
20
-0.0262103599893351
30
0
41
1
10
18.9792936548638
20
-0.0250895292341511
30
0
41
1
10
18.9734264848274
20
-0.0230253585341131
30
0
41
1
10
18.9622631739798
20
-0.0191063191006151
30
0
41
1
10
18.9402360992011
20
-0.011386139668474
30
0
41
1
10
18.8941653607488
20
0.0047212686192779
30
0
41
1
10
18.5882260608458
20
0.111467006870527
30
0
41
1
10
18.0498685456617
20
0.303052055435245
30
0
41
1
10
17.293221782887
20
0.587180529696923
30
0
41
1
10
16.4890742144791
20
0.902870377430986
30
-1E-16
41
1
10
15.9313480659881
20
1.13411848825385
30
-1E-16
41
1
10
15.6204689661121
20
1.26678185037602
30
-1E-16
0
SPLINE
5
10E
100
AcDbEntity
8
1
62
256
6
ByLayer
370
18
48
1
60
0
100
AcDbSpline
70
4
71
3
72
13
73
9
40
0
40
0
40
0
40
0
40
0.333791213528829
40
0.597086655507056
40
0.807037053639378
40
0.869082754916033
40
0.969750916028954
40
1
40
1
40
1
40
1
41
1
10
18.4948447963507
20
-1.89359306340077
30
0
41
1
10
18.8982284656678
20
-1.89341142739053
30
0
41
1
10
19.6198027860039
20
-1.89325692413368
30
0
41
1
10
20.5949714618948
20
-1.89503272459541
30
0
41
1
10
21.2419371257456
20
-1.89455233476505
30
0
41
1
10
21.6921951261469
20
-1.89356217244406
30
0
41
1
10
21.9253944549363
20
-1.89461290045125
30
0
41
1
10
22.0836182227009
20
-1.8950383286913
30
0
41
1
10
22.1201767143166
20
-1.89512292808337
30
0
0
SPLINE
5
10F
100
AcDbEntity
8
1
62
256
6
ByLayer
370
18
48
1
60
0
100
AcDbSpline
70
4
71
3
72
14
73
10
40
0
40
0
40
0
40
0
40
0.275159546362636
40
0.473412284963536
40
0.636179812021028
40
0.737383207317866
40
0.831443417749842
40
0.980886267628827
40
1
40
1
40
1
40
1
41
1
10
11.9420957730746
20
1.88960542338165
30
0
41
1
10
11.6011148127976
20
1.88917653355105
30
0
41
1
10
11.0144534290492
20
1.88848198906808
30
0
41
1
10
10.2260770559843
20
1.88858042895774
30
0
41
1
10
9.65327276920053
20
1.88747501504639
30
0
41
1
10
9.20959373597003
20
1.88812913372877
30
0
41
1
10
8.78239719144722
20
1.88754779027121
30
0
41
1
10
8.45708233227407
20
1.887347371472
30
0
41
1
10
8.24845565217947
20
1.88701078229303
30
0
41
1
10
8.22480027550461
20
1.88697006482502
30
0
0
SPLINE
5
110
100
AcDbEntity
8
1
62
256
6
ByLayer
370
18
48
1
60
0
100
AcDbSpline
70
4
71
3
72
15
73
11
40
0
40
0
40
0
40
0
40
0.179653324256884
40
0.318634324410091
40
0.450893471545865
40
0.529536330792751
40
0.605942448972747
40
0.682552641447974
40
0.939667195639053
40
1
40
1
40
1
40
1
41
1
10
23.1933787104321
20
1.89475761576415
30
0
41
1
10
22.9711187815186
20
1.89537164915075
30
0
41
1
10
22.5768773379074
20
1.89588109156656
30
0
41
1
10
22.0188086032907
20
1.89498542812262
30
0
41
1
10
21.5858232226458
20
1.89357461999731
30
0
41
1
10
21.2303485318243
20
1.89455227745557
30
0
41
1
10
20.9436592431296
20
1.89496463618275
30
0
41
1
10
20.4360716419635
20
1.89450346105741
30
0
41
1
10
19.9484782621014
20
1.89383363344837
30
0
41
1
10
19.5556481563668
20
1.89359649866046
30
0
41
1
10
19.4809874851986
20
1.89356138100021
30
0
0
SPLINE
5
111
100
AcDbEntity
8
1
62
256
6
ByLayer
370
18
48
1
60
0
100
AcDbSpline
70
4
71
3
72
14
73
10
40
0
40
0
40
0
40
0
40
0.213282191094024
40
0.383091953440221
40
0.499632205115323
40
0.621456980610262
40
0.730703588991769
40
0.840142318336035
40
1
40
1
40
1
40
1
41
1
10
7.60222433852002
20
-1.88538332168608
30
0
41
1
10
7.83603623144612
20
-1.88614155274954
30
0
41
1
10
8.25635776049108
20
-1.88723356872757
30
0
41
1
10
8.80564281841407
20
-1.88760994834607
30
0
41
1
10
9.25452122015332
20
-1.8881038500821
30
0
41
1
10
9.63676893017578
20
-1.88763311439143
30
0
41
1
10
10.0112160884506
20
-1.88759529222554
30
0
41
1
10
10.427476802608
20
-1.88925730045335
30
0
41
1
10
10.7235936636982
20
-1.88879573305758
30
0
41
1
10
10.8993730898551
20
-1.88862614999582
30
0
0
LINE
5
84
100
AcDbEntity
8
1
62
256
6
ByLayer
370
18
48
1
60
0
100
AcDbLine
10
0
20
3
30
0
11
0
21
0
31
0
39
0
210
0
220
0
230
1
0
LINE
5
85
100
AcDbEntity
8
1
62
256
6
ByLayer
370
18
48
1
60
0
100
AcDbLine
10
0
20
0
30
0
11
0
21
-3
31
0
39
0
210
0
220
0
230
1
0
LINE
5
86
100
AcDbEntity
8
1
62
256
6
ByLayer
370
18
48
1
60
0
100
AcDbLine
10
7.602234
20
-1.886541
30
0
11
7.602217
21
-1.878117
31
0
39
0
210
0
220
0
230
1
0
LINE
5
87
100
AcDbEntity
8
1
62
256
6
ByLayer
370
18
48
1
60
0
100
AcDbLine
10
7.502042
20
1.984538
30
0
11
7.502042
21
1.986386
31
0
39
0
210
0
220
0
230
1
0
LINE
5
88
100
AcDbEntity
8
1
62
256
6
ByLayer
370
18
48
1
60
0
100
AcDbLine
10
7.554642
20
-1.898536
30
0
11
7.55512
21
-1.89977
31
0
39
0
210
0
220
0
230
1
0
LINE
5
89
100
AcDbEntity
8
1
62
256
6
ByLayer
370
18
48
1
60
0
100
AcDbLine
10
29.964061
20
0.031045
30
0
11
29.481663
21
0.563528
31
0
39
0
210
0
220
0
230
1
0
LINE
5
8A
100
AcDbEntity
8
1
62
256
6
ByLayer
370
18
48
1
60
0
100
AcDbLine
10
14
20
-0.87884
30
0
11
14
21
-0.912831
31
0
39
0
210
0
220
0
230
1
0
LINE
5
8B
100
AcDbEntity
8
1
62
256
6
ByLayer
370
18
48
1
60
0
100
AcDbLine
10
0.745073
20
2.491318
30
0
11
0.745073
21
0
31
0
39
0
210
0
220
0
230
1
0
LINE
5
8C
100
AcDbEntity
8
1
62
256
6
ByLayer
370
18
48
1
60
0
100
AcDbLine
10
0.745073
20
0
30
0
11
0.745073
21
-2.491318
31
0
39
0
210
0
220
0
230
1
0
LINE
5
8D
100
AcDbEntity
8
1
62
256
6
ByLayer
370
18
48
1
60
0
100
AcDbLine
10
1.490646
20
1.982635
30
0
11
1.490646
21
0
31
0
39
0
210
0
220
0
230
1
0
LINE
5
8E
100
AcDbEntity
8
1
62
256
6
ByLayer
370
18
48
1
60
0
100
AcDbLine
10
1.490646
20
0
30
0
11
1.490646
21
-1.982635
31
0
39
0
210
0
220
0
230
1
0
LINE
5
8F
100
AcDbEntity
8
SK1
62
256
6
ByLayer
370
18
48
1
60
0
100
AcDbLine
10
-35.65
20
-2.415
30
0
11
-35.65
21
-2.119758
31
0
39
0
210
0
220
0
230
1
0
LINE
5
91
100
AcDbEntity
8
SK1
62
256
6
ByLayer
370
18
48
1
60
0
100
AcDbLine
10
-35.65
20
2.415
30
0
11
-35.65
21
2.412515
31
0
39
0
210
0
220
0
230
1
0
LINE
5
92
100
AcDbEntity
8
SK1
62
256
6
ByLayer
370
18
48
1
60
0
100
AcDbLine
10
-36
20
-1.99663
30
0
11
-36
21
-1.562816
31
0
39
0
210
0
220
0
230
1
0
LINE
5
93
100
AcDbEntity
8
SK1
62
256
6
ByLayer
370
18
48
1
60
0
100
AcDbLine
10
-36
20
1.99663
30
0
11
-36
21
-1.562868
31
0
39
0
210
0
220
0
230
1
0
LINE
5
94
100
AcDbEntity
8
SK1
62
256
6
ByLayer
370
18
48
1
60
0
100
AcDbLine
10
-35.75
20
-2.302783
30
0
11
-35.75
21
-1.964962
31
0
39
0
210
0
220
0
230
1
0
LINE
5
95
100
AcDbEntity
8
SK1
62
256
6
ByLayer
370
18
48
1
60
0
100
AcDbLine
10
-35.065
20
-3
30
0
11
-35.065
21
3
31
0
39
0
210
0
220
0
230
1
0
LINE
5
96
100
AcDbEntity
8
SK1
62
256
6
ByLayer
370
18
48
1
60
0
100
AcDbLine
10
-35.850962
20
-2.198527
30
0
11
-35.850962
21
-1.860721
31
0
39
0
210
0
220
0
230
1
0
LINE
5
97
100
AcDbEntity
8
SK1
62
256
6
ByLayer
370
18
48
1
60
0
100
AcDbLine
10
0
20
3
30
0
11
0
21
-3
31
0
39
0
210
0
220
0
230
1
0
LINE
5
98
100
AcDbEntity
8
1
62
256
6
ByLayer
370
18
48
1
60
0
100
AcDbLine
10
28.670535
20
0.07974
30
0
11
28.670455
21
0.081917
31
0
39
0
210
0
220
0
230
1
0
LINE
5
99
100
AcDbEntity
8
1
62
256
6
ByLayer
370
18
48
1
60
0
100
AcDbLine
10
1.490646
20
-1.982635
30
0
11
7.502042
21
-1.986392
31
0
39
0
210
0
220
0
230
1
0
LINE
5
9A
100
AcDbEntity
8
1
62
256
6
ByLayer
370
18
48
1
60
0
100
AcDbLine
10
11.943658
20
-1.989168
30
0
11
12.463822
21
-1.989494
31
0
39
0
210
0
220
0
230
1
0
LINE
5
9B
100
AcDbEntity
8
1
62
256
6
ByLayer
370
18
48
1
60
0
100
AcDbLine
10
17.987994
20
-1.992946
30
0
11
18.492832
21
-1.993262
31
0
39
0
210
0
220
0
230
1
0
LINE
5
9C
100
AcDbEntity
8
1
62
256
6
ByLayer
370
18
48
1
60
0
100
AcDbLine
10
23.195337
20
-1.996201
30
0
11
23.70108
21
-1.996517
31
0
39
0
210
0
220
0
230
1
0
LINE
5
9D
100
AcDbEntity
8
1
62
256
6
ByLayer
370
18
48
1
60
0
100
AcDbLine
10
23.70108
20
1.996517
30
0
11
23.195337
21
1.996201
31
0
39
0
210
0
220
0
230
1
0
LINE
5
9E
100
AcDbEntity
8
1
62
256
6
ByLayer
370
18
48
1
60
0
100
AcDbLine
10
18.492832
20
1.993262
30
0
11
17.987994
21
1.992946
31
0
39
0
210
0
220
0
230
1
0
LINE
5
9F
100
AcDbEntity
8
1
62
256
6
ByLayer
370
18
48
1
60
0
100
AcDbLine
10
12.463822
20
1.989494
30
0
11
11.943658
21
1.989168
31
0
39
0
210
0
220
0
230
1
0
LINE
5
A0
100
AcDbEntity
8
1
62
256
6
ByLayer
370
18
48
1
60
0
100
AcDbLine
10
7.502042
20
1.986392
30
0
11
1.490646
21
1.982635
31
0
39
0
210
0
220
0
230
1
0
LINE
5
A1
100
AcDbEntity
8
SK1
62
256
6
ByLayer
370
18
48
1
60
0
100
AcDbLine
10
-35.65
20
-2.415
30
0
11
-35.065
21
-3
31
0
39
0
210
0
220
0
230
1
0
LINE
5
A2
100
AcDbEntity
8
SK1
62
256
6
ByLayer
370
18
48
1
60
0
100
AcDbLine
10
-35.065
20
3
30
0
11
-35.65
21
2.415
31
0
39
0
210
0
220
0
230
1
0
LINE
5
A3
100
AcDbEntity
8
SK1
62
256
6
ByLayer
370
18
48
1
60
0
100
AcDbLine
10
-35.065
20
-3
30
0
11
0
21
-3
31
0
39
0
210
0
220
0
230
1
0
LINE
5
A4
100
AcDbEntity
8
SK1
62
256
6
ByLayer
370
18
48
1
60
0
100
AcDbLine
10
0
20
3
30
0
11
-35.065
21
3
31
0
39
0
210
0
220
0
230
1
0
LINE
5
A5
100
AcDbEntity
8
SK4
62
256
6
ByLayer
370
18
48
0.05
60
0
100
AcDbLine
10
35
20
0
30
0
11
-41
21
0
31
0
39
0
210
0
220
0
230
1
0
LINE
5
A7
100
AcDbEntity
8
4
62
256
6
ByLayer
370
18
48
0.05
60
0
100
AcDbLine
10
-36
20
0
30
0
11
35
21
0
31
0
39
0
210
0
220
0
230
1
0
LINE
5
A9
100
AcDbEntity
8
80
62
256
6
ByLayer
370
18
48
1
60
0
100
AcDbLine
10
0
20
0
30
0
11
-6
21
0
31
0
39
0
210
0
220
0
230
1
0
LINE
5
AA
100
AcDbEntity
8
81
62
256
6
ByLayer
370
18
48
1
60
0
100
AcDbLine
10
30
20
0
30
0
11
36
21
0
31
0
39
0
210
0
220
0
230
1
0
LINE
5
AB
100
AcDbEntity
8
SK2
62
256
6
ByLayer
370
13
48
1
60
0
100
AcDbLine
10
30.54293
20
1.491772
30
0
11
37.925928
21
21.777518
31
0
39
0
210
0
220
0
230
1
0
LINE
5
AD
100
AcDbEntity
8
SK2
62
256
6
ByLayer
370
13
48
1
60
0
100
AcDbLine
10
30.54293
20
-1.491772
30
0
11
37.925928
21
-21.777518
31
0
39
0
210
0
220
0
230
1
0
LINE
5
AE
100
AcDbEntity
8
1
62
256
6
ByLayer
370
13
48
1
60
0
100
AcDbLine
10
36.840067
20
18.793975
30
0
11
39.936672
21
17.977658
31
0
39
0
210
0
220
0
230
1
0
LINE
5
AF
100
AcDbEntity
8
1
62
256
6
ByLayer
370
13
48
1
60
0
100
AcDbLine
10
36.840067
20
18.793975
30
0
11
39.619882
21
17.204011
31
0
39
0
210
0
220
0
230
1
0
LINE
5
B0
100
AcDbEntity
8
1
62
256
6
ByLayer
370
13
48
1
60
0
100
AcDbLine
10
39.936672
20
17.977658
30
0
11
39.619882
21
17.204011
31
0
39
0
210
0
220
0
230
1
0
LINE
5
B1
100
AcDbEntity
8
1
62
256
6
ByLayer
370
13
48
1
60
0
100
AcDbLine
10
36.840067
20
-18.793975
30
0
11
39.619879
21
-17.204013
31
0
39
0
210
0
220
0
230
1
0
LINE
5
B2
100
AcDbEntity
8
1
62
256
6
ByLayer
370
13
48
1
60
0
100
AcDbLine
10
36.840067
20
-18.793975
30
0
11
39.936675
21
-17.977657
31
0
39
0
210
0
220
0
230
1
0
LINE
5
B3
100
AcDbEntity
8
1
62
256
6
ByLayer
370
13
48
1
60
0
100
AcDbLine
10
39.619879
20
-17.204013
30
0
11
39.936675
21
-17.977657
31
0
39
0
210
0
220
0
230
1
0
MTEXT
5
112
100
AcDbEntity
8
SK2
62
256
6
ByLayer
370
18
48
1
60
0
100
AcDbMText
10
43.717388
20
-2.467451
30
0
210
0
220
0
230
1
1
\W0.7237;140.00
40
3.50012
41
0
44
1.084337
50
0
71
7
72
5
7
iso_b_vert
0
MTEXT
5
115
100
AcDbEntity
8
SK6
62
256
6
ByLayer
370
18
48
1
60
0
100
AcDbMText
10
-42.331725
20
-89.526538
30
0
210
0
220
0
230
1
1
\W0.7388;860.1-0400-012A1-GM X1BM
40
3.175
41
0
44
1.084337
50
0
71
7
72
5
7
iso_b_vert
0
DIMENSION
5
118
100
AcDbEntity
8
SK2
62
256
6
ByLayer
370
18
48
1
60
0
100
AcDbDimension
2
_U0
10
30
20
-26.50012
30
0
11
15
21
-26.50012
31
0
70
32
71
2
72
1
41
1
210
0
220
0
230
1
3
Standard
100
AcDbAlignedDimension
13
0
23
-3
33
0
14
30
24
0
34
0
50
0
100
AcDbRotatedDimension
1001
ACAD
1000
DSTYLE
1002
{
1070
   371
1070
    13
1070
   372
1070
    13
1070
     3
1000

1070
   170
1070
     0
1070
   144
1040
1.0
1070
   277
1070
     2
1070
   284
1070
     8
1070
   278
1070
    46
1070
   146
1040
0.999966
1070
   345
1005
16
1070
   347
1005
16
1070
   346
1005
16
1070
   344
1005
119
1070
   343
1005
119
1070
   172
1070
     1
1070
    76
1070
     0
1070
    75
1070
     0
1070
   282
1070
     0
1070
   281
1070
     0
1070
    71
1070
     0
1070
    74
1070
     0
1070
   279
1070
     0
1070
   173
1070
     1
1070
   340
1005
113
1070
   271
1070
     1
1070
   272
1070
     2
1070
    77
1070
     1
1070
    73
1070
     1
1070
   171
1070
     3
1070
   274
1070
     4
1070
   177
1070
   150
1070
   176
1070
     9
1070
   178
1070
    43
1070
    78
1070
     8
1070
    48
1040
-0.1
1070
    41
1040
3.175
1070
   147
1040
1.75006
1070
    42
1040
1.5875
1070
    44
1040
3.175
1070
   140
1040
3.50012
1002
}
1001
ACAD_DSTYLE_DIM_LINETYPE
1070
   380
1005
16
1001
ACAD_DSTYLE_DIM_EXT1_LINETYPE
1070
   381
1005
16
1001
ACAD_DSTYLE_DIM_EXT2_LINETYPE
1070
   382
1005
16
0
DIMENSION
5
13E
100
AcDbEntity
8
2
62
256
6
ByLayer
370
18
48
1
60
0
100
AcDbDimension
2
_U1
10
36.75006
20
2
30
0
11
36.75006
21
15.156483
31
0
70
32
71
1
72
1
41
1
210
0
220
0
230
1
3
Standard
100
AcDbAlignedDimension
13
29.2721
23
-2
33
0
14
29.2721
24
2
34
0
50
90
100
AcDbRotatedDimension
1001
ACAD
1000
DSTYLE
1002
{
1070
   371
1070
    13
1070
   372
1070
    13
1070
     3
1000

1070
   170
1070
     0
1070
   144
1040
1.0
1070
   277
1070
     2
1070
   284
1070
     8
1070
   278
1070
    46
1070
   146
1040
0.999966
1070
   345
1005
16
1070
   347
1005
16
1070
   346
1005
16
1070
   344
1005
119
1070
   343
1005
119
1070
   172
1070
     1
1070
    76
1070
     0
1070
    75
1070
     0
1070
   282
1070
     0
1070
   281
1070
     0
1070
    71
1070
     0
1070
    74
1070
     0
1070
   279
1070
     0
1070
   173
1070
     1
1070
   340
1005
113
1070
   271
1070
     1
1070
   272
1070
     2
1070
    77
1070
     1
1070
    73
1070
     0
1070
   171
1070
     3
1070
   274
1070
     4
1070
   177
1070
   150
1070
   176
1070
     9
1070
   178
1070
    43
1070
    78
1070
     8
1070
    48
1040
-0.1
1070
    41
1040
3.175
1070
   147
1040
1.75006
1070
    42
1040
1.5875
1070
    44
1040
3.175
1070
   140
1040
3.50012
1002
}
1001
ACAD_DSTYLE_DIM_LINETYPE
1070
   380
1005
16
1001
ACAD_DSTYLE_DIM_EXT1_LINETYPE
1070
   381
1005
16
1001
ACAD_DSTYLE_DIM_EXT2_LINETYPE
1070
   382
1005
16
0
DIMENSION
5
15D
100
AcDbEntity
8
SK2
62
256
6
ByLayer
370
18
48
1
60
0
100
AcDbDimension
2
_U2
10
-39.24994
20
-3
30
0
11
-39.24994
21
17.10734
31
0
70
32
71
1
72
1
41
1
210
0
220
0
230
1
3
Standard
100
AcDbAlignedDimension
13
-36
23
3
33
0
14
-36
24
-3
34
0
50
90
100
AcDbRotatedDimension
1001
ACAD
1000
DSTYLE
1002
{
1070
   371
1070
    13
1070
   372
1070
    13
1070
     3
1000

1070
   170
1070
     0
1070
   144
1040
1.0
1070
   277
1070
     2
1070
   284
1070
     8
1070
   278
1070
    46
1070
   146
1040
0.999966
1070
   345
1005
16
1070
   347
1005
16
1070
   346
1005
16
1070
   344
1005
119
1070
   343
1005
119
1070
   172
1070
     1
1070
    76
1070
     0
1070
    75
1070
     0
1070
   282
1070
     0
1070
   281
1070
     0
1070
    71
1070
     0
1070
    74
1070
     0
1070
   279
1070
     0
1070
   173
1070
     1
1070
   340
1005
113
1070
   271
1070
     1
1070
   272
1070
     2
1070
    77
1070
     1
1070
    73
1070
     0
1070
   171
1070
     3
1070
   274
1070
     4
1070
   177
1070
   150
1070
   176
1070
     9
1070
   178
1070
    43
1070
    78
1070
     8
1070
    48
1040
-0.1
1070
    41
1040
3.175
1070
   147
1040
1.75006
1070
    42
1040
1.5875
1070
    44
1040
3.175
1070
   140
1040
3.50012
1002
}
1001
ACAD_DSTYLE_DIM_LINETYPE
1070
   380
1005
16
1001
ACAD_DSTYLE_DIM_EXT1_LINETYPE
1070
   381
1005
16
1001
ACAD_DSTYLE_DIM_EXT2_LINETYPE
1070
   382
1005
16
0
DIMENSION
5
17B
100
AcDbEntity
8
SK2
62
256
6
ByLayer
370
18
48
1
60
0
100
AcDbDimension
2
_U3
10
0
20
-26.50012
30
0
11
-18
21
-26.50012
31
0
70
32
71
1
72
1
41
1
210
0
220
0
230
1
3
Standard
100
AcDbAlignedDimension
13
-36
23
-3
33
0
14
0
24
-3
34
0
50
0
100
AcDbRotatedDimension
1001
ACAD
1000
DSTYLE
1002
{
1070
   371
1070
    13
1070
   372
1070
    13
1070
     3
1000

1070
   170
1070
     0
1070
   144
1040
1.0
1070
   277
1070
     2
1070
   284
1070
     8
1070
   278
1070
    46
1070
   146
1040
0.999966
1070
   345
1005
16
1070
   347
1005
16
1070
   346
1005
16
1070
   344
1005
119
1070
   343
1005
119
1070
   172
1070
     1
1070
    76
1070
     0
1070
    75
1070
     0
1070
   282
1070
     0
1070
   281
1070
     0
1070
    71
1070
     0
1070
    74
1070
     0
1070
   279
1070
     0
1070
   173
1070
     1
1070
   340
1005
113
1070
   271
1070
     1
1070
   272
1070
     2
1070
    77
1070
     1
1070
    73
1070
     1
1070
   171
1070
     3
1070
   274
1070
     4
1070
   177
1070
   150
1070
   176
1070
     9
1070
   178
1070
    43
1070
    78
1070
     8
1070
    48
1040
-0.1
1070
    41
1040
3.175
1070
   147
1040
1.75006
1070
    42
1040
1.5875
1070
    44
1040
3.175
1070
   140
1040
3.50012
1002
}
1001
ACAD_DSTYLE_DIM_LINETYPE
1070
   380
1005
16
1001
ACAD_DSTYLE_DIM_EXT1_LINETYPE
1070
   381
1005
16
1001
ACAD_DSTYLE_DIM_EXT2_LINETYPE
1070
   382
1005
16
0
DIMENSION
5
197
100
AcDbEntity
8
SK2
62
256
6
ByLayer
370
18
48
1
60
0
100
AcDbDimension
2
_U4
10
30
20
-17.74982
30
0
11
18
21
-17.74982
31
0
70
32
71
1
72
1
41
1
210
0
220
0
230
1
3
Standard
100
AcDbAlignedDimension
13
6
23
2.5
33
0
14
30
24
0
34
0
50
0
100
AcDbRotatedDimension
1001
ACAD
1000
DSTYLE
1002
{
1070
   371
1070
    13
1070
   372
1070
    13
1070
     3
1000

1070
   170
1070
     0
1070
   144
1040
1.0
1070
   277
1070
     2
1070
   284
1070
     8
1070
   278
1070
    46
1070
   146
1040
0.999966
1070
   345
1005
16
1070
   347
1005
16
1070
   346
1005
16
1070
   344
1005
119
1070
   343
1005
119
1070
   172
1070
     1
1070
    76
1070
     0
1070
    75
1070
     0
1070
   282
1070
     0
1070
   281
1070
     0
1070
    71
1070
     0
1070
    74
1070
     0
1070
   279
1070
     0
1070
   173
1070
     1
1070
   340
1005
113
1070
   271
1070
     1
1070
   272
1070
     2
1070
    77
1070
     1
1070
    73
1070
     1
1070
   171
1070
     3
1070
   274
1070
     4
1070
   177
1070
   150
1070
   176
1070
     9
1070
   178
1070
    43
1070
    78
1070
     8
1070
    48
1040
-0.1
1070
    41
1040
3.175
1070
   147
1040
1.75006
1070
    42
1040
1.5875
1070
    44
1040
3.175
1070
   140
1040
3.50012
1002
}
1001
ACAD_DSTYLE_DIM_LINETYPE
1070
   380
1005
16
1001
ACAD_DSTYLE_DIM_EXT1_LINETYPE
1070
   381
1005
16
1001
ACAD_DSTYLE_DIM_EXT2_LINETYPE
1070
   382
1005
16
0
DIMENSION
5
1B3
100
AcDbEntity
8
SK2
62
256
6
ByLayer
370
18
48
1
60
0
100
AcDbDimension
2
_U5
10
30
20
-9.82
30
0
11
23.65
21
-9.82
31
0
70
32
71
1
72
1
41
1
210
0
220
0
230
1
3
Standard
100
AcDbAlignedDimension
13
17.3
23
-2
33
0
14
30
24
0
34
0
50
0
100
AcDbRotatedDimension
1001
ACAD
1000
DSTYLE
1002
{
1070
   371
1070
    13
1070
   372
1070
    13
1070
     3
1000

1070
   170
1070
     0
1070
   144
1040
1.0
1070
   277
1070
     2
1070
   284
1070
     8
1070
   278
1070
    46
1070
   146
1040
1.25
1070
   345
1005
16
1070
   347
1005
16
1070
   346
1005
16
1070
   344
1005
119
1070
   343
1005
119
1070
   172
1070
     1
1070
    76
1070
     0
1070
    75
1070
     0
1070
   282
1070
     0
1070
   281
1070
     0
1070
    71
1070
     0
1070
    74
1070
     0
1070
   279
1070
     0
1070
   173
1070
     1
1070
   340
1005
113
1070
   271
1070
     1
1070
   272
1070
     2
1070
    77
1070
     1
1070
    73
1070
     1
1070
   171
1070
     3
1070
   274
1070
     4
1070
   177
1070
   150
1070
   176
1070
     9
1070
   178
1070
    43
1070
    78
1070
     8
1070
    48
1040
-0.1
1070
    41
1040
3.175
1070
   147
1040
0.42
1070
    42
1040
1.5875
1070
    44
1040
0.5
1070
   140
1040
2.8
1002
}
1001
ACAD_DSTYLE_DIM_LINETYPE
1070
   380
1005
16
1001
ACAD_DSTYLE_DIM_EXT1_LINETYPE
1070
   381
1005
16
1001
ACAD_DSTYLE_DIM_EXT2_LINETYPE
1070
   382
1005
16
0
DIMENSION
5
1D0
100
AcDbEntity
8
SK2
62
256
6
ByLayer
370
18
48
1
60
0
100
AcDbDimension
2
_U6
10
30
20
-36.50012
30
0
11
-3
21
-36.50012
31
0
70
32
71
1
72
1
41
1
210
0
220
0
230
1
3
Standard
100
AcDbAlignedDimension
13
-36
23
0
33
0
14
30
24
0
34
0
50
0
100
AcDbRotatedDimension
1001
ACAD
1000
DSTYLE
1002
{
1070
   371
1070
    13
1070
   372
1070
    13
1070
     3
1000

1070
   170
1070
     0
1070
   144
1040
1.0
1070
   277
1070
     2
1070
   284
1070
     8
1070
   278
1070
    46
1070
   146
1040
0.999966
1070
   345
1005
16
1070
   347
1005
16
1070
   346
1005
16
1070
   344
1005
119
1070
   343
1005
119
1070
   172
1070
     1
1070
    76
1070
     0
1070
    75
1070
     0
1070
   282
1070
     0
1070
   281
1070
     0
1070
    71
1070
     0
1070
    74
1070
     0
1070
   279
1070
     0
1070
   173
1070
     1
1070
   340
1005
113
1070
   271
1070
     1
1070
   272
1070
     2
1070
    77
1070
     1
1070
    73
1070
     1
1070
   171
1070
     3
1070
   274
1070
     4
1070
   177
1070
   150
1070
   176
1070
     9
1070
   178
1070
    43
1070
    78
1070
     8
1070
    48
1040
-0.1
1070
    41
1040
3.175
1070
   147
1040
1.75006
1070
    42
1040
1.5875
1070
    44
1040
3.175
1070
   140
1040
3.50012
1002
}
1001
ACAD_DSTYLE_DIM_LINETYPE
1070
   380
1005
16
1001
ACAD_DSTYLE_DIM_EXT1_LINETYPE
1070
   381
1005
16
1001
ACAD_DSTYLE_DIM_EXT2_LINETYPE
1070
   382
1005
16
0
ENDSEC
0
SECTION
2
OBJECTS
0
DICTIONARY
5
25c
330
0
100
AcDbDictionary
280
0
281
1
3
ACAD_GROUP
350
25d
3
ACAD_MLINESTYLE
350
25e
0
DICTIONARY
5
25d
330
0
100
AcDbDictionary
280
0
281
1
0
DICTIONARY
5
25e
330
0
100
AcDbDictionary
280
0
281
1
3
Standard
350
18
0
MLINESTYLE
5
18
330
25e
100
AcDbMlineStyle
2
Standard
70
0
3

62
256
51
90
52
90
71
2
49
-0.5
62
256
6
ByLayer
49
0.5
62
256
6
ByLayer
0
RASTERVARIABLES
5
24a
330

100
AcDbRasterVariables
90
0
70
1
71
1
72
1
0
ENDSEC
0
EOF
