0
SECTION
2
HEADER
9
$ACADVER
1
AC1015
9
$DWGCODEPAGE
3
ANSI_1252
9
$HANDSEED
5
222
9
$ANGBASE
50
0
9
$ANGDIR
70
0
9
$ATTMODE
70
1
9
$AUNITS
70
0
9
$AUPREC
70
0
9
$CECOLOR
62
256
9
$CELTSCALE
40
1
9
$CELTYPE
6
ByLayer
9
$CELWEIGHT
370
18
9
$CLAYER
8
0
9
$CMLJUST
70
0
9
$CMLSCALE
40
1
9
$CMLSTYLE
2
Standard
9
$DIMSTYLE
2
Standard
9
$TEXTSIZE
40
0.2
9
$TEXTSTYLE
7
Standard
9
$LUNITS
70
2
9
$LUPREC
70
4
9
$EXTNAMES
290
1
9
$INSUNITS
70
4
9
$LTSCALE
40
1
9
$LWDISPLAY
290
1
9
$PDMODE
70
0
9
$PDSIZE
40
0
9
$PLINEGEN
70
0
0
ENDSEC
0
SECTION
2
CLASSES
0
CLASS
1
RASTERVARIABLES
2
AcDbRasterVariables
3
ISM
90
0
280
0
281
0
0
ENDSEC
0
SECTION
2
TABLES
0
TABLE
2
VPORT
5
218
100
AcDbSymbolTable
0
VPORT
5
1
100
AcDbSymbolTableRecord
100
AcDbViewportTableRecord
2
*Active
70
0
10
0
20
0
11
1
21
1
12
-1
22
1
13
0
23
0
14
0.5
24
0.5
15
10
25
10
16
0
26
0
36
1
17
0
27
0
37
0
0
ENDTAB
0
TABLE
2
LTYPE
5
219
100
AcDbSymbolTable
0
LTYPE
5
14
100
AcDbSymbolTableRecord
100
AcDbLinetypeTableRecord
70
0
2
ByBlock
3

72
65
73
0
40
0
0
LTYPE
5
15
100
AcDbSymbolTableRecord
100
AcDbLinetypeTableRecord
70
0
2
ByLayer
3

72
65
73
0
40
0
0
LTYPE
5
16
100
AcDbSymbolTableRecord
100
AcDbLinetypeTableRecord
70
0
2
Continuous
3
Solid line
72
65
73
0
40
0
0
LTYPE
5
6E
100
AcDbSymbolTableRecord
100
AcDbLinetypeTableRecord
70
0
2
CENTER
3
____ _ ____ _ ____ _ ____
72
65
73
4
40
47.5
49
22
74
0
49
-8.5
74
0
49
8.5
74
0
49
-8.5
74
0
0
LTYPE
5
6F
100
AcDbSymbolTableRecord
100
AcDbLinetypeTableRecord
70
0
2
DASHED
3
__ __ __ __ __ __ __ __ __
72
65
73
2
40
25.72
49
12.86
74
0
49
-12.86
74
0
0
ENDTAB
0
TABLE
2
LAYER
5
21a
100
AcDbSymbolTable
0
LAYER
5
10
100
AcDbSymbolTableRecord
100
AcDbLayerTableRecord
2
0
70
0
62
7
6
Continuous
290
1
370
-3
390
0
0
LAYER
5
71
100
AcDbSymbolTableRecord
100
AcDbLayerTableRecord
2
80
70
0
62
-6
6
Continuous
290
1
370
-3
390
0
0
LAYER
5
73
100
AcDbSymbolTableRecord
100
AcDbLayerTableRecord
2
81
70
0
62
-3
6
Continuous
290
1
370
-3
390
0
0
LAYER
5
75
100
AcDbSymbolTableRecord
100
AcDbLayerTableRecord
2
1
70
0
62
4
6
Continuous
290
1
370
-3
390
0
0
LAYER
5
B7
100
AcDbSymbolTableRecord
100
AcDbLayerTableRecord
2
4
70
0
62
-2
6
CENTER
290
1
370
-3
390
0
0
LAYER
5
10E
100
AcDbSymbolTableRecord
100
AcDbLayerTableRecord
2
Defpoints
70
0
62
7
6
Continuous
290
0
370
-3
390
0
0
LAYER
5
181
100
AcDbSymbolTableRecord
100
AcDbLayerTableRecord
2
2
70
0
62
7
6
Continuous
290
1
370
-3
390
0
0
LAYER
5
203
100
AcDbSymbolTableRecord
100
AcDbLayerTableRecord
2
SK1
70
0
62
4
6
Continuous
290
1
370
-3
390
0
0
LAYER
5
204
100
AcDbSymbolTableRecord
100
AcDbLayerTableRecord
2
SK4
70
0
62
2
6
CENTER
290
1
370
-3
390
0
0
LAYER
5
205
100
AcDbSymbolTableRecord
100
AcDbLayerTableRecord
2
SK3
70
0
62
1
6
DASHED
290
1
370
-3
390
0
0
LAYER
5
206
100
AcDbSymbolTableRecord
100
AcDbLayerTableRecord
2
SK2
70
0
62
7
6
Continuous
290
1
370
-3
390
0
0
LAYER
5
207
100
AcDbSymbolTableRecord
100
AcDbLayerTableRecord
2
SK6
70
0
62
5
6
Continuous
290
1
370
-3
390
0
0
ENDTAB
0
TABLE
2
STYLE
5
21b
100
AcDbSymbolTable
0
STYLE
5
11
100
AcDbSymbolTableRecord
100
AcDbTextStyleTableRecord
2
Standard
3
txt
70
0
71
0
40
0
41
1
42
0
50
0
0
STYLE
5
FB
100
AcDbSymbolTableRecord
100
AcDbTextStyleTableRecord
2
iso_b_vert
3
simplex.shx
70
0
71
0
40
0
41
1
42
0
50
0
0
STYLE
5
FC
100
AcDbSymbolTableRecord
100
AcDbTextStyleTableRecord
2
DWGDirectTextStyle
3
simplex
70
0
71
0
40
0
41
1
42
0
50
0
0
ENDTAB
0
TABLE
2
DIMSTYLE
5
21c
100
AcDbSymbolTable
100
AcDbDimStyleTable
0
DIMSTYLE
105
27
100
AcDbSymbolTableRecord
100
AcDbDimStyleTableRecord
2
Standard
70
0
3
<>
41
0.18
42
0.0625
44
0.18
140
0.18
147
0.09
73
0
74
0
77
1
271
2
275
0
278
52
280
0
340
11
0
ENDTAB
0
TABLE
2
VIEW
5
21d
100
AcDbSymbolTable
0
ENDTAB
0
TABLE
2
UCS
5
21e
100
AcDbSymbolTable
0
ENDTAB
0
TABLE
2
APPID
5
21f
100
AcDbSymbolTable
0
APPID
5
12
100
AcDbSymbolTableRecord
100
AcDbRegAppTableRecord
2
ACAD
70
0
0
APPID
5
10A
100
AcDbSymbolTableRecord
100
AcDbRegAppTableRecord
2
ACAD_DSTYLE_DIMBREAK
70
0
0
APPID
5
1C2
100
AcDbSymbolTableRecord
100
AcDbRegAppTableRecord
2
ACAD_DSTYLE_DIM_LINETYPE
70
0
0
APPID
5
1C3
100
AcDbSymbolTableRecord
100
AcDbRegAppTableRecord
2
ACAD_DSTYLE_DIM_EXT1_LINETYPE
70
0
0
APPID
5
1C4
100
AcDbSymbolTableRecord
100
AcDbRegAppTableRecord
2
ACAD_DSTYLE_DIM_EXT2_LINETYPE
70
0
0
APPID
5
1FF
100
AcDbSymbolTableRecord
100
AcDbRegAppTableRecord
2
ACAD_MLEADERVER
70
0
0
ENDTAB
0
TABLE
2
BLOCK_RECORD
5
220
100
AcDbSymbolTable
0
BLOCK_RECORD
5
1F
100
AcDbSymbolTableRecord
100
AcDbBlockTableRecord
2
*Model_Space
340
0
70
0
0
BLOCK_RECORD
5
1B
100
AcDbSymbolTableRecord
100
AcDbBlockTableRecord
2
*Paper_Space
340
0
70
0
0
BLOCK_RECORD
5
23
100
AcDbSymbolTableRecord
100
AcDbBlockTableRecord
2
*Paper_Space0
340
0
70
0
0
BLOCK_RECORD
5
10F
100
AcDbSymbolTableRecord
100
AcDbBlockTableRecord
2
*D1
340
0
70
0
0
BLOCK_RECORD
5
11D
100
AcDbSymbolTableRecord
100
AcDbBlockTableRecord
2
_U0
340
0
70
0
0
BLOCK_RECORD
5
12A
100
AcDbSymbolTableRecord
100
AcDbBlockTableRecord
2
*D3
340
0
70
0
0
BLOCK_RECORD
5
138
100
AcDbSymbolTableRecord
100
AcDbBlockTableRecord
2
_U1
340
0
70
0
0
BLOCK_RECORD
5
145
100
AcDbSymbolTableRecord
100
AcDbBlockTableRecord
2
*D5
340
0
70
0
0
BLOCK_RECORD
5
151
100
AcDbSymbolTableRecord
100
AcDbBlockTableRecord
2
_U2
340
0
70
0
0
BLOCK_RECORD
5
15D
100
AcDbSymbolTableRecord
100
AcDbBlockTableRecord
2
*D7
340
0
70
0
0
BLOCK_RECORD
5
169
100
AcDbSymbolTableRecord
100
AcDbBlockTableRecord
2
_U3
340
0
70
0
0
BLOCK_RECORD
5
175
100
AcDbSymbolTableRecord
100
AcDbBlockTableRecord
2
*D9
340
0
70
0
0
BLOCK_RECORD
5
182
100
AcDbSymbolTableRecord
100
AcDbBlockTableRecord
2
_U4
340
0
70
0
0
BLOCK_RECORD
5
18E
100
AcDbSymbolTableRecord
100
AcDbBlockTableRecord
2
*D11
340
0
70
0
0
BLOCK_RECORD
5
19B
100
AcDbSymbolTableRecord
100
AcDbBlockTableRecord
2
_U5
340
0
70
0
0
ENDTAB
0
ENDSEC
0
SECTION
2
BLOCKS
0
BLOCK
5
20
100
AcDbEntity
8
0
100
AcDbBlockBegin
2
*Model_Space
70
0
10
0
20
0
30
0
3
*Model_Space
0
ENDBLK
5
21
100
AcDbEntity
8
0
100
AcDbBlockEnd
0
BLOCK
5
1C
100
AcDbEntity
8
0
100
AcDbBlockBegin
2
*Paper_Space
70
0
10
0
20
0
30
0
3
*Paper_Space
0
ENDBLK
5
1D
100
AcDbEntity
8
0
100
AcDbBlockEnd
0
BLOCK
5
24
100
AcDbEntity
8
0
100
AcDbBlockBegin
2
*Paper_Space0
70
0
10
0
20
0
30
0
3
*Paper_Space0
0
ENDBLK
5
25
100
AcDbEntity
8
0
100
AcDbBlockEnd
0
BLOCK
5
110
100
AcDbEntity
8
0
100
AcDbBlockBegin
2
*D1
70
1
10
0
20
0
30
0
3
*D1
0
LINE
5
112
100
AcDbEntity
8
0
62
256
6
ByLayer
370
-2
48
1
60
0
100
AcDbLine
10
86.5875
20
-8.75
30
0
11
131.25
21
-8.75
31
0
39
0
210
0
220
0
230
1
0
LINE
5
113
100
AcDbEntity
8
0
62
256
6
ByLayer
370
-2
48
1
60
0
100
AcDbLine
10
86.5875
20
8.75
30
0
11
131.25
21
8.75
31
0
39
0
210
0
220
0
230
1
0
LINE
5
114
100
AcDbEntity
8
0
62
256
6
ByLayer
370
-2
48
1
60
0
100
AcDbLine
10
129.25
20
8.75
30
0
11
129.25
21
44.321429
31
0
39
0
210
0
220
0
230
1
0
LINE
5
115
100
AcDbEntity
8
0
62
256
6
ByLayer
370
-2
48
1
60
0
100
AcDbLine
10
129.25
20
-13.25
30
0
11
129.25
21
-17.75
31
0
39
0
210
0
220
0
230
1
0
LINE
5
116
100
AcDbEntity
8
0
62
256
6
ByLayer
370
-2
48
1
60
0
100
AcDbLine
10
129.25
20
13.25
30
0
11
129.25
21
17.75
31
0
39
0
210
0
220
0
230
1
0
SOLID
5
117
100
AcDbEntity
8
0
62
256
6
ByLayer
370
-1
48
1
60
0
100
AcDbTrace
10
130
20
-13.25
30
0
11
128.5
21
-13.25
31
0
12
129.25
22
-8.75
32
0
13
129.25
23
-8.75
33
0
39
0
210
0
220
0
230
1
0
SOLID
5
118
100
AcDbEntity
8
0
62
256
6
ByLayer
370
-1
48
1
60
0
100
AcDbTrace
10
128.5
20
13.25
30
0
11
130
21
13.25
31
0
12
129.25
22
8.75
32
0
13
129.25
23
8.75
33
0
39
0
210
0
220
0
230
1
0
MTEXT
5
119
100
AcDbEntity
8
0
62
256
6
ByLayer
370
18
48
1
60
0
100
AcDbMText
10
120.25
20
31.035714
30
0
210
0
220
0
230
1
1
\A1;17.5
40
4.5
41
0
44
1
50
90
71
5
72
5
7
iso_b_vert
0
POINT
5
11A
100
AcDbEntity
8
Defpoints
62
0
6
ByLayer
370
-1
48
1
60
0
100
AcDbPoint
10
85
20
-8.75
30
0
39
0
210
0
220
0
230
1
50
360
0
POINT
5
11B
100
AcDbEntity
8
Defpoints
62
0
6
ByLayer
370
-1
48
1
60
0
100
AcDbPoint
10
85
20
8.75
30
0
39
0
210
0
220
0
230
1
50
360
0
POINT
5
11C
100
AcDbEntity
8
Defpoints
62
0
6
ByLayer
370
-1
48
1
60
0
100
AcDbPoint
10
129.25
20
8.75
30
0
39
0
210
0
220
0
230
1
50
360
0
ENDBLK
5
111
100
AcDbEntity
8
0
100
AcDbBlockEnd
0
BLOCK
5
125
100
AcDbEntity
8
0
100
AcDbBlockBegin
2
_U0
70
0
10
0
20
0
30
0
3
_U0
0
MTEXT
5
11E
100
AcDbEntity
8
SK2
62
256
6
ByLayer
370
18
48
1
60
0
100
AcDbMText
10
127.185366
20
19.9075
30
0
210
0
220
0
230
1
1
%%c
40
3.5
41
0
44
1.084337
50
90
71
7
72
5
7
iso_b_vert
0
MTEXT
5
11F
100
AcDbEntity
8
SK2
62
256
6
ByLayer
370
18
48
1
60
0
100
AcDbMText
10
127.488328
20
30.4525
30
0
210
0
220
0
230
1
1
\W0.6367;17,5
40
4.5
41
0
44
1.084337
50
90
71
7
72
5
7
iso_b_vert
0
LINE
5
120
100
AcDbEntity
8
SK2
62
256
6
ByLayer
370
13
48
1
60
0
100
AcDbLine
10
86.5875
20
-8.75
30
0
11
131.25
21
-8.75
31
0
39
0
210
0
220
0
230
1
0
LINE
5
121
100
AcDbEntity
8
SK2
62
256
6
ByLayer
370
13
48
1
60
0
100
AcDbLine
10
86.5875
20
8.75
30
0
11
131.25
21
8.75
31
0
39
0
210
0
220
0
230
1
0
LINE
5
122
100
AcDbEntity
8
SK2
62
256
6
ByLayer
370
13
48
1
60
0
100
AcDbLine
10
129.25
20
-8.75
30
0
11
129.25
21
39.449626
31
0
39
0
210
0
220
0
230
1
0
SOLID
5
123
100
AcDbEntity
8
SK2
62
256
6
ByLayer
370
18
48
1
60
0
100
AcDbTrace
10
129.25
20
-8.75
30
0
11
128.252374
21
-4.250004
31
0
12
130.247626
22
-4.249996
32
0
13
130.247626
23
-4.249996
33
0
39
0
210
0
220
0
230
1
0
SOLID
5
124
100
AcDbEntity
8
SK2
62
256
6
ByLayer
370
18
48
1
60
0
100
AcDbTrace
10
129.25
20
8.75
30
0
11
130.247626
21
4.250004
31
0
12
128.252374
22
4.249996
32
0
13
128.252374
23
4.249996
33
0
39
0
210
0
220
0
230
1
0
ENDBLK
5
126
100
AcDbEntity
8
0
100
AcDbBlockEnd
0
BLOCK
5
12B
100
AcDbEntity
8
0
100
AcDbBlockBegin
2
*D3
70
1
10
0
20
0
30
0
3
*D3
0
LINE
5
12D
100
AcDbEntity
8
0
62
256
6
ByLayer
370
-2
48
1
60
0
100
AcDbLine
10
86.5875
20
4
30
0
11
112.25
21
4
31
0
39
0
210
0
220
0
230
1
0
LINE
5
12E
100
AcDbEntity
8
0
62
256
6
ByLayer
370
-2
48
1
60
0
100
AcDbLine
10
86.5875
20
-4
30
0
11
112.25
21
-4
31
0
39
0
210
0
220
0
230
1
0
LINE
5
12F
100
AcDbEntity
8
0
62
256
6
ByLayer
370
-2
48
1
60
0
100
AcDbLine
10
110.25
20
4
30
0
11
110.25
21
29.506371
31
0
39
0
210
0
220
0
230
1
0
LINE
5
130
100
AcDbEntity
8
0
62
256
6
ByLayer
370
-2
48
1
60
0
100
AcDbLine
10
110.25
20
8.5
30
0
11
110.25
21
13
31
0
39
0
210
0
220
0
230
1
0
LINE
5
131
100
AcDbEntity
8
0
62
256
6
ByLayer
370
-2
48
1
60
0
100
AcDbLine
10
110.25
20
-8.5
30
0
11
110.25
21
-13
31
0
39
0
210
0
220
0
230
1
0
SOLID
5
132
100
AcDbEntity
8
0
62
256
6
ByLayer
370
-1
48
1
60
0
100
AcDbTrace
10
109.5
20
8.5
30
0
11
111
21
8.5
31
0
12
110.25
22
4
32
0
13
110.25
23
4
33
0
39
0
210
0
220
0
230
1
0
SOLID
5
133
100
AcDbEntity
8
0
62
256
6
ByLayer
370
-1
48
1
60
0
100
AcDbTrace
10
111
20
-8.5
30
0
11
109.5
21
-8.5
31
0
12
110.25
22
-4
32
0
13
110.25
23
-4
33
0
39
0
210
0
220
0
230
1
0
MTEXT
5
134
100
AcDbEntity
8
0
62
256
6
ByLayer
370
18
48
1
60
0
100
AcDbMText
10
101.25
20
21.256371
30
0
210
0
220
0
230
1
1
\A1;8
40
4.5
41
0
44
1
50
90
71
5
72
5
7
iso_b_vert
0
POINT
5
135
100
AcDbEntity
8
Defpoints
62
0
6
ByLayer
370
-1
48
1
60
0
100
AcDbPoint
10
85
20
4
30
0
39
0
210
0
220
0
230
1
50
360
0
POINT
5
136
100
AcDbEntity
8
Defpoints
62
0
6
ByLayer
370
-1
48
1
60
0
100
AcDbPoint
10
85
20
-4
30
0
39
0
210
0
220
0
230
1
50
360
0
POINT
5
137
100
AcDbEntity
8
Defpoints
62
0
6
ByLayer
370
-1
48
1
60
0
100
AcDbPoint
10
110.25
20
-4
30
0
39
0
210
0
220
0
230
1
50
360
0
ENDBLK
5
12C
100
AcDbEntity
8
0
100
AcDbBlockEnd
0
BLOCK
5
140
100
AcDbEntity
8
0
100
AcDbBlockBegin
2
_U1
70
0
10
0
20
0
30
0
3
_U1
0
MTEXT
5
139
100
AcDbEntity
8
SK2
62
256
6
ByLayer
370
18
48
1
60
0
100
AcDbMText
10
108.185366
20
15.1575
30
0
210
0
220
0
230
1
1
%%c
40
3.5
41
0
44
1.084337
50
90
71
7
72
5
7
iso_b_vert
0
MTEXT
5
13A
100
AcDbEntity
8
SK2
62
256
6
ByLayer
370
18
48
1
60
0
100
AcDbMText
10
108.488328
20
25.7025
30
0
210
0
220
0
230
1
1
\W0.5404;8
40
4.5
41
0
44
1.084337
50
90
71
7
72
5
7
iso_b_vert
0
LINE
5
13B
100
AcDbEntity
8
SK2
62
256
6
ByLayer
370
13
48
1
60
0
100
AcDbLine
10
86.5875
20
4
30
0
11
112.25
21
4
31
0
39
0
210
0
220
0
230
1
0
LINE
5
13C
100
AcDbEntity
8
SK2
62
256
6
ByLayer
370
13
48
1
60
0
100
AcDbLine
10
86.5875
20
-4
30
0
11
112.25
21
-4
31
0
39
0
210
0
220
0
230
1
0
LINE
5
13D
100
AcDbEntity
8
SK2
62
256
6
ByLayer
370
13
48
1
60
0
100
AcDbLine
10
110.25
20
-15.25
30
0
11
110.25
21
27.512742
31
0
39
0
210
0
220
0
230
1
0
SOLID
5
13E
100
AcDbEntity
8
SK2
62
256
6
ByLayer
370
18
48
1
60
0
100
AcDbTrace
10
110.25
20
4
30
0
11
109.252374
21
8.499996
31
0
12
111.247626
22
8.500004
32
0
13
111.247626
23
8.500004
33
0
39
0
210
0
220
0
230
1
0
SOLID
5
13F
100
AcDbEntity
8
SK2
62
256
6
ByLayer
370
18
48
1
60
0
100
AcDbTrace
10
110.25
20
-4
30
0
11
111.247626
21
-8.499996
31
0
12
109.252374
22
-8.500004
32
0
13
109.252374
23
-8.500004
33
0
39
0
210
0
220
0
230
1
0
ENDBLK
5
141
100
AcDbEntity
8
0
100
AcDbBlockEnd
0
BLOCK
5
146
100
AcDbEntity
8
0
100
AcDbBlockBegin
2
*D5
70
1
10
0
20
0
30
0
3
*D5
0
LINE
5
148
100
AcDbEntity
8
0
62
256
6
ByLayer
370
-2
48
1
60
0
100
AcDbLine
10
0
20
23.6425
30
0
11
0
21
61.248614
31
0
39
0
210
0
220
0
230
1
0
LINE
5
149
100
AcDbEntity
8
0
62
256
6
ByLayer
370
-2
48
1
60
0
100
AcDbLine
10
-24
20
15.9875
30
0
11
-24
21
61.248614
31
0
39
0
210
0
220
0
230
1
0
LINE
5
14A
100
AcDbEntity
8
0
62
256
6
ByLayer
370
-2
48
1
60
0
100
AcDbLine
10
-4.5
20
59.248614
30
0
11
-19.5
21
59.248614
31
0
39
0
210
0
220
0
230
1
0
SOLID
5
14B
100
AcDbEntity
8
0
62
256
6
ByLayer
370
-1
48
1
60
0
100
AcDbTrace
10
-4.5
20
58.498614
30
0
11
-4.5
21
59.998614
31
0
12
0
22
59.248614
32
0
13
0
23
59.248614
33
0
39
0
210
0
220
0
230
1
0
SOLID
5
14C
100
AcDbEntity
8
0
62
256
6
ByLayer
370
-1
48
1
60
0
100
AcDbTrace
10
-19.5
20
59.998614
30
0
11
-19.5
21
58.498614
31
0
12
-24
22
59.248614
32
0
13
-24
23
59.248614
33
0
39
0
210
0
220
0
230
1
0
MTEXT
5
14D
100
AcDbEntity
8
0
62
256
6
ByLayer
370
18
48
1
60
0
100
AcDbMText
10
-12
20
68.248614
30
0
210
0
220
0
230
1
1
\A1;24
40
4.5
41
0
44
1
50
0
71
5
72
5
7
iso_b_vert
0
POINT
5
14E
100
AcDbEntity
8
Defpoints
62
0
6
ByLayer
370
-1
48
1
60
0
100
AcDbPoint
10
0
20
22.055
30
0
39
0
210
0
220
0
230
1
50
360
0
POINT
5
14F
100
AcDbEntity
8
Defpoints
62
0
6
ByLayer
370
-1
48
1
60
0
100
AcDbPoint
10
-24
20
14.4
30
0
39
0
210
0
220
0
230
1
50
360
0
POINT
5
150
100
AcDbEntity
8
Defpoints
62
0
6
ByLayer
370
-1
48
1
60
0
100
AcDbPoint
10
-24
20
59.248614
30
0
39
0
210
0
220
0
230
1
50
360
0
ENDBLK
5
147
100
AcDbEntity
8
0
100
AcDbBlockEnd
0
BLOCK
5
158
100
AcDbEntity
8
0
100
AcDbBlockBegin
2
_U2
70
0
10
0
20
0
30
0
3
_U2
0
MTEXT
5
152
100
AcDbEntity
8
SK2
62
256
6
ByLayer
370
18
48
1
60
0
100
AcDbMText
10
-14.686157
20
60.576285
30
0
210
0
220
0
230
1
1
\W0.7167;24
40
4.5
41
0
44
1.084337
50
0
71
7
72
5
7
iso_b_vert
0
LINE
5
153
100
AcDbEntity
8
SK2
62
256
6
ByLayer
370
13
48
1
60
0
100
AcDbLine
10
0
20
23.6425
30
0
11
0
21
61.248614
31
0
39
0
210
0
220
0
230
1
0
LINE
5
154
100
AcDbEntity
8
SK2
62
256
6
ByLayer
370
13
48
1
60
0
100
AcDbLine
10
-24
20
15.9875
30
0
11
-24
21
61.248614
31
0
39
0
210
0
220
0
230
1
0
LINE
5
155
100
AcDbEntity
8
SK2
62
256
6
ByLayer
370
13
48
1
60
0
100
AcDbLine
10
0
20
59.248614
30
0
11
-24
21
59.248614
31
0
39
0
210
0
220
0
230
1
0
SOLID
5
156
100
AcDbEntity
8
SK2
62
256
6
ByLayer
370
18
48
1
60
0
100
AcDbTrace
10
0
20
59.248614
30
0
11
-4.499996
21
58.250988
31
0
12
-4.500004
22
60.24624
32
0
13
-4.500004
23
60.24624
33
0
39
0
210
0
220
0
230
1
0
SOLID
5
157
100
AcDbEntity
8
SK2
62
256
6
ByLayer
370
18
48
1
60
0
100
AcDbTrace
10
-24
20
59.248614
30
0
11
-19.500004
21
60.24624
31
0
12
-19.499996
22
58.250988
32
0
13
-19.499996
23
58.250988
33
0
39
0
210
0
220
0
230
1
0
ENDBLK
5
159
100
AcDbEntity
8
0
100
AcDbBlockEnd
0
BLOCK
5
15E
100
AcDbEntity
8
0
100
AcDbBlockBegin
2
*D7
70
1
10
0
20
0
30
0
3
*D7
0
LINE
5
160
100
AcDbEntity
8
0
62
256
6
ByLayer
370
-2
48
1
60
0
100
AcDbLine
10
85
20
10.3375
30
0
11
85
21
51.248614
31
0
39
0
210
0
220
0
230
1
0
LINE
5
161
100
AcDbEntity
8
0
62
256
6
ByLayer
370
-2
48
1
60
0
100
AcDbLine
10
35
20
10.3375
30
0
11
35
21
51.248614
31
0
39
0
210
0
220
0
230
1
0
LINE
5
162
100
AcDbEntity
8
0
62
256
6
ByLayer
370
-2
48
1
60
0
100
AcDbLine
10
80.5
20
49.248614
30
0
11
39.5
21
49.248614
31
0
39
0
210
0
220
0
230
1
0
SOLID
5
163
100
AcDbEntity
8
0
62
256
6
ByLayer
370
-1
48
1
60
0
100
AcDbTrace
10
80.5
20
48.498614
30
0
11
80.5
21
49.998614
31
0
12
85
22
49.248614
32
0
13
85
23
49.248614
33
0
39
0
210
0
220
0
230
1
0
SOLID
5
164
100
AcDbEntity
8
0
62
256
6
ByLayer
370
-1
48
1
60
0
100
AcDbTrace
10
39.5
20
49.998614
30
0
11
39.5
21
48.498614
31
0
12
35
22
49.248614
32
0
13
35
23
49.248614
33
0
39
0
210
0
220
0
230
1
0
MTEXT
5
165
100
AcDbEntity
8
0
62
256
6
ByLayer
370
18
48
1
60
0
100
AcDbMText
10
60
20
58.248614
30
0
210
0
220
0
230
1
1
\A1;50
40
4.5
41
0
44
1
50
0
71
5
72
5
7
iso_b_vert
0
POINT
5
166
100
AcDbEntity
8
Defpoints
62
0
6
ByLayer
370
-1
48
1
60
0
100
AcDbPoint
10
85
20
8.75
30
0
39
0
210
0
220
0
230
1
50
360
0
POINT
5
167
100
AcDbEntity
8
Defpoints
62
0
6
ByLayer
370
-1
48
1
60
0
100
AcDbPoint
10
35
20
8.75
30
0
39
0
210
0
220
0
230
1
50
360
0
POINT
5
168
100
AcDbEntity
8
Defpoints
62
0
6
ByLayer
370
-1
48
1
60
0
100
AcDbPoint
10
35
20
49.248614
30
0
39
0
210
0
220
0
230
1
50
360
0
ENDBLK
5
15F
100
AcDbEntity
8
0
100
AcDbBlockEnd
0
BLOCK
5
170
100
AcDbEntity
8
0
100
AcDbBlockBegin
2
_U3
70
0
10
0
20
0
30
0
3
_U3
0
MTEXT
5
16A
100
AcDbEntity
8
SK2
62
256
6
ByLayer
370
18
48
1
60
0
100
AcDbMText
10
57.550758
20
50.576285
30
0
210
0
220
0
230
1
1
\W0.6740;50
40
4.5
41
0
44
1.084337
50
0
71
7
72
5
7
iso_b_vert
0
LINE
5
16B
100
AcDbEntity
8
SK2
62
256
6
ByLayer
370
13
48
1
60
0
100
AcDbLine
10
85
20
10.3375
30
0
11
85
21
51.248614
31
0
39
0
210
0
220
0
230
1
0
LINE
5
16C
100
AcDbEntity
8
SK2
62
256
6
ByLayer
370
13
48
1
60
0
100
AcDbLine
10
35
20
10.3375
30
0
11
35
21
51.248614
31
0
39
0
210
0
220
0
230
1
0
LINE
5
16D
100
AcDbEntity
8
SK2
62
256
6
ByLayer
370
13
48
1
60
0
100
AcDbLine
10
85
20
49.248614
30
0
11
35
21
49.248614
31
0
39
0
210
0
220
0
230
1
0
SOLID
5
16E
100
AcDbEntity
8
SK2
62
256
6
ByLayer
370
18
48
1
60
0
100
AcDbTrace
10
85
20
49.248614
30
0
11
80.500004
21
48.250988
31
0
12
80.499996
22
50.24624
32
0
13
80.499996
23
50.24624
33
0
39
0
210
0
220
0
230
1
0
SOLID
5
16F
100
AcDbEntity
8
SK2
62
256
6
ByLayer
370
18
48
1
60
0
100
AcDbTrace
10
35
20
49.248614
30
0
11
39.499996
21
50.24624
31
0
12
39.500004
22
48.250988
32
0
13
39.500004
23
48.250988
33
0
39
0
210
0
220
0
230
1
0
ENDBLK
5
171
100
AcDbEntity
8
0
100
AcDbBlockEnd
0
BLOCK
5
176
100
AcDbEntity
8
0
100
AcDbBlockBegin
2
*D9
70
1
10
0
20
0
30
0
3
*D9
0
LINE
5
178
100
AcDbEntity
8
0
62
256
6
ByLayer
370
-2
48
1
60
0
100
AcDbLine
10
0
20
23.6425
30
0
11
0
21
61.248614
31
0
39
0
210
0
220
0
230
1
0
LINE
5
179
100
AcDbEntity
8
0
62
256
6
ByLayer
370
-2
48
1
60
0
100
AcDbLine
10
85
20
10.3375
30
0
11
85
21
61.248614
31
0
39
0
210
0
220
0
230
1
0
LINE
5
17A
100
AcDbEntity
8
0
62
256
6
ByLayer
370
-2
48
1
60
0
100
AcDbLine
10
4.5
20
59.248614
30
0
11
80.5
21
59.248614
31
0
39
0
210
0
220
0
230
1
0
SOLID
5
17B
100
AcDbEntity
8
0
62
256
6
ByLayer
370
-1
48
1
60
0
100
AcDbTrace
10
4.5
20
59.998614
30
0
11
4.5
21
58.498614
31
0
12
0
22
59.248614
32
0
13
0
23
59.248614
33
0
39
0
210
0
220
0
230
1
0
SOLID
5
17C
100
AcDbEntity
8
0
62
256
6
ByLayer
370
-1
48
1
60
0
100
AcDbTrace
10
80.5
20
58.498614
30
0
11
80.5
21
59.998614
31
0
12
85
22
59.248614
32
0
13
85
23
59.248614
33
0
39
0
210
0
220
0
230
1
0
MTEXT
5
17D
100
AcDbEntity
8
0
62
256
6
ByLayer
370
18
48
1
60
0
100
AcDbMText
10
42.5
20
68.248614
30
0
210
0
220
0
230
1
1
\A1;85
40
4.5
41
0
44
1
50
0
71
5
72
5
7
iso_b_vert
0
POINT
5
17E
100
AcDbEntity
8
Defpoints
62
0
6
ByLayer
370
-1
48
1
60
0
100
AcDbPoint
10
0
20
22.055
30
0
39
0
210
0
220
0
230
1
50
360
0
POINT
5
17F
100
AcDbEntity
8
Defpoints
62
0
6
ByLayer
370
-1
48
1
60
0
100
AcDbPoint
10
85
20
8.75
30
0
39
0
210
0
220
0
230
1
50
360
0
POINT
5
180
100
AcDbEntity
8
Defpoints
62
0
6
ByLayer
370
-1
48
1
60
0
100
AcDbPoint
10
85
20
59.248614
30
0
39
0
210
0
220
0
230
1
50
360
0
ENDBLK
5
177
100
AcDbEntity
8
0
100
AcDbBlockEnd
0
BLOCK
5
189
100
AcDbEntity
8
0
100
AcDbBlockBegin
2
_U4
70
0
10
0
20
0
30
0
3
_U4
0
MTEXT
5
183
100
AcDbEntity
8
2
62
256
6
ByLayer
370
18
48
1
60
0
100
AcDbMText
10
40.050758
20
60.576285
30
0
210
0
220
0
230
1
1
\W0.6740;85
40
4.5
41
0
44
1.084337
50
0
71
7
72
5
7
iso_b_vert
0
LINE
5
184
100
AcDbEntity
8
2
62
256
6
ByLayer
370
13
48
1
60
0
100
AcDbLine
10
0
20
23.6425
30
0
11
0
21
61.248614
31
0
39
0
210
0
220
0
230
1
0
LINE
5
185
100
AcDbEntity
8
2
62
256
6
ByLayer
370
13
48
1
60
0
100
AcDbLine
10
85
20
10.3375
30
0
11
85
21
61.248614
31
0
39
0
210
0
220
0
230
1
0
LINE
5
186
100
AcDbEntity
8
2
62
256
6
ByLayer
370
13
48
1
60
0
100
AcDbLine
10
0
20
59.248614
30
0
11
85
21
59.248614
31
0
39
0
210
0
220
0
230
1
0
SOLID
5
187
100
AcDbEntity
8
2
62
256
6
ByLayer
370
18
48
1
60
0
100
AcDbTrace
10
0
20
59.248614
30
0
11
4.499996
21
60.24624
31
0
12
4.500004
22
58.250988
32
0
13
4.500004
23
58.250988
33
0
39
0
210
0
220
0
230
1
0
SOLID
5
188
100
AcDbEntity
8
2
62
256
6
ByLayer
370
18
48
1
60
0
100
AcDbTrace
10
85
20
59.248614
30
0
11
80.500004
21
58.250988
31
0
12
80.499996
22
60.24624
32
0
13
80.499996
23
60.24624
33
0
39
0
210
0
220
0
230
1
0
ENDBLK
5
18A
100
AcDbEntity
8
0
100
AcDbBlockEnd
0
BLOCK
5
18F
100
AcDbEntity
8
0
100
AcDbBlockBegin
2
*D11
70
1
10
0
20
0
30
0
3
*D11
0
LINE
5
191
100
AcDbEntity
8
0
62
256
6
ByLayer
370
-2
48
1
60
0
100
AcDbLine
10
85
20
-5.5875
30
0
11
85
21
-32.861547
31
0
39
0
210
0
220
0
230
1
0
LINE
5
192
100
AcDbEntity
8
0
62
256
6
ByLayer
370
-2
48
1
60
0
100
AcDbLine
10
48
20
-5.5875
30
0
11
48
21
-32.861547
31
0
39
0
210
0
220
0
230
1
0
LINE
5
193
100
AcDbEntity
8
0
62
256
6
ByLayer
370
-2
48
1
60
0
100
AcDbLine
10
85
20
-30.861547
30
0
11
127.280054
21
-30.861547
31
0
39
0
210
0
220
0
230
1
0
LINE
5
194
100
AcDbEntity
8
0
62
256
6
ByLayer
370
-2
48
1
60
0
100
AcDbLine
10
80.5
20
-30.861547
30
0
11
52.5
21
-30.861547
31
0
39
0
210
0
220
0
230
1
0
SOLID
5
195
100
AcDbEntity
8
0
62
256
6
ByLayer
370
-1
48
1
60
0
100
AcDbTrace
10
80.5
20
-31.611547
30
0
11
80.5
21
-30.111547
31
0
12
85
22
-30.861547
32
0
13
85
23
-30.861547
33
0
39
0
210
0
220
0
230
1
0
SOLID
5
196
100
AcDbEntity
8
0
62
256
6
ByLayer
370
-1
48
1
60
0
100
AcDbTrace
10
52.5
20
-30.111547
30
0
11
52.5
21
-31.611547
31
0
12
48
22
-30.861547
32
0
13
48
23
-30.861547
33
0
39
0
210
0
220
0
230
1
0
MTEXT
5
197
100
AcDbEntity
8
0
62
256
6
ByLayer
370
18
48
1
60
0
100
AcDbMText
10
116.887197
20
-21.861547
30
0
210
0
220
0
230
1
1
\A1;37
40
4.5
41
0
44
1
50
0
71
5
72
5
7
iso_b_vert
0
POINT
5
198
100
AcDbEntity
8
Defpoints
62
0
6
ByLayer
370
-1
48
1
60
0
100
AcDbPoint
10
85
20
-4
30
0
39
0
210
0
220
0
230
1
50
360
0
POINT
5
199
100
AcDbEntity
8
Defpoints
62
0
6
ByLayer
370
-1
48
1
60
0
100
AcDbPoint
10
48
20
-4
30
0
39
0
210
0
220
0
230
1
50
360
0
POINT
5
19A
100
AcDbEntity
8
Defpoints
62
0
6
ByLayer
370
-1
48
1
60
0
100
AcDbPoint
10
48
20
-30.861547
30
0
39
0
210
0
220
0
230
1
50
360
0
ENDBLK
5
190
100
AcDbEntity
8
0
100
AcDbBlockEnd
0
BLOCK
5
1A2
100
AcDbEntity
8
0
100
AcDbBlockBegin
2
_U5
70
0
10
0
20
0
30
0
3
_U5
0
MTEXT
5
19C
100
AcDbEntity
8
SK2
62
256
6
ByLayer
370
18
48
1
60
0
100
AcDbMText
10
96.2385
20
-29.533875
30
0
210
0
220
0
230
1
1
\W0.7273;min 27-max 37
40
4.5
41
0
44
1.084337
50
0
71
7
72
5
7
iso_b_vert
0
LINE
5
19D
100
AcDbEntity
8
SK2
62
256
6
ByLayer
370
13
48
1
60
0
100
AcDbLine
10
85
20
-5.5875
30
0
11
85
21
-32.861547
31
0
39
0
210
0
220
0
230
1
0
LINE
5
19E
100
AcDbEntity
8
SK2
62
256
6
ByLayer
370
13
48
1
60
0
100
AcDbLine
10
48
20
-5.5875
30
0
11
48
21
-32.861547
31
0
39
0
210
0
220
0
230
1
0
LINE
5
19F
100
AcDbEntity
8
SK2
62
256
6
ByLayer
370
13
48
1
60
0
100
AcDbLine
10
48
20
-30.861547
30
0
11
137.774393
21
-30.861547
31
0
39
0
210
0
220
0
230
1
0
SOLID
5
1A0
100
AcDbEntity
8
SK2
62
256
6
ByLayer
370
18
48
1
60
0
100
AcDbTrace
10
85
20
-30.861547
30
0
11
80.500004
21
-31.859173
31
0
12
80.499996
22
-29.863921
32
0
13
80.499996
23
-29.863921
33
0
39
0
210
0
220
0
230
1
0
SOLID
5
1A1
100
AcDbEntity
8
SK2
62
256
6
ByLayer
370
18
48
1
60
0
100
AcDbTrace
10
48
20
-30.861547
30
0
11
52.499996
21
-29.863921
31
0
12
52.500004
22
-31.859173
32
0
13
52.500004
23
-31.859173
33
0
39
0
210
0
220
0
230
1
0
ENDBLK
5
1A3
100
AcDbEntity
8
0
100
AcDbBlockEnd
0
ENDSEC
0
SECTION
2
ENTITIES
0
ARC
5
C4
100
AcDbEntity
8
1
62
256
6
ByLayer
370
18
48
1
60
0
100
AcDbCircle
39
0
10
39.195498
20
-13.75
30
0
40
5
210
0
220
0
230
1
100
AcDbArc
50
90
51
170
0
ARC
5
C5
100
AcDbEntity
8
1
62
256
6
ByLayer
370
18
48
1
60
0
100
AcDbCircle
39
0
10
39.195498
20
13.75
30
0
40
5
210
0
220
0
230
1
100
AcDbArc
50
190
51
270
0
ARC
5
C6
100
AcDbEntity
8
1
62
256
6
ByLayer
370
18
48
1
60
0
100
AcDbCircle
39
0
10
32.178985
20
-18.99
30
0
40
1
210
0
220
0
230
1
100
AcDbArc
50
270
51
350
0
ARC
5
C7
100
AcDbEntity
8
1
62
256
6
ByLayer
370
18
48
1
60
0
100
AcDbCircle
39
0
10
84.2
20
7.719571
30
0
40
0.799999999999997
210
0
220
0
230
1
100
AcDbArc
50
0
51
78
0
ARC
5
C8
100
AcDbEntity
8
SK1
62
256
6
ByLayer
370
18
48
1
60
0
100
AcDbCircle
39
0
10
-0.6
20
15
30
0
40
0.999999999999989
210
0
220
0
230
1
100
AcDbArc
50
293.578178
51
306.869898
0
ARC
5
C9
100
AcDbEntity
8
SK1
62
256
6
ByLayer
370
18
48
1
60
0
100
AcDbCircle
39
0
10
-0.6
20
-15
30
0
40
0.999999999999989
210
0
220
0
230
1
100
AcDbArc
50
53.130102
51
66.421822
0
ARC
5
CA
100
AcDbEntity
8
1
62
256
6
ByLayer
370
18
48
1
60
0
100
AcDbCircle
39
0
10
84.2
20
-7.719571
30
0
40
0.799999999999997
210
0
220
0
230
1
100
AcDbArc
50
282
51
0
0
ARC
5
CB
100
AcDbEntity
8
1
62
256
6
ByLayer
370
18
48
1
60
0
100
AcDbCircle
39
0
10
32.178985
20
18.99
30
0
40
1
210
0
220
0
230
1
100
AcDbArc
50
10
51
90
0
ELLIPSE
5
CC
100
AcDbEntity
8
1
62
256
6
ByLayer
370
18
48
1
60
0
100
AcDbEllipse
10
16.948929
20
0
30
0
11
9.36273417084238
21
-19.7318782781741
31
0
210
0
220
0
230
1
40
0.341999
41
-2.98788502080536
42
-2.046254513976
0
ELLIPSE
5
CD
100
AcDbEntity
8
1
62
256
6
ByLayer
370
18
48
1
60
0
100
AcDbEllipse
10
-0.948929
20
0
30
0
11
9.36273417084214
21
19.7318782781739
31
0
210
0
220
0
230
1
40
0.341999
41
-1.0953381396138
42
-0.153707632784439
0
ELLIPSE
5
CE
100
AcDbEntity
8
1
62
256
6
ByLayer
370
18
48
1
60
0
100
AcDbEllipse
10
16.948929
20
0
30
0
11
9.3627341708418
21
19.7318782781735
31
0
210
0
220
0
230
1
40
0.341999
41
2.04625451397597
42
2.98788502080535
0
ELLIPSE
5
CF
100
AcDbEntity
8
1
62
256
6
ByLayer
370
18
48
1
60
0
100
AcDbEllipse
10
-0.948929
20
0
30
0
11
9.3627341708427
21
-19.7318782781746
31
0
210
0
220
0
230
1
40
0.341999
41
0.153707632784436
42
1.09533813961377
0
POINT
5
70
100
AcDbEntity
8
80
62
256
6
ByLayer
370
18
48
1
60
0
100
AcDbPoint
10
0
20
0
30
0
39
0
210
0
220
0
230
1
50
360
0
POINT
5
72
100
AcDbEntity
8
81
62
256
6
ByLayer
370
18
48
1
60
0
100
AcDbPoint
10
85
20
0
30
0
39
0
210
0
220
0
230
1
50
360
0
POINT
5
74
100
AcDbEntity
8
1
62
256
6
ByLayer
370
18
48
1
60
1
100
AcDbPoint
10
85
20
-8.75
30
0
39
0
210
0
220
0
230
1
50
360
0
POINT
5
76
100
AcDbEntity
8
1
62
256
6
ByLayer
370
18
48
1
60
1
100
AcDbPoint
10
85
20
8.75
30
0
39
0
210
0
220
0
230
1
50
360
0
POINT
5
77
100
AcDbEntity
8
1
62
256
6
ByLayer
370
18
48
1
60
1
100
AcDbPoint
10
85
20
4
30
0
39
0
210
0
220
0
230
1
50
360
0
POINT
5
78
100
AcDbEntity
8
1
62
256
6
ByLayer
370
18
48
1
60
1
100
AcDbPoint
10
85
20
-4
30
0
39
0
210
0
220
0
230
1
50
360
0
POINT
5
79
100
AcDbEntity
8
1
62
256
6
ByLayer
370
18
48
1
60
1
100
AcDbPoint
10
0
20
22.055
30
0
39
0
210
0
220
0
230
1
50
360
0
POINT
5
7A
100
AcDbEntity
8
1
62
256
6
ByLayer
370
18
48
1
60
1
100
AcDbPoint
10
-24
20
14.4
30
0
39
0
210
0
220
0
230
1
50
360
0
POINT
5
7B
100
AcDbEntity
8
1
62
256
6
ByLayer
370
18
48
1
60
1
100
AcDbPoint
10
85
20
8.75
30
0
39
0
210
0
220
0
230
1
50
360
0
POINT
5
7C
100
AcDbEntity
8
1
62
256
6
ByLayer
370
18
48
1
60
1
100
AcDbPoint
10
35
20
8.75
30
0
39
0
210
0
220
0
230
1
50
360
0
POINT
5
7D
100
AcDbEntity
8
1
62
256
6
ByLayer
370
18
48
1
60
1
100
AcDbPoint
10
0
20
22.055
30
0
39
0
210
0
220
0
230
1
50
360
0
POINT
5
7E
100
AcDbEntity
8
1
62
256
6
ByLayer
370
18
48
1
60
1
100
AcDbPoint
10
85
20
8.75
30
0
39
0
210
0
220
0
230
1
50
360
0
POINT
5
7F
100
AcDbEntity
8
1
62
256
6
ByLayer
370
18
48
1
60
1
100
AcDbPoint
10
48
20
-4
30
0
39
0
210
0
220
0
230
1
50
360
0
SPLINE
5
D0
100
AcDbEntity
8
SK1
62
256
6
ByLayer
370
18
48
1
60
0
100
AcDbSpline
70
4
71
3
72
28
73
24
40
0
40
0
40
0
40
0
40
0.03125
40
0.03125
40
0.0624999999999999
40
0.0624999999999999
40
0.0937499999999998
40
0.0937499999999998
40
0.125
40
0.125
40
0.15625
40
0.15625
40
0.187499999999999
40
0.187499999999999
40
0.249999999999999
40
0.249999999999999
40
0.374999999999999
40
0.374999999999999
40
0.499999999999999
40
0.499999999999999
40
0.75
40
0.75
40
1
40
1
40
1
40
1
41
1
10
-0.394976888875277
20
-5.00092508226589
30
0
41
1
10
-0.410801723401704
20
-5.01367001187572
30
0
41
1
10
-0.427535664067619
20
-5.02539849227171
30
0
41
1
10
-0.463639445661784
20
-5.0459351174548
30
0
41
1
10
-0.483045340970222
20
-5.05469251156367
30
0
41
1
10
-0.523643941253312
20
-5.06714353053101
30
0
41
1
10
-0.545504646179353
20
-5.07093169487277
30
0
41
1
10
-0.589142052070628
20
-5.07189455751239
30
0
41
1
10
-0.611301179625713
20
-5.06908452808324
30
0
41
1
10
-0.653272178017914
20
-5.05796409301098
30
0
41
1
10
-0.673415768762112
20
-5.04965465210262
30
0
41
1
10
-0.71070702730745
20
-5.02985460655336
30
0
41
1
10
-0.727980485161311
20
-5.01838752948004
30
0
41
1
10
-0.776992972544861
20
-4.98075525164251
30
0
41
1
10
-0.805333125323216
20
-4.95193028425561
30
0
41
1
10
-0.881947101638417
20
-4.86181030678543
30
0
41
1
10
-0.923425703606313
20
-4.7952167904414
30
0
41
1
10
-0.996640730061074
20
-4.6595176511631
30
0
41
1
10
-1.02822753812495
20
-4.58996776098479
30
0
41
1
10
-1.11453443489469
20
-4.37792667248613
30
0
41
1
10
-1.160861761315
20
-4.23206106343852
30
0
41
1
10
-1.2421727576718
20
-3.93395789518055
30
0
41
1
10
-1.27672450018153
20
-3.78192043895183
30
0
41
1
10
-1.30710678118763
20
-3.62781610099955
30
0
0
SPLINE
5
D1
100
AcDbEntity
8
SK1
62
256
6
ByLayer
370
18
48
1
60
0
100
AcDbSpline
70
4
71
3
72
26
73
22
40
0
40
0
40
0
40
0
40
0.250000000000001
40
0.250000000000001
40
0.500000000000002
40
0.500000000000002
40
0.625000000000001
40
0.625000000000001
40
0.750000000000001
40
0.750000000000001
40
0.812500000000001
40
0.812500000000001
40
0.875
40
0.875
40
0.90625
40
0.90625
40
0.9375
40
0.9375
40
0.96875
40
0.96875
40
1
40
1
40
1
40
1
41
1
10
-0.199999999999989
20
-5.70317605472852
30
0
41
1
10
-0.199999999999989
20
-5.63823579019839
30
0
41
1
10
-0.201272969697698
20
-5.57293605649684
30
0
41
1
10
-0.207502897007288
20
-5.44150249678518
30
0
41
1
10
-0.212379710104415
20
-5.37529109300414
30
0
41
1
10
-0.224682606237224
20
-5.27544442994071
30
0
41
1
10
-0.229617185866203
20
-5.24213518580024
30
0
41
1
10
-0.242229041643611
20
-5.1755172556598
30
0
41
1
10
-0.249833221611908
20
-5.14218113288823
30
0
41
1
10
-0.265207031268687
20
-5.09326445830425
30
0
41
1
10
-0.270998974325948
20
-5.07711544581855
30
0
41
1
10
-0.285075712605988
20
-5.04543234149861
30
0
41
1
10
-0.293382354784626
20
-5.02955049623239
30
0
41
1
10
-0.309973406893136
20
-5.0082528518075
30
0
41
1
10
-0.316214408917858
20
-5.00161256354821
30
0
41
1
10
-0.330656646938593
20
-4.99083059730327
30
0
41
1
10
-0.339105605325415
20
-4.98673490231505
30
0
41
1
10
-0.356551440191907
20
-4.9838899879212
30
0
41
1
10
-0.365376268604308
20
-4.98514225758564
30
0
41
1
10
-0.381257580405617
20
-4.99109645865985
30
0
41
1
10
-0.388437394911762
20
-4.99565833585206
30
0
41
1
10
-0.394976888882155
20
-5.00092508225595
30
0
0
SPLINE
5
D2
100
AcDbEntity
8
SK1
62
256
6
ByLayer
370
18
48
1
60
0
100
AcDbSpline
70
4
71
3
72
287
73
283
40
0
40
0
40
0
40
0
40
0.0011263691305163
40
0.0046149916083565
40
0.0081036140861968
40
0.0115922365640371
40
0.0150808590418773
40
0.0185694815197176
40
0.0220581039975579
40
0.0255467264753981
40
0.0290353489532384
40
0.0325239714310787
40
0.0360125939089189
40
0.0395012163867592
40
0.0429898388645995
40
0.0464784613424398
40
0.0534557062981203
40
0.0569443287759606
40
0.0604329512538008
40
0.0639215737316411
40
0.0674101962094814
40
0.0743874411651619
40
0.0778760636430022
40
0.0813646861208425
40
0.0848533085986828
40
0.088341931076523
40
0.0918305535543632
40
0.0953191760322036
40
0.102296420987884
40
0.105785043465724
40
0.109273665943565
40
0.112762288421405
40
0.116250910899245
40
0.119739533377085
40
0.123228155854926
40
0.126716778332766
40
0.130205400810606
40
0.137182645766287
40
0.140671268244127
40
0.144159890721967
40
0.151137135677648
40
0.158114380633328
40
0.161603003111169
40
0.165091625589009
40
0.168580248066849
40
0.172068870544689
40
0.17555749302253
40
0.17904611550037
40
0.18079042673929
40
0.18253473797821
40
0.186023360456051
40
0.189511982933891
40
0.193000605411731
40
0.199977850367412
40
0.203466472845252
40
0.206955095323092
40
0.210443717800932
40
0.213932340278773
40
0.217420962756613
40
0.220909585234453
40
0.224398207712293
40
0.227886830190134
40
0.231375452667974
40
0.234864075145814
40
0.241841320101495
40
0.245329942579335
40
0.248818565057175
40
0.250562876296096
40
0.252307187535016
40
0.255795810012856
40
0.262773054968536
40
0.266261677446377
40
0.269750299924217
40
0.276727544879897
40
0.283704789835578
40
0.287193412313418
40
0.290682034791259
40
0.297659279746939
40
0.30114790222478
40
0.30463652470262
40
0.30812514718046
40
0.3116137696583
40
0.315102392136141
40
0.318591014613981
40
0.325568259569661
40
0.332545504525342
40
0.336034127003182
40
0.339522749481022
40
0.343011371958863
40
0.346499994436703
40
0.353477239392384
40
0.360454484348064
40
0.367431729303745
40
0.374408974259425
40
0.377897596737265
40
0.381386219215106
40
0.384874841692946
40
0.388363464170786
40
0.391852086648626
40
0.395340709126467
40
0.398829331604307
40
0.402317954082147
40
0.405806576559987
40
0.409295199037828
40
0.412783821515668
40
0.416272443993508
40
0.419761066471349
40
0.423249688949189
40
0.426738311427029
40
0.430226933904869
40
0.43371555638271
40
0.43720417886055
40
0.44069280133839
40
0.44418142381623
40
0.447670046294071
40
0.449414357532991
40
0.451158668771911
40
0.454647291249751
40
0.456391602488671
40
0.458135913727591
40
0.459880224966512
40
0.461624536205432
40
0.463368847444352
40
0.465113158683272
40
0.466857469922192
40
0.468601781161113
40
0.472090403638953
40
0.473834714877873
40
0.475579026116793
40
0.477323337355713
40
0.479067648594633
40
0.480811959833553
40
0.482556271072474
40
0.484300582311394
40
0.486044893550314
40
0.487789204789234
40
0.489533516028154
40
0.491277827267074
40
0.493022138505994
40
0.494766449744914
40
0.496510760983835
40
0.498255072222755
40
0.499999383461675
40
0.501743694700595
40
0.503488005939515
40
0.505232317178435
40
0.506976628417355
40
0.508720939656276
40
0.510465250895196
40
0.512209562134116
40
0.513953873373036
40
0.515698184611956
40
0.517442495850876
40
0.519186807089796
40
0.520931118328716
40
0.522675429567637
40
0.524419740806557
40
0.526164052045477
40
0.527908363284397
40
0.531396985762237
40
0.533141297001157
40
0.534885608240077
40
0.536629919478998
40
0.538374230717918
40
0.540118541956838
40
0.541862853195758
40
0.543607164434678
40
0.545351475673598
40
0.548840098151438
40
0.550584409390359
40
0.552328720629279
40
0.555817343107119
40
0.55930596558496
40
0.5627945880628
40
0.56628321054064
40
0.56977183301848
40
0.573260455496321
40
0.576749077974161
40
0.580237700452001
40
0.583726322929841
40
0.587214945407682
40
0.590703567885522
40
0.594192190363362
40
0.597680812841202
40
0.601169435319043
40
0.604658057796883
40
0.608146680274723
40
0.611635302752564
40
0.615123925230404
40
0.618612547708244
40
0.622101170186084
40
0.625589792663925
40
0.632567037619605
40
0.639544282575286
40
0.646521527530966
40
0.653498772486647
40
0.656987394964487
40
0.660476017442327
40
0.663964639920168
40
0.667453262398008
40
0.674430507353688
40
0.681407752309369
40
0.684896374787209
40
0.68838499726505
40
0.69187361974289
40
0.69536224222073
40
0.69885086469857
40
0.70233948717641
40
0.709316732132091
40
0.712805354609931
40
0.716293977087772
40
0.723271222043452
40
0.730248466999133
40
0.733737089476973
40
0.737225711954813
40
0.744202956910494
40
0.747691579388334
40
0.749435890627254
40
0.751180201866174
40
0.754668824344015
40
0.758157446821855
40
0.765134691777535
40
0.768623314255376
40
0.772111936733216
40
0.775600559211056
40
0.779089181688896
40
0.782577804166737
40
0.786066426644577
40
0.789555049122417
40
0.793043671600257
40
0.796532294078098
40
0.800020916555938
40
0.806998161511618
40
0.810486783989459
40
0.813975406467299
40
0.817464028945139
40
0.81920834018406
40
0.82095265142298
40
0.82444127390082
40
0.82792989637866
40
0.8314185188565
40
0.834907141334341
40
0.838395763812181
40
0.841884386290021
40
0.848861631245702
40
0.855838876201382
40
0.859327498679223
40
0.862816121157063
40
0.869793366112743
40
0.873281988590584
40
0.876770611068424
40
0.880259233546264
40
0.883747856024104
40
0.887236478501945
40
0.890725100979785
40
0.894213723457625
40
0.897702345935466
40
0.904679590891146
40
0.908168213368986
40
0.911656835846827
40
0.915145458324667
40
0.918634080802507
40
0.922122703280348
40
0.925611325758188
40
0.932588570713868
40
0.936077193191708
40
0.939565815669549
40
0.943054438147389
40
0.946543060625229
40
0.95352030558091
40
0.96049755053659
40
0.967474795492271
40
0.970963417970111
40
0.974452040447952
40
0.977940662925792
40
0.981429285403632
40
0.984917907881472
40
0.988406530359313
40
0.991895152837153
40
0.995383775314993
40
0.998872397792833
40
1
40
1
40
1
40
1
41
1
10
-22.5
20
-13.4956568850899
30
0
41
1
10
-22.5
20
-13.4959565530454
30
0
41
1
10
-22.5
20
-13.497036119794
30
0
41
1
10
-22.5
20
-13.497871542388
30
0
41
1
10
-22.5
20
-13.4969168014739
30
0
41
1
10
-22.5
20
-13.4939634903146
30
0
41
1
10
-22.5
20
-13.4890446841776
30
0
41
1
10
-22.5
20
-13.4821927509398
30
0
41
1
10
-22.5
20
-13.4734380181859
30
0
41
1
10
-22.5
20
-13.4628103286331
30
0
41
1
10
-22.5
20
-13.4503375548199
30
0
41
1
10
-22.5
20
-13.4360470510206
30
0
41
1
10
-22.5
20
-13.4199649415155
30
0
41
1
10
-22.5
20
-13.4021158939438
30
0
41
1
10
-22.5
20
-13.3825245595672
30
0
41
1
10
-22.5
20
-13.3540536969874
30
0
41
1
10
-22.5
20
-13.3223661764574
30
0
41
1
10
-22.5
20
-13.2871835921006
30
0
41
1
10
-22.5
20
-13.2592105165633
30
0
41
1
10
-22.5
20
-13.2296213845592
30
0
41
1
10
-22.5
20
-13.187963912528
30
0
41
1
10
-22.5
20
-13.143384141029
30
0
41
1
10
-22.5
20
-13.0954724456838
30
0
41
1
10
-22.5
20
-13.0580721081213
30
0
41
1
10
-22.5
20
-13.0191589652135
30
0
41
1
10
-22.5
20
-12.9787481114295
30
0
41
1
10
-22.5
20
-12.9368537080862
30
0
41
1
10
-22.5
20
-12.8789380178894
30
0
41
1
10
-22.5
20
-12.8184132466048
30
0
41
1
10
-22.5
20
-12.7547247990428
30
0
41
1
10
-22.5
20
-12.7056201424592
30
0
41
1
10
-22.5
20
-12.6551113940766
30
0
41
1
10
-22.5
20
-12.6032111946844
30
0
41
1
10
-22.5
20
-12.5499298292215
30
0
41
1
10
-22.5
20
-12.4952790541085
30
0
41
1
10
-22.5
20
-12.4392702870471
30
0
41
1
10
-22.5
20
-12.3626709807027
30
0
41
1
10
-22.5
20
-12.2837700876339
30
0
41
1
10
-22.5
20
-12.2018541939414
30
0
41
1
10
-22.5
20
-12.1181901818312
30
0
41
1
10
-22.5
20
-12.0106580919609
30
0
41
1
10
-22.5
20
-11.8988608066557
30
0
41
1
10
-22.5
20
-11.8066391033683
30
0
41
1
10
-22.5
20
-11.7363216229303
30
0
41
1
10
-22.5
20
-11.664755015164
30
0
41
1
10
-22.5
20
-11.5919461625789
30
0
41
1
10
-22.5
20
-11.5179033535968
30
0
41
1
10
-22.5
20
-11.4552554448703
30
0
41
1
10
-22.5
20
-11.4043881128182
30
0
41
1
10
-22.5
20
-11.3531143441571
30
0
41
1
10
-22.5
20
-11.2884404756242
30
0
41
1
10
-22.5
20
-11.2095312195267
30
0
41
1
10
-22.5
20
-11.1025558384385
30
0
41
1
10
-22.5
20
-10.9936883968037
30
0
41
1
10
-22.5
20
-10.881957410682
30
0
41
1
10
-22.5
20
-10.7971107724731
30
0
41
1
10
-22.5
20
-10.7110950034658
30
0
41
1
10
-22.5
20
-10.6239149629423
30
0
41
1
10
-22.5
20
-10.5355769962349
30
0
41
1
10
-22.5
20
-10.4460865401309
30
0
41
1
10
-22.5
20
-10.3554481360506
30
0
41
1
10
-22.5
20
-10.2636671117607
30
0
41
1
10
-22.5
20
-10.1707494782419
30
0
41
1
10
-22.5
20
-10.0451570606616
30
0
41
1
10
-22.5
20
-9.91789360326428
30
0
41
1
10
-22.5
20
-9.7878008492857
30
0
41
1
10
-22.5
20
-9.70579080403837
30
0
41
1
10
-22.5
20
-9.63944491324963
30
0
41
1
10
-22.5
20
-9.57273013875857
30
0
41
1
10
-22.5
20
-9.45508835059124
30
0
41
1
10
-22.5
20
-9.31898451102214
30
0
41
1
10
-22.5
20
-9.18004984465043
30
0
41
1
10
-22.5
20
-9.0396637144479
30
0
41
1
10
-22.5
20
-8.8619729936481
30
0
41
1
10
-22.5
20
-8.68069429599308
30
0
41
1
10
-22.5
20
-8.53310893988203
30
0
41
1
10
-22.5
20
-8.38410356414289
30
0
41
1
10
-22.5
20
-8.23370694014301
30
0
41
1
10
-22.5
20
-8.08045169790759
30
0
41
1
10
-22.5
20
-7.96465013686171
30
0
41
1
10
-22.5
20
-7.84779994085653
30
0
41
1
10
-22.5
20
-7.72990620240671
30
0
41
1
10
-22.5
20
-7.6109708771202
30
0
41
1
10
-22.5
20
-7.4507365478344
30
0
41
1
10
-22.5
20
-7.24848505302427
30
0
41
1
10
-22.5
20
-7.04280522024894
30
0
41
1
10
-22.5
20
-6.87569116366484
30
0
41
1
10
-22.5
20
-6.74956631857705
30
0
41
1
10
-22.5
20
-6.6224282598192
30
0
41
1
10
-22.5
20
-6.451255571394
30
0
41
1
10
-22.5
20
-6.23550104742759
30
0
41
1
10
-22.5
20
-5.97220551419213
30
0
41
1
10
-22.5
20
-5.70495655337433
30
0
41
1
10
-22.5
20
-5.47933703089231
30
0
41
1
10
-22.5
20
-5.29623478947158
30
0
41
1
10
-22.5
20
-5.15823571506778
30
0
41
1
10
-22.5
20
-5.01927991936705
30
0
41
1
10
-22.5
20
-4.87937424460151
30
0
41
1
10
-22.5
20
-4.73852585442467
30
0
41
1
10
-22.5
20
-4.59674271442694
30
0
41
1
10
-22.5
20
-4.45403251641869
30
0
41
1
10
-22.5
20
-4.31040320562681
30
0
41
1
10
-22.5
20
-4.1658649918152
30
0
41
1
10
-22.5
20
-4.02042950258553
30
0
41
1
10
-22.5
20
-3.87410940415094
30
0
41
1
10
-22.5
20
-3.72691655621918
30
0
41
1
10
-22.5
20
-3.57886234252629
30
0
41
1
10
-22.5
20
-3.42996282061054
30
0
41
1
10
-22.5
20
-3.2802363758513
30
0
41
1
10
-22.5
20
-3.12970236953149
30
0
41
1
10
-22.5
20
-2.9783800820847
30
0
41
1
10
-22.5
20
-2.82629223006825
30
0
41
1
10
-22.5
20
-2.67346522993279
30
0
41
1
10
-22.5
20
-2.51992552331163
30
0
41
1
10
-22.5
20
-2.39172837491469
30
0
41
1
10
-22.5
20
-2.28823685042076
30
0
41
1
10
-22.5
20
-2.18454583019769
30
0
41
1
10
-22.5
20
-2.08161605220536
30
0
41
1
10
-22.5
20
-1.97729736527978
30
0
41
1
10
-22.5
20
-1.89920687090043
30
0
41
1
10
-22.5
20
-1.82098461234611
30
0
41
1
10
-22.5
20
-1.74263820265685
30
0
41
1
10
-22.5
20
-1.66417088377818
30
0
41
1
10
-22.5
20
-1.58559131690836
30
0
41
1
10
-22.5
20
-1.50690430877853
30
0
41
1
10
-22.5
20
-1.40144071039387
30
0
41
1
10
-22.5
20
-1.29707565327635
30
0
41
1
10
-22.5
20
-1.19121866112906
30
0
41
1
10
-22.5
20
-1.11209555133374
30
0
41
1
10
-22.5
20
-1.03290641330759
30
0
41
1
10
-22.5
20
-0.953656082911976
30
0
41
1
10
-22.5
20
-0.874352236673616
30
0
41
1
10
-22.5
20
-0.795000235128668
30
0
41
1
10
-22.5
20
-0.715606595157226
30
0
41
1
10
-22.5
20
-0.63617667254502
30
0
41
1
10
-22.5
20
-0.556716044364009
30
0
41
1
10
-22.5
20
-0.477229377934975
30
0
41
1
10
-22.5
20
-0.397721596430074
30
0
41
1
10
-22.5
20
-0.318196574925025
30
0
41
1
10
-22.5
20
-0.238658616598514
30
0
41
1
10
-22.5
20
-0.159110863620981
30
0
41
1
10
-22.5
20
-0.0795570195282949
30
0
41
1
10
-22.5
20
-4.3520458E-09
30
0
41
1
10
-22.5
20
0.0795570008675952
30
0
41
1
10
-22.5
20
0.159110826532412
30
0
41
1
10
-22.5
20
0.238658582119825
30
0
41
1
10
-22.5
20
0.318196568076161
30
0
41
1
10
-22.5
20
0.397721593521055
30
0
41
1
10
-22.5
20
0.477229338262958
30
0
41
1
10
-22.5
20
0.556715993884097
30
0
41
1
10
-22.5
20
0.63617666680787
30
0
41
1
10
-22.5
20
0.71560660892132
30
0
41
1
10
-22.5
20
0.795000198505278
30
0
41
1
10
-22.5
20
0.874352168955852
30
0
41
1
10
-22.5
20
0.95365606681014
30
0
41
1
10
-22.5
20
1.03290644237791
30
0
41
1
10
-22.5
20
1.11209553564783
30
0
41
1
10
-22.5
20
1.19121858421377
30
0
41
1
10
-22.5
20
1.29707563275716
30
0
41
1
10
-22.5
20
1.40144074045128
30
0
41
1
10
-22.5
20
1.50690426712365
30
0
41
1
10
-22.5
20
1.58559123041411
30
0
41
1
10
-22.5
20
1.66417084854152
30
0
41
1
10
-22.5
20
1.74263823347056
30
0
41
1
10
-22.5
20
1.82098464012651
30
0
41
1
10
-22.5
20
1.89920682890118
30
0
41
1
10
-22.5
20
1.97729727415896
30
0
41
1
10
-22.5
20
2.08161602870015
30
0
41
1
10
-22.5
20
2.18454587114542
30
0
41
1
10
-22.5
20
2.2882368400623
30
0
41
1
10
-22.5
20
2.39172828921559
30
0
41
1
10
-22.5
20
2.51992549648591
30
0
41
1
10
-22.5
20
2.67346525953189
30
0
41
1
10
-22.5
20
2.8262921676581
30
0
41
1
10
-22.5
20
2.97838003358396
30
0
41
1
10
-22.5
20
3.12970257053468
30
0
41
1
10
-22.5
20
3.28023687778401
30
0
41
1
10
-22.5
20
3.4299627769704
30
0
41
1
10
-22.5
20
3.57886126909131
30
0
41
1
10
-22.5
20
3.72691565105669
30
0
41
1
10
-22.5
20
3.87410976932693
30
0
41
1
10
-22.5
20
4.02043049501106
30
0
41
1
10
-22.5
20
4.16586580001649
30
0
41
1
10
-22.5
20
4.31040309161111
30
0
41
1
10
-22.5
20
4.45403157575558
30
0
41
1
10
-22.5
20
4.59674211262629
30
0
41
1
10
-22.5
20
4.73852599905976
30
0
41
1
10
-22.5
20
4.87937450907222
30
0
41
1
10
-22.5
20
5.01927995326392
30
0
41
1
10
-22.5
20
5.15823567759486
30
0
41
1
10
-22.5
20
5.29623480232564
30
0
41
1
10
-22.5
20
5.47933703035866
30
0
41
1
10
-22.5
20
5.70495651005669
30
0
41
1
10
-22.5
20
5.97220551217549
30
0
41
1
10
-22.5
20
6.23550102644131
30
0
41
1
10
-22.5
20
6.45125553312127
30
0
41
1
10
-22.5
20
6.62242827644155
30
0
41
1
10
-22.5
20
6.74956632065386
30
0
41
1
10
-22.5
20
6.87569112826711
30
0
41
1
10
-22.5
20
7.04280518235291
30
0
41
1
10
-22.5
20
7.24848505186407
30
0
41
1
10
-22.5
20
7.45073654157579
30
0
41
1
10
-22.5
20
7.61097083499584
30
0
41
1
10
-22.5
20
7.72990617143802
30
0
41
1
10
-22.5
20
7.84779993569691
30
0
41
1
10
-22.5
20
7.96465014223952
30
0
41
1
10
-22.5
20
8.08045168982594
30
0
41
1
10
-22.5
20
8.23370690743869
30
0
41
1
10
-22.5
20
8.38410353449396
30
0
41
1
10
-22.5
20
8.53310893756458
30
0
41
1
10
-22.5
20
8.68069429175793
30
0
41
1
10
-22.5
20
8.86197296792949
30
0
41
1
10
-22.5
20
9.03966368952015
30
0
41
1
10
-22.5
20
9.18004983919923
30
0
41
1
10
-22.5
20
9.31898450356377
30
0
41
1
10
-22.5
20
9.45508832781687
30
0
41
1
10
-22.5
20
9.57273011219269
30
0
41
1
10
-22.5
20
9.63944489130401
30
0
41
1
10
-22.5
20
9.70579078784201
30
0
41
1
10
-22.5
20
9.78780083934149
30
0
41
1
10
-22.5
20
9.9178935930201
30
0
41
1
10
-22.5
20
10.0451570413025
30
0
41
1
10
-22.5
20
10.1707494549495
30
0
41
1
10
-22.5
20
10.2636670923514
30
0
41
1
10
-22.5
20
10.3554481215356
30
0
41
1
10
-22.5
20
10.4460865275718
30
0
41
1
10
-22.5
20
10.5355769819029
30
0
41
1
10
-22.5
20
10.6239149454148
30
0
41
1
10
-22.5
20
10.7110949831286
30
0
41
1
10
-22.5
20
10.7971107518715
30
0
41
1
10
-22.5
20
10.881957392112
30
0
41
1
10
-22.5
20
10.9936883814227
30
0
41
1
10
-22.5
20
11.1025558247745
30
0
41
1
10
-22.5
20
11.2095312020911
30
0
41
1
10
-22.5
20
11.2884404549429
30
0
41
1
10
-22.5
20
11.3531143221947
30
0
41
1
10
-22.5
20
11.4043880916922
30
0
41
1
10
-22.5
20
11.4552554262223
30
0
41
1
10
-22.5
20
11.5179033392113
30
0
41
1
10
-22.5
20
11.59194615036
30
0
41
1
10
-22.5
20
11.6647550005754
30
0
41
1
10
-22.5
20
11.7363216027856
30
0
41
1
10
-22.5
20
11.8066390784571
30
0
41
1
10
-22.5
20
11.8988607853737
30
0
41
1
10
-22.5
20
12.0106580823312
30
0
41
1
10
-22.5
20
12.1181901660327
30
0
41
1
10
-22.5
20
12.2018541666219
30
0
41
1
10
-22.5
20
12.2837700633604
30
0
41
1
10
-22.5
20
12.3626709718699
30
0
41
1
10
-22.5
20
12.4392702770472
30
0
41
1
10
-22.5
20
12.4952790326449
30
0
41
1
10
-22.5
20
12.5499297998313
30
0
41
1
10
-22.5
20
12.6032111684974
30
0
41
1
10
-22.5
20
12.6551113810006
30
0
41
1
10
-22.5
20
12.7056201369325
30
0
41
1
10
-22.5
20
12.7547247883428
30
0
41
1
10
-22.5
20
12.8184132188765
30
0
41
1
10
-22.5
20
12.8789379874313
30
0
41
1
10
-22.5
20
12.9368537004398
30
0
41
1
10
-22.5
20
12.9787481075025
30
0
41
1
10
-22.5
20
13.0191589474766
30
0
41
1
10
-22.5
20
13.0580720783436
30
0
41
1
10
-22.5
20
13.0954724183383
30
0
41
1
10
-22.5
20
13.1433841284413
30
0
41
1
10
-22.5
20
13.1879639126742
30
0
41
1
10
-22.5
20
13.2296213566399
30
0
41
1
10
-22.5
20
13.2592104836088
30
0
41
1
10
-22.5
20
13.2871835761246
30
0
41
1
10
-22.5
20
13.3223661774289
30
0
41
1
10
-22.5
20
13.3620642251226
30
0
41
1
10
-22.5
20
13.402990048048
30
0
41
1
10
-22.5
20
13.4312436783152
30
0
41
1
10
-22.5
20
13.4503375493538
30
0
41
1
10
-22.5
20
13.4628104278487
30
0
41
1
10
-22.5
20
13.4734382711797
30
0
41
1
10
-22.5
20
13.4821928739338
30
0
41
1
10
-22.5
20
13.4890441905268
30
0
41
1
10
-22.5
20
13.4939625245411
30
0
41
1
10
-22.5
20
13.4969161903089
30
0
41
1
10
-22.5
20
13.4978716184631
30
0
41
1
10
-22.5
20
13.49703632022
30
0
41
1
10
-22.5
20
13.4959563506976
30
0
41
1
10
-22.5
20
13.4956562821071
30
0
0
SPLINE
5
D3
100
AcDbEntity
8
SK1
62
256
6
ByLayer
370
18
48
1
60
0
100
AcDbSpline
70
4
71
3
72
116
73
112
40
0
40
0
40
0
40
0
40
0.0075236674388247
40
0.0155476257216203
40
0.0235715840044158
40
0.0315955422872113
40
0.0396195005700068
40
0.0476434588528024
40
0.0556674171355979
40
0.0636913754183935
40
0.071715333701189
40
0.0797392919839845
40
0.0957872085495756
40
0.103811166832371
40
0.111835125115167
40
0.119859083397962
40
0.127883041680758
40
0.143930958246349
40
0.151954916529144
40
0.15997887481194
40
0.168002833094735
40
0.176026791377531
40
0.184050749660326
40
0.192074707943122
40
0.208122624508713
40
0.216146582791509
40
0.224170541074304
40
0.2321944993571
40
0.240218457639895
40
0.248242415922691
40
0.256266374205486
40
0.264290332488282
40
0.272314290771077
40
0.288362207336669
40
0.296386165619464
40
0.30441012390226
40
0.320458040467851
40
0.336505957033442
40
0.344529915316237
40
0.352553873599033
40
0.360577831881828
40
0.368601790164624
40
0.376625748447419
40
0.384649706730215
40
0.388661685871613
40
0.39267366501301
40
0.400697623295806
40
0.408721581578601
40
0.416745539861397
40
0.432793456426988
40
0.440817414709783
40
0.448841372992579
40
0.456865331275375
40
0.46488928955817
40
0.472913247840966
40
0.480937206123761
40
0.488961164406557
40
0.496985122689352
40
0.505009080972148
40
0.513033039254943
40
0.529080955820534
40
0.53710491410333
40
0.545128872386126
40
0.549140851527523
40
0.553152830668921
40
0.561176788951717
40
0.577224705517308
40
0.585248663800103
40
0.593272622082899
40
0.60932053864849
40
0.625368455214081
40
0.633392413496876
40
0.641416371779672
40
0.657464288345263
40
0.665488246628059
40
0.673512204910854
40
0.68153616319365
40
0.689560121476445
40
0.697584079759241
40
0.705608038042036
40
0.721655954607627
40
0.737703871173218
40
0.745727829456014
40
0.753751787738809
40
0.761775746021605
40
0.7697997043044
40
0.785847620869991
40
0.801895537435583
40
0.817943454001174
40
0.833991370566765
40
0.84201532884956
40
0.850039287132356
40
0.858063245415151
40
0.866087203697947
40
0.874111161980742
40
0.882135120263538
40
0.890159078546333
40
0.898183036829129
40
0.906206995111924
40
0.91423095339472
40
0.922254911677516
40
0.930278869960311
40
0.938302828243107
40
0.946326786525902
40
0.954350744808698
40
0.962374703091493
40
0.970398661374289
40
0.978422619657084
40
0.98644657793988
40
0.994470536222675
40
1
40
1
40
1
40
1
41
1
10
-1.69999999999999
20
-14.0157960296038
30
0
41
1
10
-1.69999999999996
20
-14.0144803657785
30
0
41
1
10
-1.69999999999999
20
-14.0111456727649
30
0
41
1
10
-1.69999999999999
20
-14.0041924220526
30
0
41
1
10
-1.69999999999999
20
-13.9951249982352
30
0
41
1
10
-1.69999999999999
20
-13.9841238377961
30
0
41
1
10
-1.69999999999999
20
-13.9712195410175
30
0
41
1
10
-1.69999999999999
20
-13.9564420504847
30
0
41
1
10
-1.69999999999999
20
-13.9398197437578
30
0
41
1
10
-1.69999999999999
20
-13.9213794981548
30
0
41
1
10
-1.69999999999999
20
-13.9011479145568
30
0
41
1
10
-1.69999999999999
20
-13.8718187984145
30
0
41
1
10
-1.69999999999999
20
-13.8389980176944
30
0
41
1
10
-1.69999999999999
20
-13.8027899277569
30
0
41
1
10
-1.69999999999999
20
-13.7739560268625
30
0
41
1
10
-1.69999999999999
20
-13.7434661079967
30
0
41
1
10
-1.69999999999999
20
-13.7006353167884
30
0
41
1
10
-1.69999999999999
20
-13.6545611570253
30
0
41
1
10
-1.69999999999999
20
-13.6053356175566
30
0
41
1
10
-1.69999999999999
20
-13.5668499598694
30
0
41
1
10
-1.69999999999999
20
-13.5268172136993
30
0
41
1
10
-1.69999999999999
20
-13.4852529409442
30
0
41
1
10
-1.69999999999999
20
-13.4421723383994
30
0
41
1
10
-1.69999999999999
20
-13.3827344481881
30
0
41
1
10
-1.69999999999999
20
-13.3203101272292
30
0
41
1
10
-1.69999999999999
20
-13.2549799687684
30
0
41
1
10
-1.69999999999999
20
-13.2045321176789
30
0
41
1
10
-1.69999999999999
20
-13.1526505331688
30
0
41
1
10
-1.69999999999999
20
-13.0993474417035
30
0
41
1
10
-1.69999999999999
20
-13.0446338377524
30
0
41
1
10
-1.69999999999999
20
-12.9885221046098
30
0
41
1
10
-1.69999999999999
20
-12.9310230820619
30
0
41
1
10
-1.69999999999999
20
-12.8525264302737
30
0
41
1
10
-1.69999999999999
20
-12.7712834981639
30
0
41
1
10
-1.69999999999999
20
-12.687362440577
30
0
41
1
10
-1.69999999999999
20
-12.6016599065257
30
0
41
1
10
-1.69999999999999
20
-12.4912006631364
30
0
41
1
10
-1.69999999999999
20
-12.3763763795169
30
0
41
1
10
-1.69999999999999
20
-12.2819407102379
30
0
41
1
10
-1.69999999999999
20
-12.2098248313331
30
0
41
1
10
-1.69999999999999
20
-12.1364317035572
30
0
41
1
10
-1.69999999999999
20
-12.0617686735772
30
0
41
1
10
-1.69999999999999
20
-11.9858436943514
30
0
41
1
10
-1.69999999999999
20
-11.9215236271769
30
0
41
1
10
-1.69999999999999
20
-11.869448828233
30
0
41
1
10
-1.69999999999999
20
-11.8169591619061
30
0
41
1
10
-1.69999999999999
20
-11.7505641463283
30
0
41
1
10
-1.69999999999999
20
-11.6696587897978
30
0
41
1
10
-1.69999999999999
20
-11.5601529310588
30
0
41
1
10
-1.69999999999999
20
-11.4481829097131
30
0
41
1
10
-1.69999999999999
20
-11.3338110691597
30
0
41
1
10
-1.69999999999999
20
-11.2468221981049
30
0
41
1
10
-1.69999999999999
20
-11.1586337774266
30
0
41
1
10
-1.69999999999999
20
-11.069250952524
30
0
41
1
10
-1.69999999999999
20
-10.9786794570574
30
0
41
1
10
-1.69999999999999
20
-10.8869237943964
30
0
41
1
10
-1.69999999999999
20
-10.7939888545435
30
0
41
1
10
-1.69999999999999
20
-10.6998796625668
30
0
41
1
10
-1.69999999999999
20
-10.6046008653873
30
0
41
1
10
-1.69999999999999
20
-10.4760157822056
30
0
41
1
10
-1.69999999999999
20
-10.3450861597474
30
0
41
1
10
-1.69999999999999
20
-10.2118742978003
30
0
41
1
10
-1.69999999999999
20
-10.127650582945
30
0
41
1
10
-1.69999999999999
20
-10.059706595653
30
0
41
1
10
-1.69999999999999
20
-9.99138145148612
30
0
41
1
10
-1.69999999999999
20
-9.87081045044334
30
0
41
1
10
-1.69999999999999
20
-9.73071863089592
30
0
41
1
10
-1.69999999999999
20
-9.5883900992504
30
0
41
1
10
-1.69999999999999
20
-9.44455857133374
30
0
41
1
10
-1.69999999999999
20
-9.26193699842017
30
0
41
1
10
-1.69999999999999
20
-9.07558728630886
30
0
41
1
10
-1.69999999999999
20
-8.92429762219672
30
0
41
1
10
-1.69999999999999
20
-8.77152769372714
30
0
41
1
10
-1.69999999999999
20
-8.61651163422607
30
0
41
1
10
-1.69999999999999
20
-8.45931946186533
30
0
41
1
10
-1.69999999999999
20
-8.34031608257325
30
0
41
1
10
-1.69999999999999
20
-8.22021382021134
30
0
41
1
10
-1.69999999999999
20
-8.09901466976936
30
0
41
1
10
-1.69999999999999
20
-7.97672004102665
30
0
41
1
10
-1.69999999999999
20
-7.81221412115067
30
0
41
1
10
-1.69999999999999
20
-7.60382757721297
30
0
41
1
10
-1.69999999999999
20
-7.391814483107
30
0
41
1
10
-1.69999999999999
20
-7.22005471809891
30
0
41
1
10
-1.69999999999999
20
-7.0901422748378
30
0
41
1
10
-1.69999999999999
20
-6.95914718913937
30
0
41
1
10
-1.69999999999999
20
-6.78305839594086
30
0
41
1
10
-1.69999999999999
20
-6.56021849497901
30
0
41
1
10
-1.69999999999999
20
-6.28851702131561
30
0
41
1
10
-1.69999999999999
20
-6.01251450148573
30
0
41
1
10
-1.69999999999999
20
-5.77892152593586
30
0
41
1
10
-1.69999999999999
20
-5.58993219435266
30
0
41
1
10
-1.69999999999999
20
-5.44710902267545
30
0
41
1
10
-1.69999999999999
20
-5.30321731736851
30
0
41
1
10
-1.69999999999999
20
-5.15825863689906
30
0
41
1
10
-1.69999999999999
20
-5.01223421717728
30
0
41
1
10
-1.69999999999999
20
-4.86514572624662
30
0
41
1
10
-1.69999999999999
20
-4.7169946256985
30
0
41
1
10
-1.69999999999999
20
-4.56778315161375
30
0
41
1
10
-1.69999999999999
20
-4.41751369191317
30
0
41
1
10
-1.69999999999999
20
-4.26618881241484
30
0
41
1
10
-1.69999999999999
20
-4.11381118090259
30
0
41
1
10
-1.69999999999999
20
-3.9603838288908
30
0
41
1
10
-1.69999999999999
20
-3.80591068333541
30
0
41
1
10
-1.69999999999999
20
-3.65039703338328
30
0
41
1
10
-1.69999999999999
20
-3.49384788295134
30
0
41
1
10
-1.69999999999999
20
-3.33626946559076
30
0
41
1
10
-1.69999999999999
20
-3.17766896347746
30
0
41
1
10
-1.69999999999999
20
-3.01805529196176
30
0
41
1
10
-1.69999999999999
20
-2.85743848960826
30
0
41
1
10
-1.69999999999999
20
-2.71257747842986
30
0
41
1
10
-1.69999999999999
20
-2.62111400924692
30
0
41
1
10
-1.69999999999999
20
-2.5837250319525
30
0
0
SPLINE
5
D4
100
AcDbEntity
8
SK1
62
256
6
ByLayer
370
18
48
1
60
0
100
AcDbSpline
70
4
71
3
72
114
73
110
40
0
40
0
40
0
40
0
40
0.005529450186276
40
0.0135533950318365
40
0.021577339877397
40
0.0296012847229574
40
0.0376252295685179
40
0.0456491744140784
40
0.0536731192596389
40
0.0616970641051993
40
0.0697210089507598
40
0.0777449537963203
40
0.0857688986418807
40
0.0937928434874412
40
0.101816788333002
40
0.109840733178562
40
0.117864678024123
40
0.125888622869683
40
0.133912567715244
40
0.141936512560804
40
0.149960457406364
40
0.157984402251925
40
0.166008347097485
40
0.182056236788606
40
0.198104126479727
40
0.214152016170848
40
0.230199905861969
40
0.23822385070753
40
0.24624779555309
40
0.254271740398651
40
0.262295685244211
40
0.278343574935332
40
0.294391464626453
40
0.302415409472014
40
0.310439354317574
40
0.318463299163134
40
0.326487244008695
40
0.334511188854255
40
0.342535133699816
40
0.358583023390937
40
0.366606968236497
40
0.374630913082058
40
0.390678802773179
40
0.4067266924643
40
0.41475063730986
40
0.422774582155421
40
0.438822471846542
40
0.446846416692102
40
0.450858389114882
40
0.454870361537663
40
0.462894306383223
40
0.470918251228783
40
0.486966140919904
40
0.494990085765465
40
0.503014030611025
40
0.511037975456586
40
0.519061920302146
40
0.527085865147707
40
0.535109809993267
40
0.543133754838828
40
0.551157699684388
40
0.559181644529949
40
0.567205589375509
40
0.58325347906663
40
0.59127742391219
40
0.599301368757751
40
0.607325313603311
40
0.611337286026092
40
0.615349258448872
40
0.623373203294432
40
0.631397148139993
40
0.639421092985553
40
0.647445037831114
40
0.655468982676674
40
0.663492927522235
40
0.679540817213356
40
0.695588706904477
40
0.703612651750037
40
0.711636596595598
40
0.727684486286718
40
0.735708431132279
40
0.743732375977839
40
0.7517563208234
40
0.75978026566896
40
0.767804210514521
40
0.775828155360081
40
0.783852100205642
40
0.791876045051202
40
0.807923934742323
40
0.815947879587884
40
0.823971824433444
40
0.831995769279005
40
0.840019714124565
40
0.848043658970126
40
0.856067603815686
40
0.872115493506807
40
0.880139438352367
40
0.888163383197928
40
0.896187328043488
40
0.904211272889049
40
0.92025916258017
40
0.936307052271291
40
0.952354941962412
40
0.960378886807972
40
0.968402831653533
40
0.976426776499093
40
0.984450721344654
40
0.992474666190214
40
1
40
1
40
1
40
1
41
1
10
-1.69999999999999
20
2.58372509632827
30
0
41
1
10
-1.69999999999999
20
2.62111404232408
30
0
41
1
10
-1.69999999999999
20
2.71257747642741
30
0
41
1
10
-1.69999999999999
20
2.85743846779499
30
0
41
1
10
-1.69999999999999
20
3.01805527431182
30
0
41
1
10
-1.69999999999999
20
3.17766893265431
30
0
41
1
10
-1.69999999999999
20
3.33626943234705
30
0
41
1
10
-1.69999999999999
20
3.49384789900151
30
0
41
1
10
-1.69999999999999
20
3.65039714326571
30
0
41
1
10
-1.69999999999999
20
3.80591077742719
30
0
41
1
10
-1.69999999999999
20
3.96038358832212
30
0
41
1
10
-1.69999999999999
20
4.11381092681606
30
0
41
1
10
-1.69999999999999
20
4.26618872973953
30
0
41
1
10
-1.69999999999999
20
4.41751381174834
30
0
41
1
10
-1.69999999999999
20
4.56778337246482
30
0
41
1
10
-1.69999999999999
20
4.71699468615466
30
0
41
1
10
-1.69999999999999
20
4.86514556778678
30
0
41
1
10
-1.69999999999999
20
5.01223405348068
30
0
41
1
10
-1.69999999999999
20
5.15825857839869
30
0
41
1
10
-1.69999999999999
20
5.30321729486519
30
0
41
1
10
-1.69999999999999
20
5.44710899667646
30
0
41
1
10
-1.69999999999999
20
5.58993216915877
30
0
41
1
10
-1.69999999999999
20
5.77892152059965
30
0
41
1
10
-1.69999999999999
20
6.01251447744062
30
0
41
1
10
-1.69999999999999
20
6.28851700104784
30
0
41
1
10
-1.69999999999999
20
6.56021848903171
30
0
41
1
10
-1.69999999999999
20
6.7830583657493
30
0
41
1
10
-1.69999999999999
20
6.95914717066265
30
0
41
1
10
-1.69999999999999
20
7.09014226669851
30
0
41
1
10
-1.69999999999999
20
7.22005470774221
30
0
41
1
10
-1.69999999999999
20
7.39181445781463
30
0
41
1
10
-1.69999999999999
20
7.60382755625838
30
0
41
1
10
-1.69999999999999
20
7.81221411547432
30
0
41
1
10
-1.69999999999999
20
7.9767200242907
30
0
41
1
10
-1.69999999999999
20
8.09901464495698
30
0
41
1
10
-1.69999999999999
20
8.22021379775831
30
0
41
1
10
-1.69999999999999
20
8.34031606829598
30
0
41
1
10
-1.69999999999999
20
8.45931945344486
30
0
41
1
10
-1.69999999999999
20
8.61651162008161
30
0
41
1
10
-1.69999999999999
20
8.77152766795061
30
0
41
1
10
-1.69999999999999
20
8.92429760284435
30
0
41
1
10
-1.69999999999999
20
9.07558727703642
30
0
41
1
10
-1.69999999999999
20
9.26193698423123
30
0
41
1
10
-1.69999999999999
20
9.44455854729449
30
0
41
1
10
-1.69999999999999
20
9.58839008121353
30
0
41
1
10
-1.69999999999999
20
9.73071862052217
30
0
41
1
10
-1.69999999999999
20
9.87081043657869
30
0
41
1
10
-1.69999999999999
20
9.9913814320609
30
0
41
1
10
-1.69999999999999
20
10.0597065749413
30
0
41
1
10
-1.69999999999999
20
10.1276505623382
30
0
41
1
10
-1.69999999999999
20
10.2118742799613
30
0
41
1
10
-1.69999999999999
20
10.3450861470912
30
0
41
1
10
-1.69999999999999
20
10.4760157679139
30
0
41
1
10
-1.69999999999999
20
10.6046008465563
30
0
41
1
10
-1.69999999999999
20
10.6998796425436
30
0
41
1
10
-1.69999999999999
20
10.7939888359847
30
0
41
1
10
-1.69999999999999
20
10.8869237783616
30
0
41
1
10
-1.69999999999999
20
10.9786794422307
30
0
41
1
10
-1.69999999999999
20
11.0692509372408
30
0
41
1
10
-1.69999999999999
20
11.1586337603462
30
0
41
1
10
-1.69999999999999
20
11.2468221792499
30
0
41
1
10
-1.69999999999999
20
11.3338110499831
30
0
41
1
10
-1.69999999999999
20
11.448182891669
30
0
41
1
10
-1.69999999999999
20
11.5601529159528
30
0
41
1
10
-1.69999999999999
20
11.6696587742526
30
0
41
1
10
-1.69999999999999
20
11.7505641289662
30
0
41
1
10
-1.69999999999999
20
11.8169591426362
30
0
41
1
10
-1.69999999999999
20
11.8694488081267
30
0
41
1
10
-1.69999999999999
20
11.9215236068653
30
0
41
1
10
-1.69999999999999
20
11.9858436758677
30
0
41
1
10
-1.69999999999999
20
12.0617686582407
30
0
41
1
10
-1.69999999999999
20
12.1364316894724
30
0
41
1
10
-1.69999999999999
20
12.209824815618
30
0
41
1
10
-1.69999999999999
20
12.2819406900945
30
0
41
1
10
-1.69999999999999
20
12.3763763558488
30
0
41
1
10
-1.69999999999999
20
12.4912006491746
30
0
41
1
10
-1.69999999999999
20
12.6016598943421
30
0
41
1
10
-1.69999999999999
20
12.6873624197502
30
0
41
1
10
-1.69999999999999
20
12.7712834714132
30
0
41
1
10
-1.69999999999999
20
12.8525264142953
30
0
41
1
10
-1.69999999999999
20
12.9310230723471
30
0
41
1
10
-1.69999999999999
20
12.9885220902628
30
0
41
1
10
-1.69999999999999
20
13.0446338149516
30
0
41
1
10
-1.69999999999999
20
13.099347414251
30
0
41
1
10
-1.69999999999999
20
13.1526505121852
30
0
41
1
10
-1.69999999999999
20
13.2045321061977
30
0
41
1
10
-1.69999999999999
20
13.254979960848
30
0
41
1
10
-1.69999999999999
20
13.3203101073726
30
0
41
1
10
-1.69999999999999
20
13.3827344162836
30
0
41
1
10
-1.69999999999999
20
13.4421723218484
30
0
41
1
10
-1.69999999999999
20
13.485252935173
30
0
41
1
10
-1.69999999999999
20
13.5268172028035
30
0
41
1
10
-1.69999999999999
20
13.5668499361124
30
0
41
1
10
-1.69999999999999
20
13.6053355893185
30
0
41
1
10
-1.69999999999999
20
13.6545611373555
30
0
41
1
10
-1.69999999999999
20
13.7006353174901
30
0
41
1
10
-1.69999999999999
20
13.7434660879001
30
0
41
1
10
-1.69999999999999
20
13.773955994413
30
0
41
1
10
-1.69999999999999
20
13.8027899045868
30
0
41
1
10
-1.69999999999999
20
13.838998019961
30
0
41
1
10
-1.69999999999999
20
13.8800204120324
30
0
41
1
10
-1.69999999999999
20
13.9222750232465
30
0
41
1
10
-1.69999999999999
20
13.9515178138587
30
0
41
1
10
-1.69999999999999
20
13.9712195253815
30
0
41
1
10
-1.69999999999999
20
13.9841239086368
30
0
41
1
10
-1.69999999999999
20
13.9951252442004
30
0
41
1
10
-1.69999999999999
20
14.0041925984504
30
0
41
1
10
-1.69999999999999
20
14.0111457478692
30
0
41
1
10
-1.69999999999999
20
14.0144803195903
30
0
41
1
10
-1.69999999999999
20
14.0157960962544
30
0
0
SPLINE
5
D5
100
AcDbEntity
8
SK1
62
256
6
ByLayer
370
18
48
1
60
0
100
AcDbSpline
70
4
71
3
72
8
73
4
40
0
40
0
40
0
40
0
40
1
40
1
40
1
40
1
41
1
10
-1.30710678118655
20
3.62781725664613
30
0
41
1
10
-1.37353763980974
20
3.29087080342427
30
0
41
1
10
-1.4372149826398
20
2.94709379867732
30
0
41
1
10
-1.49503997793931
20
2.5946511583831
30
0
0
SPLINE
5
D6
100
AcDbEntity
8
SK1
62
256
6
ByLayer
370
18
48
1
60
0
100
AcDbSpline
70
4
71
3
72
30
73
26
40
0
40
0
40
0
40
0
40
0.249999999999996
40
0.249999999999996
40
0.374999999999995
40
0.374999999999995
40
0.437499999999994
40
0.437499999999994
40
0.468749999999994
40
0.468749999999994
40
0.499999999999995
40
0.499999999999995
40
0.515624999999995
40
0.515624999999995
40
0.531249999999995
40
0.531249999999995
40
0.546874999999996
40
0.546874999999996
40
0.562499999999996
40
0.562499999999996
40
0.624999999999997
40
0.624999999999997
40
0.749999999999998
40
0.749999999999998
40
1
40
1
40
1
40
1
41
1
10
-1.49503997793931
20
2.59465115838307
30
0
41
1
10
-1.51026746272268
20
2.50183982455951
30
0
41
1
10
-1.52651400478425
20
2.40922455962408
30
0
41
1
10
-1.55478813482398
20
2.27186617316025
30
0
41
1
10
-1.56483850627197
20
2.22626541767525
30
0
41
1
10
-1.58232732166977
20
2.1592818069538
30
0
41
1
10
-1.58855430949953
20
2.13715881603292
30
0
41
1
10
-1.59928375148641
20
2.10496662261352
30
0
41
1
10
-1.60308610086514
20
2.0944176300969
30
0
41
1
10
-1.6116030497501
20
2.07406881511585
30
0
41
1
10
-1.6162780233625
20
2.06410999368941
30
0
41
1
10
-1.6249689304999
20
2.05149541629649
30
0
41
1
10
-1.62816482150973
20
2.04762113463221
30
0
41
1
10
-1.63581311778782
20
2.04242474357423
30
0
41
1
10
-1.64047550516949
20
2.04153346480726
30
0
41
1
10
-1.64893986683211
20
2.04619400336981
30
0
41
1
10
-1.65243193129891
20
2.05108113187364
30
0
41
1
10
-1.65796633561408
20
2.06142619765942
30
0
41
1
10
-1.66019890815173
20
2.06715816278913
30
0
41
1
10
-1.66988903742802
20
2.09599783238281
30
0
41
1
10
-1.67400497309845
20
2.1206918183903
30
0
41
1
10
-1.68477614120369
20
2.19380514302554
30
0
41
1
10
-1.68861651052396
20
2.24263416926129
30
0
41
1
10
-1.69768397047525
20
2.38915025298928
30
0
41
1
10
-1.69960876100487
20
2.48671898766878
30
0
41
1
10
-1.69999999999999
20
2.58372509632824
30
0
0
SPLINE
5
D7
100
AcDbEntity
8
SK1
62
256
6
ByLayer
370
18
48
1
60
0
100
AcDbSpline
70
4
71
3
72
19
73
15
40
0
40
0
40
0
40
0
40
0.0013023242976427
40
0.0949940569232496
40
0.188685789548857
40
0.282377522174463
40
0.37606925480007
40
0.469760987425677
40
0.563452720051284
40
0.65714445267689
40
0.750836185302498
40
0.844527917928104
40
0.938219650553711
40
1
40
1
40
1
40
1
41
1
10
-1.49503997793934
20
-13.8251837300699
30
0
41
1
10
-1.49503997793934
20
-13.8251847301699
30
0
41
1
10
-1.49503997793934
20
-13.8252109203408
30
0
41
1
10
-1.49503997793931
20
-13.8245545856003
30
0
41
1
10
-1.49503997793931
20
-13.821531562835
30
0
41
1
10
-1.49503997793931
20
-13.8164987457743
30
0
41
1
10
-1.49503997793931
20
-13.8094907530557
30
0
41
1
10
-1.49503997793931
20
-13.800539960484
30
0
41
1
10
-1.49503997793931
20
-13.7896781016746
30
0
41
1
10
-1.49503997793931
20
-13.7769347594832
30
0
41
1
10
-1.49503997793931
20
-13.7623389110759
30
0
41
1
10
-1.49503997793931
20
-13.7459180935577
30
0
41
1
10
-1.49503997793931
20
-13.7297669057731
30
0
41
1
10
-1.49503997793934
20
-13.7188752515886
30
0
41
1
10
-1.49503997793934
20
-13.7144191508676
30
0
0
SPLINE
5
D8
100
AcDbEntity
8
SK1
62
256
6
ByLayer
370
13
48
1
60
0
100
AcDbSpline
70
4
71
3
72
108
73
104
40
0
40
0
40
0
40
0
40
0.0029472964648946
40
0.0116005507246849
40
0.0289070592442655
40
0.0375603135040557
40
0.046213567763846
40
0.0548668220236362
40
0.0635200762834266
40
0.0808265848030071
40
0.0894798390627974
40
0.0981330933225877
40
0.106786347582378
40
0.115439601842168
40
0.124092856101958
40
0.132746110361749
40
0.150052618881329
40
0.15870587314112
40
0.16735912740091
40
0.1760123816607
40
0.18466563592049
40
0.193318890180281
40
0.201972144440071
40
0.210625398699861
40
0.219278652959651
40
0.236585161479232
40
0.245238415739022
40
0.253891669998813
40
0.271198178518393
40
0.288504687037974
40
0.297157941297764
40
0.305811195557554
40
0.314464449817345
40
0.323117704077135
40
0.331770958336925
40
0.340424212596715
40
0.344750839726611
40
0.349077466856506
40
0.357730721116296
40
0.366383975376086
40
0.375037229635876
40
0.392343738155457
40
0.400996992415247
40
0.409650246675038
40
0.418303500934828
40
0.426956755194618
40
0.435610009454408
40
0.444263263714199
40
0.452916517973989
40
0.461569772233779
40
0.47022302649357
40
0.47887628075336
40
0.49618278927294
40
0.504836043532731
40
0.513489297792521
40
0.517815924922416
40
0.522142552052311
40
0.530795806312101
40
0.548102314831682
40
0.556755569091472
40
0.565408823351263
40
0.582715331870843
40
0.600021840390424
40
0.608675094650214
40
0.617328348910004
40
0.634634857429585
40
0.643288111689375
40
0.651941365949165
40
0.660594620208956
40
0.669247874468746
40
0.677901128728536
40
0.686554382988326
40
0.703860891507907
40
0.721167400027487
40
0.729820654287278
40
0.738473908547068
40
0.747127162806859
40
0.755780417066649
40
0.773086925586229
40
0.79039343410581
40
0.80769994262539
40
0.825006451144971
40
0.833659705404761
40
0.842312959664551
40
0.850966213924342
40
0.859619468184132
40
0.868272722443922
40
0.876925976703712
40
0.885579230963503
40
0.894232485223293
40
0.902885739483083
40
0.911538993742874
40
0.920192248002664
40
0.928845502262454
40
0.937498756522244
40
0.946152010782035
40
0.954805265041825
40
0.963458519301615
40
0.972111773561406
40
0.980765027821196
40
0.989418282080986
40
0.998071536340776
40
1
40
1
40
1
40
1
41
1
10
-1.49503997793931
20
-13.7144191508658
30
0
41
1
10
-1.49503997793931
20
-13.7121174426555
30
0
41
1
10
-1.49503997793928
20
-13.7029234498911
30
0
41
1
10
-1.49503997793931
20
-13.6786965897715
30
0
41
1
10
-1.49503997793931
20
-13.646298505966
30
0
41
1
10
-1.49503997793931
20
-13.6104729213425
30
0
41
1
10
-1.49503997793931
20
-13.5819601013665
30
0
41
1
10
-1.49503997793931
20
-13.551806168738
30
0
41
1
10
-1.49503997793931
20
-13.5094130161235
30
0
41
1
10
-1.49503997793931
20
-13.4638962511352
30
0
41
1
10
-1.49503997793931
20
-13.4151607649325
30
0
41
1
10
-1.49503997793931
20
-13.3770799229021
30
0
41
1
10
-1.49503997793931
20
-13.3374647797226
30
0
41
1
10
-1.49503997793931
20
-13.2963307229449
30
0
41
1
10
-1.49503997793931
20
-13.2536925631392
30
0
41
1
10
-1.49503997793931
20
-13.1948224412614
30
0
41
1
10
-1.49503997793931
20
-13.133106637017
30
0
41
1
10
-1.49503997793931
20
-13.0683888234861
30
0
41
1
10
-1.49503997793931
20
-13.0184419731185
30
0
41
1
10
-1.49503997793931
20
-12.9670724454163
30
0
41
1
10
-1.49503997793931
20
-12.9142926213842
30
0
41
1
10
-1.49503997793931
20
-12.8601132308426
30
0
41
1
10
-1.49503997793931
20
-12.8045464232669
30
0
41
1
10
-1.49503997793931
20
-12.7476032540011
30
0
41
1
10
-1.49503997793931
20
-12.6698142967672
30
0
41
1
10
-1.49503997793931
20
-12.5894449263383
30
0
41
1
10
-1.49503997793931
20
-12.5062717787185
30
0
41
1
10
-1.49503997793931
20
-12.4213295969168
30
0
41
1
10
-1.49503997793931
20
-12.3119621581916
30
0
41
1
10
-1.49503997793931
20
-12.1982669205398
30
0
41
1
10
-1.49503997793931
20
-12.1046570427268
30
0
41
1
10
-1.49503997793931
20
-12.0332119519516
30
0
41
1
10
-1.49503997793931
20
-11.960500101414
30
0
41
1
10
-1.49503997793931
20
-11.886528664654
30
0
41
1
10
-1.49503997793931
20
-11.8113057197552
30
0
41
1
10
-1.49503997793931
20
-11.747609354201
30
0
41
1
10
-1.49503997793931
20
-11.6959849306732
30
0
41
1
10
-1.49503997793931
20
-11.6439487843731
30
0
41
1
10
-1.49503997793931
20
-11.5781957427673
30
0
41
1
10
-1.49503997793931
20
-11.4980349156058
30
0
41
1
10
-1.49503997793931
20
-11.3894729046301
30
0
41
1
10
-1.49503997793931
20
-11.2786601205037
30
0
41
1
10
-1.49503997793931
20
-11.165273297363
30
0
41
1
10
-1.49503997793931
20
-11.0790834618892
30
0
41
1
10
-1.49503997793931
20
-10.9917054227684
30
0
41
1
10
-1.49503997793931
20
-10.9031442186804
30
0
41
1
10
-1.49503997793931
20
-10.8134058114344
30
0
41
1
10
-1.49503997793931
20
-10.7224950525572
30
0
41
1
10
-1.49503997793931
20
-10.630416702033
30
0
41
1
10
-1.49503997793931
20
-10.537175897834
30
0
41
1
10
-1.49503997793931
20
-10.4427777956644
30
0
41
1
10
-1.49503997793931
20
-10.3153089526253
30
0
41
1
10
-1.49503997793931
20
-10.1857467801784
30
0
41
1
10
-1.49503997793931
20
-10.0536983203575
30
0
41
1
10
-1.49503997793931
20
-9.97030028641953
30
0
41
1
10
-1.49503997793931
20
-9.90295237623948
30
0
41
1
10
-1.49503997793931
20
-9.835227886979
30
0
41
1
10
-1.49503997793931
20
-9.71574945872362
30
0
41
1
10
-1.49503997793931
20
-9.57714512355727
30
0
41
1
10
-1.49503997793931
20
-9.43608247629774
30
0
41
1
10
-1.49503997793931
20
-9.2935360539519
30
0
41
1
10
-1.49503997793931
20
-9.11275364912453
30
0
41
1
10
-1.49503997793931
20
-8.92829538452324
30
0
41
1
10
-1.49503997793931
20
-8.7783873974316
30
0
41
1
10
-1.49503997793931
20
-8.62702161678089
30
0
41
1
10
-1.49503997793931
20
-8.47372856948019
30
0
41
1
10
-1.49503997793931
20
-8.31800484031689
30
0
41
1
10
-1.49503997793931
20
-8.2001957134178
30
0
41
1
10
-1.49503997793931
20
-8.08130644558901
30
0
41
1
10
-1.49503997793931
20
-7.96134018717205
30
0
41
1
10
-1.49503997793931
20
-7.84029855153605
30
0
41
1
10
-1.49503997793931
20
-7.67738590051292
30
0
41
1
10
-1.49503997793931
20
-7.47128768043942
30
0
41
1
10
-1.49503997793931
20
-7.2616368417514
30
0
41
1
10
-1.49503997793931
20
-7.09160988853208
30
0
41
1
10
-1.49503997793931
20
-6.96311018885422
30
0
41
1
10
-1.49503997793931
20
-6.83355374310952
30
0
41
1
10
-1.49503997793931
20
-6.65929861735813
30
0
41
1
10
-1.49503997793931
20
-6.43910150489376
30
0
41
1
10
-1.49503997793931
20
-6.17053537924178
30
0
41
1
10
-1.49503997793931
20
-5.89779786635279
30
0
41
1
10
-1.49503997793931
20
-5.66717892451575
30
0
41
1
10
-1.49503997793931
20
-5.48038543010179
30
0
41
1
10
-1.49503997793931
20
-5.33936160781602
30
0
41
1
10
-1.49503997793931
20
-5.19731095699919
30
0
41
1
10
-1.49503997793931
20
-5.05423700692029
30
0
41
1
10
-1.49503997793931
20
-4.91014320448997
30
0
41
1
10
-1.49503997793931
20
-4.76503356668587
30
0
41
1
10
-1.49503997793931
20
-4.61891187892093
30
0
41
1
10
-1.49503997793931
20
-4.47178250674139
30
0
41
1
10
-1.49503997793931
20
-4.32365075555242
30
0
41
1
10
-1.49503997793931
20
-4.17452257114442
30
0
41
1
10
-1.49503997793931
20
-4.02440435063468
30
0
41
1
10
-1.49503997793931
20
-3.87330241838256
30
0
41
1
10
-1.49503997793931
20
-3.72122348266291
30
0
41
1
10
-1.49503997793931
20
-3.56817684914566
30
0
41
1
10
-1.49503997793931
20
-3.4141725129254
30
0
41
1
10
-1.49503997793931
20
-3.25922160409144
30
0
41
1
10
-1.49503997793931
20
-3.10333581737226
30
0
41
1
10
-1.49503997793931
20
-2.94652921585708
30
0
41
1
10
-1.49503997793931
20
-2.78881794693001
30
0
41
1
10
-1.49503997793931
20
-2.67130382016643
30
0
41
1
10
-1.49503997793931
20
-2.60647324344194
30
0
41
1
10
-1.49503997793931
20
-2.59465115086951
30
0
0
SPLINE
5
D9
100
AcDbEntity
8
SK1
62
256
6
ByLayer
370
13
48
1
60
0
100
AcDbSpline
70
4
71
3
72
107
73
103
40
0
40
0
40
0
40
0
40
0.0019284613239646
40
0.0105817150329681
40
0.0192349687419715
40
0.0278882224509749
40
0.0365414761599783
40
0.0451947298689818
40
0.0538479835779852
40
0.0625012372869886
40
0.071154490995992
40
0.0798077447049955
40
0.0884609984139989
40
0.0971142521230023
40
0.105767505832006
40
0.114420759541009
40
0.123074013250013
40
0.131727266959016
40
0.14038052066802
40
0.149033774377023
40
0.157687028086026
40
0.16634028179503
40
0.174993535504033
40
0.19230004292204
40
0.209606550340047
40
0.226913057758054
40
0.244219565176061
40
0.252872818885064
40
0.261526072594068
40
0.270179326303071
40
0.278832580012074
40
0.296139087430081
40
0.313445594848088
40
0.322098848557091
40
0.330752102266095
40
0.339405355975098
40
0.348058609684102
40
0.356711863393105
40
0.365365117102109
40
0.382671624520115
40
0.391324878229119
40
0.399978131938122
40
0.417284639356129
40
0.434591146774136
40
0.44324440048314
40
0.451897654192143
40
0.46920416161015
40
0.477857415319153
40
0.482184042173655
40
0.486510669028157
40
0.49516392273716
40
0.503817176446163
40
0.52112368386417
40
0.529776937573174
40
0.538430191282177
40
0.547083444991181
40
0.555736698700184
40
0.564389952409187
40
0.573043206118191
40
0.581696459827194
40
0.590349713536198
40
0.599002967245201
40
0.607656220954205
40
0.624962728372211
40
0.633615982081215
40
0.642269235790218
40
0.650922489499222
40
0.655249116353723
40
0.659575743208225
40
0.668228996917229
40
0.676882250626232
40
0.685535504335235
40
0.694188758044239
40
0.702842011753242
40
0.711495265462246
40
0.728801772880253
40
0.746108280298259
40
0.754761534007263
40
0.763414787716266
40
0.780721295134273
40
0.789374548843277
40
0.79802780255228
40
0.806681056261284
40
0.815334309970287
40
0.82398756367929
40
0.832640817388294
40
0.841294071097297
40
0.849947324806301
40
0.867253832224307
40
0.875907085933311
40
0.884560339642314
40
0.893213593351318
40
0.901866847060321
40
0.910520100769325
40
0.919173354478328
40
0.936479861896335
40
0.945133115605338
40
0.953786369314342
40
0.962439623023345
40
0.971092876732349
40
0.988399384150355
40
1
40
1
40
1
40
1
41
1
10
-1.49503997793931
20
2.59465115838307
30
0
41
1
10
-1.49503997793931
20
2.60647323876151
30
0
41
1
10
-1.49503997793931
20
2.67130381064959
30
0
41
1
10
-1.49503997793931
20
2.78881794429316
30
0
41
1
10
-1.49503997793931
20
2.94652918151195
30
0
41
1
10
-1.49503997793931
20
3.1033357799555
30
0
41
1
10
-1.49503997793931
20
3.25922165821993
30
0
41
1
10
-1.49503997793931
20
3.41417271020586
30
0
41
1
10
-1.49503997793931
20
3.56817690176541
30
0
41
1
10
-1.49503997793931
20
3.7212231412766
30
0
41
1
10
-1.49503997793931
20
3.87330192992579
30
0
41
1
10
-1.49503997793931
20
4.02440432752809
30
0
41
1
10
-1.49503997793931
20
4.17452288947305
30
0
41
1
10
-1.49503997793931
20
4.32365113214263
30
0
41
1
10
-1.49503997793931
20
4.47178260268984
30
0
41
1
10
-1.49503997793931
20
4.61891156596767
30
0
41
1
10
-1.49503997793931
20
4.7650332428635
30
0
41
1
10
-1.49503997793931
20
4.91014315579861
30
0
41
1
10
-1.49503997793931
20
5.05423706888553
30
0
41
1
10
-1.49503997793931
20
5.19731095553269
30
0
41
1
10
-1.49503997793931
20
5.33936157753735
30
0
41
1
10
-1.49503997793931
20
5.48038541909952
30
0
41
1
10
-1.49503997793931
20
5.66717892097088
30
0
41
1
10
-1.49503997793931
20
5.89779783511918
30
0
41
1
10
-1.49503997793931
20
6.17053536578155
30
0
41
1
10
-1.49503997793931
20
6.43910149333703
30
0
41
1
10
-1.49503997793931
20
6.65929858415237
30
0
41
1
10
-1.49503997793931
20
6.83355373772449
30
0
41
1
10
-1.49503997793931
20
6.96311018452545
30
0
41
1
10
-1.49503997793931
20
7.09160986883526
30
0
41
1
10
-1.49503997793931
20
7.261636811758
30
0
41
1
10
-1.49503997793931
20
7.47128766686797
30
0
41
1
10
-1.49503997793931
20
7.67738589461936
30
0
41
1
10
-1.49503997793931
20
7.84029852533041
30
0
41
1
10
-1.49503997793931
20
7.96134016006346
30
0
41
1
10
-1.49503997793931
20
8.08130642958628
30
0
41
1
10
-1.49503997793931
20
8.2001957064717
30
0
41
1
10
-1.49503997793931
20
8.31800483202281
30
0
41
1
10
-1.49503997793931
20
8.47372854841305
30
0
41
1
10
-1.49503997793931
20
8.62702158955997
30
0
41
1
10
-1.49503997793931
20
8.77838738443313
30
0
41
1
10
-1.49503997793931
20
8.92829537712967
30
0
41
1
10
-1.49503997793931
20
9.11275363063513
30
0
41
1
10
-1.49503997793931
20
9.29353602958125
30
0
41
1
10
-1.49503997793931
20
9.43608246295526
30
0
41
1
10
-1.49503997793931
20
9.57714511427093
30
0
41
1
10
-1.49503997793931
20
9.71574944153573
30
0
41
1
10
-1.49503997793931
20
9.83522786489038
30
0
41
1
10
-1.49503997793931
20
9.90295235506755
30
0
41
1
10
-1.49503997793931
20
9.97030026745779
30
0
41
1
10
-1.49503997793931
20
10.0536983054632
30
0
41
1
10
-1.49503997793931
20
10.1857467684219
30
0
41
1
10
-1.49503997793931
20
10.3153089364435
30
0
41
1
10
-1.49503997793931
20
10.4427777751693
30
0
41
1
10
-1.49503997793931
20
10.5371758780398
30
0
41
1
10
-1.49503997793931
20
10.6304166849825
30
0
41
1
10
-1.49503997793931
20
10.7224950378189
30
0
41
1
10
-1.49503997793931
20
10.8134057967923
30
0
41
1
10
-1.49503997793931
20
10.9031442025602
30
0
41
1
10
-1.49503997793931
20
10.9917054044732
30
0
41
1
10
-1.49503997793931
20
11.0790834423827
30
0
41
1
10
-1.49503997793931
20
11.1652732784127
30
0
41
1
10
-1.49503997793931
20
11.278660103453
30
0
41
1
10
-1.49503997793931
20
11.3894728900619
30
0
41
1
10
-1.49503997793931
20
11.4980348993556
30
0
41
1
10
-1.49503997793931
20
11.5781957241672
30
0
41
1
10
-1.49503997793931
20
11.643948764099
30
0
41
1
10
-1.49503997793931
20
11.6959849101866
30
0
41
1
10
-1.49503997793931
20
11.7476093345099
30
0
41
1
10
-1.49503997793931
20
11.8113057028001
30
0
41
1
10
-1.49503997793931
20
11.8865286504803
30
0
41
1
10
-1.49503997793931
20
11.9605000871413
30
0
41
1
10
-1.49503997793931
20
12.0332119345842
30
0
41
1
10
-1.49503997793931
20
12.1046570208051
30
0
41
1
10
-1.49503997793931
20
12.1982668977617
30
0
41
1
10
-1.49503997793931
20
12.3119621458456
30
0
41
1
10
-1.49503997793931
20
12.4213295833849
30
0
41
1
10
-1.49503997793931
20
12.50627175547
30
0
41
1
10
-1.49503997793931
20
12.5894449005116
30
0
41
1
10
-1.49503997793931
20
12.6698142834541
30
0
41
1
10
-1.49503997793931
20
12.74760324418
30
0
41
1
10
-1.49503997793931
20
12.8045464062654
30
0
41
1
10
-1.49503997793931
20
12.860113205584
30
0
41
1
10
-1.49503997793931
20
12.9142925944038
30
0
41
1
10
-1.49503997793931
20
12.9670724273821
30
0
41
1
10
-1.49503997793931
20
13.0184419638584
30
0
41
1
10
-1.49503997793931
20
13.0683888145289
30
0
41
1
10
-1.49503997793931
20
13.1331066142243
30
0
41
1
10
-1.49503997793931
20
13.1948224098965
30
0
41
1
10
-1.49503997793931
20
13.2536925499096
30
0
41
1
10
-1.49503997793931
20
13.2963307178616
30
0
41
1
10
-1.49503997793931
20
13.3374647662751
30
0
41
1
10
-1.49503997793931
20
13.3770798968994
30
0
41
1
10
-1.49503997793931
20
13.4151607370273
30
0
41
1
10
-1.49503997793931
20
13.4638962341071
30
0
41
1
10
-1.49503997793931
20
13.509413016618
30
0
41
1
10
-1.49503997793931
20
13.5518061457236
30
0
41
1
10
-1.49503997793931
20
13.5819600687286
30
0
41
1
10
-1.49503997793931
20
13.6104729008558
30
0
41
1
10
-1.49503997793931
20
13.6462985077496
30
0
41
1
10
-1.49503997793931
20
13.6814821015947
30
0
41
1
10
-1.49503997793931
20
13.7053631769023
30
0
41
1
10
-1.49503997793931
20
13.714420158453
30
0
0
SPLINE
5
DA
100
AcDbEntity
8
SK1
62
256
6
ByLayer
370
18
48
1
60
0
100
AcDbSpline
70
4
71
3
72
18
73
14
40
0
40
0
40
0
40
0
40
0.0617685133394437
40
0.249107152829701
40
0.342776472574828
40
0.436445792319953
40
0.530115112065082
40
0.62378443181021
40
0.717453751555337
40
0.811123071300466
40
0.904792391045591
40
0.99846171079072
40
1
40
1
40
1
40
1
41
1
10
-1.49503997793931
20
13.7144193674093
30
0
41
1
10
-1.49503997793931
20
13.7188744230009
30
0
41
1
10
-1.49503997793931
20
13.7363273856713
30
0
41
1
10
-1.49503997793931
20
13.7574597557179
30
0
41
1
10
-1.49503997793931
20
13.7769347476405
30
0
41
1
10
-1.49503997793931
20
13.7896781830989
30
0
41
1
10
-1.49503997793931
20
13.8005402090708
30
0
41
1
10
-1.49503997793931
20
13.8094909095343
30
0
41
1
10
-1.49503997793931
20
13.8164982902869
30
0
41
1
10
-1.49503997793931
20
13.8215305966481
30
0
41
1
10
-1.49503997793931
20
13.8245539604948
30
0
41
1
10
-1.49503997793931
20
13.8252115903586
30
0
41
1
10
-1.49503997793931
20
13.8251845658986
30
0
41
1
10
-1.49503997793936
20
13.8251835657986
30
0
0
SPLINE
5
DB
100
AcDbEntity
8
SK1
62
256
6
ByLayer
370
18
48
1
60
0
100
AcDbSpline
70
4
71
3
72
20
73
16
40
0
40
0
40
0
40
0
40
0.25
40
0.25
40
0.375
40
0.375
40
0.4375
40
0.4375
40
0.5
40
0.5
40
0.75
40
0.75
40
0.875
40
0.875
40
1
40
1
40
1
40
1
41
1
10
-1.69999999999999
20
2.58372509632824
30
0
41
1
10
-1.7661113123057
20
2.16779007042717
30
0
41
1
10
-1.8231520478235
20
1.74563966403682
30
0
41
1
10
-1.88431819816691
20
1.09996691447751
30
0
41
1
10
-1.90058047077932
20
0.882646870115849
30
0
41
1
10
-1.91721350759224
20
0.553023201537144
30
0
41
1
10
-1.92146378406954
20
0.442540802025576
30
0
41
1
10
-1.92715977707795
20
0.220285135648538
30
0
41
1
10
-1.9285879277983
20
0.108677548680731
30
0
41
1
10
-1.92849632274925
20
-0.445359331572774
30
0
41
1
10
-1.90492944339621
20
-0.881328490160882
30
0
41
1
10
-1.84396151081339
20
-1.52649956093123
30
0
41
1
10
-1.81946627012516
20
-1.74010817855648
30
0
41
1
10
-1.76401082902217
20
-2.16479512178211
30
0
41
1
10
-1.73306081558337
20
-2.37572486620761
30
0
41
1
10
-1.69999999999999
20
-2.58372503195247
30
0
0
SPLINE
5
DC
100
AcDbEntity
8
SK1
62
256
6
ByLayer
370
18
48
1
60
0
100
AcDbSpline
70
4
71
3
72
30
73
26
40
0
40
0
40
0
40
0
40
0.249999999999995
40
0.249999999999995
40
0.374999999999992
40
0.374999999999992
40
0.406249999999991
40
0.406249999999991
40
0.43749999999999
40
0.43749999999999
40
0.45312499999999
40
0.45312499999999
40
0.46874999999999
40
0.46874999999999
40
0.484374999999989
40
0.484374999999989
40
0.499999999999989
40
0.499999999999989
40
0.562499999999989
40
0.562499999999989
40
0.62499999999999
40
0.62499999999999
40
0.749999999999993
40
0.749999999999993
40
1
40
1
40
1
40
1
41
1
10
-1.69999999999999
20
-2.5837250319525
30
0
41
1
10
-1.69960577308385
20
-2.48597799469368
30
0
41
1
10
-1.69767355238125
20
-2.38798982618385
30
0
41
1
10
-1.68844262802617
20
-2.24033510329087
30
0
41
1
10
-1.6845074563401
20
-2.19070814790993
30
0
41
1
10
-1.67522587914647
20
-2.12935469948891
30
0
41
1
10
-1.67312828441314
20
-2.11712975813978
30
0
41
1
10
-1.66799661065508
20
-2.09285679379502
30
0
41
1
10
-1.66501908824247
20
-2.08070007713755
30
0
41
1
10
-1.65873245221243
20
-2.06342051623665
30
0
41
1
10
-1.65636984487858
20
-2.05788078872462
30
0
41
1
10
-1.65023143895016
20
-2.04803772586061
30
0
41
1
10
-1.64627248366924
20
-2.04380832654704
30
0
41
1
10
-1.63739722305138
20
-2.04164679415916
30
0
41
1
10
-1.63308445530924
20
-2.04380258018921
30
0
41
1
10
-1.62595582684793
20
-2.05010802243763
30
0
41
1
10
-1.62290108509805
20
-2.0542524418091
30
0
41
1
10
-1.6090604043298
20
-2.07622701889966
30
0
41
1
10
-1.60160514051981
20
-2.09765684448166
30
0
41
1
10
-1.58759099418751
20
-2.14045324455233
30
0
41
1
10
-1.58147400139299
20
-2.16239311413938
30
0
41
1
10
-1.56425204899804
20
-2.22885918383585
30
0
41
1
10
-1.55431624483137
20
-2.27405720199982
30
0
41
1
10
-1.526294645391
20
-2.41049928039388
30
0
41
1
10
-1.5101601902295
20
-2.50249360080099
30
0
41
1
10
-1.49503997793928
20
-2.59465115086948
30
0
0
SPLINE
5
DD
100
AcDbEntity
8
SK1
62
256
6
ByLayer
370
18
48
1
60
0
100
AcDbSpline
70
4
71
3
72
8
73
4
40
0
40
0
40
0
40
0
40
1
40
1
40
1
40
1
41
1
10
-1.49503997793931
20
-2.59465115086951
30
0
41
1
10
-1.43721506486062
20
-2.94709344599565
30
0
41
1
10
-1.37353709472987
20
-3.29086972471188
30
0
41
1
10
-1.30710678118766
20
-3.62781610099941
30
0
0
SPLINE
5
DE
100
AcDbEntity
8
SK1
62
256
6
ByLayer
370
18
48
1
60
0
100
AcDbSpline
70
4
71
3
72
24
73
20
40
0
40
0
40
0
40
0
40
0.0312500000000005
40
0.0312500000000005
40
0.0625000000000011
40
0.0625000000000011
40
0.0937500000000016
40
0.0937500000000016
40
0.125000000000002
40
0.125000000000002
40
0.187500000000001
40
0.187500000000001
40
0.250000000000001
40
0.250000000000001
40
0.5
40
0.5
40
0.75
40
0.75
40
1
40
1
40
1
40
1
41
1
10
-0.394976888875306
20
-13.8446019297682
30
0
41
1
10
-0.388468629926223
20
-13.8449779249513
30
0
41
1
10
-0.381324590932536
20
-13.8456530881875
30
0
41
1
10
-0.365549387179726
20
-13.8480385128452
30
0
41
1
10
-0.356796789473265
20
-13.8498063080825
30
0
41
1
10
-0.339435575062225
20
-13.8544574766954
30
0
41
1
10
-0.330979789430216
20
-13.8573064570467
30
0
41
1
10
-0.316458103440169
20
-13.8630021925908
30
0
41
1
10
-0.310232882497303
20
-13.8658582165515
30
0
41
1
10
-0.293637826177729
20
-13.8741901944621
30
0
41
1
10
-0.285356310437095
20
-13.879370858282
30
0
41
1
10
-0.271048178733906
20
-13.8892040331652
30
0
41
1
10
-0.265213225486491
20
-13.8937947816305
30
0
41
1
10
-0.239456395896752
20
-13.9157444690284
30
0
41
1
10
-0.228706663403443
20
-13.9303424576192
30
0
41
1
10
-0.212355837349577
20
-13.956189887512
30
0
41
1
10
-0.207496542760453
20
-13.9673765992812
30
0
41
1
10
-0.201274525742775
20
-13.9872294917
30
0
41
1
10
-0.200000000000102
20
-13.9958729075746
30
0
41
1
10
-0.200000000000102
20
-14.0034375364997
30
0
0
SPLINE
5
DF
100
AcDbEntity
8
SK1
62
256
6
ByLayer
370
18
48
1
60
0
100
AcDbSpline
70
4
71
3
72
24
73
20
40
0
40
0
40
0
40
0
40
0.05661079622075
40
0.05661079622075
40
0.292458097165562
40
0.292458097165562
40
0.528305398110375
40
0.528305398110375
40
0.646229048582781
40
0.646229048582781
40
0.764152699055187
40
0.764152699055187
40
0.82311452429139
40
0.82311452429139
40
0.882076349527593
40
0.882076349527593
40
0.941038174763797
40
0.941038174763797
40
1
40
1
40
1
40
1
41
1
10
-0.217769766828809
20
13.947775095699
30
0
41
1
10
-0.218661054588409
20
13.9462698749468
30
0
41
1
10
-0.219597534884002
20
13.9447405263239
30
0
41
1
10
-0.22468293430498
20
13.9367111271038
30
0
41
1
10
-0.229617567212614
20
13.9298132257638
30
0
41
1
10
-0.242229439580598
20
13.9149025794457
30
0
41
1
10
-0.249833588846485
20
13.9068988482931
30
0
41
1
10
-0.265207264314512
20
13.8938007843295
30
0
41
1
10
-0.270999147250933
20
13.8892469004429
30
0
41
1
10
-0.285075726022257
20
13.8795541723659
30
0
41
1
10
-0.293382262191528
20
13.8743360124917
30
0
41
1
10
-0.309973208906484
20
13.865979539183
30
0
41
1
10
-0.316214208385901
20
13.8631087549699
30
0
41
1
10
-0.330656403377191
20
13.8574219230766
30
0
41
1
10
-0.339105376305724
20
13.8545577585332
30
0
41
1
10
-0.356551358104895
20
13.849859688057
30
0
41
1
10
-0.365376234673619
20
13.848068489605
30
0
41
1
10
-0.381257584369365
20
13.8456585749161
30
0
41
1
10
-0.388437406663598
20
13.844979298583
30
0
41
1
10
-0.394976888882155
20
13.8446015176357
30
0
0
SPLINE
5
E0
100
AcDbEntity
8
SK1
62
256
6
ByLayer
370
18
48
1
60
0
100
AcDbSpline
70
4
71
3
72
24
73
20
40
0
40
0
40
0
40
0
40
0.0312499999999997
40
0.0312499999999997
40
0.0624999999999994
40
0.0624999999999994
40
0.093749999999999
40
0.093749999999999
40
0.124999999999999
40
0.124999999999999
40
0.187499999999998
40
0.187499999999998
40
0.249999999999998
40
0.249999999999998
40
0.499999999999998
40
0.499999999999998
40
0.749999999999999
40
0.749999999999999
40
1
40
1
40
1
40
1
41
1
10
-0.394976888875277
20
5.0009244140283
30
0
41
1
10
-0.388468642918042
20
4.99568280562602
30
0
41
1
10
-0.381324616905118
20
4.99114019130747
30
0
41
1
10
-0.365549432031372
20
4.98518739058181
30
0
41
1
10
-0.356796835457004
20
4.98390560483418
30
0
41
1
10
-0.339435615628844
20
4.98662575165022
30
0
41
1
10
-0.330979825278035
20
4.99064303829883
30
0
41
1
10
-0.316458154456313
20
5.00137749301294
30
0
41
1
10
-0.31023293620882
20
5.00796421336065
30
0
41
1
10
-0.293637908337502
20
5.0291345250522
30
0
41
1
10
-0.285356392442452
20
5.04485242604278
30
0
41
1
10
-0.271048262620639
20
5.07695293962848
30
0
41
1
10
-0.265213301889418
20
5.09323765336489
30
0
41
1
10
-0.239456434884659
20
5.175224214336
30
0
41
1
10
-0.228706677165746
20
5.24267174957345
30
0
41
1
10
-0.212355887615843
20
5.37559968949549
30
0
41
1
10
-0.20749656564243
20
5.44161594206614
30
0
41
1
10
-0.201274525264864
20
5.57292339447449
30
0
41
1
10
-0.200000000000102
20
5.63821129007178
30
0
41
1
10
-0.200000000000102
20
5.70317614351211
30
0
0
SPLINE
5
E1
100
AcDbEntity
8
SK1
62
256
6
ByLayer
370
18
48
1
60
0
100
AcDbSpline
70
4
71
3
72
24
73
20
40
0
40
0
40
0
40
0
40
0.25
40
0.25
40
0.5
40
0.5
40
0.625000000000001
40
0.625000000000001
40
0.750000000000001
40
0.750000000000001
40
0.8125
40
0.8125
40
0.875
40
0.875
40
0.90625
40
0.90625
40
0.9375
40
0.9375
40
1
40
1
40
1
40
1
41
1
10
-1.30710678118655
20
3.62781725664613
30
0
41
1
10
-1.27668453291463
20
3.78212308479132
30
0
41
1
10
-1.24216894361871
20
3.93398824770151
30
0
41
1
10
-1.16077398327334
20
4.23236365169211
30
0
41
1
10
-1.11410703752748
20
4.37933268310843
30
0
41
1
10
-1.02709553867305
20
4.59256928859341
30
0
41
1
10
-0.995116720198951
20
4.66266858366526
30
0
41
1
10
-0.921756293939922
20
4.79796868002737
30
0
41
1
10
-0.880935597851789
20
4.86334184876199
30
0
41
1
10
-0.803759710398054
20
4.95360164898065
30
0
41
1
10
-0.775353909590535
20
4.98222160107781
30
0
41
1
10
-0.710417102430739
20
5.0316543750771
30
0
41
1
10
-0.672905235706793
20
5.05301456959728
30
0
41
1
10
-0.609903088653198
20
5.06932192720456
30
0
41
1
10
-0.588493507310886
20
5.07194672129913
30
0
41
1
10
-0.544749997564537
20
5.07084577117553
30
0
41
1
10
-0.523311125415034
20
5.06708508199603
30
0
41
1
10
-0.461957218190179
20
5.0481351773571
30
0
41
1
10
-0.426487186903671
20
5.02630216465266
30
0
41
1
10
-0.394976888875277
20
5.00092441402839
30
0
0
SPLINE
5
E2
100
AcDbEntity
8
SK1
62
256
6
ByLayer
370
18
48
1
60
0
100
AcDbSpline
70
4
71
3
72
281
73
277
40
0
40
0
40
0
40
0
40
0.002698653083052
40
0.0062508096853867
40
0.0098029662877214
40
0.0133551228900562
40
0.0169072794923909
40
0.0204594360947256
40
0.0240115926970603
40
0.0311159059017298
40
0.0382202191063992
40
0.0453245323110687
40
0.0488766889134034
40
0.0524288455157381
40
0.0559810021180728
40
0.0595331587204075
40
0.0666374719250769
40
0.0701896285274116
40
0.0737417851297463
40
0.0772939417320811
40
0.0808460983344158
40
0.0843982549367506
40
0.0879504115390853
40
0.0950547247437547
40
0.0986068813460894
40
0.102159037948424
40
0.105711194550759
40
0.109263351153094
40
0.112815507755428
40
0.116367664357763
40
0.119919820960098
40
0.123471977562433
40
0.130576290767102
40
0.134128447369437
40
0.137680603971771
40
0.144784917176441
40
0.15188923038111
40
0.155441386983445
40
0.15899354358578
40
0.162545700188114
40
0.166097856790449
40
0.169650013392784
40
0.173202169995119
40
0.174978248296286
40
0.176754326597453
40
0.180306483199788
40
0.183858639802123
40
0.187410796404458
40
0.194515109609127
40
0.198067266211462
40
0.201619422813796
40
0.205171579416131
40
0.208723736018466
40
0.2122758926208
40
0.215828049223135
40
0.21938020582547
40
0.222932362427805
40
0.226484519030139
40
0.230036675632474
40
0.237140988837143
40
0.240693145439478
40
0.244245302041813
40
0.24602138034298
40
0.247797458644148
40
0.251349615246482
40
0.258453928451152
40
0.262006085053486
40
0.265558241655821
40
0.272662554860491
40
0.27976686806516
40
0.283319024667495
40
0.28687118126983
40
0.293975494474499
40
0.297527651076834
40
0.301079807679168
40
0.304631964281503
40
0.308184120883838
40
0.311736277486173
40
0.315288434088507
40
0.322392747293177
40
0.329497060497846
40
0.333049217100181
40
0.336601373702516
40
0.34015353030485
40
0.343705686907185
40
0.350810000111854
40
0.357914313316524
40
0.365018626521193
40
0.372122939725863
40
0.375675096328198
40
0.379227252930532
40
0.382779409532867
40
0.386331566135202
40
0.389883722737536
40
0.393435879339871
40
0.396988035942206
40
0.40054019254454
40
0.404092349146875
40
0.40764450574921
40
0.411196662351545
40
0.414748818953879
40
0.418300975556214
40
0.421853132158549
40
0.425405288760884
40
0.428957445363218
40
0.432509601965553
40
0.436061758567888
40
0.439613915170222
40
0.443166071772557
40
0.446718228374892
40
0.448494306676059
40
0.450270384977226
40
0.453822541579561
40
0.455598619880729
40
0.457374698181896
40
0.459150776483063
40
0.460926854784231
40
0.462702933085398
40
0.464479011386566
40
0.466255089687733
40
0.4680311679889
40
0.471583324591235
40
0.473359402892402
40
0.47513548119357
40
0.476911559494737
40
0.478687637795904
40
0.480463716097072
40
0.482239794398239
40
0.484015872699406
40
0.485791951000574
40
0.487568029301741
40
0.489344107602908
40
0.491120185904076
40
0.492896264205243
40
0.494672342506411
40
0.496448420807578
40
0.498224499108745
40
0.500000577409913
40
0.50177665571108
40
0.503552734012247
40
0.505328812313415
40
0.507104890614582
40
0.508880968915749
40
0.510657047216917
40
0.512433125518084
40
0.514209203819252
40
0.515985282120419
40
0.517761360421586
40
0.519537438722753
40
0.521313517023921
40
0.523089595325088
40
0.524865673626256
40
0.526641751927423
40
0.52841783022859
40
0.531969986830925
40
0.533746065132092
40
0.53552214343326
40
0.537298221734427
40
0.539074300035595
40
0.540850378336762
40
0.542626456637929
40
0.544402534939097
40
0.546178613240264
40
0.549730769842599
40
0.551506848143766
40
0.553282926444933
40
0.556835083047268
40
0.560387239649603
40
0.563939396251938
40
0.567491552854272
40
0.571043709456607
40
0.574595866058942
40
0.578148022661276
40
0.581700179263611
40
0.585252335865946
40
0.58880449246828
40
0.592356649070615
40
0.59590880567295
40
0.599460962275285
40
0.603013118877619
40
0.606565275479954
40
0.610117432082289
40
0.613669588684624
40
0.617221745286958
40
0.620773901889293
40
0.624326058491628
40
0.627878215093962
40
0.634982528298632
40
0.642086841503301
40
0.649191154707971
40
0.65629546791264
40
0.659847624514975
40
0.663399781117309
40
0.666951937719644
40
0.670504094321979
40
0.677608407526649
40
0.684712720731318
40
0.688264877333652
40
0.691817033935987
40
0.695369190538322
40
0.698921347140657
40
0.702473503742991
40
0.706025660345326
40
0.713129973549996
40
0.71668213015233
40
0.720234286754665
40
0.727338599959334
40
0.734442913164004
40
0.737995069766339
40
0.741547226368673
40
0.748651539573343
40
0.752203696175678
40
0.753979774476845
40
0.755755852778012
40
0.759308009380347
40
0.762860165982682
40
0.769964479187351
40
0.773516635789686
40
0.777068792392021
40
0.780620948994355
40
0.78417310559669
40
0.787725262199025
40
0.791277418801359
40
0.794829575403694
40
0.798381732006029
40
0.801933888608364
40
0.805486045210698
40
0.812590358415368
40
0.816142515017703
40
0.819694671620037
40
0.823246828222372
40
0.825022906523539
40
0.826798984824707
40
0.830351141427041
40
0.833903298029376
40
0.837455454631711
40
0.841007611234045
40
0.84455976783638
40
0.848111924438715
40
0.855216237643384
40
0.862320550848054
40
0.865872707450388
40
0.869424864052723
40
0.876529177257393
40
0.880081333859727
40
0.883633490462062
40
0.887185647064397
40
0.890737803666732
40
0.894289960269066
40
0.897842116871401
40
0.901394273473736
40
0.90494643007607
40
0.91205074328074
40
0.915602899883074
40
0.919155056485409
40
0.922707213087744
40
0.926259369690079
40
0.929811526292414
40
0.933363682894748
40
0.940467996099418
40
0.944020152701752
40
0.947572309304087
40
0.951124465906422
40
0.954676622508756
40
0.961780935713426
40
0.965333092315761
40
0.968885248918095
40
0.97243740552043
40
0.975989562122765
40
0.979541718725099
40
0.983093875327434
40
0.986646031929769
40
0.990198188532104
40
0.993750345134438
40
0.997302501736773
40
1
40
1
40
1
40
1
41
1
10
-24
20
12.6301285465195
30
0
41
1
10
-24
20
12.6295507154494
30
0
41
1
10
-24
20
12.6277960255384
30
0
41
1
10
-24
20
12.623548726994
30
0
41
1
10
-24
20
12.6171099043118
30
0
41
1
10
-24
20
12.6088736083307
30
0
41
1
10
-24
20
12.5988647342338
30
0
41
1
10
-24
20
12.5871069661154
30
0
41
1
10
-24
20
12.569020437469
30
0
41
1
10
-24
20
12.5424060911485
30
0
41
1
10
-24
20
12.5036823998811
30
0
41
1
10
-24
20
12.466179119183
30
0
41
1
10
-24
20
12.4326960489613
30
0
41
1
10
-24
20
12.4061495447384
30
0
41
1
10
-24
20
12.3780532328159
30
0
41
1
10
-24
20
12.3383402816863
30
0
41
1
10
-24
20
12.2962370819873
30
0
41
1
10
-24
20
12.2505027270978
30
0
41
1
10
-24
20
12.2149010201899
30
0
41
1
10
-24
20
12.1778433481664
30
0
41
1
10
-24
20
12.139344023803
30
0
41
1
10
-24
20
12.0994154546281
30
0
41
1
10
-24
20
12.0440223921018
30
0
41
1
10
-24
20
11.9866456328948
30
0
41
1
10
-24
20
11.9256779328097
30
0
41
1
10
-24
20
11.8787993022056
30
0
41
1
10
-24
20
11.8305656793587
30
0
41
1
10
-24
20
11.78099039585
30
0
41
1
10
-24
20
11.7300825884547
30
0
41
1
10
-24
20
11.6778529900837
30
0
41
1
10
-24
20
11.6243139686469
30
0
41
1
10
-24
20
11.5508590476175
30
0
41
1
10
-24
20
11.4758394707542
30
0
41
1
10
-24
20
11.3972466128896
30
0
41
1
10
-24
20
11.3169609533628
30
0
41
1
10
-24
20
11.2142799019792
30
0
41
1
10
-24
20
11.1074990885262
30
0
41
1
10
-24
20
11.0189464603389
30
0
41
1
10
-24
20
10.9516093773873
30
0
41
1
10
-24
20
10.8830697782116
30
0
41
1
10
-24
20
10.8133337656712
30
0
41
1
10
-24
20
10.7424101789121
30
0
41
1
10
-24
20
10.6825334430363
30
0
41
1
10
-24
20
10.6336671760819
30
0
41
1
10
-24
20
10.5844084477176
30
0
41
1
10
-24
20
10.5225869468266
30
0
41
1
10
-24
20
10.4469857296791
30
0
41
1
10
-24
20
10.3442039867662
30
0
41
1
10
-24
20
10.2404782892815
30
0
41
1
10
-24
20
10.133123847137
30
0
41
1
10
-24
20
10.0518274139735
30
0
41
1
10
-24
20
9.96941226524035
30
0
41
1
10
-24
20
9.8858827890852
30
0
41
1
10
-24
20
9.80124634105394
30
0
41
1
10
-24
20
9.71550990056983
30
0
41
1
10
-24
20
9.62867742465991
30
0
41
1
10
-24
20
9.54075474090101
30
0
41
1
10
-24
20
9.45175012870757
30
0
41
1
10
-24
20
9.33111730296773
30
0
41
1
10
-24
20
9.20992961158598
30
0
41
1
10
-24
20
9.08500600225793
30
0
41
1
10
-24
20
9.00666454438803
30
0
41
1
10
-24
20
8.94296708063843
30
0
41
1
10
-24
20
8.87892107357061
30
0
41
1
10
-24
20
8.76613371827503
30
0
41
1
10
-24
20
8.63663898523424
30
0
41
1
10
-24
20
8.50332881313912
30
0
41
1
10
-24
20
8.36865251940401
30
0
41
1
10
-24
20
8.19913342470036
30
0
41
1
10
-24
20
8.02625870426019
30
0
41
1
10
-24
20
7.88481232676438
30
0
41
1
10
-24
20
7.74204568631339
30
0
41
1
10
-24
20
7.59930458489882
30
0
41
1
10
-24
20
7.45257386795717
30
0
41
1
10
-24
20
7.34207855908448
30
0
41
1
10
-24
20
7.23061782890775
30
0
41
1
10
-24
20
7.11820191301106
30
0
41
1
10
-24
20
7.00483374343872
30
0
41
1
10
-24
20
6.8516785758469
30
0
41
1
10
-24
20
6.65959441745028
30
0
41
1
10
-24
20
6.46441027855923
30
0
41
1
10
-24
20
6.30499529459033
30
0
41
1
10
-24
20
6.18514753468796
30
0
41
1
10
-24
20
6.06440158167572
30
0
41
1
10
-24
20
5.90137597131746
30
0
41
1
10
-24
20
5.69736367955667
30
0
41
1
10
-24
20
5.44799894794272
30
0
41
1
10
-24
20
5.19525670130326
30
0
41
1
10
-24
20
4.98285125019774
30
0
41
1
10
-24
20
4.80950544532163
30
0
41
1
10
-24
20
4.67950096380329
30
0
41
1
10
-24
20
4.54872537799758
30
0
41
1
10
-24
20
4.41719445888799
30
0
41
1
10
-24
20
4.28492388892991
30
0
41
1
10
-24
20
4.15193103870837
30
0
41
1
10
-24
20
4.01823650200188
30
0
41
1
10
-24
20
3.88386015063668
30
0
41
1
10
-24
20
3.74882265025218
30
0
41
1
10
-24
20
3.61314816606938
30
0
41
1
10
-24
20
3.47686551917988
30
0
41
1
10
-24
20
3.34000139230267
30
0
41
1
10
-24
20
3.20258393847712
30
0
41
1
10
-24
20
3.06464837689458
30
0
41
1
10
-24
20
2.9262304523017
30
0
41
1
10
-24
20
2.78737006373561
30
0
41
1
10
-24
20
2.64810891556724
30
0
41
1
10
-24
20
2.50849315364215
30
0
41
1
10
-24
20
2.36857603859875
30
0
41
1
10
-24
20
2.22840727338092
30
0
41
1
10
-24
20
2.11231267734073
30
0
41
1
10
-24
20
2.01771125590744
30
0
41
1
10
-24
20
1.92310511773127
30
0
41
1
10
-24
20
1.8313714962141
30
0
41
1
10
-24
20
1.73663368976398
30
0
41
1
10
-24
20
1.66636839269287
30
0
41
1
10
-24
20
1.59612143913762
30
0
41
1
10
-24
20
1.52590617425699
30
0
41
1
10
-24
20
1.45572440081648
30
0
41
1
10
-24
20
1.38559146347788
30
0
41
1
10
-24
20
1.31551245865842
30
0
41
1
10
-24
20
1.22103102890804
30
0
41
1
10
-24
20
1.13019491172781
30
0
41
1
10
-24
20
1.03590357373665
30
0
41
1
10
-24
20
0.966211278320685
30
0
41
1
10
-24
20
0.896616942008535
30
0
41
1
10
-24
20
0.827119549474418
30
0
41
1
10
-24
20
0.757724503129253
30
0
41
1
10
-24
20
0.688430802184314
30
0
41
1
10
-24
20
0.619238394305086
30
0
41
1
10
-24
20
0.550143822342449
30
0
41
1
10
-24
20
0.481142957404018
30
0
41
1
10
-24
20
0.412229055265982
30
0
41
1
10
-24
20
0.343394373554958
30
0
41
1
10
-24
20
0.274627961865065
30
0
41
1
10
-24
20
0.205919183520024
30
0
41
1
10
-24
20
0.137254128872428
30
0
41
1
10
-24
20
0.068619580615092
30
0
41
1
10
-24
20
1.20069785E-08
30
0
41
1
10
-24
20
-0.0686195837654395
30
0
41
1
10
-24
20
-0.1372541822264
30
0
41
1
10
-24
20
-0.205919229600312
30
0
41
1
10
-24
20
-0.274627932715674
30
0
41
1
10
-24
20
-0.343394334295567
30
0
41
1
10
-24
20
-0.412229116407673
30
0
41
1
10
-24
20
-0.48114304712405
30
0
41
1
10
-24
20
-0.55014378989776
30
0
41
1
10
-24
20
-0.619238310392802
30
0
41
1
10
-24
20
-0.688430856535206
30
0
41
1
10
-24
20
-0.757724640342815
30
0
41
1
10
-24
20
-0.827119544713668
30
0
41
1
10
-24
20
-0.896616816711344
30
0
41
1
10
-24
20
-0.966211277672699
30
0
41
1
10
-24
20
-1.03590373801057
30
0
41
1
10
-24
20
-1.13019491751669
30
0
41
1
10
-24
20
-1.22103090337816
30
0
41
1
10
-24
20
-1.31551253110209
30
0
41
1
10
-24
20
-1.38559165365194
30
0
41
1
10
-24
20
-1.45572444737027
30
0
41
1
10
-24
20
-1.52590604398472
30
0
41
1
10
-24
20
-1.59612132289769
30
0
41
1
10
-24
20
-1.66636846888792
30
0
41
1
10
-24
20
-1.73663389391052
30
0
41
1
10
-24
20
-1.83137150908334
30
0
41
1
10
-24
20
-1.923104963833
30
0
41
1
10
-24
20
-2.01771124909399
30
0
41
1
10
-24
20
-2.11231287096447
30
0
41
1
10
-24
20
-2.22840729138045
30
0
41
1
10
-24
20
-2.36857592379664
30
0
41
1
10
-24
20
-2.50849329023109
30
0
41
1
10
-24
20
-2.64810899336408
30
0
41
1
10
-24
20
-2.7873694745272
30
0
41
1
10
-24
20
-2.92622914514115
30
0
41
1
10
-24
20
-3.06464867495961
30
0
41
1
10
-24
20
-3.20258694679336
30
0
41
1
10
-24
20
-3.34000339886188
30
0
41
1
10
-24
20
-3.47686412773234
30
0
41
1
10
-24
20
-3.61314539193521
30
0
41
1
10
-24
20
-3.74882070125756
30
0
41
1
10
-24
20
-3.88386081960974
30
0
41
1
10
-24
20
-4.01823910176785
30
0
41
1
10
-24
20
-4.15193237523465
30
0
41
1
10
-24
20
-4.28492323331267
30
0
41
1
10
-24
20
-4.41719365917405
30
0
41
1
10
-24
20
-4.54872525063163
30
0
41
1
10
-24
20
-4.67950102029136
30
0
41
1
10
-24
20
-4.8095053694127
30
0
41
1
10
-24
20
-4.98285124277228
30
0
41
1
10
-24
20
-5.19525677656023
30
0
41
1
10
-24
20
-5.44799891971269
30
0
41
1
10
-24
20
-5.69736372546623
30
0
41
1
10
-24
20
-5.90137602298265
30
0
41
1
10
-24
20
-6.0644015068855
30
0
41
1
10
-24
20
-6.1851475156806
30
0
41
1
10
-24
20
-6.30499537148731
30
0
41
1
10
-24
20
-6.46441033734263
30
0
41
1
10
-24
20
-6.65959438580623
30
0
41
1
10
-24
20
-6.85167858307042
30
0
41
1
10
-24
20
-7.00483382763792
30
0
41
1
10
-24
20
-7.11820195418233
30
0
41
1
10
-24
20
-7.2306178054078
30
0
41
1
10
-24
20
-7.34207852113332
30
0
41
1
10
-24
20
-7.45257387547733
30
0
41
1
10
-24
20
-7.59930464836137
30
0
41
1
10
-24
20
-7.74204572237986
30
0
41
1
10
-24
20
-7.88481230085068
30
0
41
1
10
-24
20
-8.02625870014725
30
0
41
1
10
-24
20
-8.19913346952643
30
0
41
1
10
-24
20
-8.36865254580422
30
0
41
1
10
-24
20
-8.50332879773273
30
0
41
1
10
-24
20
-8.63663898786112
30
0
41
1
10
-24
20
-8.76613375581505
30
0
41
1
10
-24
20
-8.87892111197036
30
0
41
1
10
-24
20
-8.94296710462893
30
0
41
1
10
-24
20
-9.00666455327519
30
0
41
1
10
-24
20
-9.08500599911847
30
0
41
1
10
-24
20
-9.20992961783276
30
0
41
1
10
-24
20
-9.33111733072479
30
0
41
1
10
-24
20
-9.45175015939358
30
0
41
1
10
-24
20
-9.54075475929304
30
0
41
1
10
-24
20
-9.62867743247332
30
0
41
1
10
-24
20
-9.71550990736878
30
0
41
1
10
-24
20
-9.80124635456619
30
0
41
1
10
-24
20
-9.88588281033205
30
0
41
1
10
-24
20
-9.9694122909747
30
0
41
1
10
-24
20
-10.0518274374696
30
0
41
1
10
-24
20
-10.1331238647016
30
0
41
1
10
-24
20
-10.240478300249
30
0
41
1
10
-24
20
-10.3442039980406
30
0
41
1
10
-24
20
-10.4469857502475
30
0
41
1
10
-24
20
-10.5225869730086
30
0
41
1
10
-24
20
-10.5844084741421
30
0
41
1
10
-24
20
-10.6336671988976
30
0
41
1
10
-24
20
-10.6825334589273
30
0
41
1
10
-24
20
-10.7424101865055
30
0
41
1
10
-24
20
-10.8133337727233
30
0
41
1
10
-24
20
-10.8830697936353
30
0
41
1
10
-24
20
-10.951609404873
30
0
41
1
10
-24
20
-11.0189464931514
30
0
41
1
10
-24
20
-11.1074991058536
30
0
41
1
10
-24
20
-11.2142799044294
30
0
41
1
10
-24
20
-11.3169609751522
30
0
41
1
10
-24
20
-11.3972466509688
30
0
41
1
10
-24
20
-11.4758394909226
30
0
41
1
10
-24
20
-11.5508590446085
30
0
41
1
10
-24
20
-11.6243139791192
30
0
41
1
10
-24
20
-11.6778530233414
30
0
41
1
10
-24
20
-11.7300826287653
30
0
41
1
10
-24
20
-11.7809904199398
30
0
41
1
10
-24
20
-11.8305656793297
30
0
41
1
10
-24
20
-11.8787992978643
30
0
41
1
10
-24
20
-11.9256779481161
30
0
41
1
10
-24
20
-11.9866456736684
30
0
41
1
10
-24
20
-12.0440224201629
30
0
41
1
10
-24
20
-12.099415447517
30
0
41
1
10
-24
20
-12.1393440246738
30
0
41
1
10
-24
20
-12.1778433772408
30
0
41
1
10
-24
20
-12.2149010599454
30
0
41
1
10
-24
20
-12.250502752964
30
0
41
1
10
-24
20
-12.2962370828382
30
0
41
1
10
-24
20
-12.3383402824608
30
0
41
1
10
-24
20
-12.3780532736994
30
0
41
1
10
-24
20
-12.4061495785297
30
0
41
1
10
-24
20
-12.4326960530149
30
0
41
1
10
-24
20
-12.4661791203578
30
0
41
1
10
-24
20
-12.4959885477691
30
0
41
1
10
-24
20
-12.523037071398
30
0
41
1
10
-24
20
-12.5415673540695
30
0
41
1
10
-24
20
-12.55843663992
30
0
41
1
10
-24
20
-12.5736235086905
30
0
41
1
10
-24
20
-12.5871069547276
30
0
41
1
10
-24
20
-12.5988645879939
30
0
41
1
10
-24
20
-12.6088733436887
30
0
41
1
10
-24
20
-12.617109869821
30
0
41
1
10
-24
20
-12.6235493215145
30
0
41
1
10
-24
20
-12.6277964601872
30
0
41
1
10
-24
20
-12.6295508267854
30
0
41
1
10
-24
20
-12.6301284526173
30
0
0
SPLINE
5
E3
100
AcDbEntity
8
1
62
256
6
ByLayer
370
18
48
1
60
0
100
AcDbSpline
70
4
71
3
72
65
73
61
40
0
40
0
40
0
40
0
40
0.0556018929924104
40
0.0556018929924104
40
0.0834028394886155
40
0.0834028394886155
40
0.111203785984821
40
0.111203785984821
40
0.16680567897723
40
0.16680567897723
40
0.194606625473435
40
0.194606625473435
40
0.22240757196964
40
0.22240757196964
40
0.27800946496205
40
0.27800946496205
40
0.305810411458255
40
0.305810411458255
40
0.319710884706358
40
0.319710884706358
40
0.33361135795446
40
0.33361135795446
40
0.389213250946871
40
0.389213250946871
40
0.403113724194974
40
0.403113724194974
40
0.417014197443076
40
0.417014197443076
40
0.444815143939282
40
0.472616090435488
40
0.472616090435488
40
0.500417036931694
40
0.500417036931694
40
0.556018929924105
40
0.556018929924105
40
0.58381987642031
40
0.58381987642031
40
0.611620822916515
40
0.611620822916515
40
0.63942176941272
40
0.63942176941272
40
0.667222715908926
40
0.667222715908926
40
0.722824608901336
40
0.722824608901336
40
0.750625555397541
40
0.750625555397541
40
0.778426501893746
40
0.778426501893746
40
0.834028394886156
40
0.834028394886156
40
0.861829341382361
40
0.861829341382361
40
0.889630287878567
40
0.889630287878567
40
0.945232180870977
40
0.945232180870977
40
0.973033127367183
40
0.973033127367183
40
1
40
1
40
1
40
1
41
1
10
20.75
20
-18.7243184121612
30
0
41
1
10
20.75
20
-18.5978546061672
30
0
41
1
10
20.7823596534951
20
-18.4643187880991
30
0
41
1
10
20.8747374978773
20
-18.2543009554126
30
0
41
1
10
20.9128968623787
20
-18.1826763506054
30
0
41
1
10
21.003826295201
20
-18.0363532257115
30
0
41
1
10
21.0568010199886
20
-17.9613995082895
30
0
41
1
10
21.2366802775912
20
-17.7339601880106
30
0
41
1
10
21.3825726405938
20
-17.5808564039934
30
0
41
1
10
21.6391054860052
20
-17.3512781215958
30
0
41
1
10
21.7309487374437
20
-17.2747722914475
30
0
41
1
10
21.9277115758564
20
-17.1223110797047
30
0
41
1
10
22.033195929937
20
-17.0459869579978
30
0
41
1
10
22.3656831091983
20
-16.8220240486191
30
0
41
1
10
22.6080347213429
20
-16.6793885168921
30
0
41
1
10
23.0046542833165
20
-16.4799708107405
30
0
41
1
10
23.1424197307248
20
-16.4159420118814
30
0
41
1
10
23.3581379266924
20
-16.3243965488351
30
0
41
1
10
23.4315594168375
20
-16.2946332757602
30
0
41
1
10
23.5816081980545
20
-16.2367820643032
30
0
41
1
10
23.6583866156385
20
-16.2086500634643
30
0
41
1
10
24.0459990690371
20
-16.074269891145
30
0
41
1
10
24.3710066166332
20
-15.9853752207315
30
0
41
1
10
24.7982897671457
20
-15.9033145297247
30
0
41
1
10
24.8848081988412
20
-15.8883668142992
30
0
41
1
10
25.0600752449078
20
-15.8615974877016
30
0
41
1
10
25.1485682590526
20
-15.8498291071505
30
0
41
1
10
25.413584395845
20
-15.8198560172273
30
0
41
1
10
25.7680222490307
20
-15.7937328011892
30
0
41
1
10
26.1246185142602
20
-15.7955412986242
30
0
41
1
10
26.4823156747271
20
-15.8115835133004
30
0
41
1
10
26.662759535119
20
-15.8269260674454
30
0
41
1
10
27.191016888383
20
-15.8926501834885
30
0
41
1
10
27.5298331673734
20
-15.9624409212841
30
0
41
1
10
28.0199214959487
20
-16.0999044965137
30
0
41
1
10
28.1787906536119
20
-16.1508517313325
30
0
41
1
10
28.4847226585873
20
-16.2603790745895
30
0
41
1
10
28.6323938266141
20
-16.3191311609802
30
0
41
1
10
28.917862318732
20
-16.4434525790282
30
0
41
1
10
29.0559036240096
20
-16.5091519583952
30
0
41
1
10
29.3214099686471
20
-16.645934965856
30
0
41
1
10
29.447661350909
20
-16.716365800587
30
0
41
1
10
29.8083792201222
20
-16.9323618199622
30
0
41
1
10
30.0249990486996
20
-17.0825622127321
30
0
41
1
10
30.3158979934556
20
-17.3132806550938
30
0
41
1
10
30.4067714243141
20
-17.3908611089555
30
0
41
1
10
30.574327699819
20
-17.5447964715775
30
0
41
1
10
30.6513917702865
20
-17.6214498324543
30
0
41
1
10
30.8627724431639
20
-17.8498744762447
30
0
41
1
10
30.9774893185193
20
-18.0000916160295
30
0
41
1
10
31.1078132331745
20
-18.2204540660905
30
0
41
1
10
31.1437672971539
20
-18.2923435163367
30
0
41
1
10
31.2002565844817
20
-18.4317960587635
30
0
41
1
10
31.2208989152087
20
-18.4995388104614
30
0
41
1
10
31.2597373840092
20
-18.6967254240354
30
0
41
1
10
31.2550946127466
20
-18.8201304229053
30
0
41
1
10
31.1971599899368
20
-18.9927673734061
30
0
41
1
10
31.169439113737
20
-19.047581791467
30
0
41
1
10
31.0988764182144
20
-19.1493879001688
30
0
41
1
10
31.0564557422371
20
-19.1967455232319
30
0
41
1
10
31.0062705342596
20
-19.241497001069
30
0
0
SPLINE
5
E4
100
AcDbEntity
8
1
62
256
6
ByLayer
370
18
48
1
60
0
100
AcDbSpline
70
4
71
3
72
14
73
10
40
0
40
0
40
0
40
0
40
0.0461047696441562
40
0.0461047696441562
40
0.364069846429438
40
0.364069846429438
40
0.68203492321472
40
0.68203492321472
40
1
40
1
40
1
40
1
41
1
10
20.9949232894467
20
-19.2425571733022
30
0
41
1
10
20.9872839004442
20
-19.2357687144212
30
0
41
1
10
20.9798297258504
20
-19.2289257645399
30
0
41
1
10
20.9224883882887
20
-19.1745104329954
30
0
41
1
10
20.8812187101426
20
-19.1244730739108
30
0
41
1
10
20.8154208736677
20
-19.0192213059468
30
0
41
1
10
20.7908951356612
20
-18.9640071221805
30
0
41
1
10
20.7581845448601
20
-18.8482274181779
30
0
41
1
10
20.75
20
-18.7875503151582
30
0
41
1
10
20.75
20
-18.7243184121612
30
0
0
SPLINE
5
E5
100
AcDbEntity
8
1
62
256
6
ByLayer
370
18
48
1
60
0
100
AcDbSpline
70
4
71
3
72
14
73
10
40
0
40
0
40
0
40
0
40
0.25
40
0.25
40
0.5
40
0.5
40
0.75
40
0.75
40
1
40
1
40
1
40
1
41
1
10
9.33660254037844
20
19.0090010961328
30
0
41
1
10
9.32721838933193
20
19.0200882058098
30
0
41
1
10
9.31598917460931
20
19.0308551549148
30
0
41
1
10
9.2885573183687
20
19.0516173938221
30
0
41
1
10
9.27230679573273
20
19.0616848088323
30
0
41
1
10
9.23221579214871
20
19.0804118955409
30
0
41
1
10
9.20832157597849
20
19.0891057565939
30
0
41
1
10
9.15024050648756
20
19.1024939899386
30
0
41
1
10
9.11435871368039
20
19.1071889479934
30
0
41
1
10
9.07679491924313
20
19.1071889479934
30
0
0
SPLINE
5
E6
100
AcDbEntity
8
1
62
256
6
ByLayer
370
18
48
1
60
0
100
AcDbSpline
70
4
71
3
72
14
73
10
40
0
40
0
40
0
40
0
40
0.25
40
0.25
40
0.5
40
0.5
40
0.75
40
0.75
40
1
40
1
40
1
40
1
41
1
10
9.07679491924313
20
5.87498344726856
30
0
41
1
10
9.11440934806228
20
5.87498344726856
30
0
41
1
10
9.14975448264647
20
5.88992350224112
30
0
41
1
10
9.20871985963095
20
5.93380536541048
30
0
41
1
10
9.23220645479122
20
5.96144402228086
30
0
41
1
10
9.27230177535671
20
6.02105769459283
30
0
41
1
10
9.28841290466525
20
6.05255978196584
30
0
41
1
10
9.31589871808356
20
6.11757389266165
30
0
41
1
10
9.32721493594875
20
6.15121730297341
30
0
41
1
10
9.33660254037846
20
6.18530333348511
30
0
0
SPLINE
5
E7
100
AcDbEntity
8
1
62
256
6
ByLayer
370
18
48
1
60
0
100
AcDbSpline
70
4
71
3
72
14
73
10
40
0
40
0
40
0
40
0
40
0.25
40
0.25
40
0.5
40
0.5
40
0.75
40
0.75
40
1
40
1
40
1
40
1
41
1
10
6.66339745962156
20
6.18530333348511
30
0
41
1
10
6.67278161066807
20
6.15122984207497
30
0
41
1
10
6.68401082539069
20
6.11782763535436
30
0
41
1
10
6.7114426816313
20
6.05286193322368
30
0
41
1
10
6.72769320426727
20
6.02106703939822
30
0
41
1
10
6.76778420785129
20
5.96145602522549
30
0
41
1
10
6.79167842402154
20
5.93351950816273
30
0
41
1
10
6.84975949351247
20
5.89027467139996
30
0
41
1
10
6.88564128631961
20
5.87498344726853
30
0
41
1
10
6.92320508075687
20
5.87498344726853
30
0
0
SPLINE
5
E8
100
AcDbEntity
8
1
62
256
6
ByLayer
370
18
48
1
60
0
100
AcDbSpline
70
4
71
3
72
14
73
10
40
0
40
0
40
0
40
0
40
0.25
40
0.25
40
0.5
40
0.5
40
0.75
40
0.75
40
1
40
1
40
1
40
1
41
1
10
6.9232050807569
20
-5.87498344726856
30
0
41
1
10
6.88559065193772
20
-5.87498344726856
30
0
41
1
10
6.85024551735353
20
-5.88992350224115
30
0
41
1
10
6.79128014036905
20
-5.93380536541048
30
0
41
1
10
6.76779354520878
20
-5.96144402228086
30
0
41
1
10
6.72769822464329
20
-6.02105769459283
30
0
41
1
10
6.71158709533478
20
-6.05255978196584
30
0
41
1
10
6.68410128191644
20
-6.11757389266165
30
0
41
1
10
6.67278506405125
20
-6.15121730297341
30
0
41
1
10
6.66339745962154
20
-6.18530333348511
30
0
0
SPLINE
5
E9
100
AcDbEntity
8
1
62
256
6
ByLayer
370
18
48
1
60
0
100
AcDbSpline
70
4
71
3
72
14
73
10
40
0
40
0
40
0
40
0
40
0.25
40
0.25
40
0.5
40
0.5
40
0.75
40
0.75
40
1
40
1
40
1
40
1
41
1
10
9.33660254037844
20
-6.18530333348511
30
0
41
1
10
9.32721838933193
20
-6.15122984207497
30
0
41
1
10
9.31598917460934
20
-6.11782763535436
30
0
41
1
10
9.2885573183687
20
-6.05286193322368
30
0
41
1
10
9.27230679573273
20
-6.02106703939822
30
0
41
1
10
9.23221579214871
20
-5.96145602522549
30
0
41
1
10
9.20832157597849
20
-5.93351950816273
30
0
41
1
10
9.15024050648756
20
-5.89027467139996
30
0
41
1
10
9.11435871368039
20
-5.87498344726853
30
0
41
1
10
9.07679491924313
20
-5.87498344726853
30
0
0
SPLINE
5
EA
100
AcDbEntity
8
1
62
256
6
ByLayer
370
18
48
1
60
0
100
AcDbSpline
70
4
71
3
72
14
73
10
40
0
40
0
40
0
40
0
40
0.25
40
0.25
40
0.5
40
0.5
40
0.75
40
0.75
40
1
40
1
40
1
40
1
41
1
10
9.07679491924313
20
-19.1071889479934
30
0
41
1
10
9.11440934806228
20
-19.1071889479934
30
0
41
1
10
9.14975448264647
20
-19.1026026677725
30
0
41
1
10
9.20871985963095
20
-19.0890172987105
30
0
41
1
10
9.23220645479122
20
-19.0804156479914
30
0
41
1
10
9.27230177535671
20
-19.0616877628737
30
0
41
1
10
9.28841290466525
20
-19.05171343244
30
0
41
1
10
9.31589871808359
20
-19.0309367686909
30
0
41
1
10
9.32721493594875
20
-19.0200922858846
30
0
41
1
10
9.33660254037846
20
-19.0090010961328
30
0
0
SPLINE
5
EB
100
AcDbEntity
8
1
62
256
6
ByLayer
370
18
48
1
60
0
100
AcDbSpline
70
4
71
3
72
14
73
10
40
0
40
0
40
0
40
0
40
0.25
40
0.25
40
0.5
40
0.5
40
0.75
40
0.75
40
1
40
1
40
1
40
1
41
1
10
6.66339745962156
20
-19.0090010961328
30
0
41
1
10
6.67278161066807
20
-19.0200882058098
30
0
41
1
10
6.68401082539069
20
-19.0308551549148
30
0
41
1
10
6.7114426816313
20
-19.0516173938221
30
0
41
1
10
6.72769320426727
20
-19.0616848088323
30
0
41
1
10
6.76778420785129
20
-19.0804118955409
30
0
41
1
10
6.79167842402154
20
-19.0891057565939
30
0
41
1
10
6.84975949351247
20
-19.1024939899386
30
0
41
1
10
6.88564128631961
20
-19.1071889479934
30
0
41
1
10
6.92320508075687
20
-19.1071889479934
30
0
0
SPLINE
5
EC
100
AcDbEntity
8
1
62
256
6
ByLayer
370
18
48
1
60
0
100
AcDbSpline
70
2053
71
3
72
100
73
96
40
0
40
0
40
0
40
0
40
0.0312500000000002
40
0.0312500000000002
40
0.0468750000000003
40
0.0468750000000003
40
0.0625000000000004
40
0.0625000000000004
40
0.0937500000000005
40
0.0937500000000005
40
0.109375000000001
40
0.109375000000001
40
0.125000000000001
40
0.140625000000001
40
0.140625000000001
40
0.156250000000001
40
0.156250000000001
40
0.187500000000001
40
0.187500000000001
40
0.203125000000001
40
0.203125000000001
40
0.218750000000001
40
0.218750000000001
40
0.234375000000001
40
0.234375000000001
40
0.250000000000001
40
0.250000000000001
40
0.281250000000001
40
0.281250000000001
40
0.312500000000001
40
0.312500000000001
40
0.343750000000002
40
0.343750000000002
40
0.359375000000002
40
0.359375000000002
40
0.375000000000002
40
0.375000000000002
40
0.406250000000002
40
0.406250000000002
40
0.421875000000002
40
0.421875000000002
40
0.437500000000002
40
0.437500000000002
40
0.468750000000002
40
0.468750000000002
40
0.484375000000002
40
0.484375000000002
40
0.500000000000002
40
0.500000000000002
40
0.515625000000001
40
0.515625000000001
40
0.531250000000001
40
0.531250000000001
40
0.562500000000001
40
0.562500000000001
40
0.578125000000001
40
0.578125000000001
40
0.593750000000001
40
0.593750000000001
40
0.625000000000001
40
0.625000000000001
40
0.640625000000001
40
0.640625000000001
40
0.656250000000001
40
0.671875000000001
40
0.671875000000001
40
0.687500000000001
40
0.687500000000001
40
0.718750000000001
40
0.718750000000001
40
0.734375000000001
40
0.734375000000001
40
0.750000000000001
40
0.750000000000001
40
0.765625000000001
40
0.765625000000001
40
0.781250000000001
40
0.781250000000001
40
0.812500000000001
40
0.812500000000001
40
0.828125000000001
40
0.828125000000001
40
0.843750000000001
40
0.843750000000001
40
0.875000000000001
40
0.875000000000001
40
0.890625000000001
40
0.890625000000001
40
0.906250000000001
40
0.906250000000001
40
0.9375
40
0.9375
40
0.96875
40
0.96875
40
1
40
1
40
1
40
1
41
1
10
5.08615557768583
20
-1.94774684068415
30
0
41
1
10
4.94503710078445
20
-1.76825380528524
30
0
41
1
10
4.82427027325261
20
-1.57734917626394
30
0
41
1
10
4.67405482630954
20
-1.27354014924558
30
0
41
1
10
4.629176529521
20
-1.16934083169511
30
0
41
1
10
4.55038578923981
20
-0.954741754545012
30
0
41
1
10
4.51706228451849
20
-0.845856571480937
30
0
41
1
10
4.43565032023665
20
-0.51675988770117
30
0
41
1
10
4.4055731379737
20
-0.293180132740872
30
0
41
1
10
4.39825987330698
20
0.0487331993913358
30
0
41
1
10
4.40228172126061
20
0.163593390561715
30
0
41
1
10
4.42283087207218
20
0.389496522227063
30
0
41
1
10
4.45581287495355
20
0.613099132470182
30
0
41
1
10
4.51316375127033
20
0.832196560239311
30
0
41
1
10
4.58283049990919
20
1.04902055548445
30
0
41
1
10
4.62388504025924
20
1.15618147776527
30
0
41
1
10
4.7623319625402
20
1.4667389183187
30
0
41
1
10
4.87562249181616
20
1.6619780508351
30
0
41
1
10
5.07595235225267
20
1.93785237819438
30
0
41
1
10
5.14789159311488
20
2.02689770249094
30
0
41
1
10
5.29876554218666
20
2.19569852583246
30
0
41
1
10
5.37804947747492
20
2.27596529801255
30
0
41
1
10
5.54405121224579
20
2.42854041257161
30
0
41
1
10
5.63076978253093
20
2.50084787780653
30
0
41
1
10
5.81161145991189
20
2.63756509355909
30
0
41
1
10
5.90615580679292
20
2.70219378862649
30
0
41
1
10
6.19578389835649
20
2.88088979875352
30
0
41
1
10
6.39789613962654
20
2.98095179977841
30
0
41
1
10
6.81949931582906
20
3.1446015066482
30
0
41
1
10
7.04072452399308
20
3.20822118924014
30
0
41
1
10
7.48489183429336
20
3.29436950930247
30
0
41
1
10
7.70937054430092
20
3.31778205056591
30
0
41
1
10
8.04969199893148
20
3.32337168342096
30
0
41
1
10
8.16430815679274
20
3.32022558882602
30
0
41
1
10
8.39146937961178
20
3.30391610836952
30
0
41
1
10
8.50396646344606
20
3.29082150011678
30
0
41
1
10
8.83828128233299
20
3.23704203797371
30
0
41
1
10
9.05695067342396
20
3.18199342075539
30
0
41
1
10
9.3784377842014
20
3.06956682770885
30
0
41
1
10
9.48485257048563
20
3.0268755307132
30
0
41
1
10
9.69119491226385
20
2.93295746510432
30
0
41
1
10
9.79161026163447
20
2.8815977012008
30
0
41
1
10
10.0846629603203
20
2.71439204420923
30
0
41
1
10
10.2691937197475
20
2.58556137466886
30
0
41
1
10
10.5285837353632
20
2.36422855443237
30
0
41
1
10
10.6117916351903
20
2.28592041586455
30
0
41
1
10
10.7684334291387
20
2.12325647610032
30
0
41
1
10
10.8423517310737
20
2.03850274548529
30
0
41
1
10
10.9813282434006
20
1.86208488270049
30
0
41
1
10
11.0463874179443
20
1.77042154189189
30
0
41
1
10
11.1673143480055
20
1.57990273906637
30
0
41
1
10
11.2233724823078
20
1.48066393514048
30
0
41
1
10
11.3755276764473
20
1.17389969628397
30
0
41
1
10
11.4535703987194
20
0.962252216575081
30
0
41
1
10
11.5356071251476
20
0.634049592904574
30
0
41
1
10
11.557071462829
20
0.522847148304663
30
0
41
1
10
11.5876825323217
20
0.29666476125746
30
0
41
1
10
11.5966669156099
20
0.182166144329159
30
0
41
1
10
11.6043386220463
20
-0.157939008385171
30
0
41
1
10
11.5843814639392
20
-0.383036406082681
30
0
41
1
10
11.5166229767289
20
-0.718212017970529
30
0
41
1
10
11.4875996882893
20
-0.829425992343658
30
0
41
1
10
11.4184063176123
20
-1.04555449451084
30
0
41
1
10
11.3378206786498
20
-1.25681920609435
30
0
41
1
10
11.2351308805537
20
-1.45866682992786
30
0
41
1
10
11.1213803545583
20
-1.65581468704016
30
0
41
1
10
11.0589528722263
20
-1.75191031923148
30
0
41
1
10
10.8594923145792
20
-2.02707360016228
30
0
41
1
10
10.7091904700159
20
-2.19538530142003
30
0
41
1
10
10.4587321455672
20
-2.42617453526736
30
0
41
1
10
10.3707831544548
20
-2.49959406871815
30
0
41
1
10
10.1900060019441
20
-2.63642067852507
30
0
41
1
10
10.096802483165
20
-2.70021302686396
30
0
41
1
10
9.90494871473862
20
-2.8188892052853
30
0
41
1
10
9.80629789327776
20
-2.87377204253366
30
0
41
1
10
9.6035708169313
20
-2.97469408403435
30
0
41
1
10
9.49905756670185
20
-3.02089702979345
30
0
41
1
10
9.18035343337672
20
-3.14476407329258
30
0
41
1
10
8.96313503019729
20
-3.20721586372397
30
0
41
1
10
8.63048656636977
20
-3.2721161111013
30
0
41
1
10
8.51845905775352
20
-3.2889190922144
30
0
41
1
10
8.2920734452841
20
-3.31270247310491
30
0
41
1
10
8.17744526844245
20
-3.3196382381015
30
0
41
1
10
7.83664312312203
20
-3.32524420404084
30
0
41
1
10
7.61144239662806
20
-3.30916724437407
30
0
41
1
10
7.2766084447299
20
-3.25563082645854
30
0
41
1
10
7.16549473592394
20
-3.23285041745373
30
0
41
1
10
6.94429627419163
20
-3.1770680496054
30
0
41
1
10
6.83482923122116
20
-3.14417198184771
30
0
41
1
10
6.51436125345879
20
-3.03202958415645
30
0
41
1
10
6.30936777768699
20
-2.9390088858716
30
0
41
1
10
5.91700481956829
20
-2.71554443066677
30
0
41
1
10
5.72847430437565
20
-2.58372349481104
30
0
41
1
10
5.38453547129504
20
-2.2899415686652
30
0
41
1
10
5.22727405458721
20
-2.12723987608305
30
0
41
1
10
5.08615557768583
20
-1.94774684068415
30
0
0
SPLINE
5
ED
100
AcDbEntity
8
SK1
62
256
6
ByLayer
370
18
48
1
60
0
100
AcDbSpline
70
4
71
3
72
16
73
12
40
0
40
0
40
0
40
0
40
0.0175440255731168
40
0.144844227573693
40
0.272144429574269
40
0.399444631574845
40
0.526744833575421
40
0.654045035575997
40
0.781345237576573
40
0.90864543957715
40
1
40
1
40
1
40
1
41
1
10
-0.394976888875277
20
-13.8446019297682
30
0
41
1
10
-0.394976888875277
20
-13.8443373794894
30
0
41
1
10
-0.394976888875277
20
-13.8421014019358
30
0
41
1
10
-0.394976888875277
20
-13.8370980881852
30
0
41
1
10
-0.394976888875277
20
-13.8281307581185
30
0
41
1
10
-0.394976888875277
20
-13.8172491473121
30
0
41
1
10
-0.394976888875277
20
-13.8044829828858
30
0
41
1
10
-0.394976888875277
20
-13.7898613788954
30
0
41
1
10
-0.394976888875277
20
-13.7734119916164
30
0
41
1
10
-0.394976888875277
20
-13.7568788304844
30
0
41
1
10
-0.394976888875249
20
-13.7455562391846
30
0
41
1
10
-0.394976888875277
20
-13.740673929768
30
0
0
SPLINE
5
EE
100
AcDbEntity
8
SK1
62
256
6
ByLayer
370
13
48
1
60
0
100
AcDbSpline
70
4
71
3
72
92
73
88
40
0
40
0
40
0
40
0
40
0.0028307426073364
40
0.0128554511544554
40
0.0329048682486933
40
0.0429295767958123
40
0.0529542853429312
40
0.0629789938900502
40
0.0730037024371692
40
0.0930531195314072
40
0.103077828078526
40
0.113102536625645
40
0.123127245172764
40
0.133151953719883
40
0.143176662267002
40
0.153201370814121
40
0.173250787908359
40
0.183275496455478
40
0.193300205002597
40
0.203324913549716
40
0.213349622096835
40
0.223374330643954
40
0.233399039191073
40
0.243423747738192
40
0.253448456285311
40
0.273497873379549
40
0.283522581926668
40
0.293547290473787
40
0.313596707568025
40
0.333646124662263
40
0.343670833209382
40
0.3536955417565
40
0.363720250303619
40
0.373744958850739
40
0.383769667397858
40
0.393794375944976
40
0.398806730218536
40
0.403819084492095
40
0.413843793039214
40
0.423868501586333
40
0.433893210133452
40
0.45394262722769
40
0.463967335774809
40
0.473992044321928
40
0.484016752869047
40
0.494041461416166
40
0.504066169963285
40
0.514090878510404
40
0.524115587057523
40
0.534140295604642
40
0.544165004151761
40
0.55418971269888
40
0.574239129793118
40
0.584263838340237
40
0.594288546887356
40
0.599300901160915
40
0.604313255434475
40
0.614337963981594
40
0.634387381075832
40
0.644412089622951
40
0.65443679817007
40
0.674486215264308
40
0.694535632358546
40
0.704560340905665
40
0.714585049452784
40
0.734634466547022
40
0.744659175094141
40
0.75468388364126
40
0.764708592188379
40
0.774733300735498
40
0.784758009282617
40
0.794782717829736
40
0.814832134923973
40
0.834881552018211
40
0.84490626056533
40
0.854930969112449
40
0.864955677659568
40
0.874980386206687
40
0.895029803300925
40
0.915079220395163
40
0.935128637489401
40
0.955178054583639
40
0.965202763130758
40
0.975227471677877
40
0.985252180224996
40
0.995276888772115
40
1
40
1
40
1
40
1
41
1
10
-0.394976888875334
20
-13.7406740821123
30
0
41
1
10
-0.394976888875306
20
-13.738752970903
30
0
41
1
10
-0.394976888875306
20
-13.7299218268691
30
0
41
1
10
-0.394976888875277
20
-13.706079968468
30
0
41
1
10
-0.394976888875277
20
-13.6736219491958
30
0
41
1
10
-0.394976888875277
20
-13.6377421279937
30
0
41
1
10
-0.394976888875277
20
-13.6091837809887
30
0
41
1
10
-0.394976888875277
20
-13.5789822078612
30
0
41
1
10
-0.394976888875277
20
-13.5365270011545
30
0
41
1
10
-0.394976888875277
20
-13.490931201485
30
0
41
1
10
-0.394976888875277
20
-13.4421262291561
30
0
41
1
10
-0.394976888875277
20
-13.4039879870964
30
0
41
1
10
-0.394976888875277
20
-13.3643136307331
30
0
41
1
10
-0.394976888875277
20
-13.3231185723383
30
0
41
1
10
-0.394976888875277
20
-13.2804176772461
30
0
41
1
10
-0.394976888875277
20
-13.221467049789
30
0
41
1
10
-0.394976888875277
20
-13.1596507828291
30
0
41
1
10
-0.394976888875277
20
-13.0948461430692
30
0
41
1
10
-0.394976888875277
20
-13.0448282543027
30
0
41
1
10
-0.394976888875277
20
-12.9933861205259
30
0
41
1
10
-0.394976888875277
20
-12.940532100831
30
0
41
1
10
-0.394976888875277
20
-12.8862769625636
30
0
41
1
10
-0.394976888875277
20
-12.8306328883531
30
0
41
1
10
-0.394976888875277
20
-12.773610902979
30
0
41
1
10
-0.394976888875277
20
-12.6957215996061
30
0
41
1
10
-0.394976888875277
20
-12.6152283642396
30
0
41
1
10
-0.394976888875277
20
-12.5319491682166
30
0
41
1
10
-0.394976888875277
20
-12.446899173783
30
0
41
1
10
-0.394976888875277
20
-12.3373769247913
30
0
41
1
10
-0.394976888875277
20
-12.2235215963167
30
0
41
1
10
-0.394976888875277
20
-12.1297946270485
30
0
41
1
10
-0.394976888875277
20
-12.0582544232072
30
0
41
1
10
-0.394976888875277
20
-11.9854459723214
30
0
41
1
10
-0.394976888875277
20
-11.9113764724791
30
0
41
1
10
-0.394976888875277
20
-11.836053984022
30
0
41
1
10
-0.394976888875277
20
-11.7722691819395
30
0
41
1
10
-0.394976888875277
20
-11.7205808983271
30
0
41
1
10
-0.394976888875277
20
-11.6684804460587
30
0
41
1
10
-0.394976888875277
20
-11.6026363770329
30
0
41
1
10
-0.394976888875277
20
-11.5223699808134
30
0
41
1
10
-0.394976888875277
20
-11.413674138825
30
0
41
1
10
-0.394976888875277
20
-11.3026972665534
30
0
41
1
10
-0.394976888875277
20
-11.1891707748317
30
0
41
1
10
-0.394976888875277
20
-11.1028676417002
30
0
41
1
10
-0.394976888875277
20
-11.0153746961414
30
0
41
1
10
-0.394976888875277
20
-10.9266969919675
30
0
41
1
10
-0.394976888875277
20
-10.8368404586376
30
0
41
1
10
-0.394976888875277
20
-10.7458098983122
30
0
41
1
10
-0.394976888875277
20
-10.6536100894112
30
0
41
1
10
-0.394976888875277
20
-10.5602461538978
30
0
41
1
10
-0.394976888875277
20
-10.4657231753345
30
0
41
1
10
-0.394976888875277
20
-10.3380960572489
30
0
41
1
10
-0.394976888875277
20
-10.2083399899529
30
0
41
1
10
-0.394976888875277
20
-10.0761265678462
30
0
41
1
10
-0.394976888875277
20
-9.99261145812801
30
0
41
1
10
-0.394976888875277
20
-9.92517902838179
30
0
41
1
10
-0.394976888875277
20
-9.85736937045593
30
0
41
1
10
-0.394976888875277
20
-9.73773602301958
30
0
41
1
10
-0.394976888875277
20
-9.59892077296985
30
0
41
1
10
-0.394976888875277
20
-9.45767863215664
30
0
41
1
10
-0.394976888875277
20
-9.31494999082747
30
0
41
1
10
-0.394976888875277
20
-9.13390680482667
30
0
41
1
10
-0.394976888875277
20
-8.94918034619519
30
0
41
1
10
-0.394976888875277
20
-8.79907644696402
30
0
41
1
10
-0.394976888875277
20
-8.64751156797169
30
0
41
1
10
-0.394976888875277
20
-8.49397420958985
30
0
41
1
10
-0.394976888875277
20
-8.3380422654499
30
0
41
1
10
-0.394976888875277
20
-8.22006380191277
30
0
41
1
10
-0.394976888875277
20
-8.10100253994156
30
0
41
1
10
-0.394976888875277
20
-7.98086146605701
30
0
41
1
10
-0.394976888875277
20
-7.85964216476054
30
0
41
1
10
-0.394976888875277
20
-7.69650359935568
30
0
41
1
10
-0.394976888875277
20
-7.49008091096033
30
0
41
1
10
-0.394976888875277
20
-7.28009512097313
30
0
41
1
10
-0.394976888875277
20
-7.10982246715957
30
0
41
1
10
-0.394976888875277
20
-6.98112245032084
30
0
41
1
10
-0.394976888875277
20
-6.85136201549099
30
0
41
1
10
-0.394976888875277
20
-6.6768468885183
30
0
41
1
10
-0.394976888875277
20
-6.45627504712579
30
0
41
1
10
-0.394976888875277
20
-6.18726435105106
30
0
41
1
10
-0.394976888875277
20
-5.91406388300979
30
0
41
1
10
-0.394976888875277
20
-5.68302324398948
30
0
41
1
10
-0.394976888875277
20
-5.49591839522026
30
0
41
1
10
-0.394976888875277
20
-5.35463943777347
30
0
41
1
10
-0.394976888875277
20
-5.21232773830431
30
0
41
1
10
-0.394976888875277
20
-5.09425535366776
30
0
41
1
10
-0.394976888875306
20
-5.02359314607173
30
0
41
1
10
-0.394976888875277
20
-5.00092508225413
30
0
0
SPLINE
5
EF
100
AcDbEntity
8
1
62
256
6
ByLayer
370
18
48
1
60
0
100
AcDbSpline
70
4
71
3
72
14
73
10
40
0
40
0
40
0
40
0
40
0.25
40
0.25
40
0.5
40
0.5
40
0.75
40
0.75
40
1
40
1
40
1
40
1
41
1
10
6.9232050807569
20
19.1071889479934
30
0
41
1
10
6.88559065193772
20
19.1071889479934
30
0
41
1
10
6.85024551735353
20
19.1026026677725
30
0
41
1
10
6.79128014036908
20
19.0890172987105
30
0
41
1
10
6.76779354520878
20
19.0804156479914
30
0
41
1
10
6.72769822464332
20
19.0616877628737
30
0
41
1
10
6.71158709533478
20
19.05171343244
30
0
41
1
10
6.68410128191644
20
19.0309367686909
30
0
41
1
10
6.67278506405125
20
19.0200922858846
30
0
41
1
10
6.66339745962154
20
19.0090010961328
30
0
0
SPLINE
5
F0
100
AcDbEntity
8
SK1
62
256
6
ByLayer
370
13
48
1
60
0
100
AcDbSpline
70
4
71
3
72
91
73
87
40
0
40
0
40
0
40
0
40
0.0047231557610886
40
0.0147478622401353
40
0.0247725687191821
40
0.0347972751982289
40
0.0448219816772757
40
0.0648713946353693
40
0.0849208075934628
40
0.104970220551556
40
0.12501963350965
40
0.135044339988697
40
0.145069046467743
40
0.15509375294679
40
0.165118459425837
40
0.185167872383931
40
0.205217285342024
40
0.215241991821071
40
0.225266698300118
40
0.235291404779165
40
0.245316111258211
40
0.255340817737258
40
0.265365524216305
40
0.285414937174398
40
0.295439643653445
40
0.305464350132492
40
0.325513763090586
40
0.345563176048679
40
0.355587882527726
40
0.365612589006773
40
0.385662001964866
40
0.395686708443913
40
0.400699061683437
40
0.40571141492296
40
0.415736121402007
40
0.425760827881054
40
0.445810240839147
40
0.455834947318194
40
0.465859653797241
40
0.475884360276287
40
0.485909066755334
40
0.495933773234381
40
0.505958479713428
40
0.515983186192475
40
0.526007892671521
40
0.536032599150568
40
0.546057305629615
40
0.566106718587708
40
0.576131425066755
40
0.586156131545802
40
0.596180838024849
40
0.601193191264372
40
0.606205544503895
40
0.616230250982942
40
0.626254957461989
40
0.636279663941036
40
0.646304370420083
40
0.656329076899129
40
0.666353783378176
40
0.68640319633627
40
0.706452609294363
40
0.71647731577341
40
0.726502022252457
40
0.746551435210551
40
0.756576141689597
40
0.766600848168644
40
0.776625554647691
40
0.786650261126738
40
0.796674967605784
40
0.806699674084831
40
0.816724380563878
40
0.826749087042925
40
0.846798500001018
40
0.856823206480065
40
0.866847912959112
40
0.876872619438159
40
0.886897325917205
40
0.896922032396252
40
0.906946738875299
40
0.926996151833393
40
0.937020858312439
40
0.947045564791486
40
0.957070271270533
40
0.96709497774958
40
0.987144390707673
40
1
40
1
40
1
40
1
41
1
10
-0.394976888875277
20
5.0009244140283
30
0
41
1
10
-0.394976888875277
20
5.02359271293304
30
0
41
1
10
-0.394976888875277
20
5.09425517295406
30
0
41
1
10
-0.394976888875277
20
5.21232773385495
30
0
41
1
10
-0.394976888875277
20
5.35463940810163
30
0
41
1
10
-0.394976888875277
20
5.49591838220567
30
0
41
1
10
-0.394976888875277
20
5.68302324019061
30
0
41
1
10
-0.394976888875277
20
5.91406385279547
30
0
41
1
10
-0.394976888875277
20
6.18726433662556
30
0
41
1
10
-0.394976888875277
20
6.45627503636445
30
0
41
1
10
-0.394976888875277
20
6.67684685573994
30
0
41
1
10
-0.394976888875277
20
6.85136200824962
30
0
41
1
10
-0.394976888875277
20
6.98112244545175
30
0
41
1
10
-0.394976888875277
20
7.10982244878713
30
0
41
1
10
-0.394976888875277
20
7.28009509164627
30
0
41
1
10
-0.394976888875277
20
7.49008089634199
30
0
41
1
10
-0.394976888875277
20
7.69650359349293
30
0
41
1
10
-0.394976888875277
20
7.85964213989763
30
0
41
1
10
-0.394976888875277
20
7.98086143927398
30
0
41
1
10
-0.394976888875277
20
8.10100252302422
30
0
41
1
10
-0.394976888875277
20
8.22006379392718
30
0
41
1
10
-0.394976888875277
20
8.33804225713789
30
0
41
1
10
-0.394976888875277
20
8.49397418950429
30
0
41
1
10
-0.394976888875277
20
8.64751154095558
30
0
41
1
10
-0.394976888875277
20
8.79907643306458
30
0
41
1
10
-0.394976888875277
20
8.94918033853523
30
0
41
1
10
-0.394976888875277
20
9.13390678694702
30
0
41
1
10
-0.394976888875277
20
9.3149499665038
30
0
41
1
10
-0.394976888875277
20
9.45767861814849
30
0
41
1
10
-0.394976888875277
20
9.59892076352932
30
0
41
1
10
-0.394976888875277
20
9.73773600630287
30
0
41
1
10
-0.394976888875277
20
9.85736934874495
30
0
41
1
10
-0.394976888875277
20
9.92517900727512
30
0
41
1
10
-0.394976888875277
20
9.99261143893298
30
0
41
1
10
-0.394976888875277
20
10.0761265525343
30
0
41
1
10
-0.394976888875277
20
10.2083399780688
30
0
41
1
10
-0.394976888875277
20
10.3380960413352
30
0
41
1
10
-0.394976888875277
20
10.4657231550753
30
0
41
1
10
-0.394976888875277
20
10.5602461340712
30
0
41
1
10
-0.394976888875277
20
10.6536100721469
30
0
41
1
10
-0.394976888875277
20
10.74580988339
30
0
41
1
10
-0.394976888875277
20
10.8368404439692
30
0
41
1
10
-0.394976888875277
20
10.9266969759659
30
0
41
1
10
-0.394976888875277
20
11.0153746780185
30
0
41
1
10
-0.394976888875277
20
11.102867622286
30
0
41
1
10
-0.394976888875277
20
11.1891707558493
30
0
41
1
10
-0.394976888875277
20
11.3026972493618
30
0
41
1
10
-0.394976888875277
20
11.4136741241806
30
0
41
1
10
-0.394976888875277
20
11.5223699646631
30
0
41
1
10
-0.394976888875277
20
11.6026363586083
30
0
41
1
10
-0.394976888875277
20
11.6684804259269
30
0
41
1
10
-0.394976888875277
20
11.7205808778945
30
0
41
1
10
-0.394976888875277
20
11.7722691621604
30
0
41
1
10
-0.394976888875277
20
11.8360539668501
30
0
41
1
10
-0.394976888875277
20
11.9113764581405
30
0
41
1
10
-0.394976888875277
20
11.9854459580753
30
0
41
1
10
-0.394976888875277
20
12.0582544060742
30
0
41
1
10
-0.394976888875277
20
12.1297946053789
30
0
41
1
10
-0.394976888875277
20
12.2235215734124
30
0
41
1
10
-0.394976888875277
20
12.3373769122162
30
0
41
1
10
-0.394976888875277
20
12.4468991604423
30
0
41
1
10
-0.394976888875277
20
12.5319491453114
30
0
41
1
10
-0.394976888875277
20
12.6152283382819
30
0
41
1
10
-0.394976888875277
20
12.6957215859151
30
0
41
1
10
-0.394976888875277
20
12.7736108931729
30
0
41
1
10
-0.394976888875277
20
12.8306328717281
30
0
41
1
10
-0.394976888875277
20
12.8862769376535
30
0
41
1
10
-0.394976888875277
20
12.9405320737836
30
0
41
1
10
-0.394976888875277
20
12.9933861020735
30
0
41
1
10
-0.394976888875277
20
13.0448282447276
30
0
41
1
10
-0.394976888875277
20
13.094846134259
30
0
41
1
10
-0.394976888875277
20
13.1596507604527
30
0
41
1
10
-0.394976888875277
20
13.2214670183476
30
0
41
1
10
-0.394976888875277
20
13.2804176635455
30
0
41
1
10
-0.394976888875277
20
13.3231185671574
30
0
41
1
10
-0.394976888875277
20
13.3643136176474
30
0
41
1
10
-0.394976888875277
20
13.4039879614121
30
0
41
1
10
-0.394976888875277
20
13.4421262012037
30
0
41
1
10
-0.394976888875277
20
13.4909311840823
30
0
41
1
10
-0.394976888875277
20
13.5365270016785
30
0
41
1
10
-0.394976888875277
20
13.5789821852606
30
0
41
1
10
-0.394976888875277
20
13.6091837483775
30
0
41
1
10
-0.394976888875277
20
13.6377421071264
30
0
41
1
10
-0.394976888875277
20
13.6736219510479
30
0
41
1
10
-0.394976888875249
20
13.7083936631073
30
0
41
1
10
-0.394976888875249
20
13.7319531131097
30
0
41
1
10
-0.394976888875277
20
13.7406754139876
30
0
0
SPLINE
5
F1
100
AcDbEntity
8
SK1
62
256
6
ByLayer
370
18
48
1
60
0
100
AcDbSpline
70
4
71
3
72
15
73
11
40
0
40
0
40
0
40
0
40
0.0913510521777876
40
0.345951818716788
40
0.473252201986289
40
0.600552585255788
40
0.727852968525288
40
0.855153351794788
40
0.982453735064286
40
1
40
1
40
1
40
1
41
1
10
-0.39497688887522
20
13.7406755175852
30
0
41
1
10
-0.394976888875249
20
13.7455563479842
30
0
41
1
10
-0.394976888875277
20
13.7634686422098
30
0
41
1
10
-0.394976888875277
20
13.7849758313288
30
0
41
1
10
-0.394976888875277
20
13.8044829705052
30
0
41
1
10
-0.394976888875277
20
13.8172492272358
30
0
41
1
10
-0.394976888875277
20
13.8281310063336
30
0
41
1
10
-0.394976888875277
20
13.8370982474882
30
0
41
1
10
-0.394976888875277
20
13.842101166137
30
0
41
1
10
-0.394976888875277
20
13.8443369604552
30
0
41
1
10
-0.394976888875277
20
13.8446015176322
30
0
0
SPLINE
5
F2
100
AcDbEntity
8
SK1
62
256
6
ByLayer
370
18
48
1
60
0
100
AcDbSpline
70
4
71
2
72
6
73
3
40
0
40
0
40
0
40
1
40
1
40
1
41
1
10
-1.49503997793931
20
-13.7129410868425
30
0
41
1
10
-0.945008433407281
20
-13.7266599565288
30
0
41
1
10
-0.394976888875277
20
-13.7403788260786
30
0
0
SPLINE
5
F3
100
AcDbEntity
8
SK1
62
256
6
ByLayer
370
18
48
1
60
0
100
AcDbSpline
70
4
71
2
72
6
73
3
40
0
40
0
40
0
40
1
40
1
40
1
41
1
10
-1.69999999999999
20
14.0157970602974
30
0
41
1
10
-12.099999999963
20
13.7545958471854
30
0
41
1
10
-22.5
20
13.493394380475
30
0
0
SPLINE
5
F4
100
AcDbEntity
8
SK1
62
256
6
ByLayer
370
18
48
1
60
0
100
AcDbSpline
70
4
71
2
72
6
73
3
40
0
40
0
40
0
40
1
40
1
40
1
41
1
10
-22.5
20
13.4970852847173
30
0
41
1
10
-23.2499999989318
20
13.0640908004416
30
0
41
1
10
-24
20
12.6310961283886
30
0
0
SPLINE
5
F5
100
AcDbEntity
8
SK1
62
256
6
ByLayer
370
18
48
1
60
0
100
AcDbSpline
70
4
71
3
72
13
73
9
40
0
40
0
40
0
40
0
40
0.239457531275257
40
0.368361583394578
40
0.500001014452602
40
0.6316402765553
40
0.760543862982293
40
1
40
1
40
1
40
1
41
1
10
-1.49503997793931
20
13.8251858293361
30
0
41
1
10
-1.52111030874494
20
13.8247841901529
30
0
41
1
10
-1.55884064236798
20
13.8309564462263
30
0
41
1
10
-1.60627712752338
20
13.8540002498916
30
0
41
1
10
-1.63886378681735
20
13.8791676209636
30
0
41
1
10
-1.66563592205679
20
13.9104491756452
30
0
41
1
10
-1.69103284110358
20
13.9566683505561
30
0
41
1
10
-1.69909198645308
20
13.9940409356568
30
0
41
1
10
-1.69999999999999
20
14.0200984122732
30
0
0
SPLINE
5
F6
100
AcDbEntity
8
SK1
62
256
6
ByLayer
370
18
48
1
60
0
100
AcDbSpline
70
4
71
3
72
13
73
9
40
0
40
0
40
0
40
0
40
0.23945613699745
40
0.368359723417176
40
0.499998985516748
40
0.631638416576594
40
0.760542468702439
40
1
40
1
40
1
40
1
41
1
10
-1.69999999999999
20
-14.0200984156386
30
0
41
1
10
-1.6990919864528
20
-13.9940409390257
30
0
41
1
10
-1.69103284110332
20
-13.9566683539303
30
0
41
1
10
-1.66563592205637
20
-13.9104491790265
30
0
41
1
10
-1.63886378681673
20
-13.8791676243502
30
0
41
1
10
-1.60627712752265
20
-13.8540002532836
30
0
41
1
10
-1.5588406423667
20
-13.830956449625
30
0
41
1
10
-1.52111030874428
20
-13.8247841935567
30
0
41
1
10
-1.49503997793931
20
-13.8251858327438
30
0
0
SPLINE
5
F7
100
AcDbEntity
8
SK1
62
256
6
ByLayer
370
18
48
1
60
0
100
AcDbSpline
70
4
71
2
72
6
73
3
40
0
40
0
40
0
40
1
40
1
40
1
41
1
10
-0.394976888875277
20
13.740379899128
30
0
41
1
10
-0.945008433407281
20
13.7266611372791
30
0
41
1
10
-1.49503997793931
20
13.7129423752896
30
0
0
SPLINE
5
F8
100
AcDbEntity
8
SK1
62
256
6
ByLayer
370
18
48
1
60
0
100
AcDbSpline
70
4
71
2
72
6
73
3
40
0
40
0
40
0
40
1
40
1
40
1
41
1
10
-24
20
-12.6310964932104
30
0
41
1
10
-23.2499999989322
20
-13.0640911753538
30
0
41
1
10
-22.5
20
-13.4970856697526
30
0
0
SPLINE
5
F9
100
AcDbEntity
8
SK1
62
256
6
ByLayer
370
18
48
1
60
0
100
AcDbSpline
70
4
71
2
72
6
73
3
40
0
40
0
40
0
40
1
40
1
40
1
41
1
10
-22.5
20
-13.4933966698402
30
0
41
1
10
-12.0999999999449
20
-13.7545973909208
30
0
41
1
10
-1.69999999999999
20
-14.0157977997179
30
0
0
LINE
5
80
100
AcDbEntity
8
1
62
256
6
ByLayer
370
18
48
1
60
0
100
AcDbLine
10
31
20
-21.095
30
0
11
21
21
-21.095
31
0
39
0
210
0
220
0
230
1
0
LINE
5
81
100
AcDbEntity
8
1
62
256
6
ByLayer
370
18
48
1
60
0
100
AcDbLine
10
30.095
20
-22
30
0
11
21.905
21
-22
31
0
39
0
210
0
220
0
230
1
0
LINE
5
82
100
AcDbEntity
8
1
62
256
6
ByLayer
370
18
48
1
60
0
100
AcDbLine
10
85
20
-7.719571
30
0
11
85
21
7.719571
31
0
39
0
210
0
220
0
230
1
0
LINE
5
83
100
AcDbEntity
8
1
62
256
6
ByLayer
370
13
48
1
60
0
100
AcDbLine
10
84.366329
20
-8.502089
30
0
11
84.366329
21
8.502089
31
0
39
0
210
0
220
0
230
1
0
LINE
5
84
100
AcDbEntity
8
1
62
256
6
ByLayer
370
13
48
1
60
0
100
AcDbLine
10
39.195498
20
-8.75
30
0
11
39.195498
21
0
31
0
39
0
210
0
220
0
230
1
0
LINE
5
85
100
AcDbEntity
8
1
62
256
6
ByLayer
370
13
48
1
60
0
100
AcDbLine
10
39.195498
20
0
30
0
11
39.195498
21
8.75
31
0
39
0
210
0
220
0
230
1
0
LINE
5
86
100
AcDbEntity
8
SK1
62
256
6
ByLayer
370
18
48
1
60
0
100
AcDbLine
10
-0.2
20
-14.083485
30
0
11
-0.2
21
-5.703176
31
0
39
0
210
0
220
0
230
1
0
LINE
5
88
100
AcDbEntity
8
1
62
256
6
ByLayer
370
18
48
1
60
0
100
AcDbLine
10
83.2
20
-8.75
30
0
11
83.2
21
8.75
31
0
39
0
210
0
220
0
230
1
0
LINE
5
89
100
AcDbEntity
8
SK1
62
256
6
ByLayer
370
18
48
1
60
0
100
AcDbLine
10
-0.2
20
5.703176
30
0
11
-0.2
21
14.083485
31
0
39
0
210
0
220
0
230
1
0
LINE
5
8A
100
AcDbEntity
8
SK1
62
256
6
ByLayer
370
13
48
1
60
0
100
AcDbLine
10
-1.307107
20
-3.627816
30
0
11
-1.307107
21
3.627817
31
0
39
0
210
0
220
0
230
1
0
LINE
5
8B
100
AcDbEntity
8
1
62
256
6
ByLayer
370
13
48
1
60
0
100
AcDbLine
10
9.336603
20
19.009001
30
0
11
9.336603
21
6.185303
31
0
39
0
210
0
220
0
230
1
0
LINE
5
8C
100
AcDbEntity
8
1
62
256
6
ByLayer
370
13
48
1
60
0
100
AcDbLine
10
9.076795
20
19.107189
30
0
11
9.076795
21
5.874983
31
0
39
0
210
0
220
0
230
1
0
LINE
5
8D
100
AcDbEntity
8
1
62
256
6
ByLayer
370
13
48
1
60
0
100
AcDbLine
10
6.923205
20
-5.874983
30
0
11
6.923205
21
-19.107189
31
0
39
0
210
0
220
0
230
1
0
LINE
5
8E
100
AcDbEntity
8
1
62
256
6
ByLayer
370
13
48
1
60
0
100
AcDbLine
10
6.663397
20
-6.185303
30
0
11
6.663397
21
-19.009001
31
0
39
0
210
0
220
0
230
1
0
LINE
5
8F
100
AcDbEntity
8
1
62
256
6
ByLayer
370
13
48
1
60
0
100
AcDbLine
10
6.923205
20
19.107189
30
0
11
6.923205
21
5.874983
31
0
39
0
210
0
220
0
230
1
0
LINE
5
90
100
AcDbEntity
8
1
62
256
6
ByLayer
370
13
48
1
60
0
100
AcDbLine
10
6.663397
20
19.009001
30
0
11
6.663397
21
6.185303
31
0
39
0
210
0
220
0
230
1
0
LINE
5
91
100
AcDbEntity
8
1
62
256
6
ByLayer
370
13
48
1
60
0
100
AcDbLine
10
9.336603
20
-6.185303
30
0
11
9.336603
21
-19.009001
31
0
39
0
210
0
220
0
230
1
0
LINE
5
92
100
AcDbEntity
8
1
62
256
6
ByLayer
370
13
48
1
60
0
100
AcDbLine
10
9.076795
20
-5.874983
30
0
11
9.076795
21
-19.107189
31
0
39
0
210
0
220
0
230
1
0
LINE
5
93
100
AcDbEntity
8
1
62
256
6
ByLayer
370
13
48
1
60
0
100
AcDbLine
10
34.271459
20
-12.881759
30
0
11
34.271459
21
12.881759
31
0
39
0
210
0
220
0
230
1
0
LINE
5
94
100
AcDbEntity
8
1
62
256
6
ByLayer
370
18
48
1
60
0
100
AcDbLine
10
9.076795
20
19.107189
30
0
11
6.923205
21
19.107189
31
0
39
0
210
0
220
0
230
1
0
LINE
5
95
100
AcDbEntity
8
1
62
256
6
ByLayer
370
13
48
1
60
0
100
AcDbLine
10
33.163793
20
19.163648
30
0
11
33.163793
21
-19.163648
31
0
39
0
210
0
220
0
230
1
0
LINE
5
96
100
AcDbEntity
8
1
62
256
6
ByLayer
370
18
48
1
60
0
100
AcDbLine
10
6.923205
20
5.874983
30
0
11
9.076795
21
5.874983
31
0
39
0
210
0
220
0
230
1
0
LINE
5
97
100
AcDbEntity
8
1
62
256
6
ByLayer
370
18
48
1
60
0
100
AcDbLine
10
9.076795
20
-5.874983
30
0
11
6.923205
21
-5.874983
31
0
39
0
210
0
220
0
230
1
0
LINE
5
98
100
AcDbEntity
8
1
62
256
6
ByLayer
370
18
48
1
60
0
100
AcDbLine
10
6.923205
20
-19.107189
30
0
11
9.076795
21
-19.107189
31
0
39
0
210
0
220
0
230
1
0
LINE
5
99
100
AcDbEntity
8
1
62
256
6
ByLayer
370
18
48
1
60
0
100
AcDbLine
10
0
20
-19.69
30
0
11
0
21
19.69
31
0
39
0
210
0
220
0
230
1
0
LINE
5
9A
100
AcDbEntity
8
1
62
256
6
ByLayer
370
18
48
1
60
0
100
AcDbLine
10
0.3
20
-19.99
30
0
11
0.3
21
19.99
31
0
39
0
210
0
220
0
230
1
0
LINE
5
9B
100
AcDbEntity
8
1
62
256
6
ByLayer
370
13
48
1
60
0
100
AcDbLine
10
32.178985
20
19.99
30
0
11
32.178985
21
-19.99
31
0
39
0
210
0
220
0
230
1
0
LINE
5
9C
100
AcDbEntity
8
SK4
62
256
6
ByLayer
370
18
48
0.05
60
0
100
AcDbLine
10
-34
20
0
30
0
11
95
21
0
31
0
39
0
210
0
220
0
230
1
0
LINE
5
9E
100
AcDbEntity
8
1
62
256
6
ByLayer
370
13
48
1
60
0
100
AcDbLine
10
30.08
20
-22
30
0
11
30.08
21
-18.064375
31
0
39
0
210
0
220
0
230
1
0
LINE
5
9F
100
AcDbEntity
8
1
62
256
6
ByLayer
370
13
48
1
60
0
100
AcDbLine
10
21.92
20
-22
30
0
11
21.92
21
-18.069438
31
0
39
0
210
0
220
0
230
1
0
LINE
5
A0
100
AcDbEntity
8
1
62
256
6
ByLayer
370
18
48
1
60
0
100
AcDbLine
10
30.095
20
-22
30
0
11
31
21
-21.095
31
0
39
0
210
0
220
0
230
1
0
LINE
5
A1
100
AcDbEntity
8
1
62
256
6
ByLayer
370
18
48
1
60
0
100
AcDbLine
10
21
20
-21.095
30
0
11
21.905
21
-22
31
0
39
0
210
0
220
0
230
1
0
LINE
5
A2
100
AcDbEntity
8
1
62
256
6
ByLayer
370
18
48
1
60
0
100
AcDbLine
10
21
20
-18.069523
30
0
11
21
21
-21.095
31
0
39
0
210
0
220
0
230
1
0
LINE
5
A3
100
AcDbEntity
8
1
62
256
6
ByLayer
370
18
48
1
60
0
100
AcDbLine
10
31
20
-21.095
30
0
11
31
21
-18.064401
31
0
39
0
210
0
220
0
230
1
0
LINE
5
A4
100
AcDbEntity
8
1
62
256
6
ByLayer
370
18
48
1
60
0
100
AcDbLine
10
84.366329
20
8.502089
30
0
11
83.2
21
8.75
31
0
39
0
210
0
220
0
230
1
0
LINE
5
A5
100
AcDbEntity
8
1
62
256
6
ByLayer
370
18
48
1
60
0
100
AcDbLine
10
83.2
20
-8.75
30
0
11
84.366329
21
-8.502089
31
0
39
0
210
0
220
0
230
1
0
LINE
5
A6
100
AcDbEntity
8
1
62
256
6
ByLayer
370
18
48
1
60
0
100
AcDbLine
10
83.2
20
8.75
30
0
11
39.195498
21
8.75
31
0
39
0
210
0
220
0
230
1
0
LINE
5
A7
100
AcDbEntity
8
1
62
256
6
ByLayer
370
18
48
1
60
0
100
AcDbLine
10
39.195498
20
-8.75
30
0
11
83.2
21
-8.75
31
0
39
0
210
0
220
0
230
1
0
LINE
5
A8
100
AcDbEntity
8
1
62
256
6
ByLayer
370
18
48
1
60
0
100
AcDbLine
10
34.271459
20
12.881759
30
0
11
33.163793
21
19.163648
31
0
39
0
210
0
220
0
230
1
0
LINE
5
A9
100
AcDbEntity
8
1
62
256
6
ByLayer
370
18
48
1
60
0
100
AcDbLine
10
33.163793
20
-19.163648
30
0
11
34.271459
21
-12.881759
31
0
39
0
210
0
220
0
230
1
0
LINE
5
AA
100
AcDbEntity
8
1
62
256
6
ByLayer
370
18
48
1
60
0
100
AcDbLine
10
32.178985
20
19.99
30
0
11
0.3
21
19.99
31
0
39
0
210
0
220
0
230
1
0
LINE
5
AB
100
AcDbEntity
8
1
62
256
6
ByLayer
370
18
48
1
60
0
100
AcDbLine
10
0.3
20
-19.99
30
0
11
20.999922
21
-19.99
31
0
39
0
210
0
220
0
230
1
0
LINE
5
AC
100
AcDbEntity
8
1
62
256
6
ByLayer
370
18
48
1
60
0
100
AcDbLine
10
30.999961
20
-19.99
30
0
11
32.178985
21
-19.99
31
0
39
0
210
0
220
0
230
1
0
LINE
5
AD
100
AcDbEntity
8
1
62
256
6
ByLayer
370
18
48
1
60
0
100
AcDbLine
10
0
20
-19.69
30
0
11
0.3
21
-19.99
31
0
39
0
210
0
220
0
230
1
0
LINE
5
AE
100
AcDbEntity
8
1
62
256
6
ByLayer
370
18
48
1
60
0
100
AcDbLine
10
0.3
20
19.99
30
0
11
0
21
19.69
31
0
39
0
210
0
220
0
230
1
0
LINE
5
AF
100
AcDbEntity
8
81
62
256
6
ByLayer
370
18
48
1
60
0
100
AcDbLine
10
85
20
0
30
0
11
89.742527
21
0
31
0
39
0
210
0
220
0
230
1
0
LINE
5
B0
100
AcDbEntity
8
SK3
62
256
6
ByLayer
370
18
48
0.05
60
0
100
AcDbLine
10
49.5
20
-4
30
0
11
49.5
21
4
31
0
39
0
210
0
220
0
230
1
0
LINE
5
B2
100
AcDbEntity
8
SK3
62
256
6
ByLayer
370
18
48
0.05
60
0
100
AcDbLine
10
48
20
-2.5
30
0
11
49.5
21
-4
31
0
39
0
210
0
220
0
230
1
0
LINE
5
B3
100
AcDbEntity
8
SK3
62
256
6
ByLayer
370
18
48
0.05
60
0
100
AcDbLine
10
49.5
20
4
30
0
11
48
21
2.5
31
0
39
0
210
0
220
0
230
1
0
LINE
5
B4
100
AcDbEntity
8
SK3
62
256
6
ByLayer
370
18
48
0.05
60
0
100
AcDbLine
10
49.5
20
-4
30
0
11
85
21
-4
31
0
39
0
210
0
220
0
230
1
0
LINE
5
B5
100
AcDbEntity
8
80
62
256
6
ByLayer
370
18
48
1
60
0
100
AcDbLine
10
0
20
0
30
0
11
-10.875929
21
0
31
0
39
0
210
0
220
0
230
1
0
LINE
5
B6
100
AcDbEntity
8
4
62
256
6
ByLayer
370
18
48
0.05
60
0
100
AcDbLine
10
85
20
0
30
0
11
0
21
0
31
0
39
0
210
0
220
0
230
1
0
LINE
5
B8
100
AcDbEntity
8
SK3
62
256
6
ByLayer
370
18
48
0.05
60
0
100
AcDbLine
10
48
20
2.5
30
0
11
48
21
-2.5
31
0
39
0
210
0
220
0
230
1
0
LINE
5
B9
100
AcDbEntity
8
SK3
62
256
6
ByLayer
370
18
48
0.05
60
0
100
AcDbLine
10
85
20
4
30
0
11
49.5
21
4
31
0
39
0
210
0
220
0
230
1
0
LINE
5
BA
100
AcDbEntity
8
SK2
62
256
6
ByLayer
370
13
48
1
60
0
100
AcDbLine
10
-52.1
20
-19.99
30
0
11
-52.1
21
19.99
31
0
39
0
210
0
220
0
230
1
0
LINE
5
BC
100
AcDbEntity
8
SK2
62
256
6
ByLayer
370
13
48
1
60
0
100
AcDbLine
10
-1.5875
20
19.99
30
0
11
-54.1
21
19.99
31
0
39
0
210
0
220
0
230
1
0
LINE
5
BD
100
AcDbEntity
8
SK2
62
256
6
ByLayer
370
13
48
1
60
0
100
AcDbLine
10
-1.5875
20
-19.99
30
0
11
-54.1
21
-19.99
31
0
39
0
210
0
220
0
230
1
0
LINE
5
BE
100
AcDbEntity
8
1
62
256
6
ByLayer
370
18
48
1
60
1
100
AcDbLine
10
-52.1
20
19.99
30
0
11
-51.102374
21
15.490004
31
0
39
0
210
0
220
0
230
1
0
LINE
5
BF
100
AcDbEntity
8
1
62
256
6
ByLayer
370
18
48
1
60
1
100
AcDbLine
10
-51.102374
20
15.490004
30
0
11
-53.097626
21
15.489996
31
0
39
0
210
0
220
0
230
1
0
LINE
5
C0
100
AcDbEntity
8
1
62
256
6
ByLayer
370
18
48
1
60
1
100
AcDbLine
10
-53.097626
20
15.489996
30
0
11
-52.1
21
19.99
31
0
39
0
210
0
220
0
230
1
0
LINE
5
C1
100
AcDbEntity
8
1
62
256
6
ByLayer
370
18
48
1
60
1
100
AcDbLine
10
-52.1
20
-19.99
30
0
11
-53.097626
21
-15.490004
31
0
39
0
210
0
220
0
230
1
0
LINE
5
C2
100
AcDbEntity
8
1
62
256
6
ByLayer
370
18
48
1
60
1
100
AcDbLine
10
-53.097626
20
-15.490004
30
0
11
-51.102374
21
-15.489996
31
0
39
0
210
0
220
0
230
1
0
LINE
5
C3
100
AcDbEntity
8
1
62
256
6
ByLayer
370
18
48
1
60
1
100
AcDbLine
10
-51.102374
20
-15.489996
30
0
11
-52.1
21
-19.99
31
0
39
0
210
0
220
0
230
1
0
LINE
5
FE
100
AcDbEntity
8
1
62
256
6
ByLayer
370
18
48
1
60
1
100
AcDbLine
10
-52.1
20
19.99
30
0
11
-51.102374
21
15.490004
31
0
39
0
210
0
220
0
230
1
0
LINE
5
FF
100
AcDbEntity
8
1
62
256
6
ByLayer
370
18
48
1
60
1
100
AcDbLine
10
-51.102374
20
15.490004
30
0
11
-53.097626
21
15.489996
31
0
39
0
210
0
220
0
230
1
0
LINE
5
100
100
AcDbEntity
8
1
62
256
6
ByLayer
370
18
48
1
60
1
100
AcDbLine
10
-53.097626
20
15.489996
30
0
11
-52.1
21
19.99
31
0
39
0
210
0
220
0
230
1
0
LINE
5
102
100
AcDbEntity
8
1
62
256
6
ByLayer
370
18
48
1
60
1
100
AcDbLine
10
-52.1
20
-19.99
30
0
11
-53.097626
21
-15.490004
31
0
39
0
210
0
220
0
230
1
0
LINE
5
103
100
AcDbEntity
8
1
62
256
6
ByLayer
370
18
48
1
60
1
100
AcDbLine
10
-53.097626
20
-15.490004
30
0
11
-51.102374
21
-15.489996
31
0
39
0
210
0
220
0
230
1
0
LINE
5
104
100
AcDbEntity
8
1
62
256
6
ByLayer
370
18
48
1
60
1
100
AcDbLine
10
-51.102374
20
-15.489996
30
0
11
-52.1
21
-19.99
31
0
39
0
210
0
220
0
230
1
0
MTEXT
5
FA
100
AcDbEntity
8
SK2
62
256
6
ByLayer
370
18
48
1
60
0
100
AcDbMText
10
-54.111672
20
-4.936314
30
0
210
0
220
0
230
1
1
%%c
40
4.5
41
0
44
1.084337
50
90
71
7
72
5
7
iso_b_vert
0
MTEXT
5
FD
100
AcDbEntity
8
SK2
62
256
6
ByLayer
370
18
48
1
60
0
100
AcDbMText
10
-54.111672
20
1.77853
30
0
210
0
220
0
230
1
1
\W0.7361;40
40
4.5
41
0
44
1.084337
50
90
71
7
72
5
7
iso_b_vert
0
MTEXT
5
106
100
AcDbEntity
8
SK6
62
256
6
ByLayer
370
18
48
1
60
0
100
AcDbMText
10
-28.873633
20
27.522634
30
0
210
0
220
0
230
1
1
\W0.2969; 
40
3.5
41
0
44
1.084337
50
0
71
7
72
5
7
iso_b_vert
0
MTEXT
5
108
100
AcDbEntity
8
SK6
62
256
6
ByLayer
370
18
48
1
60
0
100
AcDbMText
10
-28.873633
20
27.522634
30
0
210
0
220
0
230
1
1
\W0.2969; 
40
3.5
41
0
44
1.084337
50
0
71
7
72
5
7
iso_b_vert
0
MTEXT
5
109
100
AcDbEntity
8
SK6
62
256
6
ByLayer
370
18
48
1
60
0
100
AcDbMText
10
-2.8145
20
-34.207366
30
0
210
0
220
0
230
1
1
\W0.7223;930-C4-P-08-085
40
3.5
41
0
44
1.084337
50
0
71
7
72
5
7
iso_b_vert
0
HATCH
5
101
100
AcDbEntity
8
SK2
62
256
6
ByLayer
370
13
48
1
60
0
100
AcDbHatch
10
0
20
0
30
0
210
0
220
0
230
1
2
ANSI31
70
0
71
0
91
1
92
5
93
3
72
1
10
-52.1
20
19.99
11
-51.1023740181135
21
15.4900036644849
72
1
10
-51.1023740181135
20
15.4900036644849
11
-53.0976259818865
21
15.4899963355152
72
1
10
-53.0976259818865
20
15.4899963355152
11
-52.1
21
19.99
97
0
75
0
76
1
52
0
41
0.0062
77
0
78
1
53
45
43
0
44
0
45
-0.0139193969876572
46
0.0139193969876572
79
0
47
0
98
1
10
0
20
0
0
HATCH
5
105
100
AcDbEntity
8
SK2
62
256
6
ByLayer
370
13
48
1
60
0
100
AcDbHatch
10
0
20
0
30
0
210
0
220
0
230
1
2
ANSI31
70
0
71
0
91
1
92
5
93
3
72
1
10
-52.1
20
-19.99
11
-53.0976259818865
21
-15.4900036644849
72
1
10
-53.0976259818865
20
-15.4900036644849
11
-51.1023740181135
21
-15.4899963355152
72
1
10
-51.1023740181135
20
-15.4899963355152
11
-52.1
21
-19.99
97
0
75
0
76
1
52
0
41
0.0062
77
0
78
1
53
45
43
0
44
0
45
-0.0139193969876572
46
0.0139193969876572
79
0
47
0
98
1
10
0
20
0
0
DIMENSION
5
10B
100
AcDbEntity
8
SK2
62
256
6
ByLayer
370
18
48
1
60
0
100
AcDbDimension
2
_U0
10
129.25
20
8.75
30
0
11
129.25
21
31.035714
31
0
70
32
71
1
72
1
41
1
210
0
220
0
230
1
3
Standard
100
AcDbAlignedDimension
13
85
23
-8.75
33
0
14
85
24
8.75
34
0
50
90
100
AcDbRotatedDimension
1001
ACAD
1000
DSTYLE
1002
{
1070
   371
1070
    13
1070
   372
1070
    13
1070
   170
1070
     0
1070
   144
1040
1.0
1070
   277
1070
     2
1070
   284
1070
     8
1070
   278
1070
    44
1070
   146
1040
0.777778
1070
   345
1005
16
1070
   347
1005
16
1070
   346
1005
16
1070
   344
1005
0
1070
   343
1005
0
1070
   172
1070
     1
1070
    76
1070
     0
1070
    75
1070
     0
1070
   282
1070
     0
1070
   281
1070
     0
1070
    71
1070
     0
1070
    74
1070
     0
1070
   279
1070
     0
1070
   173
1070
     1
1070
   340
1005
FB
1070
   271
1070
     1
1070
   272
1070
     2
1070
    77
1070
     1
1070
    73
1070
     0
1070
   171
1070
     3
1070
   274
1070
     4
1070
   177
1070
     2
1070
   176
1070
     2
1070
   178
1070
     2
1070
    78
1070
     8
1070
    48
1040
-0.1
1070
    41
1040
4.5
1070
   147
1040
2.25
1070
    42
1040
1.5875
1070
    44
1040
2.0
1070
   140
1040
4.5
1002
}
1001
ACAD_DSTYLE_DIM_LINETYPE
1070
   380
1005
16
1001
ACAD_DSTYLE_DIM_EXT1_LINETYPE
1070
   381
1005
16
1001
ACAD_DSTYLE_DIM_EXT2_LINETYPE
1070
   382
1005
16
0
DIMENSION
5
127
100
AcDbEntity
8
SK2
62
256
6
ByLayer
370
18
48
1
60
0
100
AcDbDimension
2
_U1
10
110.25
20
-4
30
0
11
110.25
21
21.256371
31
0
70
32
71
1
72
1
41
1
210
0
220
0
230
1
3
Standard
100
AcDbAlignedDimension
13
85
23
4
33
0
14
85
24
-4
34
0
50
90
100
AcDbRotatedDimension
1001
ACAD
1000
DSTYLE
1002
{
1070
   371
1070
    13
1070
   372
1070
    13
1070
   170
1070
     0
1070
   144
1040
1.0
1070
   277
1070
     2
1070
   284
1070
     8
1070
   278
1070
    44
1070
   146
1040
0.777778
1070
   345
1005
16
1070
   347
1005
16
1070
   346
1005
16
1070
   344
1005
0
1070
   343
1005
0
1070
   172
1070
     1
1070
    76
1070
     0
1070
    75
1070
     0
1070
   282
1070
     0
1070
   281
1070
     0
1070
    71
1070
     0
1070
    74
1070
     0
1070
   279
1070
     0
1070
   173
1070
     1
1070
   340
1005
FB
1070
   271
1070
     1
1070
   272
1070
     2
1070
    77
1070
     1
1070
    73
1070
     0
1070
   171
1070
     3
1070
   274
1070
     4
1070
   177
1070
     2
1070
   176
1070
     2
1070
   178
1070
     2
1070
    78
1070
     8
1070
    48
1040
-0.1
1070
    41
1040
4.5
1070
   147
1040
2.25
1070
    42
1040
1.5875
1070
    44
1040
2.0
1070
   140
1040
4.5
1002
}
1001
ACAD_DSTYLE_DIM_LINETYPE
1070
   380
1005
16
1001
ACAD_DSTYLE_DIM_EXT1_LINETYPE
1070
   381
1005
16
1001
ACAD_DSTYLE_DIM_EXT2_LINETYPE
1070
   382
1005
16
0
DIMENSION
5
142
100
AcDbEntity
8
SK2
62
256
6
ByLayer
370
18
48
1
60
0
100
AcDbDimension
2
_U2
10
-24
20
59.248614
30
0
11
-12
21
59.248614
31
0
70
32
71
1
72
1
41
1
210
0
220
0
230
1
3
Standard
100
AcDbAlignedDimension
13
0
23
22.055
33
0
14
-24
24
14.4
34
0
50
0
100
AcDbRotatedDimension
1001
ACAD
1000
DSTYLE
1002
{
1070
   371
1070
    13
1070
   372
1070
    13
1070
   170
1070
     0
1070
   144
1040
1.0
1070
   277
1070
     2
1070
   284
1070
     8
1070
   278
1070
    44
1070
   146
1040
0.777778
1070
   345
1005
16
1070
   347
1005
16
1070
   346
1005
16
1070
   344
1005
0
1070
   343
1005
0
1070
   172
1070
     1
1070
    76
1070
     0
1070
    75
1070
     0
1070
   282
1070
     0
1070
   281
1070
     0
1070
    71
1070
     0
1070
    74
1070
     0
1070
   279
1070
     0
1070
   173
1070
     1
1070
   340
1005
FB
1070
   271
1070
     1
1070
   272
1070
     2
1070
    77
1070
     1
1070
    73
1070
     1
1070
   171
1070
     3
1070
   274
1070
     4
1070
   177
1070
     2
1070
   176
1070
     2
1070
   178
1070
     2
1070
    78
1070
     8
1070
    48
1040
-0.1
1070
    41
1040
4.5
1070
   147
1040
2.25
1070
    42
1040
1.5875
1070
    44
1040
2.0
1070
   140
1040
4.5
1002
}
1001
ACAD_DSTYLE_DIM_LINETYPE
1070
   380
1005
16
1001
ACAD_DSTYLE_DIM_EXT1_LINETYPE
1070
   381
1005
16
1001
ACAD_DSTYLE_DIM_EXT2_LINETYPE
1070
   382
1005
16
0
DIMENSION
5
15A
100
AcDbEntity
8
SK2
62
256
6
ByLayer
370
18
48
1
60
0
100
AcDbDimension
2
_U3
10
35
20
49.248614
30
0
11
60
21
49.248614
31
0
70
32
71
1
72
1
41
1
210
0
220
0
230
1
3
Standard
100
AcDbAlignedDimension
13
85
23
8.75
33
0
14
35
24
8.75
34
0
50
0
100
AcDbRotatedDimension
1001
ACAD
1000
DSTYLE
1002
{
1070
   371
1070
    13
1070
   372
1070
    13
1070
   170
1070
     0
1070
   144
1040
1.0
1070
   277
1070
     2
1070
   284
1070
     8
1070
   278
1070
    44
1070
   146
1040
0.777778
1070
   345
1005
16
1070
   347
1005
16
1070
   346
1005
16
1070
   344
1005
0
1070
   343
1005
0
1070
   172
1070
     1
1070
    76
1070
     0
1070
    75
1070
     0
1070
   282
1070
     0
1070
   281
1070
     0
1070
    71
1070
     0
1070
    74
1070
     0
1070
   279
1070
     0
1070
   173
1070
     1
1070
   340
1005
FB
1070
   271
1070
     1
1070
   272
1070
     2
1070
    77
1070
     1
1070
    73
1070
     1
1070
   171
1070
     3
1070
   274
1070
     4
1070
   177
1070
     2
1070
   176
1070
     2
1070
   178
1070
     2
1070
    78
1070
     8
1070
    48
1040
-0.1
1070
    41
1040
4.5
1070
   147
1040
2.25
1070
    42
1040
1.5875
1070
    44
1040
2.0
1070
   140
1040
4.5
1002
}
1001
ACAD_DSTYLE_DIM_LINETYPE
1070
   380
1005
16
1001
ACAD_DSTYLE_DIM_EXT1_LINETYPE
1070
   381
1005
16
1001
ACAD_DSTYLE_DIM_EXT2_LINETYPE
1070
   382
1005
16
0
DIMENSION
5
172
100
AcDbEntity
8
2
62
256
6
ByLayer
370
18
48
1
60
0
100
AcDbDimension
2
_U4
10
85
20
59.248614
30
0
11
42.5
21
59.248614
31
0
70
32
71
1
72
1
41
1
210
0
220
0
230
1
3
Standard
100
AcDbAlignedDimension
13
0
23
22.055
33
0
14
85
24
8.75
34
0
50
0
100
AcDbRotatedDimension
1001
ACAD
1000
DSTYLE
1002
{
1070
   371
1070
    13
1070
   372
1070
    13
1070
   170
1070
     0
1070
   144
1040
1.0
1070
   277
1070
     2
1070
   284
1070
     8
1070
   278
1070
    44
1070
   146
1040
0.777778
1070
   345
1005
16
1070
   347
1005
16
1070
   346
1005
16
1070
   344
1005
0
1070
   343
1005
0
1070
   172
1070
     1
1070
    76
1070
     0
1070
    75
1070
     0
1070
   282
1070
     0
1070
   281
1070
     0
1070
    71
1070
     0
1070
    74
1070
     0
1070
   279
1070
     0
1070
   173
1070
     1
1070
   340
1005
FB
1070
   271
1070
     1
1070
   272
1070
     2
1070
    77
1070
     1
1070
    73
1070
     1
1070
   171
1070
     3
1070
   274
1070
     4
1070
   177
1070
     2
1070
   176
1070
     2
1070
   178
1070
     2
1070
    78
1070
     8
1070
    48
1040
-0.1
1070
    41
1040
4.5
1070
   147
1040
2.25
1070
    42
1040
1.5875
1070
    44
1040
2.0
1070
   140
1040
4.5
1002
}
1001
ACAD_DSTYLE_DIM_LINETYPE
1070
   380
1005
16
1001
ACAD_DSTYLE_DIM_EXT1_LINETYPE
1070
   381
1005
16
1001
ACAD_DSTYLE_DIM_EXT2_LINETYPE
1070
   382
1005
16
0
DIMENSION
5
18B
100
AcDbEntity
8
SK2
62
256
6
ByLayer
370
18
48
1
60
0
100
AcDbDimension
2
_U5
10
48
20
-30.861547
30
0
11
116.887197
21
-30.861547
31
0
70
32
71
1
72
1
41
1
210
0
220
0
230
1
3
Standard
100
AcDbAlignedDimension
13
85
23
-4
33
0
14
48
24
-4
34
0
50
0
100
AcDbRotatedDimension
1001
ACAD
1000
DSTYLE
1002
{
1070
   371
1070
    13
1070
   372
1070
    13
1070
     3
1000

1070
   170
1070
     0
1070
   144
1040
1.0
1070
   277
1070
     2
1070
   284
1070
     8
1070
   278
1070
    44
1070
   146
1040
0.777778
1070
   345
1005
16
1070
   347
1005
16
1070
   346
1005
16
1070
   344
1005
0
1070
   343
1005
0
1070
   172
1070
     1
1070
    76
1070
     0
1070
    75
1070
     0
1070
   282
1070
     0
1070
   281
1070
     0
1070
    71
1070
     0
1070
    74
1070
     0
1070
   279
1070
     0
1070
   173
1070
     1
1070
   340
1005
FB
1070
   271
1070
     0
1070
   272
1070
     2
1070
    77
1070
     1
1070
    73
1070
     1
1070
   171
1070
     3
1070
   274
1070
     4
1070
   177
1070
     2
1070
   176
1070
     2
1070
   178
1070
     2
1070
    78
1070
     8
1070
    48
1040
-0.1
1070
    41
1040
4.5
1070
   147
1040
2.25
1070
    42
1040
1.5875
1070
    44
1040
2.0
1070
   140
1040
4.5
1002
}
1001
ACAD_DSTYLE_DIM_LINETYPE
1070
   380
1005
16
1001
ACAD_DSTYLE_DIM_EXT1_LINETYPE
1070
   381
1005
16
1001
ACAD_DSTYLE_DIM_EXT2_LINETYPE
1070
   382
1005
16
0
ENDSEC
0
SECTION
2
OBJECTS
0
DICTIONARY
5
215
330
0
100
AcDbDictionary
280
0
281
1
3
ACAD_GROUP
350
216
3
ACAD_MLINESTYLE
350
217
0
DICTIONARY
5
216
330
0
100
AcDbDictionary
280
0
281
1
0
DICTIONARY
5
217
330
0
100
AcDbDictionary
280
0
281
1
3
Standard
350
18
0
MLINESTYLE
5
18
330
217
100
AcDbMlineStyle
2
Standard
70
0
3

62
256
51
90
52
90
71
2
49
-0.5
62
256
6
ByLayer
49
0.5
62
256
6
ByLayer
0
RASTERVARIABLES
5
202
330

100
AcDbRasterVariables
90
0
70
1
71
1
72
1
0
ENDSEC
0
EOF
