0
SECTION
2
HEADER
9
$ACADVER
1
AC1015
9
$DWGCODEPAGE
3
ANSI_1252
9
$HANDSEED
5
2d4
9
$ANGBASE
50
0
9
$ANGDIR
70
0
9
$ATTMODE
70
1
9
$AUNITS
70
0
9
$AUPREC
70
0
9
$CECOLOR
62
256
9
$CELTSCALE
40
1
9
$CELTYPE
6
ByLayer
9
$CELWEIGHT
370
70
9
$CLAYER
8
0
9
$CMLJUST
70
0
9
$CMLSCALE
40
1
9
$CMLSTYLE
2
Standard
9
$DIMSTYLE
2
Standard
9
$TEXTSIZE
40
0.2
9
$TEXTSTYLE
7
Standard
9
$LUNITS
70
2
9
$LUPREC
70
4
9
$EXTNAMES
290
1
9
$INSUNITS
70
4
9
$LTSCALE
40
1
9
$LWDISPLAY
290
1
9
$PDMODE
70
0
9
$PDSIZE
40
0
9
$PLINEGEN
70
0
0
ENDSEC
0
SECTION
2
CLASSES
0
CLASS
1
RASTERVARIABLES
2
AcDbRasterVariables
3
ISM
90
0
280
0
281
0
0
ENDSEC
0
SECTION
2
TABLES
0
TABLE
2
VPORT
5
2ca
100
AcDbSymbolTable
0
VPORT
5
1
100
AcDbSymbolTableRecord
100
AcDbViewportTableRecord
2
*Active
70
0
10
0
20
0
11
1
21
1
12
-1
22
1
13
0
23
0
14
0.5
24
0.5
15
10
25
10
16
0
26
0
36
1
17
0
27
0
37
0
0
ENDTAB
0
TABLE
2
LTYPE
5
2cb
100
AcDbSymbolTable
0
LTYPE
5
14
100
AcDbSymbolTableRecord
100
AcDbLinetypeTableRecord
70
0
2
ByBlock
3

72
65
73
0
40
0
0
LTYPE
5
15
100
AcDbSymbolTableRecord
100
AcDbLinetypeTableRecord
70
0
2
ByLayer
3

72
65
73
0
40
0
0
LTYPE
5
16
100
AcDbSymbolTableRecord
100
AcDbLinetypeTableRecord
70
0
2
Continuous
3
Solid line
72
65
73
0
40
0
0
LTYPE
5
6E
100
AcDbSymbolTableRecord
100
AcDbLinetypeTableRecord
70
0
2
CENTER
3
____ _ ____ _ ____ _ ____
72
65
73
4
40
47.5
49
22
74
0
49
-8.5
74
0
49
8.5
74
0
49
-8.5
74
0
0
LTYPE
5
6F
100
AcDbSymbolTableRecord
100
AcDbLinetypeTableRecord
70
0
2
DASHED
3
__ __ __ __ __ __ __ __ __
72
65
73
2
40
25.72
49
12.86
74
0
49
-12.86
74
0
0
ENDTAB
0
TABLE
2
LAYER
5
2cc
100
AcDbSymbolTable
0
LAYER
5
10
100
AcDbSymbolTableRecord
100
AcDbLayerTableRecord
2
0
70
0
62
7
6
Continuous
290
1
370
-3
390
0
0
LAYER
5
71
100
AcDbSymbolTableRecord
100
AcDbLayerTableRecord
2
80
70
0
62
-6
6
Continuous
290
1
370
-3
390
0
0
LAYER
5
73
100
AcDbSymbolTableRecord
100
AcDbLayerTableRecord
2
81
70
0
62
-3
6
Continuous
290
1
370
-3
390
0
0
LAYER
5
75
100
AcDbSymbolTableRecord
100
AcDbLayerTableRecord
2
1
70
0
62
4
6
Continuous
290
1
370
-3
390
0
0
LAYER
5
D5
100
AcDbSymbolTableRecord
100
AcDbLayerTableRecord
2
4
70
0
62
-2
6
CENTER
290
1
370
-3
390
0
0
LAYER
5
1A6
100
AcDbSymbolTableRecord
100
AcDbLayerTableRecord
2
Defpoints
70
0
62
7
6
Continuous
290
0
370
-3
390
0
0
LAYER
5
1B3
100
AcDbSymbolTableRecord
100
AcDbLayerTableRecord
2
2
70
0
62
7
6
Continuous
290
1
370
-3
390
0
0
LAYER
5
2b6
100
AcDbSymbolTableRecord
100
AcDbLayerTableRecord
2
SK1
70
0
62
4
6
Continuous
290
1
370
-3
390
0
0
LAYER
5
2b7
100
AcDbSymbolTableRecord
100
AcDbLayerTableRecord
2
SK4
70
0
62
2
6
CENTER
290
1
370
-3
390
0
0
LAYER
5
2b8
100
AcDbSymbolTableRecord
100
AcDbLayerTableRecord
2
SK6
70
0
62
5
6
Continuous
290
1
370
-3
390
0
0
LAYER
5
2b9
100
AcDbSymbolTableRecord
100
AcDbLayerTableRecord
2
SK2
70
0
62
7
6
Continuous
290
1
370
-3
390
0
0
ENDTAB
0
TABLE
2
STYLE
5
2cd
100
AcDbSymbolTable
0
STYLE
5
11
100
AcDbSymbolTableRecord
100
AcDbTextStyleTableRecord
2
Standard
3
txt
70
0
71
0
40
0
41
1
42
0
50
0
0
STYLE
5
19E
100
AcDbSymbolTableRecord
100
AcDbTextStyleTableRecord
2
iso_b_vert
3
simplex.shx
70
0
71
0
40
0
41
1
42
0
50
0
0
STYLE
5
19F
100
AcDbSymbolTableRecord
100
AcDbTextStyleTableRecord
2
DWGDirectTextStyle
3
isocp
70
0
71
0
40
0
41
1
42
0
50
0
0
STYLE
5
1A3
100
AcDbSymbolTableRecord
100
AcDbTextStyleTableRecord
2
iso-1
3
isocp.shx
70
0
71
0
40
0
41
1
42
0
50
0
0
ENDTAB
0
TABLE
2
DIMSTYLE
5
2ce
100
AcDbSymbolTable
100
AcDbDimStyleTable
0
DIMSTYLE
105
27
100
AcDbSymbolTableRecord
100
AcDbDimStyleTableRecord
2
Standard
70
0
3
<>
41
0.18
42
0.0625
44
0.18
140
0.18
147
0.09
73
0
74
0
77
1
271
2
275
0
278
52
280
0
340
11
0
ENDTAB
0
TABLE
2
VIEW
5
2cf
100
AcDbSymbolTable
0
ENDTAB
0
TABLE
2
UCS
5
2d0
100
AcDbSymbolTable
0
ENDTAB
0
TABLE
2
APPID
5
2d1
100
AcDbSymbolTable
0
APPID
5
12
100
AcDbSymbolTableRecord
100
AcDbRegAppTableRecord
2
ACAD
70
0
0
APPID
5
1A1
100
AcDbSymbolTableRecord
100
AcDbRegAppTableRecord
2
ACAD_DSTYLE_DIMBREAK
70
0
0
APPID
5
1D8
100
AcDbSymbolTableRecord
100
AcDbRegAppTableRecord
2
ACAD_DSTYLE_DIMANGULAR_EXTENSION
70
0
0
APPID
5
275
100
AcDbSymbolTableRecord
100
AcDbRegAppTableRecord
2
ACAD_DSTYLE_DIM_LINETYPE
70
0
0
APPID
5
276
100
AcDbSymbolTableRecord
100
AcDbRegAppTableRecord
2
ACAD_DSTYLE_DIM_EXT1_LINETYPE
70
0
0
APPID
5
277
100
AcDbSymbolTableRecord
100
AcDbRegAppTableRecord
2
ACAD_DSTYLE_DIM_EXT2_LINETYPE
70
0
0
APPID
5
2B2
100
AcDbSymbolTableRecord
100
AcDbRegAppTableRecord
2
ACAD_MLEADERVER
70
0
0
ENDTAB
0
TABLE
2
BLOCK_RECORD
5
2d2
100
AcDbSymbolTable
0
BLOCK_RECORD
5
1F
100
AcDbSymbolTableRecord
100
AcDbBlockTableRecord
2
*Model_Space
340
0
70
0
0
BLOCK_RECORD
5
1B
100
AcDbSymbolTableRecord
100
AcDbBlockTableRecord
2
*Paper_Space
340
0
70
0
0
BLOCK_RECORD
5
23
100
AcDbSymbolTableRecord
100
AcDbBlockTableRecord
2
*Paper_Space0
340
0
70
0
0
BLOCK_RECORD
5
1A7
100
AcDbSymbolTableRecord
100
AcDbBlockTableRecord
2
*D1
340
0
70
0
0
BLOCK_RECORD
5
1B4
100
AcDbSymbolTableRecord
100
AcDbBlockTableRecord
2
_U0
340
0
70
0
0
BLOCK_RECORD
5
1C0
100
AcDbSymbolTableRecord
100
AcDbBlockTableRecord
2
*D3
340
0
70
0
0
BLOCK_RECORD
5
1CE
100
AcDbSymbolTableRecord
100
AcDbBlockTableRecord
2
_U1
340
0
70
0
0
BLOCK_RECORD
5
1DB
100
AcDbSymbolTableRecord
100
AcDbBlockTableRecord
2
*D5
340
0
70
0
0
BLOCK_RECORD
5
1EA
100
AcDbSymbolTableRecord
100
AcDbBlockTableRecord
2
_U2
340
0
70
0
0
BLOCK_RECORD
5
1F7
100
AcDbSymbolTableRecord
100
AcDbBlockTableRecord
2
*D7
340
0
70
0
0
BLOCK_RECORD
5
204
100
AcDbSymbolTableRecord
100
AcDbBlockTableRecord
2
_U3
340
0
70
0
0
BLOCK_RECORD
5
210
100
AcDbSymbolTableRecord
100
AcDbBlockTableRecord
2
*D9
340
0
70
0
0
BLOCK_RECORD
5
21C
100
AcDbSymbolTableRecord
100
AcDbBlockTableRecord
2
_U4
340
0
70
0
0
BLOCK_RECORD
5
228
100
AcDbSymbolTableRecord
100
AcDbBlockTableRecord
2
*D11
340
0
70
0
0
BLOCK_RECORD
5
236
100
AcDbSymbolTableRecord
100
AcDbBlockTableRecord
2
_U5
340
0
70
0
0
BLOCK_RECORD
5
241
100
AcDbSymbolTableRecord
100
AcDbBlockTableRecord
2
*D13
340
0
70
0
0
BLOCK_RECORD
5
24F
100
AcDbSymbolTableRecord
100
AcDbBlockTableRecord
2
_U6
340
0
70
0
0
ENDTAB
0
ENDSEC
0
SECTION
2
BLOCKS
0
BLOCK
5
20
100
AcDbEntity
8
0
100
AcDbBlockBegin
2
*Model_Space
70
0
10
0
20
0
30
0
3
*Model_Space
0
ENDBLK
5
21
100
AcDbEntity
8
0
100
AcDbBlockEnd
0
BLOCK
5
1C
100
AcDbEntity
8
0
100
AcDbBlockBegin
2
*Paper_Space
70
0
10
0
20
0
30
0
3
*Paper_Space
0
ENDBLK
5
1D
100
AcDbEntity
8
0
100
AcDbBlockEnd
0
BLOCK
5
24
100
AcDbEntity
8
0
100
AcDbBlockBegin
2
*Paper_Space0
70
0
10
0
20
0
30
0
3
*Paper_Space0
0
ENDBLK
5
25
100
AcDbEntity
8
0
100
AcDbBlockEnd
0
BLOCK
5
1A8
100
AcDbEntity
8
0
100
AcDbBlockBegin
2
*D1
70
1
10
0
20
0
30
0
3
*D1
0
LINE
5
1AA
100
AcDbEntity
8
0
62
256
6
ByLayer
370
-2
48
1
60
0
100
AcDbLine
10
120
20
12.5875
30
0
11
120
21
40.811032
31
0
39
0
210
0
220
0
230
1
0
LINE
5
1AB
100
AcDbEntity
8
0
62
256
6
ByLayer
370
-2
48
1
60
0
100
AcDbLine
10
0
20
1.5875
30
0
11
0
21
40.811032
31
0
39
0
210
0
220
0
230
1
0
LINE
5
1AC
100
AcDbEntity
8
0
62
256
6
ByLayer
370
-2
48
1
60
0
100
AcDbLine
10
116.825
20
37.636032
30
0
11
3.175
21
37.636032
31
0
39
0
210
0
220
0
230
1
0
SOLID
5
1AD
100
AcDbEntity
8
0
62
256
6
ByLayer
370
-1
48
1
60
0
100
AcDbTrace
10
116.825
20
37.106866
30
0
11
116.825
21
38.165199
31
0
12
120
22
37.636032
32
0
13
120
23
37.636032
33
0
39
0
210
0
220
0
230
1
0
SOLID
5
1AE
100
AcDbEntity
8
0
62
256
6
ByLayer
370
-1
48
1
60
0
100
AcDbTrace
10
3.175
20
38.165199
30
0
11
3.175
21
37.106866
31
0
12
0
22
37.636032
32
0
13
0
23
37.636032
33
0
39
0
210
0
220
0
230
1
0
MTEXT
5
1AF
100
AcDbEntity
8
0
62
256
6
ByLayer
370
70
48
1
60
0
100
AcDbMText
10
60
20
44.942282
30
0
210
0
220
0
230
1
1
\A1;120
40
3.5
41
0
44
1
50
0
71
5
72
5
7
iso-1
0
POINT
5
1B0
100
AcDbEntity
8
Defpoints
62
0
6
ByLayer
370
-1
48
1
60
0
100
AcDbPoint
10
120
20
11
30
0
39
0
210
0
220
0
230
1
50
360
0
POINT
5
1B1
100
AcDbEntity
8
Defpoints
62
0
6
ByLayer
370
-1
48
1
60
0
100
AcDbPoint
10
0
20
0
30
0
39
0
210
0
220
0
230
1
50
360
0
POINT
5
1B2
100
AcDbEntity
8
Defpoints
62
0
6
ByLayer
370
-1
48
1
60
0
100
AcDbPoint
10
0
20
37.636032
30
0
39
0
210
0
220
0
230
1
50
360
0
ENDBLK
5
1A9
100
AcDbEntity
8
0
100
AcDbBlockEnd
0
BLOCK
5
1BB
100
AcDbEntity
8
0
100
AcDbBlockBegin
2
_U0
70
0
10
0
20
0
30
0
3
_U0
0
MTEXT
5
1B5
100
AcDbEntity
8
2
62
256
6
ByLayer
370
13
48
1
60
0
100
AcDbMText
10
57.361553
20
38.364585
30
0
210
0
220
0
230
1
1
\W0.5929;120
40
3.5
41
0
44
0.963855
50
0
71
7
72
5
7
iso-1
0
LINE
5
1B6
100
AcDbEntity
8
2
62
256
6
ByLayer
370
13
48
1
60
0
100
AcDbLine
10
120
20
12.5875
30
0
11
120
21
40.811032
31
0
39
0
210
0
220
0
230
1
0
LINE
5
1B7
100
AcDbEntity
8
2
62
256
6
ByLayer
370
13
48
1
60
0
100
AcDbLine
10
0
20
1.5875
30
0
11
0
21
40.811032
31
0
39
0
210
0
220
0
230
1
0
LINE
5
1B8
100
AcDbEntity
8
2
62
256
6
ByLayer
370
13
48
1
60
0
100
AcDbLine
10
120
20
37.636032
30
0
11
0
21
37.636032
31
0
39
0
210
0
220
0
230
1
0
SOLID
5
1B9
100
AcDbEntity
8
2
62
256
6
ByLayer
370
70
48
1
60
0
100
AcDbTrace
10
120
20
37.636032
30
0
11
116.825002
21
37.218036
31
0
12
116.824998
22
38.054029
32
0
13
116.824998
23
38.054029
33
0
39
0
210
0
220
0
230
1
0
SOLID
5
1BA
100
AcDbEntity
8
2
62
256
6
ByLayer
370
70
48
1
60
0
100
AcDbTrace
10
0
20
37.636032
30
0
11
3.174998
21
38.054029
31
0
12
3.175002
22
37.218036
32
0
13
3.175002
23
37.218036
33
0
39
0
210
0
220
0
230
1
0
ENDBLK
5
1BC
100
AcDbEntity
8
0
100
AcDbBlockEnd
0
BLOCK
5
1C1
100
AcDbEntity
8
0
100
AcDbBlockBegin
2
*D3
70
1
10
0
20
0
30
0
3
*D3
0
LINE
5
1C3
100
AcDbEntity
8
0
62
256
6
ByLayer
370
-2
48
1
60
0
100
AcDbLine
10
121.5875
20
11
30
0
11
140.736695
21
11
31
0
39
0
210
0
220
0
230
1
0
LINE
5
1C4
100
AcDbEntity
8
0
62
256
6
ByLayer
370
-2
48
1
60
0
100
AcDbLine
10
126.5875
20
0
30
0
11
140.736695
21
0
31
0
39
0
210
0
220
0
230
1
0
LINE
5
1C5
100
AcDbEntity
8
0
62
256
6
ByLayer
370
-2
48
1
60
0
100
AcDbLine
10
137.561695
20
11
30
0
11
137.561695
21
32.656601
31
0
39
0
210
0
220
0
230
1
0
LINE
5
1C6
100
AcDbEntity
8
0
62
256
6
ByLayer
370
-2
48
1
60
0
100
AcDbLine
10
137.561695
20
14.175
30
0
11
137.561695
21
17.35
31
0
39
0
210
0
220
0
230
1
0
LINE
5
1C7
100
AcDbEntity
8
0
62
256
6
ByLayer
370
-2
48
1
60
0
100
AcDbLine
10
137.561695
20
-3.175
30
0
11
137.561695
21
-6.35
31
0
39
0
210
0
220
0
230
1
0
SOLID
5
1C8
100
AcDbEntity
8
0
62
256
6
ByLayer
370
-1
48
1
60
0
100
AcDbTrace
10
137.032528
20
14.175
30
0
11
138.090862
21
14.175
31
0
12
137.561695
22
11
32
0
13
137.561695
23
11
33
0
39
0
210
0
220
0
230
1
0
SOLID
5
1C9
100
AcDbEntity
8
0
62
256
6
ByLayer
370
-1
48
1
60
0
100
AcDbTrace
10
138.090862
20
-3.175
30
0
11
137.032528
21
-3.175
31
0
12
137.561695
22
0
32
0
13
137.561695
23
0
33
0
39
0
210
0
220
0
230
1
0
MTEXT
5
1CA
100
AcDbEntity
8
0
62
256
6
ByLayer
370
70
48
1
60
0
100
AcDbMText
10
130.255445
20
25.017017
30
0
210
0
220
0
230
1
1
\A1;11
40
3.5
41
0
44
1
50
90
71
5
72
5
7
iso-1
0
POINT
5
1CB
100
AcDbEntity
8
Defpoints
62
0
6
ByLayer
370
-1
48
1
60
0
100
AcDbPoint
10
120
20
11
30
0
39
0
210
0
220
0
230
1
50
360
0
POINT
5
1CC
100
AcDbEntity
8
Defpoints
62
0
6
ByLayer
370
-1
48
1
60
0
100
AcDbPoint
10
125
20
0
30
0
39
0
210
0
220
0
230
1
50
360
0
POINT
5
1CD
100
AcDbEntity
8
Defpoints
62
0
6
ByLayer
370
-1
48
1
60
0
100
AcDbPoint
10
137.561695
20
0
30
0
39
0
210
0
220
0
230
1
50
360
0
ENDBLK
5
1C2
100
AcDbEntity
8
0
100
AcDbBlockEnd
0
BLOCK
5
1D5
100
AcDbEntity
8
0
100
AcDbBlockBegin
2
_U1
70
0
10
0
20
0
30
0
3
_U1
0
MTEXT
5
1CF
100
AcDbEntity
8
2
62
256
6
ByLayer
370
13
48
1
60
0
100
AcDbMText
10
137.176142
20
23.965175
30
0
210
0
220
0
230
1
1
\W0.4657;11
40
3.5
41
0
44
0.963855
50
90
71
7
72
5
7
iso-1
0
LINE
5
1D0
100
AcDbEntity
8
2
62
256
6
ByLayer
370
13
48
1
60
0
100
AcDbLine
10
121.5875
20
11
30
0
11
140.736695
21
11
31
0
39
0
210
0
220
0
230
1
0
LINE
5
1D1
100
AcDbEntity
8
2
62
256
6
ByLayer
370
13
48
1
60
0
100
AcDbLine
10
126.5875
20
0
30
0
11
140.736695
21
0
31
0
39
0
210
0
220
0
230
1
0
LINE
5
1D2
100
AcDbEntity
8
2
62
256
6
ByLayer
370
13
48
1
60
0
100
AcDbLine
10
137.561695
20
0
30
0
11
137.561695
21
26.226359
31
0
39
0
210
0
220
0
230
1
0
SOLID
5
1D3
100
AcDbEntity
8
2
62
256
6
ByLayer
370
70
48
1
60
0
100
AcDbTrace
10
137.561695
20
11
30
0
11
137.979692
21
7.825002
31
0
12
137.143698
22
7.824998
32
0
13
137.143698
23
7.824998
33
0
39
0
210
0
220
0
230
1
0
SOLID
5
1D4
100
AcDbEntity
8
2
62
256
6
ByLayer
370
70
48
1
60
0
100
AcDbTrace
10
137.561695
20
0
30
0
11
137.143698
21
3.174998
31
0
12
137.979692
22
3.175002
32
0
13
137.979692
23
3.175002
33
0
39
0
210
0
220
0
230
1
0
ENDBLK
5
1D6
100
AcDbEntity
8
0
100
AcDbBlockEnd
0
BLOCK
5
1DC
100
AcDbEntity
8
0
100
AcDbBlockBegin
2
*D5
70
1
10
0
20
0
30
0
3
*D5
0
LINE
5
1DE
100
AcDbEntity
8
0
62
256
6
ByLayer
370
-2
48
1
60
0
100
AcDbLine
10
119.368091
20
-1.585324
30
0
11
118.115505
21
-25.48609
31
0
39
0
210
0
220
0
230
1
0
LINE
5
1DF
100
AcDbEntity
8
0
62
256
6
ByLayer
370
-2
48
1
60
0
100
AcDbLine
10
126.5875
20
0
30
0
11
144.97224
21
0
31
0
39
0
210
0
220
0
230
1
0
ARC
5
1E0
100
AcDbEntity
8
0
62
256
6
ByLayer
370
-2
48
1
60
0
100
AcDbCircle
39
0
10
119.451174
20
0
30
0
40
22.3460656666395
210
0
220
0
230
1
100
AcDbArc
50
250.704741
51
258.85237
0
ARC
5
1E1
100
AcDbEntity
8
0
62
256
6
ByLayer
370
-2
48
1
60
0
100
AcDbCircle
39
0
10
119.451174
20
0
30
0
40
22.3460656666395
210
0
220
0
230
1
100
AcDbArc
50
8.14763
51
16.295259
0
SOLID
5
1E2
100
AcDbEntity
8
0
62
256
6
ByLayer
370
-1
48
1
60
0
100
AcDbTrace
10
115.065673
20
-22.449585
30
0
11
115.196004
21
-21.399308
31
0
12
118.281671
22
-22.315441
32
0
13
118.281671
23
-22.315441
33
0
39
0
210
0
220
0
230
1
0
SOLID
5
1E3
100
AcDbEntity
8
0
62
256
6
ByLayer
370
-1
48
1
60
0
100
AcDbTrace
10
141.043853
20
3.129385
30
0
11
142.099512
21
3.204571
31
0
12
141.79724
22
0
32
0
13
141.79724
23
0
33
0
39
0
210
0
220
0
230
1
0
MTEXT
5
1E4
100
AcDbEntity
8
0
62
256
6
ByLayer
370
70
48
1
60
0
100
AcDbMText
10
132.003739
20
-18.487286
30
0
210
0
220
0
230
1
1
\A1;93%%d
40
3.5
41
0
44
1
50
0
71
5
72
5
7
iso-1
0
POINT
5
1E5
100
AcDbEntity
8
Defpoints
62
0
6
ByLayer
370
-1
48
1
60
0
100
AcDbPoint
10
138.605491
20
-11.509075
30
0
39
0
210
0
220
0
230
1
50
360
0
POINT
5
1E6
100
AcDbEntity
8
Defpoints
62
0
6
ByLayer
370
-1
48
1
60
0
100
AcDbPoint
10
-5
20
0
30
0
39
0
210
0
220
0
230
1
50
360
0
POINT
5
1E7
100
AcDbEntity
8
Defpoints
62
0
6
ByLayer
370
-1
48
1
60
0
100
AcDbPoint
10
119.648861
20
3.772095
30
0
39
0
210
0
220
0
230
1
50
360
0
POINT
5
1E8
100
AcDbEntity
8
Defpoints
62
0
6
ByLayer
370
-1
48
1
60
0
100
AcDbPoint
10
119.999482
20
10.462334
30
0
39
0
210
0
220
0
230
1
50
360
0
POINT
5
1E9
100
AcDbEntity
8
Defpoints
62
0
6
ByLayer
370
-1
48
1
60
0
100
AcDbPoint
10
125
20
0
30
0
39
0
210
0
220
0
230
1
50
360
0
ENDBLK
5
1DD
100
AcDbEntity
8
0
100
AcDbBlockEnd
0
BLOCK
5
1F2
100
AcDbEntity
8
0
100
AcDbBlockBegin
2
_U2
70
0
10
0
20
0
30
0
3
_U2
0
MTEXT
5
1EB
100
AcDbEntity
8
2
62
256
6
ByLayer
370
13
48
1
60
0
100
AcDbMText
10
132.189239
20
-19.508734
30
0
210
0
220
0
230
1
1
\W0.8823;93%%d
40
3.5
41
0
44
0.963855
50
0
71
7
72
5
7
iso-1
0
LINE
5
1EC
100
AcDbEntity
8
2
62
256
6
ByLayer
370
13
48
1
60
0
100
AcDbLine
10
119.565778
20
2.186771
30
0
11
118.077408
21
-26.213024
31
0
39
0
210
0
220
0
230
1
0
LINE
5
1ED
100
AcDbEntity
8
2
62
256
6
ByLayer
370
13
48
1
60
0
100
AcDbLine
10
126.5875
20
0
30
0
11
145.700171
21
0
31
0
39
0
210
0
220
0
230
1
0
ARC
5
1EE
100
AcDbEntity
8
2
62
256
6
ByLayer
370
13
48
1
60
0
100
AcDbCircle
39
0
10
119.451174
20
0
30
0
40
23.073997325012
210
0
220
0
230
1
100
AcDbArc
50
267
51
299.539245
0
ARC
5
1EF
100
AcDbEntity
8
2
62
256
6
ByLayer
370
13
48
1
60
0
100
AcDbCircle
39
0
10
119.451174
20
0
30
0
40
23.073997325012
210
0
220
0
230
1
100
AcDbArc
50
324.498024
51
359.999943
0
SOLID
5
1F0
100
AcDbEntity
8
2
62
256
6
ByLayer
370
70
48
1
60
0
100
AcDbTrace
10
118.243574
20
-23.042375
30
0
11
121.425587
21
-22.681637
31
0
12
121.410531
22
-23.517495
32
0
13
121.410531
23
-23.517495
33
0
39
0
210
0
220
0
230
1
0
SOLID
5
1F1
100
AcDbEntity
8
2
62
256
6
ByLayer
370
70
48
1
60
0
100
AcDbTrace
10
142.525171
20
0
30
0
11
142.833894
21
-3.18748
31
0
12
141.998394
22
-3.158775
32
0
13
141.998394
23
-3.158775
33
0
39
0
210
0
220
0
230
1
0
ENDBLK
5
1F3
100
AcDbEntity
8
0
100
AcDbBlockEnd
0
BLOCK
5
1F8
100
AcDbEntity
8
0
100
AcDbBlockBegin
2
*D7
70
1
10
0
20
0
30
0
3
*D7
0
LINE
5
1FA
100
AcDbEntity
8
0
62
256
6
ByLayer
370
-2
48
1
60
0
100
AcDbLine
10
120
20
9.4125
30
0
11
120
21
-50.398204
31
0
39
0
210
0
220
0
230
1
0
LINE
5
1FB
100
AcDbEntity
8
0
62
256
6
ByLayer
370
-2
48
1
60
0
100
AcDbLine
10
-61.25
20
-1.5875
30
0
11
-61.25
21
-50.398204
31
0
39
0
210
0
220
0
230
1
0
LINE
5
1FC
100
AcDbEntity
8
0
62
256
6
ByLayer
370
-2
48
1
60
0
100
AcDbLine
10
116.825
20
-47.223204
30
0
11
-58.075
21
-47.223204
31
0
39
0
210
0
220
0
230
1
0
SOLID
5
1FD
100
AcDbEntity
8
0
62
256
6
ByLayer
370
-1
48
1
60
0
100
AcDbTrace
10
116.825
20
-47.752371
30
0
11
116.825
21
-46.694037
31
0
12
120
22
-47.223204
32
0
13
120
23
-47.223204
33
0
39
0
210
0
220
0
230
1
0
SOLID
5
1FE
100
AcDbEntity
8
0
62
256
6
ByLayer
370
-1
48
1
60
0
100
AcDbTrace
10
-58.075
20
-46.694037
30
0
11
-58.075
21
-47.752371
31
0
12
-61.25
22
-47.223204
32
0
13
-61.25
23
-47.223204
33
0
39
0
210
0
220
0
230
1
0
MTEXT
5
1FF
100
AcDbEntity
8
0
62
256
6
ByLayer
370
70
48
1
60
0
100
AcDbMText
10
29.375
20
-39.916954
30
0
210
0
220
0
230
1
1
\A1;181.25
40
3.5
41
0
44
1
50
0
71
5
72
5
7
iso-1
0
POINT
5
200
100
AcDbEntity
8
Defpoints
62
0
6
ByLayer
370
-1
48
1
60
0
100
AcDbPoint
10
120
20
11
30
0
39
0
210
0
220
0
230
1
50
360
0
POINT
5
201
100
AcDbEntity
8
Defpoints
62
0
6
ByLayer
370
-1
48
1
60
0
100
AcDbPoint
10
-61.25
20
0
30
0
39
0
210
0
220
0
230
1
50
360
0
POINT
5
202
100
AcDbEntity
8
Defpoints
62
0
6
ByLayer
370
-1
48
1
60
0
100
AcDbPoint
10
-61.25
20
-47.223204
30
0
39
0
210
0
220
0
230
1
50
360
0
ENDBLK
5
1F9
100
AcDbEntity
8
0
100
AcDbBlockEnd
0
BLOCK
5
20B
100
AcDbEntity
8
0
100
AcDbBlockBegin
2
_U3
70
0
10
0
20
0
30
0
3
_U3
0
MTEXT
5
205
100
AcDbEntity
8
SK2
62
256
6
ByLayer
370
13
48
1
60
0
100
AcDbMText
10
24.121684
20
-46.494651
30
0
210
0
220
0
230
1
1
\W0.6072;181,25
40
3.5
41
0
44
0.963855
50
0
71
7
72
5
7
iso-1
0
LINE
5
206
100
AcDbEntity
8
SK2
62
256
6
ByLayer
370
13
48
1
60
0
100
AcDbLine
10
120
20
9.4125
30
0
11
120
21
-50.398204
31
0
39
0
210
0
220
0
230
1
0
LINE
5
207
100
AcDbEntity
8
SK2
62
256
6
ByLayer
370
13
48
1
60
0
100
AcDbLine
10
-61.25
20
-7.0875
30
0
11
-61.25
21
-50.398204
31
0
39
0
210
0
220
0
230
1
0
LINE
5
208
100
AcDbEntity
8
SK2
62
256
6
ByLayer
370
13
48
1
60
0
100
AcDbLine
10
120
20
-47.223204
30
0
11
-61.25
21
-47.223204
31
0
39
0
210
0
220
0
230
1
0
SOLID
5
209
100
AcDbEntity
8
SK2
62
256
6
ByLayer
370
70
48
1
60
0
100
AcDbTrace
10
120
20
-47.223204
30
0
11
116.825002
21
-47.641201
31
0
12
116.824998
22
-46.805207
32
0
13
116.824998
23
-46.805207
33
0
39
0
210
0
220
0
230
1
0
SOLID
5
20A
100
AcDbEntity
8
SK2
62
256
6
ByLayer
370
70
48
1
60
0
100
AcDbTrace
10
-61.25
20
-47.223204
30
0
11
-58.075002
21
-46.805207
31
0
12
-58.074998
22
-47.641201
32
0
13
-58.074998
23
-47.641201
33
0
39
0
210
0
220
0
230
1
0
ENDBLK
5
20C
100
AcDbEntity
8
0
100
AcDbBlockEnd
0
BLOCK
5
211
100
AcDbEntity
8
0
100
AcDbBlockBegin
2
*D9
70
1
10
0
20
0
30
0
3
*D9
0
LINE
5
213
100
AcDbEntity
8
0
62
256
6
ByLayer
370
-2
48
1
60
0
100
AcDbLine
10
120
20
12.5875
30
0
11
120
21
23.658158
31
0
39
0
210
0
220
0
230
1
0
LINE
5
214
100
AcDbEntity
8
0
62
256
6
ByLayer
370
-2
48
1
60
0
100
AcDbLine
10
48
20
1.5875
30
0
11
48
21
23.658158
31
0
39
0
210
0
220
0
230
1
0
LINE
5
215
100
AcDbEntity
8
0
62
256
6
ByLayer
370
-2
48
1
60
0
100
AcDbLine
10
116.825
20
20.483158
30
0
11
51.175
21
20.483158
31
0
39
0
210
0
220
0
230
1
0
SOLID
5
216
100
AcDbEntity
8
0
62
256
6
ByLayer
370
-1
48
1
60
0
100
AcDbTrace
10
116.825
20
19.953991
30
0
11
116.825
21
21.012324
31
0
12
120
22
20.483158
32
0
13
120
23
20.483158
33
0
39
0
210
0
220
0
230
1
0
SOLID
5
217
100
AcDbEntity
8
0
62
256
6
ByLayer
370
-1
48
1
60
0
100
AcDbTrace
10
51.175
20
21.012324
30
0
11
51.175
21
19.953991
31
0
12
48
22
20.483158
32
0
13
48
23
20.483158
33
0
39
0
210
0
220
0
230
1
0
MTEXT
5
218
100
AcDbEntity
8
0
62
256
6
ByLayer
370
70
48
1
60
0
100
AcDbMText
10
84
20
27.789408
30
0
210
0
220
0
230
1
1
\A1;72
40
3.5
41
0
44
1
50
0
71
5
72
5
7
iso-1
0
POINT
5
219
100
AcDbEntity
8
Defpoints
62
0
6
ByLayer
370
-1
48
1
60
0
100
AcDbPoint
10
120
20
11
30
0
39
0
210
0
220
0
230
1
50
360
0
POINT
5
21A
100
AcDbEntity
8
Defpoints
62
0
6
ByLayer
370
-1
48
1
60
0
100
AcDbPoint
10
48
20
0
30
0
39
0
210
0
220
0
230
1
50
360
0
POINT
5
21B
100
AcDbEntity
8
Defpoints
62
0
6
ByLayer
370
-1
48
1
60
0
100
AcDbPoint
10
48
20
20.483158
30
0
39
0
210
0
220
0
230
1
50
360
0
ENDBLK
5
212
100
AcDbEntity
8
0
100
AcDbBlockEnd
0
BLOCK
5
223
100
AcDbEntity
8
0
100
AcDbBlockBegin
2
_U4
70
0
10
0
20
0
30
0
3
_U4
0
MTEXT
5
21D
100
AcDbEntity
8
SK2
62
256
6
ByLayer
370
13
48
1
60
0
100
AcDbMText
10
82.202474
20
21.21171
30
0
210
0
220
0
230
1
1
\W0.6385;72
40
3.5
41
0
44
0.963855
50
0
71
7
72
5
7
iso-1
0
LINE
5
21E
100
AcDbEntity
8
SK2
62
256
6
ByLayer
370
13
48
1
60
0
100
AcDbLine
10
120
20
12.5875
30
0
11
120
21
23.658158
31
0
39
0
210
0
220
0
230
1
0
LINE
5
21F
100
AcDbEntity
8
SK2
62
256
6
ByLayer
370
13
48
1
60
0
100
AcDbLine
10
48
20
3.5875
30
0
11
48
21
23.658158
31
0
39
0
210
0
220
0
230
1
0
LINE
5
220
100
AcDbEntity
8
SK2
62
256
6
ByLayer
370
13
48
1
60
0
100
AcDbLine
10
120
20
20.483158
30
0
11
48
21
20.483158
31
0
39
0
210
0
220
0
230
1
0
SOLID
5
221
100
AcDbEntity
8
SK2
62
256
6
ByLayer
370
70
48
1
60
0
100
AcDbTrace
10
120
20
20.483158
30
0
11
116.825002
21
20.065161
31
0
12
116.824998
22
20.901154
32
0
13
116.824998
23
20.901154
33
0
39
0
210
0
220
0
230
1
0
SOLID
5
222
100
AcDbEntity
8
SK2
62
256
6
ByLayer
370
70
48
1
60
0
100
AcDbTrace
10
48
20
20.483158
30
0
11
51.174998
21
20.901154
31
0
12
51.175002
22
20.065161
32
0
13
51.175002
23
20.065161
33
0
39
0
210
0
220
0
230
1
0
ENDBLK
5
224
100
AcDbEntity
8
0
100
AcDbBlockEnd
0
BLOCK
5
229
100
AcDbEntity
8
0
100
AcDbBlockBegin
2
*D11
70
1
10
0
20
0
30
0
3
*D11
0
LINE
5
22B
100
AcDbEntity
8
0
62
256
6
ByLayer
370
-2
48
1
60
0
100
AcDbLine
10
27.6875
20
6
30
0
11
25.064487
21
6
31
0
39
0
210
0
220
0
230
1
0
LINE
5
22C
100
AcDbEntity
8
0
62
256
6
ByLayer
370
-2
48
1
60
0
100
AcDbLine
10
1.5875
20
-6
30
0
11
31.414487
21
-6
31
0
39
0
210
0
220
0
230
1
0
LINE
5
22D
100
AcDbEntity
8
0
62
256
6
ByLayer
370
-2
48
1
60
0
100
AcDbLine
10
28.239487
20
-6
30
0
11
28.239487
21
-31.222959
31
0
39
0
210
0
220
0
230
1
0
LINE
5
22E
100
AcDbEntity
8
0
62
256
6
ByLayer
370
-2
48
1
60
0
100
AcDbLine
10
28.239487
20
9.175
30
0
11
28.239487
21
12.35
31
0
39
0
210
0
220
0
230
1
0
LINE
5
22F
100
AcDbEntity
8
0
62
256
6
ByLayer
370
-2
48
1
60
0
100
AcDbLine
10
28.239487
20
-9.175
30
0
11
28.239487
21
-12.35
31
0
39
0
210
0
220
0
230
1
0
SOLID
5
230
100
AcDbEntity
8
0
62
256
6
ByLayer
370
-1
48
1
60
0
100
AcDbTrace
10
27.71032
20
9.175
30
0
11
28.768654
21
9.175
31
0
12
28.239487
22
6
32
0
13
28.239487
23
6
33
0
39
0
210
0
220
0
230
1
0
SOLID
5
231
100
AcDbEntity
8
0
62
256
6
ByLayer
370
-1
48
1
60
0
100
AcDbTrace
10
28.768654
20
-9.175
30
0
11
27.71032
21
-9.175
31
0
12
28.239487
22
-6
32
0
13
28.239487
23
-6
33
0
39
0
210
0
220
0
230
1
0
MTEXT
5
232
100
AcDbEntity
8
0
62
256
6
ByLayer
370
70
48
1
60
0
100
AcDbMText
10
20.933237
20
-23.083375
30
0
210
0
220
0
230
1
1
\A1;12
40
3.5
41
0
44
1
50
90
71
5
72
5
7
iso-1
0
POINT
5
233
100
AcDbEntity
8
Defpoints
62
0
6
ByLayer
370
-1
48
1
60
0
100
AcDbPoint
10
29.275
20
6
30
0
39
0
210
0
220
0
230
1
50
360
0
POINT
5
234
100
AcDbEntity
8
Defpoints
62
0
6
ByLayer
370
-1
48
1
60
0
100
AcDbPoint
10
0
20
-6
30
0
39
0
210
0
220
0
230
1
50
360
0
POINT
5
235
100
AcDbEntity
8
Defpoints
62
0
6
ByLayer
370
-1
48
1
60
0
100
AcDbPoint
10
28.239487
20
-6
30
0
39
0
210
0
220
0
230
1
50
360
0
ENDBLK
5
22A
100
AcDbEntity
8
0
100
AcDbBlockEnd
0
BLOCK
5
23C
100
AcDbEntity
8
0
100
AcDbBlockBegin
2
_U5
70
0
10
0
20
0
30
0
3
_U5
0
MTEXT
5
237
100
AcDbEntity
8
SK2
62
256
6
ByLayer
370
13
48
1
60
0
100
AcDbMText
10
26.978934
20
-21.02206
30
0
210
0
220
0
230
1
1
\W0.5144;12
40
3.5
41
0
44
0.963855
50
90
71
7
72
5
7
iso-1
0
MTEXT
5
238
100
AcDbEntity
8
SK2
62
256
6
ByLayer
370
13
48
1
60
0
100
AcDbMText
10
26.978934
20
-28.02206
30
0
210
0
220
0
230
1
1
%%c
40
3.5
41
0
44
0.963855
50
90
71
7
72
5
7
iso-1
0
LINE
5
239
100
AcDbEntity
8
SK2
62
256
6
ByLayer
370
13
48
1
60
0
100
AcDbLine
10
28.239487
20
6
30
0
11
28.239487
21
-28.17956
31
0
39
0
210
0
220
0
230
1
0
SOLID
5
23A
100
AcDbEntity
8
SK2
62
256
6
ByLayer
370
70
48
1
60
0
100
AcDbTrace
10
28.239487
20
6
30
0
11
28.657484
21
2.825002
31
0
12
27.82149
22
2.824998
32
0
13
27.82149
23
2.824998
33
0
39
0
210
0
220
0
230
1
0
SOLID
5
23B
100
AcDbEntity
8
SK2
62
256
6
ByLayer
370
70
48
1
60
0
100
AcDbTrace
10
28.239487
20
-6
30
0
11
27.82149
21
-2.825002
31
0
12
28.657484
22
-2.824998
32
0
13
28.657484
23
-2.824998
33
0
39
0
210
0
220
0
230
1
0
ENDBLK
5
23D
100
AcDbEntity
8
0
100
AcDbBlockEnd
0
BLOCK
5
242
100
AcDbEntity
8
0
100
AcDbBlockBegin
2
*D13
70
1
10
0
20
0
30
0
3
*D13
0
LINE
5
244
100
AcDbEntity
8
0
62
256
6
ByLayer
370
-2
48
1
60
0
100
AcDbLine
10
83.8125
20
6.225
30
0
11
79.886183
21
6.225
31
0
39
0
210
0
220
0
230
1
0
LINE
5
245
100
AcDbEntity
8
0
62
256
6
ByLayer
370
-2
48
1
60
0
100
AcDbLine
10
60.1375
20
-6.225
30
0
11
86.236183
21
-6.225
31
0
39
0
210
0
220
0
230
1
0
LINE
5
246
100
AcDbEntity
8
0
62
256
6
ByLayer
370
-2
48
1
60
0
100
AcDbLine
10
83.061183
20
-6.225
30
0
11
83.061183
21
-43.062716
31
0
39
0
210
0
220
0
230
1
0
LINE
5
247
100
AcDbEntity
8
0
62
256
6
ByLayer
370
-2
48
1
60
0
100
AcDbLine
10
83.061183
20
9.4
30
0
11
83.061183
21
12.575
31
0
39
0
210
0
220
0
230
1
0
LINE
5
248
100
AcDbEntity
8
0
62
256
6
ByLayer
370
-2
48
1
60
0
100
AcDbLine
10
83.061183
20
-9.4
30
0
11
83.061183
21
-12.575
31
0
39
0
210
0
220
0
230
1
0
SOLID
5
249
100
AcDbEntity
8
0
62
256
6
ByLayer
370
-1
48
1
60
0
100
AcDbTrace
10
82.532016
20
9.4
30
0
11
83.59035
21
9.4
31
0
12
83.061183
22
6.225
32
0
13
83.061183
23
6.225
33
0
39
0
210
0
220
0
230
1
0
SOLID
5
24A
100
AcDbEntity
8
0
62
256
6
ByLayer
370
-1
48
1
60
0
100
AcDbTrace
10
83.59035
20
-9.4
30
0
11
82.532016
21
-9.4
31
0
12
83.061183
22
-6.225
32
0
13
83.061183
23
-6.225
33
0
39
0
210
0
220
0
230
1
0
MTEXT
5
24B
100
AcDbEntity
8
0
62
256
6
ByLayer
370
70
48
1
60
0
100
AcDbMText
10
75.754933
20
-30.756466
30
0
210
0
220
0
230
1
1
\A1;12.45
40
3.5
41
0
44
1
50
90
71
5
72
5
7
iso-1
0
POINT
5
24C
100
AcDbEntity
8
Defpoints
62
0
6
ByLayer
370
-1
48
1
60
0
100
AcDbPoint
10
85.4
20
6.225
30
0
39
0
210
0
220
0
230
1
50
360
0
POINT
5
24D
100
AcDbEntity
8
Defpoints
62
0
6
ByLayer
370
-1
48
1
60
0
100
AcDbPoint
10
58.55
20
-6.225
30
0
39
0
210
0
220
0
230
1
50
360
0
POINT
5
24E
100
AcDbEntity
8
Defpoints
62
0
6
ByLayer
370
-1
48
1
60
0
100
AcDbPoint
10
83.061183
20
-6.225
30
0
39
0
210
0
220
0
230
1
50
360
0
ENDBLK
5
243
100
AcDbEntity
8
0
100
AcDbBlockEnd
0
BLOCK
5
255
100
AcDbEntity
8
0
100
AcDbBlockBegin
2
_U6
70
0
10
0
20
0
30
0
3
_U6
0
MTEXT
5
250
100
AcDbEntity
8
SK2
62
256
6
ByLayer
370
13
48
1
60
0
100
AcDbMText
10
81.800631
20
-31.899492
30
0
210
0
220
0
230
1
1
\W0.6600;12,45
40
3.5
41
0
44
0.963855
50
90
71
7
72
5
7
iso-1
0
MTEXT
5
251
100
AcDbEntity
8
SK2
62
256
6
ByLayer
370
13
48
1
60
0
100
AcDbMText
10
81.800631
20
-38.899492
30
0
210
0
220
0
230
1
1
%%c
40
3.5
41
0
44
0.963855
50
90
71
7
72
5
7
iso-1
0
LINE
5
252
100
AcDbEntity
8
SK2
62
256
6
ByLayer
370
13
48
1
60
0
100
AcDbLine
10
83.061183
20
6.225
30
0
11
83.061183
21
-39.056992
31
0
39
0
210
0
220
0
230
1
0
SOLID
5
253
100
AcDbEntity
8
SK2
62
256
6
ByLayer
370
70
48
1
60
0
100
AcDbTrace
10
83.061183
20
6.225
30
0
11
83.47918
21
3.050002
31
0
12
82.643186
22
3.049998
32
0
13
82.643186
23
3.049998
33
0
39
0
210
0
220
0
230
1
0
SOLID
5
254
100
AcDbEntity
8
SK2
62
256
6
ByLayer
370
70
48
1
60
0
100
AcDbTrace
10
83.061183
20
-6.225
30
0
11
82.643186
21
-3.050002
31
0
12
83.47918
22
-3.049998
32
0
13
83.47918
23
-3.049998
33
0
39
0
210
0
220
0
230
1
0
ENDBLK
5
256
100
AcDbEntity
8
0
100
AcDbBlockEnd
0
ENDSEC
0
SECTION
2
ENTITIES
0
ARC
5
DE
100
AcDbEntity
8
1
62
256
6
ByLayer
370
18
48
1
60
1
100
AcDbCircle
39
0
10
113.334345
20
-5.838662
30
-2.681351
40
0.396875000000049
210
-0.00818714731723895
220
-0.156220077042716
230
-0.987688340595136
100
AcDbArc
50
55
51
129.174001
0
ARC
5
DF
100
AcDbEntity
8
1
62
256
6
ByLayer
370
18
48
1
60
1
100
AcDbCircle
39
0
10
113.334345
20
-12.621591
30
-2.681351
40
0.396875000000004
210
-0.00818714731723895
220
-0.156220077042716
230
-0.987688340595136
100
AcDbArc
50
180
51
235
0
ARC
5
E0
100
AcDbEntity
8
1
62
256
6
ByLayer
370
18
48
1
60
1
100
AcDbCircle
39
0
10
118.890595
20
-16.512119
30
-2.681351
40
0.396875000000049
210
-0.00818714731723895
220
-0.156220077042716
230
-0.987688340595136
100
AcDbArc
50
235
51
360
0
ARC
5
E1
100
AcDbEntity
8
1
62
256
6
ByLayer
370
18
48
1
60
1
100
AcDbCircle
39
0
10
118.890595
20
-9.72919
30
-2.681351
40
0.396875000000004
210
-0.00818714731723895
220
-0.156220077042716
230
-0.987688340595136
100
AcDbArc
50
360
51
50.825999
0
ARC
5
E2
100
AcDbEntity
8
1
62
256
6
ByLayer
370
18
48
1
60
1
100
AcDbCircle
39
0
10
116.11247
20
-11.17539
30
-2.681351
40
1.91905389152441
210
-0.00818714731723895
220
-0.156220077042716
230
-0.987688340595136
100
AcDbArc
50
145
51
153.800341
0
ARC
5
E3
100
AcDbEntity
8
1
62
256
6
ByLayer
370
18
48
1
60
1
100
AcDbCircle
39
0
10
113.334345
20
-5.838662
30
-2.681351
40
0.396875000000049
210
-0.00818714731723895
220
-0.156220077042716
230
-0.987688340595136
100
AcDbArc
50
129.174001
51
180
0
ARC
5
E4
100
AcDbEntity
8
1
62
256
6
ByLayer
370
18
48
1
60
1
100
AcDbCircle
39
0
10
116.11247
20
-11.17539
30
-2.051351
40
1.875
210
-0.00818714731723895
220
-0.156220077042716
230
-0.987688340595136
100
AcDbArc
50
155.159289
51
24.840775
0
ARC
5
E5
100
AcDbEntity
8
1
62
256
6
ByLayer
370
18
48
1
60
1
100
AcDbCircle
39
0
10
116.11247
20
-11.17539
30
-2.681351
40
1.91905389152441
210
-0.00818714731723895
220
-0.156220077042716
230
-0.987688340595136
100
AcDbArc
50
26.199659
51
145
0
ARC
5
E6
100
AcDbEntity
8
1
62
256
6
ByLayer
370
18
48
1
60
1
100
AcDbCircle
39
0
10
116.11247
20
-11.17539
30
-2.681351
40
1.91905389152441
210
-0.00818714731723895
220
-0.156220077042716
230
-0.987688340595136
100
AcDbArc
50
153.800341
51
26.199659
0
ARC
5
E7
100
AcDbEntity
8
1
62
256
6
ByLayer
370
18
48
1
60
1
100
AcDbCircle
39
0
10
118.890595
20
-9.72919
30
-2.681351
40
0.396875000000004
210
-0.00818714731723895
220
-0.156220077042716
230
-0.987688340595136
100
AcDbArc
50
50.825999
51
55
0
ARC
5
E8
100
AcDbEntity
8
1
62
256
6
ByLayer
370
18
48
1
60
1
100
AcDbCircle
39
0
10
116.11247
20
-11.17539
30
-1.904992
40
1.82475962939469
210
-0.00818714731723895
220
-0.156220077042716
230
-0.987688340595136
100
AcDbArc
50
145
51
48.848878
0
ARC
5
E9
100
AcDbEntity
8
1
62
256
6
ByLayer
370
18
48
1
60
1
100
AcDbCircle
39
0
10
116.11247
20
-11.17539
30
-1.904992
40
1.82475962939469
210
-0.00818714731723895
220
-0.156220077042716
230
-0.987688340595136
100
AcDbArc
50
131.151144
51
145
0
ARC
5
EA
100
AcDbEntity
8
1
62
256
6
ByLayer
370
18
48
1
60
0
100
AcDbCircle
39
0
10
-113.379698
20
-5.925783
30
0.301351
40
0.150000000000002
210
0.00818714731723358
220
0.156220077042706
230
0.987688340595138
100
AcDbArc
50
122.253744
51
125
0
ARC
5
EB
100
AcDbEntity
8
1
62
256
6
ByLayer
370
18
48
1
60
1
100
AcDbCircle
39
0
10
116.11247
20
-11.17539
30
-2.469804
40
1.725
210
-0.00818714731723895
220
-0.156220077042716
230
-0.987688340595136
100
AcDbArc
50
117.5
51
180
0
ARC
5
ED
100
AcDbEntity
8
1
62
256
6
ByLayer
370
18
48
1
60
1
100
AcDbCircle
39
0
10
116.11247
20
-11.17539
30
-2.643731
40
1.035
210
-0.00818714731723895
220
-0.156220077042716
230
-0.987688340595136
100
AcDbArc
50
357.450841
51
57.549159
0
ARC
5
EE
100
AcDbEntity
8
1
62
256
6
ByLayer
370
18
48
1
60
1
100
AcDbCircle
39
0
10
116.11247
20
-11.17539
30
-2.643731
40
1.035
210
-0.00818714731723895
220
-0.156220077042716
230
-0.987688340595136
100
AcDbArc
50
297.5
51
357.450841
0
ARC
5
EF
100
AcDbEntity
8
1
62
256
6
ByLayer
370
18
48
1
60
1
100
AcDbCircle
39
0
10
116.11247
20
-11.17539
30
-2.643731
40
1.035
210
-0.00818714731723895
220
-0.156220077042716
230
-0.987688340595136
100
AcDbArc
50
237.549159
51
297.5
0
ARC
5
F0
100
AcDbEntity
8
1
62
256
6
ByLayer
370
18
48
1
60
1
100
AcDbCircle
39
0
10
116.11247
20
-11.17539
30
-2.643731
40
1.035
210
-0.00818714731723895
220
-0.156220077042716
230
-0.987688340595136
100
AcDbArc
50
177.450841
51
237.549159
0
ARC
5
F1
100
AcDbEntity
8
1
62
256
6
ByLayer
370
18
48
1
60
1
100
AcDbCircle
39
0
10
116.11247
20
-11.17539
30
-2.643731
40
1.035
210
-0.00818714731723895
220
-0.156220077042716
230
-0.987688340595136
100
AcDbArc
50
117.5
51
177.450841
0
ARC
5
F2
100
AcDbEntity
8
1
62
256
6
ByLayer
370
18
48
1
60
1
100
AcDbCircle
39
0
10
116.11247
20
-11.17539
30
-2.643731
40
1.035
210
-0.00818714731723895
220
-0.156220077042716
230
-0.987688340595136
100
AcDbArc
50
57.549159
51
117.5
0
ARC
5
F3
100
AcDbEntity
8
1
62
256
6
ByLayer
370
18
48
1
60
1
100
AcDbCircle
39
0
10
116.11247
20
-11.17539
30
-1.743731
40
1.725
210
-0.00818714731723895
220
-0.156220077042716
230
-0.987688340595136
100
AcDbArc
50
360
51
117.5
0
ARC
5
F4
100
AcDbEntity
8
1
62
256
6
ByLayer
370
18
48
1
60
1
100
AcDbCircle
39
0
10
116.11247
20
-11.17539
30
-2.469804
40
1.725
210
-0.00818714731723895
220
-0.156220077042716
230
-0.987688340595136
100
AcDbArc
50
360
51
117.5
0
ARC
5
F5
100
AcDbEntity
8
1
62
256
6
ByLayer
370
18
48
1
60
1
100
AcDbCircle
39
0
10
116.11247
20
-11.17539
30
-2.469804
40
1.725
210
-0.00818714731723895
220
-0.156220077042716
230
-0.987688340595136
100
AcDbArc
50
180
51
360
0
ARC
5
F6
100
AcDbEntity
8
1
62
256
6
ByLayer
370
18
48
1
60
1
100
AcDbCircle
39
0
10
116.11247
20
-11.17539
30
-1.743731
40
1.725
210
-0.00818714731723895
220
-0.156220077042716
230
-0.987688340595136
100
AcDbArc
50
117.5
51
180
0
ARC
5
F7
100
AcDbEntity
8
1
62
256
6
ByLayer
370
18
48
1
60
1
100
AcDbCircle
39
0
10
116.11247
20
-11.17539
30
-2.478031
40
0.747999999999999
210
-0.00818714731723895
220
-0.156220077042716
230
-0.987688340595136
100
AcDbArc
50
25.338153
51
29.661847
0
ARC
5
F8
100
AcDbEntity
8
1
62
256
6
ByLayer
370
18
48
1
60
1
100
AcDbCircle
39
0
10
-117.148963
20
-10.635826
30
1.643731
40
0.422
210
0.00818714731723358
220
0.156220077042706
230
0.987688340595138
100
AcDbArc
50
360
51
12.068795
0
ARC
5
F9
100
AcDbEntity
8
1
62
256
6
ByLayer
370
18
48
1
60
1
100
AcDbCircle
39
0
10
-115.263311
20
-11.137585
30
1.643731
40
0.185
210
0.00818714731723358
220
0.156220077042706
230
0.987688340595138
100
AcDbArc
50
287.97624
51
334.973361
0
ARC
5
FA
100
AcDbEntity
8
1
62
256
6
ByLayer
370
18
48
1
60
1
100
AcDbCircle
39
0
10
-116.961629
20
-11.213196
30
1.643731
40
0.185
210
0.00818714731723358
220
0.156220077042706
230
0.987688340595138
100
AcDbArc
50
205.27251
51
256.923063
0
ARC
5
FB
100
AcDbEntity
8
1
62
256
6
ByLayer
370
18
48
1
60
1
100
AcDbCircle
39
0
10
116.11247
20
-11.17539
30
-2.478031
40
0.747999999999999
210
-0.00818714731723895
220
-0.156220077042716
230
-0.987688340595136
100
AcDbArc
50
205.338153
51
209.661847
0
ARC
5
FC
100
AcDbEntity
8
1
62
256
6
ByLayer
370
18
48
1
60
1
100
AcDbCircle
39
0
10
-117.098969
20
-11.804454
30
1.643731
40
0.422
210
0.00818714731723358
220
0.156220077042706
230
0.987688340595138
100
AcDbArc
50
360
51
32.524579
0
ARC
5
FD
100
AcDbEntity
8
1
62
256
6
ByLayer
370
18
48
1
60
1
100
AcDbCircle
39
0
10
-117.098969
20
-11.804454
30
1.643731
40
0.422
210
0.00818714731723358
220
0.156220077042706
230
0.987688340595138
100
AcDbArc
50
32.524579
51
76.923063
0
ARC
5
FE
100
AcDbEntity
8
1
62
256
6
ByLayer
370
18
48
1
60
1
100
AcDbCircle
39
0
10
-115.075978
20
-11.714954
30
1.643731
40
0.422
210
0.00818714731723358
220
0.156220077042706
230
0.987688340595138
100
AcDbArc
50
107.97624
51
148.666149
0
ARC
5
FF
100
AcDbEntity
8
1
62
256
6
ByLayer
370
18
48
1
60
1
100
AcDbCircle
39
0
10
-115.656381
20
-11.892665
30
1.643731
40
0.185
210
0.00818714731723358
220
0.156220077042706
230
0.987688340595138
100
AcDbArc
50
228.076937
51
333.410881
0
ARC
5
100
100
AcDbEntity
8
1
62
256
6
ByLayer
370
18
48
1
60
1
100
AcDbCircle
39
0
10
-116.504957
20
-11.92935
30
1.643731
40
0.185
210
0.00818714731723358
220
0.156220077042706
230
0.987688340595138
100
AcDbArc
50
193.913258
51
316.873905
0
ARC
5
101
100
AcDbEntity
8
1
62
256
6
ByLayer
370
18
48
1
60
1
100
AcDbCircle
39
0
10
-115.075978
20
-11.714954
30
1.643731
40
0.422
210
0.00818714731723358
220
0.156220077042706
230
0.987688340595138
100
AcDbArc
50
156.333851
51
180
0
ARC
5
102
100
AcDbEntity
8
1
62
256
6
ByLayer
370
18
48
1
60
1
100
AcDbCircle
39
0
10
-116.061937
20
-12.344299
30
1.643731
40
0.422
210
0.00818714731723358
220
0.156220077042706
230
0.987688340595138
100
AcDbArc
50
92.475421
51
136.873905
0
ARC
5
103
100
AcDbEntity
8
1
62
256
6
ByLayer
370
18
48
1
60
1
100
AcDbCircle
39
0
10
-116.061937
20
-12.344299
30
1.643731
40
0.422
210
0.00818714731723358
220
0.156220077042706
230
0.987688340595138
100
AcDbArc
50
48.076937
51
92.475421
0
ARC
5
104
100
AcDbEntity
8
1
62
256
6
ByLayer
370
18
48
1
60
1
100
AcDbCircle
39
0
10
116.11247
20
-11.17539
30
-1.643731
40
0.747999999999999
210
-0.00818714731723895
220
-0.156220077042716
230
-0.987688340595136
100
AcDbArc
50
205.338153
51
209.661847
0
ARC
5
105
100
AcDbEntity
8
1
62
256
6
ByLayer
370
18
48
1
60
1
100
AcDbCircle
39
0
10
-116.11247
20
-11.17539
30
1.643731
40
0.747999999999999
210
0.00818714731723358
220
0.156220077042706
230
0.987688340595138
100
AcDbArc
50
41.002866
51
70.720233
0
ARC
5
106
100
AcDbEntity
8
1
62
256
6
ByLayer
370
18
48
1
60
1
100
AcDbCircle
39
0
10
-116.11247
20
-11.17539
30
1.643731
40
0.747999999999999
210
0.00818714731723358
220
0.156220077042706
230
0.987688340595138
100
AcDbArc
50
272.475421
51
330.338153
0
ARC
5
107
100
AcDbEntity
8
1
62
256
6
ByLayer
370
18
48
1
60
1
100
AcDbCircle
39
0
10
-116.11247
20
-11.17539
30
1.643731
40
0.747999999999999
210
0.00818714731723358
220
0.156220077042706
230
0.987688340595138
100
AcDbArc
50
212.524579
51
272.475421
0
ARC
5
108
100
AcDbEntity
8
1
62
256
6
ByLayer
370
18
48
1
60
1
100
AcDbCircle
39
0
10
-116.11247
20
-11.17539
30
1.643731
40
0.747999999999999
210
0.00818714731723358
220
0.156220077042706
230
0.987688340595138
100
AcDbArc
50
170.05467
51
212.524579
0
ARC
5
109
100
AcDbEntity
8
1
62
256
6
ByLayer
370
18
48
1
60
1
100
AcDbCircle
39
0
10
-116.11247
20
-11.17539
30
1.643731
40
0.747999999999999
210
0.00818714731723358
220
0.156220077042706
230
0.987688340595138
100
AcDbArc
50
115.209844
51
145.23668
0
ARC
5
10A
100
AcDbEntity
8
1
62
256
6
ByLayer
370
18
48
1
60
1
100
AcDbCircle
39
0
10
116.11247
20
-11.17539
30
-1.643731
40
0.747999999999999
210
-0.00818714731723895
220
-0.156220077042716
230
-0.987688340595136
100
AcDbArc
50
166.823784
51
205.338153
0
ARC
5
10B
100
AcDbEntity
8
1
62
256
6
ByLayer
370
18
48
1
60
1
100
AcDbCircle
39
0
10
0
20
0
30
112.25
40
6.225
210
1
220
0
230
0
100
AcDbArc
50
0
51
5.262995
0
ARC
5
10C
100
AcDbEntity
8
1
62
256
6
ByLayer
370
18
48
1
60
1
100
AcDbCircle
39
0
10
0
20
0
30
58.55
40
6.225
210
1
220
0
230
0
100
AcDbArc
50
0
51
180
0
ARC
5
10D
100
AcDbEntity
8
1
62
256
6
ByLayer
370
18
48
1
60
1
100
AcDbCircle
39
0
10
111.560173
20
-17.235205
30
-2.451351
40
5
210
-0.00818714731723895
220
-0.156220077042716
230
-0.987688340595136
100
AcDbArc
50
74.010606
51
83.23259
0
ARC
5
10E
100
AcDbEntity
8
1
62
256
6
ByLayer
370
18
48
1
60
1
100
AcDbCircle
39
0
10
113.091492
20
-6.859733
30
-2.451351
40
1.25
210
-0.00818714731723895
220
-0.156220077042716
230
-0.987688340595136
100
AcDbArc
50
130.622835
51
180
0
ARC
5
10F
100
AcDbEntity
8
1
62
256
6
ByLayer
370
18
48
1
60
1
100
AcDbCircle
39
0
10
-113.323509
20
-5.817845
30
2.451351
40
1.05
210
0.00818714731723358
220
0.156220077042706
230
0.987688340595138
100
AcDbArc
50
354.911848
51
0
0
ARC
5
110
100
AcDbEntity
8
1
62
256
6
ByLayer
370
18
48
1
60
1
100
AcDbCircle
39
0
10
126.78747
20
-11.643479
30
-2.451351
40
8.0999999999805
210
-0.00818714731723895
220
-0.156220077042716
230
-0.987688340595136
100
AcDbArc
50
161.918738
51
163.668398
0
ARC
5
111
100
AcDbEntity
8
1
62
256
6
ByLayer
370
18
48
1
60
1
100
AcDbCircle
39
0
10
-113.323509
20
-5.817845
30
2.451351
40
1.05
210
0.00818714731723358
220
0.156220077042706
230
0.987688340595138
100
AcDbArc
50
180
51
195.07682
0
ARC
5
112
100
AcDbEntity
8
1
62
256
6
ByLayer
370
18
48
1
60
1
100
AcDbCircle
39
0
10
-113.323509
20
-5.817845
30
2.451351
40
1.05
210
0.00818714731723358
220
0.156220077042706
230
0.987688340595138
100
AcDbArc
50
0
51
180
0
ARC
5
113
100
AcDbEntity
8
1
62
256
6
ByLayer
370
18
48
1
60
1
100
AcDbCircle
39
0
10
-113.323509
20
-5.817845
30
-0.148649
40
1.05
210
0.00818714731723358
220
0.156220077042706
230
0.987688340595138
100
AcDbArc
50
191.308699
51
213.066435
0
ARC
5
114
100
AcDbEntity
8
1
62
256
6
ByLayer
370
18
48
1
60
1
100
AcDbCircle
39
0
10
-113.323509
20
-5.817845
30
-0.148649
40
1.05
210
0.00818714731723358
220
0.156220077042706
230
0.987688340595138
100
AcDbArc
50
291.571104
51
348.691301
0
ARC
5
115
100
AcDbEntity
8
1
62
256
6
ByLayer
370
18
48
1
60
1
100
AcDbCircle
39
0
10
-113.323509
20
-5.817845
30
0.301351
40
1.05
210
0.00818714731723358
220
0.156220077042706
230
0.987688340595138
100
AcDbArc
50
200.468577
51
209.874135
0
ARC
5
116
100
AcDbEntity
8
1
62
256
6
ByLayer
370
18
48
1
60
1
100
AcDbCircle
39
0
10
-113.323509
20
-5.817845
30
0.301351
40
1.05
210
0.00818714731723358
220
0.156220077042706
230
0.987688340595138
100
AcDbArc
50
291.571104
51
350.667969
0
ARC
5
117
100
AcDbEntity
8
1
62
256
6
ByLayer
370
18
48
1
60
1
100
AcDbCircle
39
0
10
113.091492
20
-6.859733
30
-2.451351
40
1.25
210
-0.00818714731723895
220
-0.156220077042716
230
-0.987688340595136
100
AcDbArc
50
180
51
235
0
ARC
5
118
100
AcDbEntity
8
1
62
256
6
ByLayer
370
18
48
1
60
1
100
AcDbCircle
39
0
10
-113.091492
20
-6.859733
30
0.301351
40
1.25
210
0.00818714731723358
220
0.156220077042706
230
0.987688340595138
100
AcDbArc
50
305
51
352.171341
0
ARC
5
119
100
AcDbEntity
8
1
62
256
6
ByLayer
370
18
48
1
60
1
100
AcDbCircle
39
0
10
-112.25
20
6.625
30
0
40
0.4
210
0
220
0
230
-1
100
AcDbArc
50
192.943975
51
270
0
ARC
5
11A
100
AcDbEntity
8
1
62
256
6
ByLayer
370
18
48
1
60
1
100
AcDbCircle
39
0
10
0
20
0
30
-60.75
40
6
210
1
220
0
230
0
100
AcDbArc
50
0
51
180
0
ARC
5
11B
100
AcDbEntity
8
1
62
256
6
ByLayer
370
18
48
1
60
1
100
AcDbCircle
39
0
10
0
20
0
30
-37
40
6.00000000000001
210
1
220
0
230
0
100
AcDbArc
50
88.032678
51
91.967322
0
ARC
5
11C
100
AcDbEntity
8
1
62
256
6
ByLayer
370
18
48
1
60
1
100
AcDbCircle
39
0
10
0
20
0
30
48
40
6.00000000000001
210
1
220
0
230
0
100
AcDbArc
50
88.032678
51
91.967322
0
ARC
5
11D
100
AcDbEntity
8
1
62
256
6
ByLayer
370
18
48
1
60
1
100
AcDbCircle
39
0
10
0
20
0
30
-61.25
40
5.5
210
1
220
0
230
0
100
AcDbArc
50
0
51
180
0
ARC
5
11E
100
AcDbEntity
8
1
62
256
6
ByLayer
370
18
48
1
60
0
100
AcDbCircle
39
0
10
-112.25
20
6.625
30
0
40
0.4
210
0
220
0
230
-1
100
AcDbArc
50
192.943975
51
270
0
CIRCLE
5
EC
100
AcDbEntity
8
1
62
256
6
ByLayer
370
18
48
1
60
1
100
AcDbCircle
10
116.11247
20
-11.17539
30
-2.643731
40
1.3
39
0
210
-0.00818714731723895
220
-0.156220077042716
230
-0.987688340595136
0
ELLIPSE
5
11F
100
AcDbEntity
8
1
62
256
6
ByLayer
370
18
48
1
60
1
100
AcDbEllipse
10
123.748245
20
0
30
0
11
13.349555580172
21
6.22499999999999
31
1.80379676948782E-15
210
-0.422618261740699
220
0.90630778703665
230
0
40
0.422618
41
3.14159265358979
42
-2.73496506004892
0
ELLIPSE
5
120
100
AcDbEntity
8
1
62
256
6
ByLayer
370
18
48
1
60
1
100
AcDbEllipse
10
299.414548
20
0
30
0
11
760.312612727987
21
-0.972502573260094
31
-6.14856599094475
210
0.00818714731723365
220
0.156220077042706
230
0.987688340595138
40
0.008187
41
1.81952080110697
42
1.82187247390167
0
ELLIPSE
5
121
100
AcDbEntity
8
1
62
256
6
ByLayer
370
18
48
1
60
1
100
AcDbEllipse
10
110.926189
20
0
30
0
11
1.61349879716783
21
-1.0031423542598
31
-6.14364146228359
210
0.968011632854904
220
0.0404327311660357
230
0.247626074774118
40
0.968012
41
1.82685770013712
42
-1.81686604394303
0
ELLIPSE
5
122
100
AcDbEntity
8
1
62
256
6
ByLayer
370
18
48
1
60
1
100
AcDbEllipse
10
299.414548
20
0
30
0
11
760.312612727987
21
-0.972502573260094
31
-6.14856599094475
210
0.00818714731723365
220
0.156220077042706
230
0.987688340595138
40
0.008187
41
-1.82185127017847
42
-1.82055604328043
0
ELLIPSE
5
123
100
AcDbEntity
8
1
62
256
6
ByLayer
370
18
48
1
60
1
100
AcDbEllipse
10
113.462613
20
-0.313207
30
-1.672949
11
0.634422445224824
21
0.598015884124506
31
9.47839603331252
210
0.526306586594461
220
-0.850095615125646
230
0.0184071195855662
40
0.110313
41
-1.31717514541215
42
-1.22307124010229
0
ELLIPSE
5
124
100
AcDbEntity
8
1
62
256
6
ByLayer
370
18
48
1
60
0
100
AcDbEllipse
10
116.552661
20
5.358823
30
0
11
-1.29821839518093
21
0.0680367431160798
31
0
210
0
220
0
230
-1
40
0.987688
41
0
42
6.28318530717959
0
ELLIPSE
5
125
100
AcDbEntity
8
1
62
256
6
ByLayer
370
18
48
1
60
0
100
AcDbEllipse
10
110.926189
20
0
30
0
11
-0.278162723060447
21
6.22459481395499
31
0
210
0
220
0
230
1
40
0.255332
41
0.0827985519262786
42
2.72226011502571
0
ELLIPSE
5
126
100
AcDbEntity
8
1
62
256
6
ByLayer
370
18
48
1
60
0
100
AcDbEllipse
10
113.489006
20
0.190399
30
0
11
-1.04856109849369
21
0.054952923802209
31
0
210
0
220
0
230
1
40
0.987688
41
-0.0888048392638638
42
1.55170242640398E-07
0
ELLIPSE
5
127
100
AcDbEntity
8
1
62
256
6
ByLayer
370
18
48
1
60
0
100
AcDbEllipse
10
113.311164
20
1.230192
30
0
11
-1.24828691844325
21
0.0654199453028493
31
0
210
0
220
0
230
-1
40
0.987688
41
-0.861794109312082
42
-1.79849997104376E-16
0
ELLIPSE
5
128
100
AcDbEntity
8
1
62
256
6
ByLayer
370
18
48
1
60
0
100
AcDbEllipse
10
113.293562
20
0.894318
30
0
11
-1.2482869184436
21
0.0654199451981095
31
0
210
0
220
0
230
1
40
0.987688
41
-0.959931088682334
42
-0.136635874655861
0
ELLIPSE
5
129
100
AcDbEntity
8
1
62
256
6
ByLayer
370
18
48
1
60
0
100
AcDbEllipse
10
113.502787
20
0.246295
30
0
11
-0.396331096605636
21
0.0207708326344024
31
0
210
0
220
0
230
-1
40
0.987688
41
-2.18166156499437
42
-0.887081034022162
0
ELLIPSE
5
12A
100
AcDbEntity
8
1
62
256
6
ByLayer
370
18
48
1
60
0
100
AcDbEllipse
10
113.502787
20
0.246295
30
0
11
-0.396331096610995
21
0.0207708325866254
31
0
210
0
220
0
230
-1
40
0.987688
41
-0.887081033899657
42
1.1801912585494E-10
0
ELLIPSE
5
12B
100
AcDbEntity
8
1
62
256
6
ByLayer
370
18
48
1
60
0
100
AcDbEllipse
10
113.489006
20
0.190399
30
0
11
-1.04856101027073
21
0.0549527593864359
31
0
210
0
220
0
230
1
40
0.987688
41
-3.14159264852207
42
-2.87845249689758
0
ELLIPSE
5
12C
100
AcDbEntity
8
1
62
256
6
ByLayer
370
18
48
1
60
0
100
AcDbEllipse
10
113.462613
20
-0.313208
30
0
11
1.09004659473877
21
0.804423526461593
31
0
210
0
220
0
230
1
40
0.100238
41
-0.439471715777205
42
-0.34536781901744
0
ELLIPSE
5
12D
100
AcDbEntity
8
1
62
256
6
ByLayer
370
18
48
1
60
0
100
AcDbEllipse
10
116.551237
20
5.331652
30
0
11
-1.72263594745169
21
0.0902795245181449
31
0
210
0
220
0
230
-1
40
0.987688
41
0
42
3.14159265358979
0
ELLIPSE
5
12E
100
AcDbEntity
8
1
62
256
6
ByLayer
370
18
48
1
60
0
100
AcDbEllipse
10
116.551237
20
5.331652
30
0
11
-1.72263594745952
21
0.0902795244373478
31
0
210
0
220
0
230
-1
40
0.987688
41
-1.09083078244825
42
0
0
ELLIPSE
5
12F
100
AcDbEntity
8
1
62
256
6
ByLayer
370
18
48
1
60
0
100
AcDbEllipse
10
116.552661
20
5.358823
30
0
11
-1.03358156846937
21
0.0541677147315358
31
0
210
0
220
0
230
-1
40
0.987688
41
-1.090830782516
42
-0.0444912109789252
0
ELLIPSE
5
130
100
AcDbEntity
8
1
62
256
6
ByLayer
370
18
48
1
60
0
100
AcDbEllipse
10
116.552661
20
5.358823
30
0
11
-1.03358156847157
21
0.0541677146425635
31
0
210
0
220
0
230
-1
40
0.987688
41
-0.0444912108942536
42
1.00442229962386
0
ELLIPSE
5
131
100
AcDbEntity
8
1
62
256
6
ByLayer
370
18
48
1
60
0
100
AcDbEllipse
10
115.537292
20
5.789039
30
0
11
-0.421421663668195
21
0.0220857734390704
31
0
210
0
220
0
230
1
40
0.987688
41
1.88454090917077
42
2.59471378675023
0
ELLIPSE
5
132
100
AcDbEntity
8
1
62
256
6
ByLayer
370
18
48
1
60
0
100
AcDbEllipse
10
115.694524
20
5.209756
30
0
11
-0.184746463933588
21
0.00968215169139682
31
0
210
0
220
0
230
1
40
0.987688
41
-1.25705174535627
42
-0.43679725393538
0
ELLIPSE
5
133
100
AcDbEntity
8
1
62
256
6
ByLayer
370
18
48
1
60
0
100
AcDbEllipse
10
116.544473
20
5.202603
30
0
11
-0.746974887304883
21
0.0391439161943526
31
0
210
0
220
0
230
-1
40
0.987688
41
0.442238698260071
42
0.517701412354785
0
ELLIPSE
5
134
100
AcDbEntity
8
1
62
256
6
ByLayer
370
18
48
1
60
0
100
AcDbEllipse
10
116.544474
20
5.202603
30
0
11
-0.746974892023294
21
0.0391472953944569
31
0
210
0
220
0
230
-1
40
0.987688
41
-0.229968350160599
42
0.442234192208732
0
ELLIPSE
5
135
100
AcDbEntity
8
1
62
256
6
ByLayer
370
18
48
1
60
0
100
AcDbEllipse
10
116.544474
20
5.202603
30
0
11
-0.746974891995011
21
0.0391472953380946
31
0
210
0
220
0
230
1
40
0.987688
41
-1.52759208523244
42
-0.517696896125465
0
ELLIPSE
5
136
100
AcDbEntity
8
1
62
256
6
ByLayer
370
18
48
1
60
0
100
AcDbEllipse
10
115.537292
20
5.789039
30
0
11
-0.421421663519899
21
0.0220857712354054
31
0
210
0
220
0
230
1
40
0.987688
41
2.72854042611945
42
3.14159264823548
0
ELLIPSE
5
137
100
AcDbEntity
8
1
62
256
6
ByLayer
370
18
48
1
60
0
100
AcDbEllipse
10
116.552661
20
5.358823
30
0
11
-1.03358156847023
21
0.0541677147151867
31
0
210
0
220
0
230
-1
40
0.987688
41
-2.13717035403716
42
-1.09083078249984
0
ELLIPSE
5
138
100
AcDbEntity
8
1
62
256
6
ByLayer
370
18
48
1
60
0
100
AcDbEllipse
10
116.552661
20
5.358823
30
0
11
-1.03358156847161
21
0.0541677147077676
31
0
210
0
220
0
230
-1
40
0.987688
41
1.00442229956048
42
2.05076187109672
0
ELLIPSE
5
139
100
AcDbEntity
8
1
62
256
6
ByLayer
370
18
48
1
60
0
100
AcDbEllipse
10
116.554432
20
6.358182
30
0
11
-0.421421663668249
21
0.022085773518265
31
0
210
0
220
0
230
1
40
0.987688
41
0.839100840374902
42
1.61400056822558
0
ELLIPSE
5
13A
100
AcDbEntity
8
1
62
256
6
ByLayer
370
18
48
1
60
0
100
AcDbEllipse
10
116.126086
20
5.933945
30
0
11
-0.18474646392957
21
0.00968215190510061
31
0
210
0
220
0
230
1
40
0.987688
41
-2.30249181317653
42
-0.464067666539395
0
ELLIPSE
5
13B
100
AcDbEntity
8
1
62
256
6
ByLayer
370
18
48
1
60
0
100
AcDbEllipse
10
116.975395
20
5.925718
30
0
11
-0.184746463929552
21
0.00968215190529638
31
0
210
0
220
0
230
1
40
0.987688
41
-2.8987604928316
42
-0.752692357470271
0
ELLIPSE
5
13C
100
AcDbEntity
8
1
62
256
6
ByLayer
370
18
48
1
60
0
100
AcDbEllipse
10
116.554432
20
6.358182
30
0
11
-0.421421663669486
21
0.0220857733453259
31
0
210
0
220
0
230
1
40
0.987688
41
1.61400056781129
42
2.38890029567494
0
ELLIPSE
5
13D
100
AcDbEntity
8
1
62
256
6
ByLayer
370
18
48
1
60
0
100
AcDbEllipse
10
116.552661
20
5.358823
30
0
11
-1.03358156847066
21
0.0541677148018818
31
0
210
0
220
0
230
-1
40
0.987688
41
3.09710144254406
42
-2.13717035412166
0
ELLIPSE
5
13E
100
AcDbEntity
8
1
62
256
6
ByLayer
370
18
48
1
60
0
100
AcDbEllipse
10
116.552661
20
5.358823
30
0
11
-1.03358156847106
21
0.0541677147117784
31
0
210
0
220
0
230
-1
40
0.987688
41
2.05076187109305
42
3.09710144262976
0
ELLIPSE
5
13F
100
AcDbEntity
8
1
62
256
6
ByLayer
370
18
48
1
60
0
100
AcDbEllipse
10
116.544474
20
5.202603
30
0
11
-0.746974891990504
21
0.0391472952732505
31
0
210
0
220
0
230
1
40
0.987688
41
2.96801389850955
42
-2.57393165685441
0
ELLIPSE
5
140
100
AcDbEntity
8
1
62
256
6
ByLayer
370
18
48
1
60
0
100
AcDbEllipse
10
117.562137
20
5.771441
30
0
11
-0.421421663649123
21
0.0220857737366514
31
0
210
0
220
0
230
1
40
0.987688
41
0.567660997203236
42
1.34256072506551
0
ELLIPSE
5
141
100
AcDbEntity
8
1
62
256
6
ByLayer
370
18
48
1
60
0
100
AcDbEllipse
10
117.562137
20
5.771441
30
0
11
-0.421421663782549
21
0.0220857726796824
31
0
210
0
220
0
230
1
40
0.987688
41
0
42
0.567660994666716
0
ELLIPSE
5
142
100
AcDbEntity
8
1
62
256
6
ByLayer
370
18
48
1
60
0
100
AcDbEllipse
10
116.544474
20
5.202603
30
0
11
-0.746974891995694
21
0.0391472952776365
31
0
210
0
220
0
230
1
40
0.987688
41
-2.57393165685135
42
-1.5275920853142
0
ELLIPSE
5
143
100
AcDbEntity
8
1
62
256
6
ByLayer
370
18
48
1
60
0
100
AcDbEllipse
10
119.25253
20
3.792866
30
0
11
-0.39633105598653
21
0.0207731827357473
31
0
210
0
220
0
230
-1
40
0.987688
41
-2.25451753309886
42
-2.18166748962929
0
ELLIPSE
5
144
100
AcDbEntity
8
1
62
256
6
ByLayer
370
18
48
1
60
0
100
AcDbEllipse
10
119.25253
20
3.792866
30
0
11
-0.396331096606111
21
0.0207708326466444
31
0
210
0
220
0
230
-1
40
0.987688
41
3.14159265358979
42
-2.2545116196016
0
ELLIPSE
5
145
100
AcDbEntity
8
1
62
256
6
ByLayer
370
18
48
1
60
0
100
AcDbEllipse
10
127.235664
20
5.231778
30
0
11
-8.08891766621292
21
0.4237867633088
31
0
210
0
220
0
230
-1
40
0.987688
41
-0.315560843907731
42
-0.285023530256046
0
ELLIPSE
5
146
100
AcDbEntity
8
1
62
256
6
ByLayer
370
18
48
1
60
0
100
AcDbEllipse
10
113.311164
20
1.230192
30
0
11
-1.24828691844469
21
0.065419945093732
31
0
210
0
220
0
230
-1
40
0.987688
41
1.65442753387594E-10
42
0.959931088766569
0
ELLIPSE
5
147
100
AcDbEntity
8
1
62
256
6
ByLayer
370
18
48
1
60
0
100
AcDbEllipse
10
113.46772
20
-0.215773
30
0
11
-1.04856101149104
21
0.0549527541379695
31
0
210
0
220
0
230
1
40
0.987688
41
-1.19430953340819
42
-0.197374027849817
0
ELLIPSE
5
148
100
AcDbEntity
8
1
62
256
6
ByLayer
370
18
48
1
60
0
100
AcDbEllipse
10
113.471404
20
-0.145474
30
0
11
-1.04856101149337
21
0.0549527539974372
31
0
210
0
220
0
230
1
40
0.987688
41
-1.1943095335435
42
-0.162874671386626
0
ELLIPSE
5
149
100
AcDbEntity
8
1
62
256
6
ByLayer
370
18
48
1
60
0
100
AcDbEllipse
10
113.489006
20
0.190399
30
0
11
-1.0485610114923
21
0.0549527540552538
31
0
210
0
220
0
230
1
40
0.987688
41
0
42
3.14159265358979
0
ELLIPSE
5
14A
100
AcDbEntity
8
1
62
256
6
ByLayer
370
18
48
1
60
0
100
AcDbEllipse
10
112.318269
20
11.544024
30
0
11
-4.99314767361794
21
0.261679770345053
31
0
210
0
220
0
230
-1
40
0.987688
41
-1.84986388811285
42
-1.6889099074601
0
ELLIPSE
5
14B
100
AcDbEntity
8
1
62
256
6
ByLayer
370
18
48
1
60
0
100
AcDbEllipse
10
119.603151
20
10.483105
30
0
11
-0.396331096605566
21
0.0207708326369128
31
0
210
0
220
0
230
1
40
0.987688
41
3.14159265358979
42
-0.959931088589188
0
ELLIPSE
5
14C
100
AcDbEntity
8
1
62
256
6
ByLayer
370
18
48
1
60
0
100
AcDbEllipse
10
113.853408
20
6.936533
30
0
11
-0.396331096604876
21
0.0207708327773327
31
0
210
0
220
0
230
1
40
0.987688
41
-0.959931088231568
42
3.55947785129329E-10
0
ELLIPSE
5
14D
100
AcDbEntity
8
1
62
256
6
ByLayer
370
18
48
1
60
0
100
AcDbEllipse
10
113.46772
20
-0.215773
30
0
11
-1.0485610116941
21
0.0549527523637242
31
0
210
0
220
0
230
1
40
0.987688
41
-2.94421862727199
42
-2.56447448790883
0
ELLIPSE
5
14E
100
AcDbEntity
8
1
62
256
6
ByLayer
370
18
48
1
60
0
100
AcDbEllipse
10
113.471404
20
-0.145474
30
0
11
-1.04856101287627
21
0.0549527423962692
31
0
210
0
220
0
230
1
40
0.987688
41
-2.78434860792334
42
-2.62019064269044
0
ELLIPSE
5
14F
100
AcDbEntity
8
1
62
256
6
ByLayer
370
18
48
1
60
0
100
AcDbEllipse
10
116.547811
20
5.266281
30
0
11
-1.87243037766483
21
0.0981299179555239
31
0
210
0
220
0
230
-1
40
0.987688
41
-0.433552195097726
42
-2.70803933666814
0
ELLIPSE
5
150
100
AcDbEntity
8
1
62
256
6
ByLayer
370
18
48
1
60
0
100
AcDbEllipse
10
116.552969
20
5.3647
30
0
11
-1.91642389494389
21
0.10043551933327
31
0
210
0
220
0
230
-1
40
0.987688
41
-0.610865237597599
42
-0.457270314235112
0
ELLIPSE
5
151
100
AcDbEntity
8
1
62
256
6
ByLayer
370
18
48
1
60
0
100
AcDbEllipse
10
116.552969
20
5.3647
30
0
11
-1.91642389486196
21
0.100435520495025
31
0
210
0
220
0
230
-1
40
0.987688
41
-0.457270314834171
42
-2.684322338756
0
ELLIPSE
5
152
100
AcDbEntity
8
1
62
256
6
ByLayer
370
18
48
1
60
0
100
AcDbEllipse
10
116.552969
20
5.3647
30
0
11
-1.916423894862
21
0.100435520493967
31
0
210
0
220
0
230
-1
40
0.987688
41
-2.68432233875546
42
-0.610865238197639
0
ELLIPSE
5
153
100
AcDbEntity
8
1
62
256
6
ByLayer
370
18
48
1
60
0
100
AcDbEllipse
10
116.551237
20
5.331652
30
0
11
-1.72263594745162
21
0.0902795245196562
31
0
210
0
220
0
230
1
40
0.987688
41
1.09083078249681
42
3.14159265358979
0
ELLIPSE
5
154
100
AcDbEntity
8
1
62
256
6
ByLayer
370
18
48
1
60
0
100
AcDbEllipse
10
116.545292
20
5.218225
30
0
11
-1.72263594745152
21
0.0902795245231828
31
0
210
0
220
0
230
-1
40
0.987688
41
3.14159265358979
42
-1.09083078249889
0
ELLIPSE
5
155
100
AcDbEntity
8
1
62
256
6
ByLayer
370
18
48
1
60
0
100
AcDbEllipse
10
116.545292
20
5.218225
30
0
11
-1.72263594745544
21
0.0902795244808773
31
0
210
0
220
0
230
-1
40
0.987688
41
-1.09083078247386
42
0
0
ELLIPSE
5
156
100
AcDbEntity
8
1
62
256
6
ByLayer
370
18
48
1
60
0
100
AcDbEllipse
10
116.546613
20
5.243417
30
0
11
-1.82225885770709
21
0.0955005623189775
31
0
210
0
220
0
230
-1
40
0.987688
41
-0.85257338404527
42
-0.610865250375059
0
ELLIPSE
5
157
100
AcDbEntity
8
1
62
256
6
ByLayer
370
18
48
1
60
0
100
AcDbEllipse
10
116.546613
20
5.243417
30
0
11
-1.82225885974135
21
0.0955005401179525
31
0
210
0
220
0
230
-1
40
0.987688
41
-0.610865238198049
42
-2.28901890238219
0
ELLIPSE
5
158
100
AcDbEntity
8
1
62
256
6
ByLayer
370
18
48
1
60
0
100
AcDbEllipse
10
116.551304
20
5.332937
30
0
11
-0.746974898273965
21
0.0391498045964467
31
0
210
0
220
0
230
-1
40
0.987688
41
0.44223084541646
42
0.517693541510899
0
ELLIPSE
5
159
100
AcDbEntity
8
1
62
256
6
ByLayer
370
18
48
1
60
0
100
AcDbEllipse
10
116.544474
20
5.202603
30
0
11
-0.746974891981461
21
0.0391472954411595
31
0
210
0
220
0
230
1
40
0.987688
41
0.71563501042063
42
1.2343009152314
0
ELLIPSE
5
15A
100
AcDbEntity
8
1
62
256
6
ByLayer
370
18
48
1
60
0
100
AcDbEllipse
10
116.544474
20
5.202603
30
0
11
-0.74697489200125
21
0.0391472950032334
31
0
210
0
220
0
230
1
40
0.987688
41
2.01079111334651
42
2.53485825413293
0
ELLIPSE
5
15B
100
AcDbEntity
8
1
62
256
6
ByLayer
370
18
48
1
60
0
100
AcDbEllipse
10
117.394423
20
5.195449
30
0
11
-0.184746463932029
21
0.00968215187585443
31
0
210
0
220
0
230
1
40
0.987688
41
-2.70050415181464
42
-1.79903192916849
0
ELLIPSE
5
15C
100
AcDbEntity
8
1
62
256
6
ByLayer
370
18
48
1
60
0
100
AcDbEllipse
10
116.551304
20
5.332937
30
0
11
-0.746974888285124
21
0.0391451042148987
31
0
210
0
220
0
230
-1
40
0.987688
41
-2.69935553930949
42
-2.62389282879305
0
ELLIPSE
5
15D
100
AcDbEntity
8
1
62
256
6
ByLayer
370
18
48
1
60
0
100
AcDbEllipse
10
117.551655
20
4.616166
30
0
11
-0.421421660032863
21
0.0220857857456553
31
0
210
0
220
0
230
1
40
0.987688
41
2.89842357795527E-08
42
0.210640244020817
0
POINT
5
70
100
AcDbEntity
8
80
62
256
6
ByLayer
370
18
48
1
60
0
100
AcDbPoint
10
0
20
0
30
0
39
0
210
0
220
0
230
1
50
360
0
POINT
5
72
100
AcDbEntity
8
81
62
256
6
ByLayer
370
18
48
1
60
0
100
AcDbPoint
10
120
20
11
30
0
39
0
210
0
220
0
230
1
50
360
0
SPLINE
5
15E
100
AcDbEntity
8
1
62
256
6
ByLayer
370
18
48
1
60
1
100
AcDbSpline
70
4
71
3
72
15
73
11
40
0
40
0
40
0
40
0
40
0.0761075190763785
40
0.20945436886123
40
0.342801218645998
40
0.476148068430785
40
0.609494918215593
40
0.74284176800053
40
0.8761886177853
40
1
40
1
40
1
40
1
41
1
10
113.385688546927
20
-0.177539709768158
30
-0.232719743380236
41
1
10
113.389218473626
20
-0.180697205090759
30
-0.232249590890243
41
1
10
113.399279442205
20
-0.188881946280103
30
-0.231038429212871
41
1
10
113.41749887058
20
-0.200129899808819
30
-0.229410394379979
41
1
10
113.440626813192
20
-0.209580337331276
30
-0.22810735560525
41
1
10
113.465022878266
20
-0.215127806449507
30
-0.227432150842402
41
1
10
113.490007766361
20
-0.216608618799609
30
-0.227405039386729
41
1
10
113.514878349154
20
-0.213991324358637
30
-0.22802516728883
41
1
10
113.538435894691
20
-0.207480212364054
30
-0.229250285923677
41
1
10
113.55293308063
20
-0.200855230301139
30
-0.230418312363328
41
1
10
113.559721588739
20
-0.197109944130436
30
-0.231066965964399
0
SPLINE
5
15F
100
AcDbEntity
8
1
62
256
6
ByLayer
370
18
48
1
60
0
100
AcDbSpline
70
4
71
2
72
6
73
3
40
0
40
0
40
0
40
1
40
1
40
1
41
1
10
113.559721588739
20
-0.197109944130436
30
-0.231066965964399
41
1
10
113.562850448872
20
-0.195379886729791
30
-0.231366539433648
41
1
10
113.565892672722
20
-0.193503406554815
30
-0.231688555528588
0
SPLINE
5
160
100
AcDbEntity
8
1
62
256
6
ByLayer
370
18
48
1
60
1
100
AcDbSpline
70
4
71
3
72
11
73
7
40
0
40
0
40
0
40
0
40
0.284741728902633
40
0.571429304116622
40
0.83150141936195
40
1
40
1
40
1
40
1
41
1
10
116.839941427486
20
4.48756635223718
30
0.929587175888669
41
1
10
116.855664747089
20
4.4738076305978
30
0.943070863272246
41
1
10
116.890982380927
20
4.45281984547718
30
0.966451224244283
41
1
10
116.956520156869
20
4.43909846578454
30
0.991627864101822
41
1
10
117.016764148687
20
4.447356061923
30
1.00132633081576
41
1
10
117.04947017126
20
4.46137245163715
30
1.00075837366547
41
1
10
117.062108833744
20
4.46830561257034
30
0.999593525158255
0
SPLINE
5
161
100
AcDbEntity
8
1
62
256
6
ByLayer
370
18
48
1
60
1
100
AcDbSpline
70
4
71
3
72
12
73
8
40
0
40
0
40
0
40
0
40
0.0673878972017452
40
0.291724902681225
40
0.519221564719004
40
0.761288514760378
40
1
40
1
40
1
40
1
41
1
10
116.027950096812
20
4.47832372075481
30
1.00658133701407
41
1
10
116.032847466507
20
4.47547827209395
30
1.00698899195503
41
1
10
116.054357908019
20
4.46412123958425
30
1.00807998120405
41
1
10
116.096694624959
20
4.45095345222336
30
1.00466384868967
41
1
10
116.153724592491
20
4.44964861777291
30
0.989801238423622
41
1
10
116.207187297785
20
4.46423672916969
30
0.965459263479684
41
1
10
116.236406805755
20
4.48215913278076
30
0.944943831217232
41
1
10
116.249482706864
20
4.49328624719201
30
0.933576906189114
0
SPLINE
5
162
100
AcDbEntity
8
1
62
256
6
ByLayer
370
18
48
1
60
1
100
AcDbSpline
70
4
71
3
72
13
73
9
40
0
40
0
40
0
40
0
40
0.213201965679379
40
0.388803762939739
40
0.565403937511321
40
0.72067484308554
40
0.926680516908977
40
1
40
1
40
1
40
1
41
1
10
116.839941427486
20
4.48756635223718
30
0.929587175888669
41
1
10
116.808357581308
20
4.5153991436389
30
0.901049416055438
41
1
10
116.742726230211
20
4.5561744599962
30
0.858909833263305
41
1
10
116.622556492008
20
4.59242652116488
30
0.816959814951919
41
1
10
116.503538150176
20
4.59727256407382
30
0.813140435811441
41
1
10
116.384617044746
20
4.57417276852746
30
0.843820466373242
41
1
10
116.303154276719
20
4.53470673619771
30
0.890110747977334
41
1
10
116.260178697309
20
4.50235693806816
30
0.924157312333606
41
1
10
116.249482706864
20
4.49328624719201
30
0.933576906189114
0
SPLINE
5
163
100
AcDbEntity
8
1
62
256
6
ByLayer
370
18
48
1
60
1
100
AcDbSpline
70
4
71
3
72
11
73
7
40
0
40
0
40
0
40
0
40
0.140470586331351
40
0.484983032735338
40
0.797511606841051
40
1
40
1
40
1
40
1
41
1
10
115.936601095789
20
4.63791835405257
30
0.932126191575026
41
1
10
115.93612902895
20
4.62969559416064
30
0.937598894619783
41
1
10
115.936873035558
20
4.60139598952476
30
0.955654386163206
41
1
10
115.95115166988
20
4.55290928540748
30
0.981946717781971
41
1
10
115.987086973698
20
4.50645687013258
30
1.00051596215507
41
1
10
116.015536028074
20
4.48566287572248
30
1.00548690659011
41
1
10
116.027950096812
20
4.47832372075481
30
1.00658133701407
0
SPLINE
5
164
100
AcDbEntity
8
1
62
256
6
ByLayer
370
18
48
1
60
1
100
AcDbSpline
70
4
71
1
72
4
73
2
40
0
40
0
40
1
40
1
41
1
10
115.942356857345
20
4.67211185875305
30
0.907838355681448
41
1
10
115.936601095789
20
4.63791835405257
30
0.932126191575026
0
SPLINE
5
165
100
AcDbEntity
8
1
62
256
6
ByLayer
370
18
48
1
60
1
100
AcDbSpline
70
4
71
2
72
6
73
3
40
0
40
0
40
0
40
1
40
1
40
1
41
1
10
117.155449603696
20
4.61121639198437
30
0.933553959958147
41
1
10
117.156791862245
20
4.63683234332785
30
0.917343996208102
41
1
10
117.149940236673
20
4.66097660644142
30
0.899254221307743
0
SPLINE
5
166
100
AcDbEntity
8
1
62
256
6
ByLayer
370
18
48
1
60
1
100
AcDbSpline
70
4
71
3
72
11
73
7
40
0
40
0
40
0
40
0
40
0.0885337572372658
40
0.383252406994782
40
0.682122226415867
40
1
40
1
40
1
40
1
41
1
10
117.062108833744
20
4.46830561257034
30
0.999593525158256
41
1
10
117.067049190962
20
4.47106482943166
30
0.999114348249278
41
1
10
117.08767465923
20
4.48372651141942
30
0.996411110163183
41
1
10
117.119661614149
20
4.51286512377842
30
0.986423994068537
41
1
10
117.147208119325
20
4.56034307890442
30
0.963938768536156
41
1
10
117.154587423526
20
4.59345383957568
30
0.944727780015156
41
1
10
117.155449603696
20
4.61121639198437
30
0.933553959958147
0
SPLINE
5
167
100
AcDbEntity
8
1
62
256
6
ByLayer
370
18
48
1
60
1
100
AcDbSpline
70
4
71
3
72
11
73
7
40
0
40
0
40
0
40
0
40
0.283958795909502
40
0.570187249862859
40
0.829802830224198
40
1
40
1
40
1
40
1
41
1
10
117.449971821842
20
5.16444926676209
30
0.817134247589192
41
1
10
117.471476422478
20
5.17176945520039
30
0.827250932618784
41
1
10
117.510377136858
20
5.19283360100149
30
0.844001864804764
41
1
10
117.558486555056
20
5.24362129443328
30
0.859221052120694
41
1
10
117.583077225303
20
5.30029129968568
30
0.861688167647125
41
1
10
117.5873866101
20
5.33563102335383
30
0.858018696272585
41
1
10
117.587599057397
20
5.35011264207456
30
0.855764523516741
0
SPLINE
5
168
100
AcDbEntity
8
1
62
256
6
ByLayer
370
18
48
1
60
1
100
AcDbSpline
70
4
71
2
72
6
73
3
40
0
40
0
40
0
40
1
40
1
40
1
41
1
10
117.181261681875
20
4.93380764442658
30
0.757213613784378
41
1
10
117.140945547185
20
4.85272987650383
30
0.77788115171224
41
1
10
117.137356508293
20
4.77415674924295
30
0.823907478158876
0
SPLINE
5
169
100
AcDbEntity
8
1
62
256
6
ByLayer
370
18
48
1
60
1
100
AcDbSpline
70
4
71
3
72
10
73
6
40
0
40
0
40
0
40
0
40
0.463356466661076
40
0.844849939507171
40
1
40
1
40
1
40
1
41
1
10
117.449971821842
20
5.16444926676209
30
0.817134247589192
41
1
10
117.406345070394
20
5.14972378471525
30
0.795362549581541
41
1
10
117.3328171978
20
5.11169295383483
30
0.765689859902492
41
1
10
117.253356697148
20
5.04023433265081
30
0.746996076612998
41
1
10
117.219231490206
20
4.99540626406337
30
0.748268447297086
41
1
10
117.20987119371
20
4.98181628000258
30
0.749383063682108
0
SPLINE
5
16A
100
AcDbEntity
8
1
62
256
6
ByLayer
370
18
48
1
60
1
100
AcDbSpline
70
4
71
3
72
12
73
8
40
0
40
0
40
0
40
0
40
0.0653589438502444
40
0.289730938852754
40
0.517150356856015
40
0.759049137700693
40
1
40
1
40
1
40
1
41
1
10
115.517722462345
20
5.36753255092389
30
0.870166885603035
41
1
10
115.517687745947
20
5.36209398380474
30
0.871025731201916
41
1
10
115.518561062178
20
5.33814847200899
30
0.874298198815515
41
1
10
115.528787885702
20
5.29508718327663
30
0.875952734682088
41
1
10
115.558047245709
20
5.24438024736032
30
0.869202332527356
41
1
10
115.60052712989
20
5.20390860898682
30
0.85365069410154
41
1
10
115.633306767932
20
5.18629338957415
30
0.83866462119309
41
1
10
115.65103953292
20
5.17981061860285
30
0.829951760927444
0
SPLINE
5
16B
100
AcDbEntity
8
1
62
256
6
ByLayer
370
18
48
1
60
1
100
AcDbSpline
70
4
71
1
72
4
73
2
40
0
40
0
40
1
40
1
41
1
10
115.942356857345
20
4.67211185875305
30
0.907838355681447
41
1
10
115.955490385486
20
4.75019195852636
30
0.853518926592244
0
SPLINE
5
16C
100
AcDbEntity
8
1
62
256
6
ByLayer
370
18
48
1
60
1
100
AcDbSpline
70
4
71
3
72
13
73
9
40
0
40
0
40
0
40
0
40
0.0858715385502327
40
0.289891539276093
40
0.495071496647832
40
0.675470194998927
40
0.914813818726447
40
1
40
1
40
1
40
1
41
1
10
115.955490385486
20
4.75019195852636
30
0.853518926592244
41
1
10
115.956326815967
20
4.76453895060432
30
0.844322219857389
41
1
10
115.955955693773
20
4.81342693189366
30
0.815334329334974
41
1
10
115.937937366591
20
4.90212867018507
30
0.773736498118446
41
1
10
115.88304436401
20
5.00597791826309
30
0.753619950943412
41
1
10
115.799687524218
20
5.09830288574533
30
0.765775694703259
41
1
10
115.719058411656
20
5.15154811588883
30
0.797387291916525
41
1
10
115.665392453242
20
5.17453316939184
30
0.822771140003862
41
1
10
115.65103953292
20
5.17981061860276
30
0.829951760927687
0
SPLINE
5
16D
100
AcDbEntity
8
1
62
256
6
ByLayer
370
18
48
1
60
1
100
AcDbSpline
70
4
71
2
72
6
73
3
40
0
40
0
40
0
40
1
40
1
40
1
41
1
10
117.137356508293
20
4.77415674924295
30
0.823907478158876
41
1
10
117.134606143725
20
4.71465147721744
30
0.858564813376192
41
1
10
117.149940236673
20
4.66097660644142
30
0.899254221307743
0
SPLINE
5
16E
100
AcDbEntity
8
1
62
256
6
ByLayer
370
18
48
1
60
1
100
AcDbSpline
70
4
71
3
72
11
73
7
40
0
40
0
40
0
40
0
40
0.283958795909516
40
0.570187249862877
40
0.829802830224183
40
1
40
1
40
1
40
1
41
1
10
115.654231566183
20
5.5318607021199
30
0.773906995665092
41
1
10
115.632912187534
20
5.52807475971449
30
0.786135284889503
41
1
10
115.594341477884
20
5.51330747928077
30
0.809195756099304
41
1
10
115.546614559117
20
5.46981830978217
30
0.840120874488645
41
1
10
115.522212046893
20
5.41673857348258
30
0.860352933430863
41
1
10
115.517934293333
20
5.3820024097781
30
0.867838362077026
41
1
10
115.517722462345
20
5.36753255092389
30
0.870166885603035
0
SPLINE
5
16F
100
AcDbEntity
8
1
62
256
6
ByLayer
370
18
48
1
60
1
100
AcDbSpline
70
4
71
3
72
12
73
8
40
0
40
0
40
0
40
0
40
0.0653589438502489
40
0.289730938852736
40
0.517150356856047
40
0.759049137700694
40
1
40
1
40
1
40
1
41
1
10
117.587599057397
20
5.35011264207456
30
0.855764523516741
41
1
10
117.587633747174
20
5.3555507012228
30
0.854902466314424
41
1
10
117.586752220189
20
5.37933954252091
30
0.850639462613764
41
1
10
117.576443375474
20
5.4208357736713
30
0.839089981389651
41
1
10
117.546949057696
20
5.46705944825039
30
0.817495339588338
41
1
10
117.504119830143
20
5.50086521800803
30
0.790902582514762
41
1
10
117.471057161621
20
5.51307989414429
30
0.771744173305581
41
1
10
117.453169280505
20
5.51660287307017
30
0.76174399649446
0
SPLINE
5
170
100
AcDbEntity
8
1
62
256
6
ByLayer
370
18
48
1
60
1
100
AcDbSpline
70
4
71
3
72
11
73
7
40
0
40
0
40
0
40
0
40
0.0885337572372918
40
0.383252406994818
40
0.682122226415854
40
1
40
1
40
1
40
1
41
1
10
116.043212685998
20
6.24933958042811
30
0.726337883961521
41
1
10
116.038272299553
20
6.2465798058789
30
0.726813534935552
41
1
10
116.017638266152
20
6.23375469142786
30
0.728483484973798
41
1
10
115.985568617116
20
6.2030381813229
30
0.728494474850514
41
1
10
115.95778360629
20
6.15100926728197
30
0.72220664416708
41
1
10
115.950179294911
20
6.11360511387644
30
0.714273017056593
41
1
10
115.949181955979
20
6.09326357867779
30
0.709141434629815
0
SPLINE
5
171
100
AcDbEntity
8
1
62
256
6
ByLayer
370
18
48
1
60
1
100
AcDbSpline
70
4
71
2
72
6
73
3
40
0
40
0
40
0
40
1
40
1
40
1
41
1
10
115.921346624987
20
5.73206636274368
30
0.641398813106834
41
1
10
115.961784208425
20
5.81546151083714
30
0.635382717024188
41
1
10
115.965916146586
20
5.90439377324691
30
0.654851154125133
0
SPLINE
5
172
100
AcDbEntity
8
1
62
256
6
ByLayer
370
18
48
1
60
1
100
AcDbSpline
70
4
71
3
72
10
73
6
40
0
40
0
40
0
40
0
40
0.463356466661069
40
0.844849939507189
40
1
40
1
40
1
40
1
41
1
10
115.654231566183
20
5.5318607021199
30
0.773906995665092
41
1
10
115.697462694257
20
5.53903724047552
30
0.747951130040876
41
1
10
115.77040353967
20
5.56586692546226
30
0.706805513840634
41
1
10
115.849368268304
20
5.62786565302589
30
0.665689912773226
41
1
10
115.883394808221
20
5.67081104262369
30
0.65251446200904
41
1
10
115.892737113152
20
5.68405772716768
30
0.649229363209104
0
SPLINE
5
173
100
AcDbEntity
8
1
62
256
6
ByLayer
370
18
48
1
60
1
100
AcDbSpline
70
4
71
1
72
4
73
2
40
0
40
0
40
1
40
1
41
1
10
117.16185195608
20
6.02430163292
30
0.683857401740639
41
1
10
117.148041425171
20
5.93330355080133
30
0.656503970413575
0
SPLINE
5
174
100
AcDbEntity
8
1
62
256
6
ByLayer
370
18
48
1
60
1
100
AcDbSpline
70
4
71
1
72
4
73
2
40
0
40
0
40
1
40
1
41
1
10
117.16185195608
20
6.02430163292001
30
0.683857401740639
41
1
10
117.167912279142
20
6.06430651733907
30
0.696311526928332
0
SPLINE
5
175
100
AcDbEntity
8
1
62
256
6
ByLayer
370
18
48
1
60
1
100
AcDbSpline
70
4
71
3
72
12
73
8
40
0
40
0
40
0
40
0
40
0.0673878972017463
40
0.291724902681218
40
0.519221564718957
40
0.761288514760328
40
1
40
1
40
1
40
1
41
1
10
117.07737142293
20
6.23932147224364
30
0.719350072105704
41
1
10
117.072474024012
20
6.24216636329578
30
0.718938891730346
41
1
10
117.050955059188
20
6.25336076133858
30
0.716819659698646
41
1
10
117.008535086655
20
6.26493993734037
30
0.710191930074253
41
1
10
116.951269058196
20
6.26174046098049
30
0.696576412855045
41
1
10
116.897457160886
20
6.2404893689886
30
0.678792251568744
41
1
10
116.867955625511
20
6.21718556191389
30
0.665284211575234
41
1
10
116.854726106561
20
6.20312724448102
30
0.658118851232788
0
SPLINE
5
176
100
AcDbEntity
8
1
62
256
6
ByLayer
370
18
48
1
60
1
100
AcDbSpline
70
4
71
3
72
13
73
9
40
0
40
0
40
0
40
0
40
0.213201965679376
40
0.3888037629397
40
0.565403937511294
40
0.720674843085517
40
0.926680516908959
40
1
40
1
40
1
40
1
41
1
10
116.264267385939
20
6.20884713943587
30
0.66210858153342
41
1
10
116.295456661502
20
6.17348549218887
30
0.643045781456696
41
1
10
116.360502006312
20
6.12152850977118
30
0.614490217982424
41
1
10
116.480069922191
20
6.07379299458004
30
0.583837060937379
41
1
10
116.599022935046
20
6.06770040051914
30
0.579775224922517
41
1
10
116.718365187858
20
6.09883616683471
30
0.599901945863921
41
1
10
116.800464720062
20
6.15045238347727
30
0.630430185982516
41
1
10
116.843902412512
20
6.19161982367389
30
0.65213242437983
41
1
10
116.854726106561
20
6.20312724448102
30
0.658118851232788
0
SPLINE
5
177
100
AcDbEntity
8
1
62
256
6
ByLayer
370
18
48
1
60
1
100
AcDbSpline
70
4
71
3
72
11
73
7
40
0
40
0
40
0
40
0
40
0.284741728902612
40
0.571429304116662
40
0.83150141936194
40
1
40
1
40
1
40
1
41
1
10
116.264267385939
20
6.20884713943587
30
0.66210858153342
41
1
10
116.248729047093
20
6.22613550418104
30
0.670940766783158
41
1
10
116.213740584836
20
6.25340425722042
30
0.687271298920585
41
1
10
116.148583669846
20
6.27439289681474
30
0.708041300550214
41
1
10
116.088525727532
20
6.2696853367008
30
0.72078763898864
41
1
10
116.055850757923
20
6.25626147282045
30
0.725101791049485
41
1
10
116.043212685998
20
6.24933958042811
30
0.726337883961521
0
SPLINE
5
178
100
AcDbEntity
8
1
62
256
6
ByLayer
370
18
48
1
60
1
100
AcDbSpline
70
4
71
3
72
13
73
9
40
0
40
0
40
0
40
0
40
0.0858715385502284
40
0.289891539276086
40
0.495071496647832
40
0.675470194998929
40
0.914813818726436
40
1
40
1
40
1
40
1
41
1
10
117.148041425171
20
5.93330355080133
30
0.656503970413575
41
1
10
117.147093070757
20
5.91682092284497
30
0.652198298345489
41
1
10
117.147120385886
20
5.86137271196442
30
0.639709687245816
41
1
10
117.164690446789
20
5.76411754352914
30
0.627229173443518
41
1
10
117.219516397311
20
5.65898886593609
30
0.639256634769052
41
1
10
117.303294820257
20
5.57470818424378
30
0.677960213533705
41
1
10
117.384560569611
20
5.53361070775311
30
0.723151770399346
41
1
10
117.438688654609
20
5.51944355477415
30
0.753518359138064
41
1
10
117.453169280505
20
5.51660287307033
30
0.761743996494659
0
SPLINE
5
179
100
AcDbEntity
8
1
62
256
6
ByLayer
370
18
48
1
60
1
100
AcDbSpline
70
4
71
2
72
6
73
3
40
0
40
0
40
0
40
1
40
1
40
1
41
1
10
115.949181955979
20
6.09326357867779
30
0.709141434629815
41
1
10
115.94764324395
20
6.06389907127387
30
0.701651466932028
41
1
10
115.954263151352
20
6.03533336244034
30
0.69178702194646
0
SPLINE
5
17A
100
AcDbEntity
8
1
62
256
6
ByLayer
370
18
48
1
60
1
100
AcDbSpline
70
4
71
3
72
11
73
7
40
0
40
0
40
0
40
0
40
0.140470586331344
40
0.484983032735342
40
0.797511606841042
40
1
40
1
40
1
40
1
41
1
10
117.167912279142
20
6.06430651733907
30
0.696311526928332
41
1
10
117.168451757313
20
6.07381556207769
30
0.69897125199278
41
1
10
117.167927466285
20
6.1063075897306
30
0.707422003508186
41
1
10
117.153951935451
20
6.16057785292437
30
0.717695739293345
41
1
10
117.118202938913
20
6.21058522286235
30
0.721602397752555
41
1
10
117.08978490107
20
6.23197104798939
30
0.720373253410049
41
1
10
117.07737142293
20
6.23932147224364
30
0.719350072105703
0
SPLINE
5
17B
100
AcDbEntity
8
1
62
256
6
ByLayer
370
18
48
1
60
1
100
AcDbSpline
70
4
71
2
72
6
73
3
40
0
40
0
40
0
40
1
40
1
40
1
41
1
10
115.965916146586
20
5.90439377324691
30
0.654851154125133
41
1
10
115.969074431021
20
5.97168262003244
30
0.669404817797235
41
1
10
115.954263151352
20
6.03533336244034
30
0.69178702194646
0
SPLINE
5
17C
100
AcDbEntity
8
1
62
256
6
ByLayer
370
18
48
1
60
1
100
AcDbSpline
70
4
71
3
72
12
73
8
40
0
40
0
40
0
40
0
40
0.217342225988947
40
0.44016770567158
40
0.660679286456706
40
0.875218207854414
40
1
40
1
40
1
40
1
41
1
10
112.65
20
6.60585467152603
30
0.503298180682037
41
1
10
112.649632951852
20
6.55858743491358
30
0.510777358190598
41
1
10
112.634722539005
20
6.46855014445116
30
0.525141915932313
41
1
10
112.566452241234
20
6.34382457841504
30
0.545435338155491
41
1
10
112.460877251813
20
6.25060022526465
30
0.56105552216365
41
1
10
112.347971125943
20
6.20600641337309
30
0.569044710139775
41
1
10
112.276917493852
20
6.19887163285993
30
0.570762177528104
41
1
10
112.25
20
6.19875632341125
30
0.571003540242167
0
SPLINE
5
17D
100
AcDbEntity
8
1
62
256
6
ByLayer
370
18
48
1
60
1
100
AcDbSpline
70
4
71
1
72
4
73
2
40
0
40
0
40
1
40
1
41
1
10
112.65
20
6.609099361706
30
0.458727181555054
41
1
10
112.639999350698
20
6.53611520617058
30
-9.3405991503E-05
0
SPLINE
5
17E
100
AcDbEntity
8
1
62
256
6
ByLayer
370
18
48
1
60
0
100
AcDbSpline
70
4
71
3
72
12
73
8
40
0
40
0
40
0
40
0
40
0.217342225988947
40
0.44016770567158
40
0.660679286456706
40
0.875218207854414
40
1
40
1
40
1
40
1
41
1
10
112.65
20
6.60585467152603
30
0
41
1
10
112.649632951852
20
6.55858743491358
30
0
41
1
10
112.634722539005
20
6.46855014445116
30
0
41
1
10
112.566452241234
20
6.34382457841504
30
0
41
1
10
112.460877251813
20
6.25060022526465
30
0
41
1
10
112.347971125943
20
6.20600641337309
30
0
41
1
10
112.276917493852
20
6.19887163285993
30
0
41
1
10
112.25
20
6.19875632341125
30
0
0
SPLINE
5
17F
100
AcDbEntity
8
1
62
256
6
ByLayer
370
18
48
1
60
0
100
AcDbSpline
70
4
71
3
72
15
73
11
40
0
40
0
40
0
40
0
40
0.0761075190763785
40
0.20945436886123
40
0.342801218645998
40
0.476148068430785
40
0.609494918215593
40
0.74284176800053
40
0.8761886177853
40
1
40
1
40
1
40
1
41
1
10
113.385688546927
20
-0.177539709768158
30
0
41
1
10
113.389218473626
20
-0.180697205090759
30
0
41
1
10
113.399279442205
20
-0.188881946280103
30
0
41
1
10
113.41749887058
20
-0.200129899808819
30
0
41
1
10
113.440626813192
20
-0.209580337331276
30
0
41
1
10
113.465022878266
20
-0.215127806449507
30
0
41
1
10
113.490007766361
20
-0.216608618799609
30
0
41
1
10
113.514878349154
20
-0.213991324358637
30
0
41
1
10
113.538435894691
20
-0.207480212364054
30
0
41
1
10
113.55293308063
20
-0.200855230301139
30
0
41
1
10
113.559721588739
20
-0.197109944130436
30
0
0
SPLINE
5
180
100
AcDbEntity
8
1
62
256
6
ByLayer
370
18
48
1
60
0
100
AcDbSpline
70
4
71
3
72
12
73
8
40
0
40
0
40
0
40
0
40
0.0653589438502444
40
0.289730938852754
40
0.517150356856015
40
0.759049137700693
40
1
40
1
40
1
40
1
41
1
10
115.517722462345
20
5.36753255092389
30
0
41
1
10
115.517687745947
20
5.36209398380474
30
0
41
1
10
115.518561062178
20
5.33814847200899
30
0
41
1
10
115.528787885702
20
5.29508718327663
30
0
41
1
10
115.558047245709
20
5.24438024736032
30
0
41
1
10
115.60052712989
20
5.20390860898682
30
0
41
1
10
115.633306767932
20
5.18629338957415
30
0
41
1
10
115.65103953292
20
5.17981061860285
30
0
0
SPLINE
5
181
100
AcDbEntity
8
1
62
256
6
ByLayer
370
18
48
1
60
0
100
AcDbSpline
70
4
71
3
72
11
73
7
40
0
40
0
40
0
40
0
40
0.283958795909516
40
0.570187249862877
40
0.829802830224183
40
1
40
1
40
1
40
1
41
1
10
115.654231566183
20
5.5318607021199
30
0
41
1
10
115.632912187534
20
5.52807475971449
30
0
41
1
10
115.594341477884
20
5.51330747928077
30
0
41
1
10
115.546614559117
20
5.46981830978217
30
0
41
1
10
115.522212046893
20
5.41673857348258
30
0
41
1
10
115.517934293333
20
5.3820024097781
30
0
41
1
10
115.517722462345
20
5.36753255092389
30
0
0
SPLINE
5
182
100
AcDbEntity
8
1
62
256
6
ByLayer
370
18
48
1
60
0
100
AcDbSpline
70
4
71
1
72
4
73
2
40
0
40
0
40
1
40
1
41
1
10
115.942356857345
20
4.67211185875305
30
0
41
1
10
115.936601095789
20
4.63791835405257
30
0
0
SPLINE
5
183
100
AcDbEntity
8
1
62
256
6
ByLayer
370
18
48
1
60
0
100
AcDbSpline
70
4
71
1
72
4
73
2
40
0
40
0
40
1
40
1
41
1
10
115.942356857345
20
4.67211185875305
30
0
41
1
10
115.955490385486
20
4.75019195852636
30
0
0
SPLINE
5
184
100
AcDbEntity
8
1
62
256
6
ByLayer
370
18
48
1
60
0
100
AcDbSpline
70
4
71
2
72
6
73
3
40
0
40
0
40
0
40
1
40
1
40
1
41
1
10
115.965916146586
20
5.90439377324691
30
0
41
1
10
115.969074431021
20
5.97168262003244
30
0
41
1
10
115.954263151352
20
6.03533336244034
30
0
0
SPLINE
5
185
100
AcDbEntity
8
1
62
256
6
ByLayer
370
18
48
1
60
0
100
AcDbSpline
70
4
71
2
72
6
73
3
40
0
40
0
40
0
40
1
40
1
40
1
41
1
10
115.921346624987
20
5.73206636274368
30
0
41
1
10
115.961784208425
20
5.81546151083714
30
0
41
1
10
115.965916146586
20
5.90439377324691
30
0
0
SPLINE
5
186
100
AcDbEntity
8
1
62
256
6
ByLayer
370
18
48
1
60
0
100
AcDbSpline
70
4
71
3
72
12
73
8
40
0
40
0
40
0
40
0
40
0.0673878972017452
40
0.291724902681225
40
0.519221564719004
40
0.761288514760378
40
1
40
1
40
1
40
1
41
1
10
116.027950096812
20
4.47832372075481
30
0
41
1
10
116.032847466507
20
4.47547827209395
30
0
41
1
10
116.054357908019
20
4.46412123958425
30
0
41
1
10
116.096694624959
20
4.45095345222336
30
0
41
1
10
116.153724592491
20
4.44964861777291
30
0
41
1
10
116.207187297785
20
4.46423672916969
30
0
41
1
10
116.236406805755
20
4.48215913278076
30
0
41
1
10
116.249482706864
20
4.49328624719201
30
0
0
SPLINE
5
187
100
AcDbEntity
8
1
62
256
6
ByLayer
370
18
48
1
60
0
100
AcDbSpline
70
4
71
3
72
11
73
7
40
0
40
0
40
0
40
0
40
0.140470586331351
40
0.484983032735338
40
0.797511606841051
40
1
40
1
40
1
40
1
41
1
10
115.936601095789
20
4.63791835405257
30
0
41
1
10
115.93612902895
20
4.62969559416064
30
0
41
1
10
115.936873035558
20
4.60139598952476
30
0
41
1
10
115.95115166988
20
4.55290928540748
30
0
41
1
10
115.987086973698
20
4.50645687013258
30
0
41
1
10
116.015536028074
20
4.48566287572248
30
0
41
1
10
116.027950096812
20
4.47832372075481
30
0
0
SPLINE
5
188
100
AcDbEntity
8
1
62
256
6
ByLayer
370
18
48
1
60
0
100
AcDbSpline
70
4
71
3
72
11
73
7
40
0
40
0
40
0
40
0
40
0.284741728902612
40
0.571429304116662
40
0.83150141936194
40
1
40
1
40
1
40
1
41
1
10
116.264267385939
20
6.20884713943587
30
0
41
1
10
116.248729047093
20
6.22613550418104
30
0
41
1
10
116.213740584836
20
6.25340425722042
30
0
41
1
10
116.148583669846
20
6.27439289681474
30
0
41
1
10
116.088525727532
20
6.2696853367008
30
0
41
1
10
116.055850757923
20
6.25626147282045
30
0
41
1
10
116.043212685998
20
6.24933958042811
30
0
0
SPLINE
5
189
100
AcDbEntity
8
1
62
256
6
ByLayer
370
18
48
1
60
0
100
AcDbSpline
70
4
71
3
72
11
73
7
40
0
40
0
40
0
40
0
40
0.0885337572372918
40
0.383252406994818
40
0.682122226415854
40
1
40
1
40
1
40
1
41
1
10
116.043212685998
20
6.24933958042811
30
0
41
1
10
116.038272299553
20
6.2465798058789
30
0
41
1
10
116.017638266152
20
6.23375469142786
30
0
41
1
10
115.985568617116
20
6.2030381813229
30
0
41
1
10
115.95778360629
20
6.15100926728197
30
0
41
1
10
115.950179294911
20
6.11360511387644
30
0
41
1
10
115.949181955979
20
6.09326357867779
30
0
0
SPLINE
5
18A
100
AcDbEntity
8
1
62
256
6
ByLayer
370
18
48
1
60
0
100
AcDbSpline
70
4
71
3
72
11
73
7
40
0
40
0
40
0
40
0
40
0.0885337572372658
40
0.383252406994782
40
0.682122226415867
40
1
40
1
40
1
40
1
41
1
10
117.062108833744
20
4.46830561257034
30
0
41
1
10
117.067049190962
20
4.47106482943166
30
0
41
1
10
117.08767465923
20
4.48372651141942
30
0
41
1
10
117.119661614149
20
4.51286512377842
30
0
41
1
10
117.147208119325
20
4.56034307890442
30
0
41
1
10
117.154587423526
20
4.59345383957568
30
0
41
1
10
117.155449603696
20
4.61121639198437
30
0
0
SPLINE
5
18B
100
AcDbEntity
8
1
62
256
6
ByLayer
370
18
48
1
60
0
100
AcDbSpline
70
4
71
3
72
11
73
7
40
0
40
0
40
0
40
0
40
0.284741728902633
40
0.571429304116622
40
0.83150141936195
40
1
40
1
40
1
40
1
41
1
10
116.839941427486
20
4.48756635223718
30
0
41
1
10
116.855664747089
20
4.4738076305978
30
0
41
1
10
116.890982380927
20
4.45281984547718
30
0
41
1
10
116.956520156869
20
4.43909846578454
30
0
41
1
10
117.016764148687
20
4.447356061923
30
0
41
1
10
117.04947017126
20
4.46137245163715
30
0
41
1
10
117.062108833744
20
4.46830561257034
30
0
0
SPLINE
5
18C
100
AcDbEntity
8
1
62
256
6
ByLayer
370
18
48
1
60
0
100
AcDbSpline
70
4
71
3
72
12
73
8
40
0
40
0
40
0
40
0
40
0.0673878972017463
40
0.291724902681218
40
0.519221564718957
40
0.761288514760328
40
1
40
1
40
1
40
1
41
1
10
117.07737142293
20
6.23932147224364
30
0
41
1
10
117.072474024012
20
6.24216636329578
30
0
41
1
10
117.050955059188
20
6.25336076133858
30
0
41
1
10
117.008535086655
20
6.26493993734037
30
0
41
1
10
116.951269058196
20
6.26174046098049
30
0
41
1
10
116.897457160886
20
6.2404893689886
30
0
41
1
10
116.867955625511
20
6.21718556191389
30
0
41
1
10
116.854726106561
20
6.20312724448102
30
0
0
SPLINE
5
18D
100
AcDbEntity
8
1
62
256
6
ByLayer
370
18
48
1
60
0
100
AcDbSpline
70
4
71
3
72
11
73
7
40
0
40
0
40
0
40
0
40
0.140470586331344
40
0.484983032735342
40
0.797511606841042
40
1
40
1
40
1
40
1
41
1
10
117.167912279142
20
6.06430651733907
30
0
41
1
10
117.168451757313
20
6.07381556207769
30
0
41
1
10
117.167927466285
20
6.1063075897306
30
0
41
1
10
117.153951935451
20
6.16057785292437
30
0
41
1
10
117.118202938913
20
6.21058522286235
30
0
41
1
10
117.08978490107
20
6.23197104798939
30
0
41
1
10
117.07737142293
20
6.23932147224364
30
0
0
SPLINE
5
18E
100
AcDbEntity
8
1
62
256
6
ByLayer
370
18
48
1
60
0
100
AcDbSpline
70
4
71
2
72
6
73
3
40
0
40
0
40
0
40
1
40
1
40
1
41
1
10
117.155449603696
20
4.61121639198437
30
0
41
1
10
117.156791862245
20
4.63683234332785
30
0
41
1
10
117.149940236673
20
4.66097660644142
30
0
0
SPLINE
5
18F
100
AcDbEntity
8
1
62
256
6
ByLayer
370
18
48
1
60
0
100
AcDbSpline
70
4
71
2
72
6
73
3
40
0
40
0
40
0
40
1
40
1
40
1
41
1
10
117.137356508293
20
4.77415674924295
30
0
41
1
10
117.134606143725
20
4.71465147721744
30
0
41
1
10
117.149940236673
20
4.66097660644142
30
0
0
SPLINE
5
190
100
AcDbEntity
8
1
62
256
6
ByLayer
370
18
48
1
60
0
100
AcDbSpline
70
4
71
1
72
4
73
2
40
0
40
0
40
1
40
1
41
1
10
117.16185195608
20
6.02430163292
30
0
41
1
10
117.148041425171
20
5.93330355080133
30
0
0
SPLINE
5
191
100
AcDbEntity
8
1
62
256
6
ByLayer
370
18
48
1
60
0
100
AcDbSpline
70
4
71
3
72
13
73
9
40
0
40
0
40
0
40
0
40
0.0858715385502284
40
0.289891539276086
40
0.495071496647832
40
0.675470194998929
40
0.914813818726436
40
1
40
1
40
1
40
1
41
1
10
117.148041425171
20
5.93330355080133
30
0
41
1
10
117.147093070757
20
5.91682092284497
30
0
41
1
10
117.147120385886
20
5.86137271196442
30
0
41
1
10
117.164690446789
20
5.76411754352914
30
0
41
1
10
117.219516397311
20
5.65898886593609
30
0
41
1
10
117.303294820257
20
5.57470818424378
30
0
41
1
10
117.384560569611
20
5.53361070775311
30
0
41
1
10
117.438688654609
20
5.51944355477415
30
0
41
1
10
117.453169280505
20
5.51660287307033
30
0
0
SPLINE
5
192
100
AcDbEntity
8
1
62
256
6
ByLayer
370
18
48
1
60
0
100
AcDbSpline
70
4
71
1
72
4
73
2
40
0
40
0
40
1
40
1
41
1
10
112.65
20
6.609099361706
30
0
41
1
10
112.639999350698
20
6.53611520617058
30
0
0
SPLINE
5
193
100
AcDbEntity
8
1
62
256
6
ByLayer
370
18
48
1
60
0
100
AcDbSpline
70
4
71
3
72
13
73
9
40
0
40
0
40
0
40
0
40
0.0858715385502327
40
0.289891539276093
40
0.495071496647832
40
0.675470194998927
40
0.914813818726447
40
1
40
1
40
1
40
1
41
1
10
115.955490385486
20
4.75019195852636
30
0
41
1
10
115.956326815967
20
4.76453895060432
30
0
41
1
10
115.955955693773
20
4.81342693189366
30
0
41
1
10
115.937937366591
20
4.90212867018507
30
0
41
1
10
115.88304436401
20
5.00597791826309
30
0
41
1
10
115.799687524218
20
5.09830288574533
30
0
41
1
10
115.719058411656
20
5.15154811588883
30
0
41
1
10
115.665392453242
20
5.17453316939184
30
0
41
1
10
115.65103953292
20
5.17981061860276
30
0
0
SPLINE
5
194
100
AcDbEntity
8
1
62
256
6
ByLayer
370
18
48
1
60
0
100
AcDbSpline
70
4
71
3
72
10
73
6
40
0
40
0
40
0
40
0
40
0.463356466661069
40
0.844849939507189
40
1
40
1
40
1
40
1
41
1
10
115.654231566183
20
5.5318607021199
30
0
41
1
10
115.697462694257
20
5.53903724047552
30
0
41
1
10
115.77040353967
20
5.56586692546226
30
0
41
1
10
115.849368268304
20
5.62786565302589
30
0
41
1
10
115.883394808221
20
5.67081104262369
30
0
41
1
10
115.892737113152
20
5.68405772716768
30
0
0
SPLINE
5
195
100
AcDbEntity
8
1
62
256
6
ByLayer
370
18
48
1
60
0
100
AcDbSpline
70
4
71
2
72
6
73
3
40
0
40
0
40
0
40
1
40
1
40
1
41
1
10
115.949181955979
20
6.09326357867779
30
0
41
1
10
115.94764324395
20
6.06389907127387
30
0
41
1
10
115.954263151352
20
6.03533336244034
30
0
0
SPLINE
5
196
100
AcDbEntity
8
1
62
256
6
ByLayer
370
18
48
1
60
0
100
AcDbSpline
70
4
71
3
72
13
73
9
40
0
40
0
40
0
40
0
40
0.213201965679379
40
0.388803762939739
40
0.565403937511321
40
0.72067484308554
40
0.926680516908977
40
1
40
1
40
1
40
1
41
1
10
116.839941427486
20
4.48756635223718
30
0
41
1
10
116.808357581308
20
4.5153991436389
30
0
41
1
10
116.742726230211
20
4.5561744599962
30
0
41
1
10
116.622556492008
20
4.59242652116488
30
0
41
1
10
116.503538150176
20
4.59727256407382
30
0
41
1
10
116.384617044746
20
4.57417276852746
30
0
41
1
10
116.303154276719
20
4.53470673619771
30
0
41
1
10
116.260178697309
20
4.50235693806816
30
0
41
1
10
116.249482706864
20
4.49328624719201
30
0
0
SPLINE
5
197
100
AcDbEntity
8
1
62
256
6
ByLayer
370
18
48
1
60
0
100
AcDbSpline
70
4
71
3
72
13
73
9
40
0
40
0
40
0
40
0
40
0.213201965679376
40
0.3888037629397
40
0.565403937511294
40
0.720674843085517
40
0.926680516908959
40
1
40
1
40
1
40
1
41
1
10
116.264267385939
20
6.20884713943587
30
0
41
1
10
116.295456661502
20
6.17348549218887
30
0
41
1
10
116.360502006312
20
6.12152850977118
30
0
41
1
10
116.480069922191
20
6.07379299458004
30
0
41
1
10
116.599022935046
20
6.06770040051914
30
0
41
1
10
116.718365187858
20
6.09883616683471
30
0
41
1
10
116.800464720062
20
6.15045238347727
30
0
41
1
10
116.843902412512
20
6.19161982367389
30
0
41
1
10
116.854726106561
20
6.20312724448102
30
0
0
SPLINE
5
198
100
AcDbEntity
8
1
62
256
6
ByLayer
370
18
48
1
60
0
100
AcDbSpline
70
4
71
3
72
12
73
8
40
0
40
0
40
0
40
0
40
0.240950862299306
40
0.482849643143953
40
0.710269061147264
40
0.934641056149751
40
1
40
1
40
1
40
1
41
1
10
117.453169280505
20
5.51660287307017
30
0
41
1
10
117.471057161621
20
5.51307989414429
30
0
41
1
10
117.504119830143
20
5.50086521800803
30
0
41
1
10
117.546949057696
20
5.46705944825039
30
0
41
1
10
117.576443375474
20
5.4208357736713
30
0
41
1
10
117.586752220189
20
5.37933954252091
30
0
41
1
10
117.587633747174
20
5.3555507012228
30
0
41
1
10
117.587599057397
20
5.35011264207456
30
0
0
SPLINE
5
199
100
AcDbEntity
8
1
62
256
6
ByLayer
370
18
48
1
60
0
100
AcDbSpline
70
4
71
3
72
11
73
7
40
0
40
0
40
0
40
0
40
0.170197169775802
40
0.429812750137141
40
0.716041204090498
40
1
40
1
40
1
40
1
41
1
10
117.587599057397
20
5.35011264207456
30
0
41
1
10
117.5873866101
20
5.33563102335383
30
0
41
1
10
117.583077225303
20
5.30029129968568
30
0
41
1
10
117.558486555056
20
5.24362129443328
30
0
41
1
10
117.510377136858
20
5.19283360100149
30
0
41
1
10
117.471476422478
20
5.17176945520039
30
0
41
1
10
117.449971821842
20
5.16444926676209
30
0
0
SPLINE
5
19A
100
AcDbEntity
8
1
62
256
6
ByLayer
370
18
48
1
60
0
100
AcDbSpline
70
4
71
3
72
10
73
6
40
0
40
0
40
0
40
0
40
0.463356466661076
40
0.844849939507171
40
1
40
1
40
1
40
1
41
1
10
117.449971821842
20
5.16444926676209
30
0
41
1
10
117.406345070394
20
5.14972378471525
30
0
41
1
10
117.3328171978
20
5.11169295383483
30
0
41
1
10
117.253356697148
20
5.04023433265081
30
0
41
1
10
117.219231490206
20
4.99540626406337
30
0
41
1
10
117.20987119371
20
4.98181628000258
30
0
0
SPLINE
5
19B
100
AcDbEntity
8
1
62
256
6
ByLayer
370
18
48
1
60
0
100
AcDbSpline
70
4
71
2
72
6
73
3
40
0
40
0
40
0
40
1
40
1
40
1
41
1
10
117.181261681875
20
4.93380764442658
30
0
41
1
10
117.140945547185
20
4.85272987650383
30
0
41
1
10
117.137356508293
20
4.77415674924295
30
0
0
SPLINE
5
19C
100
AcDbEntity
8
1
62
256
6
ByLayer
370
18
48
1
60
0
100
AcDbSpline
70
4
71
1
72
4
73
2
40
0
40
0
40
1
40
1
41
1
10
117.16185195608
20
6.02430163292001
30
0
41
1
10
117.167912279142
20
6.06430651733907
30
0
0
LINE
5
74
100
AcDbEntity
8
1
62
256
6
ByLayer
370
18
48
1
60
1
100
AcDbLine
10
113.457076
20
6.957304
30
0.673887
11
113.106456
21
0.267066
31
1.734971
39
0
210
0
220
0
230
1
0
LINE
5
76
100
AcDbEntity
8
1
62
256
6
ByLayer
370
18
48
1
60
1
100
AcDbLine
10
119.392629
20
10.815677
30
0.014418
11
113.642886
21
7.269105
31
0.62303
39
0
210
0
220
0
230
1
0
LINE
5
77
100
AcDbEntity
8
1
62
256
6
ByLayer
370
18
48
1
60
1
100
AcDbLine
10
119.648861
20
3.772095
30
1.126358
11
119.999482
21
10.462334
31
0.065275
39
0
210
0
220
0
230
1
0
LINE
5
78
100
AcDbEntity
8
1
62
256
6
ByLayer
370
18
48
1
60
1
100
AcDbLine
10
113.713308
20
-0.086277
30
1.785828
11
119.463051
21
3.460294
31
1.177215
39
0
210
0
220
0
230
1
0
LINE
5
79
100
AcDbEntity
8
1
62
256
6
ByLayer
370
18
48
1
60
1
100
AcDbLine
10
113.23653
20
-0.04405
30
1.783101
11
113.386129
21
-0.177934
31
-0.238612
39
0
210
0
220
0
230
1
0
LINE
5
7A
100
AcDbEntity
8
1
62
256
6
ByLayer
370
18
48
1
60
1
100
AcDbLine
10
113.713308
20
-0.086277
30
1.785828
11
113.565893
21
-0.193503
31
-0.231689
39
0
210
0
220
0
230
1
0
LINE
5
7B
100
AcDbEntity
8
1
62
256
6
ByLayer
370
18
48
1
60
1
100
AcDbLine
10
113.612662
20
-0.167649
30
-0.610134
11
114.485606
21
0.370803
31
-0.702536
39
0
210
0
220
0
230
1
0
LINE
5
7C
100
AcDbEntity
8
1
62
256
6
ByLayer
370
18
48
1
60
1
100
AcDbLine
10
113.565893
20
-0.193503
30
-0.231689
11
113.612662
21
-0.167649
31
-0.610134
39
0
210
0
220
0
230
1
0
LINE
5
7D
100
AcDbEntity
8
1
62
256
6
ByLayer
370
18
48
1
60
1
100
AcDbLine
10
119.357459
20
3.383489
30
-0.267913
11
119.463051
21
3.460294
31
1.177215
39
0
210
0
220
0
230
1
0
LINE
5
7E
100
AcDbEntity
8
1
62
256
6
ByLayer
370
18
48
1
60
1
100
AcDbLine
10
119.357606
20
3.382881
30
-0.432375
11
119.48698
21
3.47628
31
1.174489
39
0
210
0
220
0
230
1
0
LINE
5
7F
100
AcDbEntity
8
1
62
256
6
ByLayer
370
18
48
1
60
1
100
AcDbLine
10
113.559712
20
-0.197115
30
-0.231087
11
113.606479
21
-0.171262
31
-0.609511
39
0
210
0
220
0
230
1
0
LINE
5
80
100
AcDbEntity
8
1
62
256
6
ByLayer
370
18
48
1
60
1
100
AcDbLine
10
118.267928
20
5.127945
30
-0.025954
11
118.273873
21
5.241372
31
0.691181
39
0
210
0
220
0
230
1
0
LINE
5
81
100
AcDbEntity
8
1
62
256
6
ByLayer
370
18
48
1
60
1
100
AcDbLine
10
114.828601
20
5.421931
30
0.691181
11
114.822656
21
5.308504
31
-0.025954
39
0
210
0
220
0
230
1
0
LINE
5
82
100
AcDbEntity
8
1
62
256
6
ByLayer
370
18
48
1
60
1
100
AcDbLine
10
115.938973
20
4.607539
30
0.499579
11
115.942357
21
4.672112
31
0.907838
39
0
210
0
220
0
230
1
0
LINE
5
83
100
AcDbEntity
8
1
62
256
6
ByLayer
370
18
48
1
60
1
100
AcDbLine
10
117.144823
20
4.563343
30
0.281973
11
117.14994
21
4.660977
31
0.899254
39
0
210
0
220
0
230
1
0
LINE
5
84
100
AcDbEntity
8
1
62
256
6
ByLayer
370
18
48
1
60
1
100
AcDbLine
10
115.948232
20
4.611679
30
-0.026315
11
115.95554
21
4.751138
31
0.855407
39
0
210
0
220
0
230
1
0
LINE
5
85
100
AcDbEntity
8
1
62
256
6
ByLayer
370
18
48
1
60
1
100
AcDbLine
10
117.137413
20
4.77524
30
0.825778
11
117.130233
21
4.638252
31
-0.040316
39
0
210
0
220
0
230
1
0
LINE
5
86
100
AcDbEntity
8
1
62
256
6
ByLayer
370
18
48
1
60
1
100
AcDbLine
10
115.646603
20
5.386308
30
-0.146336
11
115.654232
21
5.531861
31
0.773907
39
0
210
0
220
0
230
1
0
LINE
5
87
100
AcDbEntity
8
1
62
256
6
ByLayer
370
18
48
1
60
1
100
AcDbLine
10
117.445538
20
5.370999
30
-0.158827
11
117.453169
21
5.516603
31
0.761744
39
0
210
0
220
0
230
1
0
LINE
5
88
100
AcDbEntity
8
1
62
256
6
ByLayer
370
18
48
1
60
1
100
AcDbLine
10
117.148024
20
5.932986
30
0.658592
11
117.140716
21
5.793526
31
-0.22313
39
0
210
0
220
0
230
1
0
LINE
5
89
100
AcDbEntity
8
1
62
256
6
ByLayer
370
18
48
1
60
1
100
AcDbLine
10
115.892737
20
5.684058
30
0.649229
11
115.885907
21
5.553723
31
-0.174799
39
0
210
0
220
0
230
1
0
LINE
5
8A
100
AcDbEntity
8
1
62
256
6
ByLayer
370
18
48
1
60
1
100
AcDbLine
10
116.256637
20
6.063243
30
-0.258462
11
116.264267
21
6.208847
31
0.662109
39
0
210
0
220
0
230
1
0
LINE
5
8B
100
AcDbEntity
8
1
62
256
6
ByLayer
370
18
48
1
60
1
100
AcDbLine
10
116.847095
20
6.057523
30
-0.262452
11
116.854726
21
6.203127
31
0.658119
39
0
210
0
220
0
230
1
0
LINE
5
8C
100
AcDbEntity
8
1
62
256
6
ByLayer
370
18
48
1
60
1
100
AcDbLine
10
115.958714
20
5.766953
30
-0.209129
11
115.965893
21
5.903941
31
0.656965
39
0
210
0
220
0
230
1
0
LINE
5
8D
100
AcDbEntity
8
1
62
256
6
ByLayer
370
18
48
1
60
1
100
AcDbLine
10
115.914516
20
5.601732
30
-0.18263
11
115.921347
21
5.732066
31
0.641399
39
0
210
0
220
0
230
1
0
LINE
5
8E
100
AcDbEntity
8
1
62
256
6
ByLayer
370
18
48
1
60
1
100
AcDbLine
10
112.25
20
6.225
30
0
11
58.55
21
6.225
31
0
39
0
210
0
220
0
230
1
0
LINE
5
8F
100
AcDbEntity
8
1
62
256
6
ByLayer
370
18
48
1
60
1
100
AcDbLine
10
58.55
20
-6.225
30
0
11
110.39869
21
-6.225
31
0
39
0
210
0
220
0
230
1
0
LINE
5
90
100
AcDbEntity
8
1
62
256
6
ByLayer
370
18
48
1
60
1
100
AcDbLine
10
110.517535
20
6.197396
30
0.585579
11
110.533151
21
-5.714219
31
2.469479
39
0
210
0
220
0
230
1
0
LINE
5
91
100
AcDbEntity
8
1
62
256
6
ByLayer
370
18
48
1
60
0
100
AcDbLine
10
112.65
20
6.615874
30
0.501713
11
112.65
21
6.605855
31
0.503298
39
0
210
0
220
0
230
1
0
LINE
5
92
100
AcDbEntity
8
1
62
256
6
ByLayer
370
18
48
1
60
1
100
AcDbLine
10
112.648106
20
2.277663
30
1.187893
11
113.230659
21
2.636994
31
1.126229
39
0
210
0
220
0
230
1
0
LINE
5
93
100
AcDbEntity
8
1
62
256
6
ByLayer
370
18
48
1
60
1
100
AcDbLine
10
114.515591
20
0.406725
30
1.468334
11
119.3554
21
3.392028
31
0.956038
39
0
210
0
220
0
230
1
0
LINE
5
94
100
AcDbEntity
8
1
62
256
6
ByLayer
370
18
48
1
60
1
100
AcDbLine
10
119.138239
20
-2.149681
30
1.834356
11
119.416254
21
3.155155
31
0.993
39
0
210
0
220
0
230
1
0
LINE
5
95
100
AcDbEntity
8
1
62
256
6
ByLayer
370
18
48
1
60
1
100
AcDbLine
10
119.138239
20
-2.149681
30
1.834356
11
111.487214
21
-5.717413
31
2.462076
39
0
210
0
220
0
230
1
0
LINE
5
96
100
AcDbEntity
8
1
62
256
6
ByLayer
370
18
48
1
60
1
100
AcDbLine
10
114.483386
20
0.368289
30
0.614085
11
114.472743
21
0.165203
31
-0.66991
39
0
210
0
220
0
230
1
0
LINE
5
97
100
AcDbEntity
8
1
62
256
6
ByLayer
370
18
48
1
60
1
100
AcDbLine
10
112.439763
20
0.153285
30
0.335061
11
112.449391
21
0.336985
31
1.496492
39
0
210
0
220
0
230
1
0
LINE
5
98
100
AcDbEntity
8
1
62
256
6
ByLayer
370
18
48
1
60
1
100
AcDbLine
10
112.630503
20
1.941789
30
-0.935637
11
112.648106
21
2.277663
31
1.187893
39
0
210
0
220
0
230
1
0
LINE
5
99
100
AcDbEntity
8
1
62
256
6
ByLayer
370
18
48
1
60
1
100
AcDbLine
10
113.213056
20
2.301121
30
-0.997301
11
112.630503
21
1.941789
31
-0.935637
39
0
210
0
220
0
230
1
0
LINE
5
9A
100
AcDbEntity
8
1
62
256
6
ByLayer
370
18
48
1
60
1
100
AcDbLine
10
58.55
20
6
30
0
11
-60.75
21
6
31
0
39
0
210
0
220
0
230
1
0
LINE
5
9B
100
AcDbEntity
8
1
62
256
6
ByLayer
370
18
48
1
60
1
100
AcDbLine
10
-60.75
20
-6
30
0
11
58.55
21
-6
31
0
39
0
210
0
220
0
230
1
0
LINE
5
9C
100
AcDbEntity
8
1
62
256
6
ByLayer
370
18
48
1
60
1
100
AcDbLine
10
-37
20
-0.205977
30
5.996463
11
48
21
-0.205977
31
5.996463
39
0
210
0
220
0
230
1
0
LINE
5
9D
100
AcDbEntity
8
1
62
256
6
ByLayer
370
18
48
1
60
1
100
AcDbLine
10
48
20
0.205977
30
5.996463
11
-37
21
0.205977
31
5.996463
39
0
210
0
220
0
230
1
0
LINE
5
9E
100
AcDbEntity
8
1
62
256
6
ByLayer
370
18
48
1
60
1
100
AcDbLine
10
-60.75
20
6
30
0
11
-61.25
21
5.5
31
0
39
0
210
0
220
0
230
1
0
LINE
5
9F
100
AcDbEntity
8
1
62
256
6
ByLayer
370
18
48
1
60
1
100
AcDbLine
10
-61.25
20
-5.5
30
0
11
-60.75
21
-6
31
0
39
0
210
0
220
0
230
1
0
LINE
5
A0
100
AcDbEntity
8
1
62
256
6
ByLayer
370
18
48
1
60
0
100
AcDbLine
10
0
20
-2
30
0
11
0
21
2
31
0
39
0
210
0
220
0
230
1
0
LINE
5
A1
100
AcDbEntity
8
SK1
62
256
6
ByLayer
370
18
48
1
60
0
100
AcDbLine
10
-60.75
20
-6
30
0
11
0
21
-6
31
0
39
0
210
0
220
0
230
1
0
LINE
5
A3
100
AcDbEntity
8
SK1
62
256
6
ByLayer
370
18
48
1
60
0
100
AcDbLine
10
-61.25
20
-5.5
30
0
11
-60.75
21
-6
31
0
39
0
210
0
220
0
230
1
0
LINE
5
A4
100
AcDbEntity
8
SK1
62
256
6
ByLayer
370
18
48
1
60
0
100
AcDbLine
10
-60.75
20
6
30
0
11
-60.75
21
-6
31
0
39
0
210
0
220
0
230
1
0
LINE
5
A5
100
AcDbEntity
8
1
62
256
6
ByLayer
370
18
48
1
60
0
100
AcDbLine
10
110.517535
20
6.197396
30
0
11
110.533151
21
-5.714219
31
0
39
0
210
0
220
0
230
1
0
LINE
5
A6
100
AcDbEntity
8
1
62
256
6
ByLayer
370
18
48
1
60
0
100
AcDbLine
10
112.25
20
6.225
30
0
11
112.25
21
6.198756
31
0
39
0
210
0
220
0
230
1
0
LINE
5
A7
100
AcDbEntity
8
1
62
256
6
ByLayer
370
18
48
1
60
0
100
AcDbLine
10
112.439763
20
0.153285
30
0
11
112.449391
21
0.336985
31
0
39
0
210
0
220
0
230
1
0
LINE
5
A8
100
AcDbEntity
8
1
62
256
6
ByLayer
370
18
48
1
60
0
100
AcDbLine
10
113.213056
20
2.301121
30
0
11
112.630503
21
1.941789
31
0
39
0
210
0
220
0
230
1
0
LINE
5
A9
100
AcDbEntity
8
1
62
256
6
ByLayer
370
18
48
1
60
0
100
AcDbLine
10
112.630503
20
1.941789
30
0
11
112.648106
21
2.277663
31
0
39
0
210
0
220
0
230
1
0
LINE
5
AA
100
AcDbEntity
8
1
62
256
6
ByLayer
370
18
48
1
60
0
100
AcDbLine
10
113.23653
20
-0.04405
30
0
11
113.386129
21
-0.177934
31
0
39
0
210
0
220
0
230
1
0
LINE
5
AB
100
AcDbEntity
8
1
62
256
6
ByLayer
370
18
48
1
60
0
100
AcDbLine
10
113.559712
20
-0.197115
30
0
11
113.606479
21
-0.171262
31
0
39
0
210
0
220
0
230
1
0
LINE
5
AC
100
AcDbEntity
8
1
62
256
6
ByLayer
370
18
48
1
60
0
100
AcDbLine
10
113.713308
20
-0.086277
30
0
11
113.565893
21
-0.193503
31
0
39
0
210
0
220
0
230
1
0
LINE
5
AD
100
AcDbEntity
8
1
62
256
6
ByLayer
370
18
48
1
60
0
100
AcDbLine
10
113.565893
20
-0.193503
30
0
11
113.612662
21
-0.167649
31
0
39
0
210
0
220
0
230
1
0
LINE
5
AE
100
AcDbEntity
8
1
62
256
6
ByLayer
370
18
48
1
60
0
100
AcDbLine
10
114.515591
20
0.406725
30
0
11
119.3554
21
3.392028
31
0
39
0
210
0
220
0
230
1
0
LINE
5
AF
100
AcDbEntity
8
1
62
256
6
ByLayer
370
18
48
1
60
0
100
AcDbLine
10
114.828601
20
5.421931
30
0
11
114.822656
21
5.308504
31
0
39
0
210
0
220
0
230
1
0
LINE
5
B0
100
AcDbEntity
8
1
62
256
6
ByLayer
370
18
48
1
60
0
100
AcDbLine
10
115.646603
20
5.386308
30
0
11
115.654232
21
5.531861
31
0
39
0
210
0
220
0
230
1
0
LINE
5
B1
100
AcDbEntity
8
1
62
256
6
ByLayer
370
18
48
1
60
0
100
AcDbLine
10
115.892737
20
5.684058
30
0
11
115.885907
21
5.553723
31
0
39
0
210
0
220
0
230
1
0
LINE
5
B2
100
AcDbEntity
8
1
62
256
6
ByLayer
370
18
48
1
60
0
100
AcDbLine
10
115.914516
20
5.601732
30
0
11
115.921347
21
5.732066
31
0
39
0
210
0
220
0
230
1
0
LINE
5
B3
100
AcDbEntity
8
1
62
256
6
ByLayer
370
18
48
1
60
0
100
AcDbLine
10
115.938973
20
4.607539
30
0
11
115.942357
21
4.672112
31
0
39
0
210
0
220
0
230
1
0
LINE
5
B4
100
AcDbEntity
8
1
62
256
6
ByLayer
370
18
48
1
60
0
100
AcDbLine
10
115.958714
20
5.766953
30
0
11
115.965893
21
5.903941
31
0
39
0
210
0
220
0
230
1
0
LINE
5
B5
100
AcDbEntity
8
1
62
256
6
ByLayer
370
18
48
1
60
0
100
AcDbLine
10
116.256637
20
6.063243
30
0
11
116.264267
21
6.208847
31
0
39
0
210
0
220
0
230
1
0
LINE
5
B6
100
AcDbEntity
8
1
62
256
6
ByLayer
370
18
48
1
60
0
100
AcDbLine
10
116.847095
20
6.057523
30
0
11
116.854726
21
6.203127
31
0
39
0
210
0
220
0
230
1
0
LINE
5
B7
100
AcDbEntity
8
1
62
256
6
ByLayer
370
18
48
1
60
0
100
AcDbLine
10
117.144823
20
4.563343
30
0
11
117.14994
21
4.660977
31
0
39
0
210
0
220
0
230
1
0
LINE
5
B8
100
AcDbEntity
8
1
62
256
6
ByLayer
370
18
48
1
60
0
100
AcDbLine
10
117.148024
20
5.932986
30
0
11
117.140716
21
5.793526
31
0
39
0
210
0
220
0
230
1
0
LINE
5
B9
100
AcDbEntity
8
1
62
256
6
ByLayer
370
18
48
1
60
0
100
AcDbLine
10
119.357606
20
3.382881
30
0
11
119.48698
21
3.47628
31
0
39
0
210
0
220
0
230
1
0
LINE
5
BA
100
AcDbEntity
8
1
62
256
6
ByLayer
370
18
48
1
60
0
100
AcDbLine
10
113.713308
20
-0.086277
30
0
11
119.463051
21
3.460294
31
0
39
0
210
0
220
0
230
1
0
LINE
5
BB
100
AcDbEntity
8
1
62
256
6
ByLayer
370
18
48
1
60
0
100
AcDbLine
10
119.357459
20
3.383489
30
0
11
119.463051
21
3.460294
31
0
39
0
210
0
220
0
230
1
0
LINE
5
BC
100
AcDbEntity
8
1
62
256
6
ByLayer
370
18
48
1
60
0
100
AcDbLine
10
58.55
20
6
30
0
11
0
21
6
31
0
39
0
210
0
220
0
230
1
0
LINE
5
BD
100
AcDbEntity
8
SK1
62
256
6
ByLayer
370
18
48
1
60
0
100
AcDbLine
10
-60.75
20
6
30
0
11
-61.25
21
5.5
31
0
39
0
210
0
220
0
230
1
0
LINE
5
BE
100
AcDbEntity
8
SK1
62
256
6
ByLayer
370
18
48
1
60
0
100
AcDbLine
10
-61.25
20
5.5
30
0
11
-61.25
21
-5.5
31
0
39
0
210
0
220
0
230
1
0
LINE
5
BF
100
AcDbEntity
8
SK1
62
256
6
ByLayer
370
18
48
1
60
0
100
AcDbLine
10
-37
20
0.205977
30
0
11
-37
21
-0.205977
31
0
39
0
210
0
220
0
230
1
0
LINE
5
C0
100
AcDbEntity
8
SK1
62
256
6
ByLayer
370
18
48
1
60
0
100
AcDbLine
10
-37
20
-0.205977
30
0
11
0
21
-0.205977
31
0
39
0
210
0
220
0
230
1
0
LINE
5
C1
100
AcDbEntity
8
1
62
256
6
ByLayer
370
18
48
1
60
0
100
AcDbLine
10
48
20
-0.205977
30
0
11
48
21
0.205977
31
0
39
0
210
0
220
0
230
1
0
LINE
5
C2
100
AcDbEntity
8
1
62
256
6
ByLayer
370
18
48
1
60
0
100
AcDbLine
10
48
20
0.205977
30
0
11
0
21
0.205977
31
0
39
0
210
0
220
0
230
1
0
LINE
5
C3
100
AcDbEntity
8
1
62
256
6
ByLayer
370
18
48
1
60
0
100
AcDbLine
10
112.25
20
6.225
30
0
11
58.55
21
6.225
31
0
39
0
210
0
220
0
230
1
0
LINE
5
C4
100
AcDbEntity
8
1
62
256
6
ByLayer
370
18
48
1
60
0
100
AcDbLine
10
58.55
20
6.225
30
0
11
58.55
21
-6.225
31
0
39
0
210
0
220
0
230
1
0
LINE
5
C5
100
AcDbEntity
8
1
62
256
6
ByLayer
370
18
48
1
60
0
100
AcDbLine
10
58.55
20
-6.225
30
0
11
110.39869
21
-6.225
31
0
39
0
210
0
220
0
230
1
0
LINE
5
C6
100
AcDbEntity
8
1
62
256
6
ByLayer
370
18
48
1
60
0
100
AcDbLine
10
110.39869
20
-6.225
30
0
11
111.487214
21
-5.717413
31
0
39
0
210
0
220
0
230
1
0
LINE
5
C7
100
AcDbEntity
8
1
62
256
6
ByLayer
370
18
48
1
60
0
100
AcDbLine
10
111.487214
20
-5.717413
30
0
11
119.138239
21
-2.149681
31
0
39
0
210
0
220
0
230
1
0
LINE
5
C8
100
AcDbEntity
8
1
62
256
6
ByLayer
370
18
48
1
60
0
100
AcDbLine
10
119.138239
20
-2.149681
30
0
11
119.416254
21
3.155155
31
0
39
0
210
0
220
0
230
1
0
LINE
5
C9
100
AcDbEntity
8
1
62
256
6
ByLayer
370
18
48
1
60
0
100
AcDbLine
10
112.648106
20
2.277663
30
0
11
113.230659
21
2.636994
31
0
39
0
210
0
220
0
230
1
0
LINE
5
CA
100
AcDbEntity
8
1
62
256
6
ByLayer
370
18
48
1
60
0
100
AcDbLine
10
119.648861
20
3.772095
30
0
11
119.999482
21
10.462334
31
0
39
0
210
0
220
0
230
1
0
LINE
5
CB
100
AcDbEntity
8
1
62
256
6
ByLayer
370
18
48
1
60
0
100
AcDbLine
10
119.392629
20
10.815677
30
0
11
113.642886
21
7.269105
31
0
39
0
210
0
220
0
230
1
0
LINE
5
CC
100
AcDbEntity
8
1
62
256
6
ByLayer
370
18
48
1
60
0
100
AcDbLine
10
113.457076
20
6.957304
30
0
11
113.106456
21
0.267066
31
0
39
0
210
0
220
0
230
1
0
LINE
5
CD
100
AcDbEntity
8
1
62
256
6
ByLayer
370
18
48
1
60
0
100
AcDbLine
10
113.612662
20
-0.167649
30
0
11
114.485606
21
0.370803
31
0
39
0
210
0
220
0
230
1
0
LINE
5
CE
100
AcDbEntity
8
1
62
256
6
ByLayer
370
18
48
1
60
0
100
AcDbLine
10
114.483386
20
0.368289
30
0
11
114.472743
21
0.165203
31
0
39
0
210
0
220
0
230
1
0
LINE
5
CF
100
AcDbEntity
8
1
62
256
6
ByLayer
370
18
48
1
60
0
100
AcDbLine
10
118.273873
20
5.241372
30
0
11
118.267928
21
5.127945
31
0
39
0
210
0
220
0
230
1
0
LINE
5
D0
100
AcDbEntity
8
1
62
256
6
ByLayer
370
18
48
1
60
0
100
AcDbLine
10
115.948232
20
4.611679
30
0
11
115.95554
21
4.751138
31
0
39
0
210
0
220
0
230
1
0
LINE
5
D1
100
AcDbEntity
8
1
62
256
6
ByLayer
370
18
48
1
60
0
100
AcDbLine
10
117.445538
20
5.370999
30
0
11
117.453169
21
5.516603
31
0
39
0
210
0
220
0
230
1
0
LINE
5
D2
100
AcDbEntity
8
1
62
256
6
ByLayer
370
18
48
1
60
0
100
AcDbLine
10
117.137413
20
4.77524
30
0
11
117.130233
21
4.638252
31
0
39
0
210
0
220
0
230
1
0
LINE
5
D3
100
AcDbEntity
8
1
62
256
6
ByLayer
370
18
48
1
60
0
100
AcDbLine
10
48
20
-2
30
0
11
48
21
2
31
0
39
0
210
0
220
0
230
1
0
LINE
5
D4
100
AcDbEntity
8
4
62
256
6
ByLayer
370
18
48
0.05
60
0
100
AcDbLine
10
0
20
0
30
0
11
120
21
0
31
0
39
0
210
0
220
0
230
1
0
LINE
5
D6
100
AcDbEntity
8
SK4
62
256
6
ByLayer
370
18
48
0.05
60
0
100
AcDbLine
10
-5
20
0
30
0
11
125
21
0
31
0
39
0
210
0
220
0
230
1
0
LINE
5
D8
100
AcDbEntity
8
80
62
256
6
ByLayer
370
18
48
1
60
0
100
AcDbLine
10
0
20
0
30
0
11
-12
21
0
31
0
39
0
210
0
220
0
230
1
0
LINE
5
D9
100
AcDbEntity
8
81
62
256
6
ByLayer
370
18
48
1
60
0
100
AcDbLine
10
120
20
11
30
0
11
132
21
11
31
0
39
0
210
0
220
0
230
1
0
LINE
5
DA
100
AcDbEntity
8
SK1
62
256
6
ByLayer
370
18
48
1
60
0
100
AcDbLine
10
0
20
6
30
0
11
-60.75
21
6
31
0
39
0
210
0
220
0
230
1
0
LINE
5
DB
100
AcDbEntity
8
SK1
62
256
6
ByLayer
370
18
48
1
60
0
100
AcDbLine
10
0
20
0.205977
30
0
11
-37
21
0.205977
31
0
39
0
210
0
220
0
230
1
0
LINE
5
DC
100
AcDbEntity
8
1
62
256
6
ByLayer
370
18
48
1
60
0
100
AcDbLine
10
0
20
-0.205977
30
0
11
48
21
-0.205977
31
0
39
0
210
0
220
0
230
1
0
LINE
5
DD
100
AcDbEntity
8
1
62
256
6
ByLayer
370
18
48
1
60
0
100
AcDbLine
10
0
20
-6
30
0
11
58.55
21
-6
31
0
39
0
210
0
220
0
230
1
0
MTEXT
5
19D
100
AcDbEntity
8
SK6
62
256
6
ByLayer
370
13
48
1
60
0
100
AcDbMText
10
-4.699384
20
59.112536
30
0
210
0
220
0
230
1
1
\W0.7385;F12Q-SDUCR 07-ER
40
3.5
41
0
44
1.084337
50
0
71
7
72
5
7
iso_b_vert
0
DIMENSION
5
1A2
100
AcDbEntity
8
2
62
256
6
ByLayer
370
13
48
1
60
0
100
AcDbDimension
2
_U0
10
0
20
37.636032
30
0
11
60
21
37.636032
31
0
70
32
71
1
72
1
41
1
210
0
220
0
230
1
3
Standard
100
AcDbAlignedDimension
13
120
23
11
33
0
14
0
24
0
34
0
50
0
100
AcDbRotatedDimension
1001
ACAD
1000
DSTYLE
1002
{
1070
   371
1070
    13
1070
   372
1070
    13
1070
   170
1070
     0
1070
   144
1040
1.0
1070
   277
1070
     2
1070
   284
1070
     8
1070
   278
1070
    44
1070
   146
1040
1.0
1070
   345
1005
16
1070
   347
1005
16
1070
   346
1005
16
1070
   344
1005
0
1070
   343
1005
0
1070
   172
1070
     1
1070
    76
1070
     0
1070
    75
1070
     0
1070
   282
1070
     0
1070
   281
1070
     0
1070
    71
1070
     0
1070
    74
1070
     0
1070
   279
1070
     0
1070
   173
1070
     1
1070
   340
1005
1A3
1070
   271
1070
     2
1070
   272
1070
     2
1070
    77
1070
     1
1070
    73
1070
     1
1070
   171
1070
     3
1070
   274
1070
     4
1070
   177
1070
     7
1070
   176
1070
     7
1070
   178
1070
     7
1070
    78
1070
     8
1070
    48
1040
-0.1
1070
    41
1040
3.175
1070
   147
1040
1.75
1070
    42
1040
1.5875
1070
    44
1040
3.175
1070
   140
1040
3.5
1002
}
1001
ACAD_DSTYLE_DIM_LINETYPE
1070
   380
1005
16
1001
ACAD_DSTYLE_DIM_EXT1_LINETYPE
1070
   381
1005
16
1001
ACAD_DSTYLE_DIM_EXT2_LINETYPE
1070
   382
1005
16
0
DIMENSION
5
1BD
100
AcDbEntity
8
2
62
256
6
ByLayer
370
13
48
1
60
0
100
AcDbDimension
2
_U1
10
137.561695
20
0
30
0
11
137.561695
21
25.017017
31
0
70
32
71
1
72
1
41
1
210
0
220
0
230
1
3
Standard
100
AcDbAlignedDimension
13
120
23
11
33
0
14
125
24
0
34
0
50
90
100
AcDbRotatedDimension
1001
ACAD
1000
DSTYLE
1002
{
1070
   371
1070
    13
1070
   372
1070
    13
1070
   170
1070
     0
1070
   144
1040
1.0
1070
   277
1070
     2
1070
   284
1070
     8
1070
   278
1070
    44
1070
   146
1040
1.0
1070
   345
1005
16
1070
   347
1005
16
1070
   346
1005
16
1070
   344
1005
0
1070
   343
1005
0
1070
   172
1070
     1
1070
    76
1070
     0
1070
    75
1070
     0
1070
   282
1070
     0
1070
   281
1070
     0
1070
    71
1070
     0
1070
    74
1070
     0
1070
   279
1070
     0
1070
   173
1070
     1
1070
   340
1005
1A3
1070
   271
1070
     2
1070
   272
1070
     2
1070
    77
1070
     1
1070
    73
1070
     0
1070
   171
1070
     3
1070
   274
1070
     4
1070
   177
1070
     7
1070
   176
1070
     7
1070
   178
1070
     7
1070
    78
1070
     8
1070
    48
1040
-0.1
1070
    41
1040
3.175
1070
   147
1040
1.75
1070
    42
1040
1.5875
1070
    44
1040
3.175
1070
   140
1040
3.5
1002
}
1001
ACAD_DSTYLE_DIM_LINETYPE
1070
   380
1005
16
1001
ACAD_DSTYLE_DIM_EXT1_LINETYPE
1070
   381
1005
16
1001
ACAD_DSTYLE_DIM_EXT2_LINETYPE
1070
   382
1005
16
0
DIMENSION
5
1D7
100
AcDbEntity
8
2
62
256
6
ByLayer
370
13
48
1
60
0
100
AcDbDimension
2
_U2
10
125
20
0
30
0
11
132.003739
21
-18.487286
31
0
70
34
71
1
72
1
41
1
210
0
220
0
230
1
3
Standard
100
AcDb2LineAngularDimension
13
119.648861
23
3.772095
33
0
14
119.999482
24
10.462334
34
0
15
-5
25
0
35
0
16
138.605491
26
-11.509075
36
0
40
0
0
DIMENSION
5
1F4
100
AcDbEntity
8
SK2
62
256
6
ByLayer
370
13
48
1
60
0
100
AcDbDimension
2
_U3
10
-61.25
20
-47.223204
30
0
11
29.375
21
-47.223204
31
0
70
32
71
1
72
1
41
1
210
0
220
0
230
1
3
Standard
100
AcDbAlignedDimension
13
120
23
11
33
0
14
-61.25
24
0
34
0
50
0
100
AcDbRotatedDimension
1001
ACAD
1000
DSTYLE
1002
{
1070
   371
1070
    13
1070
   372
1070
    13
1070
   170
1070
     0
1070
   144
1040
1.0
1070
   277
1070
     2
1070
   284
1070
     8
1070
   278
1070
    44
1070
   146
1040
1.0
1070
   345
1005
16
1070
   347
1005
16
1070
   346
1005
16
1070
   344
1005
0
1070
   343
1005
0
1070
   172
1070
     1
1070
    76
1070
     0
1070
    75
1070
     0
1070
   282
1070
     0
1070
   281
1070
     0
1070
    71
1070
     0
1070
    74
1070
     0
1070
   279
1070
     0
1070
   173
1070
     1
1070
   340
1005
1A3
1070
   271
1070
     2
1070
   272
1070
     2
1070
    77
1070
     1
1070
    73
1070
     1
1070
   171
1070
     3
1070
   274
1070
     4
1070
   177
1070
     7
1070
   176
1070
     7
1070
   178
1070
     7
1070
    78
1070
     8
1070
    48
1040
-0.1
1070
    41
1040
3.175
1070
   147
1040
1.75
1070
    42
1040
1.5875
1070
    44
1040
3.175
1070
   140
1040
3.5
1002
}
1001
ACAD_DSTYLE_DIM_LINETYPE
1070
   380
1005
16
1001
ACAD_DSTYLE_DIM_EXT1_LINETYPE
1070
   381
1005
16
1001
ACAD_DSTYLE_DIM_EXT2_LINETYPE
1070
   382
1005
16
0
DIMENSION
5
20D
100
AcDbEntity
8
SK2
62
256
6
ByLayer
370
13
48
1
60
0
100
AcDbDimension
2
_U4
10
48
20
20.483158
30
0
11
84
21
20.483158
31
0
70
32
71
1
72
1
41
1
210
0
220
0
230
1
3
Standard
100
AcDbAlignedDimension
13
120
23
11
33
0
14
48
24
0
34
0
50
0
100
AcDbRotatedDimension
1001
ACAD
1000
DSTYLE
1002
{
1070
   371
1070
    13
1070
   372
1070
    13
1070
   170
1070
     0
1070
   144
1040
1.0
1070
   277
1070
     2
1070
   284
1070
     8
1070
   278
1070
    44
1070
   146
1040
1.0
1070
   345
1005
16
1070
   347
1005
16
1070
   346
1005
16
1070
   344
1005
0
1070
   343
1005
0
1070
   172
1070
     1
1070
    76
1070
     0
1070
    75
1070
     0
1070
   282
1070
     0
1070
   281
1070
     0
1070
    71
1070
     0
1070
    74
1070
     0
1070
   279
1070
     0
1070
   173
1070
     1
1070
   340
1005
1A3
1070
   271
1070
     2
1070
   272
1070
     2
1070
    77
1070
     1
1070
    73
1070
     1
1070
   171
1070
     3
1070
   274
1070
     4
1070
   177
1070
     7
1070
   176
1070
     7
1070
   178
1070
     7
1070
    78
1070
     8
1070
    48
1040
-0.1
1070
    41
1040
3.175
1070
   147
1040
1.75
1070
    42
1040
1.5875
1070
    44
1040
3.175
1070
   140
1040
3.5
1002
}
1001
ACAD_DSTYLE_DIM_LINETYPE
1070
   380
1005
16
1001
ACAD_DSTYLE_DIM_EXT1_LINETYPE
1070
   381
1005
16
1001
ACAD_DSTYLE_DIM_EXT2_LINETYPE
1070
   382
1005
16
0
DIMENSION
5
225
100
AcDbEntity
8
SK2
62
256
6
ByLayer
370
13
48
1
60
0
100
AcDbDimension
2
_U5
10
28.239487
20
-6
30
0
11
28.239487
21
-23.083375
31
0
70
32
71
1
72
1
41
1
210
0
220
0
230
1
3
Standard
100
AcDbAlignedDimension
13
29.275
23
6
33
0
14
0
24
-6
34
0
50
-90
100
AcDbRotatedDimension
1001
ACAD
1000
DSTYLE
1002
{
1070
   371
1070
    13
1070
   372
1070
    13
1070
     3
1000
%%c<>
1070
   170
1070
     0
1070
   144
1040
1.0
1070
   277
1070
     2
1070
   284
1070
     8
1070
   278
1070
    44
1070
   146
1040
1.0
1070
   345
1005
16
1070
   347
1005
16
1070
   346
1005
16
1070
   344
1005
0
1070
   343
1005
0
1070
   172
1070
     1
1070
    76
1070
     0
1070
    75
1070
     0
1070
   282
1070
     0
1070
   281
1070
     0
1070
    71
1070
     0
1070
    74
1070
     0
1070
   279
1070
     0
1070
   173
1070
     1
1070
   340
1005
1A3
1070
   271
1070
     1
1070
   272
1070
     2
1070
    77
1070
     1
1070
    73
1070
     0
1070
   171
1070
     3
1070
   274
1070
     4
1070
   177
1070
     7
1070
   176
1070
     7
1070
   178
1070
     7
1070
    78
1070
     8
1070
    48
1040
-0.1
1070
    41
1040
3.175
1070
   147
1040
1.75
1070
    42
1040
1.5875
1070
    44
1040
3.175
1070
   140
1040
3.5
1002
}
1001
ACAD_DSTYLE_DIM_LINETYPE
1070
   380
1005
16
1001
ACAD_DSTYLE_DIM_EXT1_LINETYPE
1070
   381
1005
16
1001
ACAD_DSTYLE_DIM_EXT2_LINETYPE
1070
   382
1005
16
0
DIMENSION
5
23E
100
AcDbEntity
8
SK2
62
256
6
ByLayer
370
13
48
1
60
0
100
AcDbDimension
2
_U6
10
83.061183
20
-6.225
30
0
11
83.061183
21
-30.756466
31
0
70
32
71
1
72
1
41
1
210
0
220
0
230
1
3
Standard
100
AcDbAlignedDimension
13
85.4
23
6.225
33
0
14
58.55
24
-6.225
34
0
50
-90
100
AcDbRotatedDimension
1001
ACAD
1000
DSTYLE
1002
{
1070
   371
1070
    13
1070
   372
1070
    13
1070
     3
1000
%%c<>
1070
   170
1070
     0
1070
   144
1040
1.0
1070
   277
1070
     2
1070
   284
1070
     8
1070
   278
1070
    44
1070
   146
1040
1.0
1070
   345
1005
16
1070
   347
1005
16
1070
   346
1005
16
1070
   344
1005
0
1070
   343
1005
0
1070
   172
1070
     1
1070
    76
1070
     0
1070
    75
1070
     0
1070
   282
1070
     0
1070
   281
1070
     0
1070
    71
1070
     0
1070
    74
1070
     0
1070
   279
1070
     0
1070
   173
1070
     1
1070
   340
1005
1A3
1070
   271
1070
     2
1070
   272
1070
     2
1070
    77
1070
     1
1070
    73
1070
     0
1070
   171
1070
     3
1070
   274
1070
     4
1070
   177
1070
     7
1070
   176
1070
     7
1070
   178
1070
     7
1070
    78
1070
     8
1070
    48
1040
-0.1
1070
    41
1040
3.175
1070
   147
1040
1.75
1070
    42
1040
1.5875
1070
    44
1040
3.175
1070
   140
1040
3.5
1002
}
1001
ACAD_DSTYLE_DIM_LINETYPE
1070
   380
1005
16
1001
ACAD_DSTYLE_DIM_EXT1_LINETYPE
1070
   381
1005
16
1001
ACAD_DSTYLE_DIM_EXT2_LINETYPE
1070
   382
1005
16
0
ENDSEC
0
SECTION
2
OBJECTS
0
DICTIONARY
5
2c7
330
0
100
AcDbDictionary
280
0
281
1
3
ACAD_GROUP
350
2c8
3
ACAD_MLINESTYLE
350
2c9
0
DICTIONARY
5
2c8
330
0
100
AcDbDictionary
280
0
281
1
0
DICTIONARY
5
2c9
330
0
100
AcDbDictionary
280
0
281
1
3
Standard
350
18
0
MLINESTYLE
5
18
330
2c9
100
AcDbMlineStyle
2
Standard
70
0
3

62
256
51
90
52
90
71
2
49
-0.5
62
256
6
ByLayer
49
0.5
62
256
6
ByLayer
0
RASTERVARIABLES
5
2b5
330

100
AcDbRasterVariables
90
0
70
1
71
1
72
1
0
ENDSEC
0
EOF
