0
SECTION
2
HEADER
9
$ACADVER
1
AC1015
9
$DWGCODEPAGE
3
ANSI_1252
9
$HANDSEED
5
452
9
$ANGBASE
50
0
9
$ANGDIR
70
0
9
$ATTMODE
70
1
9
$AUNITS
70
0
9
$AUPREC
70
0
9
$CECOLOR
62
256
9
$CELTSCALE
40
1
9
$CELTYPE
6
ByLayer
9
$CELWEIGHT
370
18
9
$CLAYER
8
0
9
$CMLJUST
70
0
9
$CMLSCALE
40
1
9
$CMLSTYLE
2
Standard
9
$DIMSTYLE
2
Standard
9
$TEXTSIZE
40
0.2
9
$TEXTSTYLE
7
Standard
9
$LUNITS
70
2
9
$LUPREC
70
4
9
$EXTNAMES
290
1
9
$INSUNITS
70
4
9
$LTSCALE
40
1
9
$LWDISPLAY
290
1
9
$PDMODE
70
0
9
$PDSIZE
40
0
9
$PLINEGEN
70
0
0
ENDSEC
0
SECTION
2
CLASSES
0
CLASS
1
RASTERVARIABLES
2
AcDbRasterVariables
3
ISM
90
0
280
0
281
0
0
ENDSEC
0
SECTION
2
TABLES
0
TABLE
2
VPORT
5
448
100
AcDbSymbolTable
0
VPORT
5
1
100
AcDbSymbolTableRecord
100
AcDbViewportTableRecord
2
*Active
70
0
10
0
20
0
11
1
21
1
12
-1
22
1
13
0
23
0
14
0.5
24
0.5
15
10
25
10
16
0
26
0
36
1
17
0
27
0
37
0
0
ENDTAB
0
TABLE
2
LTYPE
5
449
100
AcDbSymbolTable
0
LTYPE
5
14
100
AcDbSymbolTableRecord
100
AcDbLinetypeTableRecord
70
0
2
ByBlock
3

72
65
73
0
40
0
0
LTYPE
5
15
100
AcDbSymbolTableRecord
100
AcDbLinetypeTableRecord
70
0
2
ByLayer
3

72
65
73
0
40
0
0
LTYPE
5
16
100
AcDbSymbolTableRecord
100
AcDbLinetypeTableRecord
70
0
2
Continuous
3
Solid line
72
65
73
0
40
0
0
LTYPE
5
6E
100
AcDbSymbolTableRecord
100
AcDbLinetypeTableRecord
70
0
2
CENTER
3
____ _ ____ _ ____ _ ____
72
65
73
4
40
47.5
49
22
74
0
49
-8.5
74
0
49
8.5
74
0
49
-8.5
74
0
0
LTYPE
5
6F
100
AcDbSymbolTableRecord
100
AcDbLinetypeTableRecord
70
0
2
DASHED
3
__ __ __ __ __ __ __ __ __
72
65
73
2
40
25.72
49
12.86
74
0
49
-12.86
74
0
0
ENDTAB
0
TABLE
2
LAYER
5
44a
100
AcDbSymbolTable
0
LAYER
5
10
100
AcDbSymbolTableRecord
100
AcDbLayerTableRecord
2
0
70
0
62
7
6
Continuous
290
1
370
-3
390
0
0
LAYER
5
71
100
AcDbSymbolTableRecord
100
AcDbLayerTableRecord
2
1
70
0
62
4
6
Continuous
290
1
370
-3
390
0
0
LAYER
5
73
100
AcDbSymbolTableRecord
100
AcDbLayerTableRecord
2
80
70
0
62
-6
6
Continuous
290
1
370
-3
390
0
0
LAYER
5
75
100
AcDbSymbolTableRecord
100
AcDbLayerTableRecord
2
81
70
0
62
-3
6
Continuous
290
1
370
-3
390
0
0
LAYER
5
142
100
AcDbSymbolTableRecord
100
AcDbLayerTableRecord
2
4
70
0
62
-2
6
CENTER
290
1
370
-3
390
0
0
LAYER
5
17E
100
AcDbSymbolTableRecord
100
AcDbLayerTableRecord
2
2
70
0
62
7
6
Continuous
290
1
370
-3
390
0
0
LAYER
5
35C
100
AcDbSymbolTableRecord
100
AcDbLayerTableRecord
2
Defpoints
70
0
62
7
6
Continuous
290
0
370
-3
390
0
0
LAYER
5
434
100
AcDbSymbolTableRecord
100
AcDbLayerTableRecord
2
SK1
70
0
62
4
6
Continuous
290
1
370
-3
390
0
0
LAYER
5
435
100
AcDbSymbolTableRecord
100
AcDbLayerTableRecord
2
SK4
70
0
62
2
6
CENTER
290
1
370
-3
390
0
0
LAYER
5
436
100
AcDbSymbolTableRecord
100
AcDbLayerTableRecord
2
SK2
70
0
62
7
6
Continuous
290
1
370
-3
390
0
0
LAYER
5
437
100
AcDbSymbolTableRecord
100
AcDbLayerTableRecord
2
SK6
70
0
62
5
6
Continuous
290
1
370
-3
390
0
0
ENDTAB
0
TABLE
2
STYLE
5
44b
100
AcDbSymbolTable
0
STYLE
5
11
100
AcDbSymbolTableRecord
100
AcDbTextStyleTableRecord
2
Standard
3
txt
70
0
71
0
40
0
41
1
42
0
50
0
0
STYLE
5
337
100
AcDbSymbolTableRecord
100
AcDbTextStyleTableRecord
2
iso_b_vert
3
simplex.shx
70
0
71
0
40
0
41
1
42
0
50
0
0
STYLE
5
338
100
AcDbSymbolTableRecord
100
AcDbTextStyleTableRecord
2
DWGDirectTextStyle
3
simplex
70
0
71
0
40
0
41
1
42
0
50
0
0
ENDTAB
0
TABLE
2
DIMSTYLE
5
44c
100
AcDbSymbolTable
100
AcDbDimStyleTable
0
DIMSTYLE
105
27
100
AcDbSymbolTableRecord
100
AcDbDimStyleTableRecord
2
Standard
70
0
3
<>
41
0.18
42
0.0625
44
0.18
140
0.18
147
0.09
73
0
74
0
77
1
271
2
275
0
278
52
280
0
340
11
0
ENDTAB
0
TABLE
2
VIEW
5
44d
100
AcDbSymbolTable
0
ENDTAB
0
TABLE
2
UCS
5
44e
100
AcDbSymbolTable
0
ENDTAB
0
TABLE
2
APPID
5
44f
100
AcDbSymbolTable
0
APPID
5
12
100
AcDbSymbolTableRecord
100
AcDbRegAppTableRecord
2
ACAD
70
0
0
APPID
5
358
100
AcDbSymbolTableRecord
100
AcDbRegAppTableRecord
2
ACAD_DSTYLE_DIMBREAK
70
0
0
APPID
5
3F3
100
AcDbSymbolTableRecord
100
AcDbRegAppTableRecord
2
ACAD_DSTYLE_DIM_LINETYPE
70
0
0
APPID
5
3F4
100
AcDbSymbolTableRecord
100
AcDbRegAppTableRecord
2
ACAD_DSTYLE_DIM_EXT1_LINETYPE
70
0
0
APPID
5
3F5
100
AcDbSymbolTableRecord
100
AcDbRegAppTableRecord
2
ACAD_DSTYLE_DIM_EXT2_LINETYPE
70
0
0
APPID
5
430
100
AcDbSymbolTableRecord
100
AcDbRegAppTableRecord
2
ACAD_MLEADERVER
70
0
0
ENDTAB
0
TABLE
2
BLOCK_RECORD
5
450
100
AcDbSymbolTable
0
BLOCK_RECORD
5
1F
100
AcDbSymbolTableRecord
100
AcDbBlockTableRecord
2
*Model_Space
340
0
70
0
0
BLOCK_RECORD
5
1B
100
AcDbSymbolTableRecord
100
AcDbBlockTableRecord
2
*Paper_Space
340
0
70
0
0
BLOCK_RECORD
5
23
100
AcDbSymbolTableRecord
100
AcDbBlockTableRecord
2
*Paper_Space0
340
0
70
0
0
BLOCK_RECORD
5
35D
100
AcDbSymbolTableRecord
100
AcDbBlockTableRecord
2
*D1
340
0
70
0
0
BLOCK_RECORD
5
369
100
AcDbSymbolTableRecord
100
AcDbBlockTableRecord
2
_U0
340
0
70
0
0
BLOCK_RECORD
5
375
100
AcDbSymbolTableRecord
100
AcDbBlockTableRecord
2
*D3
340
0
70
0
0
BLOCK_RECORD
5
382
100
AcDbSymbolTableRecord
100
AcDbBlockTableRecord
2
_U1
340
0
70
0
0
BLOCK_RECORD
5
38E
100
AcDbSymbolTableRecord
100
AcDbBlockTableRecord
2
*D5
340
0
70
0
0
BLOCK_RECORD
5
39A
100
AcDbSymbolTableRecord
100
AcDbBlockTableRecord
2
_U2
340
0
70
0
0
BLOCK_RECORD
5
3A6
100
AcDbSymbolTableRecord
100
AcDbBlockTableRecord
2
*D7
340
0
70
0
0
BLOCK_RECORD
5
3B2
100
AcDbSymbolTableRecord
100
AcDbBlockTableRecord
2
_U3
340
0
70
0
0
BLOCK_RECORD
5
3BE
100
AcDbSymbolTableRecord
100
AcDbBlockTableRecord
2
*D9
340
0
70
0
0
BLOCK_RECORD
5
3CC
100
AcDbSymbolTableRecord
100
AcDbBlockTableRecord
2
_U4
340
0
70
0
0
ENDTAB
0
ENDSEC
0
SECTION
2
BLOCKS
0
BLOCK
5
20
100
AcDbEntity
8
0
100
AcDbBlockBegin
2
*Model_Space
70
0
10
0
20
0
30
0
3
*Model_Space
0
ENDBLK
5
21
100
AcDbEntity
8
0
100
AcDbBlockEnd
0
BLOCK
5
1C
100
AcDbEntity
8
0
100
AcDbBlockBegin
2
*Paper_Space
70
0
10
0
20
0
30
0
3
*Paper_Space
0
ENDBLK
5
1D
100
AcDbEntity
8
0
100
AcDbBlockEnd
0
BLOCK
5
24
100
AcDbEntity
8
0
100
AcDbBlockBegin
2
*Paper_Space0
70
0
10
0
20
0
30
0
3
*Paper_Space0
0
ENDBLK
5
25
100
AcDbEntity
8
0
100
AcDbBlockEnd
0
BLOCK
5
35E
100
AcDbEntity
8
0
100
AcDbBlockBegin
2
*D1
70
1
10
0
20
0
30
0
3
*D1
0
LINE
5
360
100
AcDbEntity
8
0
62
256
6
ByLayer
370
-2
48
1
60
0
100
AcDbLine
10
0
20
-17.5875
30
0
11
0
21
-68.025
31
0
39
0
210
0
220
0
230
1
0
LINE
5
361
100
AcDbEntity
8
0
62
256
6
ByLayer
370
-2
48
1
60
0
100
AcDbLine
10
97
20
-10.0875
30
0
11
97
21
-68.025
31
0
39
0
210
0
220
0
230
1
0
LINE
5
362
100
AcDbEntity
8
0
62
256
6
ByLayer
370
-2
48
1
60
0
100
AcDbLine
10
4.175
20
-64.85
30
0
11
92.825
21
-64.85
31
0
39
0
210
0
220
0
230
1
0
SOLID
5
363
100
AcDbEntity
8
0
62
256
6
ByLayer
370
-1
48
1
60
0
100
AcDbTrace
10
4.175
20
-64.154167
30
0
11
4.175
21
-65.545833
31
0
12
0
22
-64.85
32
0
13
0
23
-64.85
33
0
39
0
210
0
220
0
230
1
0
SOLID
5
364
100
AcDbEntity
8
0
62
256
6
ByLayer
370
-1
48
1
60
0
100
AcDbTrace
10
92.825
20
-65.545833
30
0
11
92.825
21
-64.154167
31
0
12
97
22
-64.85
32
0
13
97
23
-64.85
33
0
39
0
210
0
220
0
230
1
0
MTEXT
5
365
100
AcDbEntity
8
0
62
256
6
ByLayer
370
18
48
1
60
0
100
AcDbMText
10
48.5
20
-55.45625
30
0
210
0
220
0
230
1
1
\A1;97
40
4.5
41
0
44
1
50
0
71
5
72
5
7
iso_b_vert
0
POINT
5
366
100
AcDbEntity
8
Defpoints
62
0
6
ByLayer
370
-1
48
1
60
0
100
AcDbPoint
10
0
20
-16
30
0
39
0
210
0
220
0
230
1
50
360
0
POINT
5
367
100
AcDbEntity
8
Defpoints
62
0
6
ByLayer
370
-1
48
1
60
0
100
AcDbPoint
10
97
20
-8.5
30
0
39
0
210
0
220
0
230
1
50
360
0
POINT
5
368
100
AcDbEntity
8
Defpoints
62
0
6
ByLayer
370
-1
48
1
60
0
100
AcDbPoint
10
97
20
-64.85
30
0
39
0
210
0
220
0
230
1
50
360
0
ENDBLK
5
35F
100
AcDbEntity
8
0
100
AcDbBlockEnd
0
BLOCK
5
370
100
AcDbEntity
8
0
100
AcDbBlockBegin
2
_U0
70
0
10
0
20
0
30
0
3
_U0
0
MTEXT
5
36A
100
AcDbEntity
8
2
62
256
6
ByLayer
370
18
48
1
60
0
100
AcDbMText
10
46.050758
20
-63.522328
30
0
210
0
220
0
230
1
1
\W0.6740;97
40
4.5
41
0
44
1.084337
50
0
71
7
72
5
7
iso_b_vert
0
LINE
5
36B
100
AcDbEntity
8
2
62
256
6
ByLayer
370
13
48
1
60
0
100
AcDbLine
10
0
20
-17.5875
30
0
11
0
21
-68.025
31
0
39
0
210
0
220
0
230
1
0
LINE
5
36C
100
AcDbEntity
8
2
62
256
6
ByLayer
370
13
48
1
60
0
100
AcDbLine
10
97
20
-10.0875
30
0
11
97
21
-68.025
31
0
39
0
210
0
220
0
230
1
0
LINE
5
36D
100
AcDbEntity
8
2
62
256
6
ByLayer
370
13
48
1
60
0
100
AcDbLine
10
0
20
-64.85
30
0
11
97
21
-64.85
31
0
39
0
210
0
220
0
230
1
0
SOLID
5
36E
100
AcDbEntity
8
2
62
256
6
ByLayer
370
18
48
1
60
0
100
AcDbTrace
10
0
20
-64.85
30
0
11
4.174997
21
-63.924425
31
0
12
4.175003
22
-65.775575
32
0
13
4.175003
23
-65.775575
33
0
39
0
210
0
220
0
230
1
0
SOLID
5
36F
100
AcDbEntity
8
2
62
256
6
ByLayer
370
18
48
1
60
0
100
AcDbTrace
10
97
20
-64.85
30
0
11
92.825003
21
-65.775575
31
0
12
92.824997
22
-63.924425
32
0
13
92.824997
23
-63.924425
33
0
39
0
210
0
220
0
230
1
0
ENDBLK
5
371
100
AcDbEntity
8
0
100
AcDbBlockEnd
0
BLOCK
5
376
100
AcDbEntity
8
0
100
AcDbBlockBegin
2
*D3
70
1
10
0
20
0
30
0
3
*D3
0
LINE
5
378
100
AcDbEntity
8
0
62
256
6
ByLayer
370
-2
48
1
60
0
100
AcDbLine
10
-15
20
-11.5875
30
0
11
-15
21
-68.025
31
0
39
0
210
0
220
0
230
1
0
LINE
5
379
100
AcDbEntity
8
0
62
256
6
ByLayer
370
-2
48
1
60
0
100
AcDbLine
10
0
20
-17.5875
30
0
11
0
21
-68.025
31
0
39
0
210
0
220
0
230
1
0
LINE
5
37A
100
AcDbEntity
8
0
62
256
6
ByLayer
370
-2
48
1
60
0
100
AcDbLine
10
-19.175
20
-64.85
30
0
11
-23.35
21
-64.85
31
0
39
0
210
0
220
0
230
1
0
LINE
5
37B
100
AcDbEntity
8
0
62
256
6
ByLayer
370
-2
48
1
60
0
100
AcDbLine
10
4.175
20
-64.85
30
0
11
8.35
21
-64.85
31
0
39
0
210
0
220
0
230
1
0
SOLID
5
37C
100
AcDbEntity
8
0
62
256
6
ByLayer
370
-1
48
1
60
0
100
AcDbTrace
10
-19.175
20
-65.545833
30
0
11
-19.175
21
-64.154167
31
0
12
-15
22
-64.85
32
0
13
-15
23
-64.85
33
0
39
0
210
0
220
0
230
1
0
SOLID
5
37D
100
AcDbEntity
8
0
62
256
6
ByLayer
370
-1
48
1
60
0
100
AcDbTrace
10
4.175
20
-64.154167
30
0
11
4.175
21
-65.545833
31
0
12
0
22
-64.85
32
0
13
0
23
-64.85
33
0
39
0
210
0
220
0
230
1
0
MTEXT
5
37E
100
AcDbEntity
8
0
62
256
6
ByLayer
370
18
48
1
60
0
100
AcDbMText
10
-7.5
20
-55.45625
30
0
210
0
220
0
230
1
1
\A1;15
40
4.5
41
0
44
1
50
0
71
5
72
5
7
iso_b_vert
0
POINT
5
37F
100
AcDbEntity
8
Defpoints
62
0
6
ByLayer
370
-1
48
1
60
0
100
AcDbPoint
10
-15
20
-10
30
0
39
0
210
0
220
0
230
1
50
360
0
POINT
5
380
100
AcDbEntity
8
Defpoints
62
0
6
ByLayer
370
-1
48
1
60
0
100
AcDbPoint
10
0
20
-16
30
0
39
0
210
0
220
0
230
1
50
360
0
POINT
5
381
100
AcDbEntity
8
Defpoints
62
0
6
ByLayer
370
-1
48
1
60
0
100
AcDbPoint
10
0
20
-64.85
30
0
39
0
210
0
220
0
230
1
50
360
0
ENDBLK
5
377
100
AcDbEntity
8
0
100
AcDbBlockEnd
0
BLOCK
5
389
100
AcDbEntity
8
0
100
AcDbBlockBegin
2
_U1
70
0
10
0
20
0
30
0
3
_U1
0
MTEXT
5
383
100
AcDbEntity
8
SK2
62
256
6
ByLayer
370
18
48
1
60
0
100
AcDbMText
10
-9.386828
20
-63.522328
30
0
210
0
220
0
230
1
1
\W0.5321;15
40
4.5
41
0
44
1.084337
50
0
71
7
72
5
7
iso_b_vert
0
LINE
5
384
100
AcDbEntity
8
SK2
62
256
6
ByLayer
370
13
48
1
60
0
100
AcDbLine
10
-15
20
-11.5875
30
0
11
-15
21
-68.025
31
0
39
0
210
0
220
0
230
1
0
LINE
5
385
100
AcDbEntity
8
SK2
62
256
6
ByLayer
370
13
48
1
60
0
100
AcDbLine
10
0
20
-17.5875
30
0
11
0
21
-68.025
31
0
39
0
210
0
220
0
230
1
0
LINE
5
386
100
AcDbEntity
8
SK2
62
256
6
ByLayer
370
13
48
1
60
0
100
AcDbLine
10
-26.25
20
-64.85
30
0
11
11.25
21
-64.85
31
0
39
0
210
0
220
0
230
1
0
SOLID
5
387
100
AcDbEntity
8
SK2
62
256
6
ByLayer
370
18
48
1
60
0
100
AcDbTrace
10
-15
20
-64.85
30
0
11
-19.174997
21
-65.775575
31
0
12
-19.175003
22
-63.924425
32
0
13
-19.175003
23
-63.924425
33
0
39
0
210
0
220
0
230
1
0
SOLID
5
388
100
AcDbEntity
8
SK2
62
256
6
ByLayer
370
18
48
1
60
0
100
AcDbTrace
10
0
20
-64.85
30
0
11
4.174997
21
-63.924425
31
0
12
4.175003
22
-65.775575
32
0
13
4.175003
23
-65.775575
33
0
39
0
210
0
220
0
230
1
0
ENDBLK
5
38A
100
AcDbEntity
8
0
100
AcDbBlockEnd
0
BLOCK
5
38F
100
AcDbEntity
8
0
100
AcDbBlockBegin
2
*D5
70
1
10
0
20
0
30
0
3
*D5
0
LINE
5
391
100
AcDbEntity
8
0
62
256
6
ByLayer
370
-2
48
1
60
0
100
AcDbLine
10
97
20
-10.0875
30
0
11
97
21
-58.025
31
0
39
0
210
0
220
0
230
1
0
LINE
5
392
100
AcDbEntity
8
0
62
256
6
ByLayer
370
-2
48
1
60
0
100
AcDbLine
10
13.6851
20
-17.5875
30
0
11
13.6851
21
-58.025
31
0
39
0
210
0
220
0
230
1
0
LINE
5
393
100
AcDbEntity
8
0
62
256
6
ByLayer
370
-2
48
1
60
0
100
AcDbLine
10
92.825
20
-54.85
30
0
11
17.8601
21
-54.85
31
0
39
0
210
0
220
0
230
1
0
SOLID
5
394
100
AcDbEntity
8
0
62
256
6
ByLayer
370
-1
48
1
60
0
100
AcDbTrace
10
92.825
20
-55.545833
30
0
11
92.825
21
-54.154167
31
0
12
97
22
-54.85
32
0
13
97
23
-54.85
33
0
39
0
210
0
220
0
230
1
0
SOLID
5
395
100
AcDbEntity
8
0
62
256
6
ByLayer
370
-1
48
1
60
0
100
AcDbTrace
10
17.8601
20
-54.154167
30
0
11
17.8601
21
-55.545833
31
0
12
13.6851
22
-54.85
32
0
13
13.6851
23
-54.85
33
0
39
0
210
0
220
0
230
1
0
MTEXT
5
396
100
AcDbEntity
8
0
62
256
6
ByLayer
370
18
48
1
60
0
100
AcDbMText
10
55.34255
20
-45.45625
30
0
210
0
220
0
230
1
1
\A1;83.3
40
4.5
41
0
44
1
50
0
71
5
72
5
7
iso_b_vert
0
POINT
5
397
100
AcDbEntity
8
Defpoints
62
0
6
ByLayer
370
-1
48
1
60
0
100
AcDbPoint
10
97
20
-8.5
30
0
39
0
210
0
220
0
230
1
50
360
0
POINT
5
398
100
AcDbEntity
8
Defpoints
62
0
6
ByLayer
370
-1
48
1
60
0
100
AcDbPoint
10
13.6851
20
-16
30
0
39
0
210
0
220
0
230
1
50
360
0
POINT
5
399
100
AcDbEntity
8
Defpoints
62
0
6
ByLayer
370
-1
48
1
60
0
100
AcDbPoint
10
13.6851
20
-54.85
30
0
39
0
210
0
220
0
230
1
50
360
0
ENDBLK
5
390
100
AcDbEntity
8
0
100
AcDbBlockEnd
0
BLOCK
5
3A1
100
AcDbEntity
8
0
100
AcDbBlockBegin
2
_U2
70
0
10
0
20
0
30
0
3
_U2
0
MTEXT
5
39B
100
AcDbEntity
8
SK2
62
256
6
ByLayer
370
18
48
1
60
0
100
AcDbMText
10
50.300366
20
-53.522328
30
0
210
0
220
0
230
1
1
\W0.7346;83.3
40
4.5
41
0
44
1.084337
50
0
71
7
72
5
7
iso_b_vert
0
LINE
5
39C
100
AcDbEntity
8
SK2
62
256
6
ByLayer
370
13
48
1
60
0
100
AcDbLine
10
97
20
-10.0875
30
0
11
97
21
-58.025
31
0
39
0
210
0
220
0
230
1
0
LINE
5
39D
100
AcDbEntity
8
SK2
62
256
6
ByLayer
370
13
48
1
60
0
100
AcDbLine
10
13.6851
20
-17.5875
30
0
11
13.6851
21
-58.025
31
0
39
0
210
0
220
0
230
1
0
LINE
5
39E
100
AcDbEntity
8
SK2
62
256
6
ByLayer
370
13
48
1
60
0
100
AcDbLine
10
97
20
-54.85
30
0
11
13.6851
21
-54.85
31
0
39
0
210
0
220
0
230
1
0
SOLID
5
39F
100
AcDbEntity
8
SK2
62
256
6
ByLayer
370
18
48
1
60
0
100
AcDbTrace
10
97
20
-54.85
30
0
11
92.825003
21
-55.775575
31
0
12
92.824997
22
-53.924425
32
0
13
92.824997
23
-53.924425
33
0
39
0
210
0
220
0
230
1
0
SOLID
5
3A0
100
AcDbEntity
8
SK2
62
256
6
ByLayer
370
18
48
1
60
0
100
AcDbTrace
10
13.6851
20
-54.85
30
0
11
17.860097
21
-53.924425
31
0
12
17.860103
22
-55.775575
32
0
13
17.860103
23
-55.775575
33
0
39
0
210
0
220
0
230
1
0
ENDBLK
5
3A2
100
AcDbEntity
8
0
100
AcDbBlockEnd
0
BLOCK
5
3A7
100
AcDbEntity
8
0
100
AcDbBlockBegin
2
*D7
70
1
10
0
20
0
30
0
3
*D7
0
LINE
5
3A9
100
AcDbEntity
8
0
62
256
6
ByLayer
370
-2
48
1
60
0
100
AcDbLine
10
26
20
-10.0875
30
0
11
26
21
-48.025
31
0
39
0
210
0
220
0
230
1
0
LINE
5
3AA
100
AcDbEntity
8
0
62
256
6
ByLayer
370
-2
48
1
60
0
100
AcDbLine
10
97
20
-10.0875
30
0
11
97
21
-48.025
31
0
39
0
210
0
220
0
230
1
0
LINE
5
3AB
100
AcDbEntity
8
0
62
256
6
ByLayer
370
-2
48
1
60
0
100
AcDbLine
10
30.175
20
-44.85
30
0
11
92.825
21
-44.85
31
0
39
0
210
0
220
0
230
1
0
SOLID
5
3AC
100
AcDbEntity
8
0
62
256
6
ByLayer
370
-1
48
1
60
0
100
AcDbTrace
10
30.175
20
-44.154167
30
0
11
30.175
21
-45.545833
31
0
12
26
22
-44.85
32
0
13
26
23
-44.85
33
0
39
0
210
0
220
0
230
1
0
SOLID
5
3AD
100
AcDbEntity
8
0
62
256
6
ByLayer
370
-1
48
1
60
0
100
AcDbTrace
10
92.825
20
-45.545833
30
0
11
92.825
21
-44.154167
31
0
12
97
22
-44.85
32
0
13
97
23
-44.85
33
0
39
0
210
0
220
0
230
1
0
MTEXT
5
3AE
100
AcDbEntity
8
0
62
256
6
ByLayer
370
18
48
1
60
0
100
AcDbMText
10
61.5
20
-35.45625
30
0
210
0
220
0
230
1
1
\A1;71
40
4.5
41
0
44
1
50
0
71
5
72
5
7
iso_b_vert
0
POINT
5
3AF
100
AcDbEntity
8
Defpoints
62
0
6
ByLayer
370
-1
48
1
60
0
100
AcDbPoint
10
26
20
-8.5
30
0
39
0
210
0
220
0
230
1
50
360
0
POINT
5
3B0
100
AcDbEntity
8
Defpoints
62
0
6
ByLayer
370
-1
48
1
60
0
100
AcDbPoint
10
97
20
-8.5
30
0
39
0
210
0
220
0
230
1
50
360
0
POINT
5
3B1
100
AcDbEntity
8
Defpoints
62
0
6
ByLayer
370
-1
48
1
60
0
100
AcDbPoint
10
97
20
-44.85
30
0
39
0
210
0
220
0
230
1
50
360
0
ENDBLK
5
3A8
100
AcDbEntity
8
0
100
AcDbBlockEnd
0
BLOCK
5
3B9
100
AcDbEntity
8
0
100
AcDbBlockBegin
2
_U3
70
0
10
0
20
0
30
0
3
_U3
0
MTEXT
5
3B3
100
AcDbEntity
8
SK2
62
256
6
ByLayer
370
18
48
1
60
0
100
AcDbMText
10
59.613172
20
-43.522328
30
0
210
0
220
0
230
1
1
\W0.6351;71
40
4.5
41
0
44
1.084337
50
0
71
7
72
5
7
iso_b_vert
0
LINE
5
3B4
100
AcDbEntity
8
SK2
62
256
6
ByLayer
370
13
48
1
60
0
100
AcDbLine
10
26
20
-10.0875
30
0
11
26
21
-48.025
31
0
39
0
210
0
220
0
230
1
0
LINE
5
3B5
100
AcDbEntity
8
SK2
62
256
6
ByLayer
370
13
48
1
60
0
100
AcDbLine
10
97
20
-10.0875
30
0
11
97
21
-48.025
31
0
39
0
210
0
220
0
230
1
0
LINE
5
3B6
100
AcDbEntity
8
SK2
62
256
6
ByLayer
370
13
48
1
60
0
100
AcDbLine
10
26
20
-44.85
30
0
11
97
21
-44.85
31
0
39
0
210
0
220
0
230
1
0
SOLID
5
3B7
100
AcDbEntity
8
SK2
62
256
6
ByLayer
370
18
48
1
60
0
100
AcDbTrace
10
26
20
-44.85
30
0
11
30.174997
21
-43.924425
31
0
12
30.175003
22
-45.775575
32
0
13
30.175003
23
-45.775575
33
0
39
0
210
0
220
0
230
1
0
SOLID
5
3B8
100
AcDbEntity
8
SK2
62
256
6
ByLayer
370
18
48
1
60
0
100
AcDbTrace
10
97
20
-44.85
30
0
11
92.825003
21
-45.775575
31
0
12
92.824997
22
-43.924425
32
0
13
92.824997
23
-43.924425
33
0
39
0
210
0
220
0
230
1
0
ENDBLK
5
3BA
100
AcDbEntity
8
0
100
AcDbBlockEnd
0
BLOCK
5
3BF
100
AcDbEntity
8
0
100
AcDbBlockBegin
2
*D9
70
1
10
0
20
0
30
0
3
*D9
0
LINE
5
3C1
100
AcDbEntity
8
0
62
256
6
ByLayer
370
-2
48
1
60
0
100
AcDbLine
10
96.5369
20
-5.8375
30
0
11
96.5369
21
-38.025
31
0
39
0
210
0
220
0
230
1
0
LINE
5
3C2
100
AcDbEntity
8
0
62
256
6
ByLayer
370
-2
48
1
60
0
100
AcDbLine
10
97
20
-1.5875
30
0
11
97
21
-38.025
31
0
39
0
210
0
220
0
230
1
0
LINE
5
3C3
100
AcDbEntity
8
0
62
256
6
ByLayer
370
-2
48
1
60
0
100
AcDbLine
10
97
20
-34.85
30
0
11
133.351786
21
-34.85
31
0
39
0
210
0
220
0
230
1
0
LINE
5
3C4
100
AcDbEntity
8
0
62
256
6
ByLayer
370
-2
48
1
60
0
100
AcDbLine
10
92.3619
20
-34.85
30
0
11
88.1869
21
-34.85
31
0
39
0
210
0
220
0
230
1
0
LINE
5
3C5
100
AcDbEntity
8
0
62
256
6
ByLayer
370
-2
48
1
60
0
100
AcDbLine
10
101.175
20
-34.85
30
0
11
105.35
21
-34.85
31
0
39
0
210
0
220
0
230
1
0
SOLID
5
3C6
100
AcDbEntity
8
0
62
256
6
ByLayer
370
-1
48
1
60
0
100
AcDbTrace
10
92.3619
20
-35.545833
30
0
11
92.3619
21
-34.154167
31
0
12
96.5369
22
-34.85
32
0
13
96.5369
23
-34.85
33
0
39
0
210
0
220
0
230
1
0
SOLID
5
3C7
100
AcDbEntity
8
0
62
256
6
ByLayer
370
-1
48
1
60
0
100
AcDbTrace
10
101.175
20
-34.154167
30
0
11
101.175
21
-35.545833
31
0
12
97
22
-34.85
32
0
13
97
23
-34.85
33
0
39
0
210
0
220
0
230
1
0
MTEXT
5
3C8
100
AcDbEntity
8
0
62
256
6
ByLayer
370
18
48
1
60
0
100
AcDbMText
10
119.350893
20
-25.45625
30
0
210
0
220
0
230
1
1
\A1;0.46
40
4.5
41
0
44
1
50
0
71
5
72
5
7
iso_b_vert
0
POINT
5
3C9
100
AcDbEntity
8
Defpoints
62
0
6
ByLayer
370
-1
48
1
60
0
100
AcDbPoint
10
96.5369
20
-4.25
30
0
39
0
210
0
220
0
230
1
50
360
0
POINT
5
3CA
100
AcDbEntity
8
Defpoints
62
0
6
ByLayer
370
-1
48
1
60
0
100
AcDbPoint
10
97
20
0
30
0
39
0
210
0
220
0
230
1
50
360
0
POINT
5
3CB
100
AcDbEntity
8
Defpoints
62
0
6
ByLayer
370
-1
48
1
60
0
100
AcDbPoint
10
97
20
-34.85
30
0
39
0
210
0
220
0
230
1
50
360
0
ENDBLK
5
3C0
100
AcDbEntity
8
0
100
AcDbBlockEnd
0
BLOCK
5
3D3
100
AcDbEntity
8
0
100
AcDbBlockBegin
2
_U4
70
0
10
0
20
0
30
0
3
_U4
0
MTEXT
5
3CD
100
AcDbEntity
8
2
62
256
6
ByLayer
370
18
48
1
60
0
100
AcDbMText
10
109.351
20
-33.522328
30
0
210
0
220
0
230
1
1
\W0.7640;0.46
40
4.5
41
0
44
1.084337
50
0
71
7
72
5
7
iso_b_vert
0
LINE
5
3CE
100
AcDbEntity
8
2
62
256
6
ByLayer
370
13
48
1
60
0
100
AcDbLine
10
96.5369
20
-5.8375
30
0
11
96.5369
21
-38.025
31
0
39
0
210
0
220
0
230
1
0
LINE
5
3CF
100
AcDbEntity
8
2
62
256
6
ByLayer
370
13
48
1
60
0
100
AcDbLine
10
97
20
-1.5875
30
0
11
97
21
-38.025
31
0
39
0
210
0
220
0
230
1
0
LINE
5
3D0
100
AcDbEntity
8
2
62
256
6
ByLayer
370
13
48
1
60
0
100
AcDbLine
10
120.147698
20
-34.85
30
0
11
85.2869
21
-34.85
31
0
39
0
210
0
220
0
230
1
0
SOLID
5
3D1
100
AcDbEntity
8
2
62
256
6
ByLayer
370
18
48
1
60
0
100
AcDbTrace
10
96.5369
20
-34.85
30
0
11
92.361903
21
-35.775575
31
0
12
92.361897
22
-33.924425
32
0
13
92.361897
23
-33.924425
33
0
39
0
210
0
220
0
230
1
0
SOLID
5
3D2
100
AcDbEntity
8
2
62
256
6
ByLayer
370
18
48
1
60
0
100
AcDbTrace
10
97
20
-34.85
30
0
11
101.174997
21
-33.924425
31
0
12
101.175003
22
-35.775575
32
0
13
101.175003
23
-35.775575
33
0
39
0
210
0
220
0
230
1
0
ENDBLK
5
3D4
100
AcDbEntity
8
0
100
AcDbBlockEnd
0
ENDSEC
0
SECTION
2
ENTITIES
0
ARC
5
187
100
AcDbEntity
8
SK1
62
256
6
ByLayer
370
13
48
1
60
0
100
AcDbCircle
39
0
10
-0.3
20
10.4
30
0
40
0.599999999999998
210
0
220
0
230
1
100
AcDbArc
50
270
51
300
0
ARC
5
188
100
AcDbEntity
8
SK1
62
256
6
ByLayer
370
13
48
1
60
0
100
AcDbCircle
39
0
10
-0.3
20
-10.4
30
0
40
0.599999999999998
210
0
220
0
230
1
100
AcDbArc
50
60
51
90
0
ARC
5
189
100
AcDbEntity
8
1
62
256
6
ByLayer
370
13
48
1
60
0
100
AcDbCircle
39
0
10
5.5
20
-13
30
0
40
0.5
210
0
220
0
230
1
100
AcDbArc
50
90
51
180
0
ARC
5
18A
100
AcDbEntity
8
1
62
256
6
ByLayer
370
13
48
1
60
0
100
AcDbCircle
39
0
10
5.5
20
13
30
0
40
0.5
210
0
220
0
230
1
100
AcDbArc
50
180
51
270
0
ARC
5
18B
100
AcDbEntity
8
1
62
256
6
ByLayer
370
13
48
1
60
0
100
AcDbCircle
39
0
10
95.351672
20
7.894457
30
0
40
0.075
210
0
220
0
230
1
100
AcDbArc
50
8.974534
51
93
0
ARC
5
18C
100
AcDbEntity
8
1
62
256
6
ByLayer
370
13
48
1
60
0
100
AcDbCircle
39
0
10
95.379489
20
3.639419
30
0
40
0.075
210
0
220
0
230
1
100
AcDbArc
50
273
51
352.543899
0
ARC
5
18D
100
AcDbEntity
8
1
62
256
6
ByLayer
370
13
48
1
60
0
100
AcDbCircle
39
0
10
90.077816
20
7.522202
30
0
40
0.075
210
0
220
0
230
1
100
AcDbArc
50
71.092405
51
93
0
ARC
5
18E
100
AcDbEntity
8
1
62
256
6
ByLayer
370
13
48
1
60
0
100
AcDbCircle
39
0
10
90.105633
20
3.267163
30
0
40
0.075
210
0
220
0
230
1
100
AcDbArc
50
273
51
303.323645
0
ELLIPSE
5
18F
100
AcDbEntity
8
1
62
256
6
ByLayer
370
13
48
1
60
0
100
AcDbEllipse
10
89.196056
20
3.427978
30
0
11
-1.01442627171683
21
0.817341028106807
31
0
210
0
220
0
230
1
40
0.775936
41
-3.0761743985494
42
-2.84372364270313
0
ELLIPSE
5
190
100
AcDbEntity
8
1
62
256
6
ByLayer
370
13
48
1
60
0
100
AcDbEllipse
10
96.436641
20
-0.316515
30
0
11
-0.0212858745502527
21
1.01119955287727
31
0
210
0
220
0
230
1
40
0.102284
41
0.099815685572138
42
0.638181363491244
0
ELLIPSE
5
191
100
AcDbEntity
8
1
62
256
6
ByLayer
370
13
48
1
60
0
100
AcDbEllipse
10
84.5
20
2.116863
30
0
11
-1.5
21
1.51595858262354E-15
31
0
210
0
220
0
230
1
40
0.748122
41
-3.10481847924149
42
-1.68821969592169
0
ELLIPSE
5
192
100
AcDbEntity
8
1
62
256
6
ByLayer
370
13
48
1
60
0
100
AcDbEllipse
10
90.694695
20
3.426912
30
0
11
0.276595201761473
21
-0.960986521426045
31
0
210
0
220
0
230
1
40
0.090002
41
-1.25648776912568
42
-0.0208700618441181
0
ELLIPSE
5
193
100
AcDbEntity
8
1
62
256
6
ByLayer
370
13
48
1
60
0
100
AcDbEllipse
10
87.938773
20
3.60468
30
0
11
-0.0261679781214713
21
0.499314767377287
31
0
210
0
220
0
230
1
40
0.995725
41
-1.71815362421731
42
-1.46607657167523
0
ELLIPSE
5
194
100
AcDbEntity
8
1
62
256
6
ByLayer
370
13
48
1
60
0
100
AcDbEllipse
10
87.866487
20
3.452255
30
0
11
-0.293690420649016
21
-0.955900589401955
31
0
210
0
220
0
230
1
40
0.0868
41
-1.53907871771949
42
-0.298682360788421
0
ELLIPSE
5
195
100
AcDbEntity
8
1
62
256
6
ByLayer
370
13
48
1
60
0
100
AcDbEllipse
10
99.572372
20
0.915513
30
0
11
-3.89198186885042
21
-1.33287307027853
31
0
210
0
220
0
230
1
40
0.851941
41
-0.376576292408922
42
-0.2290242229485
0
ELLIPSE
5
196
100
AcDbEntity
8
1
62
256
6
ByLayer
370
13
48
1
60
0
100
AcDbEllipse
10
87.086892
20
2.616481
30
0
11
-3.96879669058329
21
-0.704906655599697
31
0
210
0
220
0
230
1
40
0.015321
41
-3.01817314129312
42
-2.85180693914462
0
ELLIPSE
5
197
100
AcDbEntity
8
1
62
256
6
ByLayer
370
13
48
1
60
0
100
AcDbEllipse
10
377.461907
20
0
30
0
11
-431.524423712916
21
6.36778173861095
31
0
210
0
220
0
230
1
40
0.012292
41
0.83337217402453
42
0.859016735089167
0
ELLIPSE
5
198
100
AcDbEntity
8
1
62
256
6
ByLayer
370
13
48
1
60
0
100
AcDbEllipse
10
103.739787
20
1E-05
30
0
11
-89.4601365849111
21
0.0405823503717817
31
0
210
0
220
0
230
1
40
0.092638
41
-1.40203756397295
42
-1.38541500732124
0
ELLIPSE
5
199
100
AcDbEntity
8
1
62
256
6
ByLayer
370
13
48
1
60
0
100
AcDbEllipse
10
92.334751
20
-2.043452
30
0
11
-4.02199398991197
21
-0.0175491048980929
31
0
210
0
220
0
230
1
40
0.989074
41
3.00708463609576
42
-2.98967732664646
0
ELLIPSE
5
19A
100
AcDbEntity
8
1
62
256
6
ByLayer
370
13
48
1
60
0
100
AcDbEllipse
10
93.578343
20
-3.251825
30
0
11
-4.73602539551623
21
4.19501170283355
31
0
210
0
220
0
230
1
40
0.895524
41
-0.738437595780961
42
-0.511489321065353
0
ELLIPSE
5
19B
100
AcDbEntity
8
1
62
256
6
ByLayer
370
13
48
1
60
0
100
AcDbEllipse
10
84.5
20
1.671163
30
0
11
-0.196367296169397
21
5.86351868412966
31
0
210
0
220
0
230
1
40
0.339444
41
-0.540738635853068
42
-0.469288455853261
0
ELLIPSE
5
19C
100
AcDbEntity
8
1
62
256
6
ByLayer
370
13
48
1
60
0
100
AcDbEllipse
10
88.996225
20
8.216373
30
0
11
-4.7360252978674
21
4.19501200253066
31
0
210
0
220
0
230
1
40
0.895524
41
2.57516699630834
42
2.63010337815968
0
ELLIPSE
5
19D
100
AcDbEntity
8
1
62
256
6
ByLayer
370
13
48
1
60
0
100
AcDbEllipse
10
93.251323
20
4.391535
30
0
11
-0.732303156374292
21
-0.908883238770244
31
0
210
0
220
0
230
1
40
0.966608
41
0.713732917048384
42
1.21121301697663
0
ELLIPSE
5
19E
100
AcDbEntity
8
1
62
256
6
ByLayer
370
13
48
1
60
0
100
AcDbEllipse
10
90.169408
20
2.778029
30
0
11
-3.96879667666251
21
-0.704906653083894
31
0
210
0
220
0
230
1
40
0.015321
41
-3.01817314104905
42
-2.85180693863421
0
ELLIPSE
5
19F
100
AcDbEntity
8
1
62
256
6
ByLayer
370
13
48
1
60
0
100
AcDbEllipse
10
100.087807
20
0.407355
30
0
11
-4.02199396208469
21
-0.0175489523598365
31
0
210
0
220
0
230
1
40
0.989074
41
0.0470008617652218
42
0.151915364962867
0
ELLIPSE
5
1A0
100
AcDbEntity
8
1
62
256
6
ByLayer
370
13
48
1
60
0
100
AcDbEllipse
10
89.574365
20
3.447804
30
0
11
0.0601863496793835
21
-1.14842396496776
31
0
210
0
220
0
230
1
40
0.995725
41
-1.7181536242173
42
-1.487161260054
0
ELLIPSE
5
1A1
100
AcDbEntity
8
1
62
256
6
ByLayer
370
13
48
1
60
0
100
AcDbEllipse
10
3.5
20
-13.590868
30
0
11
-0.5
21
5.05319527541181E-16
31
0
210
0
220
0
230
1
40
0.5
41
1.5707963267949
42
3.14159265358979
0
ELLIPSE
5
1A2
100
AcDbEntity
8
1
62
256
6
ByLayer
370
13
48
1
60
0
100
AcDbEllipse
10
89.052947
20
0
30
0
11
-0.438094304410533
21
8.28740062651117
31
0
210
0
220
0
230
1
40
0.092638
41
-0.136394501211247
42
-0.00209161465562063
0
ELLIPSE
5
1A3
100
AcDbEntity
8
1
62
256
6
ByLayer
370
13
48
1
60
0
100
AcDbEllipse
10
96.437766
20
2.940645
30
0
11
-0.0190690712691735
21
-0.501607032524971
31
0
210
0
220
0
230
1
40
0.195483
41
-0.331356151690413
42
-0.150977782537607
0
ELLIPSE
5
1A4
100
AcDbEntity
8
1
62
256
6
ByLayer
370
13
48
1
60
0
100
AcDbEllipse
10
96.94554
20
0
30
0
11
-1.0079231546304
21
-8.28666857107851
31
0
210
0
220
0
230
1
40
0.116466
41
-1.31289027138319
42
-0.0772812711855194
0
ELLIPSE
5
1A5
100
AcDbEntity
8
1
62
256
6
ByLayer
370
13
48
1
60
0
100
AcDbEllipse
10
89.480113
20
3.442864
30
0
11
-0.732294124625412
21
-0.908888575529901
31
0
210
0
220
0
230
1
40
0.966607
41
1.81546900396693
42
1.84639523445956
0
ELLIPSE
5
1A6
100
AcDbEntity
8
1
62
256
6
ByLayer
370
13
48
1
60
0
100
AcDbEllipse
10
96.318894
20
0.041075
30
0
11
-0.0106429372738697
21
0.505599776385047
31
0
210
0
220
0
230
1
40
0.102284
41
-0.119417334525468
42
0.165741011875606
0
ELLIPSE
5
1A7
100
AcDbEntity
8
1
62
256
6
ByLayer
370
13
48
1
60
0
100
AcDbEllipse
10
92.617805
20
-3.302165
30
0
11
-0.314015737457656
21
5.99177720852744
31
0
210
0
220
0
230
1
40
0.995725
41
0
42
0.226948274703341
0
ELLIPSE
5
1A8
100
AcDbEntity
8
1
62
256
6
ByLayer
370
13
48
1
60
0
100
AcDbEllipse
10
135.625714
20
-0.014341
30
0
11
-104.254505608061
21
0.0472574017649871
31
0
210
0
220
0
230
1
40
0.088199
41
-1.08827744249634
42
-1.0637584525316
0
ELLIPSE
5
1A9
100
AcDbEntity
8
1
62
256
6
ByLayer
370
13
48
1
60
0
100
AcDbEllipse
10
96.143734
20
-4.360569
30
0
11
-0.06409255216586
21
-0.515993973704946
31
0
210
0
220
0
230
1
40
0.112986
41
-1.64178081090291
42
-0.070984484106998
0
ELLIPSE
5
1AA
100
AcDbEntity
8
1
62
256
6
ByLayer
370
13
48
1
60
0
100
AcDbEllipse
10
96.385814
20
2.937922
30
0
11
-0.00949364098113965
21
0.500185554709563
31
0
210
0
220
0
230
1
40
0.104996
41
1.92336842009513
42
-2.96939893051368
0
ELLIPSE
5
1AB
100
AcDbEntity
8
1
62
256
6
ByLayer
370
13
48
1
60
0
100
AcDbEllipse
10
87.510681
20
0.000273
30
0
11
-1.10663987282484
21
-8.28662348078717
31
0
210
0
220
0
230
1
40
0.0904
41
2.98980001591443
42
3.00315319865948
0
ELLIPSE
5
1AC
100
AcDbEntity
8
1
62
256
6
ByLayer
370
13
48
1
60
0
100
AcDbEllipse
10
89.419993
20
4.758147
30
0
11
0.0601863496793835
21
-1.14842396496776
31
0
210
0
220
0
230
1
40
0.995725
41
-1.85185662295886
42
-1.46607657167525
0
ELLIPSE
5
1AD
100
AcDbEntity
8
1
62
256
6
ByLayer
370
13
48
1
60
0
100
AcDbEllipse
10
88.87413
20
5.609951
30
0
11
-0.143594274789264
21
2.73994198478392
31
0
210
0
220
0
230
1
40
0.016833
41
0.313088593036815
42
0.896385686648046
0
ELLIPSE
5
1AE
100
AcDbEntity
8
1
62
256
6
ByLayer
370
13
48
1
60
0
100
AcDbEllipse
10
89.2288
20
8.228562
30
0
11
-0.261679781214713
21
4.99314767377287
31
0
210
0
220
0
230
1
40
0.995725
41
2.79252680319533
42
2.92987709869104
0
ELLIPSE
5
1AF
100
AcDbEntity
8
1
62
256
6
ByLayer
370
13
48
1
60
0
100
AcDbEllipse
10
84.5
20
2.467382
30
0
11
-1.99984856375276
21
0.0305723189977354
31
0
210
0
220
0
230
1
40
0.804789
41
1.92464695310481
42
1.99076685317679
0
ELLIPSE
5
1B0
100
AcDbEntity
8
1
62
256
6
ByLayer
370
13
48
1
60
0
100
AcDbEllipse
10
96.29275
20
0
30
0
11
-1.40706523007668
21
8.28662341537356
31
0
210
0
220
0
230
1
40
0.085662
41
1.53899429121669
42
1.65669612563356
0
ELLIPSE
5
1B1
100
AcDbEntity
8
1
62
256
6
ByLayer
370
13
48
1
60
0
100
AcDbEllipse
10
95.829978
20
-4.576311
30
0
11
-0.095450424224039
21
-0.794412947956761
31
0
210
0
220
0
230
1
40
0.116989
41
0
42
6.28318530717959
0
ELLIPSE
5
1B2
100
AcDbEntity
8
1
62
256
6
ByLayer
370
13
48
1
60
0
100
AcDbEllipse
10
92.251453
20
3.688242
30
0
11
0.0523359562429422
21
-0.998629534754574
31
0
210
0
220
0
230
1
40
0.092371
41
-1.04719755119663
42
-4.80766918026288E-15
0
ELLIPSE
5
1B3
100
AcDbEntity
8
1
62
256
6
ByLayer
370
13
48
1
60
0
100
AcDbEllipse
10
87.668959
20
3.590539
30
0
11
0.0523359562429422
21
-0.998629534754574
31
0
210
0
220
0
230
1
40
0.995725
41
1.42343902937248
42
1.67551608191456
0
ELLIPSE
5
1B4
100
AcDbEntity
8
1
62
256
6
ByLayer
370
13
48
1
60
0
100
AcDbEllipse
10
96.065975
20
3.888153
30
0
11
-0.0189872819564866
21
1.00037110929717
31
0
210
0
220
0
230
1
40
0.104996
41
-3.13808641069017
42
-2.58327537767547
0
ELLIPSE
5
1B5
100
AcDbEntity
8
1
62
256
6
ByLayer
370
13
48
1
60
0
100
AcDbEllipse
10
94.061488
20
2.982004
30
0
11
-0.318392676974266
21
-0.395166625266975
31
0
210
0
220
0
230
1
40
0.966608
41
-2.26095467956243
42
-1.93037963580855
0
ELLIPSE
5
1B6
100
AcDbEntity
8
1
62
256
6
ByLayer
370
13
48
1
60
0
100
AcDbEllipse
10
96.36692
20
-0.60953
30
0
11
-0.939987860731203
21
1.49804888152532
31
0
210
0
220
0
230
1
40
0.381386
41
-0.963656174268441
42
-0.793752444084237
0
ELLIPSE
5
1B7
100
AcDbEntity
8
1
62
256
6
ByLayer
370
18
48
1
60
0
100
AcDbEllipse
10
92.658252
20
5.577121
30
0
11
0.0354942455239634
21
-0.677270550470552
31
0
210
0
220
0
230
1
40
0.995725
41
2.0943951023932
42
-3.14159265358977
0
ELLIPSE
5
1B8
100
AcDbEntity
8
1
62
256
6
ByLayer
370
18
48
1
60
0
100
AcDbEllipse
10
93.350708
20
5.222675
30
0
11
-0.0928160042493236
21
-0.183547697065581
31
0
210
0
220
0
230
1
40
0.49529
41
-2.73559040010495
42
-1.57323145714537
0
ELLIPSE
5
1B9
100
AcDbEntity
8
1
62
256
6
ByLayer
370
18
48
1
60
0
100
AcDbEllipse
10
92.726974
20
5.580722
30
0
11
0.0458619984556902
21
-0.875099061305433
31
0
210
0
220
0
230
1
40
0.995725
41
0.523598775598281
42
1.5707963267949
0
ELLIPSE
5
1BA
100
AcDbEntity
8
1
62
256
6
ByLayer
370
18
48
1
60
0
100
AcDbEllipse
10
92.726974
20
5.580722
30
0
11
-0.0497191584307954
21
0.948698058016845
31
0
210
0
220
0
230
1
40
0.995725
41
0
42
6.28318530717959
0
ELLIPSE
5
1BB
100
AcDbEntity
8
1
62
256
6
ByLayer
370
18
48
1
60
0
100
AcDbEllipse
10
92.726974
20
5.580722
30
0
11
0.0458619984556902
21
-0.875099061305433
31
0
210
0
220
0
230
1
40
0.995725
41
-1.5707963267949
42
-0.523598775598291
0
ELLIPSE
5
1BC
100
AcDbEntity
8
1
62
256
6
ByLayer
370
18
48
1
60
0
100
AcDbEllipse
10
92.712762
20
5.579978
30
0
11
-0.0693451420218988
21
1.32318413354981
31
0
210
0
220
0
230
1
40
0.995725
41
0
42
6.28318530717959
0
ELLIPSE
5
1BD
100
AcDbEntity
8
1
62
256
6
ByLayer
370
18
48
1
60
0
100
AcDbEllipse
10
92.726974
20
5.580722
30
0
11
0.0458619984556902
21
-0.875099061305433
31
0
210
0
220
0
230
1
40
0.995725
41
-2.6179938779915
42
-1.5707963267949
0
ELLIPSE
5
1BE
100
AcDbEntity
8
1
62
256
6
ByLayer
370
18
48
1
60
0
100
AcDbEllipse
10
92.726974
20
5.580722
30
0
11
0.0458619984556902
21
-0.875099061305433
31
0
210
0
220
0
230
1
40
0.995725
41
1.5707963267949
42
2.61799387799151
0
ELLIPSE
5
1BF
100
AcDbEntity
8
1
62
256
6
ByLayer
370
18
48
1
60
0
100
AcDbEllipse
10
93.309865
20
6.002006
30
0
11
-0.111493507183848
21
0.172840289286733
31
0
210
0
220
0
230
1
40
0.49529
41
0.410872514156429
42
1.57323145709336
0
ELLIPSE
5
1C0
100
AcDbEntity
8
1
62
256
6
ByLayer
370
18
48
1
60
0
100
AcDbEllipse
10
93.350708
20
5.222675
30
0
11
-0.0928160042447425
21
-0.183547697059942
31
0
210
0
220
0
230
1
40
0.49529
41
-1.57323145716135
42
-0.410872514169911
0
ELLIPSE
5
1C1
100
AcDbEntity
8
1
62
256
6
ByLayer
370
18
48
1
60
0
100
AcDbEllipse
10
92.726974
20
5.580722
30
0
11
0.0458619984556902
21
-0.875099061305433
31
0
210
0
220
0
230
1
40
0.995725
41
2.61799387799151
42
-2.6179938779915
0
ELLIPSE
5
1C2
100
AcDbEntity
8
1
62
256
6
ByLayer
370
18
48
1
60
0
100
AcDbEllipse
10
92.699095
20
4.79779
30
0
11
-0.204738742961771
21
-0.0107299028517688
31
0
210
0
220
0
230
1
40
0.498489
41
-1.5707963267949
42
-0.408437383825765
0
ELLIPSE
5
1C3
100
AcDbEntity
8
1
62
256
6
ByLayer
370
18
48
1
60
0
100
AcDbEllipse
10
92.726974
20
5.580722
30
0
11
0.0458619984556902
21
-0.875099061305433
31
0
210
0
220
0
230
1
40
0.995725
41
-0.523598775598291
42
0.523598775598281
0
ELLIPSE
5
1C4
100
AcDbEntity
8
1
62
256
6
ByLayer
370
18
48
1
60
0
100
AcDbEllipse
10
93.309865
20
6.002006
30
0
11
-0.111493507177247
21
0.172840289287142
31
0
210
0
220
0
230
1
40
0.49529
41
1.57323145715392
42
2.73559040010507
0
ELLIPSE
5
1C5
100
AcDbEntity
8
1
62
256
6
ByLayer
370
18
48
1
60
0
100
AcDbEllipse
10
92.658252
20
5.577121
30
0
11
0.0354942455239634
21
-0.677270550470552
31
0
210
0
220
0
230
1
40
0.995725
41
1.0471975511966
42
2.0943951023932
0
ELLIPSE
5
1C6
100
AcDbEntity
8
1
62
256
6
ByLayer
370
18
48
1
60
0
100
AcDbEllipse
10
92.617409
20
6.356451
30
0
11
-0.204738742962908
21
-0.0107299028525833
31
0
210
0
220
0
230
1
40
0.498489
41
0.408437383824461
42
1.5707963267949
0
ELLIPSE
5
1C7
100
AcDbEntity
8
1
62
256
6
ByLayer
370
13
48
1
60
0
100
AcDbEllipse
10
96.423503
20
3.785573
30
0
11
0.00785039343644143
21
-0.149794430213188
31
0
210
0
220
0
230
1
40
0.995725
41
0.0959931088586701
42
1.38753675533538
0
ELLIPSE
5
1C8
100
AcDbEntity
8
1
62
256
6
ByLayer
370
13
48
1
60
0
100
AcDbEllipse
10
96.075845
20
-0.474976
30
0
11
0.465790010562185
21
-8.88780285931571
31
0
210
0
220
0
230
1
40
0.995725
41
3.07534344057167
42
3.10312211148826
0
ELLIPSE
5
1C9
100
AcDbEntity
8
1
62
256
6
ByLayer
370
13
48
1
60
0
100
AcDbEllipse
10
95.049534
20
5.862167
30
0
11
-0.0327099726518392
21
0.624143459221609
31
0
210
0
220
0
230
1
40
0.995725
41
-1.75405589825429
42
-1.46607657167521
0
ELLIPSE
5
1CA
100
AcDbEntity
8
1
62
256
6
ByLayer
370
13
48
1
60
0
100
AcDbEllipse
10
95.645963
20
8.147454
30
0
11
-0.458505441860489
21
-0.353314653387673
31
0
210
0
220
0
230
1
40
0.479615
41
-2.09905942787924
42
-1.63253590612969
0
ELLIPSE
5
1CB
100
AcDbEntity
8
1
62
256
6
ByLayer
370
13
48
1
60
0
100
AcDbEllipse
10
89.800038
20
5.202184
30
0
11
-0.0740818329315803
21
-0.0116996593752733
31
0
210
0
220
0
230
1
40
0.009655
41
0.0919985744699012
42
1.66279490126989
0
ELLIPSE
5
1CC
100
AcDbEntity
8
1
62
256
6
ByLayer
370
13
48
1
60
0
100
AcDbEllipse
10
94.14244
20
2.185148
30
0
11
-1.47354261429366
21
-1.15353163304501
31
0
210
0
220
0
230
1
40
0.477356
41
2.83717569235109
42
2.88348759236278
0
ELLIPSE
5
1CD
100
AcDbEntity
8
1
62
256
6
ByLayer
370
13
48
1
60
0
100
AcDbEllipse
10
96.192858
20
8.124067
30
0
11
0.0157007868728827
21
-0.299588860426374
31
0
210
0
220
0
230
1
40
0.995725
41
1.67551608191461
42
3.07534344057164
0
ELLIPSE
5
1CE
100
AcDbEntity
8
1
62
256
6
ByLayer
370
13
48
1
60
0
100
AcDbEllipse
10
88.887151
20
5.279349
30
0
11
-0.0078503934364419
21
0.149794430213196
31
0
210
0
220
0
230
1
40
0.995725
41
1.38753675533539
42
1.67551608191447
0
ELLIPSE
5
1CF
100
AcDbEntity
8
1
62
256
6
ByLayer
370
13
48
1
60
0
100
AcDbEllipse
10
89.602833
20
2.940879
30
0
11
-0.00261679781214708
21
0.0499314767377278
31
0
210
0
220
0
230
1
40
0.995725
41
3.13286600732967
42
-2.23976176980927
0
ELLIPSE
5
1D0
100
AcDbEntity
8
1
62
256
6
ByLayer
370
13
48
1
60
0
100
AcDbEllipse
10
94.65427
20
2.211972
30
0
11
0.068036743115825
21
-1.29821839518095
31
0
210
0
220
0
230
1
40
0.995725
41
2.23976176980951
42
-3.14159265358938
0
ELLIPSE
5
1D1
100
AcDbEntity
8
1
62
256
6
ByLayer
370
13
48
1
60
0
100
AcDbEllipse
10
95.042616
20
5.861804
30
0
11
0.0366351693700595
21
-0.699040674328202
31
0
210
0
220
0
230
1
40
0.995725
41
1.3875367553355
42
1.67551608191457
0
ELLIPSE
5
1D2
100
AcDbEntity
8
1
62
256
6
ByLayer
370
13
48
1
60
0
100
AcDbEllipse
10
90.39624
20
5.298849
30
0
11
0.0444855628065009
21
-0.848835104541388
31
0
210
0
220
0
230
1
40
0.995725
41
-1.7540558982543
42
-1.46607657167522
0
ELLIPSE
5
1D3
100
AcDbEntity
8
1
62
256
6
ByLayer
370
13
48
1
60
0
100
AcDbEllipse
10
90.414689
20
5.299816
30
0
11
0.0366351693700595
21
-0.699040674328202
31
0
210
0
220
0
230
1
40
0.995725
41
-1.75405589825429
42
-1.46607657167522
0
ELLIPSE
5
1D4
100
AcDbEntity
8
1
62
256
6
ByLayer
370
13
48
1
60
0
100
AcDbEllipse
10
96.19747
20
8.124309
30
0
11
0.0157007868728827
21
-0.299588860426374
31
0
210
0
220
0
230
1
40
0.995725
41
1.675516081915
42
3.07534344057197
0
ELLIPSE
5
1D5
100
AcDbEntity
8
1
62
256
6
ByLayer
370
13
48
1
60
0
100
AcDbEllipse
10
96.551705
20
5.881305
30
0
11
0.0157007868728832
21
-0.299588860426382
31
0
210
0
220
0
230
1
40
0.995725
41
1.38753675533582
42
1.6755160819149
0
ELLIPSE
5
1D6
100
AcDbEntity
8
1
62
256
6
ByLayer
370
13
48
1
60
0
100
AcDbEllipse
10
94.898717
20
2.224783
30
0
11
-0.0680367431158255
21
1.29821839518095
31
0
210
0
220
0
230
1
40
0.995725
41
-0.511827859273345
42
4.05513142563517E-13
0
ELLIPSE
5
1D7
100
AcDbEntity
8
1
62
256
6
ByLayer
370
13
48
1
60
0
100
AcDbEllipse
10
96.423503
20
3.785573
30
0
11
-0.0222321776352229
21
0.148343285246067
31
0
210
0
220
0
230
1
40
0.091945
41
1.56190521945478
42
3.1327015462494
0
ELLIPSE
5
1D8
100
AcDbEntity
8
1
62
256
6
ByLayer
370
13
48
1
60
0
100
AcDbEllipse
10
95.047858
20
9.172111
30
0
11
-1.48860026468859
21
-1.1470841685272
31
0
210
0
220
0
230
1
40
0.479615
41
1.46274478961741
42
1.5090566829592
0
ELLIPSE
5
1D9
100
AcDbEntity
8
1
62
256
6
ByLayer
370
13
48
1
60
0
100
AcDbEllipse
10
89.539695
20
2.99993
30
0
11
0.0209560818654583
21
-0.399865862514045
31
0
210
0
220
0
230
1
40
0.995725
41
0.435307362026785
42
0.901830883780369
0
ELLIPSE
5
1DA
100
AcDbEntity
8
1
62
256
6
ByLayer
370
13
48
1
60
0
100
AcDbEllipse
10
89.028118
20
7.367329
30
0
11
-0.0436502644907071
21
-0.255492761888383
31
0
210
0
220
0
230
1
40
0.960623
41
-2.83535486669449
42
-1.53011605216891
0
ELLIPSE
5
1DB
100
AcDbEntity
8
1
62
256
6
ByLayer
370
13
48
1
60
0
100
AcDbEllipse
10
90.105633
20
3.267163
30
0
11
0.0740818329315806
21
0.0116996593752714
31
0
210
0
220
0
230
1
40
0.009655
41
-3.04959407911743
42
-1.4787977523211
0
ELLIPSE
5
1DC
100
AcDbEntity
8
1
62
256
6
ByLayer
370
13
48
1
60
0
100
AcDbEllipse
10
89.574151
20
5.166794
30
0
11
-0.148163665863161
21
-0.0233993187505466
31
0
210
0
220
0
230
1
40
0.009655
41
-3.04959407911497
42
-1.47879775232147
0
ELLIPSE
5
1DD
100
AcDbEntity
8
1
62
256
6
ByLayer
370
13
48
1
60
0
100
AcDbEllipse
10
89.947116
20
3.153803
30
0
11
0.00523359562429432
21
-0.0998629534754593
31
0
210
0
220
0
230
1
40
0.995725
41
0.657926248776926
42
1.67551608191419
0
ELLIPSE
5
1DE
100
AcDbEntity
8
1
62
256
6
ByLayer
370
13
48
1
60
0
100
AcDbEllipse
10
90.077816
20
7.522202
30
0
11
-0.0243032116523266
21
-0.0709531810659834
31
0
210
0
220
0
230
1
40
0.085751
41
1.60526761398373
42
-3.10712136640235
0
ELLIPSE
5
1DF
100
AcDbEntity
8
1
62
256
6
ByLayer
370
13
48
1
60
0
100
AcDbEllipse
10
90.921277
20
2.016335
30
0
11
-0.0732703387401202
21
1.39808134865641
31
0
210
0
220
0
230
1
40
0.995725
41
0.657926248776571
42
0.901830883780294
0
ELLIPSE
5
1E0
100
AcDbEntity
8
1
62
256
6
ByLayer
370
13
48
1
60
0
100
AcDbEllipse
10
90.558588
20
8.936837
30
0
11
-0.0680367431158255
21
1.29821839518095
31
0
210
0
220
0
230
1
40
0.995725
41
2.62976479431565
42
3.14159265358942
0
ELLIPSE
5
1E1
100
AcDbEntity
8
1
62
256
6
ByLayer
370
13
48
1
60
0
100
AcDbEllipse
10
94.776494
20
2.218378
30
0
11
-0.0680367431158255
21
1.29821839518095
31
0
210
0
220
0
230
1
40
0.995725
41
-0.883668716629759
42
-0.855518971143629
0
ELLIPSE
5
1E2
100
AcDbEntity
8
1
62
256
6
ByLayer
370
13
48
1
60
0
100
AcDbEllipse
10
95.024167
20
5.860838
30
0
11
0.0444855628065009
21
-0.848835104541388
31
0
210
0
220
0
230
1
40
0.995725
41
1.3875367553355
42
1.67551608191457
0
ELLIPSE
5
1E3
100
AcDbEntity
8
1
62
256
6
ByLayer
370
13
48
1
60
0
100
AcDbEllipse
10
89.47522
20
4.637091
30
0
11
0.0994383168615901
21
-1.89739611603369
31
0
210
0
220
0
230
1
40
0.995725
41
-0.0384705421019585
42
-0.00872664626036668
0
ELLIPSE
5
1E4
100
AcDbEntity
8
1
62
256
6
ByLayer
370
13
48
1
60
0
100
AcDbEllipse
10
90.902828
20
2.015368
30
0
11
0.0811207321765604
21
-1.54787577886959
31
0
210
0
220
0
230
1
40
0.995725
41
-2.46557149586854
42
-2.23976176980909
0
ELLIPSE
5
1E5
100
AcDbEntity
8
1
62
256
6
ByLayer
370
13
48
1
60
0
100
AcDbEllipse
10
92.625551
20
7.54811
30
0
11
0.00392519671822067
21
-0.0748972151065931
31
0
210
0
220
0
230
1
40
0.092371
41
1.5707963267949
42
3.14159265358979
0
ELLIPSE
5
1E6
100
AcDbEntity
8
1
62
256
6
ByLayer
370
13
48
1
60
0
100
AcDbEllipse
10
89.02919
20
7.375806
30
0
11
0.00785039343644143
21
-0.149794430213188
31
0
210
0
220
0
230
1
40
0.995725
41
-3.0455995447314
42
-1.75405589825479
0
ELLIPSE
5
1E7
100
AcDbEntity
8
1
62
256
6
ByLayer
370
13
48
1
60
0
100
AcDbEllipse
10
89.844139
20
7.498392
30
0
11
-0.043585206517722
21
-0.158111345868869
31
0
210
0
220
0
230
1
40
0.080185
41
-3.11490714532858
42
-1.54411081857007
0
ELLIPSE
5
1E8
100
AcDbEntity
8
1
62
256
6
ByLayer
370
13
48
1
60
0
100
AcDbEllipse
10
89.456771
20
4.636124
30
0
11
-0.0915879234251497
21
1.74760168582051
31
0
210
0
220
0
230
1
40
0.995725
41
3.10312211148821
42
3.13286600732983
0
ELLIPSE
5
1E9
100
AcDbEntity
8
1
62
256
6
ByLayer
370
13
48
1
60
0
100
AcDbEllipse
10
95.901074
20
8.272619
30
0
11
-0.00653729335064154
21
0.149857478277354
31
0
210
0
220
0
230
1
40
0.092367
41
0.000809536044630439
42
1.57160586284002
0
ELLIPSE
5
1EA
100
AcDbEntity
8
1
62
256
6
ByLayer
370
13
48
1
60
0
100
AcDbEllipse
10
95.977473
20
6.524288
30
0
11
0.0994383168615901
21
-1.89739611603369
31
0
210
0
220
0
230
1
40
0.995725
41
3.10312211148823
42
3.13286600732983
0
ELLIPSE
5
1EB
100
AcDbEntity
8
1
62
256
6
ByLayer
370
13
48
1
60
0
100
AcDbEllipse
10
95.982085
20
6.52453
30
0
11
0.0994383168615901
21
-1.89739611603369
31
0
210
0
220
0
230
1
40
0.995725
41
3.10312211148863
42
3.13286600733023
0
ELLIPSE
5
1EC
100
AcDbEntity
8
1
62
256
6
ByLayer
370
13
48
1
60
0
100
AcDbEllipse
10
96.423503
20
3.785573
30
0
11
0.148731686424785
21
-0.0194649801756774
31
0
210
0
220
0
230
1
40
0.016833
41
-1.66175841710548
42
-0.0909620903111033
0
ELLIPSE
5
1ED
100
AcDbEntity
8
1
62
256
6
ByLayer
370
13
48
1
60
0
100
AcDbEllipse
10
96.340375
20
8.147499
30
0
11
0.148163665863161
21
0.0233993187505427
31
0
210
0
220
0
230
1
40
0.009655
41
0.0919985744735914
42
1.66279490126866
0
ELLIPSE
5
1EE
100
AcDbEntity
8
1
62
256
6
ByLayer
370
13
48
1
60
0
100
AcDbEllipse
10
96.080457
20
-0.474735
30
0
11
0.465790010562185
21
-8.88780285931571
31
0
210
0
220
0
230
1
40
0.995725
41
3.07534344057208
42
3.10312211148866
0
ELLIPSE
5
1EF
100
AcDbEntity
8
1
62
256
6
ByLayer
370
13
48
1
60
0
100
AcDbEllipse
10
96.429187
20
3.794291
30
0
11
-0.0436502645039777
21
-0.255492761884777
31
0
210
0
220
0
230
1
40
0.960623
41
0.306237786945556
42
1.61147660147657
0
ELLIPSE
5
1F0
100
AcDbEntity
8
1
62
256
6
ByLayer
370
13
48
1
60
0
100
AcDbEllipse
10
94.672219
20
9.152423
30
0
11
-1.19272915825458
21
-1.02318492694875
31
0
210
0
220
0
230
1
40
0.704848
41
1.25256800991667
42
1.62440886724234
0
ELLIPSE
5
1F1
100
AcDbEntity
8
1
62
256
6
ByLayer
370
13
48
1
60
0
100
AcDbEllipse
10
95.510189
20
8.007818
30
0
11
0.00523359562429432
21
-0.0998629534754593
31
0
210
0
220
0
230
1
40
0.995725
41
-2.48366640481199
42
-1.46607657167475
0
ELLIPSE
5
1F2
100
AcDbEntity
8
1
62
256
6
ByLayer
370
13
48
1
60
0
100
AcDbEllipse
10
94.536029
20
9.145286
30
0
11
-0.0732703387401202
21
1.39808134865641
31
0
210
0
220
0
230
1
40
0.995725
41
-2.48366640481241
42
-2.2397617698087
0
ELLIPSE
5
1F3
100
AcDbEntity
8
1
62
256
6
ByLayer
370
13
48
1
60
0
100
AcDbEllipse
10
90.410077
20
5.299574
30
0
11
-0.0366351693700599
21
0.699040674328202
31
0
210
0
220
0
230
1
40
0.995725
41
1.3875367553355
42
1.67551608191457
0
ELLIPSE
5
1F4
100
AcDbEntity
8
1
62
256
6
ByLayer
370
13
48
1
60
0
100
AcDbEllipse
10
96.69461
20
5.904495
30
0
11
0.148163665863161
21
0.0233993187505427
31
0
210
0
220
0
230
1
40
0.009655
41
0.0919985744742021
42
1.6627949012686
0
ELLIPSE
5
1F5
100
AcDbEntity
8
1
62
256
6
ByLayer
370
13
48
1
60
0
100
AcDbEllipse
10
89.241386
20
3.036345
30
0
11
-0.00785039343644151
21
0.149794430213188
31
0
210
0
220
0
230
1
40
0.995725
41
1.67551608191457
42
3.07534344057145
0
ELLIPSE
5
1F6
100
AcDbEntity
8
1
62
256
6
ByLayer
370
13
48
1
60
0
100
AcDbEllipse
10
90.421607
20
5.300179
30
0
11
-0.0327099726518392
21
0.624143459221609
31
0
210
0
220
0
230
1
40
0.995725
41
1.3875367553355
42
1.67551608191456
0
ELLIPSE
5
1F7
100
AcDbEntity
8
1
62
256
6
ByLayer
370
13
48
1
60
0
100
AcDbEllipse
10
95.351672
20
7.894457
30
0
11
-0.041202577055118
21
0.0626685538688828
31
0
210
0
220
0
230
1
40
0.07982
41
-1.61744967012469
42
-0.0466533433317189
0
ELLIPSE
5
1F8
100
AcDbEntity
8
1
62
256
6
ByLayer
370
13
48
1
60
0
100
AcDbEllipse
10
94.51758
20
9.144319
30
0
11
0.0811207321765604
21
-1.54787577886959
31
0
210
0
220
0
230
1
40
0.995725
41
0.676021157721259
42
0.901830883780702
0
ELLIPSE
5
1F9
100
AcDbEntity
8
1
62
256
6
ByLayer
370
13
48
1
60
0
100
AcDbEllipse
10
89.657294
20
2.912682
30
0
11
-0.122557354636342
21
0.0864852289384832
31
0
210
0
220
0
230
1
40
0.057286
41
1.49815188746189
42
3.06894821425673
0
ELLIPSE
5
1FA
100
AcDbEntity
8
1
62
256
6
ByLayer
370
13
48
1
60
0
100
AcDbEllipse
10
89.314589
20
7.815641
30
0
11
-0.492925138865171
21
0.303452289535625
31
0
210
0
220
0
230
1
40
0.479615
41
-1.50905674742626
42
-1.04253322569993
0
ELLIPSE
5
1FB
100
AcDbEntity
8
1
62
256
6
ByLayer
370
13
48
1
60
0
100
AcDbEllipse
10
89.570917
20
5.410709
30
0
11
-0.148731686424787
21
0.0194649801756603
31
0
210
0
220
0
230
1
40
0.016833
41
1.47983423648413
42
3.05063056327886
0
ELLIPSE
5
1FC
100
AcDbEntity
8
1
62
256
6
ByLayer
370
13
48
1
60
0
100
AcDbEllipse
10
96.533257
20
5.880338
30
0
11
-0.0078503934364419
21
0.149794430213196
31
0
210
0
220
0
230
1
40
0.995725
41
-1.7540558982544
42
-1.46607657167533
0
ELLIPSE
5
1FD
100
AcDbEntity
8
1
62
256
6
ByLayer
370
13
48
1
60
0
100
AcDbEllipse
10
88.9056
20
5.280315
30
0
11
0.0157007868728832
21
-0.299588860426382
31
0
210
0
220
0
230
1
40
0.995725
41
-1.75405589825479
42
-1.46607657167566
0
ELLIPSE
5
1FE
100
AcDbEntity
8
1
62
256
6
ByLayer
370
13
48
1
60
0
100
AcDbEllipse
10
89.942504
20
3.153561
30
0
11
0.00523359562429432
21
-0.0998629534754593
31
0
210
0
220
0
230
1
40
0.995725
41
0.657926248777572
42
1.6755160819149
0
ELLIPSE
5
1FF
100
AcDbEntity
8
1
62
256
6
ByLayer
370
13
48
1
60
0
100
AcDbEllipse
10
96.062008
20
-0.475701
30
0
11
-0.457939617125749
21
8.73800842910252
31
0
210
0
220
0
230
1
40
0.995725
41
-0.0662492130181209
42
-0.0384705421015383
0
ELLIPSE
5
200
100
AcDbEntity
8
1
62
256
6
ByLayer
370
13
48
1
60
0
100
AcDbEllipse
10
95.836024
20
8.219775
30
0
11
0.0104671912485884
21
-0.199725906950914
31
0
210
0
220
0
230
1
40
0.995725
41
3.13286600733074
42
-2.23976176980862
0
ELLIPSE
5
201
100
AcDbEntity
8
1
62
256
6
ByLayer
370
13
48
1
60
0
100
AcDbEllipse
10
89.79766
20
5.381533
30
0
11
-0.0743658432123935
21
0.00973249008783013
31
0
210
0
220
0
230
1
40
0.016833
41
-1.66175841710513
42
-0.0909620903112785
0
ELLIPSE
5
202
100
AcDbEntity
8
1
62
256
6
ByLayer
370
13
48
1
60
0
100
AcDbEllipse
10
94.291582
20
9.132475
30
0
11
0.068036743115825
21
-1.29821839518095
31
0
210
0
220
0
230
1
40
0.995725
41
0
42
0.5118278592741
0
ELLIPSE
5
203
100
AcDbEntity
8
1
62
256
6
ByLayer
370
13
48
1
60
0
100
AcDbEllipse
10
95.91761
20
8.16169
30
0
11
0.0209560818654583
21
-0.399865862514045
31
0
210
0
220
0
230
1
40
0.995725
41
-2.70628529156226
42
-2.23976176980861
0
ELLIPSE
5
204
100
AcDbEntity
8
1
62
256
6
ByLayer
370
13
48
1
60
0
100
AcDbEllipse
10
95.817575
20
8.218808
30
0
11
-0.00261679781214708
21
0.0499314767377278
31
0
210
0
220
0
230
1
40
0.995725
41
-0.0087266462592719
42
0.901830883780866
0
ELLIPSE
5
205
100
AcDbEntity
8
1
62
256
6
ByLayer
370
13
48
1
60
0
100
AcDbEllipse
10
96.428116
20
3.785814
30
0
11
0.00785039343644143
21
-0.149794430213188
31
0
210
0
220
0
230
1
40
0.995725
41
0.0959931088590459
42
1.38753675533577
0
ELLIPSE
5
206
100
AcDbEntity
8
1
62
256
6
ByLayer
370
13
48
1
60
0
100
AcDbEllipse
10
89.621282
20
2.941846
30
0
11
0.0104671912485884
21
-0.199725906950914
31
0
210
0
220
0
230
1
40
0.995725
41
-0.0087266462598399
42
0.901830883780275
0
ELLIPSE
5
207
100
AcDbEntity
8
1
62
256
6
ByLayer
370
13
48
1
60
0
100
AcDbEllipse
10
92.831755
20
3.61351
30
0
11
0.00392519671822067
21
-0.0748972151065931
31
0
210
0
220
0
230
1
40
0.092371
41
0
42
1.5707963267949
0
ELLIPSE
5
208
100
AcDbEntity
8
1
62
256
6
ByLayer
370
13
48
1
60
0
100
AcDbEllipse
10
94.413805
20
9.138881
30
0
11
0.068036743115825
21
-1.29821839518095
31
0
210
0
220
0
230
1
40
0.995725
41
0.855518971143614
42
0.883668716629718
0
ELLIPSE
5
209
100
AcDbEntity
8
1
62
256
6
ByLayer
370
13
48
1
60
0
100
AcDbEllipse
10
95.95288
20
8.274104
30
0
11
-0.00205858338350416
21
0.149985873449646
31
0
210
0
220
0
230
1
40
0.092302
41
0.00356790892017845
42
1.57436423571418
0
ELLIPSE
5
20A
100
AcDbEntity
8
1
62
256
6
ByLayer
370
13
48
1
60
0
100
AcDbEllipse
10
89.376849
20
11.636355
30
0
11
0.465790010562185
21
-8.88780285931571
31
0
210
0
220
0
230
1
40
0.995725
41
-0.0662492130185213
42
-0.0384705421019416
0
ELLIPSE
5
20B
100
AcDbEntity
8
1
62
256
6
ByLayer
370
13
48
1
60
0
100
AcDbEllipse
10
90.916664
20
2.016093
30
0
11
-0.0732703387401202
21
1.39808134865641
31
0
210
0
220
0
230
1
40
0.995725
41
0.657926248776952
42
0.901830883780706
0
ELLIPSE
5
20C
100
AcDbEntity
8
1
62
256
6
ByLayer
370
13
48
1
60
0
100
AcDbEllipse
10
95.550583
20
3.603742
30
0
11
0.00523359562429433
21
-0.0998629534754595
31
0
210
0
220
0
230
1
40
0.995725
41
-1.75405589825388
42
0.0959931088601915
0
ELLIPSE
5
20D
100
AcDbEntity
8
1
62
256
6
ByLayer
370
13
48
1
60
0
100
AcDbEllipse
10
94.536029
20
9.145286
30
0
11
-0.0680367431158257
21
1.29821839518095
31
0
210
0
220
0
230
1
40
0.995725
41
-3.14159265358943
42
-2.23976176980873
0
ELLIPSE
5
20E
100
AcDbEntity
8
1
62
256
6
ByLayer
370
13
48
1
60
0
100
AcDbEllipse
10
89.259835
20
3.037312
30
0
11
0.0157007868728827
21
-0.299588860426374
31
0
210
0
220
0
230
1
40
0.995725
41
-1.46607657167561
42
-0.0662492130185873
0
ELLIPSE
5
20F
100
AcDbEntity
8
1
62
256
6
ByLayer
370
13
48
1
60
0
100
AcDbEllipse
10
95.379489
20
3.639419
30
0
11
0.0243032116523237
21
0.0709531810659843
31
0
210
0
220
0
230
1
40
0.085751
41
-3.10712136640007
42
-1.53632503960607
0
ELLIPSE
5
210
100
AcDbEntity
8
1
62
256
6
ByLayer
370
13
48
1
60
0
100
AcDbEllipse
10
89.844139
20
7.498392
30
0
11
-0.157303252987116
21
-0.0460731444180677
31
0
210
0
220
0
230
1
40
0.019548
41
-3.0592445104963
42
-1.48844818369607
0
ELLIPSE
5
211
100
AcDbEntity
8
1
62
256
6
ByLayer
370
13
48
1
60
0
100
AcDbEllipse
10
96.194899
20
8.27405
30
0
11
0.00212587133337151
21
0.149984934813714
31
0
210
0
220
0
230
1
40
0.092168
41
0.00614118188215097
42
1.57693750867728
0
ELLIPSE
5
212
100
AcDbEntity
8
1
62
256
6
ByLayer
370
13
48
1
60
0
100
AcDbEllipse
10
89.3584
20
11.635388
30
0
11
-0.457939617125749
21
8.73800842910252
31
0
210
0
220
0
230
1
40
0.995725
41
3.07534344057167
42
3.10312211148826
0
ELLIPSE
5
213
100
AcDbEntity
8
1
62
256
6
ByLayer
370
13
48
1
60
0
100
AcDbEllipse
10
92.735571
20
5.581173
30
0
11
0.0757589256077764
21
-1.44556641483746
31
0
210
0
220
0
230
1
40
0.995725
41
0
42
6.28318530717959
0
ELLIPSE
5
214
100
AcDbEntity
8
1
62
256
6
ByLayer
370
13
48
1
60
0
100
AcDbEllipse
10
90.177952
20
8.916889
30
0
11
-1.29314721103845
21
0.892905666658951
31
0
210
0
220
0
230
1
40
0.704848
41
1.51718378626745
42
1.8890246436469
0
ELLIPSE
5
215
100
AcDbEntity
8
1
62
256
6
ByLayer
370
13
48
1
60
0
100
AcDbEllipse
10
90.921277
20
2.016335
30
0
11
-0.0680367431158257
21
1.29821839518095
31
0
210
0
220
0
230
1
40
0.995725
41
0
42
0.901830883780258
0
ELLIPSE
5
216
100
AcDbEntity
8
1
62
256
6
ByLayer
370
13
48
1
60
0
100
AcDbEllipse
10
95.603942
20
3.662745
30
0
11
-0.0435852065158923
21
-0.158111345861481
31
0
210
0
220
0
230
1
40
0.080185
41
-1.54411081855202
42
0.0266855082581288
0
ELLIPSE
5
217
100
AcDbEntity
8
1
62
256
6
ByLayer
370
13
48
1
60
0
100
AcDbEllipse
10
95.829229
20
8.269485
30
0
11
-0.00653729335064154
21
0.149857478277354
31
0
210
0
220
0
230
1
40
0.092367
41
0.000809536045656119
42
1.57160586284012
0
ELLIPSE
5
218
100
AcDbEntity
8
1
62
256
6
ByLayer
370
13
48
1
60
0
100
AcDbEllipse
10
90.077816
20
7.522202
30
0
11
0.0743658432123924
21
-0.00973249008783866
31
0
210
0
220
0
230
1
40
0.016833
41
1.47983423648372
42
3.05063056328133
0
ELLIPSE
5
219
100
AcDbEntity
8
1
62
256
6
ByLayer
370
13
48
1
60
0
100
AcDbEllipse
10
89.906722
20
7.557878
30
0
11
0.00523359562429433
21
-0.0998629534754595
31
0
210
0
220
0
230
1
40
0.995725
41
1.38753675533505
42
-3.04559954473045
0
ELLIPSE
5
21A
100
AcDbEntity
8
1
62
256
6
ByLayer
370
13
48
1
60
0
100
AcDbEllipse
10
94.51808
20
2.204835
30
0
11
-1.06244663987367
21
-1.09843634152889
31
0
210
0
220
0
230
1
40
0.695792
41
2.89972207090324
42
-3.01162237894892
0
ELLIPSE
5
21B
100
AcDbEntity
8
1
62
256
6
ByLayer
370
13
48
1
60
0
100
AcDbEllipse
10
95.963636
20
6.523563
30
0
11
-0.0915879234251497
21
1.74760168582051
31
0
210
0
220
0
230
1
40
0.995725
41
-0.0384705421015799
42
-0.00872664625997173
0
ELLIPSE
5
21C
100
AcDbEntity
8
1
62
256
6
ByLayer
370
13
48
1
60
0
100
AcDbEllipse
10
96.547093
20
5.881064
30
0
11
0.0157007868728832
21
-0.299588860426382
31
0
210
0
220
0
230
1
40
0.995725
41
1.38753675533544
42
1.67551608191452
0
ELLIPSE
5
21D
100
AcDbEntity
8
1
62
256
6
ByLayer
370
13
48
1
60
0
100
AcDbEllipse
10
96.69518
20
5.861452
30
0
11
0.148731686424785
21
-0.0194649801756774
31
0
210
0
220
0
230
1
40
0.016833
41
-1.66175841710548
42
-0.0909620903088091
0
ELLIPSE
5
21E
100
AcDbEntity
8
1
62
256
6
ByLayer
370
13
48
1
60
0
100
AcDbEllipse
10
96.179022
20
8.123342
30
0
11
-0.00785039343644151
21
0.149794430213188
31
0
210
0
220
0
230
1
40
0.995725
41
-1.46607657167523
42
-0.0662492130183483
0
ELLIPSE
5
21F
100
AcDbEntity
8
1
62
256
6
ByLayer
370
13
48
1
60
0
100
AcDbEllipse
10
88.975841
20
7.717888
30
0
11
-0.0436502645069167
21
-0.255492761883953
31
0
210
0
220
0
230
1
40
0.960623
41
-2.83535486663274
42
-1.53011605210067
0
ELLIPSE
5
220
100
AcDbEntity
8
1
62
256
6
ByLayer
370
13
48
1
60
0
100
AcDbEllipse
10
88.557064
20
4.644886
30
0
11
0.493878886210538
21
0.0779977291684758
31
0
210
0
220
0
230
1
40
0.009655
41
1.80630216916212
42
2.1526145675258
0
ELLIPSE
5
221
100
AcDbEntity
8
1
62
256
6
ByLayer
370
13
48
1
60
0
100
AcDbEllipse
10
72.030426
20
0
30
0
11
-89.4601922454449
21
0.0405841187961102
31
0
210
0
220
0
230
1
40
0.092638
41
-1.82960336186079
42
-1.7694068418811
0
ELLIPSE
5
222
100
AcDbEntity
8
1
62
256
6
ByLayer
370
13
48
1
60
0
100
AcDbEllipse
10
89.350673
20
3.436081
30
0
11
0.0601863496793835
21
-1.14842396496776
31
0
210
0
220
0
230
1
40
0.995725
41
0.0653149256523029
42
1.01160192723488
0
ELLIPSE
5
223
100
AcDbEntity
8
1
62
256
6
ByLayer
370
13
48
1
60
0
100
AcDbEllipse
10
93.823429
20
-1.854059
30
0
11
1
21
0
31
0
210
0
220
0
230
1
40
0.994522
41
2.07138903342771
42
3.02829824635062
0
ELLIPSE
5
224
100
AcDbEntity
8
1
62
256
6
ByLayer
370
13
48
1
60
0
100
AcDbEllipse
10
93.823429
20
-1.629323
30
0
11
1
21
0
31
0
210
0
220
0
230
1
40
0.994522
41
0
42
-3.1415922267719
0
ELLIPSE
5
225
100
AcDbEntity
8
1
62
256
6
ByLayer
370
13
48
1
60
0
100
AcDbEllipse
10
89.321044
20
8.233396
30
0
11
0.314015737457653
21
-5.99177720852744
31
0
210
0
220
0
230
1
40
0.995725
41
-6.50379076179114E-06
42
0.226948274703338
0
ELLIPSE
5
226
100
AcDbEntity
8
1
62
256
6
ByLayer
370
13
48
1
60
0
100
AcDbEllipse
10
93.823429
20
-1.629323
30
0
11
-1.1
21
1.1117029605906E-15
31
0
210
0
220
0
230
1
40
0.994522
41
-2.98284399735201
42
-0.146967497853022
0
ELLIPSE
5
227
100
AcDbEntity
8
1
62
256
6
ByLayer
370
13
48
1
60
0
100
AcDbEllipse
10
90.172386
20
3.47232
30
0
11
0.0261679781214711
21
-0.499314767377287
31
0
210
0
220
0
230
1
40
0.092371
41
-0.645790707578799
42
-0.395138986075178
0
ELLIPSE
5
228
100
AcDbEntity
8
1
62
256
6
ByLayer
370
13
48
1
60
0
100
AcDbEllipse
10
88.706349
20
3.497881
30
0
11
0.497774923884429
21
-0.0471182040388957
31
0
210
0
220
0
230
1
40
0.013562
41
-2.15474624399716
42
-1.66230190308553
0
ELLIPSE
5
229
100
AcDbEntity
8
1
62
256
6
ByLayer
370
13
48
1
60
0
100
AcDbEllipse
10
89.304551
20
3.433664
30
0
11
-0.0340183715579126
21
0.649109197590473
31
0
210
0
220
0
230
1
40
0.995725
41
1.4234390293725
42
2.27470058027829
0
ELLIPSE
5
22A
100
AcDbEntity
8
1
62
256
6
ByLayer
370
18
48
1
60
0
100
AcDbEllipse
10
93.960611
20
-1.764099
30
0
11
1
21
0
31
0
210
0
220
0
230
1
40
0.994522
41
0.320932973305153
42
3.1415922267719
0
ELLIPSE
5
22B
100
AcDbEntity
8
1
62
256
6
ByLayer
370
18
48
1
60
0
100
AcDbEllipse
10
93.960611
20
-1.732741
30
0
11
-0.7
21
7.07447338557654E-16
31
0
210
0
220
0
230
1
40
0.994522
41
3.14159193948383
42
-3.18953807421383E-16
0
ELLIPSE
5
22C
100
AcDbEntity
8
1
62
256
6
ByLayer
370
18
48
1
60
0
100
AcDbEllipse
10
93.960611
20
-1.732741
30
0
11
-0.7
21
7.07447338557654E-16
31
0
210
0
220
0
230
1
40
0.994522
41
0
42
1.25447732220168
0
ELLIPSE
5
22D
100
AcDbEntity
8
1
62
256
6
ByLayer
370
18
48
1
60
0
100
AcDbEllipse
10
93.960611
20
-1.732741
30
0
11
-0.7
21
7.07447338557654E-16
31
0
210
0
220
0
230
1
40
0.994522
41
2.52142300444349
42
-3.14159193125535
0
ELLIPSE
5
22E
100
AcDbEntity
8
1
62
256
6
ByLayer
370
18
48
1
60
0
100
AcDbEllipse
10
93.960611
20
-2.113473
30
0
11
-1.1
21
1.1117029605906E-15
31
0
210
0
220
0
230
1
40
0.994522
41
-0.44600812449114
42
-0.22374082747392
0
ELLIPSE
5
22F
100
AcDbEntity
8
1
62
256
6
ByLayer
370
18
48
1
60
0
100
AcDbEllipse
10
93.960611
20
-2.024713
30
0
11
-1.1
21
1.1117029605906E-15
31
0
210
0
220
0
230
1
40
0.994522
41
-0.504421845616973
42
-0.15943602416017
0
ELLIPSE
5
230
100
AcDbEntity
8
1
62
256
6
ByLayer
370
13
48
1
60
0
100
AcDbEllipse
10
88.698524
20
3.749168
30
0
11
0.493878886210538
21
0.0779977291684758
31
0
210
0
220
0
230
1
40
0.009655
41
1.66279490126857
42
2.15342361859069
0
ELLIPSE
5
231
100
AcDbEntity
8
1
62
256
6
ByLayer
370
13
48
1
60
0
100
AcDbEllipse
10
88.990686
20
3.404456
30
0
11
-0.0701174095579184
21
0.24953045073496
31
0
210
0
220
0
230
1
40
0.960623
41
1.53011605213824
42
1.90015045640353
0
ELLIPSE
5
232
100
AcDbEntity
8
1
62
256
6
ByLayer
370
13
48
1
60
0
100
AcDbEllipse
10
92.665933
20
5.577523
30
0
11
0.0699521520797105
21
-1.33476657543375
31
0
210
0
220
0
230
1
40
0.995725
41
2.87563155024229
42
-1.62293252536887
0
ELLIPSE
5
233
100
AcDbEntity
8
1
62
256
6
ByLayer
370
13
48
1
60
0
100
AcDbEllipse
10
92.665933
20
5.577523
30
0
11
0.0699521520797105
21
-1.33476657543375
31
0
210
0
220
0
230
1
40
0.995725
41
-1.62293252536887
42
-0.0169894529143313
0
ELLIPSE
5
234
100
AcDbEntity
8
1
62
256
6
ByLayer
370
13
48
1
60
0
100
AcDbEllipse
10
96.237018
20
3.430922
30
0
11
-0.0436502644946127
21
-0.255492761887351
31
0
210
0
220
0
230
1
40
0.960623
41
0.306237786909969
42
1.24144276493223
0
ELLIPSE
5
235
100
AcDbEntity
8
1
62
256
6
ByLayer
370
13
48
1
60
0
100
AcDbEllipse
10
95.790787
20
8.248455
30
0
11
0.122557354636342
21
-0.086485228938483
31
0
210
0
220
0
230
1
40
0.057286
41
-2.90972420640113
42
-1.64344076612763
0
ELLIPSE
5
236
100
AcDbEntity
8
1
62
256
6
ByLayer
370
13
48
1
60
0
100
AcDbEllipse
10
95.87393
20
5.994343
30
0
11
0.148163665863161
21
0.0233993187505427
31
0
210
0
220
0
230
1
40
0.009655
41
1.6627949012686
42
-3.04959407911867
0
ELLIPSE
5
237
100
AcDbEntity
8
1
62
256
6
ByLayer
370
13
48
1
60
0
100
AcDbEllipse
10
95.877164
20
5.750428
30
0
11
0.148731686424785
21
-0.0194649801756774
31
0
210
0
220
0
230
1
40
0.016833
41
3.05063056327992
42
-1.66175841710529
0
ELLIPSE
5
238
100
AcDbEntity
8
1
62
256
6
ByLayer
370
13
48
1
60
0
100
AcDbEllipse
10
95.603942
20
3.662745
30
0
11
-0.15730325297998
21
-0.0460731444161095
31
0
210
0
220
0
230
1
40
0.019548
41
-1.4884481837408
42
-0.27175309393866
0
ELLIPSE
5
239
100
AcDbEntity
8
1
62
256
6
ByLayer
370
13
48
1
60
0
100
AcDbEllipse
10
95.657268
20
5.959437
30
0
11
0.0740818329315806
21
0.0116996593752714
31
0
210
0
220
0
230
1
40
0.009655
41
-1.47879775232179
42
-0.000215754829069541
0
ELLIPSE
5
23A
100
AcDbEntity
8
1
62
256
6
ByLayer
370
13
48
1
60
0
100
AcDbEllipse
10
95.351672
20
7.894457
30
0
11
-0.0740818329315803
21
-0.0116996593752733
31
0
210
0
220
0
230
1
40
0.009655
41
1.66279490126819
42
3.14137689876931
0
ELLIPSE
5
23B
100
AcDbEntity
8
1
62
256
6
ByLayer
370
13
48
1
60
0
100
AcDbEllipse
10
95.659646
20
5.780088
30
0
11
0.0743658432123924
21
-0.00973249008783866
31
0
210
0
220
0
230
1
40
0.016833
41
5.34639593589533E-05
42
1.47983423648353
0
ELLIPSE
5
23C
100
AcDbEntity
8
1
62
256
6
ByLayer
370
13
48
1
60
0
100
AcDbEllipse
10
95.379489
20
3.639419
30
0
11
-0.0743658432123935
21
0.00973249008783013
31
0
210
0
220
0
230
1
40
0.016833
41
-3.14153918957064
42
-1.66175841710529
0
ELLIPSE
5
23D
100
AcDbEntity
8
1
62
256
6
ByLayer
370
13
48
1
60
0
100
AcDbEllipse
10
92.681877
20
5.578359
30
0
11
0.0736286858157492
21
-1.40491901818815
31
0
210
0
220
0
230
1
40
0.995725
41
-0.853733629912546
42
0
0
ELLIPSE
5
23E
100
AcDbEntity
8
1
62
256
6
ByLayer
370
13
48
1
60
0
100
AcDbEllipse
10
92.681877
20
5.578359
30
0
11
0.0736286858157492
21
-1.40491901818815
31
0
210
0
220
0
230
1
40
0.995725
41
0
42
-2.28787081989087
0
ELLIPSE
5
23F
100
AcDbEntity
8
1
62
256
6
ByLayer
370
13
48
1
60
0
100
AcDbEllipse
10
89.802312
20
8.897203
30
0
11
-1.60034838939599
21
0.985199135219455
31
0
210
0
220
0
230
1
40
0.479615
41
1.6325359574995
42
1.65246878608268
0
ELLIPSE
5
240
100
AcDbEntity
8
1
62
256
6
ByLayer
370
13
48
1
60
0
100
AcDbEllipse
10
89.90211
20
7.557637
30
0
11
0.00523359562429433
21
-0.0998629534754595
31
0
210
0
220
0
230
1
40
0.995725
41
1.38753675533534
42
3.14158141713612
0
ELLIPSE
5
241
100
AcDbEntity
8
1
62
256
6
ByLayer
370
13
48
1
60
0
100
AcDbEllipse
10
89.618852
20
2.891652
30
0
11
0.00653729335064122
21
-0.149857478277354
31
0
210
0
220
0
230
1
40
0.092367
41
-1.56998679074968
42
-0.023244076377417
0
ELLIPSE
5
242
100
AcDbEntity
8
1
62
256
6
ByLayer
370
13
48
1
60
0
100
AcDbEllipse
10
89.547007
20
2.888518
30
0
11
0.00653729335064122
21
-0.149857478277354
31
0
210
0
220
0
230
1
40
0.092367
41
-1.56998679074968
42
-0.0250600894873404
0
ELLIPSE
5
243
100
AcDbEntity
8
1
62
256
6
ByLayer
370
13
48
1
60
0
100
AcDbEllipse
10
89.495201
20
2.887033
30
0
11
0.00205858338350387
21
-0.149985873449646
31
0
210
0
220
0
230
1
40
0.092302
41
-1.56722841787561
42
-0.0491492667750024
0
ELLIPSE
5
244
100
AcDbEntity
8
1
62
256
6
ByLayer
370
13
48
1
60
0
100
AcDbEllipse
10
89.024577
20
7.375565
30
0
11
0.022232177635234
21
-0.148343285246065
31
0
210
0
220
0
230
1
40
0.091945
41
-3.05448529856395
42
-1.57968743413492
0
ELLIPSE
5
245
100
AcDbEntity
8
1
62
256
6
ByLayer
370
13
48
1
60
0
100
AcDbEllipse
10
89.616669
20
2.941604
30
0
11
0.0104671912485884
21
-0.199725906950914
31
0
210
0
220
0
230
1
40
0.995725
41
0.0114030181920124
42
0.901830883780638
0
ELLIPSE
5
246
100
AcDbEntity
8
1
62
256
6
ByLayer
370
13
48
1
60
0
100
AcDbEllipse
10
89.253182
20
2.887087
30
0
11
-0.00212587133337213
21
-0.149984934813714
31
0
210
0
220
0
230
1
40
0.092168
41
-1.56465514491251
42
-0.0696346549931368
0
ELLIPSE
5
247
100
AcDbEntity
8
1
62
256
6
ByLayer
370
13
48
1
60
0
100
AcDbEllipse
10
89.024577
20
7.375565
30
0
11
-0.148731686424787
21
0.0194649801756603
31
0
210
0
220
0
230
1
40
0.016833
41
-0.0909620903098687
42
1.47983423648441
0
ELLIPSE
5
248
100
AcDbEntity
8
1
62
256
6
ByLayer
370
13
48
1
60
0
100
AcDbEllipse
10
89.107706
20
3.013639
30
0
11
-0.148163665863161
21
-0.0233993187505466
31
0
210
0
220
0
230
1
40
0.009655
41
-1.47879775232116
42
-0.264793552090075
0
ELLIPSE
5
249
100
AcDbEntity
8
1
62
256
6
ByLayer
370
13
48
1
60
0
100
AcDbEllipse
10
88.752901
20
5.299686
30
0
11
-0.148731686424787
21
0.0194649801756603
31
0
210
0
220
0
230
1
40
0.016833
41
0.263258629490796
42
1.47983423648422
0
ELLIPSE
5
24A
100
AcDbEntity
8
1
62
256
6
ByLayer
370
13
48
1
60
0
100
AcDbEllipse
10
88.753471
20
5.256642
30
0
11
-0.148163665863161
21
-0.0233993187505466
31
0
210
0
220
0
230
1
40
0.009655
41
-1.478797752321
42
-0.264844462022436
0
ELLIPSE
5
24B
100
AcDbEntity
8
1
62
256
6
ByLayer
370
13
48
1
60
0
100
AcDbEllipse
10
95.351672
20
7.894457
30
0
11
0.00392519671822067
21
-0.0748972151065931
31
0
210
0
220
0
230
1
40
0.995725
41
3.14158483765027
42
-2.61421045510336
0
ELLIPSE
5
24C
100
AcDbEntity
8
1
62
256
6
ByLayer
370
13
48
1
60
0
100
AcDbEllipse
10
95.379489
20
3.639419
30
0
11
0.00392519671822067
21
-0.0748972151065931
31
0
210
0
220
0
230
1
40
0.995725
41
-0.380878809689893
42
1.96739048951027E-05
0
ELLIPSE
5
24D
100
AcDbEntity
8
1
62
256
6
ByLayer
370
13
48
1
60
0
100
AcDbEllipse
10
90.105633
20
3.267163
30
0
11
0.00392519671822067
21
-0.0748972151065931
31
0
210
0
220
0
230
1
40
0.995725
41
-1.4660765716757
42
-1.55852545497663E-05
0
ELLIPSE
5
24E
100
AcDbEntity
8
1
62
256
6
ByLayer
370
13
48
1
60
0
100
AcDbEllipse
10
90.077816
20
7.522202
30
0
11
0.00392519671822067
21
-0.0748972151065931
31
0
210
0
220
0
230
1
40
0.995725
41
-3.14157648440084
42
-1.7540558982547
0
ELLIPSE
5
24F
100
AcDbEntity
8
1
62
256
6
ByLayer
370
13
48
1
60
0
100
AcDbEllipse
10
90.105633
20
3.267163
30
0
11
0.041202577055124
21
-0.0626685538688789
31
0
210
0
220
0
230
1
40
0.07982
41
-6.26840225505667E-05
42
1.52414298346511
0
ELLIPSE
5
250
100
AcDbEntity
8
1
62
256
6
ByLayer
370
18
48
1
60
0
100
AcDbEllipse
10
92.658252
20
5.577121
30
0
11
0.0354942455239634
21
-0.677270550470552
31
0
210
0
220
0
230
1
40
0.995725
41
3.14159265358979
42
-2.32785514401905
0
ELLIPSE
5
251
100
AcDbEntity
8
1
62
256
6
ByLayer
370
18
48
1
60
0
100
AcDbEllipse
10
92.658252
20
5.577121
30
0
11
0.0354942455239634
21
-0.677270550470552
31
0
210
0
220
0
230
1
40
0.995725
41
-0.789358026845145
42
0
0
ELLIPSE
5
252
100
AcDbEntity
8
1
62
256
6
ByLayer
370
18
48
1
60
0
100
AcDbEllipse
10
92.658252
20
5.577121
30
0
11
-0.0354942455239636
21
0.677270550470552
31
0
210
0
220
0
230
1
40
0.995725
41
-3.04305800877152
42
-2.0943951023932
0
ELLIPSE
5
253
100
AcDbEntity
8
1
62
256
6
ByLayer
370
18
48
1
60
0
100
AcDbEllipse
10
92.658252
20
5.577121
30
0
11
0.0354942455239634
21
-0.677270550470552
31
0
210
0
220
0
230
1
40
0.995725
41
-1.9034447010322
42
-1.21869270683774
0
ELLIPSE
5
254
100
AcDbEntity
8
1
62
256
6
ByLayer
370
18
48
1
60
0
100
AcDbEllipse
10
93.427987
20
5.617461
30
0
11
-0.0107759733904251
21
0.205617821205965
31
0
210
0
220
0
230
1
40
0.494235
41
-2.91943718638292
42
-0.513708864212065
0
ELLIPSE
5
255
100
AcDbEntity
8
1
62
256
6
ByLayer
370
18
48
1
60
0
100
AcDbEllipse
10
93.078205
20
4.927819
30
0
11
-0.171784475702875
21
-0.112311174146135
31
0
210
0
220
0
230
1
40
0.497416
41
0.586207480381115
42
-2.95779077331556
0
ELLIPSE
5
256
100
AcDbEntity
8
1
62
256
6
ByLayer
370
18
48
1
60
0
100
AcDbEllipse
10
92.667016
20
5.57758
30
0
11
-0.0693451420218991
21
1.32318413354981
31
0
210
0
220
0
230
1
40
0.995725
41
9.22038546311187E-05
42
3.14158645645112
0
ELLIPSE
5
257
100
AcDbEntity
8
1
62
256
6
ByLayer
370
18
48
1
60
0
100
AcDbEllipse
10
93.008034
20
6.266762
30
0
11
-0.182583136812146
21
0.0937395545243934
31
0
210
0
220
0
230
1
40
0.497416
41
2.95779077331567
42
-0.697449354237807
0
ELLIPSE
5
258
100
AcDbEntity
8
1
62
256
6
ByLayer
370
18
48
1
60
0
100
AcDbEllipse
10
92.308471
20
4.887479
30
0
11
-0.182583136812146
21
0.0937395545243963
31
0
210
0
220
0
230
1
40
0.497416
41
2.44414183573162
42
-2.95288588122169
0
ELLIPSE
5
259
100
AcDbEntity
8
1
62
256
6
ByLayer
370
18
48
1
60
0
100
AcDbEllipse
10
92.2383
20
6.226422
30
0
11
-0.171784475702861
21
-0.112311174146138
31
0
210
0
220
0
230
1
40
0.497416
41
2.95288588122181
42
-2.55538359160666
0
ELLIPSE
5
25A
100
AcDbEntity
8
1
62
256
6
ByLayer
370
13
48
1
60
0
100
AcDbEllipse
10
90.978972
20
2.820456
30
0
11
-0.318392676608629
21
-0.395166625623717
31
0
210
0
220
0
230
1
40
0.966608
41
-2.26095468055329
42
-1.67136891249159
0
POINT
5
70
100
AcDbEntity
8
1
62
256
6
ByLayer
370
18
48
1
60
0
100
AcDbPoint
10
0
20
0
30
0
39
0
210
0
220
0
230
1
50
360
0
POINT
5
72
100
AcDbEntity
8
80
62
256
6
ByLayer
370
18
48
1
60
0
100
AcDbPoint
10
0
20
0
30
0
39
0
210
0
220
0
230
1
50
360
0
POINT
5
74
100
AcDbEntity
8
81
62
256
6
ByLayer
370
18
48
1
60
0
100
AcDbPoint
10
97
20
0
30
0
39
0
210
0
220
0
230
1
50
360
0
POINT
5
76
100
AcDbEntity
8
1
62
256
6
ByLayer
370
18
48
1
60
1
100
AcDbPoint
10
0
20
-16
30
0
39
0
210
0
220
0
230
1
50
360
0
POINT
5
77
100
AcDbEntity
8
1
62
256
6
ByLayer
370
18
48
1
60
1
100
AcDbPoint
10
97
20
-8.5
30
0
39
0
210
0
220
0
230
1
50
360
0
POINT
5
78
100
AcDbEntity
8
1
62
256
6
ByLayer
370
18
48
1
60
1
100
AcDbPoint
10
-15
20
-10
30
0
39
0
210
0
220
0
230
1
50
360
0
POINT
5
79
100
AcDbEntity
8
1
62
256
6
ByLayer
370
18
48
1
60
1
100
AcDbPoint
10
0
20
-16
30
0
39
0
210
0
220
0
230
1
50
360
0
POINT
5
7A
100
AcDbEntity
8
1
62
256
6
ByLayer
370
18
48
1
60
1
100
AcDbPoint
10
97
20
-8.5
30
0
39
0
210
0
220
0
230
1
50
360
0
POINT
5
7B
100
AcDbEntity
8
1
62
256
6
ByLayer
370
18
48
1
60
1
100
AcDbPoint
10
13.6851
20
-16
30
0
39
0
210
0
220
0
230
1
50
360
0
POINT
5
7C
100
AcDbEntity
8
1
62
256
6
ByLayer
370
18
48
1
60
1
100
AcDbPoint
10
26
20
-8.5
30
0
39
0
210
0
220
0
230
1
50
360
0
POINT
5
7D
100
AcDbEntity
8
1
62
256
6
ByLayer
370
18
48
1
60
1
100
AcDbPoint
10
97
20
-8.5
30
0
39
0
210
0
220
0
230
1
50
360
0
POINT
5
7E
100
AcDbEntity
8
1
62
256
6
ByLayer
370
18
48
1
60
1
100
AcDbPoint
10
96.5369
20
-4.25
30
0
39
0
210
0
220
0
230
1
50
360
0
SPLINE
5
25B
100
AcDbEntity
8
1
62
256
6
ByLayer
370
13
48
1
60
0
100
AcDbSpline
70
4
71
3
72
8
73
4
40
0
40
0
40
0
40
0
40
1
40
1
40
1
40
1
41
1
10
0
20
2.56700000000001
30
0
41
1
10
0.166629459497471
20
2.56700000000001
30
0
41
1
10
0.333297337465325
20
2.56700000000001
30
0
41
1
10
0.5
20
2.56700000000001
30
0
0
SPLINE
5
25C
100
AcDbEntity
8
1
62
256
6
ByLayer
370
13
48
1
60
0
100
AcDbSpline
70
4
71
3
72
8
73
4
40
0
40
0
40
0
40
0
40
1
40
1
40
1
40
1
41
1
10
0.499999999999972
20
-14.9604105886527
30
0
41
1
10
0.333297324521339
20
-14.8141471402828
30
0
41
1
10
0.166629472434494
20
-14.6678539172097
30
0
41
1
10
-2.84E-14
20
-14.5215279214844
30
0
0
SPLINE
5
25D
100
AcDbEntity
8
1
62
256
6
ByLayer
370
13
48
1
60
0
100
AcDbSpline
70
4
71
3
72
8
73
4
40
0
40
0
40
0
40
0
40
1
40
1
40
1
40
1
41
1
10
84.7842851454727
20
7.59350288245821
30
0
41
1
10
84.8596005417951
20
7.74365384570413
30
0
41
1
10
84.9329042346785
20
7.89480778850927
30
0
41
1
10
85.0044200156674
20
8.04685313461425
30
0
0
SPLINE
5
25E
100
AcDbEntity
8
1
62
256
6
ByLayer
370
13
48
1
60
0
100
AcDbSpline
70
4
71
3
72
16
73
12
40
0
40
0
40
0
40
0
40
0.250000000000002
40
0.250000000000002
40
0.500000000000003
40
0.500000000000003
40
0.625000000000001
40
0.625000000000001
40
0.749999999999999
40
0.749999999999999
40
1
40
1
40
1
40
1
41
1
10
87.9417910924909
20
2.39616319286478
30
0
41
1
10
88.2368034335004
20
2.33240624243558
30
0
41
1
10
88.5238007540779
20
2.29099765934942
30
0
41
1
10
89.0805264360007
20
2.24283090157988
30
0
41
1
10
89.3502645629175
20
2.23617355191453
30
0
41
1
10
89.7393139735916
20
2.24625101184842
30
0
41
1
10
89.8658589431961
20
2.25295494324555
30
0
41
1
10
90.1108054730043
20
2.27170821082743
30
0
41
1
10
90.2294362423085
20
2.2837654312797
30
0
41
1
10
90.5728448427956
20
2.32598174916967
30
0
41
1
10
90.7854146600735
20
2.36231349893717
30
0
41
1
10
90.9766623481051
20
2.40059649422929
30
0
0
SPLINE
5
25F
100
AcDbEntity
8
1
62
256
6
ByLayer
370
13
48
1
60
0
100
AcDbSpline
70
4
71
3
72
8
73
4
40
0
40
0
40
0
40
0
40
1
40
1
40
1
40
1
41
1
10
87.680317757221
20
-8.25287229086132
30
0
41
1
10
87.5386566539392
20
-8.24998153835429
30
0
41
1
10
87.3965607651928
20
-8.24710205181972
30
0
41
1
10
87.2540706154506
20
-8.24427871285528
30
0
0
SPLINE
5
260
100
AcDbEntity
8
1
62
256
6
ByLayer
370
13
48
1
60
0
100
AcDbSpline
70
4
71
3
72
8
73
4
40
0
40
0
40
0
40
0
40
1
40
1
40
1
40
1
41
1
10
31
20
-2.76012163112969
30
0
41
1
10
29.3333304310896
20
-2.75883806519386
30
0
41
1
10
27.6666629410578
20
-2.75956975430177
30
0
41
1
10
26
20
-2.76470824686001
30
0
0
SPLINE
5
261
100
AcDbEntity
8
1
62
256
6
ByLayer
370
13
48
1
60
0
100
AcDbSpline
70
4
71
3
72
8
73
4
40
0
40
0
40
0
40
0
40
1
40
1
40
1
40
1
41
1
10
84.5960249522875
20
2.97816152264662
30
0
41
1
10
84.6243289696523
20
3.0622045545133
30
0
41
1
10
84.6506201649499
20
3.14664508360917
30
0
41
1
10
84.6757305670266
20
3.2313187987582
30
0
0
SPLINE
5
262
100
AcDbEntity
8
1
62
256
6
ByLayer
370
13
48
1
60
0
100
AcDbSpline
70
4
71
3
72
8
73
4
40
0
40
0
40
0
40
0
40
1
40
1
40
1
40
1
41
1
10
85.0044200156675
20
8.04685313461459
30
0
41
1
10
84.7543724727471
20
8.0625319466476
30
0
41
1
10
84.5042658742983
20
8.07600375073662
30
0
41
1
10
84.2540706154506
20
8.0872724261003
30
0
0
SPLINE
5
263
100
AcDbEntity
8
1
62
256
6
ByLayer
370
13
48
1
60
0
100
AcDbSpline
70
4
71
3
72
10
73
6
40
0
40
0
40
0
40
0
40
0.5
40
0.5
40
1
40
1
40
1
40
1
41
1
10
86.9347726739408
20
3.11319569101002
30
0
41
1
10
87.0272885389241
20
2.9932853401624
30
0
41
1
10
87.1255150192219
20
2.88650018558008
30
0
41
1
10
87.3343303784801
20
2.69692608439794
30
0
41
1
10
87.4457240028663
20
2.6139263022894
30
0
41
1
10
87.5613842371605
20
2.54617828724665
30
0
0
SPLINE
5
264
100
AcDbEntity
8
1
62
256
6
ByLayer
370
13
48
1
60
0
100
AcDbSpline
70
4
71
3
72
18
73
14
40
0
40
0
40
0
40
0
40
0.125
40
0.125
40
0.25
40
0.25
40
0.375
40
0.375
40
0.5
40
0.5
40
0.75
40
0.75
40
1
40
1
40
1
40
1
41
1
10
3.5
20
2.56699999999998
30
0
41
1
10
3.53318725434176
20
2.56699999999998
30
0
41
1
10
3.56580829140157
20
2.56372864022964
30
0
41
1
10
3.62996621656711
20
2.55092029900885
30
0
41
1
10
3.66184300636689
20
2.54122110161589
30
0
41
1
10
3.7224882072679
20
2.51597417470759
30
0
41
1
10
3.75123256039328
20
2.5005358367311
30
0
41
1
10
3.80560183293426
20
2.46408769917883
30
0
41
1
10
3.83126179641692
20
2.44293372559446
30
0
41
1
10
3.90020942390294
20
2.37371581673929
30
0
41
1
10
3.93725026661849
20
2.31803869448134
30
0
41
1
10
3.98683556630692
20
2.19814630442173
30
0
41
1
10
4
20
2.13279936563703
30
0
41
1
10
4
20
2.06699999999998
30
0
0
SPLINE
5
265
100
AcDbEntity
8
1
62
256
6
ByLayer
370
13
48
1
60
0
100
AcDbSpline
70
4
71
3
72
20
73
16
40
0
40
0
40
0
40
0
40
0.125000000000001
40
0.125000000000001
40
0.250000000000001
40
0.250000000000001
40
0.375000000000002
40
0.375000000000002
40
0.500000000000002
40
0.500000000000002
40
0.625000000000001
40
0.625000000000001
40
0.750000000000001
40
0.750000000000001
40
1
40
1
40
1
40
1
41
1
10
4
20
-2.06700000000001
30
0
41
1
10
4
20
-2.09990618764871
30
0
41
1
10
3.99678333054672
20
-2.13225565776904
30
0
41
1
10
3.98418941760985
20
-2.19588982215285
30
0
41
1
10
3.97466699217188
20
-2.22749262402053
30
0
41
1
10
3.94975653371867
20
-2.28787484284061
30
0
41
1
10
3.93450971153683
20
-2.31652223529338
30
0
41
1
10
3.89848174695652
20
-2.37076361314041
30
0
41
1
10
3.87747401644799
20
-2.39650818132446
30
0
41
1
10
3.83150344696435
20
-2.44272295551895
30
0
41
1
10
3.80641060638416
20
-2.46347400658138
30
0
41
1
10
3.75190461651775
20
-2.50015489351551
30
0
41
1
10
3.72270136626577
20
-2.51585429972602
30
0
41
1
10
3.63230486744203
20
-2.55357963965602
30
0
41
1
10
3.56638693676757
20
-2.56700000000001
30
0
41
1
10
3.5
20
-2.56700000000001
30
0
0
SPLINE
5
266
100
AcDbEntity
8
1
62
256
6
ByLayer
370
13
48
1
60
0
100
AcDbSpline
70
4
71
3
72
12
73
8
40
0
40
0
40
0
40
0
40
0.500000000000021
40
0.500000000000021
40
0.75000000000001
40
0.75000000000001
40
1
40
1
40
1
40
1
41
1
10
82.7468720832907
20
1.28964623966863
30
0
41
1
10
82.8881927643061
20
1.24440761753269
30
0
41
1
10
83.0313335494301
20
1.19480924791347
30
0
41
1
10
83.2483796109316
20
1.11199974003981
30
0
41
1
10
83.3215578056308
20
1.08279782621955
30
0
41
1
10
83.4661927714613
20
1.02219382286816
30
0
41
1
10
83.5375205289898
20
0.990865240875507
30
0
41
1
10
83.6078525970286
20
0.958434123035175
30
0
0
SPLINE
5
267
100
AcDbEntity
8
1
62
256
6
ByLayer
370
13
48
1
60
0
100
AcDbSpline
70
4
71
3
72
14
73
10
40
0
40
0
40
0
40
0
40
0.25
40
0.25
40
0.5
40
0.5
40
0.75
40
0.75
40
1
40
1
40
1
40
1
41
1
10
90.2046648815534
20
3.00352050627998
30
0
41
1
10
90.2318892168516
20
2.99620834851598
30
0
41
1
10
90.2556697493937
20
2.98783968215187
30
0
41
1
10
90.2964704358149
20
2.96902836357054
30
0
41
1
10
90.3133556189675
20
2.95854252517586
30
0
41
1
10
90.3383711142422
20
2.93673860038422
30
0
41
1
10
90.3468983234623
20
2.92514179735343
30
0
41
1
10
90.3555227791701
20
2.90143373205882
30
0
41
1
10
90.3556431885302
20
2.88954999609481
30
0
41
1
10
90.3519396425277
20
2.87763916350025
30
0
0
SPLINE
5
268
100
AcDbEntity
8
1
62
256
6
ByLayer
370
13
48
1
60
0
100
AcDbSpline
70
4
71
3
72
10
73
6
40
0
40
0
40
0
40
0
40
0.5
40
0.5
40
1
40
1
40
1
40
1
41
1
10
82.7468720832907
20
1.2896462396686
30
0
41
1
10
82.9783479767199
20
1.13640305959899
30
0
41
1
10
83.2194976230566
20
1.00324395407938
30
0
41
1
10
83.7215481822789
20
0.77870773756203
30
0
41
1
10
83.9824210817769
20
0.687269150709767
30
0
41
1
10
84.2540706154484
20
0.618923244209697
30
0
0
SPLINE
5
269
100
AcDbEntity
8
1
62
256
6
ByLayer
370
13
48
1
60
0
100
AcDbSpline
70
4
71
3
72
8
73
4
40
0
40
0
40
0
40
0
40
1
40
1
40
1
40
1
41
1
10
-2.84E-14
20
-11.9545279214844
30
0
41
1
10
0.166629472434494
20
-12.1008539172097
30
0
41
1
10
0.333297324521368
20
-12.2471471402828
30
0
41
1
10
0.499999999999972
20
-12.3934105886527
30
0
0
SPLINE
5
26A
100
AcDbEntity
8
1
62
256
6
ByLayer
370
13
48
1
60
0
100
AcDbSpline
70
4
71
3
72
8
73
4
40
0
40
0
40
0
40
0
40
1
40
1
40
1
40
1
41
1
10
90.6979528559214
20
3.1061402467063
30
0
41
1
10
90.6947513156824
20
3.10597246109211
30
0
41
1
10
90.6915497708204
20
3.10580467523559
30
0
41
1
10
90.6883482213878
20
3.10563688913956
30
0
0
SPLINE
5
26B
100
AcDbEntity
8
1
62
256
6
ByLayer
370
13
48
1
60
0
100
AcDbSpline
70
4
71
1
72
4
73
2
40
0
40
0
40
1
40
1
41
1
10
26.0000000000001
20
-7.76760949831737
30
0
41
1
10
26.0000000000001
20
-8.27215307820441
30
0
0
SPLINE
5
26C
100
AcDbEntity
8
1
62
256
6
ByLayer
370
13
48
1
60
0
100
AcDbSpline
70
4
71
3
72
40
73
36
40
0
40
0
40
0
40
0
40
0.125000000000006
40
0.125000000000006
40
0.187500000000013
40
0.187500000000013
40
0.250000000000019
40
0.250000000000019
40
0.312500000000025
40
0.312500000000025
40
0.375000000000032
40
0.375000000000032
40
0.406250000000035
40
0.406250000000035
40
0.437500000000038
40
0.437500000000038
40
0.468750000000042
40
0.468750000000042
40
0.500000000000045
40
0.500000000000045
40
0.562500000000039
40
0.562500000000039
40
0.625000000000034
40
0.625000000000034
40
0.687500000000028
40
0.687500000000028
40
0.750000000000022
40
0.750000000000022
40
0.812500000000017
40
0.812500000000017
40
0.875000000000011
40
0.875000000000011
40
0.937500000000006
40
0.937500000000006
40
1
40
1
40
1
40
1
41
1
10
90.6431529409466
20
3.01526891687595
30
0
41
1
10
90.5985414512028
20
2.89475133304765
30
0
41
1
10
90.5372642337032
20
2.78830831394711
30
0
41
1
10
90.4274898698441
20
2.65085934711161
30
0
41
1
10
90.3882356308637
20
2.60912506510374
30
0
41
1
10
90.3043232254883
20
2.53288017049692
30
0
41
1
10
90.2594213082198
20
2.49821512533561
30
0
41
1
10
90.1644803365548
20
2.43665901792116
30
0
41
1
10
90.1147000201192
20
2.40982589388983
30
0
41
1
10
90.0080986925065
20
2.36374796602598
30
0
41
1
10
89.9506727154151
20
2.34433197911812
30
0
41
1
10
89.8580874177579
20
2.32256592374634
30
0
41
1
10
89.8258593724614
20
2.31647698311525
30
0
41
1
10
89.7590967891075
20
2.30714605149376
30
0
41
1
10
89.7253674610446
20
2.30400668027909
30
0
41
1
10
89.6572022695752
20
2.30072114995022
30
0
41
1
10
89.6223921639312
20
2.30059586494389
30
0
41
1
10
89.5540905315609
20
2.30325645826144
30
0
41
1
10
89.5207818078268
20
2.30598738193024
30
0
41
1
10
89.4225755888297
20
2.31787472770736
30
0
41
1
10
89.3590587026828
20
2.3308248658125
30
0
41
1
10
89.2380691345735
20
2.36471918040078
30
0
41
1
10
89.1800336229333
20
2.38573693637574
30
0
41
1
10
89.067435152074
20
2.43599942221363
30
0
41
1
10
89.0125314759957
20
2.4655111303255
30
0
41
1
10
88.908172338537
20
2.53225783958061
30
0
41
1
10
88.8586995514236
20
2.5694071078878
30
0
41
1
10
88.7651368262341
20
2.65188813706086
30
0
41
1
10
88.721043796357
20
2.69720286288796
30
0
41
1
10
88.6388831995253
20
2.7975589395287
30
0
41
1
10
88.6018885108146
20
2.85133913929505
30
0
41
1
10
88.5371258494705
20
2.96630067704501
30
0
41
1
10
88.5090190097925
20
3.02841365894997
30
0
41
1
10
88.4651600701724
20
3.15705875326626
30
0
41
1
10
88.4492522439162
20
3.22344484753759
30
0
41
1
10
88.4398758004164
20
3.29214830376856
30
0
0
SPLINE
5
26D
100
AcDbEntity
8
1
62
256
6
ByLayer
370
13
48
1
60
0
100
AcDbSpline
70
4
71
3
72
8
73
4
40
0
40
0
40
0
40
0
40
1
40
1
40
1
40
1
41
1
10
86.873439899578
20
3.72418302097788
30
0
41
1
10
86.8748473930366
20
3.83625646343819
30
0
41
1
10
86.8649206783661
20
3.95060745913298
30
0
41
1
10
86.8396825201477
20
4.06028103020447
30
0
0
SPLINE
5
26E
100
AcDbEntity
8
1
62
256
6
ByLayer
370
13
48
1
60
0
100
AcDbSpline
70
4
71
3
72
18
73
14
40
0
40
0
40
0
40
0
40
0.249999999999992
40
0.249999999999992
40
0.374999999999983
40
0.374999999999983
40
0.499999999999974
40
0.499999999999974
40
0.749999999999987
40
0.749999999999987
40
0.874999999999994
40
0.874999999999994
40
1
40
1
40
1
40
1
41
1
10
90.6740594012371
20
3.10488804380691
30
0
41
1
10
90.6687388514113
20
3.10460920562005
30
0
41
1
10
90.6700027956438
20
3.11486765777377
30
0
41
1
10
90.6852678913243
20
3.14328598865646
30
0
41
1
10
90.6926265458037
20
3.1547904974345
30
0
41
1
10
90.7125688050062
20
3.1802888570181
30
0
41
1
10
90.7254198857813
20
3.19453364191475
30
0
41
1
10
90.7715031473992
20
3.23700065065768
30
0
41
1
10
90.8136908414725
20
3.26569338977501
30
0
41
1
10
90.8869798068708
20
3.29687865863934
30
0
41
1
10
90.9134919206569
20
3.30555664091071
30
0
41
1
10
90.9676366434284
20
3.31803817895428
30
0
41
1
10
90.9955019667934
20
3.32199300130352
30
0
41
1
10
91.0241703111241
20
3.32351101191224
30
0
0
SPLINE
5
26F
100
AcDbEntity
8
1
62
256
6
ByLayer
370
13
48
1
60
0
100
AcDbSpline
70
4
71
3
72
14
73
10
40
0
40
0
40
0
40
0
40
0.25
40
0.25
40
0.5
40
0.5
40
0.75
40
0.75
40
1
40
1
40
1
40
1
41
1
10
94.6041349796599
20
3.51112904648613
30
0
41
1
10
94.6459622208319
20
3.5133211193095
30
0
41
1
10
94.6872886328554
20
3.51024805495797
30
0
41
1
10
94.7689840400263
20
3.49434176459582
30
0
41
1
10
94.8079749164752
20
3.48163992412452
30
0
41
1
10
94.8798090666487
20
3.44998744619403
30
0
41
1
10
94.9112801528606
20
3.4317045057044
30
0
41
1
10
94.965409283825
20
3.39556226674858
30
0
41
1
10
94.9867736409426
20
3.37869429247692
30
0
41
1
10
95.0037730602435
20
3.36517779980679
30
0
0
SPLINE
5
270
100
AcDbEntity
8
1
62
256
6
ByLayer
370
13
48
1
60
0
100
AcDbSpline
70
4
71
1
72
4
73
2
40
0
40
0
40
1
40
1
41
1
10
26.4499999999888
20
-4.8629301562687
30
0
41
1
10
26.01
20
-4.8629301562687
30
0
0
SPLINE
5
271
100
AcDbEntity
8
1
62
256
6
ByLayer
370
13
48
1
60
0
100
AcDbSpline
70
4
71
3
72
36
73
32
40
0
40
0
40
0
40
0
40
0.0624999999999967
40
0.0624999999999967
40
0.0937499999999944
40
0.0937499999999944
40
0.109374999999994
40
0.109374999999994
40
0.124999999999993
40
0.124999999999993
40
0.187499999999994
40
0.187499999999994
40
0.249999999999994
40
0.249999999999994
40
0.312499999999994
40
0.312499999999994
40
0.374999999999995
40
0.374999999999995
40
0.437499999999995
40
0.437499999999995
40
0.499999999999995
40
0.499999999999995
40
0.624999999999996
40
0.624999999999996
40
0.687499999999996
40
0.687499999999996
40
0.749999999999996
40
0.749999999999996
40
0.874999999999998
40
0.874999999999998
40
1
40
1
40
1
40
1
41
1
10
84.2540706154506
20
-8.11700774130006
30
0
41
1
10
83.6066882628792
20
-8.10823388652724
30
0
41
1
10
82.9602430689278
20
-8.09877523092058
30
0
41
1
10
82.0094946828508
20
-8.068183114313
30
0
41
1
10
81.6955433247713
20
-8.05536104460074
30
0
41
1
10
81.2331872059337
20
-8.0267605172572
30
0
41
1
10
81.0806033504517
20
-8.0155460235554
30
0
41
1
10
80.7789000272254
20
-7.98860790974425
30
0
41
1
10
80.6294340498445
20
-7.97313705375268
30
0
41
1
10
79.8806228428637
20
-7.89312752636454
30
0
41
1
10
79.2813846019133
20
-7.81728408819305
30
0
41
1
10
78.0860610605572
20
-7.64096610131526
30
0
41
1
10
77.4898461662103
20
-7.54022645416438
30
0
41
1
10
76.2975757078276
20
-7.31563844993261
30
0
41
1
10
75.7014118457473
20
-7.19188167372775
30
0
41
1
10
74.5058120799924
20
-6.92583507084333
30
0
41
1
10
73.9063701913003
20
-6.78356618832686
30
0
41
1
10
72.701460526256
20
-6.4861298320024
30
0
41
1
10
72.0953518645578
20
-6.33079988786599
30
0
41
1
10
70.8792287567358
20
-6.01524394389844
30
0
41
1
10
70.2688657119012
20
-5.85518021568816
30
0
41
1
10
68.4289301240227
20
-5.37674726777036
30
0
41
1
10
67.1907240867853
20
-5.05972652512602
30
0
41
1
10
65.3118963333187
20
-4.61394050749846
30
0
41
1
10
64.6821199708519
20
-4.47009673167096
30
0
41
1
10
63.415367351034
20
-4.19498837468939
30
0
41
1
10
62.7788600709786
20
-4.06384100924979
30
0
41
1
10
60.8658415764415
20
-3.69525679517363
30
0
41
1
10
59.5834600405813
20
-3.48232046013678
30
0
41
1
10
57.0025819955799
20
-3.14429690816485
30
0
41
1
10
55.7043804767348
20
-3.01762868805434
30
0
41
1
10
54.4
20
-2.92698908391077
30
0
0
SPLINE
5
272
100
AcDbEntity
8
1
62
256
6
ByLayer
370
13
48
1
60
0
100
AcDbSpline
70
4
71
3
72
10
73
6
40
0
40
0
40
0
40
0
40
0.5
40
0.5
40
1
40
1
40
1
40
1
41
1
10
95.0037730602435
20
3.36517779980679
30
0
41
1
10
95.0164478281416
20
3.35509990218239
30
0
41
1
10
95.0274400499759
20
3.34725279339369
30
0
41
1
10
95.0441887539503
20
3.33685554284836
30
0
41
1
10
95.0500251282336
20
3.33422268977748
30
0
41
1
10
95.0529247354049
20
3.33437465175012
30
0
0
SPLINE
5
273
100
AcDbEntity
8
1
62
256
6
ByLayer
370
13
48
1
60
0
100
AcDbSpline
70
4
71
3
72
10
73
6
40
0
40
0
40
0
40
0
40
0.5
40
0.5
40
1
40
1
40
1
40
1
41
1
10
85.3562130535243
20
3.75770256353701
30
0
41
1
10
85.3921608207911
20
3.7674926389173
30
0
41
1
10
85.4283990131952
20
3.77645934409668
30
0
41
1
10
85.5019030953683
20
3.79147917956476
30
0
41
1
10
85.5391776605414
20
3.79766353443478
30
0
41
1
10
85.5770200940968
20
3.80046998551248
30
0
0
SPLINE
5
274
100
AcDbEntity
8
1
62
256
6
ByLayer
370
13
48
1
60
0
100
AcDbSpline
70
2053
71
3
72
68
73
64
40
0
40
0
40
0
40
0
40
0.0312499999999997
40
0.0312499999999997
40
0.0624999999999994
40
0.0624999999999994
40
0.0937499999999991
40
0.0937499999999991
40
0.124999999999999
40
0.124999999999999
40
0.156249999999999
40
0.156249999999999
40
0.187499999999998
40
0.187499999999998
40
0.218749999999998
40
0.218749999999998
40
0.249999999999998
40
0.249999999999998
40
0.281249999999997
40
0.281249999999997
40
0.312499999999997
40
0.312499999999997
40
0.343749999999997
40
0.343749999999997
40
0.374999999999996
40
0.374999999999996
40
0.406249999999996
40
0.406249999999996
40
0.437499999999996
40
0.437499999999996
40
0.468749999999996
40
0.468749999999996
40
0.499999999999996
40
0.499999999999996
40
0.531249999999995
40
0.531249999999995
40
0.562499999999995
40
0.562499999999995
40
0.593749999999995
40
0.593749999999995
40
0.624999999999995
40
0.624999999999995
40
0.656249999999995
40
0.656249999999995
40
0.687499999999994
40
0.687499999999994
40
0.749999999999995
40
0.749999999999995
40
0.781249999999996
40
0.781249999999996
40
0.812499999999996
40
0.812499999999996
40
0.843749999999997
40
0.843749999999997
40
0.874999999999998
40
0.874999999999998
40
0.906249999999998
40
0.906249999999998
40
0.937499999999999
40
0.937499999999999
40
0.968749999999999
40
0.968749999999999
40
1
40
1
40
1
40
1
41
1
10
93.8234289884082
20
-0.16074481946427
30
0
41
1
10
93.8974824144294
20
-0.16074481946427
30
0
41
1
10
93.9702655531477
20
-0.168201684419444
30
0
41
1
10
94.1133938926064
20
-0.197423982608399
30
0
41
1
10
94.1845124614387
20
-0.219574638778227
30
0
41
1
10
94.3195027858199
20
-0.277178040440106
30
0
41
1
10
94.3834276935741
20
-0.312414828504558
30
0
41
1
10
94.5041610096677
20
-0.395696794864364
30
0
41
1
10
94.5608957358603
20
-0.443966186024397
30
0
41
1
10
94.6621206839471
20
-0.549152539743517
30
0
41
1
10
94.7073477005765
20
-0.606512827319563
30
0
41
1
10
94.7867409181824
20
-0.730986355413904
30
0
41
1
10
94.8196747792358
20
-0.796203073600651
30
0
41
1
10
94.8724763112085
20
-0.931687742876846
30
0
41
1
10
94.8924990276076
20
-1.00282398611353
30
0
41
1
10
94.9182875916205
20
-1.14622286528564
30
0
41
1
10
94.9242056702516
20
-1.21827530677831
30
0
41
1
10
94.9224910128572
20
-1.36304698412639
30
0
41
1
10
94.9146529298068
20
-1.43608712734047
30
0
41
1
10
94.8860201736263
20
-1.57711148728234
30
0
41
1
10
94.8652845419415
20
-1.64581948711728
30
0
41
1
10
94.8107872771973
20
-1.77962752144046
30
0
41
1
10
94.7771996693091
20
-1.84396806462729
30
0
41
1
10
94.6994158745367
20
-1.96411067935804
30
0
41
1
10
94.6550040903086
20
-2.02048840737518
30
0
41
1
10
94.5543400447438
20
-2.12545460216185
30
0
41
1
10
94.4996272490274
20
-2.17240911142133
30
0
41
1
10
94.3818503091987
20
-2.2551140201727
30
0
41
1
10
94.3181042101002
20
-2.291195701969
30
0
41
1
10
94.184036943942
20
-2.349876933514
30
0
41
1
10
94.1148839507438
20
-2.37211687953058
30
0
41
1
10
93.9722971410516
20
-2.40236119185093
30
0
41
1
10
93.8979646730238
20
-2.41026301428474
30
0
41
1
10
93.7514955100347
20
-2.41044296490438
30
0
41
1
10
93.6788572671852
20
-2.40300982486983
30
0
41
1
10
93.5347810955657
20
-2.37296233720329
30
0
41
1
10
93.4645621959303
20
-2.35046323734301
30
0
41
1
10
93.3313361801975
20
-2.29249621056599
30
0
41
1
10
93.2670883966098
20
-2.25642732567027
30
0
41
1
10
93.1481239414263
20
-2.17318050590183
30
0
41
1
10
93.093459262304
20
-2.12627182615603
30
0
41
1
10
92.9933409545006
20
-2.02219942442633
30
0
41
1
10
92.9480250704228
20
-1.9649146527108
30
0
41
1
10
92.8699798919354
20
-1.84456012500982
30
0
41
1
10
92.8367066527117
20
-1.78097953430407
30
0
41
1
10
92.7544672070165
20
-1.57967866060429
30
0
41
1
10
92.7253924833795
20
-1.43756583132947
30
0
41
1
10
92.7225889860955
20
-1.21889340745557
30
0
41
1
10
92.7285319248648
20
-1.14682942235439
30
0
41
1
10
92.7540142723253
20
-1.00435373171911
30
0
41
1
10
92.7738840335399
20
-0.933172141179142
30
0
41
1
10
92.826847000521
20
-0.796861453992477
30
0
41
1
10
92.8596465383893
20
-0.731958198792569
30
0
41
1
10
92.9379480081938
20
-0.608734004193536
30
0
41
1
10
92.9839838250867
20
-0.550037057342252
30
0
41
1
10
93.0852551751865
20
-0.444600813030917
30
0
41
1
10
93.1407708575959
20
-0.39720386802864
30
0
41
1
10
93.2618124318524
20
-0.31335752901316
30
0
41
1
10
93.3267080075755
20
-0.277534477988951
30
0
41
1
10
93.4609760102326
20
-0.22007996391423
30
0
41
1
10
93.5313626227876
20
-0.197944722372426
30
0
41
1
10
93.6761158182578
20
-0.168208923042528
30
0
41
1
10
93.7493755623869
20
-0.16074481946427
30
0
41
1
10
93.8234289884082
20
-0.16074481946427
30
0
0
SPLINE
5
275
100
AcDbEntity
8
1
62
256
6
ByLayer
370
13
48
1
60
0
100
AcDbSpline
70
4
71
3
72
10
73
6
40
0
40
0
40
0
40
0
40
0.5
40
0.5
40
1
40
1
40
1
40
1
41
1
10
87.2540706154506
20
-8.24427871285528
30
0
41
1
10
86.7579612458135
20
-8.220928932578
30
0
41
1
10
86.2591458282866
20
-8.19856022832991
30
0
41
1
10
85.2580562036023
20
-8.15677262911711
30
0
41
1
10
84.7558815717479
20
-8.13722302080853
30
0
41
1
10
84.2540706154506
20
-8.11700774130006
30
0
0
SPLINE
5
276
100
AcDbEntity
8
1
62
256
6
ByLayer
370
13
48
1
60
0
100
AcDbSpline
70
4
71
3
72
8
73
4
40
0
40
0
40
0
40
0
40
1
40
1
40
1
40
1
41
1
10
90.6883482211829
20
3.10563689077304
30
0
41
1
10
90.6699522305387
20
3.07708311291887
30
0
41
1
10
90.6547030698187
20
3.0464714979274
30
0
41
1
10
90.6431529409467
20
3.01526891687595
30
0
0
SPLINE
5
277
100
AcDbEntity
8
1
62
256
6
ByLayer
370
13
48
1
60
0
100
AcDbSpline
70
4
71
3
72
22
73
18
40
0
40
0
40
0
40
0
40
0.125
40
0.125
40
0.25
40
0.25
40
0.375
40
0.375
40
0.5
40
0.5
40
0.625
40
0.625
40
0.75
40
0.75
40
0.875
40
0.875
40
1
40
1
40
1
40
1
41
1
10
54.4
20
8.17844731450833
30
0
41
1
10
53.4365514948086
20
8.1951619378855
30
0
41
1
10
52.470373668396
20
8.20408286509218
30
0
41
1
10
50.5317695332399
20
8.21645727212294
30
0
41
1
10
49.5595156172953
20
8.22007749268275
30
0
41
1
10
47.610637864283
20
8.22716753708733
30
0
41
1
10
46.633731640578
20
8.2305253565462
30
0
41
1
10
44.6794935311444
20
8.23755258463657
30
0
41
1
10
43.7023886854994
20
8.24112882248363
30
0
41
1
10
41.7481819813527
20
8.24828882921074
30
0
41
1
10
40.7710806739641
20
8.25187203496242
30
0
41
1
10
38.8168717492847
20
8.25901040651556
30
0
41
1
10
37.839765220053
20
8.26257082389608
30
0
41
1
10
35.8855479394154
20
8.26968067257428
30
0
41
1
10
34.9084374457653
20
8.27323068610605
30
0
41
1
10
32.9542175781026
20
8.28033358936662
30
0
41
1
10
31.9771085151648
20
8.28388713490423
30
0
41
1
10
31
20
8.28744157340594
30
0
0
SPLINE
5
278
100
AcDbEntity
8
1
62
256
6
ByLayer
370
13
48
1
60
0
100
AcDbSpline
70
4
71
3
72
22
73
18
40
0
40
0
40
0
40
0
40
0.125
40
0.125
40
0.187500000000001
40
0.187500000000001
40
0.250000000000001
40
0.250000000000001
40
0.5
40
0.5
40
0.625
40
0.625
40
0.75
40
0.75
40
0.875
40
0.875
40
1
40
1
40
1
40
1
41
1
10
54.4
20
-8.19449401181168
30
0
41
1
10
53.4265034943571
20
-8.1946726296346
30
0
41
1
10
52.4523050753882
20
-8.19551872687674
30
0
41
1
10
50.9904316977228
20
-8.19862153831323
30
0
41
1
10
50.5030476452714
20
-8.19990965469108
30
0
41
1
10
49.5281822180532
20
-8.20278639835485
30
0
41
1
10
49.0407048099369
20
-8.20435978797073
30
0
41
1
10
46.6031596407906
20
-8.21272904086271
30
0
41
1
10
44.6526742048488
20
-8.22106434673501
30
0
41
1
10
41.7271615591018
20
-8.23284855464499
30
0
41
1
10
40.7519791514987
20
-8.23661756687133
30
0
41
1
10
38.8015935854096
20
-8.24388671238509
30
0
41
1
10
37.826391901708
20
-8.24740583999974
30
0
41
1
10
35.875994503396
20
-8.25437783489465
30
0
41
1
10
34.9007960033923
20
-8.25783037032389
30
0
41
1
10
32.950398409217
20
-8.26483426766382
30
0
41
1
10
31.9751993150769
20
-8.26838597851253
30
0
41
1
10
31
20
-8.27197449390789
30
0
0
SPLINE
5
279
100
AcDbEntity
8
1
62
256
6
ByLayer
370
13
48
1
60
0
100
AcDbSpline
70
4
71
3
72
16
73
12
40
0
40
0
40
0
40
0
40
0.25
40
0.25
40
0.375
40
0.375
40
0.5
40
0.5
40
0.75
40
0.75
40
1
40
1
40
1
40
1
41
1
10
13.8493237770154
20
-9.33182718803477
30
0
41
1
10
13.8021040481669
20
-9.43345683039678
30
0
41
1
10
13.7657640899692
20
-9.53362816683151
30
0
41
1
10
13.7286250461844
20
-9.68156814778479
30
0
41
1
10
13.7191334147064
20
-9.73070410117464
30
0
41
1
10
13.7064963513324
20
-9.82714074461924
30
0
41
1
10
13.7033529710289
20
-9.87421876029757
30
0
41
1
10
13.7034081554649
20
-10.0120842911381
30
0
41
1
10
13.7158352092375
20
-10.0995555894836
30
0
41
1
10
13.7646215053744
20
-10.2658133147477
30
0
41
1
10
13.8013377636973
20
-10.3448258717456
30
0
41
1
10
13.8488185412212
20
-10.4172534199914
30
0
0
SPLINE
5
27A
100
AcDbEntity
8
1
62
256
6
ByLayer
370
13
48
1
60
0
100
AcDbSpline
70
4
71
1
72
4
73
2
40
0
40
0
40
1
40
1
41
1
10
26.0100000111649
20
-7.75337189481735
30
0
41
1
10
26.0099999888352
20
-7.76762283416826
30
0
0
SPLINE
5
27B
100
AcDbEntity
8
1
62
256
6
ByLayer
370
13
48
1
60
0
100
AcDbSpline
70
4
71
3
72
10
73
6
40
0
40
0
40
0
40
0
40
0.5
40
0.5
40
1
40
1
40
1
40
1
41
1
10
93.8778144598125
20
3.41237496790245
30
0
41
1
10
93.908858038738
20
3.43247543052715
30
0
41
1
10
93.9441932917464
20
3.44965065815569
30
0
41
1
10
94.0227035393135
20
3.47510977868862
30
0
41
1
10
94.0638128002969
20
3.48278864495541
30
0
41
1
10
94.1066865965927
20
3.48505884503746
30
0
0
SPLINE
5
27C
100
AcDbEntity
8
1
62
256
6
ByLayer
370
13
48
1
60
0
100
AcDbSpline
70
4
71
3
72
8
73
4
40
0
40
0
40
0
40
0
40
1
40
1
40
1
40
1
41
1
10
26.45
20
-7.75393807916473
30
0
41
1
10
26.3033333219399
20
-7.75375597159882
30
0
41
1
10
26.1566666553272
20
-7.75356698918284
30
0
41
1
10
26.01
20
-7.75337189481436
30
0
0
SPLINE
5
27D
100
AcDbEntity
8
1
62
256
6
ByLayer
370
13
48
1
60
0
100
AcDbSpline
70
4
71
3
72
34
73
30
40
0
40
0
40
0
40
0
40
0.125
40
0.125
40
0.15625
40
0.15625
40
0.1875
40
0.1875
40
0.25
40
0.25
40
0.312499999999999
40
0.312499999999999
40
0.374999999999999
40
0.374999999999999
40
0.437499999999999
40
0.437499999999999
40
0.499999999999998
40
0.499999999999998
40
0.562499999999998
40
0.562499999999998
40
0.624999999999998
40
0.624999999999998
40
0.749999999999997
40
0.749999999999997
40
0.812499999999998
40
0.812499999999998
40
0.874999999999998
40
0.874999999999998
40
1
40
1
40
1
40
1
41
1
10
13.8488185412214
20
-10.4172534199913
30
0
41
1
10
13.7776369230431
20
-10.5556647565472
30
0
41
1
10
13.736141340722
20
-10.6865578213312
30
0
41
1
10
13.7241074250948
20
-10.8402045488328
30
0
41
1
10
13.7237623521626
20
-10.8705133905293
30
0
41
1
10
13.7271456988117
20
-10.9292055942432
30
0
41
1
10
13.730846115846
20
-10.9576889603862
30
0
41
1
10
13.7477415070912
20
-11.0406342475222
30
0
41
1
10
13.7667053341889
20
-11.0926003013776
30
0
41
1
10
13.8194491680102
20
-11.1900799437806
30
0
41
1
10
13.8535335671514
20
-11.235866661791
30
0
41
1
10
13.9351003753316
20
-11.3193693051611
30
0
41
1
10
13.9823886305194
20
-11.3570799313788
30
0
41
1
10
14.089378168192
20
-11.4249014863794
30
0
41
1
10
14.149074133381
20
-11.4550133558566
30
0
41
1
10
14.2808955972587
20
-11.5077835103922
30
0
41
1
10
14.3526813435502
20
-11.5302331282381
30
0
41
1
10
14.5051082188926
20
-11.566957576265
30
0
41
1
10
14.5861127672559
20
-11.5813665586229
30
0
41
1
10
14.7575402584507
20
-11.6026394724623
30
0
41
1
10
14.8481356811829
20
-11.6095380673559
30
0
41
1
10
15.1322929780627
20
-11.6192584321375
30
0
41
1
10
15.3335317601632
20
-11.6111977661973
30
0
41
1
10
15.6516408015093
20
-11.5800111314307
30
0
41
1
10
15.760857427472
20
-11.5663246775601
30
0
41
1
10
15.9828170549879
20
-11.5328578387704
30
0
41
1
10
16.0948879801472
20
-11.5132039785129
30
0
41
1
10
16.4343221953756
20
-11.4459453618051
30
0
41
1
10
16.6648656318936
20
-11.3901575822715
30
0
41
1
10
16.9000312174802
20
-11.3232250997721
30
0
0
SPLINE
5
27E
100
AcDbEntity
8
1
62
256
6
ByLayer
370
13
48
1
60
0
100
AcDbSpline
70
4
71
3
72
8
73
4
40
0
40
0
40
0
40
0
40
1
40
1
40
1
40
1
41
1
10
87.5613842371608
20
2.5461782872473
30
0
41
1
10
87.6829582041565
20
2.47496630159787
30
0
41
1
10
87.8092128937097
20
2.42481549133728
30
0
41
1
10
87.9417910924909
20
2.39616319286475
30
0
0
SPLINE
5
27F
100
AcDbEntity
8
1
62
256
6
ByLayer
370
13
48
1
60
0
100
AcDbSpline
70
4
71
3
72
18
73
14
40
0
40
0
40
0
40
0
40
0.25
40
0.25
40
0.375
40
0.375
40
0.5
40
0.5
40
0.625
40
0.625
40
0.75
40
0.75
40
1
40
1
40
1
40
1
41
1
10
96.0684834770429
20
0.369928918023675
30
0
41
1
10
96.0696440532276
20
0.420237701040264
30
0
41
1
10
96.0715630921122
20
0.466599721022988
30
0
41
1
10
96.075657720699
20
0.52981476525693
30
0
41
1
10
96.0772336512976
20
0.549789505272912
30
0
41
1
10
96.0806896065016
20
0.585968122025236
30
0
41
1
10
96.0825819401587
20
0.602390984911153
30
0
41
1
10
96.0867018310938
20
0.631837797937834
30
0
41
1
10
96.0889533357897
20
0.644955202235138
30
0
41
1
10
96.0936697744809
20
0.666831934780362
30
0
41
1
10
96.0961358712727
20
0.675666571637379
30
0
41
1
10
96.1038565008888
20
0.695884510790336
30
0
41
1
10
96.109469995401
20
0.70082378351637
30
0
41
1
10
96.1151795866762
20
0.696468976031326
30
0
0
SPLINE
5
280
100
AcDbEntity
8
1
62
256
6
ByLayer
370
13
48
1
60
0
100
AcDbSpline
70
4
71
3
72
12
73
8
40
0
40
0
40
0
40
0
40
0.249999999999999
40
0.249999999999999
40
0.499999999999999
40
0.499999999999999
40
1
40
1
40
1
40
1
41
1
10
86.9347726739413
20
3.11319569100684
30
0
41
1
10
86.9250605985462
20
3.15810463226913
30
0
41
1
10
86.9162578491285
20
3.20573662730863
30
0
41
1
10
86.9009922863757
20
3.30325981342946
30
0
41
1
10
86.8944819519594
20
3.35324314984482
30
0
41
1
10
86.8784314609052
20
3.50685414674885
30
0
41
1
10
86.8720722573909
20
3.61528278642984
30
0
41
1
10
86.873439899578
20
3.72418302097788
30
0
0
SPLINE
5
281
100
AcDbEntity
8
1
62
256
6
ByLayer
370
13
48
1
60
0
100
AcDbSpline
70
4
71
3
72
10
73
6
40
0
40
0
40
0
40
0
40
0.5
40
0.5
40
1
40
1
40
1
40
1
41
1
10
96.0710704596432
20
0.202922560100859
30
0
41
1
10
96.0695912582011
20
0.231407579798685
30
0
41
1
10
96.068632157537
20
0.259629087446825
30
0
41
1
10
96.067765924393
20
0.315516392619827
30
0
41
1
10
96.0678700596514
20
0.343338434043687
30
0
41
1
10
96.0684834770429
20
0.369928918023675
30
0
0
SPLINE
5
282
100
AcDbEntity
8
1
62
256
6
ByLayer
370
13
48
1
60
0
100
AcDbSpline
70
4
71
3
72
10
73
6
40
0
40
0
40
0
40
0
40
0.5
40
0.5
40
1
40
1
40
1
40
1
41
1
10
84.8948243726959
20
3.76936303876263
30
0
41
1
10
84.9581998533801
20
3.76957087074422
30
0
41
1
10
85.0210260053802
20
3.76750975135602
30
0
41
1
10
85.1455616218778
20
3.75868405650979
30
0
41
1
10
85.2076028910125
20
3.75185938771256
30
0
41
1
10
85.2680085568941
20
3.74269440017017
30
0
0
SPLINE
5
283
100
AcDbEntity
8
1
62
256
6
ByLayer
370
13
48
1
60
0
100
AcDbSpline
70
4
71
3
72
8
73
4
40
0
40
0
40
0
40
0
40
1
40
1
40
1
40
1
41
1
10
31
20
8.28744157340594
30
0
41
1
10
29.3333333506014
20
8.28744058208264
30
0
41
1
10
27.6666666703078
20
8.28744280786154
30
0
41
1
10
26
20
8.28744280786154
30
0
0
SPLINE
5
284
100
AcDbEntity
8
1
62
256
6
ByLayer
370
13
48
1
60
0
100
AcDbSpline
70
4
71
3
72
8
73
4
40
0
40
0
40
0
40
0
40
1
40
1
40
1
40
1
41
1
10
86.3767191369576
20
2.25586270955012
30
0
41
1
10
86.5614291466649
20
2.5506263003613
30
0
41
1
10
86.7372201801908
20
2.84336373941
30
0
41
1
10
86.9347726739338
20
3.11319569100087
30
0
0
SPLINE
5
285
100
AcDbEntity
8
1
62
256
6
ByLayer
370
13
48
1
60
0
100
AcDbSpline
70
4
71
3
72
8
73
4
40
0
40
0
40
0
40
0
40
1
40
1
40
1
40
1
41
1
10
31
20
-8.27197449390789
30
0
41
1
10
29.3333325080544
20
-8.27194795186261
30
0
41
1
10
27.6666660468893
20
-8.27202932822547
30
0
41
1
10
26
20
-8.27215307820444
30
0
0
SPLINE
5
286
100
AcDbEntity
8
1
62
256
6
ByLayer
370
13
48
1
60
0
100
AcDbSpline
70
4
71
3
72
24
73
20
40
0
40
0
40
0
40
0
40
0.249999999999997
40
0.249999999999997
40
0.499999999999995
40
0.499999999999995
40
0.624999999999994
40
0.624999999999994
40
0.656249999999994
40
0.656249999999994
40
0.687499999999994
40
0.687499999999994
40
0.749999999999995
40
0.749999999999995
40
0.874999999999998
40
0.874999999999998
40
0.937499999999999
40
0.937499999999999
40
1
40
1
40
1
40
1
41
1
10
16.8975752962778
20
-11.3239239582968
30
0
41
1
10
17.5427395330676
20
-11.1403722360756
30
0
41
1
10
18.1757574968658
20
-10.9314849407816
30
0
41
1
10
19.4174163003131
20
-10.4628627848044
30
0
41
1
10
20.0267319514245
20
-10.2027856764007
30
0
41
1
10
20.918314877795
20
-9.77484116710303
30
0
41
1
10
21.2118306706478
20
-9.62587120054414
30
0
41
1
10
21.5740198221746
20
-9.43157184497582
30
0
41
1
10
21.6462221605399
20
-9.39230726386046
30
0
41
1
10
21.7901522734644
20
-9.31296252926339
30
0
41
1
10
21.8622700542457
20
-9.27355262979884
30
0
41
1
10
22.0809497536895
20
-9.15932094503458
30
0
41
1
10
22.229076870821
20
-9.08718906697737
30
0
41
1
10
22.6805245998985
20
-8.88293751605431
30
0
41
1
10
22.990879911996
20
-8.76290748629856
30
0
41
1
10
23.4712247332238
20
-8.60831768690602
30
0
41
1
10
23.6338159807477
20
-8.56104346739502
30
0
41
1
10
23.9641737678513
20
-8.47538914363014
30
0
41
1
10
24.1326011726558
20
-8.43689133416424
30
0
41
1
10
24.3017759670644
20
-8.40346627583932
30
0
0
SPLINE
5
287
100
AcDbEntity
8
1
62
256
6
ByLayer
370
13
48
1
60
0
100
AcDbSpline
70
4
71
3
72
14
73
10
40
0
40
0
40
0
40
0
40
0.500000000000002
40
0.500000000000002
40
0.625000000000003
40
0.625000000000003
40
0.750000000000004
40
0.750000000000004
40
1
40
1
40
1
40
1
41
1
10
26
20
-8.27215307820441
30
0
41
1
10
25.6961737964733
20
-8.27217563730457
30
0
41
1
10
25.4000001158278
20
-8.28665889795457
30
0
41
1
10
25.0391484513602
20
-8.31772717738127
30
0
41
1
10
24.9672530552352
20
-8.32459317563487
30
0
41
1
10
24.8267590438495
20
-8.3390987319053
30
0
41
1
10
24.7579013048767
20
-8.34675691458608
30
0
41
1
10
24.5554149379384
20
-8.37045215519788
30
0
41
1
10
24.4258506148237
20
-8.38723325601805
30
0
41
1
10
24.3017759670644
20
-8.40346627583932
30
0
0
SPLINE
5
288
100
AcDbEntity
8
1
62
256
6
ByLayer
370
13
48
1
60
0
100
AcDbSpline
70
4
71
3
72
10
73
6
40
0
40
0
40
0
40
0
40
0.5
40
0.5
40
1
40
1
40
1
40
1
41
1
10
91.5216186941755
20
3.34958121336012
30
0
41
1
10
91.564542188211
20
3.35183073836157
30
0
41
1
10
91.6070905099045
20
3.34853283784602
30
0
41
1
10
91.6911412156613
20
3.33157539218792
30
0
41
1
10
91.7304401884901
20
3.31833018701985
30
0
41
1
10
91.7669993836913
20
3.30175183728579
30
0
0
SPLINE
5
289
100
AcDbEntity
8
1
62
256
6
ByLayer
370
13
48
1
60
0
100
AcDbSpline
70
4
71
3
72
8
73
4
40
0
40
0
40
0
40
0
40
1
40
1
40
1
40
1
41
1
10
83.6604218192447
20
1.03580645687748
30
0
41
1
10
83.6786087266909
20
1.0280828231806
30
0
41
1
10
83.6968238168133
20
1.02048036769744
30
0
41
1
10
83.7150173957566
20
1.01301433713985
30
0
0
SPLINE
5
28A
100
AcDbEntity
8
1
62
256
6
ByLayer
370
13
48
1
60
0
100
AcDbSpline
70
4
71
3
72
12
73
8
40
0
40
0
40
0
40
0
40
0.25
40
0.25
40
0.5
40
0.5
40
1
40
1
40
1
40
1
41
1
10
93.371359804096
20
3.24624756797996
30
0
41
1
10
93.4145623226686
20
3.2485117160378
30
0
41
1
10
93.4584353921659
20
3.25365504841889
30
0
41
1
10
93.5449126007056
20
3.26964182718564
30
0
41
1
10
93.5878879827454
20
3.28051638330933
30
0
41
1
10
93.7146791138443
20
3.32158265626779
30
0
41
1
10
93.7969713196021
20
3.36002969797838
30
0
41
1
10
93.8778144598125
20
3.41237496790245
30
0
0
SPLINE
5
28B
100
AcDbEntity
8
1
62
256
6
ByLayer
370
13
48
1
60
0
100
AcDbSpline
70
4
71
3
72
8
73
4
40
0
40
0
40
0
40
0
40
1
40
1
40
1
40
1
41
1
10
26.0099999999998
20
-7.76762283419092
30
0
41
1
10
26.0066666666609
20
-7.76761839205764
30
0
41
1
10
26.0033333333276
20
-7.76761394676347
30
0
41
1
10
26
20
-7.76760949831737
30
0
0
SPLINE
5
28C
100
AcDbEntity
8
1
62
256
6
ByLayer
370
13
48
1
60
0
100
AcDbSpline
70
4
71
3
72
32
73
28
40
0
40
0
40
0
40
0
40
0.125000000000001
40
0.125000000000001
40
0.187500000000001
40
0.187500000000001
40
0.250000000000002
40
0.250000000000002
40
0.375000000000002
40
0.375000000000002
40
0.437500000000002
40
0.437500000000002
40
0.500000000000001
40
0.500000000000001
40
0.562500000000001
40
0.562500000000001
40
0.625000000000001
40
0.625000000000001
40
0.687500000000001
40
0.687500000000001
40
0.750000000000001
40
0.750000000000001
40
0.812500000000001
40
0.812500000000001
40
0.875000000000001
40
0.875000000000001
40
1
40
1
40
1
40
1
41
1
10
82.7468720832907
20
1.28964623966857
30
0
41
1
10
81.5890795596156
20
1.80526047872587
30
0
41
1
10
80.433466957698
20
2.31087147021719
30
0
41
1
10
78.6983814298419
20
3.04385325339214
30
0
41
1
10
78.11973578859
20
3.28392916899065
30
0
41
1
10
76.9610107996301
20
3.75376954620785
30
0
41
1
10
76.3802836635461
20
3.98372733772652
30
0
41
1
10
74.6406724377651
20
4.65364417801842
30
0
41
1
10
73.4843626645008
20
5.07427654307349
30
0
41
1
10
71.7507725690142
20
5.65810587145583
30
0
41
1
10
71.1729633822062
20
5.84469425008822
30
0
41
1
10
70.0162842356792
20
6.19984207922499
30
0
41
1
10
69.437191683271
20
6.36852129205982
30
0
41
1
10
68.2777287976015
20
6.68554616644101
30
0
41
1
10
67.6987966689939
20
6.83390348194709
30
0
41
1
10
66.5377637511561
20
7.10477523787017
30
0
41
1
10
65.9552642627598
20
7.22678292986902
30
0
41
1
10
64.7817220218674
20
7.44229191660105
30
0
41
1
10
64.1905501964469
20
7.53574508069596
30
0
41
1
10
62.9976109783269
20
7.6973452808308
30
0
41
1
10
62.3954197067656
20
7.76550203700432
30
0
41
1
10
61.1827799038773
20
7.8820989909548
30
0
41
1
10
60.5738007462813
20
7.93051797371143
30
0
41
1
10
59.3517111517259
20
8.01274128028041
30
0
41
1
10
58.7387720895538
20
8.0466165278483
30
0
41
1
10
56.8932009724532
20
8.13008500266443
30
0
41
1
10
55.6534842628608
20
8.16108673565159
30
0
41
1
10
54.4
20
8.17844731450833
30
0
0
SPLINE
5
28D
100
AcDbEntity
8
1
62
256
6
ByLayer
370
13
48
1
60
0
100
AcDbSpline
70
4
71
3
72
8
73
4
40
0
40
0
40
0
40
0
40
1
40
1
40
1
40
1
41
1
10
95.7062355679224
20
-0.831031984800745
30
0
41
1
10
95.7758364365081
20
-1.22337436414213
30
0
41
1
10
95.790304029059
20
-1.61318026658631
30
0
41
1
10
95.7552635051993
20
-2.00006127507649
30
0
0
SPLINE
5
28E
100
AcDbEntity
8
1
62
256
6
ByLayer
370
13
48
1
60
0
100
AcDbSpline
70
4
71
3
72
18
73
14
40
0
40
0
40
0
40
0
40
0.250000000000004
40
0.250000000000004
40
0.375000000000003
40
0.375000000000003
40
0.500000000000002
40
0.500000000000002
40
0.75
40
0.75
40
0.875
40
0.875
40
1
40
1
40
1
40
1
41
1
10
26
20
-7.76760949832709
30
0
41
1
10
25.8399083791642
20
-7.76739585064294
30
0
41
1
10
25.6831762559009
20
-7.78260911165782
30
0
41
1
10
25.4526993509414
20
-7.82665005248094
30
0
41
1
10
25.3766483597864
20
-7.84488755266318
30
0
41
1
10
25.2260729737057
20
-7.88837272646407
30
0
41
1
10
25.1514559035446
20
-7.9137060178731
30
0
41
1
10
24.934793561235
20
-7.99805400827424
30
0
41
1
10
24.7981078855649
20
-8.06579634985206
30
0
41
1
10
24.6032141733299
20
-8.18245070877782
30
0
41
1
10
24.5396999920542
20
-8.2240432534818
30
0
41
1
10
24.4172612716091
20
-8.31110071590999
30
0
41
1
10
24.3584352966979
20
-8.35645650921452
30
0
41
1
10
24.3017759670643
20
-8.40346627583929
30
0
0
SPLINE
5
28F
100
AcDbEntity
8
1
62
256
6
ByLayer
370
13
48
1
60
0
100
AcDbSpline
70
4
71
3
72
8
73
4
40
0
40
0
40
0
40
0
40
1
40
1
40
1
40
1
41
1
10
88.7101084760162
20
8.19380903342125
30
0
41
1
10
88.7063170359746
20
8.2018047705786
30
0
41
1
10
88.7107775385449
20
8.20916956663675
30
0
41
1
10
88.7233107309803
20
8.21595120242833
30
0
0
SPLINE
5
290
100
AcDbEntity
8
1
62
256
6
ByLayer
370
13
48
1
60
0
100
AcDbSpline
70
4
71
3
72
8
73
4
40
0
40
0
40
0
40
0
40
1
40
1
40
1
40
1
41
1
10
85.3562130535263
20
3.75770256353311
30
0
41
1
10
85.328290629869
20
3.74878975609803
30
0
41
1
10
85.2986011502998
20
3.74406640092195
30
0
41
1
10
85.2680085568946
20
3.74269440017008
30
0
0
SPLINE
5
291
100
AcDbEntity
8
1
62
256
6
ByLayer
370
13
48
1
60
0
100
AcDbSpline
70
4
71
3
72
10
73
6
40
0
40
0
40
0
40
0
40
0.353357628853719
40
0.353357628853719
40
1
40
1
40
1
40
1
41
1
10
26.45
20
-7.75393677119808
30
0
41
1
10
26.45
20
-7.41341693566741
30
0
41
1
10
26.45
20
-7.07289713126056
30
0
41
1
10
26.45
20
-6.1092281865707
30
0
41
1
10
26.45
20
-5.48607911936429
30
0
41
1
10
26.45
20
-4.8629301562687
30
0
0
SPLINE
5
292
100
AcDbEntity
8
1
62
256
6
ByLayer
370
13
48
1
60
0
100
AcDbSpline
70
4
71
3
72
14
73
10
40
0
40
0
40
0
40
0
40
0.25
40
0.25
40
0.5
40
0.5
40
0.75
40
0.75
40
1
40
1
40
1
40
1
41
1
10
95.9455944282245
20
3.03067716688477
30
0
41
1
10
95.8624818725048
20
3.02632142240898
30
0
41
1
10
95.7805128529972
20
3.03103941952352
30
0
41
1
10
95.6196838020732
20
3.05610342512432
30
0
41
1
10
95.5440451947008
20
3.07581785203962
30
0
41
1
10
95.3982319420656
20
3.12810502446115
30
0
41
1
10
95.3280195923822
20
3.16094384244201
30
0
41
1
10
95.1959244752433
20
3.23848387234401
30
0
41
1
10
95.1333454350798
20
3.28344759397157
30
0
41
1
10
95.0745074869241
20
3.33550575499802
30
0
0
SPLINE
5
293
100
AcDbEntity
8
1
62
256
6
ByLayer
370
13
48
1
60
0
100
AcDbSpline
70
4
71
3
72
10
73
6
40
0
40
0
40
0
40
0
40
0.5
40
0.5
40
1
40
1
40
1
40
1
41
1
10
90.3227849928197
20
2.70499358055696
30
0
41
1
10
90.3536404067488
20
2.73672362483751
30
0
41
1
10
90.3871309965775
20
2.77597342562348
30
0
41
1
10
90.4521173243452
20
2.86774955593964
30
0
41
1
10
90.4827374818001
20
2.91883757978852
30
0
41
1
10
90.5098750768501
20
2.97627272697531
30
0
0
SPLINE
5
294
100
AcDbEntity
8
1
62
256
6
ByLayer
370
13
48
1
60
0
100
AcDbSpline
70
4
71
3
72
10
73
6
40
0
40
0
40
0
40
0
40
0.5
40
0.5
40
1
40
1
40
1
40
1
41
1
10
92.1977353759834
20
3.18474051799026
30
0
41
1
10
91.9483418674254
20
3.17167035803914
30
0
41
1
10
91.6985622460959
20
3.15857996277509
30
0
41
1
10
91.1984873033665
20
3.13237214555156
30
0
41
1
10
90.948201747381
20
3.11925523537573
30
0
41
1
10
90.6979528559214
20
3.1061402467063
30
0
0
SPLINE
5
295
100
AcDbEntity
8
1
62
256
6
ByLayer
370
13
48
1
60
0
100
AcDbSpline
70
4
71
3
72
8
73
4
40
0
40
0
40
0
40
0
40
1
40
1
40
1
40
1
41
1
10
88.5185610395498
20
5.56248495888542
30
0
41
1
10
88.5023165530203
20
5.51594908507269
30
0
41
1
10
88.4807471317258
20
5.47468483225984
30
0
41
1
10
88.456283441959
20
5.43859641048527
30
0
0
SPLINE
5
296
100
AcDbEntity
8
1
62
256
6
ByLayer
370
13
48
1
60
0
100
AcDbSpline
70
4
71
3
72
12
73
8
40
0
40
0
40
0
40
0
40
0.5
40
0.5
40
0.75
40
0.75
40
1
40
1
40
1
40
1
41
1
10
91.7669993836913
20
3.30175183728579
30
0
41
1
10
91.8620991266875
20
3.25862734315123
30
0
41
1
10
91.958221411303
20
3.22953060867303
30
0
41
1
10
92.1048250697566
20
3.20279234950257
30
0
41
1
10
92.1542716034105
20
3.19676142073746
30
0
41
1
10
92.2532042741518
20
3.19049156200097
30
0
41
1
10
92.3031112494893
20
3.19026303351072
30
0
41
1
10
92.3519434036042
20
3.19282221826549
30
0
0
SPLINE
5
297
100
AcDbEntity
8
1
62
256
6
ByLayer
370
13
48
1
60
0
100
AcDbSpline
70
4
71
3
72
8
73
4
40
0
40
0
40
0
40
0
40
1
40
1
40
1
40
1
41
1
10
85.2929392174265
20
0.985321107551812
30
0
41
1
10
85.8667171322908
20
0.85706599582727
30
0
41
1
10
86.44815696391
20
0.746530853410491
30
0
41
1
10
87.0468679414252
20
0.675939263628919
30
0
0
SPLINE
5
298
100
AcDbEntity
8
1
62
256
6
ByLayer
370
13
48
1
60
0
100
AcDbSpline
70
4
71
3
72
8
73
4
40
0
40
0
40
0
40
0
40
1
40
1
40
1
40
1
41
1
10
96.043109203049
20
0.509783426575524
30
0
41
1
10
96.1293185126009
20
0.530954774564009
30
0
41
1
10
96.2146208434665
20
0.540196575395186
30
0
41
1
10
96.2998643556959
20
0.539566276751657
30
0
0
SPLINE
5
299
100
AcDbEntity
8
1
62
256
6
ByLayer
370
13
48
1
60
0
100
AcDbSpline
70
4
71
3
72
14
73
10
40
0
40
0
40
0
40
0
40
0.25
40
0.25
40
0.5
40
0.5
40
0.75
40
0.75
40
1
40
1
40
1
40
1
41
1
10
84.6763119560463
20
3.23310355603383
30
0
41
1
10
84.6879848504106
20
3.26599065564756
30
0
41
1
10
84.698946682437
20
3.30356910019293
30
0
41
1
10
84.7195822995252
20
3.38350356665836
30
0
41
1
10
84.7293080773506
20
3.42606868637083
30
0
41
1
10
84.7484023979085
20
3.51437624866708
30
0
41
1
10
84.7574433234095
20
3.5588791744056
30
0
41
1
10
84.7768864903823
20
3.6480888553489
30
0
41
1
10
84.7864164385574
20
3.69119932224533
30
0
41
1
10
84.8005243254933
20
3.73142077652886
30
0
0
SPLINE
5
29A
100
AcDbEntity
8
1
62
256
6
ByLayer
370
13
48
1
60
0
100
AcDbSpline
70
4
71
3
72
18
73
14
40
0
40
0
40
0
40
0
40
0.125
40
0.125
40
0.25
40
0.25
40
0.375000000000001
40
0.375000000000001
40
0.500000000000001
40
0.500000000000001
40
0.75
40
0.75
40
1
40
1
40
1
40
1
41
1
10
54.4
20
-2.92698908391077
30
0
41
1
10
53.4266299490698
20
-2.85955666086946
30
0
41
1
10
52.4527312737274
20
-2.81226807772035
30
0
41
1
10
50.5040476197992
20
-2.75243173999482
30
0
41
1
10
49.5292293529484
20
-2.74118176347139
30
0
41
1
10
47.5791155663722
20
-2.73755295544405
30
0
41
1
10
46.6038471780562
20
-2.74403197390205
30
0
41
1
10
44.6533791992937
20
-2.75448612144157
30
0
41
1
10
43.6781454896002
20
-2.7598635591699
30
0
41
1
10
40.7524345283108
20
-2.77093451222501
30
0
41
1
10
38.8019414251593
20
-2.77052903223182
30
0
41
1
10
34.9009700617424
20
-2.76557154717287
30
0
41
1
10
32.9504891688595
20
-2.76136068869116
30
0
41
1
10
31
20
-2.76012163113032
30
0
0
SPLINE
5
29B
100
AcDbEntity
8
1
62
256
6
ByLayer
370
13
48
1
60
0
100
AcDbSpline
70
4
71
3
72
8
73
4
40
0
40
0
40
0
40
0
40
1
40
1
40
1
40
1
41
1
10
90.178783723468
20
3.01055039950524
30
0
41
1
10
90.1875909201234
20
3.00814539653996
30
0
41
1
10
90.1962147726546
20
3.00579011281823
30
0
41
1
10
90.2046648815534
20
3.00352050627998
30
0
0
SPLINE
5
29C
100
AcDbEntity
8
1
62
256
6
ByLayer
370
13
48
1
60
0
100
AcDbSpline
70
4
71
3
72
8
73
4
40
0
40
0
40
0
40
0
40
1
40
1
40
1
40
1
41
1
10
84.2540706154502
20
0.61892324420927
30
0
41
1
10
84.5818690518844
20
0.528472750728071
30
0
41
1
10
84.9138279349483
20
0.474234938679672
30
0
41
1
10
85.2499679839062
20
0.457088828370189
30
0
0
SPLINE
5
29D
100
AcDbEntity
8
1
62
256
6
ByLayer
370
13
48
1
60
0
100
AcDbSpline
70
4
71
3
72
20
73
16
40
0
40
0
40
0
40
0
40
0.125000000000001
40
0.125000000000001
40
0.250000000000001
40
0.250000000000001
40
0.375000000000002
40
0.375000000000002
40
0.500000000000001
40
0.500000000000001
40
0.625000000000001
40
0.625000000000001
40
0.750000000000001
40
0.750000000000001
40
1
40
1
40
1
40
1
41
1
10
3.99999999999997
20
-14.7737923276763
30
0
41
1
10
3.99999999999997
20
-14.7865327772435
30
0
41
1
10
3.99678333054672
20
-14.7989675844038
30
0
41
1
10
3.98418941760985
20
-14.823261822174
30
0
41
1
10
3.97466699217188
20
-14.8352405809584
30
0
41
1
10
3.94975653371867
20
-14.8579783664863
30
0
41
1
10
3.93450971153683
20
-14.8686898962957
30
0
41
1
10
3.89848174695652
20
-14.8888548576737
30
0
41
1
10
3.87747401644796
20
-14.8983625296054
30
0
41
1
10
3.83150344696435
20
-14.9153469552639
30
0
41
1
10
3.80641060638416
20
-14.9229287104646
30
0
41
1
10
3.75190461651775
20
-14.936281362736
30
0
41
1
10
3.72270136626574
20
-14.9419682011977
30
0
41
1
10
3.63230486744203
20
-14.9556022616578
30
0
41
1
10
3.56638693676757
20
-14.9604105886527
30
0
41
1
10
3.49999999999997
20
-14.9604105886527
30
0
0
SPLINE
5
29E
100
AcDbEntity
8
1
62
256
6
ByLayer
370
13
48
1
60
0
100
AcDbSpline
70
4
71
2
72
12
73
9
40
0
40
0
40
0
40
0.290745641051913
40
0.290745641051913
40
0.581491282103826
40
0.581491282103826
40
0.872236923155739
40
0.872236923155739
40
1
40
1
40
1
41
1
10
25.999999999999
20
-4.86762423220225
30
0
41
1
10
24.1412232769001
20
-4.96020703750929
30
0
41
1
10
22.4651784167247
20
-5.59447253466277
30
0
41
1
10
20.6921681312178
20
-6.26543264850937
30
0
41
1
10
19.3628447067695
20
-7.43742064732351
30
0
41
1
10
18.0461910856877
20
-8.59823840929411
30
0
41
1
10
17.3464218978295
20
-10.0889692606465
30
0
41
1
10
17.0610251279064
20
-10.6969551182445
30
0
41
1
10
16.8977204928052
20
-11.3233669122726
30
0
0
SPLINE
5
29F
100
AcDbEntity
8
1
62
256
6
ByLayer
370
13
48
1
60
0
100
AcDbSpline
70
4
71
3
72
34
73
30
40
0
40
0
40
0
40
0
40
0.0625000000000017
40
0.0625000000000017
40
0.125000000000003
40
0.125000000000003
40
0.249999999999999
40
0.249999999999999
40
0.312499999999997
40
0.312499999999997
40
0.374999999999995
40
0.374999999999995
40
0.437499999999993
40
0.437499999999993
40
0.499999999999991
40
0.499999999999991
40
0.624999999999993
40
0.624999999999993
40
0.687499999999994
40
0.687499999999994
40
0.749999999999995
40
0.749999999999995
40
0.812499999999997
40
0.812499999999997
40
0.874999999999998
40
0.874999999999998
40
0.937499999999999
40
0.937499999999999
40
1
40
1
40
1
40
1
41
1
10
87.0698415758467
20
0.673252132386182
30
0
41
1
10
87.183159251417
20
0.663826983839527
30
0
41
1
10
87.2970840147869
20
0.656446823184496
30
0
41
1
10
87.5240505120962
20
0.646332479532305
30
0
41
1
10
87.6373851515193
20
0.643571039958374
30
0
41
1
10
87.9769020965611
20
0.642809538842954
30
0
41
1
10
88.2026020855873
20
0.652260358687357
30
0
41
1
10
88.5399616283714
20
0.684826652159416
30
0
41
1
10
88.651985315015
20
0.698777739769525
30
0
41
1
10
88.8715141108844
20
0.732863151403677
30
0
41
1
10
88.9794986549993
20
0.753036245716203
30
0
41
1
10
89.1916693108478
20
0.800063077939171
30
0
41
1
10
89.2958568983602
20
0.82691422026511
30
0
41
1
10
89.5000909469667
20
0.887899875243789
30
0
41
1
10
89.6007314131555
20
0.92228681186711
30
0
41
1
10
89.8898652182904
20
1.03528046650962
30
0
41
1
10
90.0663814733152
20
1.12354878953317
30
0
41
1
10
90.3043897042105
20
1.27727771076937
30
0
41
1
10
90.3794449353694
20
1.33238945896849
30
0
41
1
10
90.5158520166891
20
1.4468986829398
30
0
41
1
10
90.5777859351881
20
1.5066146149245
30
0
41
1
10
90.6891306085715
20
1.63096280594917
30
0
41
1
10
90.7385428740169
20
1.69559447197511
30
0
41
1
10
90.8244059918812
20
1.82994617845847
30
0
41
1
10
90.8605902171173
20
1.89947765327253
30
0
41
1
10
90.9179364272596
20
2.03945227368726
30
0
41
1
10
90.9394398414968
20
2.11039417369199
30
0
41
1
10
90.9685180373779
20
2.25413246518127
30
0
41
1
10
90.9760895743685
20
2.32721080864215
30
0
41
1
10
90.9766623481092
20
2.40059649423682
30
0
0
SPLINE
5
2A0
100
AcDbEntity
8
1
62
256
6
ByLayer
370
13
48
1
60
0
100
AcDbSpline
70
4
71
3
72
10
73
6
40
0
40
0
40
0
40
0
40
0.5
40
0.5
40
1
40
1
40
1
40
1
41
1
10
85.9989858593721
20
2.15812141564396
30
0
41
1
10
85.8002141372564
20
2.3281109797129
30
0
41
1
10
85.5783540088844
20
2.47616050536408
30
0
41
1
10
85.1068641282158
20
2.74587113431343
30
0
41
1
10
84.856552803226
20
2.86724966639116
30
0
41
1
10
84.5960249522876
20
2.97816152264662
30
0
0
SPLINE
5
2A1
100
AcDbEntity
8
1
62
256
6
ByLayer
370
13
48
1
60
0
100
AcDbSpline
70
4
71
3
72
10
73
6
40
0
40
0
40
0
40
0
40
0.5
40
0.5
40
1
40
1
40
1
40
1
41
1
10
86.8396825201483
20
4.06028103020961
30
0
41
1
10
86.8456554650222
20
4.13138249018573
30
0
41
1
10
86.843467203625
20
4.20271852767357
30
0
41
1
10
86.8169608433247
20
4.34127950649975
30
0
41
1
10
86.7918768080301
20
4.40976629787235
30
0
41
1
10
86.754765435255
20
4.47138939220045
30
0
0
SPLINE
5
2A2
100
AcDbEntity
8
1
62
256
6
ByLayer
370
13
48
1
60
0
100
AcDbSpline
70
4
71
3
72
25
73
21
40
0
40
0
40
0
40
0
40
0.0625000000000011
40
0.0625000000000011
40
0.125000000000002
40
0.125000000000002
40
0.250000000000003
40
0.250000000000003
40
0.312500000000003
40
0.312500000000003
40
0.343750000000003
40
0.343750000000003
40
0.375000000000003
40
0.500000000000003
40
0.500000000000003
40
0.625000000000002
40
0.625000000000002
40
0.750000000000001
40
0.750000000000001
40
1
40
1
40
1
40
1
41
1
10
24.3186032994029
20
-3.28626549654049
30
0
41
1
10
24.1524938371226
20
-3.31398049554406
30
0
41
1
10
23.9873681044867
20
-3.34577852437744
30
0
41
1
10
23.6590869154575
20
-3.41755233364162
30
0
41
1
10
23.4955154775345
20
-3.45764334526609
30
0
41
1
10
23.0106861878176
20
-3.58953520080812
30
0
41
1
10
22.6981932722465
20
-3.69200833794176
30
0
41
1
10
22.2445474975721
20
-3.86618489176135
30
0
41
1
10
22.0958569351107
20
-3.92766721849762
30
0
41
1
10
21.8765603335536
20
-4.02496110317577
30
0
41
1
10
21.8042123829041
20
-4.05841063732481
30
0
41
1
10
21.6602169889366
20
-4.12625959023688
30
0
41
1
10
21.2989666930861
20
-4.29417096288745
30
0
41
1
10
20.9314575420246
20
-4.45359535760102
30
0
41
1
10
20.3355795407078
20
-4.69801171085072
30
0
41
1
10
20.0334659301417
20
-4.81497151375717
30
0
41
1
10
19.4230802464165
20
-5.03773727605733
30
0
41
1
10
19.1147394731426
20
-5.14358341662347
30
0
41
1
10
18.1804015457501
20
-5.44473707773938
30
0
41
1
10
17.545112767996
20
-5.62370202186267
30
0
41
1
10
16.8974564080441
20
-5.78091423845322
30
0
0
SPLINE
5
2A3
100
AcDbEntity
8
1
62
256
6
ByLayer
370
13
48
1
60
0
100
AcDbSpline
70
4
71
3
72
8
73
4
40
0
40
0
40
0
40
0
40
1
40
1
40
1
40
1
41
1
10
84.7842851454743
20
7.59350288246128
30
0
41
1
10
84.9233511441682
20
7.36753828359227
30
0
41
1
10
85.0701161954642
20
7.14640207855498
30
0
41
1
10
85.2252771269917
20
6.93053127673252
30
0
0
SPLINE
5
2A4
100
AcDbEntity
8
1
62
256
6
ByLayer
370
13
48
1
60
0
100
AcDbSpline
70
4
71
3
72
8
73
4
40
0
40
0
40
0
40
0
40
1
40
1
40
1
40
1
41
1
10
84.6757305670265
20
3.23131879875822
30
0
41
1
10
84.675907749188
20
3.23191626716286
30
0
41
1
10
84.6761016927261
20
3.23251116219061
30
0
41
1
10
84.6763119560462
20
3.23310355603383
30
0
0
SPLINE
5
2A5
100
AcDbEntity
8
1
62
256
6
ByLayer
370
13
48
1
60
0
100
AcDbSpline
70
4
71
3
72
10
73
6
40
0
40
0
40
0
40
0
40
0.5
40
0.5
40
1
40
1
40
1
40
1
41
1
10
84.4785245878281
20
0.869638243631385
30
0
41
1
10
84.5965167375669
20
0.864024412756123
30
0
41
1
10
84.71370374489
20
0.867764607904945
30
0
41
1
10
84.9464590886218
20
0.893940126829364
30
0
41
1
10
85.0599663806361
20
0.91618686222219
30
0
41
1
10
85.1698925270609
20
0.947045831378631
30
0
0
SPLINE
5
2A6
100
AcDbEntity
8
1
62
256
6
ByLayer
370
13
48
1
60
0
100
AcDbSpline
70
4
71
3
72
12
73
8
40
0
40
0
40
0
40
0
40
0.250000000000006
40
0.250000000000006
40
0.500000000000011
40
0.500000000000011
40
1
40
1
40
1
40
1
41
1
10
85.5770200940971
20
3.80046998551225
30
0
41
1
10
85.6892125056788
20
3.81222528905607
30
0
41
1
10
85.7985154990197
20
3.82791607616653
30
0
41
1
10
86.0136814023261
20
3.86441592723693
30
0
41
1
10
86.1195152891359
20
3.88523743904892
30
0
41
1
10
86.4335539407215
20
3.95293651138215
30
0
41
1
10
86.6384475024654
20
4.00493937094535
30
0
41
1
10
86.8396825201614
20
4.06028103020532
30
0
0
SPLINE
5
2A7
100
AcDbEntity
8
1
62
256
6
ByLayer
370
13
48
1
60
0
100
AcDbSpline
70
4
71
3
72
12
73
8
40
0
40
0
40
0
40
0
40
0.25
40
0.25
40
0.5
40
0.5
40
1
40
1
40
1
40
1
41
1
10
84.8005243254932
20
3.73142077652895
30
0
41
1
10
84.8034148772708
20
3.73966171273023
30
0
41
1
10
84.8099665563657
20
3.74618966746397
30
0
41
1
10
84.8245728449929
20
3.75594116974841
30
0
41
1
10
84.8328848697187
20
3.75944371514356
30
0
41
1
10
84.8584423535306
20
3.76734285603763
30
0
41
1
10
84.8762832176365
20
3.76930058982194
30
0
41
1
10
84.8945876992018
20
3.76936225200561
30
0
0
SPLINE
5
2A8
100
AcDbEntity
8
1
62
256
6
ByLayer
370
13
48
1
60
0
100
AcDbSpline
70
4
71
3
72
12
73
8
40
0
40
0
40
0
40
0
40
0.249999999999987
40
0.249999999999987
40
0.499999999999974
40
0.499999999999974
40
1
40
1
40
1
40
1
41
1
10
84.4785245878282
20
0.869638243631357
30
0
41
1
10
84.4136527129904
20
0.868446311760493
30
0
41
1
10
84.3479772113306
20
0.870573560730946
30
0
41
1
10
84.2181471586763
20
0.881457743362489
30
0
41
1
10
84.1539263667265
20
0.890167049465475
30
0
41
1
10
83.9633242345352
20
0.925869399521787
30
0
41
1
10
83.8389822649625
20
0.962346419265003
30
0
41
1
10
83.717543618513
20
1.0119797517184
30
0
0
SPLINE
5
2A9
100
AcDbEntity
8
1
62
256
6
ByLayer
370
13
48
1
60
0
100
AcDbSpline
70
4
71
3
72
18
73
14
40
0
40
0
40
0
40
0
40
0.125
40
0.125
40
0.250000000000001
40
0.250000000000001
40
0.375000000000001
40
0.375000000000001
40
0.500000000000001
40
0.500000000000001
40
0.750000000000001
40
0.750000000000001
40
1
40
1
40
1
40
1
41
1
10
3.49999999999997
20
-12.3934105886527
30
0
41
1
10
3.53318725434173
20
-12.3934105886527
30
0
41
1
10
3.56580829140154
20
-12.395507619001
30
0
41
1
10
3.62996621656708
20
-12.4037077998828
30
0
41
1
10
3.66184300636689
20
-12.4099146240461
30
0
41
1
10
3.72248820726787
20
-12.4260374682893
30
0
41
1
10
3.75123256039328
20
-12.4358836819854
30
0
41
1
10
3.80560183293426
20
-12.4590649108046
30
0
41
1
10
3.8312617964169
20
-12.4724903708007
30
0
41
1
10
3.90020942390291
20
-12.5162709073935
30
0
41
1
10
3.93725026661849
20
-12.551296928862
30
0
41
1
10
3.98683556630689
20
-12.6260448637068
30
0
41
1
10
4
20
-12.6664688241598
30
0
41
1
10
3.99999999999997
20
-12.7067923276763
30
0
0
SPLINE
5
2AA
100
AcDbEntity
8
1
62
256
6
ByLayer
370
13
48
1
60
0
100
AcDbSpline
70
4
71
3
72
14
73
10
40
0
40
0
40
0
40
0
40
0.25
40
0.25
40
0.5
40
0.5
40
0.75
40
0.75
40
1
40
1
40
1
40
1
41
1
10
86.3767191369576
20
2.2558627095502
30
0
41
1
10
86.3575781859018
20
2.2184505828522
30
0
41
1
10
86.3341645394295
20
2.18298566029762
30
0
41
1
10
86.2751983218713
20
2.12263393137525
30
0
41
1
10
86.2395462713248
20
2.09867206567748
30
0
41
1
10
86.1619923022557
20
2.07936591640262
30
0
41
1
10
86.1234899859207
20
2.08522440146422
30
0
41
1
10
86.0560686661515
20
2.11335535547897
30
0
41
1
10
86.0264079330241
20
2.13467006000664
30
0
41
1
10
85.9989858593721
20
2.15812141564396
30
0
0
SPLINE
5
2AB
100
AcDbEntity
8
1
62
256
6
ByLayer
370
13
48
1
60
0
100
AcDbSpline
70
4
71
3
72
8
73
4
40
0
40
0
40
0
40
0
40
1
40
1
40
1
40
1
41
1
10
0.5
20
-2.56700000000001
30
0
41
1
10
0.333297337465325
20
-2.56700000000001
30
0
41
1
10
0.166629459497471
20
-2.56700000000001
30
0
41
1
10
0
20
-2.56700000000001
30
0
0
SPLINE
5
2AC
100
AcDbEntity
8
1
62
256
6
ByLayer
370
13
48
1
60
0
100
AcDbSpline
70
4
71
3
72
18
73
14
40
0
40
0
40
0
40
0
40
0.124999999999998
40
0.124999999999998
40
0.249999999999995
40
0.249999999999995
40
0.374999999999993
40
0.374999999999993
40
0.49999999999999
40
0.49999999999999
40
0.749999999999995
40
0.749999999999995
40
1
40
1
40
1
40
1
41
1
10
85.2680085568956
20
3.74269440017289
30
0
41
1
10
85.3511580835402
20
3.70406692107645
30
0
41
1
10
85.4314967372311
20
3.65996021019106
30
0
41
1
10
85.5854850060948
20
3.56127004407321
30
0
41
1
10
85.6571924421557
20
3.50800522779832
30
0
41
1
10
85.791252731443
20
3.39536095929577
30
0
41
1
10
85.8536228676746
20
3.33601507165926
30
0
41
1
10
85.9697601611144
20
3.21238023407582
30
0
41
1
10
86.0237418637325
20
3.14771523014622
30
0
41
1
10
86.1681675933312
20
2.9520448012978
30
0
41
1
10
86.2430845462953
20
2.81731161716328
30
0
41
1
10
86.3470333669558
20
2.53623688410548
30
0
41
1
10
86.3742725953974
20
2.39623824355175
30
0
41
1
10
86.3767191369578
20
2.2558627095504
30
0
0
SPLINE
5
2AD
100
AcDbEntity
8
1
62
256
6
ByLayer
370
13
48
1
60
0
100
AcDbSpline
70
4
71
3
72
32
73
28
40
0
40
0
40
0
40
0
40
0.125000000000002
40
0.125000000000002
40
0.187500000000002
40
0.187500000000002
40
0.250000000000001
40
0.250000000000001
40
0.375000000000001
40
0.375000000000001
40
0.437500000000001
40
0.437500000000001
40
0.5
40
0.5
40
0.625
40
0.625
40
0.6875
40
0.6875
40
0.75
40
0.75
40
0.8125
40
0.8125
40
0.875
40
0.875
40
0.9375
40
0.9375
40
1
40
1
40
1
40
1
41
1
10
16.899979701777
20
-5.7803016081094
30
0
41
1
10
16.6643376233571
20
-5.83752580978418
30
0
41
1
10
16.4336341436363
20
-5.91255115077149
30
0
41
1
10
16.0943629455471
20
-6.04986994067747
30
0
41
1
10
15.982414423213
20
-6.09981450506848
30
0
41
1
10
15.7608324535167
20
-6.2082306777198
30
0
41
1
10
15.6509018128753
20
-6.26693048925105
30
0
41
1
10
15.3320832560906
20
-6.45207984631023
30
0
41
1
10
15.1316036026675
20
-6.58850456369032
30
0
41
1
10
14.8499508785179
20
-6.81344085146551
30
0
41
1
10
14.7588750659124
20
-6.89221779461985
30
0
41
1
10
14.5855602615245
20
-7.0555079623295
30
0
41
1
10
14.5043300064031
20
-7.13909383087233
30
0
41
1
10
14.2765321331315
20
-7.39537285588872
30
0
41
1
10
14.1454880980927
20
-7.57344263786234
30
0
41
1
10
13.9827120545827
20
-7.85165119326177
30
0
41
1
10
13.935072915383
20
-7.94481649244585
30
0
41
1
10
13.8540042562738
20
-8.12979240585108
30
0
41
1
10
13.8203713201419
20
-8.22194462877547
30
0
41
1
10
13.7674055300798
20
-8.40553417859729
30
0
41
1
10
13.7480310878361
20
-8.49726128442242
30
0
41
1
10
13.7251167393333
20
-8.67873990773353
30
0
41
1
10
13.7217510911841
20
-8.76676038264017
30
0
41
1
10
13.7311524575527
20
-8.93747423336038
30
0
41
1
10
13.7438442725684
20
-9.02018004665845
30
0
41
1
10
13.7848854222191
20
-9.18035046081533
30
0
41
1
10
13.8134374842358
20
-9.25811328693581
30
0
41
1
10
13.8493237770154
20
-9.33182718803477
30
0
0
SPLINE
5
2AE
100
AcDbEntity
8
1
62
256
6
ByLayer
370
13
48
1
60
0
100
AcDbSpline
70
4
71
3
72
8
73
4
40
0
40
0
40
0
40
0
40
1
40
1
40
1
40
1
41
1
10
84.8945924554725
20
3.7694049891266
30
0
41
1
10
85.0121907007352
20
4.82607597546851
30
0
41
1
10
85.123556089648
20
5.8793990772146
30
0
41
1
10
85.2252926363402
20
6.93069154152431
30
0
0
SPLINE
5
2AF
100
AcDbEntity
8
1
62
256
6
ByLayer
370
13
48
1
60
0
100
AcDbSpline
70
4
71
3
72
8
73
4
40
0
40
0
40
0
40
0
40
1
40
1
40
1
40
1
41
1
10
85.2499679839062
20
0.457088828370189
30
0
41
1
10
85.9179851820468
20
0.423014053277342
30
0
41
1
10
86.5860198365197
20
0.389135693833737
30
0
41
1
10
87.2540706154506
20
0.355443175982685
30
0
0
SPLINE
5
2B0
100
AcDbEntity
8
1
62
256
6
ByLayer
370
13
48
1
60
0
100
AcDbSpline
70
4
71
3
72
12
73
8
40
0
40
0
40
0
40
0
40
0.249999999999989
40
0.249999999999989
40
0.499999999999977
40
0.499999999999977
40
1
40
1
40
1
40
1
41
1
10
83.6078525970287
20
0.958434123035175
30
0
41
1
10
83.6779623414561
20
0.926105521777117
30
0
41
1
10
83.7500459571971
20
0.900641267611888
30
0
41
1
10
83.8979335516872
20
0.862536240067698
30
0
41
1
10
83.9739617528212
20
0.850060544283195
30
0
41
1
10
84.1961669460944
20
0.831350585983984
30
0
41
1
10
84.3422943060344
20
0.842833989782775
30
0
41
1
10
84.4785245878281
20
0.869638243631385
30
0
0
SPLINE
5
2B1
100
AcDbEntity
8
1
62
256
6
ByLayer
370
13
48
1
60
0
100
AcDbSpline
70
4
71
3
72
16
73
12
40
0
40
0
40
0
40
0
40
0.25
40
0.25
40
0.375
40
0.375
40
0.5
40
0.5
40
0.75
40
0.75
40
1
40
1
40
1
40
1
41
1
10
24.3186032994029
20
-3.28626549654049
30
0
41
1
10
24.4412677887349
20
-3.2027902475113
30
0
41
1
10
24.5696805662846
20
-3.12855729490133
30
0
41
1
10
24.7709781739104
20
-3.03133658436582
30
0
41
1
10
24.8397930419954
20
-3.00119398336972
30
0
41
1
10
24.979047205369
20
-2.94631646615855
30
0
41
1
10
25.0493153729756
20
-2.92162202288142
30
0
41
1
10
25.2619995756896
20
-2.85558525382638
30
0
41
1
10
25.4062853984444
20
-2.82224706149646
30
0
41
1
10
25.6998668020194
20
-2.77701657389852
30
0
41
1
10
25.8498832227965
20
-2.7651710722601
30
0
41
1
10
26
20
-2.76470824686001
30
0
0
SPLINE
5
2B2
100
AcDbEntity
8
1
62
256
6
ByLayer
370
13
48
1
60
0
100
AcDbSpline
70
4
71
3
72
8
73
4
40
0
40
0
40
0
40
0
40
1
40
1
40
1
40
1
41
1
10
83.6078525970286
20
0.958434123035175
30
0
41
1
10
83.6253747696473
20
0.984225257992847
30
0
41
1
10
83.6428979060078
20
1.01001599508802
30
0
41
1
10
83.6604218187811
20
1.0358064570726
30
0
0
SPLINE
5
2B3
100
AcDbEntity
8
1
62
256
6
ByLayer
370
18
48
1
60
0
100
AcDbSpline
70
4
71
3
72
16
73
12
40
0
40
0
40
0
40
0
40
0.125
40
0.125
40
0.25
40
0.25
40
0.5
40
0.5
40
0.75
40
0.75
40
1
40
1
40
1
40
1
41
1
10
92.5602490798792
20
4.81577839389172
30
0
41
1
10
92.5596970349405
20
4.80574135733335
30
0
41
1
10
92.5564422455952
20
4.79615044144632
30
0
41
1
10
92.5444658064299
20
4.78024915443532
30
0
41
1
10
92.5358856469792
20
4.77408676865082
30
0
41
1
10
92.5072748617479
20
4.76130689576831
30
0
41
1
10
92.4842057135701
20
4.75949690077627
30
0
41
1
10
92.4392225736733
20
4.76241086537513
30
0
41
1
10
92.4167173114072
20
4.76716333921252
30
0
41
1
10
92.3729036108521
20
4.78068896925973
30
0
41
1
10
92.3515445723259
20
4.78952188508228
30
0
41
1
10
92.3310129145514
20
4.80003136404639
30
0
0
SPLINE
5
2B4
100
AcDbEntity
8
1
62
256
6
ByLayer
370
18
48
1
60
0
100
AcDbSpline
70
4
71
3
72
16
73
12
40
0
40
0
40
0
40
0
40
0.124999999999998
40
0.124999999999998
40
0.249999999999995
40
0.249999999999995
40
0.499999999999997
40
0.499999999999997
40
0.749999999999998
40
0.749999999999998
40
1
40
1
40
1
40
1
41
1
10
93.4834471294722
20
5.41775082737396
30
0
41
1
10
93.4935710821508
20
5.41468746909055
30
0
41
1
10
93.5044232511061
20
5.41429414451054
30
0
41
1
10
93.5250703176531
20
5.41968713148168
30
0
41
1
10
93.5347873576344
20
5.42541417721804
30
0
41
1
10
93.5596488625467
20
5.44746023937003
30
0
41
1
10
93.5713185822959
20
5.46832445990685
30
0
41
1
10
93.5878496486839
20
5.51132610419901
30
0
41
1
10
93.5929484750931
20
5.53407680081096
30
0
41
1
10
93.5988128516341
20
5.57998891169342
30
0
41
1
10
93.5995441230759
20
5.60325732867884
30
0
41
1
10
93.5983318818704
20
5.62638826882048
30
0
0
SPLINE
5
2B5
100
AcDbEntity
8
1
62
256
6
ByLayer
370
18
48
1
60
0
100
AcDbSpline
70
4
71
3
72
8
73
4
40
0
40
0
40
0
40
0
40
1
40
1
40
1
40
1
41
1
10
92.149915119219
20
6.08476342822814
30
0
41
1
10
92.147710720967
20
6.09108730598683
30
0
41
1
10
92.1455087027613
20
6.09740721666444
30
0
41
1
10
92.1433089025478
20
6.103723419533
30
0
0
SPLINE
5
2B6
100
AcDbEntity
8
1
62
256
6
ByLayer
370
18
48
1
60
0
100
AcDbSpline
70
4
71
3
72
8
73
4
40
0
40
0
40
0
40
0
40
1
40
1
40
1
40
1
41
1
10
92.2011747804377
20
4.99957669396025
30
0
41
1
10
92.2027023069359
20
5.00608823774442
30
0
41
1
10
92.2042316517044
20
5.01260370086922
30
0
41
1
10
92.2057629488081
20
5.0191233581256
30
0
0
SPLINE
5
2B7
100
AcDbEntity
8
1
62
256
6
ByLayer
370
18
48
1
60
0
100
AcDbSpline
70
4
71
3
72
16
73
12
40
0
40
0
40
0
40
0
40
0.250000000000007
40
0.250000000000007
40
0.500000000000014
40
0.500000000000014
40
0.75000000000002
40
0.75000000000002
40
0.87500000000001
40
0.87500000000001
40
1
40
1
40
1
40
1
41
1
10
92.3310129145514
20
4.80003136404639
30
0
41
1
10
92.3104719960876
20
4.81054558325218
30
0
41
1
10
92.2907225583729
20
4.82275435936498
30
0
41
1
10
92.2536740745354
20
4.85063467995062
30
0
41
1
10
92.2363683544656
20
4.86625450110347
30
0
41
1
10
92.2066457274424
20
4.90158754667473
30
0
41
1
10
92.1938557390718
20
4.92173001646032
30
0
41
1
10
92.1857233432999
20
4.95352895589596
30
0
41
1
10
92.1850384690641
20
4.96444853347205
30
0
41
1
10
92.1893147784059
20
4.98415597470202
30
0
41
1
10
92.1942572643652
20
4.99281551241415
30
0
41
1
10
92.2011747804377
20
4.99957669396025
30
0
0
SPLINE
5
2B8
100
AcDbEntity
8
1
62
256
6
ByLayer
370
18
48
1
60
0
100
AcDbSpline
70
4
71
3
72
8
73
4
40
0
40
0
40
0
40
0
40
1
40
1
40
1
40
1
41
1
10
93.2920247398093
20
5.07605192631198
30
0
41
1
10
93.2948756555651
20
5.06976193109992
30
0
41
1
10
93.2977257390511
20
5.06347598408448
30
0
41
1
10
93.3005750384248
20
5.05719382002454
30
0
0
SPLINE
5
2B9
100
AcDbEntity
8
1
62
256
6
ByLayer
370
18
48
1
60
0
100
AcDbSpline
70
4
71
3
72
18
73
14
40
0
40
0
40
0
40
0
40
0.125000000000008
40
0.125000000000008
40
0.250000000000017
40
0.250000000000017
40
0.500000000000034
40
0.500000000000034
40
0.75000000000005
40
0.75000000000005
40
0.875000000000025
40
0.875000000000025
40
1
40
1
40
1
40
1
41
1
10
93.2920247398093
20
5.07605192631198
30
0
41
1
10
93.2853631782682
20
5.0907493757594
30
0
41
1
10
93.2824249991794
20
5.10681935555891
30
0
41
1
10
93.2806956192671
20
5.13997854744028
30
0
41
1
10
93.2819984775674
20
5.15667752308619
30
0
41
1
10
93.2905086602066
20
5.20719155701718
30
0
41
1
10
93.3020243092623
20
5.24016609878902
30
0
41
1
10
93.3339745370241
20
5.30333733723421
30
0
41
1
10
93.3542656062876
20
5.33300118558367
30
0
41
1
10
93.3905180756933
20
5.37072880214151
30
0
41
1
10
93.4035948681984
20
5.38217303583005
30
0
41
1
10
93.431784490084
20
5.40122581029198
30
0
41
1
10
93.4467553331916
20
5.40885679152942
30
0
41
1
10
93.4627929642536
20
5.41274452715302
30
0
0
SPLINE
5
2BA
100
AcDbEntity
8
1
62
256
6
ByLayer
370
18
48
1
60
0
100
AcDbSpline
70
4
71
3
72
8
73
4
40
0
40
0
40
0
40
0
40
1
40
1
40
1
40
1
41
1
10
92.0007362504056
20
5.33612138159438
30
0
41
1
10
91.9943579171513
20
5.33709587457005
30
0
41
1
10
91.9879846162016
20
5.33806979964305
30
0
41
1
10
91.9816160119406
20
5.33904319364595
30
0
0
SPLINE
5
2BB
100
AcDbEntity
8
1
62
256
6
ByLayer
370
18
48
1
60
0
100
AcDbSpline
70
4
71
3
72
16
73
12
40
0
40
0
40
0
40
0
40
0.250000000000032
40
0.250000000000032
40
0.500000000000064
40
0.500000000000064
40
0.750000000000096
40
0.750000000000096
40
0.875000000000048
40
0.875000000000048
40
1
40
1
40
1
40
1
41
1
10
92.2515776030895
20
6.31574739988326
30
0
41
1
10
92.2709069610767
20
6.32835113173724
30
0
41
1
10
92.2912266736322
20
6.3393693275402
30
0
41
1
10
92.3334358258131
20
6.357416555209
30
0
41
1
10
92.3552887259686
20
6.36448035709481
30
0
41
1
10
92.3997251465578
20
6.37207511205204
30
0
41
1
10
92.422862810116
20
6.37271418237535
30
0
41
1
10
92.4528177394705
20
6.36287786327944
30
0
41
1
10
92.4619525628119
20
6.35760275942212
30
0
41
1
10
92.4753950029055
20
6.34309911749938
30
0
41
1
10
92.4796085473604
20
6.333955779447
30
0
41
1
10
92.481204001549
20
6.32404833800214
30
0
0
SPLINE
5
2BC
100
AcDbEntity
8
1
62
256
6
ByLayer
370
18
48
1
60
0
100
AcDbSpline
70
4
71
3
72
18
73
14
40
0
40
0
40
0
40
0
40
0.125000000000025
40
0.125000000000025
40
0.25000000000005
40
0.25000000000005
40
0.500000000000004
40
0.500000000000004
40
0.749999999999959
40
0.749999999999959
40
0.87499999999998
40
0.87499999999998
40
1
40
1
40
1
40
1
41
1
10
92.9475859835475
20
4.85146020800855
30
0
41
1
10
92.9358834575587
20
4.86277528995666
30
0
41
1
10
92.9215358997274
20
4.87139182790321
30
0
41
1
10
92.8905256453679
20
4.88536589533811
30
0
41
1
10
92.8739192874764
20
4.8905946316259
30
0
41
1
10
92.8228409558118
20
4.90224707636028
30
0
41
1
10
92.7870822465373
20
4.9047439140453
30
0
41
1
10
92.7167036990459
20
4.90105120488954
30
0
41
1
10
92.6822481960716
20
4.89488488864853
30
0
41
1
10
92.6349230290251
20
4.87806472739371
30
0
41
1
10
92.619908482286
20
4.87117864134461
30
0
41
1
10
92.5928050851084
20
4.85416176454731
30
0
41
1
10
92.5807440920998
20
4.84416385138289
30
0
41
1
10
92.5717910607008
20
4.83176563063628
30
0
0
SPLINE
5
2BD
100
AcDbEntity
8
1
62
256
6
ByLayer
370
18
48
1
60
0
100
AcDbSpline
70
4
71
3
72
18
73
14
40
0
40
0
40
0
40
0
40
0.125000000000023
40
0.125000000000023
40
0.250000000000045
40
0.250000000000045
40
0.499999999999999
40
0.499999999999999
40
0.749999999999954
40
0.749999999999954
40
0.874999999999977
40
0.874999999999977
40
1
40
1
40
1
40
1
41
1
10
92.4943538754808
20
6.30935514653157
30
0
41
1
10
92.5045532921605
20
6.29796128996256
30
0
41
1
10
92.5175962052398
20
6.28927637848179
30
0
41
1
10
92.5463376640422
20
6.27518340851009
30
0
41
1
10
92.5619945694999
20
6.2699049135287
30
0
41
1
10
92.6107849714368
20
6.25813256347814
30
0
41
1
10
92.6457651875762
20
6.25559492669675
30
0
41
1
10
92.7161444766284
20
6.25928767471603
30
0
41
1
10
92.7513767870223
20
6.26549470170883
30
0
41
1
10
92.8009915647188
20
6.28243485637327
30
0
41
1
10
92.8169555457811
20
6.28937070016681
30
0
41
1
10
92.8463272932317
20
6.30650645616456
30
0
41
1
10
92.8596925786222
20
6.31657272439625
30
0
41
1
10
92.8701487983276
20
6.32904972390384
30
0
0
SPLINE
5
2BE
100
AcDbEntity
8
1
62
256
6
ByLayer
370
18
48
1
60
0
100
AcDbSpline
70
4
71
3
72
18
73
14
40
0
40
0
40
0
40
0
40
0.124999999999998
40
0.124999999999998
40
0.249999999999996
40
0.249999999999996
40
0.500000000000022
40
0.500000000000022
40
0.750000000000048
40
0.750000000000048
40
0.875000000000024
40
0.875000000000024
40
1
40
1
40
1
40
1
41
1
10
92.2057629488081
20
5.0191233581256
30
0
41
1
10
92.2093231106265
20
5.03428111867834
30
0
41
1
10
92.2092777525511
20
5.05048000713018
30
0
41
1
10
92.2052955487117
20
5.08341560671431
30
0
41
1
10
92.2012791697819
20
5.10004555664881
30
0
41
1
10
92.18524876086
20
5.1492663520423
30
0
41
1
10
92.1693317873438
20
5.18126524751551
30
0
41
1
10
92.1309310031295
20
5.24063053363543
30
0
41
1
10
92.1085489050404
20
5.26786451699419
30
0
41
1
10
92.0708834355183
20
5.30164645544457
30
0
41
1
10
92.0576478895495
20
5.31168990900244
30
0
41
1
10
92.0299266810986
20
5.32777669352342
30
0
41
1
10
92.0155662216071
20
5.33385563250462
30
0
41
1
10
92.0007362504056
20
5.33612138159438
30
0
0
SPLINE
5
2BF
100
AcDbEntity
8
1
62
256
6
ByLayer
370
18
48
1
60
0
100
AcDbSpline
70
4
71
3
72
16
73
12
40
0
40
0
40
0
40
0
40
0.125
40
0.125
40
0.25
40
0.25
40
0.5
40
0.5
40
0.75
40
0.75
40
1
40
1
40
1
40
1
41
1
10
92.1433089025478
20
6.10372341953303
30
0
41
1
10
92.1357095995319
20
6.1097347259431
30
0
41
1
10
92.1298543964411
20
6.1178793513503
30
0
41
1
10
92.123548922776
20
6.13718042941039
30
0
41
1
10
92.1231433827796
20
6.14813182386422
30
0
41
1
10
92.1279339827508
20
6.1803993121222
30
0
41
1
10
92.1385226738207
20
6.2017756073715
30
0
41
1
10
92.1643918107332
20
6.24001561253036
30
0
41
1
10
92.1799970803432
20
6.25738244473709
30
0
41
1
10
92.2138931950379
20
6.28894353066616
30
0
41
1
10
92.2322569595704
20
6.30314935030901
30
0
41
1
10
92.2515776030895
20
6.31574739988326
30
0
0
SPLINE
5
2C0
100
AcDbEntity
8
1
62
256
6
ByLayer
370
18
48
1
60
0
100
AcDbSpline
70
4
71
3
72
16
73
12
40
0
40
0
40
0
40
0
40
0.249999999999975
40
0.249999999999975
40
0.49999999999995
40
0.49999999999995
40
0.749999999999925
40
0.749999999999925
40
0.874999999999963
40
0.874999999999963
40
1
40
1
40
1
40
1
41
1
10
91.8556163844704
20
5.53505641967962
30
0
41
1
10
91.8544048239938
20
5.55817437073938
30
0
41
1
10
91.8550270107618
20
5.58140406324395
30
0
41
1
10
91.860423598557
20
5.62734397551296
30
0
41
1
10
91.8651515344219
20
5.65003707156058
30
0
41
1
10
91.8804721525435
20
5.69299667441643
30
0
41
1
10
91.8912475533293
20
5.71380063067409
30
0
41
1
10
91.9141218569018
20
5.73581837194334
30
0
41
1
10
91.9230006864575
20
5.74148532233409
30
0
41
1
10
91.9416927745713
20
5.74674013215991
30
0
41
1
10
91.9513882803638
20
5.74628460452618
30
0
41
1
10
91.9604368115004
20
5.74316641218363
30
0
0
SPLINE
5
2C1
100
AcDbEntity
8
1
62
256
6
ByLayer
370
18
48
1
60
0
100
AcDbSpline
70
4
71
3
72
8
73
4
40
0
40
0
40
0
40
0
40
1
40
1
40
1
40
1
41
1
10
92.9626799394236
20
4.83686890155542
30
0
41
1
10
92.9576507473406
20
4.84172966387001
30
0
41
1
10
92.9526194750198
20
4.84659336399994
30
0
41
1
10
92.9475859835475
20
4.85146020800855
30
0
0
SPLINE
5
2C2
100
AcDbEntity
8
1
62
256
6
ByLayer
370
18
48
1
60
0
100
AcDbSpline
70
4
71
3
72
16
73
12
40
0
40
0
40
0
40
0
40
0.25
40
0.25
40
0.5
40
0.5
40
0.75
40
0.75
40
0.875
40
0.875
40
1
40
1
40
1
40
1
41
1
10
93.5983318818704
20
5.62638826882048
30
0
41
1
10
93.5971195388435
20
5.64952115182862
30
0
41
1
10
93.5939589738157
20
5.67259020640151
30
0
41
1
10
93.5833276438526
20
5.71763473647704
30
0
41
1
10
93.5758616566976
20
5.73976052796922
30
0
41
1
10
93.5549603472561
20
5.78073071920849
30
0
41
1
10
93.5413691332814
20
5.80010309126757
30
0
41
1
10
93.5141751045664
20
5.81960449685351
30
0
41
1
10
93.5038758996032
20
5.82429916626975
30
0
41
1
10
93.4827406279014
20
5.8275069350037
30
0
41
1
10
93.4720366108283
20
5.82598745294047
30
0
41
1
10
93.462267929032
20
5.82187404591161
30
0
0
SPLINE
5
2C3
100
AcDbEntity
8
1
62
256
6
ByLayer
370
18
48
1
60
0
100
AcDbSpline
70
4
71
3
72
8
73
4
40
0
40
0
40
0
40
0
40
1
40
1
40
1
40
1
41
1
10
93.462267929032
20
5.82187404591161
30
0
41
1
10
93.4552498256108
20
5.82281340110589
30
0
41
1
10
93.4482284593807
20
5.8237533625167
30
0
41
1
10
93.4412036086227
20
5.82469397294574
30
0
0
SPLINE
5
2C4
100
AcDbEntity
8
1
62
256
6
ByLayer
370
18
48
1
60
0
100
AcDbSpline
70
4
71
3
72
16
73
12
40
0
40
0
40
0
40
0
40
0.250000000000005
40
0.250000000000005
40
0.500000000000009
40
0.500000000000009
40
0.750000000000014
40
0.750000000000014
40
0.875000000000007
40
0.875000000000007
40
1
40
1
40
1
40
1
41
1
10
93.1229353517895
20
6.36141332445368
30
0
41
1
10
93.1434762702532
20
6.35089910524789
30
0
41
1
10
93.1631218841135
20
6.33868488795744
30
0
41
1
10
93.1996985290477
20
6.3107798393427
30
0
41
1
10
93.2166427375592
20
6.29514107217193
30
0
41
1
10
93.2451517154711
20
6.2597444219459
30
0
41
1
10
93.2570862526453
20
6.23955711986284
30
0
41
1
10
93.2631151084372
20
6.20764793856821
30
0
41
1
10
93.2629422217727
20
6.19668340764818
30
0
41
1
10
93.2567192350742
20
6.17687394538095
30
0
41
1
10
93.2506977983584
20
6.16815786225573
30
0
41
1
10
93.2427091605349
20
6.16134054559731
30
0
0
SPLINE
5
2C5
100
AcDbEntity
8
1
62
256
6
ByLayer
370
18
48
1
60
0
100
AcDbSpline
70
4
71
3
72
16
73
12
40
0
40
0
40
0
40
0
40
0.125000000000052
40
0.125000000000052
40
0.250000000000104
40
0.250000000000104
40
0.50000000000007
40
0.50000000000007
40
0.750000000000035
40
0.750000000000035
40
1
40
1
40
1
40
1
41
1
10
92.8836348610935
20
6.34513884566584
30
0
41
1
10
92.8852598556221
20
6.35523211312949
30
0
41
1
10
92.8896000625605
20
6.36487991334221
30
0
41
1
10
92.9035337355497
20
6.38088377463143
30
0
41
1
10
92.9129689440273
20
6.38709097163664
30
0
41
1
10
92.9436657044837
20
6.39998016584832
30
0
41
1
10
92.9675927916448
20
6.40183512351723
30
0
41
1
10
93.0137890293869
20
6.39898473468247
30
0
41
1
10
93.0366560906263
20
6.39425122192583
30
0
41
1
10
93.0809408004152
20
6.3807502764266
30
0
41
1
10
93.102403694015
20
6.37192280341782
30
0
41
1
10
93.1229353517895
20
6.36141332445368
30
0
0
SPLINE
5
2C6
100
AcDbEntity
8
1
62
256
6
ByLayer
370
18
48
1
60
0
100
AcDbSpline
70
4
71
3
72
18
73
14
40
0
40
0
40
0
40
0
40
0.125000000000003
40
0.125000000000003
40
0.250000000000005
40
0.250000000000005
40
0.50000000000001
40
0.50000000000001
40
0.750000000000015
40
0.750000000000015
40
0.875000000000008
40
0.875000000000008
40
1
40
1
40
1
40
1
41
1
10
91.9791468947748
20
5.74807082738712
30
0
41
1
10
91.9936580279275
20
5.75187411868129
30
0
41
1
10
92.0073079053073
20
5.75942228241948
30
0
41
1
10
92.0332015580489
20
5.7783243633003
30
0
41
1
10
92.0453168107936
20
5.78970069760021
30
0
41
1
10
92.0792207686725
20
5.82720909560123
30
0
41
1
10
92.0986732578633
20
5.85669075384124
30
0
41
1
10
92.1306513919208
20
5.91974876854866
30
0
41
1
10
92.1431132005157
20
5.95316942352434
30
0
41
1
10
92.1539177033651
20
6.00383151993438
30
0
41
1
10
92.156171421297
20
6.02078593841355
30
0
41
1
10
92.1566877851602
20
6.05394903933205
30
0
41
1
10
92.1550404648683
20
6.0700600690113
30
0
41
1
10
92.149915119219
20
6.08476342822814
30
0
0
SPLINE
5
2C7
100
AcDbEntity
8
1
62
256
6
ByLayer
370
18
48
1
60
0
100
AcDbSpline
70
4
71
3
72
16
73
12
40
0
40
0
40
0
40
0
40
0.250000000000001
40
0.250000000000001
40
0.500000000000001
40
0.500000000000001
40
0.750000000000002
40
0.750000000000002
40
0.875000000000001
40
0.875000000000001
40
1
40
1
40
1
40
1
41
1
10
93.2023706632513
20
4.84569728861683
30
0
41
1
10
93.1830413052642
20
4.83309355676286
30
0
41
1
10
93.1626177688541
20
4.82206991978225
30
0
41
1
10
93.11993677777
20
4.80399796408435
30
0
41
1
10
93.0977223660561
20
4.79691521618059
30
0
41
1
10
93.0520722963557
20
4.78925685656861
30
0
41
1
10
93.0280791816011
20
4.78857295394781
30
0
41
1
10
92.9960207122667
20
4.79829903118474
30
0
41
1
10
92.986028128025
20
4.80352918169808
30
0
41
1
10
92.9706390105746
20
4.81793080258359
30
0
41
1
10
92.9653465153632
20
4.82701759522288
30
0
41
1
10
92.9626799394237
20
4.83686890155542
30
0
0
SPLINE
5
2C8
100
AcDbEntity
8
1
62
256
6
ByLayer
370
18
48
1
60
0
100
AcDbSpline
70
4
71
3
72
8
73
4
40
0
40
0
40
0
40
0
40
1
40
1
40
1
40
1
41
1
10
92.5717910607008
20
4.83176563063628
30
0
41
1
10
92.5679403844504
20
4.82643318712658
30
0
41
1
10
92.5640931343465
20
4.82110418335307
30
0
41
1
10
92.5602490798792
20
4.81577839389172
30
0
0
SPLINE
5
2C9
100
AcDbEntity
8
1
62
256
6
ByLayer
370
18
48
1
60
0
100
AcDbSpline
70
4
71
3
72
18
73
14
40
0
40
0
40
0
40
0
40
0.125000000000002
40
0.125000000000002
40
0.250000000000003
40
0.250000000000003
40
0.500000000000002
40
0.500000000000002
40
0.750000000000001
40
0.750000000000001
40
0.875
40
0.875
40
1
40
1
40
1
40
1
41
1
10
93.4412036086227
20
5.82469397294574
30
0
41
1
10
93.4248429959808
20
5.82688461918247
30
0
41
1
10
93.4091475370876
20
5.83291312134111
30
0
41
1
10
93.379105205466
20
5.84892792474267
30
0
41
1
10
93.3648976906974
20
5.85895146132904
30
0
41
1
10
93.324918591965
20
5.89267620584568
30
0
41
1
10
93.3016866922061
20
5.91999450563137
30
0
41
1
10
93.2632922046985
20
5.97948998957199
30
0
41
1
10
93.2483842123171
20
6.0110960835905
30
0
41
1
10
93.2346383628415
20
6.06043674804843
30
0
41
1
10
93.2316009705269
20
6.07689169338008
30
0
41
1
10
93.229844862477
20
6.1099780204184
30
0
41
1
10
93.2310878441133
20
6.12637783827765
30
0
41
1
10
93.2361769102202
20
6.14169199641452
30
0
0
SPLINE
5
2CA
100
AcDbEntity
8
1
62
256
6
ByLayer
370
18
48
1
60
0
100
AcDbSpline
70
4
71
3
72
8
73
4
40
0
40
0
40
0
40
0
40
1
40
1
40
1
40
1
41
1
10
93.4627929642536
20
5.412744527153
30
0
41
1
10
93.4696810115814
20
5.41441428167411
30
0
41
1
10
93.4765656613109
20
5.41608302650005
30
0
41
1
10
93.4834471294722
20
5.41775082737394
30
0
0
SPLINE
5
2CB
100
AcDbEntity
8
1
62
256
6
ByLayer
370
18
48
1
60
0
100
AcDbSpline
70
4
71
3
72
16
73
12
40
0
40
0
40
0
40
0
40
0.124999999999995
40
0.124999999999995
40
0.249999999999991
40
0.249999999999991
40
0.499999999999994
40
0.499999999999994
40
0.749999999999997
40
0.749999999999997
40
1
40
1
40
1
40
1
41
1
10
93.3005750384248
20
5.05719382002454
30
0
41
1
10
93.3092472910306
20
5.05123874451976
30
0
41
1
10
93.3161879117145
20
5.04315100343823
30
0
41
1
10
93.3244506192036
20
5.02395249965639
30
0
41
1
10
93.3257112082269
20
5.01304591642321
30
0
41
1
10
93.3230065834808
20
4.98088774949443
30
0
41
1
10
93.3132758313943
20
4.959556416922
30
0
41
1
10
93.288619792327
20
4.92137998752727
30
0
41
1
10
93.2733763216904
20
4.90403211640125
30
0
41
1
10
93.2399512162294
20
4.87249571502014
30
0
41
1
10
93.2216913067704
20
4.85829533819108
30
0
41
1
10
93.2023706632513
20
4.84569728861683
30
0
0
SPLINE
5
2CC
100
AcDbEntity
8
1
62
256
6
ByLayer
370
18
48
1
60
0
100
AcDbSpline
70
4
71
3
72
16
73
12
40
0
40
0
40
0
40
0
40
0.125000000000002
40
0.125000000000002
40
0.250000000000004
40
0.250000000000004
40
0.500000000000003
40
0.500000000000003
40
0.750000000000001
40
0.750000000000001
40
1
40
1
40
1
40
1
41
1
10
91.9816160119406
20
5.33904319364595
30
0
41
1
10
91.9729281891912
20
5.33498934804501
30
0
41
1
10
91.9632754879585
20
5.33351461540235
30
0
41
1
10
91.9440149582161
20
5.33686311931234
30
0
41
1
10
91.9346017342555
20
5.3416297223713
30
0
41
1
10
91.909738561383
20
5.3610626770822
30
0
41
1
10
91.8968291347833
20
5.38060649600104
30
0
41
1
10
91.8771085828763
20
5.42172867787667
30
0
41
1
10
91.8700276907337
20
5.44383850338045
30
0
41
1
10
91.8598746002563
20
5.48891287708273
30
0
41
1
10
91.8568273987258
20
5.51194889114123
30
0
41
1
10
91.8556163844704
20
5.53505641967962
30
0
0
SPLINE
5
2CD
100
AcDbEntity
8
1
62
256
6
ByLayer
370
18
48
1
60
0
100
AcDbSpline
70
4
71
3
72
8
73
4
40
0
40
0
40
0
40
0
40
1
40
1
40
1
40
1
41
1
10
93.2427091605349
20
6.16134054559731
30
0
41
1
10
93.2405321348766
20
6.15479496300449
30
0
41
1
10
93.2383547248277
20
6.14824553621756
30
0
41
1
10
93.2361769102202
20
6.14169199641452
30
0
0
SPLINE
5
2CE
100
AcDbEntity
8
1
62
256
6
ByLayer
370
18
48
1
60
0
100
AcDbSpline
70
4
71
3
72
8
73
4
40
0
40
0
40
0
40
0
40
1
40
1
40
1
40
1
41
1
10
91.9604368115004
20
5.74316641218363
30
0
41
1
10
91.9666687805015
20
5.74480017424889
30
0
41
1
10
91.9729053649506
20
5.74643495541264
30
0
41
1
10
91.9791468947748
20
5.74807082738712
30
0
0
SPLINE
5
2CF
100
AcDbEntity
8
1
62
256
6
ByLayer
370
18
48
1
60
0
100
AcDbSpline
70
4
71
3
72
8
73
4
40
0
40
0
40
0
40
0
40
1
40
1
40
1
40
1
41
1
10
92.8701487983276
20
6.32904972390384
30
0
41
1
10
92.8746459920817
20
6.33441604996017
30
0
41
1
10
92.8791413074659
20
6.33977901739587
30
0
41
1
10
92.8836348610935
20
6.34513884566584
30
0
0
SPLINE
5
2D0
100
AcDbEntity
8
1
62
256
6
ByLayer
370
18
48
1
60
0
100
AcDbSpline
70
4
71
3
72
8
73
4
40
0
40
0
40
0
40
0
40
1
40
1
40
1
40
1
41
1
10
92.481204001549
20
6.32404833800214
30
0
41
1
10
92.4855836944718
20
6.31915353687893
30
0
41
1
10
92.4899669015123
20
6.31425587308681
30
0
41
1
10
92.4943538754808
20
6.30935514653157
30
0
0
SPLINE
5
2D1
100
AcDbEntity
8
1
62
256
6
ByLayer
370
18
48
1
60
0
100
AcDbSpline
70
4
71
1
72
4
73
2
40
0
40
0
40
1
40
1
41
1
10
96.5576533831272
20
0.264157453483591
30
0
41
1
10
96.3851432031639
20
0.253197528075987
30
0
0
SPLINE
5
2D2
100
AcDbEntity
8
1
62
256
6
ByLayer
370
18
48
1
60
0
100
AcDbSpline
70
4
71
2
72
6
73
3
40
0
40
0
40
0
40
1
40
1
40
1
41
1
10
96.4597202171564
20
-0.0162163123292771
30
0
41
1
10
96.455893040456
20
0.0078151582925159
30
0
41
1
10
96.4491495592883
20
0.0312036416184469
30
0
0
SPLINE
5
2D3
100
AcDbEntity
8
1
62
256
6
ByLayer
370
18
48
1
60
0
100
AcDbSpline
70
4
71
2
72
6
73
3
40
0
40
0
40
0
40
1
40
1
40
1
41
1
10
96.0064469067689
20
-4.53626450963938
30
0
41
1
10
96.0306107494922
20
-4.53245829860825
30
0
41
1
10
96.0541280630796
20
-4.52575175894629
30
0
0
SPLINE
5
2D4
100
AcDbEntity
8
1
62
256
6
ByLayer
370
18
48
1
60
0
100
AcDbSpline
70
4
71
1
72
4
73
2
40
0
40
0
40
1
40
1
41
1
10
96.9641402199168
20
-2.5203985830403
30
0
41
1
10
96.9851644483238
20
-2.36157853885479
30
0
0
SPLINE
5
2D5
100
AcDbEntity
8
1
62
256
6
ByLayer
370
18
48
1
60
0
100
AcDbSpline
70
4
71
1
72
4
73
2
40
0
40
0
40
1
40
1
41
1
10
96.1359225520507
20
0.466763399220156
30
0
41
1
10
96.3084327320126
20
0.477723324627362
30
0
0
SPLINE
5
2D6
100
AcDbEntity
8
1
62
256
6
ByLayer
370
18
48
1
60
0
100
AcDbSpline
70
4
71
2
72
11
73
8
40
0
40
0
40
0
40
0.25
40
0.5
40
0.75
40
0.75
40
0.875
40
1
40
1
40
1
41
1
10
96.2773447539711
20
-4.46209603632482
30
0
41
1
10
96.3189025712426
20
-4.45024480388125
30
0
41
1
10
96.3923854100608
20
-4.40386145834881
30
0
41
1
10
96.4498447237447
20
-4.33809589373362
30
0
41
1
10
96.4683304615903
20
-4.29751002196375
30
0
41
1
10
96.4769155566185
20
-4.27866124411915
30
0
41
1
10
96.4891581124625
20
-4.23636592214021
30
0
41
1
10
96.4920870056339
20
-4.21424064201256
30
0
0
SPLINE
5
2D7
100
AcDbEntity
8
1
62
256
6
ByLayer
370
18
48
1
60
0
100
AcDbSpline
70
4
71
3
72
8
73
4
40
0
40
0
40
0
40
0
40
1
40
1
40
1
40
1
41
1
10
97.0000108204385
20
-2.21805031385236
30
0
41
1
10
97.0002624312381
20
-2.237165572089
30
0
41
1
10
96.9991079491017
20
-2.25622062872557
30
0
41
1
10
96.9971725895993
20
-2.27523970593955
30
0
0
SPLINE
5
2D8
100
AcDbEntity
8
1
62
256
6
ByLayer
370
18
48
1
60
0
100
AcDbSpline
70
4
71
3
72
12
73
8
40
0
40
0
40
0
40
0
40
0.5
40
0.5
40
0.75
40
0.75
40
1
40
1
40
1
40
1
41
1
10
96.3084327320127
20
0.477657773773387
30
0
41
1
10
96.3658522233563
20
0.469972716329153
30
0
41
1
10
96.4208281194408
20
0.445146895640534
30
0
41
1
10
96.4867125293033
20
0.388781867490906
30
0
41
1
10
96.5058501838132
20
0.366735554771537
30
0
41
1
10
96.537083864621
20
0.318155340177896
30
0
41
1
10
96.5489018932508
20
0.291606686262327
30
0
41
1
10
96.5576533831271
20
0.264094049891668
30
0
0
SPLINE
5
2D9
100
AcDbEntity
8
1
62
256
6
ByLayer
370
18
48
1
60
0
100
AcDbSpline
70
4
71
2
72
11
73
8
40
0
40
0
40
0
40
0.25
40
0.5
40
0.75
40
0.75
40
0.875
40
1
40
1
40
1
41
1
10
96.3851432031639
20
0.253197528075987
30
0
41
1
10
96.3732266908196
20
0.294527687276229
30
0
41
1
10
96.3265878528543
20
0.367607979415311
30
0
41
1
10
96.260460033127
20
0.424752524965726
30
0
41
1
10
96.2196506030259
20
0.443136996008832
30
0
41
1
10
96.2006980008493
20
0.451675060986531
30
0
41
1
10
96.1581697044094
20
0.463850550831154
30
0
41
1
10
96.135922552051
20
0.466763399220127
30
0
0
SPLINE
5
2DA
100
AcDbEntity
8
1
62
256
6
ByLayer
370
18
48
1
60
0
100
AcDbSpline
70
4
71
1
72
4
73
2
40
0
40
0
40
1
40
1
41
1
10
96.6922949248521
20
-4.57395702704301
30
0
41
1
10
96.9250134454381
20
-2.81596786298053
30
0
0
SPLINE
5
2DB
100
AcDbEntity
8
1
62
256
6
ByLayer
370
18
48
1
60
0
100
AcDbSpline
70
4
71
3
72
8
73
4
40
0
40
0
40
0
40
0
40
1
40
1
40
1
40
1
41
1
10
96.6653261099224
20
-0.109284944023557
30
0
41
1
10
96.669821764028
20
-0.124877266221745
30
0
41
1
10
96.6733453166494
20
-0.140683917537672
30
0
41
1
10
96.6758967677866
20
-0.156704897971309
30
0
0
SPLINE
5
2DC
100
AcDbEntity
8
1
62
256
6
ByLayer
370
18
48
1
60
0
100
AcDbSpline
70
4
71
1
72
4
73
2
40
0
40
0
40
1
40
1
41
1
10
96.9851644483238
20
-2.36157853885479
30
0
41
1
10
96.996601393081
20
-2.27518221378998
30
0
0
SPLINE
5
2DD
100
AcDbEntity
8
1
62
256
6
ByLayer
370
18
48
1
60
0
100
AcDbSpline
70
4
71
1
72
4
73
2
40
0
40
0
40
1
40
1
41
1
10
96.0541280630796
20
-4.52575175894629
30
0
41
1
10
96.1020532505399
20
-4.92889530569056
30
0
0
SPLINE
5
2DE
100
AcDbEntity
8
1
62
256
6
ByLayer
370
18
48
1
60
0
100
AcDbSpline
70
4
71
1
72
4
73
2
40
0
40
0
40
1
40
1
41
1
10
96.9250134454381
20
-2.81596786298053
30
0
41
1
10
96.9641402199168
20
-2.5203985830403
30
0
0
SPLINE
5
2DF
100
AcDbEntity
8
1
62
256
6
ByLayer
370
18
48
1
60
0
100
AcDbSpline
70
4
71
1
72
4
73
2
40
0
40
0
40
1
40
1
41
1
10
96.996601393081
20
-2.27518221378998
30
0
41
1
10
96.7732972297003
20
-2.08993817787012
30
0
0
SPLINE
5
2E0
100
AcDbEntity
8
1
62
256
6
ByLayer
370
18
48
1
60
0
100
AcDbSpline
70
4
71
1
72
4
73
2
40
0
40
0
40
1
40
1
41
1
10
96.9950987847704
20
-2.16102675108812
30
0
41
1
10
96.9840922235419
20
-2.09191474670121
30
0
0
SPLINE
5
2E1
100
AcDbEntity
8
1
62
256
6
ByLayer
370
18
48
1
60
0
100
AcDbSpline
70
4
71
1
72
4
73
2
40
0
40
0
40
1
40
1
41
1
10
96.492087005634
20
-4.21424064201224
30
0
41
1
10
96.6922949248521
20
-4.57395702704301
30
0
0
SPLINE
5
2E2
100
AcDbEntity
8
1
62
256
6
ByLayer
370
18
48
1
60
0
100
AcDbSpline
70
4
71
3
72
12
73
8
40
0
40
0
40
0
40
0
40
0.500000000000042
40
0.500000000000042
40
0.750000000000021
40
0.750000000000021
40
1
40
1
40
1
40
1
41
1
10
96.6922949248521
20
-4.57402257789698
30
0
41
1
10
96.6845673063951
20
-4.6311272909482
30
0
41
1
10
96.6596138044097
20
-4.68581103991957
30
0
41
1
10
96.6029302700729
20
-4.75132654023616
30
0
41
1
10
96.580761533728
20
-4.77035837570412
30
0
41
1
10
96.5319131466604
20
-4.8014203792421
30
0
41
1
10
96.5052177728398
20
-4.81317318762086
30
0
41
1
10
96.4775526731858
20
-4.82187582494737
30
0
0
SPLINE
5
2E3
100
AcDbEntity
8
1
62
256
6
ByLayer
370
18
48
1
60
0
100
AcDbSpline
70
4
71
1
72
4
73
2
40
0
40
0
40
1
40
1
41
1
10
96.6758967677866
20
-0.156704897971309
30
0
41
1
10
96.4597202171564
20
-0.0162163123292487
30
0
0
SPLINE
5
2E4
100
AcDbEntity
8
1
62
256
6
ByLayer
370
18
48
1
60
0
100
AcDbSpline
70
4
71
2
72
6
73
3
40
0
40
0
40
0
40
1
40
1
40
1
41
1
10
96.7732972297003
20
-2.08993817787012
30
0
41
1
10
96.7808673885744
20
-2.03275210935152
30
0
41
1
10
96.7717946213878
20
-1.97578271516659
30
0
0
SPLINE
5
2E5
100
AcDbEntity
8
1
62
256
6
ByLayer
370
18
48
1
60
0
100
AcDbSpline
70
4
71
1
72
4
73
2
40
0
40
0
40
1
40
1
41
1
10
96.9199359621271
20
-1.68906705174285
30
0
41
1
10
96.6758967677866
20
-0.156704897971309
30
0
0
SPLINE
5
2E6
100
AcDbEntity
8
1
62
256
6
ByLayer
370
18
48
1
60
0
100
AcDbSpline
70
4
71
1
72
4
73
2
40
0
40
0
40
1
40
1
41
1
10
96.4775526731855
20
-4.82181242135522
30
0
41
1
10
96.2773447539711
20
-4.46209603632474
30
0
0
SPLINE
5
2E7
100
AcDbEntity
8
1
62
256
6
ByLayer
370
18
48
1
60
0
100
AcDbSpline
70
4
71
1
72
4
73
2
40
0
40
0
40
1
40
1
41
1
10
96.0543720942292
20
-4.93940805638343
30
0
41
1
10
96.006446906769
20
-4.53626450963938
30
0
0
SPLINE
5
2E8
100
AcDbEntity
8
1
62
256
6
ByLayer
370
18
48
1
60
0
100
AcDbSpline
70
4
71
3
72
8
73
4
40
0
40
0
40
0
40
0
40
1
40
1
40
1
40
1
41
1
10
96.995438223034
20
-2.16098166863665
30
0
41
1
10
96.9979828556004
20
-2.17993352948716
30
0
41
1
10
96.9997592855012
20
-2.19894081922482
30
0
41
1
10
97.0000108204385
20
-2.21805031385236
30
0
0
SPLINE
5
2E9
100
AcDbEntity
8
1
62
256
6
ByLayer
370
18
48
1
60
0
100
AcDbSpline
70
4
71
1
72
4
73
2
40
0
40
0
40
1
40
1
41
1
10
96.9840922235419
20
-2.09191474670121
30
0
41
1
10
96.9622347398482
20
-1.9546680192671
30
0
0
SPLINE
5
2EA
100
AcDbEntity
8
1
62
256
6
ByLayer
370
18
48
1
60
0
100
AcDbSpline
70
4
71
1
72
4
73
2
40
0
40
0
40
1
40
1
41
1
10
96.9622347398482
20
-1.9546680192671
30
0
41
1
10
96.9199359621271
20
-1.68906705174285
30
0
0
SPLINE
5
2EB
100
AcDbEntity
8
1
62
256
6
ByLayer
370
18
48
1
60
0
100
AcDbSpline
70
4
71
1
72
4
73
2
40
0
40
0
40
1
40
1
41
1
10
96.4491495592883
20
0.0312036416184185
30
0
41
1
10
96.6653261099224
20
-0.109284944023557
30
0
0
SPLINE
5
2EC
100
AcDbEntity
8
1
62
256
6
ByLayer
370
18
48
1
60
0
100
AcDbSpline
70
4
71
1
72
4
73
2
40
0
40
0
40
1
40
1
41
1
10
96.7717946213879
20
-1.97578271516659
30
0
41
1
10
96.9950987847704
20
-2.16102675108812
30
0
0
SPLINE
5
2ED
100
AcDbEntity
8
1
62
256
6
ByLayer
370
13
48
1
60
0
100
AcDbSpline
70
4
71
3
72
16
73
12
40
0
40
0
40
0
40
0
40
0.499999999999992
40
0.499999999999992
40
0.749999999999988
40
0.749999999999988
40
0.812499999999987
40
0.812499999999987
40
0.874999999999986
40
0.874999999999986
40
1
40
1
40
1
40
1
41
1
10
92.8386728012151
20
3.61387270177522
30
0
41
1
10
93.2653554887075
20
3.63623419388523
30
0
41
1
10
93.6920381162827
20
3.6585968446544
30
0
41
1
10
94.3320621805436
20
3.69213844353914
30
0
41
1
10
94.5454036701735
20
3.70331636717023
30
0
41
1
10
94.8120801869101
20
3.71729545193483
30
0
41
1
10
94.8655477826585
20
3.72059568777411
30
0
41
1
10
94.9721367379479
20
3.71950257472955
30
0
41
1
10
95.0249735832184
20
3.71610268687829
30
0
41
1
10
95.1821631315791
20
3.69766668540325
30
0
41
1
10
95.2852032369658
20
3.6744465438112
30
0
41
1
10
95.3864077493896
20
3.63978150626613
30
0
0
SPLINE
5
2EE
100
AcDbEntity
8
1
62
256
6
ByLayer
370
13
48
1
60
0
100
AcDbSpline
70
4
71
3
72
22
73
18
40
0
40
0
40
0
40
0
40
0.0624999999999938
40
0.0624999999999938
40
0.124999999999988
40
0.124999999999988
40
0.249999999999962
40
0.249999999999962
40
0.281249999999962
40
0.281249999999962
40
0.312499999999963
40
0.312499999999963
40
0.374999999999965
40
0.374999999999965
40
0.499999999999969
40
0.499999999999969
40
1
40
1
40
1
40
1
41
1
10
90.1465577412708
20
3.20440965962123
30
0
41
1
10
90.1944783391912
20
3.23591592562622
30
0
41
1
10
90.2442694508053
20
3.26449047617879
30
0
41
1
10
90.3476709004372
20
3.31565358258106
30
0
41
1
10
90.401583586348
20
3.33829148850796
30
0
41
1
10
90.5640361900581
20
3.39509491277076
30
0
41
1
10
90.6746942794768
20
3.41926939915777
30
0
41
1
10
90.8159045268138
20
3.43270538304518
30
0
41
1
10
90.8443436593782
20
3.4342471884051
30
0
41
1
10
90.9012329344025
20
3.43726681271514
30
0
41
1
10
90.9296844219929
20
3.43873681414635
30
0
41
1
10
91.0150340833972
20
3.44317472263023
30
0
41
1
10
91.0719279302263
20
3.44616732161035
30
0
41
1
10
91.2426126780807
20
3.45513097562394
30
0
41
1
10
91.3564030960642
20
3.46109556336287
30
0
41
1
10
91.925356119966
20
3.49090068293893
30
0
41
1
10
92.3805177994624
20
3.51475888961613
30
0
41
1
10
92.8356796981756
20
3.53861291394193
30
0
0
SPLINE
5
2EF
100
AcDbEntity
8
1
62
256
6
ByLayer
370
13
48
1
60
0
100
AcDbSpline
70
4
71
3
72
8
73
4
40
0
40
0
40
0
40
0
40
1
40
1
40
1
40
1
41
1
10
96.2262801567437
20
3.13523551606289
30
0
41
1
10
96.1833334421908
20
3.13645546352774
30
0
41
1
10
96.1451317431598
20
3.13992815507336
30
0
41
1
10
96.1045813241878
20
3.1423306575779
30
0
0
SPLINE
5
2F0
100
AcDbEntity
8
1
62
256
6
ByLayer
370
13
48
1
60
0
100
AcDbSpline
70
4
71
3
72
9
73
5
40
0
40
0
40
0
40
0
40
0.5
40
1
40
1
40
1
40
1
41
1
10
89.503326464407
20
2.63730071706644
30
0
41
1
10
89.5251823530493
20
2.63760069311189
30
0
41
1
10
89.568873028266
20
2.63915859469111
30
0
41
1
10
89.6125415948048
20
2.64117957768988
30
0
41
1
10
89.63437864191
20
2.64213218402279
30
0
0
SPLINE
5
2F1
100
AcDbEntity
8
1
62
256
6
ByLayer
370
13
48
1
60
0
100
AcDbSpline
70
4
71
1
72
4
73
2
40
0
40
0
40
1
40
1
41
1
10
88.5122229941756
20
5.21783059723055
30
0
41
1
10
88.4171540513377
20
5.21516178978342
30
0
0
SPLINE
5
2F2
100
AcDbEntity
8
1
62
256
6
ByLayer
370
13
48
1
60
0
100
AcDbSpline
70
4
71
3
72
18
73
14
40
0
40
0
40
0
40
0
40
0.0312500000000009
40
0.0312500000000009
40
0.0625000000000018
40
0.0625000000000018
40
0.125000000000004
40
0.125000000000004
40
0.250000000000002
40
0.250000000000002
40
0.5
40
0.5
40
1
40
1
40
1
40
1
41
1
10
96.6275974774119
20
3.38230220526936
30
0
41
1
10
96.6270165863881
20
3.37364841966442
30
0
41
1
10
96.6261460213823
20
3.36413141512807
30
0
41
1
10
96.6238495894713
20
3.34485870560712
30
0
41
1
10
96.6224638864355
20
3.33557630664015
30
0
41
1
10
96.6182602212029
20
3.31166025116252
30
0
41
1
10
96.61536645098
20
3.29960448456134
30
0
41
1
10
96.6072852225349
20
3.26982834384063
30
0
41
1
10
96.6023502577809
20
3.25708443226523
30
0
41
1
10
96.5881344204512
20
3.2247476711095
30
0
41
1
10
96.5795557770481
20
3.21305054522236
30
0
41
1
10
96.5548431957019
20
3.18722727465683
30
0
41
1
10
96.5398360501015
20
3.1837910684535
30
0
41
1
10
96.525423845425
20
3.18524296067983
30
0
0
SPLINE
5
2F3
100
AcDbEntity
8
1
62
256
6
ByLayer
370
13
48
1
60
0
100
AcDbSpline
70
4
71
3
72
8
73
4
40
0
40
0
40
0
40
0
40
1
40
1
40
1
40
1
41
1
10
88.4092884957367
20
5.26913151031911
30
0
41
1
10
88.4088624402076
20
5.27320037645416
30
0
41
1
10
88.4084944286158
20
5.27707171792093
30
0
41
1
10
88.4081709299503
20
5.28079158100942
30
0
0
SPLINE
5
2F4
100
AcDbEntity
8
1
62
256
6
ByLayer
370
13
48
1
60
0
100
AcDbSpline
70
4
71
3
72
9
73
5
40
0
40
0
40
0
40
0
40
0.5
40
1
40
1
40
1
40
1
41
1
10
88.9688680127621
20
8.15824575984226
30
0
41
1
10
88.9906355285947
20
8.16023198955011
30
0
41
1
10
89.0342497067791
20
8.16324954145827
30
0
41
1
10
89.0778903025885
20
8.16580423776924
30
0
41
1
10
89.0997072985409
20
8.16713944288972
30
0
0
SPLINE
5
2F5
100
AcDbEntity
8
1
62
256
6
ByLayer
370
13
48
1
60
0
100
AcDbSpline
70
4
71
3
72
18
73
14
40
0
40
0
40
0
40
0
40
0.125
40
0.125
40
0.25
40
0.25
40
0.3125
40
0.3125
40
0.375
40
0.375
40
0.5
40
0.5
40
1
40
1
40
1
40
1
41
1
10
95.3585903547888
20
7.89481979471611
30
0
41
1
10
95.2605085789898
20
7.83033415278609
30
0
41
1
10
95.1568844898898
20
7.7786104360683
30
0
41
1
10
94.9389378636651
20
7.69979762470516
30
0
41
1
10
94.8236781356243
20
7.67281928426226
30
0
41
1
10
94.6513565653706
20
7.65345507383876
30
0
41
1
10
94.5936209960141
20
7.65121341403633
30
0
41
1
10
94.4782556333029
20
7.64521967729786
30
0
41
1
10
94.4205747468129
20
7.64219717933614
30
0
41
1
10
94.2475334011056
20
7.63311092571996
30
0
41
1
10
94.1321719903561
20
7.62706075736514
30
0
41
1
10
93.5553626385448
20
7.59684273055225
30
0
41
1
10
93.0939159859549
20
7.57265647349638
30
0
41
1
10
92.6324691336179
20
7.54847306870823
30
0
0
SPLINE
5
2F6
100
AcDbEntity
8
1
62
256
6
ByLayer
370
13
48
1
60
0
100
AcDbSpline
70
4
71
1
72
4
73
2
40
0
40
0
40
1
40
1
41
1
10
89.2318564918702
20
8.01115848232686
30
0
41
1
10
89.0997072985409
20
8.16713944288972
30
0
0
SPLINE
5
2F7
100
AcDbEntity
8
1
62
256
6
ByLayer
370
13
48
1
60
0
100
AcDbSpline
70
4
71
3
72
20
73
16
40
0
40
0
40
0
40
0
40
0.25
40
0.25
40
0.375
40
0.375
40
0.5
40
0.5
40
0.625
40
0.625
40
0.75
40
0.75
40
0.875
40
0.875
40
1
40
1
40
1
40
1
41
1
10
96.5908473881689
20
8.18679332925905
30
0
41
1
10
96.5832229306152
20
8.24401393890761
30
0
41
1
10
96.5620043478426
20
8.2978301470873
30
0
41
1
10
96.5141146282737
20
8.36938176289226
30
0
41
1
10
96.4957699346517
20
8.39102414121407
30
0
41
1
10
96.4548916542756
20
8.43042482185166
30
0
41
1
10
96.4319893229342
20
8.44817455740522
30
0
41
1
10
96.3837700583561
20
8.47811162031414
30
0
41
1
10
96.3583296130431
20
8.49057352500617
30
0
41
1
10
96.3044026718697
20
8.50976000564171
30
0
41
1
10
96.2766553247976
20
8.51649102299967
30
0
41
1
10
96.2207770985485
20
8.52453928643277
30
0
41
1
10
96.1922706206684
20
8.52440134008035
30
0
41
1
10
96.1353578238258
20
8.52498704785705
30
0
41
1
10
96.1069017051521
20
8.52514412286428
30
0
41
1
10
96.0784458837578
20
8.52515690978842
30
0
0
SPLINE
5
2F8
100
AcDbEntity
8
1
62
256
6
ByLayer
370
13
48
1
60
0
100
AcDbSpline
70
4
71
2
72
6
73
3
40
0
40
0
40
0
40
1
40
1
40
1
41
1
10
96.9499646971864
20
5.88645165871841
30
0
41
0.997409491337352
10
96.9503471385088
20
5.85760659187472
30
0
41
1
10
96.9466041909569
20
5.82900677329991
30
0
0
SPLINE
5
2F9
100
AcDbEntity
8
1
62
256
6
ByLayer
370
13
48
1
60
0
100
AcDbSpline
70
4
71
2
72
6
73
3
40
0
40
0
40
0
40
1
40
1
40
1
41
1
10
96.9499646971864
20
5.88645165871841
30
0
41
0.997409491337352
10
96.9495822558641
20
5.91529672556338
30
0
41
1
10
96.945082341142
20
5.94379002779954
30
0
0
SPLINE
5
2FA
100
AcDbEntity
8
1
62
256
6
ByLayer
370
13
48
1
60
0
100
AcDbSpline
70
4
71
1
72
4
73
2
40
0
40
0
40
1
40
1
41
1
10
88.8664579471488
20
2.97482729577104
30
0
41
1
10
88.8364267680268
20
2.97398425037545
30
0
0
SPLINE
5
2FB
100
AcDbEntity
8
1
62
256
6
ByLayer
370
13
48
1
60
0
100
AcDbSpline
70
4
71
3
72
8
73
4
40
0
40
0
40
0
40
0
40
1
40
1
40
1
40
1
41
1
10
96.1045813241878
20
3.1423306575779
30
0
41
1
10
96.085654253565
20
3.14160384761001
30
0
41
1
10
96.0682061456481
20
3.14169935321973
30
0
41
1
10
96.0510374680237
20
3.14195022186681
30
0
0
SPLINE
5
2FC
100
AcDbEntity
8
1
62
256
6
ByLayer
370
13
48
1
60
0
100
AcDbSpline
70
4
71
3
72
22
73
18
40
0
40
0
40
0
40
0
40
0.0624999999999939
40
0.0624999999999939
40
0.124999999999988
40
0.124999999999988
40
0.249999999999962
40
0.249999999999962
40
0.281249999999963
40
0.281249999999963
40
0.312499999999964
40
0.312499999999964
40
0.374999999999966
40
0.374999999999966
40
0.49999999999997
40
0.49999999999997
40
1
40
1
40
1
40
1
41
1
10
95.3107475940469
20
7.95721096540885
30
0
41
1
10
95.2628269961266
20
7.92570469940387
30
0
41
1
10
95.2130358845124
20
7.89713014885129
30
0
41
1
10
95.1096344348805
20
7.84596704244902
30
0
41
1
10
95.0557217489697
20
7.82332913652212
30
0
41
1
10
94.8932691452597
20
7.76652571225932
30
0
41
1
10
94.7826110558409
20
7.74235122587231
30
0
41
1
10
94.6414008085039
20
7.72891524198491
30
0
41
1
10
94.6129616759396
20
7.72737343662499
30
0
41
1
10
94.5560724009153
20
7.72435381231494
30
0
41
1
10
94.5276209133248
20
7.72288381088373
30
0
41
1
10
94.4422712519204
20
7.71844590239985
30
0
41
1
10
94.3853774050914
20
7.71545330341974
30
0
41
1
10
94.214692657237
20
7.70648964940614
30
0
41
1
10
94.1009022392535
20
7.70052506166718
30
0
41
1
10
93.5319492153518
20
7.67071994209113
30
0
41
1
10
93.0767875358553
20
7.64686173541395
30
0
41
1
10
92.6216256371421
20
7.62300771108812
30
0
0
SPLINE
5
2FD
100
AcDbEntity
8
1
62
256
6
ByLayer
370
13
48
1
60
0
100
AcDbSpline
70
4
71
3
72
22
73
18
40
0
40
0
40
0
40
0
40
0.249999999999974
40
0.249999999999974
40
0.375000000000009
40
0.375000000000009
40
0.500000000000045
40
0.500000000000045
40
0.62500000000008
40
0.62500000000008
40
0.750000000000116
40
0.750000000000116
40
0.812500000000087
40
0.812500000000087
40
0.875000000000058
40
0.875000000000058
40
1
40
1
40
1
40
1
41
1
10
96.5254238454334
20
3.18524296068463
30
0
41
1
10
96.507117701504
20
3.17677756106238
30
0
41
1
10
96.4863008556406
20
3.16816425047716
30
0
41
1
10
96.450175837901
20
3.15619437739528
30
0
41
1
10
96.4370463749629
20
3.15232107297933
30
0
41
1
10
96.40944750586
20
3.14553444640128
30
0
41
1
10
96.3946220729768
20
3.14256651061524
30
0
41
1
10
96.3656181492165
20
3.13815828784021
30
0
41
1
10
96.3510341652786
20
3.13660820657583
30
0
41
1
10
96.3240744025508
20
3.1349606635456
30
0
41
1
10
96.3118368881375
20
3.13506266213153
30
0
41
1
10
96.2939697902334
20
3.13535853150469
30
0
41
1
10
96.2877644629743
20
3.1353224836586
30
0
41
1
10
96.2751332856395
20
3.13514496316503
30
0
41
1
10
96.2683999412978
20
3.13485611098622
30
0
41
1
10
96.2496600568514
20
3.13468892005537
30
0
41
1
10
96.2378542800919
20
3.13490674068197
30
0
41
1
10
96.2262801567437
20
3.13523551606289
30
0
0
SPLINE
5
2FE
100
AcDbEntity
8
1
62
256
6
ByLayer
370
13
48
1
60
0
100
AcDbSpline
70
4
71
3
72
10
73
6
40
0
40
0
40
0
40
0
40
0.5
40
0.5
40
1
40
1
40
1
40
1
41
1
10
90.0408485040222
20
3.16918228096637
30
0
41
1
10
90.0371650398814
20
3.16898923879066
30
0
41
1
10
90.0167728910098
20
3.16926200034698
30
0
41
1
10
89.9553685977472
20
3.1704559816749
30
0
41
1
10
89.9144674548918
20
3.17136175711056
30
0
41
1
10
89.8751917458497
20
3.17227695479988
30
0
0
SPLINE
5
2FF
100
AcDbEntity
8
1
62
256
6
ByLayer
370
13
48
1
60
0
100
AcDbSpline
70
4
71
3
72
10
73
6
40
0
40
0
40
0
40
0
40
0.5
40
0.5
40
1
40
1
40
1
40
1
41
1
10
95.4406326538151
20
8.08340732337953
30
0
41
1
10
95.4369509391198
20
8.08321437288839
30
0
41
1
10
95.4462518341952
20
8.07230205512076
30
0
41
1
10
95.4848948306739
20
8.03646631318776
30
0
41
1
10
95.514251107413
20
8.01167746307374
30
0
41
1
10
95.5452159907613
20
7.98740994902113
30
0
0
SPLINE
5
300
100
AcDbEntity
8
1
62
256
6
ByLayer
370
13
48
1
60
0
100
AcDbSpline
70
4
71
3
72
18
73
14
40
0
40
0
40
0
40
0
40
0.125000000000024
40
0.125000000000024
40
0.250000000000048
40
0.250000000000048
40
0.312500000000053
40
0.312500000000053
40
0.375000000000058
40
0.375000000000058
40
0.500000000000052
40
0.500000000000052
40
1
40
1
40
1
40
1
41
1
10
90.1125515800439
20
3.26752597576737
30
0
41
1
10
90.210633355843
20
3.33201161769739
30
0
41
1
10
90.314257444943
20
3.38373533441518
30
0
41
1
10
90.5322040711677
20
3.46254814577836
30
0
41
1
10
90.6474637992085
20
3.48952648622125
30
0
41
1
10
90.8197853694621
20
3.50889069664473
30
0
41
1
10
90.8775209388186
20
3.51113235644718
30
0
41
1
10
90.9928863015299
20
3.51712609318562
30
0
41
1
10
91.0505671880198
20
3.52014859114735
30
0
41
1
10
91.2236085337272
20
3.52923484476352
30
0
41
1
10
91.3389699444767
20
3.53528501311834
30
0
41
1
10
91.9157792962881
20
3.56550303993126
30
0
41
1
10
92.3772259488778
20
3.5896892969871
30
0
41
1
10
92.8386728012148
20
3.61387270177525
30
0
0
SPLINE
5
301
100
AcDbEntity
8
1
62
256
6
ByLayer
370
13
48
1
60
0
100
AcDbSpline
70
4
71
3
72
9
73
5
40
0
40
0
40
0
40
0
40
0.5
40
1
40
1
40
1
40
1
41
1
10
95.9539788709108
20
8.52431990796364
30
0
41
1
10
95.9321229822684
20
8.52401993191819
30
0
41
1
10
95.8884323070517
20
8.52246203033897
30
0
41
1
10
95.8447637405129
20
8.5204410473402
30
0
41
1
10
95.8229266934076
20
8.5194884410073
30
0
0
SPLINE
5
302
100
AcDbEntity
8
1
62
256
6
ByLayer
370
13
48
1
60
0
100
AcDbSpline
70
4
71
2
72
6
73
3
40
0
40
0
40
0
40
1
40
1
40
1
41
1
10
88.5073406381313
20
5.27516896631164
30
0
41
0.997409491337352
10
88.5077230794536
20
5.24632389946668
30
0
41
1
10
88.5122229941756
20
5.21783059723055
30
0
0
SPLINE
5
303
100
AcDbEntity
8
1
62
256
6
ByLayer
370
13
48
1
60
0
100
AcDbSpline
70
4
71
3
72
16
73
12
40
0
40
0
40
0
40
0
40
0.500000000000016
40
0.500000000000016
40
0.750000000000024
40
0.750000000000024
40
0.812500000000014
40
0.812500000000014
40
0.875000000000004
40
0.875000000000004
40
1
40
1
40
1
40
1
41
1
10
92.6324691336177
20
7.54847306870826
30
0
41
1
10
92.2057864461253
20
7.52611157659825
30
0
41
1
10
91.7791038185499
20
7.50374892582909
30
0
41
1
10
91.139079754289
20
7.47020732694435
30
0
41
1
10
90.925738264659
20
7.45902940331322
30
0
41
1
10
90.6590617479225
20
7.44505031854865
30
0
41
1
10
90.6055941521742
20
7.44175008270938
30
0
41
1
10
90.4990051968848
20
7.44284319575394
30
0
41
1
10
90.4461683516143
20
7.4462430836052
30
0
41
1
10
90.2889788032537
20
7.46467908508023
30
0
41
1
10
90.185938697867
20
7.48789922667228
30
0
41
1
10
90.0847341854432
20
7.52256426421735
30
0
0
SPLINE
5
304
100
AcDbEntity
8
1
62
256
6
ByLayer
370
13
48
1
60
0
100
AcDbSpline
70
4
71
3
72
8
73
4
40
0
40
0
40
0
40
0
40
1
40
1
40
1
40
1
41
1
10
96.0784458837578
20
8.52515690978842
30
0
41
1
10
96.0369562662332
20
8.52517555358662
30
0
41
1
10
95.9954673189719
20
8.52486887714929
30
0
41
1
10
95.9539788709108
20
8.52431990796364
30
0
0
SPLINE
5
305
100
AcDbEntity
8
1
62
256
6
ByLayer
370
13
48
1
60
0
100
AcDbSpline
70
4
71
1
72
4
73
2
40
0
40
0
40
1
40
1
41
1
10
88.4092884957367
20
5.26913151031911
30
0
41
1
10
88.5073406381313
20
5.27516896631164
30
0
0
SPLINE
5
306
100
AcDbEntity
8
1
62
256
6
ByLayer
370
13
48
1
60
0
100
AcDbSpline
70
4
71
3
72
24
73
20
40
0
40
0
40
0
40
0
40
0.125000000000046
40
0.125000000000046
40
0.250000000000092
40
0.250000000000092
40
0.375000000000137
40
0.375000000000137
40
0.500000000000183
40
0.500000000000183
40
0.562500000000206
40
0.562500000000206
40
0.593750000000218
40
0.593750000000218
40
0.625000000000229
40
0.625000000000229
40
0.75000000000013
40
0.75000000000013
40
1
40
1
40
1
40
1
41
1
10
88.6671208616328
20
7.96250214777717
30
0
41
1
10
88.67745953141
20
7.96853771168065
30
0
41
1
10
88.6892760401873
20
7.97462546767346
30
0
41
1
10
88.7167712209259
20
7.98648991657606
30
0
41
1
10
88.7326447761208
20
7.99229847151796
30
0
41
1
10
88.7697269496688
20
8.00226342733563
30
0
41
1
10
88.7911033317058
20
8.00630037997908
30
0
41
1
10
88.8343344600825
20
8.01127238024884
30
0
41
1
10
88.8555242813714
20
8.01215884994312
30
0
41
1
10
88.8847518039851
20
8.01181600812888
30
0
41
1
10
88.8946734712898
20
8.01183970560066
30
0
41
1
10
88.9100419188044
20
8.01218348182564
30
0
41
1
10
88.9153465293141
20
8.01240969666415
30
0
41
1
10
88.9254974905162
20
8.01258075270775
30
0
41
1
10
88.9304530877752
20
8.0125926718068
30
0
41
1
10
88.9550799527173
20
8.012559478095
30
0
41
1
10
88.9741504036237
20
8.01214546102176
30
0
41
1
10
89.0300401099501
20
8.01009191284169
30
0
41
1
10
89.0658097996129
20
8.00782575103148
30
0
41
1
10
89.1026923644563
20
8.00618636409953
30
0
0
SPLINE
5
307
100
AcDbEntity
8
1
62
256
6
ByLayer
370
13
48
1
60
0
100
AcDbSpline
70
4
71
1
72
4
73
2
40
0
40
0
40
1
40
1
41
1
10
88.9688680127621
20
8.15824575984226
30
0
41
1
10
89.1026923644564
20
8.00618636409953
30
0
0
SPLINE
5
308
100
AcDbEntity
8
1
62
256
6
ByLayer
370
13
48
1
60
0
100
AcDbSpline
70
4
71
1
72
4
73
2
40
0
40
0
40
1
40
1
41
1
10
88.5107011443608
20
5.33261385173017
30
0
41
1
10
88.4113108567275
20
5.3231845072637
30
0
0
SPLINE
5
309
100
AcDbEntity
8
1
62
256
6
ByLayer
370
13
48
1
60
0
100
AcDbSpline
70
4
71
3
72
10
73
6
40
0
40
0
40
0
40
0
40
0.5
40
0.5
40
1
40
1
40
1
40
1
41
1
10
90.0074482818259
20
3.07772987134825
30
0
41
1
10
90.0037665671306
20
3.07753692085714
30
0
41
1
10
89.98726595078
20
3.0880719172213
30
0
41
1
10
89.9384449386267
20
3.12337425195528
30
0
41
1
10
89.9061566291981
20
3.1480094407473
30
0
41
1
10
89.8751917458497
20
3.17227695479985
30
0
0
SPLINE
5
30A
100
AcDbEntity
8
1
62
256
6
ByLayer
370
13
48
1
60
0
100
AcDbSpline
70
4
71
3
72
8
73
4
40
0
40
0
40
0
40
0
40
1
40
1
40
1
40
1
41
1
10
88.4092884957367
20
5.26913151031911
30
0
41
1
10
88.4108452443966
20
5.25426442969143
30
0
41
1
10
88.4130790330812
20
5.23694436476495
30
0
41
1
10
88.4171540513377
20
5.21516178978342
30
0
0
SPLINE
5
30B
100
AcDbEntity
8
1
62
256
6
ByLayer
370
13
48
1
60
0
100
AcDbSpline
70
4
71
3
72
8
73
4
40
0
40
0
40
0
40
0
40
1
40
1
40
1
40
1
41
1
10
89.1026923644563
20
8.00618636409953
30
0
41
1
10
89.1231609089734
20
8.00699395929107
30
0
41
1
10
89.1425893539586
20
8.00700223874932
30
0
41
1
10
89.1618212841509
20
8.00685950058741
30
0
0
SPLINE
5
30C
100
AcDbEntity
8
1
62
256
6
ByLayer
370
13
48
1
60
0
100
AcDbSpline
70
4
71
3
72
16
73
12
40
0
40
0
40
0
40
0
40
0.499999999999992
40
0.499999999999992
40
0.749999999999996
40
0.749999999999996
40
0.812499999999997
40
0.812499999999997
40
0.874999999999998
40
0.874999999999998
40
1
40
1
40
1
40
1
41
1
10
92.621625637142
20
7.62300771108815
30
0
41
1
10
92.2015663968628
20
7.6009933391378
30
0
41
1
10
91.7815072127228
20
7.57897789599315
30
0
41
1
10
91.1514183270504
20
7.54595681993592
30
0
41
1
10
90.9413886001179
20
7.53495282547243
30
0
41
1
10
90.6788516216312
20
7.52119079465373
30
0
41
1
10
90.6263683337306
20
7.51743826743621
30
0
41
1
10
90.5212457337986
20
7.51640593296881
30
0
41
1
10
90.4686127449701
20
7.51886380525738
30
0
41
1
10
90.3105003641366
20
7.53509099688364
30
0
41
1
10
90.2055644941389
20
7.55767517999712
30
0
41
1
10
90.1018949666723
20
7.5931845458924
30
0
0
SPLINE
5
30D
100
AcDbEntity
8
1
62
256
6
ByLayer
370
13
48
1
60
0
100
AcDbSpline
70
4
71
2
72
6
73
3
40
0
40
0
40
0
40
1
40
1
40
1
41
1
10
88.5073406381313
20
5.27516896631164
30
0
41
0.997409491337352
10
88.5069581968089
20
5.30401403315537
30
0
41
1
10
88.5107011443608
20
5.33261385173017
30
0
0
SPLINE
5
30E
100
AcDbEntity
8
1
62
256
6
ByLayer
370
13
48
1
60
0
100
AcDbSpline
70
4
71
3
72
18
73
14
40
0
40
0
40
0
40
0
40
0.125
40
0.125
40
0.25
40
0.25
40
0.499999999999999
40
0.499999999999999
40
0.625
40
0.625
40
0.75
40
0.75
40
1
40
1
40
1
40
1
41
1
10
88.8664579471488
20
2.97482729577104
30
0
41
1
10
88.8709649718678
20
2.94100263345211
30
0
41
1
10
88.8802258312978
20
2.90813636697016
30
0
41
1
10
88.9070231995702
20
2.84666291852673
30
0
41
1
10
88.9247316450838
20
2.81720469987408
30
0
41
1
10
88.9874043044109
20
2.73822670316701
30
0
41
1
10
89.0424912112946
20
2.69613099523861
30
0
41
1
10
89.1352732173958
20
2.65673600220248
30
0
41
1
10
89.1682214124226
20
2.64766443309242
30
0
41
1
10
89.2341035544878
20
2.6368380693753
30
0
41
1
10
89.2678326672103
20
2.63722797557145
30
0
41
1
10
89.3687610597125
20
2.63605573550464
30
0
41
1
10
89.4360443137656
20
2.63641044931305
30
0
41
1
10
89.5033264644069
20
2.63730071706644
30
0
0
SPLINE
5
30F
100
AcDbEntity
8
1
62
256
6
ByLayer
370
13
48
1
60
0
100
AcDbSpline
70
4
71
2
72
6
73
3
40
0
40
0
40
0
40
1
40
1
40
1
41
1
10
88.4113108567275
20
5.3231845072637
30
0
41
0.99796972283092
10
88.408548536137
20
5.30207764785936
30
0
41
0.999121851837678
10
88.4081709299508
20
5.28079158100724
30
0
0
SPLINE
5
310
100
AcDbEntity
8
1
62
256
6
ByLayer
370
13
48
1
60
0
100
AcDbSpline
70
4
71
3
72
16
73
12
40
0
40
0
40
0
40
0
40
0.5
40
0.5
40
0.750000000000008
40
0.750000000000008
40
0.81250000000001
40
0.81250000000001
40
0.875000000000012
40
0.875000000000012
40
1
40
1
40
1
40
1
41
1
10
92.8356796981757
20
3.53861291394193
30
0
41
1
10
93.2557389384549
20
3.56062728589228
30
0
41
1
10
93.6757981225949
20
3.58264272903693
30
0
41
1
10
94.3058870082673
20
3.61566380509416
30
0
41
1
10
94.5159167351999
20
3.62666779955765
30
0
41
1
10
94.7784537136866
20
3.64042983037635
30
0
41
1
10
94.8309370015871
20
3.64418235759388
30
0
41
1
10
94.9360596015192
20
3.64521469206127
30
0
41
1
10
94.9886925903476
20
3.6427568197727
30
0
41
1
10
95.1468049711812
20
3.62652962814644
30
0
41
1
10
95.2517408411789
20
3.60394544503296
30
0
41
1
10
95.3554103686455
20
3.56843607913768
30
0
0
SPLINE
5
311
100
AcDbEntity
8
1
62
256
6
ByLayer
370
13
48
1
60
0
100
AcDbSpline
70
4
71
3
72
10
73
6
40
0
40
0
40
0
40
0
40
0.643613864574459
40
0.643613864574459
40
1
40
1
40
1
40
1
41
1
10
96.495979876822
20
3.13359315966193
30
0
41
1
10
96.4663469391918
20
3.101000728381
30
0
41
1
10
96.4314407808083
20
3.07319581960635
30
0
41
1
10
96.3716131552448
20
3.04002470546499
30
0
41
1
10
96.3490098587828
20
3.03021763393664
30
0
41
1
10
96.3259115151112
20
3.02235357891374
30
0
0
SPLINE
5
312
100
AcDbEntity
8
1
62
256
6
ByLayer
370
13
48
1
60
0
100
AcDbSpline
70
4
71
3
72
14
73
10
40
0
40
0
40
0
40
0
40
0.0054494850178698
40
0.0054494850178698
40
0.336966323345247
40
0.336966323345247
40
0.668483161672623
40
0.668483161672623
40
1
40
1
40
1
40
1
41
1
10
26.4503913819192
20
-2.76284683507549
30
0
41
1
10
26.4503900269712
20
-2.76624029703439
30
0
41
1
10
26.4503886678696
20
-2.76964031009331
30
0
41
1
10
26.4503043728519
20
-2.98028027781945
30
0
41
1
10
26.4502061920083
20
-3.21143619252948
30
0
41
1
10
26.4499922604923
20
-3.69115470238731
30
0
41
1
10
26.449876573749
20
-3.93957394316519
30
0
41
1
10
26.4496429917341
20
-4.42082095502747
30
0
41
1
10
26.4495251662638
20
-4.65350491497941
30
0
41
1
10
26.4494140638637
20
-4.86292960634364
30
0
0
SPLINE
5
313
100
AcDbEntity
8
1
62
256
6
ByLayer
370
13
48
1
60
0
100
AcDbSpline
70
4
71
3
72
22
73
18
40
0
40
0
40
0
40
0
40
0.165627967726335
40
0.165627967726335
40
0.331255935452671
40
0.331255935452671
40
0.496883903179006
40
0.496883903179006
40
0.662511870905342
40
0.662511870905342
40
0.74532585476851
40
0.74532585476851
40
0.828139838631677
40
0.828139838631677
40
0.993767806358014
40
0.993767806358014
40
1
40
1
40
1
40
1
41
1
10
26.01
20
-4.8629301562687
30
0
41
1
10
26.01
20
-4.75727071449273
30
0
41
1
10
26.01
20
-4.64558039014335
30
0
41
1
10
26.01
20
-4.41669311039828
30
0
41
1
10
26.01
20
-4.29939171315178
30
0
41
1
10
26.01
20
-4.05923359458009
30
0
41
1
10
26.01
20
-3.93546798861851
30
0
41
1
10
26.01
20
-3.69182476823269
30
0
41
1
10
26.01
20
-3.57089867430977
30
0
41
1
10
26.01
20
-3.39086848465703
30
0
41
1
10
26.01
20
-3.33078039545924
30
0
41
1
10
26.01
20
-3.21308753465456
30
0
41
1
10
26.01
20
-3.15540045529843
30
0
41
1
10
26.01
20
-2.98569951847347
30
0
41
1
10
26.01
20
-2.87703612336478
30
0
41
1
10
26.01
20
-2.76905368283519
30
0
41
1
10
26.01
20
-2.76514477146679
30
0
41
1
10
26.01
20
-2.76124315627069
30
0
0
SPLINE
5
314
100
AcDbEntity
8
1
62
256
6
ByLayer
370
13
48
1
60
0
100
AcDbSpline
70
4
71
3
72
10
73
6
40
0
40
0
40
0
40
0
40
0.252223861567379
40
0.252223861567379
40
1
40
1
40
1
40
1
41
1
10
88.2969369858367
20
4.83267704882218
30
0
41
1
10
88.3046256387372
20
4.83193001651998
30
0
41
1
10
88.3124450218776
20
4.83115159255672
30
0
41
1
10
88.3439367133831
20
4.82793859298732
30
0
41
1
10
88.3681929864545
20
4.82529699381499
30
0
41
1
10
88.3931418100485
20
4.82240533662994
30
0
0
SPLINE
5
315
100
AcDbEntity
8
1
62
256
6
ByLayer
370
13
48
1
60
0
100
AcDbSpline
70
4
71
3
72
24
73
20
40
0
40
0
40
0
40
0
40
0.0908446848080095
40
0.0908446848080095
40
0.181760216327209
40
0.181760216327209
40
0.272675747846409
40
0.272675747846409
40
0.363591279365609
40
0.363591279365609
40
0.454506810884809
40
0.454506810884809
40
0.636337873923207
40
0.636337873923207
40
0.727253405442405
40
0.727253405442405
40
0.818168936961603
40
0.818168936961603
40
1
40
1
40
1
40
1
41
1
10
73.5100615808479
20
-6.69955926904694
30
0
41
1
10
72.9575582984292
20
-6.84011548064538
30
0
41
1
10
72.4054073332132
20
-6.97126871647279
30
0
41
1
10
71.3001264003138
20
-7.21332186857418
30
0
41
1
10
70.7469173089459
20
-7.32410914354378
30
0
41
1
10
69.6366486617476
20
-7.52280932862152
30
0
41
1
10
69.0793628653448
20
-7.61042294240002
30
0
41
1
10
67.9562157093312
20
-7.76147025402867
30
0
41
1
10
67.3906233548955
20
-7.82529865817529
30
0
41
1
10
66.2510061233294
20
-7.93361771181253
30
0
41
1
10
65.6770742578032
20
-7.97822121704868
30
0
41
1
10
63.9446296114121
20
-8.09001202531886
30
0
41
1
10
62.7753979664419
20
-8.13522155705402
30
0
41
1
10
61.001949507528
20
-8.1767611709279
30
0
41
1
10
60.4072771068647
20
-8.18615271421925
30
0
41
1
10
59.2159387472307
20
-8.19836283328891
30
0
41
1
10
58.6186492957396
20
-8.20120696583635
30
0
41
1
10
56.8209112539737
20
-8.20399887342484
30
0
41
1
10
55.614265354132
20
-8.19874113795223
30
0
41
1
10
54.4
20
-8.19449401181168
30
0
0
SPLINE
5
316
100
AcDbEntity
8
1
62
256
6
ByLayer
370
13
48
1
60
0
100
AcDbSpline
70
4
71
3
72
26
73
22
40
0
40
0
40
0
40
0
40
0.0128575358513383
40
0.0128575358513383
40
0.0622146590587718
40
0.0622146590587718
40
0.111571782266205
40
0.111571782266205
40
0.210286028681071
40
0.210286028681071
40
0.259643151888504
40
0.259643151888504
40
0.309000275095937
40
0.309000275095937
40
0.407714521510803
40
0.407714521510803
40
0.506428767925669
40
0.506428767925669
40
0.605143014340536
40
0.605143014340536
40
1
40
1
40
1
40
1
41
1
10
64.4692005064523
20
-4.43253605521494
30
0
41
1
10
64.3087747574235
20
-4.44523330188031
30
0
41
1
10
64.1482731964814
20
-4.45754212876622
30
0
41
1
10
63.3712838405238
20
-4.51536795002039
30
0
41
1
10
62.7537635605438
20
-4.55578814191801
30
0
41
1
10
61.5166184355356
20
-4.62810993419964
30
0
41
1
10
60.8970125216623
20
-4.66012489106052
30
0
41
1
10
59.0346535858819
20
-4.74450442612209
30
0
41
1
10
57.7882956262392
20
-4.78480614707257
30
0
41
1
10
55.90981282978
20
-4.82540584019554
30
0
41
1
10
55.2834686713555
20
-4.83575562551917
30
0
41
1
10
54.0306125787544
20
-4.85117137543634
30
0
41
1
10
53.4040738515897
20
-4.85618818200956
30
0
41
1
10
51.5242090897202
20
-4.86589567448169
30
0
41
1
10
50.2706397165304
20
-4.86569334033504
30
0
41
1
10
47.7632868357715
20
-4.86390054446542
30
0
41
1
10
46.5095076150279
20
-4.86183617122279
30
0
41
1
10
44.0020278319772
20
-4.85996406874958
30
0
41
1
10
42.7483009298694
20
-4.85976584011115
30
0
41
1
10
36.4797059801624
20
-4.86064050026297
30
0
41
1
10
31.4648611706935
20
-4.86763634584887
30
0
41
1
10
26.45
20
-4.8629301562687
30
0
0
SPLINE
5
317
100
AcDbEntity
8
1
62
256
6
ByLayer
370
13
48
1
60
0
100
AcDbSpline
70
4
71
3
72
44
73
40
40
0
40
0
40
0
40
0
40
0.0130954909239031
40
0.0130954909239031
40
0.0510533566575993
40
0.0510533566575993
40
0.0890112223912955
40
0.0890112223912955
40
0.126969088124992
40
0.126969088124992
40
0.164926953858688
40
0.164926953858688
40
0.202884819592384
40
0.202884819592384
40
0.24084268532608
40
0.24084268532608
40
0.316758416793472
40
0.316758416793472
40
0.354716282527168
40
0.354716282527168
40
0.392674148260864
40
0.392674148260864
40
0.43063201399456
40
0.43063201399456
40
0.468589879728256
40
0.468589879728256
40
0.506547745461952
40
0.506547745461952
40
0.544505611195648
40
0.544505611195648
40
0.582463476929344
40
0.582463476929344
40
0.62042134266304
40
0.62042134266304
40
0.696337074130432
40
0.696337074130432
40
0.848168537065216
40
0.848168537065216
40
1
40
1
40
1
40
1
41
1
10
72.915295527109
20
-6.5636284718253
30
0
41
1
10
72.7251927305614
20
-6.60554833822584
30
0
41
1
10
72.5350005637271
20
-6.64641532127271
30
0
41
1
10
71.7930619609164
20
-6.80161413597298
30
0
41
1
10
71.2404715426467
20
-6.907708199848
30
0
41
1
10
70.1310175987713
20
-7.10109070789392
30
0
41
1
10
69.5744444844387
20
-7.1883447714109
30
0
41
1
10
68.4562341797774
20
-7.33996713092526
30
0
41
1
10
67.8941063421683
20
-7.40484654686279
30
0
41
1
10
66.7634744012188
20
-7.51340436151796
30
0
41
1
10
66.1949096576666
20
-7.55671822171803
30
0
41
1
10
65.0519498867335
20
-7.62887511381507
30
0
41
1
10
64.4776172981327
20
-7.65802801283473
30
0
41
1
10
63.3235312356722
20
-7.70560585736953
30
0
41
1
10
62.7432450546836
20
-7.7239665070272
30
0
41
1
10
60.9992171488849
20
-7.76631031844005
30
0
41
1
10
59.8323838325007
20
-7.77884516173668
30
0
41
1
10
58.073411465961
20
-7.78252328773766
30
0
41
1
10
57.4855958436711
20
-7.78084423848534
30
0
41
1
10
56.3066418010222
20
-7.77502265660607
30
0
41
1
10
55.7155183471318
20
-7.77171322399172
30
0
41
1
10
54.5300768550748
20
-7.76829298568336
30
0
41
1
10
53.9357802967628
20
-7.76728075321285
30
0
41
1
10
52.7444332868486
20
-7.76320721182279
30
0
41
1
10
52.1471777445346
20
-7.76057052537911
30
0
41
1
10
50.9520219168835
20
-7.75650244331902
30
0
41
1
10
50.3544302192152
20
-7.75506779974717
30
0
41
1
10
49.1592302123742
20
-7.75584052342626
30
0
41
1
10
48.5616219010941
20
-7.75803377562428
30
0
41
1
10
47.3663981058246
20
-7.76216716946004
30
0
41
1
10
46.7687826684243
20
-7.76407444765309
30
0
41
1
10
45.5735535345192
20
-7.76408355020934
30
0
41
1
10
44.9759394313819
20
-7.76244765158356
30
0
41
1
10
43.1830987152748
20
-7.75577054231078
30
0
41
1
10
41.9878738003066
20
-7.74961075880645
30
0
41
1
10
38.4022060014941
20
-7.74449243712465
30
0
41
1
10
36.0117688555523
20
-7.75264695416249
30
0
41
1
10
31.2308873739547
20
-7.75709569955913
30
0
41
1
10
28.8404436087965
20
-7.75434628804859
30
0
41
1
10
26.45
20
-7.75393677119808
30
0
0
SPLINE
5
318
100
AcDbEntity
8
1
62
256
6
ByLayer
370
13
48
1
60
0
100
AcDbSpline
70
4
71
3
72
10
73
6
40
0
40
0
40
0
40
0
40
0.721280976046481
40
0.721280976046481
40
1
40
1
40
1
40
1
41
1
10
88.456283441959
20
5.43859641048527
30
0
41
1
10
88.4083017588195
20
5.36781464227664
30
0
41
1
10
88.37101206895
20
5.2939485120915
30
0
41
1
10
88.3323735372061
20
5.19017388642408
30
0
41
1
10
88.3229790951179
20
5.16097913105713
30
0
41
1
10
88.3150893231139
20
5.13204911099618
30
0
0
SPLINE
5
319
100
AcDbEntity
8
1
62
256
6
ByLayer
370
13
48
1
60
0
100
AcDbSpline
70
4
71
3
72
10
73
6
40
0
40
0
40
0
40
0
40
0.670735811154077
40
0.670735811154077
40
1
40
1
40
1
40
1
41
1
10
89.6852648808871
20
8.1164767076464
30
0
41
1
10
89.6307073043639
20
8.10660455575976
30
0
41
1
10
89.5720620441848
20
8.09762720018321
30
0
41
1
10
89.4787216797059
20
8.0859424082924
30
0
41
1
10
89.4468254985485
20
8.08235785653235
30
0
41
1
10
89.4141582543094
20
8.07910614964464
30
0
0
SPLINE
5
31A
100
AcDbEntity
8
1
62
256
6
ByLayer
370
13
48
1
60
0
100
AcDbSpline
70
4
71
3
72
8
73
4
40
0
40
0
40
0
40
0
40
1
40
1
40
1
40
1
41
1
10
90.2497713408304
20
2.66384130095858
30
0
41
1
10
90.2457247002998
20
2.65784935746475
30
0
41
1
10
90.2423334685606
20
2.65264084381599
30
0
41
1
10
90.2397514461472
20
2.64832443359239
30
0
0
SPLINE
5
31B
100
AcDbEntity
8
1
62
256
6
ByLayer
370
13
48
1
60
0
100
AcDbSpline
70
4
71
3
72
12
73
8
40
0
40
0
40
0
40
0
40
0.186307396167427
40
0.186307396167427
40
0.593153698083713
40
0.593153698083713
40
1
40
1
40
1
40
1
41
1
10
90.2360681227572
20
2.6336637396962
30
0
41
1
10
90.2375948634514
20
2.63367351925302
30
0
41
1
10
90.2399915207289
20
2.63458004521166
30
0
41
1
10
90.2502806938515
20
2.64028099936496
30
0
41
1
10
90.2612533405245
20
2.64830553084045
30
0
41
1
10
90.2888516998083
20
2.67172516642822
30
0
41
1
10
90.305051634728
20
2.68675755109461
30
0
41
1
10
90.3227849928201
20
2.7049935805575
30
0
0
SPLINE
5
31C
100
AcDbEntity
8
1
62
256
6
ByLayer
370
13
48
1
60
0
100
AcDbSpline
70
4
71
3
72
18
73
14
40
0
40
0
40
0
40
0
40
0.2263592558472
40
0.2263592558472
40
0.452718511694399
40
0.452718511694399
40
0.565898139617999
40
0.565898139617999
40
0.679077767541599
40
0.679077767541599
40
0.905437023388798
40
0.905437023388798
40
1
40
1
40
1
40
1
41
1
10
84.7842851454644
20
7.59350288246222
30
0
41
1
10
83.6272329640537
20
7.70228235751773
30
0
41
1
10
82.4730948643713
20
7.76520810931385
30
0
41
1
10
80.1647539869936
20
7.7978004340543
30
0
41
1
10
79.0105781674225
20
7.7673611606464
30
0
41
1
10
77.2742291346833
20
7.64821237466262
30
0
41
1
10
76.6957520899589
20
7.59639910887586
30
0
41
1
10
75.5404442809082
20
7.46972130569159
30
0
41
1
10
74.963314462422
20
7.39475420281363
30
0
41
1
10
73.232338476962
20
7.13750792225224
30
0
41
1
10
72.0790801142219
20
6.92482392450609
30
0
41
1
10
70.4376289519895
20
6.57390829979096
30
0
41
1
10
69.9528816412056
20
6.4645175495771
30
0
41
1
10
69.4674393244701
20
6.34970499324066
30
0
0
SPLINE
5
31D
100
AcDbEntity
8
1
62
256
6
ByLayer
370
13
48
1
60
0
100
AcDbSpline
70
4
71
3
72
18
73
14
40
0
40
0
40
0
40
0
40
0.481284886857922
40
0.481284886857922
40
0.601606108572401
40
0.601606108572401
40
0.721927330286881
40
0.721927330286881
40
0.84224855200136
40
0.84224855200136
40
0.962569773715839
40
0.962569773715839
40
1
40
1
40
1
40
1
41
1
10
84.2540706154506
20
8.0872724261003
30
0
41
1
10
81.8164509530761
20
8.27072129417294
30
0
41
1
10
79.3947044331144
20
8.23519787471875
30
0
41
1
10
76.3511478137779
20
7.9169700478285
30
0
41
1
10
75.7427496266793
20
7.8397562941326
30
0
41
1
10
74.5280038924814
20
7.65934667363018
30
0
41
1
10
73.9212874376328
20
7.55605581604325
30
0
41
1
10
72.7072284457284
20
7.32521580724776
30
0
41
1
10
72.0998740151973
20
7.19768464637767
30
0
41
1
10
70.8827933332653
20
6.92085955733921
30
0
41
1
10
70.2731208375155
20
6.77144892645742
30
0
41
1
10
69.4701619613022
20
6.56473881580496
30
0
41
1
10
69.2794275421099
20
6.5149099987251
30
0
41
1
10
69.0884949512584
20
6.46441936748033
30
0
0
SPLINE
5
31E
100
AcDbEntity
8
1
62
256
6
ByLayer
370
13
48
1
60
0
100
AcDbSpline
70
4
71
3
72
10
73
6
40
0
40
0
40
0
40
0
40
0.438832899615095
40
0.438832899615095
40
1
40
1
40
1
40
1
41
1
10
77.6090801104127
20
3.49333933795219
30
0
41
1
10
78.4931853452764
20
3.15671382874444
30
0
41
1
10
79.3767330033079
20
2.80771726366311
30
0
41
1
10
81.3920304102174
20
1.99141057460451
30
0
41
1
10
82.5243098785137
20
1.51829159061188
30
0
41
1
10
83.6604218192433
20
1.03580645687626
30
0
0
SPLINE
5
31F
100
AcDbEntity
8
1
62
256
6
ByLayer
370
13
48
1
60
0
100
AcDbSpline
70
4
71
3
72
12
73
8
40
0
40
0
40
0
40
0
40
0.0198475630346623
40
0.0198475630346623
40
0.509923781517331
40
0.509923781517331
40
1
40
1
40
1
40
1
41
1
10
77.4501289308422
20
3.58998609407274
30
0
41
1
10
77.4987465950548
20
3.59290341987
30
0
41
1
10
77.5473625210831
20
3.59578220458283
30
0
41
1
10
78.7963562317948
20
3.66875234527799
30
0
41
1
10
79.9963455189572
20
3.71526594695675
30
0
41
1
10
82.3980300832262
20
3.75972923229671
30
0
41
1
10
83.599051628869
20
3.75768329335918
30
0
41
1
10
84.8005243254932
20
3.73142077652889
30
0
0
SPLINE
5
320
100
AcDbEntity
8
1
62
256
6
ByLayer
370
13
48
1
60
0
100
AcDbSpline
70
4
71
3
72
22
73
18
40
0
40
0
40
0
40
0
40
0.223995544376928
40
0.223995544376928
40
0.335993316565391
40
0.335993316565391
40
0.447991088753855
40
0.447991088753855
40
0.671986633130782
40
0.671986633130782
40
0.783984405319246
40
0.783984405319246
40
0.89598217750771
40
0.89598217750771
40
0.951981063601945
40
0.951981063601945
40
1
40
1
40
1
40
1
41
1
10
84.5960249522878
20
2.9781615226469
30
0
41
1
10
84.2504094523137
20
3.06349241686613
30
0
41
1
10
83.8968815350351
20
3.11918614498253
30
0
41
1
10
83.3555154132201
20
3.16822680547222
30
0
41
1
10
83.1731600952883
20
3.17865804180781
30
0
41
1
10
82.8042314611935
20
3.18790736416074
30
0
41
1
10
82.6167896054276
20
3.1866600647474
30
0
41
1
10
82.0567302719028
20
3.16536468437826
30
0
41
1
10
81.684789221192
20
3.1283411745093
30
0
41
1
10
81.1286039648336
20
3.03686129286402
30
0
41
1
10
80.9429823856414
20
3.00009593519286
30
0
41
1
10
80.582927214272
20
2.91552895253938
30
0
41
1
10
80.407260654287
20
2.86760719827657
30
0
41
1
10
80.1516159176066
20
2.78609161201791
30
0
41
1
10
80.0673144299639
20
2.75714009888034
30
0
41
1
10
79.9159817775151
20
2.70083632078132
30
0
41
1
10
79.8481371004514
20
2.67384419256595
30
0
41
1
10
79.7824843343111
20
2.64574771590327
30
0
0
SPLINE
5
321
100
AcDbEntity
8
1
62
256
6
ByLayer
370
13
48
1
60
0
100
AcDbSpline
70
4
71
3
72
30
73
26
40
0
40
0
40
0
40
0
40
0.0351226242541292
40
0.176062545833267
40
0.336718264858287
40
0.517120346851915
40
0.534039429788799
40
0.55189329330909
40
0.570684634672271
40
0.590415985785164
40
0.611089688132497
40
0.632707862742427
40
0.655272375742811
40
0.678784799950099
40
0.703246372869857
40
0.72865795146165
40
0.755019964021881
40
0.782332359560073
40
0.810594555082643
40
0.839805381250764
40
0.869963026942918
40
0.901064983326974
40
0.933107988129347
40
0.966087970878964
40
1
40
1
40
1
40
1
41
1
10
25.0515575358982
20
-2.9469036581153
30
0
41
1
10
25.0587609700017
20
-2.96875268993858
30
0
41
1
10
25.0957344400522
20
-3.07901160444212
30
0
41
1
10
25.1744863233771
20
-3.2965001382515
30
0
41
1
10
25.307751910262
20
-3.61802831365242
30
0
41
1
10
25.4217330751435
20
-3.85937864404633
30
0
41
1
10
25.4934408536641
20
-4.00261384164466
30
0
41
1
10
25.5113935459084
20
-4.03821866711195
30
0
41
1
10
25.530435436808
20
-4.07559706779855
30
0
41
1
10
25.5505980694265
20
-4.11471997633976
30
0
41
1
10
25.5719166775183
20
-4.15554803390455
30
0
41
1
10
25.5944223119996
20
-4.19803766567358
30
0
41
1
10
25.6181433162082
20
-4.2421387115532
30
0
41
1
10
25.6431040577739
20
-4.28779448626554
30
0
41
1
10
25.669324400699
20
-4.33494114068543
30
0
41
1
10
25.6968189196015
20
-4.38350723239125
30
0
41
1
10
25.7255961431692
20
-4.43341323325967
30
0
41
1
10
25.7556577535908
20
-4.48457112911635
30
0
41
1
10
25.7869977471725
20
-4.53688379417571
30
0
41
1
10
25.8196016400555
20
-4.59024533740049
30
0
41
1
10
25.853445389726
20
-4.64453777425481
30
0
41
1
10
25.8884953576643
20
-4.69964224559089
30
0
41
1
10
25.9247041629023
20
-4.75539356797324
30
0
41
1
10
25.9620225731332
20
-4.81175617669635
30
0
41
1
10
25.9872238097483
20
-4.84882935943114
30
0
41
1
10
26
20
-4.86762423220225
30
0
0
SPLINE
5
322
100
AcDbEntity
8
1
62
256
6
ByLayer
370
13
48
1
60
0
100
AcDbSpline
70
4
71
3
72
16
73
12
40
0
40
0
40
0
40
0
40
0.197758303773101
40
0.197758303773101
40
0.298038515801464
40
0.298038515801464
40
0.398318727829827
40
0.398318727829827
40
0.598879151886551
40
0.598879151886551
40
1
40
1
40
1
40
1
41
1
10
15.4238158588736
20
-6.40492131606024
30
0
41
1
10
15.2511425917479
20
-6.64340377801164
30
0
41
1
10
15.0906839456514
20
-6.88910318152421
30
0
41
1
10
14.8678649496148
20
-7.27050063623975
30
0
41
1
10
14.796048024943
20
-7.40105183509928
30
0
41
1
10
14.6606428664915
20
-7.66352623723148
30
0
41
1
10
14.596906408096
20
-7.79572178458656
30
0
41
1
10
14.4171077285994
20
-8.19506658878345
30
0
41
1
10
14.3124183304641
20
-8.46495688469486
30
0
41
1
10
14.041191474816
20
-9.28476807701557
30
0
41
1
10
13.9168455634652
20
-9.84469595974821
30
0
41
1
10
13.8488185412214
20
-10.4172534199913
30
0
0
SPLINE
5
323
100
AcDbEntity
8
1
62
256
6
ByLayer
370
13
48
1
60
0
100
AcDbSpline
70
4
71
3
72
8
73
4
40
0
40
0
40
0
40
0
40
1
40
1
40
1
40
1
41
1
10
95.5613970006363
20
3.13052617949737
30
0
41
1
10
95.5470096507516
20
3.11844754156471
30
0
41
1
10
95.5331809091221
20
3.10637010735675
30
0
41
1
10
95.5199460681569
20
3.09433001190686
30
0
0
SPLINE
5
324
100
AcDbEntity
8
1
62
256
6
ByLayer
370
13
48
1
60
0
100
AcDbSpline
70
4
71
3
72
12
73
8
40
0
40
0
40
0
40
0
40
0.377297950844379
40
0.377297950844379
40
0.75459590168876
40
0.75459590168876
40
1
40
1
40
1
40
1
41
1
10
13.8493237770154
20
-9.33182718803477
30
0
41
1
10
13.8833764432411
20
-9.05839614706983
30
0
41
1
10
13.9318560301227
20
-8.78619803457482
30
0
41
1
10
14.0577318616514
20
-8.24405435900687
30
0
41
1
10
14.1353474050262
20
-7.97383122205341
30
0
41
1
10
14.2861215976159
20
-7.53555838934739
30
0
41
1
10
14.3514398204407
20
-7.36440352134818
30
0
41
1
10
14.422746470407
20
-7.19486118503491
30
0
0
SPLINE
5
325
100
AcDbEntity
8
1
62
256
6
ByLayer
370
18
48
1
60
0
100
AcDbSpline
70
4
71
3
72
10
73
6
40
0
40
0
40
0
40
0
40
0.380353424985432
40
0.380353424985432
40
1
40
1
40
1
40
1
41
1
10
96.1316526511916
20
-4.92050779628752
30
0
41
1
10
96.1758015445674
20
-4.90792024336909
30
0
41
1
10
96.2199504457486
20
-4.89533126978074
30
0
41
1
10
96.336023805386
20
-4.86223178495331
30
0
41
1
10
96.4079482702558
20
-4.84172135252535
30
0
41
1
10
96.4798727218889
20
-4.82121433051879
30
0
0
SPLINE
5
326
100
AcDbEntity
8
1
62
256
6
ByLayer
370
13
48
1
60
0
100
AcDbSpline
70
4
71
3
72
10
73
6
40
0
40
0
40
0
40
0
40
0.346008194405401
40
0.346008194405401
40
1
40
1
40
1
40
1
41
1
10
95.1552535718026
20
3.39393929266342
30
0
41
1
10
95.1474979150195
20
3.38363445516532
30
0
41
1
10
95.1397578382025
20
3.37367180980445
30
0
41
1
10
95.1173852331804
20
3.34593364447417
30
0
41
1
10
95.1029757130276
20
3.32937863219237
30
0
41
1
10
95.0885922974856
20
3.31446400445591
30
0
0
SPLINE
5
327
100
AcDbEntity
8
1
62
256
6
ByLayer
370
18
48
1
60
0
100
AcDbSpline
70
4
71
3
72
25
73
21
40
0
40
0
40
0
40
0
40
0.0160849835356671
40
0.0457620980335808
40
0.0754392125314945
40
0.134793441527322
40
0.253501899518976
40
0.372210357510631
40
0.476080258253329
40
0.490918815502286
40
0.520595930000199
40
0.550273044498113
40
0.60962727349394
40
0.728335731485595
40
0.84704418947725
40
0.906398418473077
40
0.936075532970991
40
0.965752647468904
40
0.995429761966818
40
1
40
1
40
1
40
1
41
1
10
96.0701714591701
20
-4.3308697550884
30
0
41
1
10
96.0992788482396
20
-4.3201680422828
30
0
41
1
10
96.1802181790379
20
-4.28107787874129
30
0
41
1
10
96.2790247114325
20
-4.15982664865726
30
0
41
1
10
96.3560395453792
20
-3.94834512014967
30
0
41
1
10
96.3755204392397
20
-3.62003327584358
30
0
41
1
10
96.4445882548821
20
-3.17546956803906
30
0
41
1
10
96.5142968821288
20
-2.65681635796474
30
0
41
1
10
96.5600411236022
20
-2.29708711279272
30
0
41
1
10
96.5927335423415
20
-2.06208357126738
30
0
41
1
10
96.5859387645667
20
-1.92852595301488
30
0
41
1
10
96.542401658716
20
-1.74448405446944
30
0
41
1
10
96.5017923352943
20
-1.4346361282127
30
0
41
1
10
96.4249159465198
20
-0.985988455472693
30
0
41
1
10
96.357985653121
20
-0.535364641218081
30
0
41
1
10
96.3018272787036
20
-0.228172195626655
30
0
41
1
10
96.2815406754418
20
-0.029778509011237
30
0
41
1
10
96.2250945136132
20
0.138898246486889
30
0
41
1
10
96.1217846555776
20
0.222164677747287
30
0
41
1
10
96.0629744280383
20
0.253784610986202
30
0
41
1
10
96.0550814695721
20
0.257788580737213
30
0
0
SPLINE
5
328
100
AcDbEntity
8
1
62
256
6
ByLayer
370
18
48
1
60
0
100
AcDbSpline
70
4
71
3
72
23
73
19
40
0
40
0
40
0
40
0
40
0.0103111693527784
40
0.0421360070576376
40
0.105785682467356
40
0.233085033286793
40
0.36038438410623
40
0.471771316073238
40
0.487683734925667
40
0.519508572630526
40
0.551333410335386
40
0.614983085745104
40
0.742282436564541
40
0.869581787383978
40
0.933231462793697
40
0.965056300498556
40
0.996881138203415
40
1
40
1
40
1
40
1
41
1
10
96.1252421333602
20
-4.10387142752921
30
0
41
1
10
96.132821813894
20
-4.09342054874273
30
0
41
1
10
96.1615021575232
20
-4.04776805595154
30
0
41
1
10
96.2126422670978
20
-3.90733811555373
30
0
41
1
10
96.2312861546306
20
-3.5931323534989
30
0
41
1
10
96.301172626707
20
-3.1432992602893
30
0
41
1
10
96.3706173094869
20
-2.62660987665052
30
0
41
1
10
96.4164033676609
20
-2.26655178811714
30
0
41
1
10
96.4473393927036
20
-2.04417376513479
30
0
41
1
10
96.4418975955274
20
-1.93721022725938
30
0
41
1
10
96.3996788611773
20
-1.75874140458154
30
0
41
1
10
96.3584856870513
20
-1.44443871486746
30
0
41
1
10
96.2818167314784
20
-0.997001614380423
30
0
41
1
10
96.2150034871556
20
-0.547165860336492
30
0
41
1
10
96.1582574936307
20
-0.23675907400596
30
0
41
1
10
96.1390137293947
20
-0.0485638753393118
30
0
41
1
10
96.1124191249319
20
0.0309081640203601
30
0
41
1
10
96.0876458176475
20
0.0645738247497718
30
0
41
1
10
96.0853511532708
20
0.0675172226431187
30
0
0
SPLINE
5
329
100
AcDbEntity
8
1
62
256
6
ByLayer
370
13
48
1
60
0
100
AcDbSpline
70
4
71
3
72
8
73
4
40
0
40
0
40
0
40
0
40
1
40
1
40
1
40
1
41
1
10
84.6763119560463
20
3.23310355603383
30
0
41
1
10
82.5843515780586
20
3.28876333926777
30
0
41
1
10
80.4961391069704
20
3.27977506695055
30
0
41
1
10
78.4067595682575
20
3.20742246249645
30
0
0
SPLINE
5
32A
100
AcDbEntity
8
1
62
256
6
ByLayer
370
13
48
1
60
0
100
AcDbSpline
70
4
71
1
72
4
73
2
40
0
40
0
40
1
40
1
41
1
10
95.9810022520155
20
3.13765123969299
30
0
41
1
10
95.9356567354488
20
3.06949334489494
30
0
0
SPLINE
5
32B
100
AcDbEntity
8
1
62
256
6
ByLayer
370
13
48
1
60
0
100
AcDbSpline
70
4
71
1
72
4
73
2
40
0
40
0
40
1
40
1
41
1
10
96.0363582082218
20
3.03543521254446
30
0
41
1
10
96.1045813241878
20
3.1423306575779
30
0
0
SPLINE
5
32C
100
AcDbEntity
8
1
62
256
6
ByLayer
370
13
48
1
60
0
100
AcDbSpline
70
4
71
3
72
10
73
6
40
0
40
0
40
0
40
0
40
0.182480743016479
40
0.182480743016479
40
1
40
1
40
1
40
1
41
1
10
88.7233573242026
20
8.13226171404557
30
0
41
1
10
88.7382039657805
20
8.13427367025702
30
0
41
1
10
88.7531558313413
20
8.13586413701597
30
0
41
1
10
88.834909635425
20
8.14541800630309
30
0
41
1
10
88.9018613824616
20
8.15209825080385
30
0
41
1
10
88.9688680127621
20
8.15824575984226
30
0
0
SPLINE
5
32D
100
AcDbEntity
8
1
62
256
6
ByLayer
370
13
48
1
60
0
100
AcDbSpline
70
4
71
3
72
10
73
6
40
0
40
0
40
0
40
0
40
0.470411496952077
40
0.470411496952077
40
1
40
1
40
1
40
1
41
1
10
95.4066235662186
20
7.9918734205007
30
0
41
1
10
95.4066523003777
20
7.99161391999047
30
0
41
1
10
95.4196033757999
20
7.99101527450588
30
0
41
1
10
95.4679714074924
20
7.98938459583317
30
0
41
1
10
95.5059402817192
20
7.98832514671045
30
0
41
1
10
95.5452159907613
20
7.9874099490211
30
0
0
SPLINE
5
32E
100
AcDbEntity
8
1
62
256
6
ByLayer
370
13
48
1
60
0
100
AcDbSpline
70
4
71
3
72
18
73
14
40
0
40
0
40
0
40
0
40
0.0553337967167102
40
0.0553337967167102
40
0.110667593433421
40
0.110667593433421
40
0.221335186866842
40
0.221335186866842
40
0.44267037373367
40
0.44267037373367
40
0.885340747467326
40
0.885340747467326
40
1
40
1
40
1
40
1
41
1
10
88.8364267680268
20
2.97398425037545
30
0
41
1
10
88.8379090437796
20
2.96543859075959
30
0
41
1
10
88.8397696375984
20
2.95606472019199
30
0
41
1
10
88.8440680361242
20
2.93713763108906
30
0
41
1
10
88.8464164230333
20
2.92805092748384
30
0
41
1
10
88.8530969686743
20
2.90470528932721
30
0
41
1
10
88.8572350572776
20
2.89301804683151
30
0
41
1
10
88.8683844701392
20
2.86424974131563
30
0
41
1
10
88.874624502133
20
2.85209148650338
30
0
41
1
10
88.892142575569
20
2.82141782913885
30
0
41
1
10
88.9018969068595
20
2.81068149374309
30
0
41
1
10
88.9133440887424
20
2.80098763192109
30
0
41
1
10
88.9156504704484
20
2.79922059028144
30
0
41
1
10
88.9179121133004
20
2.79766181291077
30
0
0
SPLINE
5
32F
100
AcDbEntity
8
1
62
256
6
ByLayer
370
18
48
1
60
0
100
AcDbSpline
70
4
71
1
72
4
73
2
40
0
40
0
40
1
40
1
41
1
10
96.3084327320127
20
0.477723324627362
30
0
41
1
10
96.0539428231742
20
0.511044017047624
30
0
0
SPLINE
5
330
100
AcDbEntity
8
1
62
256
6
ByLayer
370
13
48
1
60
0
100
AcDbSpline
70
4
71
1
72
4
73
2
40
0
40
0
40
1
40
1
41
1
10
96.4950374578217
20
3.13257185030622
30
0
41
1
10
96.5677826053991
20
3.19633754494538
30
0
0
SPLINE
5
331
100
AcDbEntity
8
1
62
256
6
ByLayer
370
13
48
1
60
0
100
AcDbSpline
70
4
71
2
72
6
73
3
40
0
40
0
40
0
40
1
40
1
40
1
41
1
10
77.6012356090358
20
3.4963257895254
30
0
41
1
10
77.523358577023
20
3.52573450385128
30
0
41
1
10
77.4455934356274
20
3.55741086145625
30
0
0
SPLINE
5
332
100
AcDbEntity
8
1
62
256
6
ByLayer
370
13
48
1
60
0
100
AcDbSpline
70
4
71
3
72
14
73
10
40
0
40
0
40
0
40
0
40
0.186308955791185
40
0.37354891912967
40
0.560555328369763
40
0.670214181523778
40
0.779831460866858
40
0.890361606665998
40
1
40
1
40
1
40
1
41
1
10
13.1851
20
-12.5
30
0
41
1
10
14.0254409867605
20
-12.3816034942468
30
0
41
1
10
15.686039830527
20
-12.0544942187722
30
0
41
1
10
18.1128494448713
20
-11.2799173605374
30
0
41
1
10
20.1309314952421
20
-10.4015043529778
30
0
41
1
10
21.7200828767657
20
-9.47051267379686
30
0
41
1
10
23.0492187748869
20
-8.77485529756805
30
0
41
1
10
24.5064498004682
20
-8.38007835185729
30
0
41
1
10
25.4968302333379
20
-8.28823705334216
30
0
41
1
10
26
20
-8.28750000000002
30
0
0
SPLINE
5
333
100
AcDbEntity
8
1
62
256
6
ByLayer
370
13
48
1
60
0
100
AcDbSpline
70
4
71
3
72
15
73
11
40
0
40
0
40
0
40
0
40
0.111627867968544
40
0.224145721080572
40
0.335696020869975
40
0.447373898164725
40
0.559535801161405
40
0.706709998341252
40
0.853719077055572
40
1
40
1
40
1
40
1
41
1
10
26
20
8.28749999999997
30
0
41
1
10
25.4874184159596
20
8.28829230446988
30
0
41
1
10
24.4794904902147
20
8.38374415561159
30
0
41
1
10
22.9966888621157
20
8.79172746639199
30
0
41
1
10
21.6522255284365
20
9.51631432324498
30
0
41
1
10
20.3352680139934
20
10.2760340751865
30
0
41
1
10
18.8046106951799
20
10.979922792372
30
0
41
1
10
17.0789341407298
20
11.6303033016619
30
0
41
1
10
15.1505866518504
20
12.1649059700371
30
0
41
1
10
13.8438174344677
20
12.4073114190821
30
0
41
1
10
13.1851
20
12.5
30
0
0
SPLINE
5
334
100
AcDbEntity
8
1
62
256
6
ByLayer
370
18
48
1
60
0
100
AcDbSpline
70
4
71
3
72
8
73
4
40
0
40
0
40
0
40
0
40
1
40
1
40
1
40
1
41
1
10
92.9188022603343
20
-1.76079273418799
30
0
41
1
10
92.9334431934161
20
-1.71883046165942
30
0
41
1
10
92.9510162202847
20
-1.67767592022869
30
0
41
1
10
92.9709876691969
20
-1.63770393212386
30
0
0
SPLINE
5
335
100
AcDbEntity
8
1
62
256
6
ByLayer
370
13
48
1
60
0
100
AcDbSpline
70
4
71
1
72
4
73
2
40
0
40
0
40
1
40
1
41
1
10
88.915352568078
20
2.79529068057056
30
0
41
1
10
88.9943645401952
20
2.73947823956505
30
0
0
LINE
5
7F
100
AcDbEntity
8
1
62
256
6
ByLayer
370
13
48
1
60
0
100
AcDbLine
10
4
20
-14.773792
30
0
11
4
21
-12.706792
31
0
39
0
210
0
220
0
230
1
0
LINE
5
80
100
AcDbEntity
8
1
62
256
6
ByLayer
370
13
48
1
60
0
100
AcDbLine
10
94.106687
20
3.485059
30
0
11
94.604135
21
3.511129
31
0
39
0
210
0
220
0
230
1
0
LINE
5
81
100
AcDbEntity
8
1
62
256
6
ByLayer
370
13
48
1
60
0
100
AcDbLine
10
84.254071
20
-8.117008
30
0
11
84.254071
21
0.618923
31
0
39
0
210
0
220
0
230
1
0
LINE
5
82
100
AcDbEntity
8
1
62
256
6
ByLayer
370
13
48
1
60
0
100
AcDbLine
10
3.5
20
-14.960411
30
0
11
0.5
21
-14.960411
31
0
39
0
210
0
220
0
230
1
0
LINE
5
83
100
AcDbEntity
8
1
62
256
6
ByLayer
370
13
48
1
60
0
100
AcDbLine
10
90.674059
20
3.104888
30
0
11
90.688348
21
3.105637
31
0
39
0
210
0
220
0
230
1
0
LINE
5
84
100
AcDbEntity
8
1
62
256
6
ByLayer
370
13
48
1
60
0
100
AcDbLine
10
93.877814
20
3.412375
30
0
11
93.815984
21
3.409135
31
0
39
0
210
0
220
0
230
1
0
LINE
5
85
100
AcDbEntity
8
1
62
256
6
ByLayer
370
13
48
1
60
0
100
AcDbLine
10
86.87344
20
3.724183
30
0
11
87.774243
21
3.447421
31
0
39
0
210
0
220
0
230
1
0
LINE
5
86
100
AcDbEntity
8
1
62
256
6
ByLayer
370
13
48
1
60
0
100
AcDbLine
10
0.5
20
2.567
30
0
11
3.5
21
2.567
31
0
39
0
210
0
220
0
230
1
0
LINE
5
87
100
AcDbEntity
8
1
62
256
6
ByLayer
370
13
48
1
60
0
100
AcDbLine
10
31
20
8.2875
30
0
11
31
21
-2.760122
31
0
39
0
210
0
220
0
230
1
0
LINE
5
88
100
AcDbEntity
8
1
62
256
6
ByLayer
370
13
48
1
60
0
100
AcDbLine
10
92.303789
20
2.689612
30
0
11
92.604735
21
2.705384
31
0
39
0
210
0
220
0
230
1
0
LINE
5
89
100
AcDbEntity
8
1
62
256
6
ByLayer
370
13
48
1
60
0
100
AcDbLine
10
3.5
20
-14.960411
30
0
11
3.5
21
-13.840868
31
0
39
0
210
0
220
0
230
1
0
LINE
5
8A
100
AcDbEntity
8
1
62
256
6
ByLayer
370
13
48
1
60
0
100
AcDbLine
10
90.643153
20
3.015269
30
0
11
90.524771
21
3.009065
31
0
39
0
210
0
220
0
230
1
0
LINE
5
8B
100
AcDbEntity
8
1
62
256
6
ByLayer
370
13
48
1
60
0
100
AcDbLine
10
92.604735
20
2.705384
30
0
11
95.742874
21
2.869847
31
0
39
0
210
0
220
0
230
1
0
LINE
5
8C
100
AcDbEntity
8
1
62
256
6
ByLayer
370
13
48
1
60
0
100
AcDbLine
10
0
20
-11.954528
30
0
11
0
21
-2.567
31
0
39
0
210
0
220
0
230
1
0
LINE
5
8D
100
AcDbEntity
8
1
62
256
6
ByLayer
370
13
48
1
60
0
100
AcDbLine
10
96.114761
20
-0.211997
30
0
11
96.307797
21
-1.4241
31
0
39
0
210
0
220
0
230
1
0
LINE
5
8E
100
AcDbEntity
8
1
62
256
6
ByLayer
370
13
48
1
60
0
100
AcDbLine
10
0.5
20
-12.393411
30
0
11
3.5
21
-12.393411
31
0
39
0
210
0
220
0
230
1
0
LINE
5
8F
100
AcDbEntity
8
1
62
256
6
ByLayer
370
13
48
1
60
0
100
AcDbLine
10
88.74844
20
7.318984
30
0
11
88.518561
21
5.562485
31
0
39
0
210
0
220
0
230
1
0
LINE
5
90
100
AcDbEntity
8
1
62
256
6
ByLayer
370
13
48
1
60
0
100
AcDbLine
10
26
20
8.2875
30
0
11
26
21
-2.764708
31
0
39
0
210
0
220
0
230
1
0
LINE
5
91
100
AcDbEntity
8
1
62
256
6
ByLayer
370
13
48
1
60
0
100
AcDbLine
10
96.114761
20
-0.211997
30
0
11
95.52422
21
0.370207
31
0
39
0
210
0
220
0
230
1
0
LINE
5
92
100
AcDbEntity
8
1
62
256
6
ByLayer
370
13
48
1
60
0
100
AcDbLine
10
26.01
20
-4.86293
30
0
11
26.01
21
-7.753372
31
0
39
0
210
0
220
0
230
1
0
LINE
5
93
100
AcDbEntity
8
1
62
256
6
ByLayer
370
13
48
1
60
0
100
AcDbLine
10
85.57702
20
3.80047
30
0
11
86.754765
21
4.471389
31
0
39
0
210
0
220
0
230
1
0
LINE
5
94
100
AcDbEntity
8
1
62
256
6
ByLayer
370
13
48
1
60
0
100
AcDbLine
10
96.323304
20
3.050472
30
0
11
96.137722
21
3.040746
31
0
39
0
210
0
220
0
230
1
0
LINE
5
95
100
AcDbEntity
8
1
62
256
6
ByLayer
370
13
48
1
60
0
100
AcDbLine
10
95.535526
20
0.895361
30
0
11
96.068483
21
0.369929
31
0
39
0
210
0
220
0
230
1
0
LINE
5
96
100
AcDbEntity
8
1
62
256
6
ByLayer
370
13
48
1
60
0
100
AcDbLine
10
85.356213
20
3.757703
30
0
11
85.356213
21
6.732438
31
0
39
0
210
0
220
0
230
1
0
LINE
5
97
100
AcDbEntity
8
1
62
256
6
ByLayer
370
13
48
1
60
0
100
AcDbLine
10
91.024171
20
3.323511
30
0
11
91.521619
21
3.349581
31
0
39
0
210
0
220
0
230
1
0
LINE
5
98
100
AcDbEntity
8
1
62
256
6
ByLayer
370
13
48
1
60
0
100
AcDbLine
10
0
20
-14.521528
30
0
11
0
21
-13.840868
31
0
39
0
210
0
220
0
230
1
0
LINE
5
99
100
AcDbEntity
8
1
62
256
6
ByLayer
370
13
48
1
60
0
100
AcDbLine
10
96.404166
20
2.445305
30
0
11
96.405155
21
0.689435
31
0
39
0
210
0
220
0
230
1
0
LINE
5
9A
100
AcDbEntity
8
1
62
256
6
ByLayer
370
13
48
1
60
0
100
AcDbLine
10
90.969425
20
2.465616
30
0
11
91.287284
21
2.482274
31
0
39
0
210
0
220
0
230
1
0
LINE
5
9B
100
AcDbEntity
8
1
62
256
6
ByLayer
370
13
48
1
60
0
100
AcDbLine
10
95.866114
20
-8.252872
30
0
11
87.680318
21
-8.252872
31
0
39
0
210
0
220
0
230
1
0
LINE
5
9C
100
AcDbEntity
8
1
62
256
6
ByLayer
370
13
48
1
60
0
100
AcDbLine
10
85.169893
20
0.947046
30
0
11
85.249968
21
0.457089
31
0
39
0
210
0
220
0
230
1
0
LINE
5
9D
100
AcDbEntity
8
1
62
256
6
ByLayer
370
13
48
1
60
0
100
AcDbLine
10
54.4
20
-2.926989
30
0
11
54.4
21
8.178447
31
0
39
0
210
0
220
0
230
1
0
LINE
5
9E
100
AcDbEntity
8
1
62
256
6
ByLayer
370
13
48
1
60
0
100
AcDbLine
10
96.314487
20
0.543203
30
0
11
96.357928
21
0.494364
31
0
39
0
210
0
220
0
230
1
0
LINE
5
9F
100
AcDbEntity
8
1
62
256
6
ByLayer
370
13
48
1
60
0
100
AcDbLine
10
86.754765
20
4.471389
30
0
11
85.356213
21
6.732438
31
0
39
0
210
0
220
0
230
1
0
LINE
5
A0
100
AcDbEntity
8
1
62
256
6
ByLayer
370
13
48
1
60
0
100
AcDbLine
10
3.5
20
-2.567
30
0
11
0.5
21
-2.567
31
0
39
0
210
0
220
0
230
1
0
LINE
5
A1
100
AcDbEntity
8
1
62
256
6
ByLayer
370
13
48
1
60
0
100
AcDbLine
10
96.137722
20
3.040746
30
0
11
95.945594
21
3.030677
31
0
39
0
210
0
220
0
230
1
0
LINE
5
A2
100
AcDbEntity
8
1
62
256
6
ByLayer
370
13
48
1
60
0
100
AcDbLine
10
95.742874
20
2.869847
30
0
11
96.08533
21
2.887795
31
0
39
0
210
0
220
0
230
1
0
LINE
5
A3
100
AcDbEntity
8
1
62
256
6
ByLayer
370
13
48
1
60
0
100
AcDbLine
10
96.322743
20
-2.559529
30
0
11
95.755264
21
-2.000061
31
0
39
0
210
0
220
0
230
1
0
LINE
5
A4
100
AcDbEntity
8
1
62
256
6
ByLayer
370
13
48
1
60
0
100
AcDbLine
10
95.706236
20
-0.831032
30
0
11
96.307797
21
-1.4241
31
0
39
0
210
0
220
0
230
1
0
LINE
5
A5
100
AcDbEntity
8
1
62
256
6
ByLayer
370
13
48
1
60
0
100
AcDbLine
10
87.254071
20
-8.244279
30
0
11
87.254071
21
0.355443
31
0
39
0
210
0
220
0
230
1
0
LINE
5
A6
100
AcDbEntity
8
1
62
256
6
ByLayer
370
13
48
1
60
0
100
AcDbLine
10
0
20
-13.840868
30
0
11
3.5
21
-13.840868
31
0
39
0
210
0
220
0
230
1
0
LINE
5
A7
100
AcDbEntity
8
1
62
256
6
ByLayer
370
13
48
1
60
0
100
AcDbLine
10
96.322743
20
-2.559529
30
0
11
96.090127
21
-4.316749
31
0
39
0
210
0
220
0
230
1
0
LINE
5
A8
100
AcDbEntity
8
1
62
256
6
ByLayer
370
13
48
1
60
0
100
AcDbLine
10
3.5
20
-2.567
30
0
11
3.5
21
2.567
31
0
39
0
210
0
220
0
230
1
0
LINE
5
A9
100
AcDbEntity
8
1
62
256
6
ByLayer
370
13
48
1
60
0
100
AcDbLine
10
95.52422
20
0.370207
30
0
11
95.538519
21
0.143016
31
0
39
0
210
0
220
0
230
1
0
LINE
5
AA
100
AcDbEntity
8
1
62
256
6
ByLayer
370
13
48
1
60
0
100
AcDbLine
10
4
20
-2.067
30
0
11
4
21
2.067
31
0
39
0
210
0
220
0
230
1
0
LINE
5
AB
100
AcDbEntity
8
1
62
256
6
ByLayer
370
13
48
1
60
0
100
AcDbLine
10
88.430494
20
3.682786
30
0
11
88.289034
21
4.578503
31
0
39
0
210
0
220
0
230
1
0
LINE
5
AC
100
AcDbEntity
8
1
62
256
6
ByLayer
370
13
48
1
60
0
100
AcDbLine
10
95.866114
20
-8.252872
30
0
11
96.290098
21
-5.050031
31
0
39
0
210
0
220
0
230
1
0
LINE
5
AD
100
AcDbEntity
8
1
62
256
6
ByLayer
370
13
48
1
60
0
100
AcDbLine
10
96.339805
20
2.764266
30
0
11
96.323304
21
3.050472
31
0
39
0
210
0
220
0
230
1
0
LINE
5
AE
100
AcDbEntity
8
1
62
256
6
ByLayer
370
13
48
1
60
0
100
AcDbLine
10
95.742874
20
2.869847
30
0
11
95.535526
21
0.895361
31
0
39
0
210
0
220
0
230
1
0
LINE
5
AF
100
AcDbEntity
8
1
62
256
6
ByLayer
370
13
48
1
60
0
100
AcDbLine
10
95.074507
20
3.335506
30
0
11
92.197735
21
3.184741
31
0
39
0
210
0
220
0
230
1
0
LINE
5
B0
100
AcDbEntity
8
1
62
256
6
ByLayer
370
13
48
1
60
0
100
AcDbLine
10
0
20
-2.567
30
0
11
0
21
2.567
31
0
39
0
210
0
220
0
230
1
0
LINE
5
B1
100
AcDbEntity
8
1
62
256
6
ByLayer
370
13
48
1
60
0
100
AcDbLine
10
96.290098
20
-5.050031
30
0
11
96.075668
21
-4.87475
31
0
39
0
210
0
220
0
230
1
0
LINE
5
B2
100
AcDbEntity
8
1
62
256
6
ByLayer
370
13
48
1
60
0
100
AcDbLine
10
88.304654
20
5.019113
30
0
11
88.717869
21
8.176486
31
0
39
0
210
0
220
0
230
1
0
LINE
5
B3
100
AcDbEntity
8
1
62
256
6
ByLayer
370
13
48
1
60
0
100
AcDbLine
10
0.5
20
-12.393411
30
0
11
0.5
21
-2.567
31
0
39
0
210
0
220
0
230
1
0
LINE
5
B4
100
AcDbEntity
8
1
62
256
6
ByLayer
370
18
48
1
60
0
100
AcDbLine
10
93.400075
20
5.409458
30
0
11
93.419758
21
5.414413
31
0
39
0
210
0
220
0
230
1
0
LINE
5
B5
100
AcDbEntity
8
1
62
256
6
ByLayer
370
18
48
1
60
0
100
AcDbLine
10
92.431636
20
6.306068
30
0
11
92.417514
21
6.320711
31
0
39
0
210
0
220
0
230
1
0
LINE
5
B6
100
AcDbEntity
8
1
62
256
6
ByLayer
370
18
48
1
60
0
100
AcDbLine
10
92.496559
20
4.812441
30
0
11
92.509073
21
4.828479
31
0
39
0
210
0
220
0
230
1
0
LINE
5
B7
100
AcDbEntity
8
1
62
256
6
ByLayer
370
18
48
1
60
0
100
AcDbLine
10
92.481204
20
6.324048
30
0
11
92.417514
21
6.320711
31
0
39
0
210
0
220
0
230
1
0
LINE
5
B8
100
AcDbEntity
8
1
62
256
6
ByLayer
370
18
48
1
60
0
100
AcDbLine
10
92.494354
20
6.309355
30
0
11
92.431636
21
6.306068
31
0
39
0
210
0
220
0
230
1
0
LINE
5
B9
100
AcDbEntity
8
1
62
256
6
ByLayer
370
18
48
1
60
0
100
AcDbLine
10
93.441204
20
5.824694
30
0
11
93.378486
21
5.821407
31
0
39
0
210
0
220
0
230
1
0
LINE
5
BA
100
AcDbEntity
8
1
62
256
6
ByLayer
370
18
48
1
60
0
100
AcDbLine
10
93.300575
20
5.057194
30
0
11
93.236885
21
5.053856
31
0
39
0
210
0
220
0
230
1
0
LINE
5
BB
100
AcDbEntity
8
1
62
256
6
ByLayer
370
18
48
1
60
0
100
AcDbLine
10
93.236885
20
5.053856
30
0
11
93.229307
21
5.072765
31
0
39
0
210
0
220
0
230
1
0
LINE
5
BC
100
AcDbEntity
8
1
62
256
6
ByLayer
370
18
48
1
60
0
100
AcDbLine
10
93.398578
20
5.818536
30
0
11
93.378486
21
5.821407
31
0
39
0
210
0
220
0
230
1
0
LINE
5
BD
100
AcDbEntity
8
1
62
256
6
ByLayer
370
18
48
1
60
0
100
AcDbLine
10
93.462268
20
5.821874
30
0
11
93.398578
21
5.818536
31
0
39
0
210
0
220
0
230
1
0
LINE
5
BE
100
AcDbEntity
8
1
62
256
6
ByLayer
370
18
48
1
60
0
100
AcDbLine
10
93.483447
20
5.417751
30
0
11
93.419758
21
5.414413
31
0
39
0
210
0
220
0
230
1
0
LINE
5
BF
100
AcDbEntity
8
1
62
256
6
ByLayer
370
18
48
1
60
0
100
AcDbLine
10
92.560249
20
4.815778
30
0
11
92.496559
21
4.812441
31
0
39
0
210
0
220
0
230
1
0
LINE
5
C0
100
AcDbEntity
8
1
62
256
6
ByLayer
370
18
48
1
60
0
100
AcDbLine
10
93.173459
20
6.138405
30
0
11
93.17902
21
6.158003
31
0
39
0
210
0
220
0
230
1
0
LINE
5
C1
100
AcDbEntity
8
1
62
256
6
ByLayer
370
18
48
1
60
0
100
AcDbLine
10
92.571791
20
4.831766
30
0
11
92.509073
21
4.828479
31
0
39
0
210
0
220
0
230
1
0
LINE
5
C2
100
AcDbEntity
8
1
62
256
6
ByLayer
370
18
48
1
60
0
100
AcDbLine
10
93.242709
20
6.161341
30
0
11
93.17902
21
6.158003
31
0
39
0
210
0
220
0
230
1
0
LINE
5
C3
100
AcDbEntity
8
1
62
256
6
ByLayer
370
18
48
1
60
0
100
AcDbLine
10
93.236177
20
6.141692
30
0
11
93.173459
21
6.138405
31
0
39
0
210
0
220
0
230
1
0
LINE
5
C4
100
AcDbEntity
8
1
62
256
6
ByLayer
370
18
48
1
60
0
100
AcDbLine
10
93.292025
20
5.076052
30
0
11
93.229307
21
5.072765
31
0
39
0
210
0
220
0
230
1
0
LINE
5
C5
100
AcDbEntity
8
1
62
256
6
ByLayer
370
18
48
1
60
0
100
AcDbLine
10
93.462793
20
5.412745
30
0
11
93.400075
21
5.409458
31
0
39
0
210
0
220
0
230
1
0
LINE
5
C6
100
AcDbEntity
8
1
62
256
6
ByLayer
370
18
48
1
60
0
100
AcDbLine
10
96.385143
20
0.253198
30
0
11
96.44915
21
0.031204
31
0
39
0
210
0
220
0
230
1
0
LINE
5
C7
100
AcDbEntity
8
1
62
256
6
ByLayer
370
18
48
1
60
0
100
AcDbLine
10
96.45972
20
-0.016216
30
0
11
96.771795
21
-1.975783
31
0
39
0
210
0
220
0
230
1
0
LINE
5
C8
100
AcDbEntity
8
1
62
256
6
ByLayer
370
18
48
1
60
0
100
AcDbLine
10
96.665326
20
-0.109285
30
0
11
96.557653
21
0.264157
31
0
39
0
210
0
220
0
230
1
0
LINE
5
C9
100
AcDbEntity
8
1
62
256
6
ByLayer
370
18
48
1
60
0
100
AcDbLine
10
96.773297
20
-2.089938
30
0
11
96.492087
21
-4.214241
31
0
39
0
210
0
220
0
230
1
0
LINE
5
CA
100
AcDbEntity
8
1
62
256
6
ByLayer
370
13
48
1
60
0
100
AcDbLine
10
89.783781
20
2.826157
30
0
11
89.779169
21
2.825915
31
0
39
0
210
0
220
0
230
1
0
LINE
5
CB
100
AcDbEntity
8
1
62
256
6
ByLayer
370
13
48
1
60
0
100
AcDbLine
10
96.846738
20
5.928169
30
0
11
96.842126
21
5.927927
31
0
39
0
210
0
220
0
230
1
0
LINE
5
CC
100
AcDbEntity
8
1
62
256
6
ByLayer
370
13
48
1
60
0
100
AcDbLine
10
88.512223
20
5.217831
30
0
11
88.866458
21
2.974827
31
0
39
0
210
0
220
0
230
1
0
LINE
5
CD
100
AcDbEntity
8
1
62
256
6
ByLayer
370
13
48
1
60
0
100
AcDbLine
10
88.964802
20
2.990448
30
0
11
88.610567
21
5.233452
31
0
39
0
210
0
220
0
230
1
0
LINE
5
CE
100
AcDbEntity
8
1
62
256
6
ByLayer
370
13
48
1
60
0
100
AcDbLine
10
96.340758
20
3.51994
30
0
11
96.461559
21
3.538044
31
0
39
0
210
0
220
0
230
1
0
LINE
5
CF
100
AcDbEntity
8
1
62
256
6
ByLayer
370
13
48
1
60
0
100
AcDbLine
10
96.051037
20
3.14195
30
0
11
95.732661
21
3.094235
31
0
39
0
210
0
220
0
230
1
0
LINE
5
D0
100
AcDbEntity
8
1
62
256
6
ByLayer
370
13
48
1
60
0
100
AcDbLine
10
89.721667
20
5.190226
30
0
11
90.040849
21
3.169182
31
0
39
0
210
0
220
0
230
1
0
LINE
5
D1
100
AcDbEntity
8
1
62
256
6
ByLayer
370
13
48
1
60
0
100
AcDbLine
10
89.875192
20
3.172277
30
0
11
89.560314
21
5.166069
31
0
39
0
210
0
220
0
230
1
0
LINE
5
D2
100
AcDbEntity
8
1
62
256
6
ByLayer
370
13
48
1
60
0
100
AcDbLine
10
90.031875
20
3.255448
30
0
11
89.72628
21
5.190468
31
0
39
0
210
0
220
0
230
1
0
LINE
5
D3
100
AcDbEntity
8
1
62
256
6
ByLayer
370
13
48
1
60
0
100
AcDbLine
10
96.946604
20
5.829007
30
0
11
96.676191
21
3.762785
31
0
39
0
210
0
220
0
230
1
0
LINE
5
D4
100
AcDbEntity
8
1
62
256
6
ByLayer
370
13
48
1
60
0
100
AcDbLine
10
89.723616
20
5.391339
30
0
11
89.719004
21
5.391097
31
0
39
0
210
0
220
0
230
1
0
LINE
5
D5
100
AcDbEntity
8
1
62
256
6
ByLayer
370
13
48
1
60
0
100
AcDbLine
10
89.010741
20
7.374839
30
0
11
88.739064
21
5.29896
31
0
39
0
210
0
220
0
230
1
0
LINE
5
D6
100
AcDbEntity
8
1
62
256
6
ByLayer
370
13
48
1
60
0
100
AcDbLine
10
95.863327
20
5.749703
30
0
11
95.590106
21
3.66202
31
0
39
0
210
0
220
0
230
1
0
LINE
5
D7
100
AcDbEntity
8
1
62
256
6
ByLayer
370
13
48
1
60
0
100
AcDbLine
10
95.887237
20
8.271894
30
0
11
95.815392
21
8.26876
31
0
39
0
210
0
220
0
230
1
0
LINE
5
D8
100
AcDbEntity
8
1
62
256
6
ByLayer
370
13
48
1
60
0
100
AcDbLine
10
96.843267
20
5.84184
30
0
11
96.571591
21
3.765961
31
0
39
0
210
0
220
0
230
1
0
LINE
5
D9
100
AcDbEntity
8
1
62
256
6
ByLayer
370
13
48
1
60
0
100
AcDbLine
10
96.492503
20
8.171172
30
0
11
96.846738
21
5.928169
31
0
39
0
210
0
220
0
230
1
0
LINE
5
DA
100
AcDbEntity
8
1
62
256
6
ByLayer
370
13
48
1
60
0
100
AcDbLine
10
96.445614
20
3.637217
30
0
11
95.560711
21
3.504597
31
0
39
0
210
0
220
0
230
1
0
LINE
5
DB
100
AcDbEntity
8
1
62
256
6
ByLayer
370
13
48
1
60
0
100
AcDbLine
10
96.680773
20
5.90377
30
0
11
96.326538
21
8.146773
31
0
39
0
210
0
220
0
230
1
0
LINE
5
DC
100
AcDbEntity
8
1
62
256
6
ByLayer
370
13
48
1
60
0
100
AcDbLine
10
88.609426
20
5.319539
30
0
11
88.881103
21
7.395418
31
0
39
0
210
0
220
0
230
1
0
LINE
5
DD
100
AcDbEntity
8
1
62
256
6
ByLayer
370
13
48
1
60
0
100
AcDbLine
10
89.55708
20
5.409984
30
0
11
89.830302
21
7.497667
31
0
39
0
210
0
220
0
230
1
0
LINE
5
DE
100
AcDbEntity
8
1
62
256
6
ByLayer
370
13
48
1
60
0
100
AcDbLine
10
95.899137
20
8.422718
30
0
11
95.894525
21
8.422476
31
0
39
0
210
0
220
0
230
1
0
LINE
5
DF
100
AcDbEntity
8
1
62
256
6
ByLayer
370
13
48
1
60
0
100
AcDbLine
10
95.827292
20
8.419584
30
0
11
95.899137
21
8.422718
31
0
39
0
210
0
220
0
230
1
0
LINE
5
E0
100
AcDbEntity
8
1
62
256
6
ByLayer
370
13
48
1
60
0
100
AcDbLine
10
96.576203
20
3.766202
30
0
11
96.571591
21
3.765961
31
0
39
0
210
0
220
0
230
1
0
LINE
5
E1
100
AcDbEntity
8
1
62
256
6
ByLayer
370
13
48
1
60
0
100
AcDbLine
10
89.00708
20
7.524162
30
0
11
89.891982
21
7.656782
31
0
39
0
210
0
220
0
230
1
0
LINE
5
E2
100
AcDbEntity
8
1
62
256
6
ByLayer
370
13
48
1
60
0
100
AcDbLine
10
90.084734
20
7.522564
30
0
11
89.804578
21
5.381895
31
0
39
0
210
0
220
0
230
1
0
LINE
5
E3
100
AcDbEntity
8
1
62
256
6
ByLayer
370
13
48
1
60
0
100
AcDbLine
10
95.827292
20
8.419584
30
0
11
95.82268
21
8.419342
31
0
39
0
210
0
220
0
230
1
0
LINE
5
E4
100
AcDbEntity
8
1
62
256
6
ByLayer
370
13
48
1
60
0
100
AcDbLine
10
89.533171
20
2.887793
30
0
11
89.605016
21
2.890927
31
0
39
0
210
0
220
0
230
1
0
LINE
5
E5
100
AcDbEntity
8
1
62
256
6
ByLayer
370
13
48
1
60
0
100
AcDbLine
10
89.806956
20
5.202546
30
0
11
90.112552
21
3.267526
31
0
39
0
210
0
220
0
230
1
0
LINE
5
E6
100
AcDbEntity
8
1
62
256
6
ByLayer
370
13
48
1
60
0
100
AcDbLine
10
96.492503
20
8.171172
30
0
11
96.487891
21
8.17093
31
0
39
0
210
0
220
0
230
1
0
LINE
5
E7
100
AcDbEntity
8
1
62
256
6
ByLayer
370
13
48
1
60
0
100
AcDbLine
10
96.847879
20
5.842081
30
0
11
96.843267
21
5.84184
31
0
39
0
210
0
220
0
230
1
0
LINE
5
E8
100
AcDbEntity
8
1
62
256
6
ByLayer
370
13
48
1
60
0
100
AcDbLine
10
96.487891
20
8.17093
30
0
11
96.842126
21
5.927927
31
0
39
0
210
0
220
0
230
1
0
LINE
5
E9
100
AcDbEntity
8
1
62
256
6
ByLayer
370
13
48
1
60
0
100
AcDbLine
10
89.830302
20
7.497667
30
0
11
89.010741
21
7.374839
31
0
39
0
210
0
220
0
230
1
0
LINE
5
EA
100
AcDbEntity
8
1
62
256
6
ByLayer
370
13
48
1
60
0
100
AcDbLine
10
95.386408
20
3.639782
30
0
11
95.666564
21
5.780451
31
0
39
0
210
0
220
0
230
1
0
LINE
5
EB
100
AcDbEntity
8
1
62
256
6
ByLayer
370
13
48
1
60
0
100
AcDbLine
10
89.161821
20
8.00686
30
0
11
89.480198
21
8.054575
31
0
39
0
210
0
220
0
230
1
0
LINE
5
EC
100
AcDbEntity
8
1
62
256
6
ByLayer
370
13
48
1
60
0
100
AcDbLine
10
96.26939
20
3.174675
30
0
11
96.461559
21
3.538044
31
0
39
0
210
0
220
0
230
1
0
LINE
5
ED
100
AcDbEntity
8
1
62
256
6
ByLayer
370
13
48
1
60
0
100
AcDbLine
10
90.000835
20
7.544562
30
0
11
89.719004
21
5.391097
31
0
39
0
210
0
220
0
230
1
0
LINE
5
EE
100
AcDbEntity
8
1
62
256
6
ByLayer
370
13
48
1
60
0
100
AcDbLine
10
96.525424
20
3.185243
30
0
11
96.517873
21
3.211915
31
0
39
0
210
0
220
0
230
1
0
LINE
5
EF
100
AcDbEntity
8
1
62
256
6
ByLayer
370
13
48
1
60
0
100
AcDbLine
10
95.565323
20
3.504839
30
0
11
95.560711
21
3.504597
31
0
39
0
210
0
220
0
230
1
0
LINE
5
F0
100
AcDbEntity
8
1
62
256
6
ByLayer
370
13
48
1
60
0
100
AcDbLine
10
95.545216
20
7.98741
30
0
11
95.860093
21
5.993618
31
0
39
0
210
0
220
0
230
1
0
LINE
5
F1
100
AcDbEntity
8
1
62
256
6
ByLayer
370
13
48
1
60
0
100
AcDbLine
10
89.723616
20
5.391339
30
0
11
90.003772
21
7.532008
31
0
39
0
210
0
220
0
230
1
0
LINE
5
F2
100
AcDbEntity
8
1
62
256
6
ByLayer
370
13
48
1
60
0
100
AcDbLine
10
96.450226
20
3.637459
30
0
11
95.565323
21
3.504839
31
0
39
0
210
0
220
0
230
1
0
LINE
5
F3
100
AcDbEntity
8
1
62
256
6
ByLayer
370
13
48
1
60
0
100
AcDbLine
10
90.005447
20
7.544804
30
0
11
90.000835
21
7.544562
31
0
39
0
210
0
220
0
230
1
0
LINE
5
F4
100
AcDbEntity
8
1
62
256
6
ByLayer
370
13
48
1
60
0
100
AcDbLine
10
96.22628
20
3.135236
30
0
11
96.340758
21
3.51994
31
0
39
0
210
0
220
0
230
1
0
LINE
5
F5
100
AcDbEntity
8
1
62
256
6
ByLayer
370
13
48
1
60
0
100
AcDbLine
10
96.409667
20
3.784847
30
0
11
96.681344
21
5.860726
31
0
39
0
210
0
220
0
230
1
0
LINE
5
F6
100
AcDbEntity
8
1
62
256
6
ByLayer
370
13
48
1
60
0
100
AcDbLine
10
96.26939
20
3.174675
30
0
11
96.517873
21
3.211915
31
0
39
0
210
0
220
0
230
1
0
LINE
5
F7
100
AcDbEntity
8
1
62
256
6
ByLayer
370
13
48
1
60
0
100
AcDbLine
10
95.472511
20
3.389816
30
0
11
96.340758
21
3.51994
31
0
39
0
210
0
220
0
230
1
0
LINE
5
F8
100
AcDbEntity
8
1
62
256
6
ByLayer
370
13
48
1
60
0
100
AcDbLine
10
88.415444
20
5.354765
30
0
11
88.411311
21
5.323185
31
0
39
0
210
0
220
0
230
1
0
LINE
5
F9
100
AcDbEntity
8
1
62
256
6
ByLayer
370
13
48
1
60
0
100
AcDbLine
10
95.664186
20
5.959799
30
0
11
95.35859
21
7.89482
31
0
39
0
210
0
220
0
230
1
0
LINE
5
FA
100
AcDbEntity
8
1
62
256
6
ByLayer
370
13
48
1
60
0
100
AcDbLine
10
95.505121
20
8.38874
30
0
11
95.592275
21
8.393308
31
0
39
0
210
0
220
0
230
1
0
LINE
5
FB
100
AcDbEntity
8
1
62
256
6
ByLayer
370
13
48
1
60
0
100
AcDbLine
10
88.943469
20
7.974135
30
0
11
88.995747
21
7.623576
31
0
39
0
210
0
220
0
230
1
0
LINE
5
FC
100
AcDbEntity
8
1
62
256
6
ByLayer
370
13
48
1
60
0
100
AcDbLine
10
89.630013
20
2.742037
30
0
11
89.558168
21
2.738903
31
0
39
0
210
0
220
0
230
1
0
LINE
5
FD
100
AcDbEntity
8
1
62
256
6
ByLayer
370
13
48
1
60
0
100
AcDbLine
10
89.191839
20
8.172778
30
0
11
89.099707
21
8.167139
31
0
39
0
210
0
220
0
230
1
0
LINE
5
FE
100
AcDbEntity
8
1
62
256
6
ByLayer
370
13
48
1
60
0
100
AcDbLine
10
96.847879
20
5.842081
30
0
11
96.576203
21
3.766202
31
0
39
0
210
0
220
0
230
1
0
LINE
5
FF
100
AcDbEntity
8
1
62
256
6
ByLayer
370
13
48
1
60
0
100
AcDbLine
10
95.71328
20
3.074806
30
0
11
95.626127
21
3.070239
31
0
39
0
210
0
220
0
230
1
0
LINE
5
100
100
AcDbEntity
8
1
62
256
6
ByLayer
370
13
48
1
60
0
100
AcDbLine
10
95.955384
20
8.42433
30
0
11
95.950772
21
8.424089
31
0
39
0
210
0
220
0
230
1
0
LINE
5
101
100
AcDbEntity
8
1
62
256
6
ByLayer
370
13
48
1
60
0
100
AcDbLine
10
89.726595
20
2.646155
30
0
11
89.634379
21
2.642132
31
0
39
0
210
0
220
0
230
1
0
LINE
5
102
100
AcDbEntity
8
1
62
256
6
ByLayer
370
13
48
1
60
0
100
AcDbLine
10
88.739635
20
5.255917
30
0
11
89.09387
21
3.012913
31
0
39
0
210
0
220
0
230
1
0
LINE
5
103
100
AcDbEntity
8
1
62
256
6
ByLayer
370
13
48
1
60
0
100
AcDbLine
10
90.626625
20
7.638619
30
0
11
94.604066
21
7.847068
31
0
39
0
210
0
220
0
230
1
0
LINE
5
104
100
AcDbEntity
8
1
62
256
6
ByLayer
370
13
48
1
60
0
100
AcDbLine
10
88.417154
20
5.215162
30
0
11
88.836427
21
2.973984
31
0
39
0
210
0
220
0
230
1
0
LINE
5
105
100
AcDbEntity
8
1
62
256
6
ByLayer
370
13
48
1
60
0
100
AcDbLine
10
90.045461
20
3.169424
30
0
11
90.040849
21
3.169182
31
0
39
0
210
0
220
0
230
1
0
LINE
5
106
100
AcDbEntity
8
1
62
256
6
ByLayer
370
13
48
1
60
0
100
AcDbLine
10
96.450226
20
3.637459
30
0
11
96.445614
21
3.637217
31
0
39
0
210
0
220
0
230
1
0
LINE
5
107
100
AcDbEntity
8
1
62
256
6
ByLayer
370
13
48
1
60
0
100
AcDbLine
10
96.201552
20
8.424275
30
0
11
96.19694
21
8.424033
31
0
39
0
210
0
220
0
230
1
0
LINE
5
108
100
AcDbEntity
8
1
62
256
6
ByLayer
370
13
48
1
60
0
100
AcDbLine
10
96.945082
20
5.94379
30
0
11
96.590847
21
8.186793
31
0
39
0
210
0
220
0
230
1
0
LINE
5
109
100
AcDbEntity
8
1
62
256
6
ByLayer
370
13
48
1
60
0
100
AcDbLine
10
94.83068
20
3.523002
30
0
11
90.85324
21
3.314553
31
0
39
0
210
0
220
0
230
1
0
LINE
5
10A
100
AcDbEntity
8
1
62
256
6
ByLayer
370
13
48
1
60
0
100
AcDbLine
10
90.01206
20
3.077972
30
0
11
90.007448
21
3.07773
31
0
39
0
210
0
220
0
230
1
0
LINE
5
10B
100
AcDbEntity
8
1
62
256
6
ByLayer
370
13
48
1
60
0
100
AcDbLine
10
88.510701
20
5.332614
30
0
11
88.781114
21
7.398835
31
0
39
0
210
0
220
0
230
1
0
LINE
5
10C
100
AcDbEntity
8
1
62
256
6
ByLayer
370
13
48
1
60
0
100
AcDbLine
10
89.984794
20
7.771805
30
0
11
88.995747
21
7.623576
31
0
39
0
210
0
220
0
230
1
0
LINE
5
10D
100
AcDbEntity
8
1
62
256
6
ByLayer
370
13
48
1
60
0
100
AcDbLine
10
90.003772
20
7.532008
30
0
11
90.005447
21
7.544804
31
0
39
0
210
0
220
0
230
1
0
LINE
5
10E
100
AcDbEntity
8
1
62
256
6
ByLayer
370
13
48
1
60
0
100
AcDbLine
10
95.73071
20
8.515466
30
0
11
95.822927
21
8.519488
31
0
39
0
210
0
220
0
230
1
0
LINE
5
10F
100
AcDbEntity
8
1
62
256
6
ByLayer
370
13
48
1
60
0
100
AcDbLine
10
90.045461
20
3.169424
30
0
11
90.031875
21
3.255448
31
0
39
0
210
0
220
0
230
1
0
LINE
5
110
100
AcDbEntity
8
1
62
256
6
ByLayer
370
13
48
1
60
0
100
AcDbLine
10
95.590106
20
3.66202
30
0
11
96.409667
21
3.784847
31
0
39
0
210
0
220
0
230
1
0
LINE
5
111
100
AcDbEntity
8
1
62
256
6
ByLayer
370
13
48
1
60
0
100
AcDbLine
10
89.72628
20
5.190468
30
0
11
89.721667
21
5.190226
31
0
39
0
210
0
220
0
230
1
0
LINE
5
112
100
AcDbEntity
8
1
62
256
6
ByLayer
370
13
48
1
60
0
100
AcDbLine
10
96.387834
20
2.467537
30
0
11
96.376957
21
2.466967
31
0
39
0
210
0
220
0
230
1
0
LINE
5
113
100
AcDbEntity
8
1
62
256
6
ByLayer
370
13
48
1
60
0
100
AcDbLine
10
90.53002
20
3.020572
30
0
11
90.204665
21
3.003521
31
0
39
0
210
0
220
0
230
1
0
LINE
5
114
100
AcDbEntity
8
1
62
256
6
ByLayer
370
13
48
1
60
0
100
AcDbLine
10
88.651719
20
3.751076
30
0
11
88.652402
21
3.746751
31
0
39
0
210
0
220
0
230
1
0
LINE
5
115
100
AcDbEntity
8
1
62
256
6
ByLayer
370
13
48
1
60
0
100
AcDbLine
10
89.661196
20
7.932567
30
0
11
89.685265
21
8.116477
31
0
39
0
210
0
220
0
230
1
0
LINE
5
116
100
AcDbEntity
8
1
62
256
6
ByLayer
370
13
48
1
60
0
100
AcDbLine
10
31
20
-8.271974
30
0
11
31
21
-8.2875
31
0
39
0
210
0
220
0
230
1
0
LINE
5
117
100
AcDbEntity
8
1
62
256
6
ByLayer
370
13
48
1
60
0
100
AcDbLine
10
96.367151
20
2.507391
30
0
11
96.387834
21
2.467537
31
0
39
0
210
0
220
0
230
1
0
LINE
5
118
100
AcDbEntity
8
1
62
256
6
ByLayer
370
13
48
1
60
0
100
AcDbLine
10
87.254071
20
8.2875
30
0
11
87.254071
21
8.152885
31
0
39
0
210
0
220
0
230
1
0
LINE
5
119
100
AcDbEntity
8
1
62
256
6
ByLayer
370
13
48
1
60
0
100
AcDbLine
10
96.314487
20
0.543203
30
0
11
96.303732
21
0.544612
31
0
39
0
210
0
220
0
230
1
0
LINE
5
11A
100
AcDbEntity
8
1
62
256
6
ByLayer
370
13
48
1
60
0
100
AcDbLine
10
96.357928
20
0.494364
30
0
11
96.354087
21
0.494867
31
0
39
0
210
0
220
0
230
1
0
LINE
5
11B
100
AcDbEntity
8
1
62
256
6
ByLayer
370
13
48
1
60
0
100
AcDbLine
10
54.4
20
-8.194494
30
0
11
54.4
21
-8.2025
31
0
39
0
210
0
220
0
230
1
0
LINE
5
11C
100
AcDbEntity
8
1
62
256
6
ByLayer
370
13
48
1
60
0
100
AcDbLine
10
84.254071
20
8.2025
30
0
11
84.254071
21
8.087272
31
0
39
0
210
0
220
0
230
1
0
LINE
5
11D
100
AcDbEntity
8
1
62
256
6
ByLayer
370
13
48
1
60
0
100
AcDbLine
10
0
20
-14.521528
30
0
11
0
21
-15.5
31
0
39
0
210
0
220
0
230
1
0
LINE
5
11E
100
AcDbEntity
8
1
62
256
6
ByLayer
370
13
48
1
60
0
100
AcDbLine
10
0
20
-13.840868
30
0
11
0
21
-11.953296
31
0
39
0
210
0
220
0
230
1
0
LINE
5
11F
100
AcDbEntity
8
1
62
256
6
ByLayer
370
13
48
1
60
0
100
AcDbLine
10
3.5
20
-12.393377
30
0
11
3.5
21
-13.840868
31
0
39
0
210
0
220
0
230
1
0
LINE
5
120
100
AcDbEntity
8
SK1
62
256
6
ByLayer
370
13
48
1
60
0
100
AcDbLine
10
-13.5
20
9.8475
30
0
11
-13.5
21
-9.8475
31
0
39
0
210
0
220
0
230
1
0
LINE
5
122
100
AcDbEntity
8
SK1
62
256
6
ByLayer
370
13
48
1
60
0
100
AcDbLine
10
-15
20
9.445576
30
0
11
-15
21
-9.445576
31
0
39
0
210
0
220
0
230
1
0
LINE
5
123
100
AcDbEntity
8
SK1
62
256
6
ByLayer
370
13
48
1
60
0
100
AcDbLine
10
-8.57646
20
9.65
30
0
11
-8.57646
21
-9.65
31
0
39
0
210
0
220
0
230
1
0
LINE
5
124
100
AcDbEntity
8
SK1
62
256
6
ByLayer
370
13
48
1
60
0
100
AcDbLine
10
-9
20
9.8475
30
0
11
-9
21
-9.8475
31
0
39
0
210
0
220
0
230
1
0
LINE
5
125
100
AcDbEntity
8
SK1
62
256
6
ByLayer
370
13
48
1
60
0
100
AcDbLine
10
-1.57646
20
9.8
30
0
11
-1.57646
21
-9.8
31
0
39
0
210
0
220
0
230
1
0
LINE
5
126
100
AcDbEntity
8
SK1
62
256
6
ByLayer
370
13
48
1
60
0
100
AcDbLine
10
-7.796888
20
9.65
30
0
11
-7.796888
21
-9.65
31
0
39
0
210
0
220
0
230
1
0
LINE
5
127
100
AcDbEntity
8
SK1
62
256
6
ByLayer
370
13
48
1
60
0
100
AcDbLine
10
-2
20
9.9975
30
0
11
-2
21
-9.9975
31
0
39
0
210
0
220
0
230
1
0
LINE
5
128
100
AcDbEntity
8
SK1
62
256
6
ByLayer
370
13
48
1
60
0
100
AcDbLine
10
-6.5
20
9.9975
30
0
11
-6.5
21
-9.9975
31
0
39
0
210
0
220
0
230
1
0
LINE
5
129
100
AcDbEntity
8
SK1
62
256
6
ByLayer
370
13
48
1
60
0
100
AcDbLine
10
-0.3
20
9.8
30
0
11
-0.3
21
-9.8
31
0
39
0
210
0
220
0
230
1
0
LINE
5
12A
100
AcDbEntity
8
1
62
256
6
ByLayer
370
13
48
1
60
0
100
AcDbLine
10
13.1851
20
12.5
30
0
11
13.1851
21
-12.5
31
0
39
0
210
0
220
0
230
1
0
LINE
5
12B
100
AcDbEntity
8
1
62
256
6
ByLayer
370
13
48
1
60
0
100
AcDbLine
10
26
20
-8.272153
30
0
11
26
21
-8.2875
31
0
39
0
210
0
220
0
230
1
0
LINE
5
12C
100
AcDbEntity
8
1
62
256
6
ByLayer
370
13
48
1
60
0
100
AcDbLine
10
5.5
20
12.5
30
0
11
5.5
21
-12.5
31
0
39
0
210
0
220
0
230
1
0
LINE
5
12D
100
AcDbEntity
8
1
62
256
6
ByLayer
370
13
48
1
60
0
100
AcDbLine
10
0
20
2.567
30
0
11
0
21
15.5
31
0
39
0
210
0
220
0
230
1
0
LINE
5
12E
100
AcDbEntity
8
1
62
256
6
ByLayer
370
13
48
1
60
0
100
AcDbLine
10
5
20
16
30
0
11
5
21
-16
31
0
39
0
210
0
220
0
230
1
0
LINE
5
12F
100
AcDbEntity
8
1
62
256
6
ByLayer
370
13
48
1
60
0
100
AcDbLine
10
0.5
20
2.567
30
0
11
0.5
21
16
31
0
39
0
210
0
220
0
230
1
0
LINE
5
130
100
AcDbEntity
8
1
62
256
6
ByLayer
370
13
48
1
60
0
100
AcDbLine
10
0.5
20
-14.960411
30
0
11
0.5
21
-16
31
0
39
0
210
0
220
0
230
1
0
LINE
5
131
100
AcDbEntity
8
1
62
256
6
ByLayer
370
18
48
1
60
0
100
AcDbLine
10
96.1316
20
-4.920469
30
0
11
96.477553
21
-4.821812
31
0
39
0
210
0
220
0
230
1
0
LINE
5
132
100
AcDbEntity
8
1
62
256
6
ByLayer
370
18
48
1
60
0
100
AcDbLine
10
96.277345
20
-4.462096
30
0
11
96.067734
21
-4.521872
31
0
39
0
210
0
220
0
230
1
0
LINE
5
133
100
AcDbEntity
8
1
62
256
6
ByLayer
370
18
48
1
60
0
100
AcDbLine
10
96.073244
20
0.47497
30
0
11
96.135923
21
0.466763
31
0
39
0
210
0
220
0
230
1
0
LINE
5
134
100
AcDbEntity
8
1
62
256
6
ByLayer
370
13
48
1
60
0
100
AcDbLine
10
96.651561
20
3.680384
30
0
11
96.627597
21
3.382302
31
0
39
0
210
0
220
0
230
1
0
LINE
5
135
100
AcDbEntity
8
1
62
256
6
ByLayer
370
13
48
1
60
0
100
AcDbLine
10
96.550352
20
3.488646
30
0
11
96.517873
21
3.211915
31
0
39
0
210
0
220
0
230
1
0
LINE
5
136
100
AcDbEntity
8
1
62
256
6
ByLayer
370
13
48
1
60
0
100
AcDbLine
10
95.474745
20
8.366955
30
0
11
95.456287
21
8.367768
31
0
39
0
210
0
220
0
230
1
0
LINE
5
137
100
AcDbEntity
8
1
62
256
6
ByLayer
370
13
48
1
60
0
100
AcDbLine
10
88.320099
20
5.137045
30
0
11
88.748328
21
3.347304
31
0
39
0
210
0
220
0
230
1
0
LINE
5
138
100
AcDbEntity
8
1
62
256
6
ByLayer
370
13
48
1
60
0
100
AcDbLine
10
88.748328
20
3.347304
30
0
11
88.773643
21
3.309591
31
0
39
0
210
0
220
0
230
1
0
LINE
5
139
100
AcDbEntity
8
1
62
256
6
ByLayer
370
13
48
1
60
0
100
AcDbLine
10
95.823292
20
8.419369
30
0
11
95.894525
21
8.422476
31
0
39
0
210
0
220
0
230
1
0
LINE
5
13A
100
AcDbEntity
8
1
62
256
6
ByLayer
370
13
48
1
60
0
100
AcDbLine
10
95.553418
20
3.503778
30
0
11
95.560711
21
3.504597
31
0
39
0
210
0
220
0
230
1
0
LINE
5
13B
100
AcDbEntity
8
1
62
256
6
ByLayer
370
13
48
1
60
0
100
AcDbLine
10
88.943469
20
7.974135
30
0
11
88.727677
21
7.941794
31
0
39
0
210
0
220
0
230
1
0
LINE
5
13C
100
AcDbEntity
8
1
62
256
6
ByLayer
370
13
48
1
60
0
100
AcDbLine
10
88.781114
20
7.398835
30
0
11
88.734311
21
7.712684
31
0
39
0
210
0
220
0
230
1
0
LINE
5
13D
100
AcDbEntity
8
1
62
256
6
ByLayer
370
13
48
1
60
0
100
AcDbLine
10
95.411845
20
7.992197
30
0
11
95.424366
21
7.912914
31
0
39
0
210
0
220
0
230
1
0
LINE
5
13E
100
AcDbEntity
8
1
62
256
6
ByLayer
370
13
48
1
60
0
100
AcDbLine
10
95.452664
20
3.622972
30
0
11
95.451858
21
3.616817
31
0
39
0
210
0
220
0
230
1
0
LINE
5
13F
100
AcDbEntity
8
1
62
256
6
ByLayer
370
18
48
1
60
0
100
AcDbLine
10
91.981616
20
5.339043
30
0
11
91.948525
21
5.337309
31
0
39
0
210
0
220
0
230
1
0
LINE
5
140
100
AcDbEntity
8
1
62
256
6
ByLayer
370
18
48
1
60
0
100
AcDbLine
10
91.960437
20
5.743166
30
0
11
91.927358
21
5.741433
31
0
39
0
210
0
220
0
230
1
0
LINE
5
141
100
AcDbEntity
8
4
62
256
6
ByLayer
370
18
48
0.05
60
0
100
AcDbLine
10
97
20
0
30
0
11
0
21
0
31
0
39
0
210
0
220
0
230
1
0
LINE
5
143
100
AcDbEntity
8
SK4
62
256
6
ByLayer
370
13
48
0.05
60
0
100
AcDbLine
10
97
20
0
30
0
11
-15
21
0
31
0
39
0
210
0
220
0
230
1
0
LINE
5
145
100
AcDbEntity
8
SK1
62
256
6
ByLayer
370
13
48
1
60
0
100
AcDbLine
10
-7.796888
20
9.65
30
0
11
-8.57646
21
9.65
31
0
39
0
210
0
220
0
230
1
0
LINE
5
146
100
AcDbEntity
8
SK1
62
256
6
ByLayer
370
13
48
1
60
0
100
AcDbLine
10
-8.57646
20
-9.65
30
0
11
-7.796888
21
-9.65
31
0
39
0
210
0
220
0
230
1
0
LINE
5
147
100
AcDbEntity
8
SK1
62
256
6
ByLayer
370
13
48
1
60
0
100
AcDbLine
10
-0.3
20
9.8
30
0
11
-1.57646
21
9.8
31
0
39
0
210
0
220
0
230
1
0
LINE
5
148
100
AcDbEntity
8
SK1
62
256
6
ByLayer
370
13
48
1
60
0
100
AcDbLine
10
-1.57646
20
-9.8
30
0
11
-0.3
21
-9.8
31
0
39
0
210
0
220
0
230
1
0
LINE
5
149
100
AcDbEntity
8
SK1
62
256
6
ByLayer
370
13
48
1
60
0
100
AcDbLine
10
-9
20
9.8475
30
0
11
-13.5
21
9.8475
31
0
39
0
210
0
220
0
230
1
0
LINE
5
14A
100
AcDbEntity
8
SK1
62
256
6
ByLayer
370
13
48
1
60
0
100
AcDbLine
10
-13.5
20
-9.8475
30
0
11
-9
21
-9.8475
31
0
39
0
210
0
220
0
230
1
0
LINE
5
14B
100
AcDbEntity
8
SK1
62
256
6
ByLayer
370
13
48
1
60
0
100
AcDbLine
10
-8.57646
20
9.65
30
0
11
-9
21
9.8475
31
0
39
0
210
0
220
0
230
1
0
LINE
5
14C
100
AcDbEntity
8
SK1
62
256
6
ByLayer
370
13
48
1
60
0
100
AcDbLine
10
-9
20
-9.8475
30
0
11
-8.57646
21
-9.65
31
0
39
0
210
0
220
0
230
1
0
LINE
5
14D
100
AcDbEntity
8
SK1
62
256
6
ByLayer
370
13
48
1
60
0
100
AcDbLine
10
-15
20
-9.445576
30
0
11
-13.5
21
-9.8475
31
0
39
0
210
0
220
0
230
1
0
LINE
5
14E
100
AcDbEntity
8
SK1
62
256
6
ByLayer
370
13
48
1
60
0
100
AcDbLine
10
-13.5
20
9.8475
30
0
11
-15
21
9.445576
31
0
39
0
210
0
220
0
230
1
0
LINE
5
14F
100
AcDbEntity
8
SK1
62
256
6
ByLayer
370
13
48
1
60
0
100
AcDbLine
10
-7.796888
20
-9.65
30
0
11
-6.5
21
-9.9975
31
0
39
0
210
0
220
0
230
1
0
LINE
5
150
100
AcDbEntity
8
SK1
62
256
6
ByLayer
370
13
48
1
60
0
100
AcDbLine
10
-6.5
20
9.9975
30
0
11
-7.796888
21
9.65
31
0
39
0
210
0
220
0
230
1
0
LINE
5
151
100
AcDbEntity
8
SK1
62
256
6
ByLayer
370
13
48
1
60
0
100
AcDbLine
10
-2
20
9.9975
30
0
11
-6.5
21
9.9975
31
0
39
0
210
0
220
0
230
1
0
LINE
5
152
100
AcDbEntity
8
SK1
62
256
6
ByLayer
370
13
48
1
60
0
100
AcDbLine
10
-6.5
20
-9.9975
30
0
11
-2
21
-9.9975
31
0
39
0
210
0
220
0
230
1
0
LINE
5
153
100
AcDbEntity
8
SK1
62
256
6
ByLayer
370
13
48
1
60
0
100
AcDbLine
10
-1.57646
20
9.8
30
0
11
-2
21
9.9975
31
0
39
0
210
0
220
0
230
1
0
LINE
5
154
100
AcDbEntity
8
SK1
62
256
6
ByLayer
370
13
48
1
60
0
100
AcDbLine
10
-2
20
-9.9975
30
0
11
-1.57646
21
-9.8
31
0
39
0
210
0
220
0
230
1
0
LINE
5
155
100
AcDbEntity
8
1
62
256
6
ByLayer
370
13
48
1
60
0
100
AcDbLine
10
26
20
-8.2875
30
0
11
31
21
-8.2875
31
0
39
0
210
0
220
0
230
1
0
LINE
5
156
100
AcDbEntity
8
1
62
256
6
ByLayer
370
13
48
1
60
0
100
AcDbLine
10
31
20
-8.2875
30
0
11
54.4
21
-8.2025
31
0
39
0
210
0
220
0
230
1
0
LINE
5
157
100
AcDbEntity
8
1
62
256
6
ByLayer
370
13
48
1
60
0
100
AcDbLine
10
88.606302
20
8.2875
30
0
11
87.254071
21
8.2875
31
0
39
0
210
0
220
0
230
1
0
LINE
5
158
100
AcDbEntity
8
1
62
256
6
ByLayer
370
13
48
1
60
0
100
AcDbLine
10
87.254071
20
8.2875
30
0
11
84.254071
21
8.2025
31
0
39
0
210
0
220
0
230
1
0
LINE
5
159
100
AcDbEntity
8
1
62
256
6
ByLayer
370
13
48
1
60
0
100
AcDbLine
10
54.4
20
-8.2025
30
0
11
57.494107
21
-8.2025
31
0
39
0
210
0
220
0
230
1
0
LINE
5
15A
100
AcDbEntity
8
1
62
256
6
ByLayer
370
13
48
1
60
0
100
AcDbLine
10
84.254071
20
8.2025
30
0
11
81.196285
21
8.2025
31
0
39
0
210
0
220
0
230
1
0
LINE
5
15B
100
AcDbEntity
8
1
62
256
6
ByLayer
370
13
48
1
60
0
100
AcDbLine
10
0
20
-15.5
30
0
11
0.5
21
-16
31
0
39
0
210
0
220
0
230
1
0
LINE
5
15C
100
AcDbEntity
8
1
62
256
6
ByLayer
370
13
48
1
60
0
100
AcDbLine
10
5.5
20
-12.5
30
0
11
13.1851
21
-12.5
31
0
39
0
210
0
220
0
230
1
0
LINE
5
15D
100
AcDbEntity
8
1
62
256
6
ByLayer
370
13
48
1
60
0
100
AcDbLine
10
13.1851
20
12.5
30
0
11
5.5
21
12.5
31
0
39
0
210
0
220
0
230
1
0
LINE
5
15E
100
AcDbEntity
8
1
62
256
6
ByLayer
370
13
48
1
60
0
100
AcDbLine
10
0.5
20
16
30
0
11
0
21
15.5
31
0
39
0
210
0
220
0
230
1
0
LINE
5
15F
100
AcDbEntity
8
1
62
256
6
ByLayer
370
13
48
1
60
0
100
AcDbLine
10
5
20
16
30
0
11
0.5
21
16
31
0
39
0
210
0
220
0
230
1
0
LINE
5
160
100
AcDbEntity
8
1
62
256
6
ByLayer
370
13
48
1
60
0
100
AcDbLine
10
0.5
20
-16
30
0
11
5
21
-16
31
0
39
0
210
0
220
0
230
1
0
LINE
5
161
100
AcDbEntity
8
1
62
256
6
ByLayer
370
13
48
1
60
0
100
AcDbLine
10
96.455141
20
3.308611
30
0
11
96.64731
21
3.67198
31
0
39
0
210
0
220
0
230
1
0
LINE
5
162
100
AcDbEntity
8
1
62
256
6
ByLayer
370
13
48
1
60
0
100
AcDbLine
10
95.731349
20
5.971137
30
0
11
95.425754
21
7.906157
31
0
39
0
210
0
220
0
230
1
0
LINE
5
163
100
AcDbEntity
8
1
62
256
6
ByLayer
370
13
48
1
60
0
100
AcDbLine
10
95.453855
20
3.629686
30
0
11
95.734011
21
5.770356
31
0
39
0
210
0
220
0
230
1
0
LINE
5
164
100
AcDbEntity
8
1
62
256
6
ByLayer
370
18
48
1
60
0
100
AcDbLine
10
92.622758
20
6.254391
30
0
11
92.68093
21
6.25744
31
0
39
0
210
0
220
0
230
1
0
LINE
5
165
100
AcDbEntity
8
1
62
256
6
ByLayer
370
18
48
1
60
0
100
AcDbLine
10
92.751918
20
4.902899
30
0
11
92.693747
21
4.89985
31
0
39
0
210
0
220
0
230
1
0
LINE
5
166
100
AcDbEntity
8
1
62
256
6
ByLayer
370
18
48
1
60
0
100
AcDbLine
10
92.736361
20
4.254396
30
0
11
92.782107
21
4.256793
31
0
39
0
210
0
220
0
230
1
0
LINE
5
167
100
AcDbEntity
8
1
62
256
6
ByLayer
370
18
48
1
60
0
100
AcDbLine
10
92.643417
20
6.903162
30
0
11
92.59767
21
6.900764
31
0
39
0
210
0
220
0
230
1
0
LINE
5
168
100
AcDbEntity
8
81
62
256
6
ByLayer
370
18
48
1
60
0
100
AcDbLine
10
97
20
0
30
0
11
104
21
0
31
0
39
0
210
0
220
0
230
1
0
LINE
5
169
100
AcDbEntity
8
80
62
256
6
ByLayer
370
18
48
1
60
0
100
AcDbLine
10
0
20
0
30
0
11
-7
21
0
31
0
39
0
210
0
220
0
230
1
0
LINE
5
16A
100
AcDbEntity
8
SK2
62
256
6
ByLayer
370
13
48
1
60
0
100
AcDbLine
10
-35.725
20
-10
30
0
11
-35.725
21
40.986611
31
0
39
0
210
0
220
0
230
1
0
LINE
5
16C
100
AcDbEntity
8
SK2
62
256
6
ByLayer
370
13
48
1
60
0
100
AcDbLine
10
-16.5875
20
-10
30
0
11
-38.9
21
-10
31
0
39
0
210
0
220
0
230
1
0
LINE
5
16D
100
AcDbEntity
8
SK2
62
256
6
ByLayer
370
13
48
1
60
0
100
AcDbLine
10
-16.5875
20
10
30
0
11
-38.9
21
10
31
0
39
0
210
0
220
0
230
1
0
LINE
5
16E
100
AcDbEntity
8
1
62
256
6
ByLayer
370
18
48
1
60
1
100
AcDbLine
10
-35.725
20
-10
30
0
11
-36.650575
21
-5.825003
31
0
39
0
210
0
220
0
230
1
0
LINE
5
16F
100
AcDbEntity
8
1
62
256
6
ByLayer
370
18
48
1
60
1
100
AcDbLine
10
-36.650575
20
-5.825003
30
0
11
-34.799425
21
-5.824997
31
0
39
0
210
0
220
0
230
1
0
LINE
5
170
100
AcDbEntity
8
1
62
256
6
ByLayer
370
18
48
1
60
1
100
AcDbLine
10
-34.799425
20
-5.824997
30
0
11
-35.725
21
-10
31
0
39
0
210
0
220
0
230
1
0
LINE
5
171
100
AcDbEntity
8
1
62
256
6
ByLayer
370
18
48
1
60
1
100
AcDbLine
10
-35.725
20
10
30
0
11
-34.799425
21
5.825003
31
0
39
0
210
0
220
0
230
1
0
LINE
5
172
100
AcDbEntity
8
1
62
256
6
ByLayer
370
18
48
1
60
1
100
AcDbLine
10
-34.799425
20
5.825003
30
0
11
-36.650575
21
5.824997
31
0
39
0
210
0
220
0
230
1
0
LINE
5
173
100
AcDbEntity
8
1
62
256
6
ByLayer
370
18
48
1
60
1
100
AcDbLine
10
-36.650575
20
5.824997
30
0
11
-35.725
21
10
31
0
39
0
210
0
220
0
230
1
0
LINE
5
174
100
AcDbEntity
8
SK2
62
256
6
ByLayer
370
13
48
1
60
0
100
AcDbLine
10
-45.725
20
-16
30
0
11
-45.725
21
16
31
0
39
0
210
0
220
0
230
1
0
LINE
5
175
100
AcDbEntity
8
SK2
62
256
6
ByLayer
370
13
48
1
60
0
100
AcDbLine
10
-1.5875
20
16
30
0
11
-48.9
21
16
31
0
39
0
210
0
220
0
230
1
0
LINE
5
176
100
AcDbEntity
8
SK2
62
256
6
ByLayer
370
13
48
1
60
0
100
AcDbLine
10
-1.5875
20
-16
30
0
11
-48.9
21
-16
31
0
39
0
210
0
220
0
230
1
0
LINE
5
177
100
AcDbEntity
8
1
62
256
6
ByLayer
370
18
48
1
60
1
100
AcDbLine
10
-45.725
20
16
30
0
11
-44.799425
21
11.825003
31
0
39
0
210
0
220
0
230
1
0
LINE
5
178
100
AcDbEntity
8
1
62
256
6
ByLayer
370
18
48
1
60
1
100
AcDbLine
10
-44.799425
20
11.825003
30
0
11
-46.650575
21
11.824997
31
0
39
0
210
0
220
0
230
1
0
LINE
5
179
100
AcDbEntity
8
1
62
256
6
ByLayer
370
18
48
1
60
1
100
AcDbLine
10
-46.650575
20
11.824997
30
0
11
-45.725
21
16
31
0
39
0
210
0
220
0
230
1
0
LINE
5
17A
100
AcDbEntity
8
1
62
256
6
ByLayer
370
18
48
1
60
1
100
AcDbLine
10
-45.725
20
-16
30
0
11
-46.650575
21
-11.825003
31
0
39
0
210
0
220
0
230
1
0
LINE
5
17B
100
AcDbEntity
8
1
62
256
6
ByLayer
370
18
48
1
60
1
100
AcDbLine
10
-46.650575
20
-11.825003
30
0
11
-44.799425
21
-11.824997
31
0
39
0
210
0
220
0
230
1
0
LINE
5
17C
100
AcDbEntity
8
1
62
256
6
ByLayer
370
18
48
1
60
1
100
AcDbLine
10
-44.799425
20
-11.824997
30
0
11
-45.725
21
-16
31
0
39
0
210
0
220
0
230
1
0
LINE
5
17D
100
AcDbEntity
8
2
62
256
6
ByLayer
370
13
48
1
60
0
100
AcDbLine
10
123.975
20
-8.5
30
0
11
123.975
21
38.361783
31
0
39
0
210
0
220
0
230
1
0
LINE
5
17F
100
AcDbEntity
8
2
62
256
6
ByLayer
370
13
48
1
60
0
100
AcDbLine
10
98.5875
20
-8.5
30
0
11
127.15
21
-8.5
31
0
39
0
210
0
220
0
230
1
0
LINE
5
180
100
AcDbEntity
8
2
62
256
6
ByLayer
370
13
48
1
60
0
100
AcDbLine
10
98.5875
20
8.5
30
0
11
127.15
21
8.5
31
0
39
0
210
0
220
0
230
1
0
LINE
5
181
100
AcDbEntity
8
1
62
256
6
ByLayer
370
18
48
1
60
1
100
AcDbLine
10
123.975
20
-8.5
30
0
11
123.049425
21
-4.325003
31
0
39
0
210
0
220
0
230
1
0
LINE
5
182
100
AcDbEntity
8
1
62
256
6
ByLayer
370
18
48
1
60
1
100
AcDbLine
10
123.049425
20
-4.325003
30
0
11
124.900575
21
-4.324997
31
0
39
0
210
0
220
0
230
1
0
LINE
5
183
100
AcDbEntity
8
1
62
256
6
ByLayer
370
18
48
1
60
1
100
AcDbLine
10
124.900575
20
-4.324997
30
0
11
123.975
21
-8.5
31
0
39
0
210
0
220
0
230
1
0
LINE
5
184
100
AcDbEntity
8
1
62
256
6
ByLayer
370
18
48
1
60
1
100
AcDbLine
10
123.975
20
8.5
30
0
11
124.900575
21
4.325003
31
0
39
0
210
0
220
0
230
1
0
LINE
5
185
100
AcDbEntity
8
1
62
256
6
ByLayer
370
18
48
1
60
1
100
AcDbLine
10
124.900575
20
4.325003
30
0
11
123.049425
21
4.324997
31
0
39
0
210
0
220
0
230
1
0
LINE
5
186
100
AcDbEntity
8
1
62
256
6
ByLayer
370
18
48
1
60
1
100
AcDbLine
10
123.049425
20
4.324997
30
0
11
123.975
21
8.5
31
0
39
0
210
0
220
0
230
1
0
LINE
5
33A
100
AcDbEntity
8
1
62
256
6
ByLayer
370
18
48
1
60
1
100
AcDbLine
10
-35.725
20
-10
30
0
11
-36.650575
21
-5.825003
31
0
39
0
210
0
220
0
230
1
0
LINE
5
33B
100
AcDbEntity
8
1
62
256
6
ByLayer
370
18
48
1
60
1
100
AcDbLine
10
-36.650575
20
-5.825003
30
0
11
-34.799425
21
-5.824997
31
0
39
0
210
0
220
0
230
1
0
LINE
5
33C
100
AcDbEntity
8
1
62
256
6
ByLayer
370
18
48
1
60
1
100
AcDbLine
10
-34.799425
20
-5.824997
30
0
11
-35.725
21
-10
31
0
39
0
210
0
220
0
230
1
0
LINE
5
33E
100
AcDbEntity
8
1
62
256
6
ByLayer
370
18
48
1
60
1
100
AcDbLine
10
-35.725
20
10
30
0
11
-34.799425
21
5.825003
31
0
39
0
210
0
220
0
230
1
0
LINE
5
33F
100
AcDbEntity
8
1
62
256
6
ByLayer
370
18
48
1
60
1
100
AcDbLine
10
-34.799425
20
5.825003
30
0
11
-36.650575
21
5.824997
31
0
39
0
210
0
220
0
230
1
0
LINE
5
340
100
AcDbEntity
8
1
62
256
6
ByLayer
370
18
48
1
60
1
100
AcDbLine
10
-36.650575
20
5.824997
30
0
11
-35.725
21
10
31
0
39
0
210
0
220
0
230
1
0
LINE
5
344
100
AcDbEntity
8
1
62
256
6
ByLayer
370
18
48
1
60
1
100
AcDbLine
10
-45.725
20
16
30
0
11
-44.799425
21
11.825003
31
0
39
0
210
0
220
0
230
1
0
LINE
5
345
100
AcDbEntity
8
1
62
256
6
ByLayer
370
18
48
1
60
1
100
AcDbLine
10
-44.799425
20
11.825003
30
0
11
-46.650575
21
11.824997
31
0
39
0
210
0
220
0
230
1
0
LINE
5
346
100
AcDbEntity
8
1
62
256
6
ByLayer
370
18
48
1
60
1
100
AcDbLine
10
-46.650575
20
11.824997
30
0
11
-45.725
21
16
31
0
39
0
210
0
220
0
230
1
0
LINE
5
348
100
AcDbEntity
8
1
62
256
6
ByLayer
370
18
48
1
60
1
100
AcDbLine
10
-45.725
20
-16
30
0
11
-46.650575
21
-11.825003
31
0
39
0
210
0
220
0
230
1
0
LINE
5
349
100
AcDbEntity
8
1
62
256
6
ByLayer
370
18
48
1
60
1
100
AcDbLine
10
-46.650575
20
-11.825003
30
0
11
-44.799425
21
-11.824997
31
0
39
0
210
0
220
0
230
1
0
LINE
5
34A
100
AcDbEntity
8
1
62
256
6
ByLayer
370
18
48
1
60
1
100
AcDbLine
10
-44.799425
20
-11.824997
30
0
11
-45.725
21
-16
31
0
39
0
210
0
220
0
230
1
0
LINE
5
34E
100
AcDbEntity
8
1
62
256
6
ByLayer
370
18
48
1
60
1
100
AcDbLine
10
123.975
20
-8.5
30
0
11
123.049425
21
-4.325003
31
0
39
0
210
0
220
0
230
1
0
LINE
5
34F
100
AcDbEntity
8
1
62
256
6
ByLayer
370
18
48
1
60
1
100
AcDbLine
10
123.049425
20
-4.325003
30
0
11
124.900575
21
-4.324997
31
0
39
0
210
0
220
0
230
1
0
LINE
5
350
100
AcDbEntity
8
1
62
256
6
ByLayer
370
18
48
1
60
1
100
AcDbLine
10
124.900575
20
-4.324997
30
0
11
123.975
21
-8.5
31
0
39
0
210
0
220
0
230
1
0
LINE
5
352
100
AcDbEntity
8
1
62
256
6
ByLayer
370
18
48
1
60
1
100
AcDbLine
10
123.975
20
8.5
30
0
11
124.900575
21
4.325003
31
0
39
0
210
0
220
0
230
1
0
LINE
5
353
100
AcDbEntity
8
1
62
256
6
ByLayer
370
18
48
1
60
1
100
AcDbLine
10
124.900575
20
4.325003
30
0
11
123.049425
21
4.324997
31
0
39
0
210
0
220
0
230
1
0
LINE
5
354
100
AcDbEntity
8
1
62
256
6
ByLayer
370
18
48
1
60
1
100
AcDbLine
10
123.049425
20
4.324997
30
0
11
123.975
21
8.5
31
0
39
0
210
0
220
0
230
1
0
MTEXT
5
336
100
AcDbEntity
8
SK2
62
256
6
ByLayer
370
18
48
1
60
0
100
AcDbMText
10
-37.736672
20
24.600156
30
0
210
0
220
0
230
1
1
%%c
40
4.5
41
0
44
1.084337
50
90
71
7
72
5
7
iso_b_vert
0
MTEXT
5
339
100
AcDbEntity
8
SK2
62
256
6
ByLayer
370
18
48
1
60
0
100
AcDbMText
10
-37.736672
20
35.815
30
0
210
0
220
0
230
1
1
\W0.6740;20
40
4.5
41
0
44
1.084337
50
90
71
7
72
5
7
iso_b_vert
0
MTEXT
5
342
100
AcDbEntity
8
SK2
62
256
6
ByLayer
370
18
48
1
60
0
100
AcDbMText
10
-47.736672
20
-6.949399
30
0
210
0
220
0
230
1
1
%%c
40
4.5
41
0
44
1.084337
50
90
71
7
72
5
7
iso_b_vert
0
MTEXT
5
343
100
AcDbEntity
8
SK2
62
256
6
ByLayer
370
18
48
1
60
0
100
AcDbMText
10
-47.736672
20
4.265444
30
0
210
0
220
0
230
1
1
\W0.6740;32
40
4.5
41
0
44
1.084337
50
90
71
7
72
5
7
iso_b_vert
0
MTEXT
5
34C
100
AcDbEntity
8
2
62
256
6
ByLayer
370
18
48
1
60
0
100
AcDbMText
10
121.963328
20
23.100156
30
0
210
0
220
0
230
1
1
%%c
40
4.5
41
0
44
1.084337
50
90
71
7
72
5
7
iso_b_vert
0
MTEXT
5
34D
100
AcDbEntity
8
2
62
256
6
ByLayer
370
18
48
1
60
0
100
AcDbMText
10
121.963328
20
34.315
30
0
210
0
220
0
230
1
1
\W0.5321;17
40
4.5
41
0
44
1.084337
50
90
71
7
72
5
7
iso_b_vert
0
MTEXT
5
356
100
AcDbEntity
8
SK6
62
256
6
ByLayer
370
18
48
1
60
0
100
AcDbMText
10
9.308916
20
-94.592562
30
0
210
0
220
0
230
1
1
\W0.7583;DS20-D1700DM20-04
40
3.5
41
0
44
1.084337
50
0
71
7
72
5
7
iso_b_vert
0
HATCH
5
33D
100
AcDbEntity
8
SK2
62
256
6
ByLayer
370
13
48
1
60
0
100
AcDbHatch
10
0
20
0
30
0
210
0
220
0
230
1
2
ANSI31
70
0
71
0
91
1
92
5
93
3
72
1
10
-35.725
20
-9.99999999999997
11
-36.650575216528
21
-5.82500339982758
72
1
10
-36.650575216528
20
-5.82500339982758
11
-34.799424783472
21
-5.82499660017234
72
1
10
-34.799424783472
20
-5.82499660017234
11
-35.725
21
-9.99999999999997
97
0
75
0
76
1
52
0
41
0.0062
77
0
78
1
53
45
43
0
44
0
45
-0.0139193969876572
46
0.0139193969876572
79
0
47
0
98
1
10
0
20
0
0
HATCH
5
341
100
AcDbEntity
8
SK2
62
256
6
ByLayer
370
13
48
1
60
0
100
AcDbHatch
10
0
20
0
30
0
210
0
220
0
230
1
2
ANSI31
70
0
71
0
91
1
92
5
93
3
72
1
10
-35.725
20
10
11
-34.799424783472
21
5.82500339982764
72
1
10
-34.799424783472
20
5.82500339982764
11
-36.650575216528
21
5.8249966001724
72
1
10
-36.650575216528
20
5.8249966001724
11
-35.725
21
10
97
0
75
0
76
1
52
0
41
0.0062
77
0
78
1
53
45
43
0
44
0
45
-0.0139193969876572
46
0.0139193969876572
79
0
47
0
98
1
10
0
20
0
0
HATCH
5
347
100
AcDbEntity
8
SK2
62
256
6
ByLayer
370
13
48
1
60
0
100
AcDbHatch
10
0
20
0
30
0
210
0
220
0
230
1
2
ANSI31
70
0
71
0
91
1
92
5
93
3
72
1
10
-45.725
20
16
11
-44.799424783472
21
11.8250033998276
72
1
10
-44.799424783472
20
11.8250033998276
11
-46.650575216528
21
11.8249966001724
72
1
10
-46.650575216528
20
11.8249966001724
11
-45.725
21
16
97
0
75
0
76
1
52
0
41
0.0062
77
0
78
1
53
45
43
0
44
0
45
-0.0139193969876572
46
0.0139193969876572
79
0
47
0
98
1
10
0
20
0
0
HATCH
5
34B
100
AcDbEntity
8
SK2
62
256
6
ByLayer
370
13
48
1
60
0
100
AcDbHatch
10
0
20
0
30
0
210
0
220
0
230
1
2
ANSI31
70
0
71
0
91
1
92
5
93
3
72
1
10
-45.725
20
-16
11
-46.650575216528
21
-11.8250033998276
72
1
10
-46.650575216528
20
-11.8250033998276
11
-44.799424783472
21
-11.8249966001724
72
1
10
-44.799424783472
20
-11.8249966001724
11
-45.725
21
-16
97
0
75
0
76
1
52
0
41
0.0062
77
0
78
1
53
45
43
0
44
0
45
-0.0139193969876572
46
0.0139193969876572
79
0
47
0
98
1
10
0
20
0
0
HATCH
5
351
100
AcDbEntity
8
2
62
256
6
ByLayer
370
13
48
1
60
0
100
AcDbHatch
10
0
20
0
30
0
210
0
220
0
230
1
2
ANSI31
70
0
71
0
91
1
92
5
93
3
72
1
10
123.975
20
-8.50000000000011
11
123.049424783472
21
-4.32500339982772
72
1
10
123.049424783472
20
-4.32500339982772
11
124.900575216528
21
-4.32499660017248
72
1
10
124.900575216528
20
-4.32499660017248
11
123.975
21
-8.50000000000011
97
0
75
0
76
1
52
0
41
0.0062
77
0
78
1
53
45
43
0
44
0
45
-0.0139193969876572
46
0.0139193969876572
79
0
47
0
98
1
10
0
20
0
0
HATCH
5
355
100
AcDbEntity
8
2
62
256
6
ByLayer
370
13
48
1
60
0
100
AcDbHatch
10
0
20
0
30
0
210
0
220
0
230
1
2
ANSI31
70
0
71
0
91
1
92
5
93
3
72
1
10
123.975
20
8.49999999999989
11
124.900575216528
21
4.32500339982749
72
1
10
124.900575216528
20
4.32500339982749
11
123.049424783472
21
4.32499660017226
72
1
10
123.049424783472
20
4.32499660017226
11
123.975
21
8.49999999999989
97
0
75
0
76
1
52
0
41
0.0062
77
0
78
1
53
45
43
0
44
0
45
-0.0139193969876572
46
0.0139193969876572
79
0
47
0
98
1
10
0
20
0
0
DIMENSION
5
359
100
AcDbEntity
8
2
62
256
6
ByLayer
370
18
48
1
60
0
100
AcDbDimension
2
_U0
10
97
20
-64.85
30
0
11
48.5
21
-64.85
31
0
70
32
71
1
72
1
41
1
210
0
220
0
230
1
3
Standard
100
AcDbAlignedDimension
13
0
23
-16
33
0
14
97
24
-8.5
34
0
50
0
100
AcDbRotatedDimension
1001
ACAD
1000
DSTYLE
1002
{
1070
   371
1070
    13
1070
   372
1070
    13
1070
   170
1070
     0
1070
   144
1040
1.0
1070
   277
1070
     2
1070
   284
1070
     8
1070
   278
1070
    46
1070
   146
1040
0.777778
1070
   345
1005
16
1070
   347
1005
16
1070
   346
1005
16
1070
   344
1005
0
1070
   343
1005
0
1070
   172
1070
     1
1070
    76
1070
     0
1070
    75
1070
     0
1070
   282
1070
     0
1070
   281
1070
     0
1070
    71
1070
     0
1070
    74
1070
     0
1070
   279
1070
     0
1070
   173
1070
     1
1070
   340
1005
337
1070
   271
1070
     1
1070
   272
1070
     2
1070
    77
1070
     1
1070
    73
1070
     1
1070
   171
1070
     3
1070
   274
1070
     4
1070
   177
1070
   150
1070
   176
1070
     9
1070
   178
1070
    43
1070
    78
1070
     8
1070
    48
1040
-0.1
1070
    41
1040
4.175
1070
   147
1040
2.25
1070
    42
1040
1.5875
1070
    44
1040
3.175
1070
   140
1040
4.5
1002
}
1001
ACAD_DSTYLE_DIM_LINETYPE
1070
   380
1005
16
1001
ACAD_DSTYLE_DIM_EXT1_LINETYPE
1070
   381
1005
16
1001
ACAD_DSTYLE_DIM_EXT2_LINETYPE
1070
   382
1005
16
0
DIMENSION
5
372
100
AcDbEntity
8
SK2
62
256
6
ByLayer
370
18
48
1
60
0
100
AcDbDimension
2
_U1
10
0
20
-64.85
30
0
11
-7.5
21
-64.85
31
0
70
32
71
1
72
1
41
1
210
0
220
0
230
1
3
Standard
100
AcDbAlignedDimension
13
-15
23
-10
33
0
14
0
24
-16
34
0
50
0
100
AcDbRotatedDimension
1001
ACAD
1000
DSTYLE
1002
{
1070
   371
1070
    13
1070
   372
1070
    13
1070
   170
1070
     0
1070
   144
1040
1.0
1070
   277
1070
     2
1070
   284
1070
     8
1070
   278
1070
    46
1070
   146
1040
0.777778
1070
   345
1005
16
1070
   347
1005
16
1070
   346
1005
16
1070
   344
1005
0
1070
   343
1005
0
1070
   172
1070
     1
1070
    76
1070
     0
1070
    75
1070
     0
1070
   282
1070
     0
1070
   281
1070
     0
1070
    71
1070
     0
1070
    74
1070
     0
1070
   279
1070
     0
1070
   173
1070
     1
1070
   340
1005
337
1070
   271
1070
     1
1070
   272
1070
     2
1070
    77
1070
     1
1070
    73
1070
     1
1070
   171
1070
     3
1070
   274
1070
     4
1070
   177
1070
   150
1070
   176
1070
     9
1070
   178
1070
    43
1070
    78
1070
     8
1070
    48
1040
-0.1
1070
    41
1040
4.175
1070
   147
1040
2.25
1070
    42
1040
1.5875
1070
    44
1040
3.175
1070
   140
1040
4.5
1002
}
1001
ACAD_DSTYLE_DIM_LINETYPE
1070
   380
1005
16
1001
ACAD_DSTYLE_DIM_EXT1_LINETYPE
1070
   381
1005
16
1001
ACAD_DSTYLE_DIM_EXT2_LINETYPE
1070
   382
1005
16
0
DIMENSION
5
38B
100
AcDbEntity
8
SK2
62
256
6
ByLayer
370
18
48
1
60
0
100
AcDbDimension
2
_U2
10
13.6851
20
-54.85
30
0
11
55.34255
21
-54.85
31
0
70
32
71
1
72
1
41
1
210
0
220
0
230
1
3
Standard
100
AcDbAlignedDimension
13
97
23
-8.5
33
0
14
13.6851
24
-16
34
0
50
0
100
AcDbRotatedDimension
1001
ACAD
1000
DSTYLE
1002
{
1070
   371
1070
    13
1070
   372
1070
    13
1070
   170
1070
     0
1070
   144
1040
1.0
1070
   277
1070
     2
1070
   284
1070
     8
1070
   278
1070
    46
1070
   146
1040
0.777778
1070
   345
1005
16
1070
   347
1005
16
1070
   346
1005
16
1070
   344
1005
0
1070
   343
1005
0
1070
   172
1070
     1
1070
    76
1070
     0
1070
    75
1070
     0
1070
   282
1070
     0
1070
   281
1070
     0
1070
    71
1070
     0
1070
    74
1070
     0
1070
   279
1070
     0
1070
   173
1070
     1
1070
   340
1005
337
1070
   271
1070
     1
1070
   272
1070
     2
1070
    77
1070
     1
1070
    73
1070
     1
1070
   171
1070
     3
1070
   274
1070
     4
1070
   177
1070
   150
1070
   176
1070
     9
1070
   178
1070
    43
1070
    78
1070
     8
1070
    48
1040
-0.1
1070
    41
1040
4.175
1070
   147
1040
2.25
1070
    42
1040
1.5875
1070
    44
1040
3.175
1070
   140
1040
4.5
1002
}
1001
ACAD_DSTYLE_DIM_LINETYPE
1070
   380
1005
16
1001
ACAD_DSTYLE_DIM_EXT1_LINETYPE
1070
   381
1005
16
1001
ACAD_DSTYLE_DIM_EXT2_LINETYPE
1070
   382
1005
16
0
DIMENSION
5
3A3
100
AcDbEntity
8
SK2
62
256
6
ByLayer
370
18
48
1
60
0
100
AcDbDimension
2
_U3
10
97
20
-44.85
30
0
11
61.5
21
-44.85
31
0
70
32
71
1
72
1
41
1
210
0
220
0
230
1
3
Standard
100
AcDbAlignedDimension
13
26
23
-8.5
33
0
14
97
24
-8.5
34
0
50
0
100
AcDbRotatedDimension
1001
ACAD
1000
DSTYLE
1002
{
1070
   371
1070
    13
1070
   372
1070
    13
1070
   170
1070
     0
1070
   144
1040
1.0
1070
   277
1070
     2
1070
   284
1070
     8
1070
   278
1070
    46
1070
   146
1040
0.777778
1070
   345
1005
16
1070
   347
1005
16
1070
   346
1005
16
1070
   344
1005
0
1070
   343
1005
0
1070
   172
1070
     1
1070
    76
1070
     0
1070
    75
1070
     0
1070
   282
1070
     0
1070
   281
1070
     0
1070
    71
1070
     0
1070
    74
1070
     0
1070
   279
1070
     0
1070
   173
1070
     1
1070
   340
1005
337
1070
   271
1070
     1
1070
   272
1070
     2
1070
    77
1070
     1
1070
    73
1070
     1
1070
   171
1070
     3
1070
   274
1070
     4
1070
   177
1070
   150
1070
   176
1070
     9
1070
   178
1070
    43
1070
    78
1070
     8
1070
    48
1040
-0.1
1070
    41
1040
4.175
1070
   147
1040
2.25
1070
    42
1040
1.5875
1070
    44
1040
3.175
1070
   140
1040
4.5
1002
}
1001
ACAD_DSTYLE_DIM_LINETYPE
1070
   380
1005
16
1001
ACAD_DSTYLE_DIM_EXT1_LINETYPE
1070
   381
1005
16
1001
ACAD_DSTYLE_DIM_EXT2_LINETYPE
1070
   382
1005
16
0
DIMENSION
5
3BB
100
AcDbEntity
8
2
62
256
6
ByLayer
370
18
48
1
60
0
100
AcDbDimension
2
_U4
10
97
20
-34.85
30
0
11
119.350893
21
-34.85
31
0
70
32
71
1
72
1
41
1
210
0
220
0
230
1
3
Standard
100
AcDbAlignedDimension
13
96.5369
23
-4.25
33
0
14
97
24
0
34
0
50
0
100
AcDbRotatedDimension
1001
ACAD
1000
DSTYLE
1002
{
1070
   371
1070
    13
1070
   372
1070
    13
1070
   170
1070
     0
1070
   144
1040
1.0
1070
   277
1070
     2
1070
   284
1070
     8
1070
   278
1070
    46
1070
   146
1040
0.777778
1070
   345
1005
16
1070
   347
1005
16
1070
   346
1005
16
1070
   344
1005
0
1070
   343
1005
0
1070
   172
1070
     1
1070
    76
1070
     0
1070
    75
1070
     0
1070
   282
1070
     0
1070
   281
1070
     0
1070
    71
1070
     0
1070
    74
1070
     0
1070
   279
1070
     0
1070
   173
1070
     1
1070
   340
1005
337
1070
   271
1070
     2
1070
   272
1070
     2
1070
    77
1070
     1
1070
    73
1070
     1
1070
   171
1070
     3
1070
   274
1070
     4
1070
   177
1070
   150
1070
   176
1070
     9
1070
   178
1070
    43
1070
    78
1070
     8
1070
    48
1040
-0.1
1070
    41
1040
4.175
1070
   147
1040
2.25
1070
    42
1040
1.5875
1070
    44
1040
3.175
1070
   140
1040
4.5
1002
}
1001
ACAD_DSTYLE_DIM_LINETYPE
1070
   380
1005
16
1001
ACAD_DSTYLE_DIM_EXT1_LINETYPE
1070
   381
1005
16
1001
ACAD_DSTYLE_DIM_EXT2_LINETYPE
1070
   382
1005
16
0
ENDSEC
0
SECTION
2
OBJECTS
0
DICTIONARY
5
445
330
0
100
AcDbDictionary
280
0
281
1
3
ACAD_GROUP
350
446
3
ACAD_MLINESTYLE
350
447
0
DICTIONARY
5
446
330
0
100
AcDbDictionary
280
0
281
1
0
DICTIONARY
5
447
330
0
100
AcDbDictionary
280
0
281
1
3
Standard
350
18
0
MLINESTYLE
5
18
330
447
100
AcDbMlineStyle
2
Standard
70
0
3

62
256
51
90
52
90
71
2
49
-0.5
62
256
6
ByLayer
49
0.5
62
256
6
ByLayer
0
RASTERVARIABLES
5
433
330

100
AcDbRasterVariables
90
0
70
1
71
1
72
1
0
ENDSEC
0
EOF
