0
SECTION
2
HEADER
9
$ACADVER
1
AC1015
9
$DWGCODEPAGE
3
ANSI_1252
9
$HANDSEED
5
45b
9
$ANGBASE
50
0
9
$ANGDIR
70
0
9
$ATTMODE
70
1
9
$AUNITS
70
0
9
$AUPREC
70
0
9
$CECOLOR
62
256
9
$CELTSCALE
40
1
9
$CELTYPE
6
ByLayer
9
$CELWEIGHT
370
18
9
$CLAYER
8
0
9
$CMLJUST
70
0
9
$CMLSCALE
40
1
9
$CMLSTYLE
2
Standard
9
$DIMSTYLE
2
Standard
9
$TEXTSIZE
40
0.2
9
$TEXTSTYLE
7
Standard
9
$LUNITS
70
2
9
$LUPREC
70
4
9
$EXTNAMES
290
1
9
$INSUNITS
70
4
9
$LTSCALE
40
1
9
$LWDISPLAY
290
1
9
$PDMODE
70
0
9
$PDSIZE
40
0
9
$PLINEGEN
70
0
0
ENDSEC
0
SECTION
2
CLASSES
0
CLASS
1
RASTERVARIABLES
2
AcDbRasterVariables
3
ISM
90
0
280
0
281
0
0
ENDSEC
0
SECTION
2
TABLES
0
TABLE
2
VPORT
5
451
100
AcDbSymbolTable
0
VPORT
5
1
100
AcDbSymbolTableRecord
100
AcDbViewportTableRecord
2
*Active
70
0
10
0
20
0
11
1
21
1
12
-1
22
1
13
0
23
0
14
0.5
24
0.5
15
10
25
10
16
0
26
0
36
1
17
0
27
0
37
0
0
ENDTAB
0
TABLE
2
LTYPE
5
452
100
AcDbSymbolTable
0
LTYPE
5
14
100
AcDbSymbolTableRecord
100
AcDbLinetypeTableRecord
70
0
2
ByBlock
3

72
65
73
0
40
0
0
LTYPE
5
15
100
AcDbSymbolTableRecord
100
AcDbLinetypeTableRecord
70
0
2
ByLayer
3

72
65
73
0
40
0
0
LTYPE
5
16
100
AcDbSymbolTableRecord
100
AcDbLinetypeTableRecord
70
0
2
Continuous
3
Solid line
72
65
73
0
40
0
0
LTYPE
5
6E
100
AcDbSymbolTableRecord
100
AcDbLinetypeTableRecord
70
0
2
CENTER
3
____ _ ____ _ ____ _ ____
72
65
73
4
40
47.5
49
22
74
0
49
-8.5
74
0
49
8.5
74
0
49
-8.5
74
0
0
LTYPE
5
6F
100
AcDbSymbolTableRecord
100
AcDbLinetypeTableRecord
70
0
2
DASHED
3
__ __ __ __ __ __ __ __ __
72
65
73
2
40
25.72
49
12.86
74
0
49
-12.86
74
0
0
ENDTAB
0
TABLE
2
LAYER
5
453
100
AcDbSymbolTable
0
LAYER
5
10
100
AcDbSymbolTableRecord
100
AcDbLayerTableRecord
2
0
70
0
62
7
6
Continuous
290
1
370
-3
390
0
0
LAYER
5
71
100
AcDbSymbolTableRecord
100
AcDbLayerTableRecord
2
1
70
0
62
4
6
Continuous
290
1
370
-3
390
0
0
LAYER
5
73
100
AcDbSymbolTableRecord
100
AcDbLayerTableRecord
2
80
70
0
62
-6
6
Continuous
290
1
370
-3
390
0
0
LAYER
5
75
100
AcDbSymbolTableRecord
100
AcDbLayerTableRecord
2
81
70
0
62
-3
6
Continuous
290
1
370
-3
390
0
0
LAYER
5
143
100
AcDbSymbolTableRecord
100
AcDbLayerTableRecord
2
4
70
0
62
-2
6
CENTER
290
1
370
-3
390
0
0
LAYER
5
180
100
AcDbSymbolTableRecord
100
AcDbLayerTableRecord
2
2
70
0
62
7
6
Continuous
290
1
370
-3
390
0
0
LAYER
5
366
100
AcDbSymbolTableRecord
100
AcDbLayerTableRecord
2
Defpoints
70
0
62
7
6
Continuous
290
0
370
-3
390
0
0
LAYER
5
43d
100
AcDbSymbolTableRecord
100
AcDbLayerTableRecord
2
SK1
70
0
62
4
6
Continuous
290
1
370
-3
390
0
0
LAYER
5
43e
100
AcDbSymbolTableRecord
100
AcDbLayerTableRecord
2
SK4
70
0
62
2
6
CENTER
290
1
370
-3
390
0
0
LAYER
5
43f
100
AcDbSymbolTableRecord
100
AcDbLayerTableRecord
2
SK2
70
0
62
7
6
Continuous
290
1
370
-3
390
0
0
LAYER
5
440
100
AcDbSymbolTableRecord
100
AcDbLayerTableRecord
2
SK6
70
0
62
5
6
Continuous
290
1
370
-3
390
0
0
ENDTAB
0
TABLE
2
STYLE
5
454
100
AcDbSymbolTable
0
STYLE
5
11
100
AcDbSymbolTableRecord
100
AcDbTextStyleTableRecord
2
Standard
3
txt
70
0
71
0
40
0
41
1
42
0
50
0
0
STYLE
5
341
100
AcDbSymbolTableRecord
100
AcDbTextStyleTableRecord
2
iso_b_vert
3
simplex.shx
70
0
71
0
40
0
41
1
42
0
50
0
0
STYLE
5
342
100
AcDbSymbolTableRecord
100
AcDbTextStyleTableRecord
2
DWGDirectTextStyle
3
simplex
70
0
71
0
40
0
41
1
42
0
50
0
0
ENDTAB
0
TABLE
2
DIMSTYLE
5
455
100
AcDbSymbolTable
100
AcDbDimStyleTable
0
DIMSTYLE
105
27
100
AcDbSymbolTableRecord
100
AcDbDimStyleTableRecord
2
Standard
70
0
3
<>
41
0.18
42
0.0625
44
0.18
140
0.18
147
0.09
73
0
74
0
77
1
271
2
275
0
278
52
280
0
340
11
0
ENDTAB
0
TABLE
2
VIEW
5
456
100
AcDbSymbolTable
0
ENDTAB
0
TABLE
2
UCS
5
457
100
AcDbSymbolTable
0
ENDTAB
0
TABLE
2
APPID
5
458
100
AcDbSymbolTable
0
APPID
5
12
100
AcDbSymbolTableRecord
100
AcDbRegAppTableRecord
2
ACAD
70
0
0
APPID
5
362
100
AcDbSymbolTableRecord
100
AcDbRegAppTableRecord
2
ACAD_DSTYLE_DIMBREAK
70
0
0
APPID
5
3FC
100
AcDbSymbolTableRecord
100
AcDbRegAppTableRecord
2
ACAD_DSTYLE_DIM_LINETYPE
70
0
0
APPID
5
3FD
100
AcDbSymbolTableRecord
100
AcDbRegAppTableRecord
2
ACAD_DSTYLE_DIM_EXT1_LINETYPE
70
0
0
APPID
5
3FE
100
AcDbSymbolTableRecord
100
AcDbRegAppTableRecord
2
ACAD_DSTYLE_DIM_EXT2_LINETYPE
70
0
0
APPID
5
439
100
AcDbSymbolTableRecord
100
AcDbRegAppTableRecord
2
ACAD_MLEADERVER
70
0
0
ENDTAB
0
TABLE
2
BLOCK_RECORD
5
459
100
AcDbSymbolTable
0
BLOCK_RECORD
5
1F
100
AcDbSymbolTableRecord
100
AcDbBlockTableRecord
2
*Model_Space
340
0
70
0
0
BLOCK_RECORD
5
1B
100
AcDbSymbolTableRecord
100
AcDbBlockTableRecord
2
*Paper_Space
340
0
70
0
0
BLOCK_RECORD
5
23
100
AcDbSymbolTableRecord
100
AcDbBlockTableRecord
2
*Paper_Space0
340
0
70
0
0
BLOCK_RECORD
5
367
100
AcDbSymbolTableRecord
100
AcDbBlockTableRecord
2
*D1
340
0
70
0
0
BLOCK_RECORD
5
373
100
AcDbSymbolTableRecord
100
AcDbBlockTableRecord
2
_U0
340
0
70
0
0
BLOCK_RECORD
5
37F
100
AcDbSymbolTableRecord
100
AcDbBlockTableRecord
2
*D3
340
0
70
0
0
BLOCK_RECORD
5
38B
100
AcDbSymbolTableRecord
100
AcDbBlockTableRecord
2
_U1
340
0
70
0
0
BLOCK_RECORD
5
397
100
AcDbSymbolTableRecord
100
AcDbBlockTableRecord
2
*D5
340
0
70
0
0
BLOCK_RECORD
5
3A3
100
AcDbSymbolTableRecord
100
AcDbBlockTableRecord
2
_U2
340
0
70
0
0
BLOCK_RECORD
5
3AF
100
AcDbSymbolTableRecord
100
AcDbBlockTableRecord
2
*D7
340
0
70
0
0
BLOCK_RECORD
5
3BB
100
AcDbSymbolTableRecord
100
AcDbBlockTableRecord
2
_U3
340
0
70
0
0
BLOCK_RECORD
5
3C7
100
AcDbSymbolTableRecord
100
AcDbBlockTableRecord
2
*D9
340
0
70
0
0
BLOCK_RECORD
5
3D5
100
AcDbSymbolTableRecord
100
AcDbBlockTableRecord
2
_U4
340
0
70
0
0
ENDTAB
0
ENDSEC
0
SECTION
2
BLOCKS
0
BLOCK
5
20
100
AcDbEntity
8
0
100
AcDbBlockBegin
2
*Model_Space
70
0
10
0
20
0
30
0
3
*Model_Space
0
ENDBLK
5
21
100
AcDbEntity
8
0
100
AcDbBlockEnd
0
BLOCK
5
1C
100
AcDbEntity
8
0
100
AcDbBlockBegin
2
*Paper_Space
70
0
10
0
20
0
30
0
3
*Paper_Space
0
ENDBLK
5
1D
100
AcDbEntity
8
0
100
AcDbBlockEnd
0
BLOCK
5
24
100
AcDbEntity
8
0
100
AcDbBlockBegin
2
*Paper_Space0
70
0
10
0
20
0
30
0
3
*Paper_Space0
0
ENDBLK
5
25
100
AcDbEntity
8
0
100
AcDbBlockEnd
0
BLOCK
5
368
100
AcDbEntity
8
0
100
AcDbBlockBegin
2
*D1
70
1
10
0
20
0
30
0
3
*D1
0
LINE
5
36A
100
AcDbEntity
8
0
62
256
6
ByLayer
370
-2
48
1
60
0
100
AcDbLine
10
0
20
-17.5875
30
0
11
0
21
-68.035799
31
0
39
0
210
0
220
0
230
1
0
LINE
5
36B
100
AcDbEntity
8
0
62
256
6
ByLayer
370
-2
48
1
60
0
100
AcDbLine
10
151
20
-14.0875
30
0
11
151
21
-68.035799
31
0
39
0
210
0
220
0
230
1
0
LINE
5
36C
100
AcDbEntity
8
0
62
256
6
ByLayer
370
-2
48
1
60
0
100
AcDbLine
10
4.175
20
-64.860799
30
0
11
146.825
21
-64.860799
31
0
39
0
210
0
220
0
230
1
0
SOLID
5
36D
100
AcDbEntity
8
0
62
256
6
ByLayer
370
-1
48
1
60
0
100
AcDbTrace
10
4.175
20
-64.164966
30
0
11
4.175
21
-65.556632
31
0
12
0
22
-64.860799
32
0
13
0
23
-64.860799
33
0
39
0
210
0
220
0
230
1
0
SOLID
5
36E
100
AcDbEntity
8
0
62
256
6
ByLayer
370
-1
48
1
60
0
100
AcDbTrace
10
146.825
20
-65.556632
30
0
11
146.825
21
-64.164966
31
0
12
151
22
-64.860799
32
0
13
151
23
-64.860799
33
0
39
0
210
0
220
0
230
1
0
MTEXT
5
36F
100
AcDbEntity
8
0
62
256
6
ByLayer
370
18
48
1
60
0
100
AcDbMText
10
75.5
20
-55.467049
30
0
210
0
220
0
230
1
1
\A1;151
40
4.5
41
0
44
1
50
0
71
5
72
5
7
iso_b_vert
0
POINT
5
370
100
AcDbEntity
8
Defpoints
62
0
6
ByLayer
370
-1
48
1
60
0
100
AcDbPoint
10
0
20
-16
30
0
39
0
210
0
220
0
230
1
50
360
0
POINT
5
371
100
AcDbEntity
8
Defpoints
62
0
6
ByLayer
370
-1
48
1
60
0
100
AcDbPoint
10
151
20
-12.5
30
0
39
0
210
0
220
0
230
1
50
360
0
POINT
5
372
100
AcDbEntity
8
Defpoints
62
0
6
ByLayer
370
-1
48
1
60
0
100
AcDbPoint
10
151
20
-64.860799
30
0
39
0
210
0
220
0
230
1
50
360
0
ENDBLK
5
369
100
AcDbEntity
8
0
100
AcDbBlockEnd
0
BLOCK
5
37A
100
AcDbEntity
8
0
100
AcDbBlockBegin
2
_U0
70
0
10
0
20
0
30
0
3
_U0
0
MTEXT
5
374
100
AcDbEntity
8
2
62
256
6
ByLayer
370
18
48
1
60
0
100
AcDbMText
10
72.494215
20
-63.533127
30
0
210
0
220
0
230
1
1
\W0.5919;151
40
4.5
41
0
44
1.084337
50
0
71
7
72
5
7
iso_b_vert
0
LINE
5
375
100
AcDbEntity
8
2
62
256
6
ByLayer
370
13
48
1
60
0
100
AcDbLine
10
0
20
-17.5875
30
0
11
0
21
-68.035799
31
0
39
0
210
0
220
0
230
1
0
LINE
5
376
100
AcDbEntity
8
2
62
256
6
ByLayer
370
13
48
1
60
0
100
AcDbLine
10
151
20
-14.0875
30
0
11
151
21
-68.035799
31
0
39
0
210
0
220
0
230
1
0
LINE
5
377
100
AcDbEntity
8
2
62
256
6
ByLayer
370
13
48
1
60
0
100
AcDbLine
10
0
20
-64.860799
30
0
11
151
21
-64.860799
31
0
39
0
210
0
220
0
230
1
0
SOLID
5
378
100
AcDbEntity
8
2
62
256
6
ByLayer
370
18
48
1
60
0
100
AcDbTrace
10
0
20
-64.860799
30
0
11
4.174997
21
-63.935224
31
0
12
4.175003
22
-65.786374
32
0
13
4.175003
23
-65.786374
33
0
39
0
210
0
220
0
230
1
0
SOLID
5
379
100
AcDbEntity
8
2
62
256
6
ByLayer
370
18
48
1
60
0
100
AcDbTrace
10
151
20
-64.860799
30
0
11
146.825003
21
-65.786374
31
0
12
146.824997
22
-63.935224
32
0
13
146.824997
23
-63.935224
33
0
39
0
210
0
220
0
230
1
0
ENDBLK
5
37B
100
AcDbEntity
8
0
100
AcDbBlockEnd
0
BLOCK
5
380
100
AcDbEntity
8
0
100
AcDbBlockBegin
2
*D3
70
1
10
0
20
0
30
0
3
*D3
0
LINE
5
382
100
AcDbEntity
8
0
62
256
6
ByLayer
370
-2
48
1
60
0
100
AcDbLine
10
-56
20
-14.0875
30
0
11
-56
21
-68.035799
31
0
39
0
210
0
220
0
230
1
0
LINE
5
383
100
AcDbEntity
8
0
62
256
6
ByLayer
370
-2
48
1
60
0
100
AcDbLine
10
0
20
-17.5875
30
0
11
0
21
-68.035799
31
0
39
0
210
0
220
0
230
1
0
LINE
5
384
100
AcDbEntity
8
0
62
256
6
ByLayer
370
-2
48
1
60
0
100
AcDbLine
10
-51.825
20
-64.860799
30
0
11
-4.175
21
-64.860799
31
0
39
0
210
0
220
0
230
1
0
SOLID
5
385
100
AcDbEntity
8
0
62
256
6
ByLayer
370
-1
48
1
60
0
100
AcDbTrace
10
-51.825
20
-64.164966
30
0
11
-51.825
21
-65.556632
31
0
12
-56
22
-64.860799
32
0
13
-56
23
-64.860799
33
0
39
0
210
0
220
0
230
1
0
SOLID
5
386
100
AcDbEntity
8
0
62
256
6
ByLayer
370
-1
48
1
60
0
100
AcDbTrace
10
-4.175
20
-65.556632
30
0
11
-4.175
21
-64.164966
31
0
12
0
22
-64.860799
32
0
13
0
23
-64.860799
33
0
39
0
210
0
220
0
230
1
0
MTEXT
5
387
100
AcDbEntity
8
0
62
256
6
ByLayer
370
18
48
1
60
0
100
AcDbMText
10
-28
20
-55.467049
30
0
210
0
220
0
230
1
1
\A1;56
40
4.5
41
0
44
1
50
0
71
5
72
5
7
iso_b_vert
0
POINT
5
388
100
AcDbEntity
8
Defpoints
62
0
6
ByLayer
370
-1
48
1
60
0
100
AcDbPoint
10
-56
20
-12.5
30
0
39
0
210
0
220
0
230
1
50
360
0
POINT
5
389
100
AcDbEntity
8
Defpoints
62
0
6
ByLayer
370
-1
48
1
60
0
100
AcDbPoint
10
0
20
-16
30
0
39
0
210
0
220
0
230
1
50
360
0
POINT
5
38A
100
AcDbEntity
8
Defpoints
62
0
6
ByLayer
370
-1
48
1
60
0
100
AcDbPoint
10
0
20
-64.860799
30
0
39
0
210
0
220
0
230
1
50
360
0
ENDBLK
5
381
100
AcDbEntity
8
0
100
AcDbBlockEnd
0
BLOCK
5
392
100
AcDbEntity
8
0
100
AcDbBlockBegin
2
_U1
70
0
10
0
20
0
30
0
3
_U1
0
MTEXT
5
38C
100
AcDbEntity
8
SK2
62
256
6
ByLayer
370
18
48
1
60
0
100
AcDbMText
10
-30.449242
20
-63.533127
30
0
210
0
220
0
230
1
1
\W0.6740;56
40
4.5
41
0
44
1.084337
50
0
71
7
72
5
7
iso_b_vert
0
LINE
5
38D
100
AcDbEntity
8
SK2
62
256
6
ByLayer
370
13
48
1
60
0
100
AcDbLine
10
-56
20
-14.0875
30
0
11
-56
21
-68.035799
31
0
39
0
210
0
220
0
230
1
0
LINE
5
38E
100
AcDbEntity
8
SK2
62
256
6
ByLayer
370
13
48
1
60
0
100
AcDbLine
10
0
20
-17.5875
30
0
11
0
21
-68.035799
31
0
39
0
210
0
220
0
230
1
0
LINE
5
38F
100
AcDbEntity
8
SK2
62
256
6
ByLayer
370
13
48
1
60
0
100
AcDbLine
10
-56
20
-64.860799
30
0
11
0
21
-64.860799
31
0
39
0
210
0
220
0
230
1
0
SOLID
5
390
100
AcDbEntity
8
SK2
62
256
6
ByLayer
370
18
48
1
60
0
100
AcDbTrace
10
-56
20
-64.860799
30
0
11
-51.825003
21
-63.935224
31
0
12
-51.824997
22
-65.786374
32
0
13
-51.824997
23
-65.786374
33
0
39
0
210
0
220
0
230
1
0
SOLID
5
391
100
AcDbEntity
8
SK2
62
256
6
ByLayer
370
18
48
1
60
0
100
AcDbTrace
10
0
20
-64.860799
30
0
11
-4.174997
21
-65.786374
31
0
12
-4.175003
22
-63.935224
32
0
13
-4.175003
23
-63.935224
33
0
39
0
210
0
220
0
230
1
0
ENDBLK
5
393
100
AcDbEntity
8
0
100
AcDbBlockEnd
0
BLOCK
5
398
100
AcDbEntity
8
0
100
AcDbBlockBegin
2
*D5
70
1
10
0
20
0
30
0
3
*D5
0
LINE
5
39A
100
AcDbEntity
8
0
62
256
6
ByLayer
370
-2
48
1
60
0
100
AcDbLine
10
151
20
-14.0875
30
0
11
151
21
-58.035799
31
0
39
0
210
0
220
0
230
1
0
LINE
5
39B
100
AcDbEntity
8
0
62
256
6
ByLayer
370
-2
48
1
60
0
100
AcDbLine
10
6.4898
20
-17.5875
30
0
11
6.4898
21
-58.035799
31
0
39
0
210
0
220
0
230
1
0
LINE
5
39C
100
AcDbEntity
8
0
62
256
6
ByLayer
370
-2
48
1
60
0
100
AcDbLine
10
146.825
20
-54.860799
30
0
11
10.6648
21
-54.860799
31
0
39
0
210
0
220
0
230
1
0
SOLID
5
39D
100
AcDbEntity
8
0
62
256
6
ByLayer
370
-1
48
1
60
0
100
AcDbTrace
10
146.825
20
-55.556632
30
0
11
146.825
21
-54.164966
31
0
12
151
22
-54.860799
32
0
13
151
23
-54.860799
33
0
39
0
210
0
220
0
230
1
0
SOLID
5
39E
100
AcDbEntity
8
0
62
256
6
ByLayer
370
-1
48
1
60
0
100
AcDbTrace
10
10.6648
20
-54.164966
30
0
11
10.6648
21
-55.556632
31
0
12
6.4898
22
-54.860799
32
0
13
6.4898
23
-54.860799
33
0
39
0
210
0
220
0
230
1
0
MTEXT
5
39F
100
AcDbEntity
8
0
62
256
6
ByLayer
370
18
48
1
60
0
100
AcDbMText
10
78.7449
20
-45.467049
30
0
210
0
220
0
230
1
1
\A1;144.5
40
4.5
41
0
44
1
50
0
71
5
72
5
7
iso_b_vert
0
POINT
5
3A0
100
AcDbEntity
8
Defpoints
62
0
6
ByLayer
370
-1
48
1
60
0
100
AcDbPoint
10
151
20
-12.5
30
0
39
0
210
0
220
0
230
1
50
360
0
POINT
5
3A1
100
AcDbEntity
8
Defpoints
62
0
6
ByLayer
370
-1
48
1
60
0
100
AcDbPoint
10
6.4898
20
-16
30
0
39
0
210
0
220
0
230
1
50
360
0
POINT
5
3A2
100
AcDbEntity
8
Defpoints
62
0
6
ByLayer
370
-1
48
1
60
0
100
AcDbPoint
10
6.4898
20
-54.860799
30
0
39
0
210
0
220
0
230
1
50
360
0
ENDBLK
5
399
100
AcDbEntity
8
0
100
AcDbBlockEnd
0
BLOCK
5
3AA
100
AcDbEntity
8
0
100
AcDbBlockBegin
2
_U2
70
0
10
0
20
0
30
0
3
_U2
0
MTEXT
5
3A4
100
AcDbEntity
8
SK2
62
256
6
ByLayer
370
18
48
1
60
0
100
AcDbMText
10
72.10993
20
-53.533127
30
0
210
0
220
0
230
1
1
\W0.7355;144.5
40
4.5
41
0
44
1.084337
50
0
71
7
72
5
7
iso_b_vert
0
LINE
5
3A5
100
AcDbEntity
8
SK2
62
256
6
ByLayer
370
13
48
1
60
0
100
AcDbLine
10
151
20
-14.0875
30
0
11
151
21
-58.035799
31
0
39
0
210
0
220
0
230
1
0
LINE
5
3A6
100
AcDbEntity
8
SK2
62
256
6
ByLayer
370
13
48
1
60
0
100
AcDbLine
10
6.4898
20
-17.5875
30
0
11
6.4898
21
-58.035799
31
0
39
0
210
0
220
0
230
1
0
LINE
5
3A7
100
AcDbEntity
8
SK2
62
256
6
ByLayer
370
13
48
1
60
0
100
AcDbLine
10
151
20
-54.860799
30
0
11
6.4898
21
-54.860799
31
0
39
0
210
0
220
0
230
1
0
SOLID
5
3A8
100
AcDbEntity
8
SK2
62
256
6
ByLayer
370
18
48
1
60
0
100
AcDbTrace
10
151
20
-54.860799
30
0
11
146.825003
21
-55.786374
31
0
12
146.824997
22
-53.935224
32
0
13
146.824997
23
-53.935224
33
0
39
0
210
0
220
0
230
1
0
SOLID
5
3A9
100
AcDbEntity
8
SK2
62
256
6
ByLayer
370
18
48
1
60
0
100
AcDbTrace
10
6.4898
20
-54.860799
30
0
11
10.664797
21
-53.935224
31
0
12
10.664803
22
-55.786374
32
0
13
10.664803
23
-55.786374
33
0
39
0
210
0
220
0
230
1
0
ENDBLK
5
3AB
100
AcDbEntity
8
0
100
AcDbBlockEnd
0
BLOCK
5
3B0
100
AcDbEntity
8
0
100
AcDbBlockBegin
2
*D7
70
1
10
0
20
0
30
0
3
*D7
0
LINE
5
3B2
100
AcDbEntity
8
0
62
256
6
ByLayer
370
-2
48
1
60
0
100
AcDbLine
10
22
20
-14.0875
30
0
11
22
21
-48.035799
31
0
39
0
210
0
220
0
230
1
0
LINE
5
3B3
100
AcDbEntity
8
0
62
256
6
ByLayer
370
-2
48
1
60
0
100
AcDbLine
10
151
20
-14.0875
30
0
11
151
21
-48.035799
31
0
39
0
210
0
220
0
230
1
0
LINE
5
3B4
100
AcDbEntity
8
0
62
256
6
ByLayer
370
-2
48
1
60
0
100
AcDbLine
10
26.175
20
-44.860799
30
0
11
146.825
21
-44.860799
31
0
39
0
210
0
220
0
230
1
0
SOLID
5
3B5
100
AcDbEntity
8
0
62
256
6
ByLayer
370
-1
48
1
60
0
100
AcDbTrace
10
26.175
20
-44.164966
30
0
11
26.175
21
-45.556632
31
0
12
22
22
-44.860799
32
0
13
22
23
-44.860799
33
0
39
0
210
0
220
0
230
1
0
SOLID
5
3B6
100
AcDbEntity
8
0
62
256
6
ByLayer
370
-1
48
1
60
0
100
AcDbTrace
10
146.825
20
-45.556632
30
0
11
146.825
21
-44.164966
31
0
12
151
22
-44.860799
32
0
13
151
23
-44.860799
33
0
39
0
210
0
220
0
230
1
0
MTEXT
5
3B7
100
AcDbEntity
8
0
62
256
6
ByLayer
370
18
48
1
60
0
100
AcDbMText
10
86.5
20
-35.467049
30
0
210
0
220
0
230
1
1
\A1;129
40
4.5
41
0
44
1
50
0
71
5
72
5
7
iso_b_vert
0
POINT
5
3B8
100
AcDbEntity
8
Defpoints
62
0
6
ByLayer
370
-1
48
1
60
0
100
AcDbPoint
10
22
20
-12.5
30
0
39
0
210
0
220
0
230
1
50
360
0
POINT
5
3B9
100
AcDbEntity
8
Defpoints
62
0
6
ByLayer
370
-1
48
1
60
0
100
AcDbPoint
10
151
20
-12.5
30
0
39
0
210
0
220
0
230
1
50
360
0
POINT
5
3BA
100
AcDbEntity
8
Defpoints
62
0
6
ByLayer
370
-1
48
1
60
0
100
AcDbPoint
10
151
20
-44.860799
30
0
39
0
210
0
220
0
230
1
50
360
0
ENDBLK
5
3B1
100
AcDbEntity
8
0
100
AcDbBlockEnd
0
BLOCK
5
3C2
100
AcDbEntity
8
0
100
AcDbBlockBegin
2
_U3
70
0
10
0
20
0
30
0
3
_U3
0
MTEXT
5
3BC
100
AcDbEntity
8
SK2
62
256
6
ByLayer
370
18
48
1
60
0
100
AcDbMText
10
82.931801
20
-43.533127
30
0
210
0
220
0
230
1
1
\W0.6328;129
40
4.5
41
0
44
1.084337
50
0
71
7
72
5
7
iso_b_vert
0
LINE
5
3BD
100
AcDbEntity
8
SK2
62
256
6
ByLayer
370
13
48
1
60
0
100
AcDbLine
10
22
20
-14.0875
30
0
11
22
21
-48.035799
31
0
39
0
210
0
220
0
230
1
0
LINE
5
3BE
100
AcDbEntity
8
SK2
62
256
6
ByLayer
370
13
48
1
60
0
100
AcDbLine
10
151
20
-14.0875
30
0
11
151
21
-48.035799
31
0
39
0
210
0
220
0
230
1
0
LINE
5
3BF
100
AcDbEntity
8
SK2
62
256
6
ByLayer
370
13
48
1
60
0
100
AcDbLine
10
22
20
-44.860799
30
0
11
151
21
-44.860799
31
0
39
0
210
0
220
0
230
1
0
SOLID
5
3C0
100
AcDbEntity
8
SK2
62
256
6
ByLayer
370
18
48
1
60
0
100
AcDbTrace
10
22
20
-44.860799
30
0
11
26.174997
21
-43.935224
31
0
12
26.175003
22
-45.786374
32
0
13
26.175003
23
-45.786374
33
0
39
0
210
0
220
0
230
1
0
SOLID
5
3C1
100
AcDbEntity
8
SK2
62
256
6
ByLayer
370
18
48
1
60
0
100
AcDbTrace
10
151
20
-44.860799
30
0
11
146.825003
21
-45.786374
31
0
12
146.824997
22
-43.935224
32
0
13
146.824997
23
-43.935224
33
0
39
0
210
0
220
0
230
1
0
ENDBLK
5
3C3
100
AcDbEntity
8
0
100
AcDbBlockEnd
0
BLOCK
5
3C8
100
AcDbEntity
8
0
100
AcDbBlockBegin
2
*D9
70
1
10
0
20
0
30
0
3
*D9
0
LINE
5
3CA
100
AcDbEntity
8
0
62
256
6
ByLayer
370
-2
48
1
60
0
100
AcDbLine
10
150.335
20
-7.8375
30
0
11
150.335
21
-38.035799
31
0
39
0
210
0
220
0
230
1
0
LINE
5
3CB
100
AcDbEntity
8
0
62
256
6
ByLayer
370
-2
48
1
60
0
100
AcDbLine
10
151
20
-1.5875
30
0
11
151
21
-38.035799
31
0
39
0
210
0
220
0
230
1
0
LINE
5
3CC
100
AcDbEntity
8
0
62
256
6
ByLayer
370
-2
48
1
60
0
100
AcDbLine
10
151
20
-34.860799
30
0
11
187.351786
21
-34.860799
31
0
39
0
210
0
220
0
230
1
0
LINE
5
3CD
100
AcDbEntity
8
0
62
256
6
ByLayer
370
-2
48
1
60
0
100
AcDbLine
10
146.16
20
-34.860799
30
0
11
141.985
21
-34.860799
31
0
39
0
210
0
220
0
230
1
0
LINE
5
3CE
100
AcDbEntity
8
0
62
256
6
ByLayer
370
-2
48
1
60
0
100
AcDbLine
10
155.175
20
-34.860799
30
0
11
159.35
21
-34.860799
31
0
39
0
210
0
220
0
230
1
0
SOLID
5
3CF
100
AcDbEntity
8
0
62
256
6
ByLayer
370
-1
48
1
60
0
100
AcDbTrace
10
146.16
20
-35.556632
30
0
11
146.16
21
-34.164966
31
0
12
150.335
22
-34.860799
32
0
13
150.335
23
-34.860799
33
0
39
0
210
0
220
0
230
1
0
SOLID
5
3D0
100
AcDbEntity
8
0
62
256
6
ByLayer
370
-1
48
1
60
0
100
AcDbTrace
10
155.175
20
-34.164966
30
0
11
155.175
21
-35.556632
31
0
12
151
22
-34.860799
32
0
13
151
23
-34.860799
33
0
39
0
210
0
220
0
230
1
0
MTEXT
5
3D1
100
AcDbEntity
8
0
62
256
6
ByLayer
370
18
48
1
60
0
100
AcDbMText
10
173.350893
20
-25.467049
30
0
210
0
220
0
230
1
1
\A1;0.67
40
4.5
41
0
44
1
50
0
71
5
72
5
7
iso_b_vert
0
POINT
5
3D2
100
AcDbEntity
8
Defpoints
62
0
6
ByLayer
370
-1
48
1
60
0
100
AcDbPoint
10
150.335
20
-6.25
30
0
39
0
210
0
220
0
230
1
50
360
0
POINT
5
3D3
100
AcDbEntity
8
Defpoints
62
0
6
ByLayer
370
-1
48
1
60
0
100
AcDbPoint
10
151
20
0
30
0
39
0
210
0
220
0
230
1
50
360
0
POINT
5
3D4
100
AcDbEntity
8
Defpoints
62
0
6
ByLayer
370
-1
48
1
60
0
100
AcDbPoint
10
151
20
-34.860799
30
0
39
0
210
0
220
0
230
1
50
360
0
ENDBLK
5
3C9
100
AcDbEntity
8
0
100
AcDbBlockEnd
0
BLOCK
5
3DC
100
AcDbEntity
8
0
100
AcDbBlockBegin
2
_U4
70
0
10
0
20
0
30
0
3
_U4
0
MTEXT
5
3D6
100
AcDbEntity
8
2
62
256
6
ByLayer
370
18
48
1
60
0
100
AcDbMText
10
163.351
20
-33.533127
30
0
210
0
220
0
230
1
1
\W0.7346;0.66
40
4.5
41
0
44
1.084337
50
0
71
7
72
5
7
iso_b_vert
0
LINE
5
3D7
100
AcDbEntity
8
2
62
256
6
ByLayer
370
13
48
1
60
0
100
AcDbLine
10
150.335
20
-7.8375
30
0
11
150.335
21
-38.035799
31
0
39
0
210
0
220
0
230
1
0
LINE
5
3D8
100
AcDbEntity
8
2
62
256
6
ByLayer
370
13
48
1
60
0
100
AcDbLine
10
151
20
-1.5875
30
0
11
151
21
-38.035799
31
0
39
0
210
0
220
0
230
1
0
LINE
5
3D9
100
AcDbEntity
8
2
62
256
6
ByLayer
370
13
48
1
60
0
100
AcDbLine
10
173.673869
20
-34.860799
30
0
11
139.085
21
-34.860799
31
0
39
0
210
0
220
0
230
1
0
SOLID
5
3DA
100
AcDbEntity
8
2
62
256
6
ByLayer
370
18
48
1
60
0
100
AcDbTrace
10
150.335
20
-34.860799
30
0
11
146.160003
21
-35.786374
31
0
12
146.159997
22
-33.935224
32
0
13
146.159997
23
-33.935224
33
0
39
0
210
0
220
0
230
1
0
SOLID
5
3DB
100
AcDbEntity
8
2
62
256
6
ByLayer
370
18
48
1
60
0
100
AcDbTrace
10
151
20
-34.860799
30
0
11
155.174997
21
-33.935224
31
0
12
155.175003
22
-35.786374
32
0
13
155.175003
23
-35.786374
33
0
39
0
210
0
220
0
230
1
0
ENDBLK
5
3DD
100
AcDbEntity
8
0
100
AcDbBlockEnd
0
ENDSEC
0
SECTION
2
ENTITIES
0
ARC
5
189
100
AcDbEntity
8
SK1
62
256
6
ByLayer
370
13
48
1
60
0
100
AcDbCircle
39
0
10
-53.894505
20
-12.8967
30
0
40
0.800000000000004
210
0
220
0
230
1
100
AcDbArc
50
70.982
51
141
0
ARC
5
18A
100
AcDbEntity
8
SK1
62
256
6
ByLayer
370
13
48
1
60
0
100
AcDbCircle
39
0
10
-53.894505
20
12.8967
30
0
40
0.800000000000004
210
0
220
0
230
1
100
AcDbArc
50
219
51
289.018
0
ARC
5
18B
100
AcDbEntity
8
SK1
62
256
6
ByLayer
370
13
48
1
60
0
100
AcDbCircle
39
0
10
-0.15
20
12.64675
30
0
40
0.399999999999999
210
0
220
0
230
1
100
AcDbArc
50
270
51
292.024313
0
ARC
5
18C
100
AcDbEntity
8
SK1
62
256
6
ByLayer
370
13
48
1
60
0
100
AcDbCircle
39
0
10
-0.15
20
-12.64675
30
0
40
0.399999999999999
210
0
220
0
230
1
100
AcDbArc
50
67.975687
51
90
0
ARC
5
18D
100
AcDbEntity
8
SK1
62
256
6
ByLayer
370
13
48
1
60
0
100
AcDbCircle
39
0
10
-1.375195
20
12.64675
30
0
40
0.400000000000001
210
0
220
0
230
1
100
AcDbArc
50
245
51
270
0
ARC
5
18E
100
AcDbEntity
8
SK1
62
256
6
ByLayer
370
13
48
1
60
0
100
AcDbCircle
39
0
10
-1.375195
20
-12.64675
30
0
40
0.400000000000001
210
0
220
0
230
1
100
AcDbArc
50
90
51
115
0
ARC
5
18F
100
AcDbEntity
8
1
62
256
6
ByLayer
370
13
48
1
60
0
100
AcDbCircle
39
0
10
148.782471
20
11.66745
30
0
40
0.075
210
0
220
0
230
1
100
AcDbArc
50
8.974534
51
93
0
ARC
5
190
100
AcDbEntity
8
1
62
256
6
ByLayer
370
13
48
1
60
0
100
AcDbCircle
39
0
10
148.84032
20
5.282664
30
0
40
0.075
210
0
220
0
230
1
100
AcDbArc
50
273
51
352.543899
0
ARC
5
191
100
AcDbEntity
8
1
62
256
6
ByLayer
370
13
48
1
60
0
100
AcDbCircle
39
0
10
141.832227
20
11.166876
30
0
40
0.075
210
0
220
0
230
1
100
AcDbArc
50
72.361587
51
93
0
ARC
5
192
100
AcDbEntity
8
1
62
256
6
ByLayer
370
13
48
1
60
0
100
AcDbCircle
39
0
10
141.890075
20
4.78209
30
0
40
0.075
210
0
220
0
230
1
100
AcDbArc
50
273
51
304.780012
0
ELLIPSE
5
193
100
AcDbEntity
8
1
62
256
6
ByLayer
370
13
48
1
60
0
100
AcDbEllipse
10
140.30154
20
7.860773
30
0
11
-0.0183175846850289
21
0.349520337164084
31
0
210
0
220
0
230
1
40
0.995725
41
1.38753675533539
42
1.67551608191448
0
ELLIPSE
5
194
100
AcDbEntity
8
1
62
256
6
ByLayer
370
13
48
1
60
0
100
AcDbEllipse
10
140.846577
20
4.5274
30
0
11
0.0261679781216318
21
-0.499314767377291
31
0
210
0
220
0
230
1
40
0.995725
41
-1.46607657167555
42
-0.0690273159282594
0
ELLIPSE
5
195
100
AcDbEntity
8
1
62
256
6
ByLayer
370
13
48
1
60
0
100
AcDbEllipse
10
149.005358
20
5.20072
30
0
11
0.00523359562432562
21
-0.0998629534754439
31
0
210
0
220
0
230
1
40
0.995725
41
-1.75405589825347
42
0.0959931088596144
0
ELLIPSE
5
196
100
AcDbEntity
8
1
62
256
6
ByLayer
370
13
48
1
60
0
100
AcDbEllipse
10
141.604605
20
11.189333
30
0
11
-0.0435852065151418
21
-0.158111345855991
31
0
210
0
220
0
230
1
40
0.080185
41
-3.11490714533726
42
-1.54411081848785
0
ELLIPSE
5
197
100
AcDbEntity
8
1
62
256
6
ByLayer
370
13
48
1
60
0
100
AcDbEllipse
10
141.262201
20
4.232349
30
0
11
-0.00261679781214707
21
0.0499314767377278
31
0
210
0
220
0
230
1
40
0.995725
41
3.13286600733052
42
-2.08847636015735
0
ELLIPSE
5
198
100
AcDbEntity
8
1
62
256
6
ByLayer
370
13
48
1
60
0
100
AcDbEllipse
10
148.362012
20
3.762009
30
0
11
-0.0732703387401193
21
1.3980813486564
31
0
210
0
220
0
230
1
40
0.995725
41
-0.53850075769617
42
3.255769647147E-13
0
ELLIPSE
5
199
100
AcDbEntity
8
1
62
256
6
ByLayer
370
13
48
1
60
0
100
AcDbEllipse
10
149.058717
20
5.259723
30
0
11
-0.0435852065152958
21
-0.15811134585965
31
0
210
0
220
0
230
1
40
0.080185
41
-1.54411081856349
42
0.0266855082587808
0
ELLIPSE
5
19A
100
AcDbEntity
8
1
62
256
6
ByLayer
370
13
48
1
60
0
100
AcDbEllipse
10
149.807521
20
11.921173
30
0
11
-0.0183175846850304
21
0.349520337164113
31
0
210
0
220
0
230
1
40
0.995725
41
-1.46607657167524
42
-0.0690273159277779
0
ELLIPSE
5
19B
100
AcDbEntity
8
1
62
256
6
ByLayer
370
13
48
1
60
0
100
AcDbEllipse
10
150.293992
20
5.454591
30
0
11
-0.0435995591099964
21
-0.257560367413623
31
0
210
0
220
0
230
1
40
0.953152
41
0.302534642274336
42
1.61019614914785
0
ELLIPSE
5
19C
100
AcDbEntity
8
1
62
256
6
ByLayer
370
13
48
1
60
0
100
AcDbEllipse
10
141.173623
20
4.178559
30
0
11
0.00653729335064122
21
-0.149857478277354
31
0
210
0
220
0
230
1
40
0.092367
41
-1.56998679074977
42
0.000809536043604682
0
ELLIPSE
5
19D
100
AcDbEntity
8
1
62
256
6
ByLayer
370
13
48
1
60
0
100
AcDbEllipse
10
142.775147
20
3.469214
30
0
11
0.0863543278013829
21
-1.64773873234502
31
0
210
0
220
0
230
1
40
0.995725
41
-2.44852577650119
42
-2.08847636015721
0
ELLIPSE
5
19E
100
AcDbEntity
8
1
62
256
6
ByLayer
370
13
48
1
60
0
100
AcDbEllipse
10
141.186517
20
7.994734
30
0
11
-0.148731686424787
21
0.0194649801756622
31
0
210
0
220
0
230
1
40
0.016833
41
1.47983423648375
42
3.05063056327851
0
ELLIPSE
5
19F
100
AcDbEntity
8
1
62
256
6
ByLayer
370
13
48
1
60
0
100
AcDbEllipse
10
150.334109
20
8.586833
30
0
11
-0.0183175846850289
21
0.349520337164084
31
0
210
0
220
0
230
1
40
0.995725
41
-1.75405589825441
42
-1.46607657167532
0
ELLIPSE
5
1A0
100
AcDbEntity
8
1
62
256
6
ByLayer
370
13
48
1
60
0
100
AcDbEllipse
10
140.379875
20
11.005334
30
0
11
0.00785039343648927
21
-0.149794430213182
31
0
210
0
220
0
230
1
40
0.995725
41
-3.04559954473009
42
-1.7540558982547
0
ELLIPSE
5
1A1
100
AcDbEntity
8
1
62
256
6
ByLayer
370
13
48
1
60
0
100
AcDbEllipse
10
145.178219
20
11.240631
30
0
11
0.00392519671824468
21
-0.0748972151065918
31
0
210
0
220
0
230
1
40
0.092371
41
1.5707963267949
42
3.14159265358979
0
ELLIPSE
5
1A2
100
AcDbEntity
8
1
62
256
6
ByLayer
370
13
48
1
60
0
100
AcDbEllipse
10
149.391897
20
12.216224
30
0
11
0.0104671912486523
21
-0.199725906950911
31
0
210
0
220
0
230
1
40
0.995725
41
3.13286600733095
42
-2.08847636015684
0
ELLIPSE
5
1A3
100
AcDbEntity
8
1
62
256
6
ByLayer
370
13
48
1
60
0
100
AcDbEllipse
10
141.667188
20
11.248819
30
0
11
0.00523359562432562
21
-0.0998629534754439
31
0
210
0
220
0
230
1
40
0.995725
41
1.38753675533574
42
-3.04559954473074
0
ELLIPSE
5
1A4
100
AcDbEntity
8
1
62
256
6
ByLayer
370
13
48
1
60
0
100
AcDbEllipse
10
142.310535
20
12.687531
30
0
11
-0.0732703387401193
21
1.3980813486564
31
0
210
0
220
0
230
1
40
0.995725
41
2.60309189589296
42
3.14159265358943
0
ELLIPSE
5
1A5
100
AcDbEntity
8
1
62
256
6
ByLayer
370
13
48
1
60
0
100
AcDbEllipse
10
141.083388
20
5.926165
30
0
11
-0.0915879234251489
21
1.74760168582051
31
0
210
0
220
0
230
1
40
0.995725
41
3.10590021439802
42
3.13286600732981
0
ELLIPSE
5
1A6
100
AcDbEntity
8
1
62
256
6
ByLayer
370
13
48
1
60
0
100
AcDbEllipse
10
141.947819
20
12.668522
30
0
11
-1.35879251411189
21
0.956161859007402
31
0
210
0
220
0
230
1
40
0.728886
41
1.38754242657518
42
1.85477083935777
0
ELLIPSE
5
1A7
100
AcDbEntity
8
1
62
256
6
ByLayer
370
13
48
1
60
0
100
AcDbEllipse
10
150.693482
20
8.541797
30
0
11
0.148731686424787
21
-0.0194649801756591
31
0
210
0
220
0
230
1
40
0.016833
41
-1.66175841710532
42
-0.0909620903155166
0
ELLIPSE
5
1A8
100
AcDbEntity
8
1
62
256
6
ByLayer
370
13
48
1
60
0
100
AcDbEllipse
10
140.772562
20
11.743276
30
0
11
-0.422044512740251
21
0.259817086958439
31
0
210
0
220
0
230
1
40
0.479615
41
-1.66034215713928
42
-0.958391421167478
0
ELLIPSE
5
1A9
100
AcDbEntity
8
1
62
256
6
ByLayer
370
13
48
1
60
0
100
AcDbEllipse
10
148.649175
20
8.566061
30
0
11
-0.0327099726518389
21
0.624143459221609
31
0
210
0
220
0
230
1
40
0.995725
41
-1.75405589825431
42
-1.46607657167523
0
ELLIPSE
5
1AA
100
AcDbEntity
8
1
62
256
6
ByLayer
370
13
48
1
60
0
100
AcDbEllipse
10
150.288059
20
5.443964
30
0
11
0.00785039343648927
21
-0.149794430213182
31
0
210
0
220
0
230
1
40
0.995725
41
0.0959931088599074
42
1.38753675533548
0
ELLIPSE
5
1AB
100
AcDbEntity
8
1
62
256
6
ByLayer
370
13
48
1
60
0
100
AcDbEllipse
10
140.378554
20
10.994949
30
0
11
-0.0435995590860896
21
-0.257560367420541
31
0
210
0
220
0
230
1
40
0.953152
41
-2.83905801140509
42
-1.53139650454277
0
ELLIPSE
5
1AC
100
AcDbEntity
8
1
62
256
6
ByLayer
370
13
48
1
60
0
100
AcDbEllipse
10
148.642257
20
8.565699
30
0
11
0.0366351693702837
21
-0.69904067432819
31
0
210
0
220
0
230
1
40
0.995725
41
1.38753675533548
42
1.67551608191455
0
ELLIPSE
5
1AD
100
AcDbEntity
8
1
62
256
6
ByLayer
370
13
48
1
60
0
100
AcDbEllipse
10
149.385102
20
12.265934
30
0
11
-0.00653729335064164
21
0.149857478277354
31
0
210
0
220
0
230
1
40
0.092367
41
0.000809536043604682
42
1.57160586284002
0
ELLIPSE
5
1AE
100
AcDbEntity
8
1
62
256
6
ByLayer
370
13
48
1
60
0
100
AcDbEllipse
10
149.536665
20
12.271909
30
0
11
-0.00247703513348025
21
0.149979546261974
31
0
210
0
220
0
230
1
40
0.092312
41
0.00331037239777945
42
1.5741066991944
0
ELLIPSE
5
1AF
100
AcDbEntity
8
1
62
256
6
ByLayer
370
13
48
1
60
0
100
AcDbEllipse
10
150.165562
20
11.976572
30
0
11
0.148163665863162
21
0.0233993187505403
31
0
210
0
220
0
230
1
40
0.009655
41
0.0919985744735827
42
1.66279490126875
0
ELLIPSE
5
1B0
100
AcDbEntity
8
1
62
256
6
ByLayer
370
13
48
1
60
0
100
AcDbEllipse
10
142.788983
20
3.469939
30
0
11
-0.0785039343644134
21
1.49794430213186
31
0
210
0
220
0
230
1
40
0.995725
41
0.676440752305331
42
1.0531162934326
0
ELLIPSE
5
1B1
100
AcDbEntity
8
1
62
256
6
ByLayer
370
13
48
1
60
0
100
AcDbEllipse
10
141.101837
20
5.927132
30
0
11
0.0994383168621986
21
-1.89739611603366
31
0
210
0
220
0
230
1
40
0.995725
41
-0.0356924391921222
42
-0.0087266462603357
0
ELLIPSE
5
1B2
100
AcDbEntity
8
1
62
256
6
ByLayer
370
13
48
1
60
0
100
AcDbEllipse
10
147.560709
20
12.962681
30
0
11
0.0732703387405673
21
-1.39808134865638
31
0
210
0
220
0
230
1
40
0.995725
41
0
42
0.538500757696788
0
ELLIPSE
5
1B3
100
AcDbEntity
8
1
62
256
6
ByLayer
370
13
48
1
60
0
100
AcDbEllipse
10
149.683831
20
3.523194
30
0
11
0.465790010565035
21
-8.88780285931556
31
0
210
0
220
0
230
1
40
0.995725
41
3.07256533766189
42
3.10590021439804
0
ELLIPSE
5
1B4
100
AcDbEntity
8
1
62
256
6
ByLayer
370
13
48
1
60
0
100
AcDbEllipse
10
150.347946
20
8.587558
30
0
11
0.0261679781216303
21
-0.499314767377262
31
0
210
0
220
0
230
1
40
0.995725
41
1.38753675533542
42
1.67551608191453
0
ELLIPSE
5
1B5
100
AcDbEntity
8
1
62
256
6
ByLayer
370
13
48
1
60
0
100
AcDbEllipse
10
142.03029
20
7.883841
30
0
11
0.0366351693702837
21
-0.69904067432819
31
0
210
0
220
0
230
1
40
0.995725
41
-1.75405589825431
42
-1.4660765716752
0
ELLIPSE
5
1B6
100
AcDbEntity
8
1
62
256
6
ByLayer
370
13
48
1
60
0
100
AcDbEllipse
10
149.373448
20
12.215257
30
0
11
-0.00261679781214707
21
0.0499314767377278
31
0
210
0
220
0
230
1
40
0.995725
41
-0.00872664625926942
42
1.05311629343247
0
ELLIPSE
5
1B7
100
AcDbEntity
8
1
62
256
6
ByLayer
370
13
48
1
60
0
100
AcDbEllipse
10
141.832227
20
11.166876
30
0
11
-0.0227256651740319
21
-0.0714740802137236
31
0
210
0
220
0
230
1
40
0.086488
41
1.6033598620887
42
-3.10902911829928
0
ELLIPSE
5
1B8
100
AcDbEntity
8
1
62
256
6
ByLayer
370
13
48
1
60
0
100
AcDbEllipse
10
141.832227
20
11.166876
30
0
11
0.0743658432123935
21
-0.00973249008782954
31
0
210
0
220
0
230
1
40
0.016833
41
1.47983423648586
42
3.05063056328133
0
ELLIPSE
5
1B9
100
AcDbEntity
8
1
62
256
6
ByLayer
370
13
48
1
60
0
100
AcDbEllipse
10
147.878951
20
12.979359
30
0
11
-0.073270338740119
21
1.3980813486564
31
0
210
0
220
0
230
1
40
0.995725
41
-3.14159265358957
42
-2.08847636015688
0
ELLIPSE
5
1BA
100
AcDbEntity
8
1
62
256
6
ByLayer
370
13
48
1
60
0
100
AcDbEllipse
10
149.552261
20
10.521441
30
0
11
-0.0915879234251489
21
1.74760168582051
31
0
210
0
220
0
230
1
40
0.995725
41
-0.0356924391917782
42
-0.00872664625998658
0
ELLIPSE
5
1BB
100
AcDbEntity
8
1
62
256
6
ByLayer
370
13
48
1
60
0
100
AcDbEllipse
10
142.793595
20
3.47018
30
0
11
-0.0785039343644134
21
1.49794430213186
31
0
210
0
220
0
230
1
40
0.995725
41
0.676440752304977
42
1.05311629343227
0
ELLIPSE
5
1BC
100
AcDbEntity
8
1
62
256
6
ByLayer
370
13
48
1
60
0
100
AcDbEllipse
10
149.489699
20
12.270497
30
0
11
-0.00653729335064164
21
0.149857478277354
31
0
210
0
220
0
230
1
40
0.092367
41
0.000809536043604682
42
1.57160586284002
0
ELLIPSE
5
1BD
100
AcDbEntity
8
1
62
256
6
ByLayer
370
13
48
1
60
0
100
AcDbEllipse
10
140.319988
20
7.86174
30
0
11
0.0261679781216303
21
-0.499314767377262
31
0
210
0
220
0
230
1
40
0.995725
41
-1.75405589825467
42
-1.4660765716756
0
ELLIPSE
5
1BE
100
AcDbEntity
8
1
62
256
6
ByLayer
370
13
48
1
60
0
100
AcDbEllipse
10
141.320536
20
4.210629
30
0
11
-0.134175336907999
21
0.0670595180837505
31
0
210
0
220
0
230
1
40
0.045711
41
1.49035839035119
42
3.06115471714637
0
ELLIPSE
5
1BF
100
AcDbEntity
8
1
62
256
6
ByLayer
370
13
48
1
60
0
100
AcDbEllipse
10
148.275882
20
13.000161
30
0
11
-1.60310627174994
21
-1.23532012349586
31
0
210
0
220
0
230
1
40
0.479614
41
1.612251243391
42
1.66034210285127
0
ELLIPSE
5
1C0
100
AcDbEntity
8
1
62
256
6
ByLayer
370
13
48
1
60
0
100
AcDbEllipse
10
147.878951
20
12.979359
30
0
11
-0.0785039343644134
21
1.49794430213186
31
0
210
0
220
0
230
1
40
0.995725
41
-2.46515190128415
42
-2.08847636015687
0
ELLIPSE
5
1C1
100
AcDbEntity
8
1
62
256
6
ByLayer
370
13
48
1
60
0
100
AcDbEllipse
10
149.821357
20
11.921898
30
0
11
0.0261679781216318
21
-0.499314767377291
31
0
210
0
220
0
230
1
40
0.995725
41
1.67551608191453
42
3.07256533766193
0
ELLIPSE
5
1C2
100
AcDbEntity
8
1
62
256
6
ByLayer
370
13
48
1
60
0
100
AcDbEllipse
10
149.669994
20
3.522469
30
0
11
-0.457939617125745
21
8.73800842910252
31
0
210
0
220
0
230
1
40
0.995725
41
-0.069027315927894
42
-0.0356924391917466
0
ELLIPSE
5
1C3
100
AcDbEntity
8
1
62
256
6
ByLayer
370
13
48
1
60
0
100
AcDbEllipse
10
140.828128
20
4.526433
30
0
11
-0.0183175846850304
21
0.349520337164113
31
0
210
0
220
0
230
1
40
0.995725
41
1.67551608191455
42
3.07256533766193
0
ELLIPSE
5
1C4
100
AcDbEntity
8
1
62
256
6
ByLayer
370
13
48
1
60
0
100
AcDbEllipse
10
148.782471
20
11.66745
30
0
11
-0.0427820306099524
21
0.0616011189580928
31
0
210
0
220
0
230
1
40
0.078615
41
-1.61946336257571
42
-0.0486670357792553
0
ELLIPSE
5
1C5
100
AcDbEntity
8
1
62
256
6
ByLayer
370
13
48
1
60
0
100
AcDbEllipse
10
148.940235
20
11.785577
30
0
11
0.0052335956243263
21
-0.0998629534754569
31
0
210
0
220
0
230
1
40
0.995725
41
-2.46515190128552
42
-1.46607657167504
0
ELLIPSE
5
1C6
100
AcDbEntity
8
1
62
256
6
ByLayer
370
13
48
1
60
0
100
AcDbEllipse
10
140.965655
20
12.925137
30
0
11
-0.457939617125745
21
8.73800842910252
31
0
210
0
220
0
230
1
40
0.995725
41
3.07256533766189
42
3.10590021439803
0
ELLIPSE
5
1C7
100
AcDbEntity
8
1
62
256
6
ByLayer
370
13
48
1
60
0
100
AcDbEllipse
10
141.189751
20
7.750819
30
0
11
-0.148163665863161
21
-0.0233993187505466
31
0
210
0
220
0
230
1
40
0.009655
41
-3.04959407911251
42
-1.47879775232185
0
ELLIPSE
5
1C8
100
AcDbEntity
8
1
62
256
6
ByLayer
370
13
48
1
60
0
100
AcDbEllipse
10
141.890075
20
4.78209
30
0
11
0.0740818329315808
21
0.0116996593752701
31
0
210
0
220
0
230
1
40
0.009655
41
-3.04959407911499
42
-1.47879775232028
0
ELLIPSE
5
1C9
100
AcDbEntity
8
1
62
256
6
ByLayer
370
13
48
1
60
0
100
AcDbEllipse
10
150.692151
20
8.642232
30
0
11
0.148163665863162
21
0.0233993187505403
31
0
210
0
220
0
230
1
40
0.009655
41
0.0919985744699012
42
1.66279490126913
0
ELLIPSE
5
1CA
100
AcDbEntity
8
1
62
256
6
ByLayer
370
13
48
1
60
0
100
AcDbEllipse
10
142.793595
20
3.47018
30
0
11
-0.073270338740119
21
1.3980813486564
31
0
210
0
220
0
230
1
40
0.995725
41
0
42
1.05311629343228
0
ELLIPSE
5
1CB
100
AcDbEntity
8
1
62
256
6
ByLayer
370
13
48
1
60
0
100
AcDbEllipse
10
147.71983
20
12.97102
30
0
11
0.0732703387405673
21
-1.39808134865638
31
0
210
0
220
0
230
1
40
0.995725
41
1.00502546446212
42
1.00572917046054
0
ELLIPSE
5
1CC
100
AcDbEntity
8
1
62
256
6
ByLayer
370
13
48
1
60
0
100
AcDbEllipse
10
145.343192
20
8.225132
30
0
11
0.100225027560234
21
-1.91240745039649
31
0
210
0
220
0
230
1
40
0.995725
41
0
42
6.28318530717959
0
ELLIPSE
5
1CD
100
AcDbEntity
8
1
62
256
6
ByLayer
370
13
48
1
60
0
100
AcDbEllipse
10
142.011841
20
7.882874
30
0
11
0.044485562806773
21
-0.848835104541374
31
0
210
0
220
0
230
1
40
0.995725
41
-1.75405589825431
42
-1.46607657167522
0
ELLIPSE
5
1CE
100
AcDbEntity
8
1
62
256
6
ByLayer
370
13
48
1
60
0
100
AcDbEllipse
10
147.860502
20
12.978393
30
0
11
0.0863543278013829
21
-1.64773873234502
31
0
210
0
220
0
230
1
40
0.995725
41
0.693066877088597
42
1.05311629343258
0
ELLIPSE
5
1CF
100
AcDbEntity
8
1
62
256
6
ByLayer
370
13
48
1
60
0
100
AcDbEllipse
10
141.727699
20
4.663721
30
0
11
0.0052335956243263
21
-0.0998629534754569
31
0
210
0
220
0
230
1
40
0.995725
41
0.67644075230433
42
1.6755160819139
0
ELLIPSE
5
1D0
100
AcDbEntity
8
1
62
256
6
ByLayer
370
13
48
1
60
0
100
AcDbEllipse
10
141.242527
20
4.252546
30
0
11
0.0179426826980035
21
-0.342366781103051
31
0
210
0
220
0
230
1
40
0.995725
41
0.351165557477909
42
1.05311629343248
0
ELLIPSE
5
1D1
100
AcDbEntity
8
1
62
256
6
ByLayer
370
13
48
1
60
0
100
AcDbEllipse
10
149.82597
20
11.92214
30
0
11
0.0261679781216318
21
-0.499314767377291
31
0
210
0
220
0
230
1
40
0.995725
41
1.67551608191487
42
3.07256533766228
0
ELLIPSE
5
1D2
100
AcDbEntity
8
1
62
256
6
ByLayer
370
13
48
1
60
0
100
AcDbEllipse
10
148.84032
20
5.282664
30
0
11
0.0227256651740283
21
0.0714740802137248
31
0
210
0
220
0
230
1
40
0.086488
41
-3.10902911829489
42
-1.53823279150072
0
ELLIPSE
5
1D3
100
AcDbEntity
8
1
62
256
6
ByLayer
370
13
48
1
60
0
100
AcDbEllipse
10
141.28065
20
4.233316
30
0
11
0.0104671912486523
21
-0.199725906950911
31
0
210
0
220
0
230
1
40
0.995725
41
-0.00872664625955608
42
1.0531162934323
0
ELLIPSE
5
1D4
100
AcDbEntity
8
1
62
256
6
ByLayer
370
13
48
1
60
0
100
AcDbEllipse
10
150.352558
20
8.587799
30
0
11
0.0261679781216303
21
-0.499314767377262
31
0
210
0
220
0
230
1
40
0.995725
41
1.38753675533576
42
1.67551608191482
0
ELLIPSE
5
1D5
100
AcDbEntity
8
1
62
256
6
ByLayer
370
13
48
1
60
0
100
AcDbEllipse
10
150.292672
20
5.444206
30
0
11
0.00785039343648927
21
-0.149794430213182
31
0
210
0
220
0
230
1
40
0.995725
41
0.0959931088600968
42
1.38753675533567
0
ELLIPSE
5
1D6
100
AcDbEntity
8
1
62
256
6
ByLayer
370
13
48
1
60
0
100
AcDbEllipse
10
141.415638
20
7.786209
30
0
11
-0.0740818329315803
21
-0.0116996593752733
31
0
210
0
220
0
230
1
40
0.009655
41
0.0919985744723613
42
1.66279490126989
0
ELLIPSE
5
1D7
100
AcDbEntity
8
1
62
256
6
ByLayer
370
13
48
1
60
0
100
AcDbEllipse
10
147.923425
20
12.98169
30
0
11
-1.25140277683091
21
-1.09295639775739
31
0
210
0
220
0
230
1
40
0.728886
41
1.28682181422992
42
1.75405022699267
0
ELLIPSE
5
1D8
100
AcDbEntity
8
1
62
256
6
ByLayer
370
13
48
1
60
0
100
AcDbEllipse
10
149.827088
20
12.271844
30
0
11
0.00254430870317409
21
0.149978420091768
31
0
210
0
220
0
230
1
40
0.092151
41
0.00639829921150956
42
1.5771946260066
0
ELLIPSE
5
1D9
100
AcDbEntity
8
1
62
256
6
ByLayer
370
13
48
1
60
0
100
AcDbEllipse
10
148.623808
20
8.564732
30
0
11
0.044485562806773
21
-0.848835104541374
31
0
210
0
220
0
230
1
40
0.995725
41
1.38753675533548
42
1.67551608191457
0
ELLIPSE
5
1DA
100
AcDbEntity
8
1
62
256
6
ByLayer
370
13
48
1
60
0
100
AcDbEllipse
10
140.984103
20
12.926104
30
0
11
0.465790010565035
21
-8.88780285931556
31
0
210
0
220
0
230
1
40
0.995725
41
-0.0690273159282258
42
-0.0356924391920766
0
ELLIPSE
5
1DB
100
AcDbEntity
8
1
62
256
6
ByLayer
370
13
48
1
60
0
100
AcDbEllipse
10
149.43002
20
12.196994
30
0
11
0.0179426826980035
21
-0.342366781103051
31
0
210
0
220
0
230
1
40
0.995725
41
-2.79042709611124
42
-2.08847636015673
0
ELLIPSE
5
1DC
100
AcDbEntity
8
1
62
256
6
ByLayer
370
13
48
1
60
0
100
AcDbEllipse
10
141.604605
20
11.189333
30
0
11
-0.157303252982672
21
-0.0460731444167309
31
0
210
0
220
0
230
1
40
0.019548
41
-3.05924451049118
42
-1.48844818366483
0
ELLIPSE
5
1DD
100
AcDbEntity
8
1
62
256
6
ByLayer
370
13
48
1
60
0
100
AcDbEllipse
10
141.595362
20
12.65005
30
0
11
-1.72345114380675
21
1.06098305432369
31
0
210
0
220
0
230
1
40
0.479615
41
1.48125051891715
42
1.52934135872686
0
ELLIPSE
5
1DE
100
AcDbEntity
8
1
62
256
6
ByLayer
370
13
48
1
60
0
100
AcDbEllipse
10
149.188959
20
12.184361
30
0
11
-0.392574227935405
21
-0.302509446156013
31
0
210
0
220
0
230
1
40
0.479615
41
-2.18320123243144
42
-1.48125049651889
0
ELLIPSE
5
1DF
100
AcDbEntity
8
1
62
256
6
ByLayer
370
13
48
1
60
0
100
AcDbEllipse
10
141.732311
20
4.663962
30
0
11
0.0052335956243263
21
-0.0998629534754569
31
0
210
0
220
0
230
1
40
0.995725
41
0.676440752304288
42
1.67551608191419
0
ELLIPSE
5
1E0
100
AcDbEntity
8
1
62
256
6
ByLayer
370
13
48
1
60
0
100
AcDbEllipse
10
142.037208
20
7.884204
30
0
11
-0.0327099726518389
21
0.624143459221609
31
0
210
0
220
0
230
1
40
0.995725
41
1.38753675533548
42
1.67551608191456
0
ELLIPSE
5
1E1
100
AcDbEntity
8
1
62
256
6
ByLayer
370
13
48
1
60
0
100
AcDbEllipse
10
147.999296
20
3.743
30
0
11
-1.11484466973219
21
-1.17454029846416
31
0
210
0
220
0
230
1
40
0.721129
41
2.78578457529816
42
-3.03017231910314
0
ELLIPSE
5
1E2
100
AcDbEntity
8
1
62
256
6
ByLayer
370
13
48
1
60
0
100
AcDbEllipse
10
150.288059
20
5.443964
30
0
11
-0.0222321776354173
21
0.148343285246037
31
0
210
0
220
0
230
1
40
0.091945
41
1.56190521945488
42
3.13270154624834
0
ELLIPSE
5
1E3
100
AcDbEntity
8
1
62
256
6
ByLayer
370
13
48
1
60
0
100
AcDbEllipse
10
142.025677
20
7.8836
30
0
11
-0.0366351693700596
21
0.699040674328202
31
0
210
0
220
0
230
1
40
0.995725
41
1.38753675533548
42
1.6755160819146
0
ELLIPSE
5
1E4
100
AcDbEntity
8
1
62
256
6
ByLayer
370
13
48
1
60
0
100
AcDbEllipse
10
145.494328
20
5.208909
30
0
11
0.00392519671824468
21
-0.0748972151065918
31
0
210
0
220
0
230
1
40
0.092371
41
0
42
1.5707963267949
0
ELLIPSE
5
1E5
100
AcDbEntity
8
1
62
256
6
ByLayer
370
13
48
1
60
0
100
AcDbEllipse
10
149.57071
20
10.522408
30
0
11
0.0994383168621986
21
-1.89739611603366
31
0
210
0
220
0
230
1
40
0.995725
41
3.10590021439833
42
3.13286600733013
0
ELLIPSE
5
1E6
100
AcDbEntity
8
1
62
256
6
ByLayer
370
13
48
1
60
0
100
AcDbEllipse
10
149.688443
20
3.523436
30
0
11
0.465790010565035
21
-8.88780285931556
31
0
210
0
220
0
230
1
40
0.995725
41
3.07256533766221
42
3.10590021439836
0
ELLIPSE
5
1E7
100
AcDbEntity
8
1
62
256
6
ByLayer
370
13
48
1
60
0
100
AcDbEllipse
10
141.41326
20
7.965558
30
0
11
-0.0743658432123934
21
0.00973249008783109
31
0
210
0
220
0
230
1
40
0.016833
41
-1.66175841710431
42
-0.0909620903112957
0
ELLIPSE
5
1E8
100
AcDbEntity
8
1
62
256
6
ByLayer
370
13
48
1
60
0
100
AcDbEllipse
10
150.288059
20
5.443964
30
0
11
0.148731686424787
21
-0.0194649801756591
31
0
210
0
220
0
230
1
40
0.016833
41
-1.66175841710585
42
-0.0909620903081085
0
ELLIPSE
5
1E9
100
AcDbEntity
8
1
62
256
6
ByLayer
370
13
48
1
60
0
100
AcDbEllipse
10
149.566098
20
10.522166
30
0
11
0.0994383168621986
21
-1.89739611603366
31
0
210
0
220
0
230
1
40
0.995725
41
3.10590021439802
42
3.13286600732983
0
ELLIPSE
5
1EA
100
AcDbEntity
8
1
62
256
6
ByLayer
370
13
48
1
60
0
100
AcDbEllipse
10
159.932076
20
2E-05
30
0
11
-131.558993637633
21
0.0596792694206187
31
0
210
0
220
0
230
1
40
0.092638
41
-1.41937251951519
42
-1.40631797183659
0
ELLIPSE
5
1EB
100
AcDbEntity
8
1
62
256
6
ByLayer
370
13
48
1
60
0
100
AcDbEllipse
10
141.129482
20
5.185438
30
0
11
0.0837375299892197
21
-1.59780725560729
31
0
210
0
220
0
230
1
40
0.995725
41
-2.00229017063665
42
-1.25237984428102
0
ELLIPSE
5
1EC
100
AcDbEntity
8
1
62
256
6
ByLayer
370
13
48
1
60
0
100
AcDbEllipse
10
149.879134
20
-6.89404
30
0
11
-0.063992818191296
21
-0.515973493366863
31
0
210
0
220
0
230
1
40
0.113203
41
-1.64348990523245
42
-0.0726935784333299
0
ELLIPSE
5
1ED
100
AcDbEntity
8
1
62
256
6
ByLayer
370
13
48
1
60
0
100
AcDbEllipse
10
146.975991
20
-3.670716
30
0
11
-6.3366597093188
21
5.59391173396551
31
0
210
0
220
0
230
1
40
0.891963
41
-0.738119751791254
42
-0.664123885543351
0
ELLIPSE
5
1EE
100
AcDbEntity
8
1
62
256
6
ByLayer
370
13
48
1
60
0
100
AcDbEllipse
10
142.944454
20
4.843805
30
0
11
0.301478001314471
21
-0.953473132669941
31
0
210
0
220
0
230
1
40
0.089434
41
-1.4239531630665
42
-0.0232022394720014
0
ELLIPSE
5
1EF
100
AcDbEntity
8
1
62
256
6
ByLayer
370
13
48
1
60
0
100
AcDbEllipse
10
150.118971
20
0.131843
30
0
11
-0.0107340334187251
21
0.505609769127094
31
0
210
0
220
0
230
1
40
0.102245
41
-0.121179160208092
42
0.281480549464171
0
ELLIPSE
5
1F0
100
AcDbEntity
8
1
62
256
6
ByLayer
370
13
48
1
60
0
100
AcDbEllipse
10
139.053413
20
4.175401
30
0
11
-3.96879668592501
21
-0.704906654762601
31
0
210
0
220
0
230
1
40
0.015321
41
-3.0181731411424
42
-2.81830214125957
0
ELLIPSE
5
1F1
100
AcDbEntity
8
1
62
256
6
ByLayer
370
13
48
1
60
0
100
AcDbEllipse
10
139.186756
20
5.963109
30
0
11
-0.0261679781214711
21
0.499314767377287
31
0
210
0
220
0
230
1
40
0.995725
41
-2.00229017063669
42
-1.46607657167521
0
ELLIPSE
5
1F2
100
AcDbEntity
8
1
62
256
6
ByLayer
370
13
48
1
60
0
100
AcDbEllipse
10
150.175363
20
4.165922
30
0
11
-0.00958717571718672
21
0.50018068924523
31
0
210
0
220
0
230
1
40
0.10496
41
1.92334757553164
42
-2.78904140485361
0
ELLIPSE
5
1F3
100
AcDbEntity
8
1
62
256
6
ByLayer
370
13
48
1
60
0
100
AcDbEllipse
10
587.32692
20
0
30
0
11
-701.197764546355
21
9.49812588185322
31
0
210
0
220
0
230
1
40
0.010891
41
0.876141177952507
42
0.895694079273075
0
ELLIPSE
5
1F4
100
AcDbEntity
8
1
62
256
6
ByLayer
370
13
48
1
60
0
100
AcDbEllipse
10
150.750601
20
0
30
0
11
-24.7683629678981
21
10.4343038350738
31
0
210
0
220
0
230
1
40
0.244352
41
0.851362361731148
42
0.925011831758364
0
ELLIPSE
5
1F5
100
AcDbEntity
8
1
62
256
6
ByLayer
370
13
48
1
60
0
100
AcDbEllipse
10
239.571558
20
-0.035821
30
0
11
-177.06516899831
21
0.0801875986291938
31
0
210
0
220
0
230
1
40
0.082739
41
-0.962546965024823
42
-0.942828919997768
0
ELLIPSE
5
1F6
100
AcDbEntity
8
1
62
256
6
ByLayer
370
13
48
1
60
0
100
AcDbEllipse
10
141.017792
20
5.179585
30
0
11
-1.01885655598792
21
-1.2645332069002
31
0
210
0
220
0
230
1
40
0.966608
41
1.64275760563765
42
1.84161819337739
0
ELLIPSE
5
1F7
100
AcDbEntity
8
1
62
256
6
ByLayer
370
13
48
1
60
0
100
AcDbEllipse
10
138.812144
20
4.827101
30
0
11
-0.29369042064903
21
-0.95590058940195
31
0
210
0
220
0
230
1
40
0.0868
41
-1.53907871771946
42
-1.0500544007144
0
ELLIPSE
5
1F8
100
AcDbEntity
8
1
62
256
6
ByLayer
370
13
48
1
60
0
100
AcDbEllipse
10
140.756281
20
11.515865
30
0
11
-0.366351693700595
21
6.99040674328202
31
0
210
0
220
0
230
1
40
0.995725
41
2.79252680319571
42
2.92884667747945
0
ELLIPSE
5
1F9
100
AcDbEntity
8
1
62
256
6
ByLayer
370
13
48
1
60
0
100
AcDbEllipse
10
136
20
3.507635
30
0
11
-1.5
21
1.51595858262354E-15
31
0
210
0
220
0
230
1
40
0.753922
41
-3.00498926588572
42
-1.69926504928282
0
ELLIPSE
5
1FA
100
AcDbEntity
8
1
62
256
6
ByLayer
370
13
48
1
60
0
100
AcDbEllipse
10
150.243116
20
-1.103214
30
0
11
-1.37009987217276
21
2.19979876756767
31
0
210
0
220
0
230
1
40
0.37564
41
-0.934942055922846
42
-0.767908347840138
0
ELLIPSE
5
1FB
100
AcDbEntity
8
1
62
256
6
ByLayer
370
13
48
1
60
0
100
AcDbEllipse
10
151.103837
20
0
30
0
11
-1.47973366398188
21
-12.1862769509694
31
0
210
0
220
0
230
1
40
0.116681
41
-1.3187881794124
42
-0.085754745909868
0
ELLIPSE
5
1FC
100
AcDbEntity
8
1
62
256
6
ByLayer
370
13
48
1
60
0
100
AcDbEllipse
10
142.921343
20
4.378111
30
0
11
-0.318392676572213
21
-0.395166625663213
31
0
210
0
220
0
230
1
40
0.966608
41
-2.22744988288741
42
-1.29997445412805
0
ELLIPSE
5
1FD
100
AcDbEntity
8
1
62
256
6
ByLayer
370
13
48
1
60
0
100
AcDbEllipse
10
150.07954
20
0
30
0
11
-2.07101543356872
21
12.1862174854689
31
0
210
0
220
0
230
1
40
0.085368
41
1.55838211231938
42
1.69620167180067
0
ELLIPSE
5
1FE
100
AcDbEntity
8
1
62
256
6
ByLayer
370
13
48
1
60
0
100
AcDbEllipse
10
145.639221
20
-3.740773
30
0
11
-0.418687649943538
21
7.98903627803659
31
0
210
0
220
0
230
1
40
0.995725
41
0
42
0.252842860728337
0
ELLIPSE
5
1FF
100
AcDbEntity
8
1
62
256
6
ByLayer
370
13
48
1
60
0
100
AcDbEllipse
10
153.020342
20
1.230077
30
0
11
-3.89727283193286
21
-1.3220321869305
31
0
210
0
220
0
230
1
40
0.846218
41
-0.375424772191597
42
-0.227872703564476
0
ELLIPSE
5
200
100
AcDbEntity
8
1
62
256
6
ByLayer
370
13
48
1
60
0
100
AcDbEllipse
10
146.222344
20
6.453716
30
0
11
-1.01885656556672
21
-1.26453320159538
31
0
210
0
220
0
230
1
40
0.966608
41
0.713732917197366
42
1.1537088720015
0
ELLIPSE
5
201
100
AcDbEntity
8
1
62
256
6
ByLayer
370
13
48
1
60
0
100
AcDbEllipse
10
147.147374
20
4.599587
30
0
11
-0.318392668759038
21
-0.395166633312957
31
0
210
0
220
0
230
1
40
0.966608
41
-2.22744990414555
42
-1.9878838037086
0
ELLIPSE
5
202
100
AcDbEntity
8
1
62
256
6
ByLayer
370
13
48
1
60
0
100
AcDbEllipse
10
138.843147
20
5.945101
30
0
11
0.0523359562432624
21
-0.998629534754557
31
0
210
0
220
0
230
1
40
0.995725
41
1.13930248295314
42
1.67551608191456
0
ELLIPSE
5
203
100
AcDbEntity
8
1
62
256
6
ByLayer
370
13
48
1
60
0
100
AcDbEllipse
10
153.805062
20
0.443321
30
0
11
-4.02199526924234
21
-0.0172551173794387
31
0
210
0
220
0
230
1
40
0.988889
41
0.0199975382254872
42
0.151988417245218
0
ELLIPSE
5
204
100
AcDbEntity
8
1
62
256
6
ByLayer
370
13
48
1
60
0
100
AcDbEllipse
10
149.487373
20
-6.982367
30
0
11
-0.178193787683627
21
-1.48941962998898
31
0
210
0
220
0
230
1
40
0.117606
41
0
42
6.28318530717959
0
ELLIPSE
5
205
100
AcDbEntity
8
1
62
256
6
ByLayer
370
13
48
1
60
0
100
AcDbEllipse
10
140.608044
20
5.158111
30
0
11
-1.41137568352446
21
1.13717012634827
31
0
210
0
220
0
230
1
40
0.775936
41
3.10057582081422
42
-2.86962746622477
0
ELLIPSE
5
206
100
AcDbEntity
8
1
62
256
6
ByLayer
370
13
48
1
60
0
100
AcDbEllipse
10
141.067915
20
7.456678
30
0
11
0.0837375299892197
21
-1.59780725560729
31
0
210
0
220
0
230
1
40
0.995725
41
-1.98769354243493
42
-1.46607657167525
0
ELLIPSE
5
207
100
AcDbEntity
8
1
62
256
6
ByLayer
370
13
48
1
60
0
100
AcDbEllipse
10
136
20
2.554417
30
0
11
-0.246245598561041
21
7.15691338076
31
0
210
0
220
0
230
1
40
0.347614
41
-0.538636955258725
42
-0.431775564766141
0
ELLIPSE
5
208
100
AcDbEntity
8
1
62
256
6
ByLayer
370
13
48
1
60
0
100
AcDbEllipse
10
146.247692
20
-3.235543
30
0
11
-4.02199525033047
21
-0.0172550345260772
31
0
210
0
220
0
230
1
40
0.988889
41
3.00715774718989
42
-2.9896042156291
0
ELLIPSE
5
209
100
AcDbEntity
8
1
62
256
6
ByLayer
370
13
48
1
60
0
100
AcDbEllipse
10
145.168197
20
5.246892
30
0
11
0.0523359562432624
21
-0.998629534754557
31
0
210
0
220
0
230
1
40
0.092371
41
-1.10403098774749
42
3.07690827536824E-13
0
ELLIPSE
5
20A
100
AcDbEntity
8
1
62
256
6
ByLayer
370
13
48
1
60
0
100
AcDbEllipse
10
140.558997
20
0
30
0
11
-0.644256330482433
21
12.1873538730436
31
0
210
0
220
0
230
1
40
0.092638
41
-0.151423946053554
42
-0.00810812234592998
0
ELLIPSE
5
20B
100
AcDbEntity
8
1
62
256
6
ByLayer
370
13
48
1
60
0
100
AcDbEllipse
10
143.279443
20
4.396878
30
0
11
-3.96879666669168
21
-0.704906651279602
31
0
210
0
220
0
230
1
40
0.015321
41
-3.01817314091511
42
-2.81830214047253
0
ELLIPSE
5
20C
100
AcDbEntity
8
1
62
256
6
ByLayer
370
13
48
1
60
0
100
AcDbEllipse
10
149.80437
20
5.489864
30
0
11
-0.0191743514425095
21
1.00036137876499
31
0
210
0
220
0
230
1
40
0.10496
41
-3.13810725525339
42
-2.82054682600587
0
ELLIPSE
5
20D
100
AcDbEntity
8
1
62
256
6
ByLayer
370
13
48
1
60
0
100
AcDbEllipse
10
150.227079
20
-0.316229
30
0
11
-0.0214680668368762
21
1.01121953816794
31
0
210
0
220
0
230
1
40
0.102245
41
-0.12117916021335
42
0.476431239224817
0
ELLIPSE
5
20E
100
AcDbEntity
8
1
62
256
6
ByLayer
370
18
48
1
60
0
100
AcDbEllipse
10
146.00652
20
8.717048
30
0
11
-0.130868635435044
21
0.202898866255597
31
0
210
0
220
0
230
1
40
0.503053
41
0.218194667829687
42
1.57329528827966
0
ELLIPSE
5
20F
100
AcDbEntity
8
1
62
256
6
ByLayer
370
18
48
1
60
0
100
AcDbEllipse
10
146.054305
20
7.805249
30
0
11
-0.108943016668441
21
-0.215466862389856
31
0
210
0
220
0
230
1
40
0.503053
41
-2.92839590873236
42
-1.5732952882873
0
ELLIPSE
5
210
100
AcDbEntity
8
1
62
256
6
ByLayer
370
18
48
1
60
0
100
AcDbEllipse
10
145.196362
20
9.131741
30
0
11
-0.240336834257129
21
-0.012595519762486
31
0
210
0
220
0
230
1
40
0.506302
41
0.215695706345346
42
1.5707963267949
0
ELLIPSE
5
211
100
AcDbEntity
8
1
62
256
6
ByLayer
370
18
48
1
60
0
100
AcDbEllipse
10
145.244148
20
8.219942
30
0
11
0.0414082085796692
21
-0.790115687897806
31
0
210
0
220
0
230
1
40
0.995725
41
2.0943951023932
42
3.14159265358976
0
ELLIPSE
5
212
100
AcDbEntity
8
1
62
256
6
ByLayer
370
18
48
1
60
0
100
AcDbEllipse
10
145.336392
20
8.224776
30
0
11
0.0541703315095881
21
-1.03363149994771
31
0
210
0
220
0
230
1
40
0.995725
41
1.5707963267949
42
2.61799387799147
0
ELLIPSE
5
213
100
AcDbEntity
8
1
62
256
6
ByLayer
370
18
48
1
60
0
100
AcDbEllipse
10
145.336392
20
8.224776
30
0
11
0.0541703315095881
21
-1.03363149994771
31
0
210
0
220
0
230
1
40
0.995725
41
-2.6179938779915
42
-1.5707963267949
0
ELLIPSE
5
214
100
AcDbEntity
8
1
62
256
6
ByLayer
370
18
48
1
60
0
100
AcDbEllipse
10
145.336392
20
8.224776
30
0
11
0.0654199453040781
21
-1.2482869184432
31
0
210
0
220
0
230
1
40
0.995725
41
0
42
6.28318530717959
0
ELLIPSE
5
215
100
AcDbEntity
8
1
62
256
6
ByLayer
370
18
48
1
60
0
100
AcDbEllipse
10
145.318797
20
8.223854
30
0
11
0.0902795245196275
21
-1.72263594745161
31
0
210
0
220
0
230
1
40
0.995725
41
0
42
6.28318530717959
0
ELLIPSE
5
216
100
AcDbEntity
8
1
62
256
6
ByLayer
370
18
48
1
60
0
100
AcDbEllipse
10
145.336392
20
8.224776
30
0
11
0.0541703315095881
21
-1.03363149994771
31
0
210
0
220
0
230
1
40
0.995725
41
-1.5707963267949
42
-0.523598775598275
0
ELLIPSE
5
217
100
AcDbEntity
8
1
62
256
6
ByLayer
370
18
48
1
60
0
100
AcDbEllipse
10
145.336392
20
8.224776
30
0
11
0.0541703315095881
21
-1.03363149994771
31
0
210
0
220
0
230
1
40
0.995725
41
2.61799387799147
42
-2.6179938779915
0
ELLIPSE
5
218
100
AcDbEntity
8
1
62
256
6
ByLayer
370
18
48
1
60
0
100
AcDbEllipse
10
145.291933
20
7.308143
30
0
11
-0.240336834258028
21
-0.0125955197636852
31
0
210
0
220
0
230
1
40
0.506302
41
-1.5707963267949
42
-0.215695706344714
0
ELLIPSE
5
219
100
AcDbEntity
8
1
62
256
6
ByLayer
370
18
48
1
60
0
100
AcDbEllipse
10
146.054305
20
7.805249
30
0
11
-0.108943016673206
21
-0.215466862391467
31
0
210
0
220
0
230
1
40
0.503053
41
-1.57329528825548
42
-0.218194667825581
0
ELLIPSE
5
21A
100
AcDbEntity
8
1
62
256
6
ByLayer
370
18
48
1
60
0
100
AcDbEllipse
10
145.336392
20
8.224776
30
0
11
0.0541703315095881
21
-1.03363149994771
31
0
210
0
220
0
230
1
40
0.995725
41
0.523598775598326
42
1.5707963267949
0
ELLIPSE
5
21B
100
AcDbEntity
8
1
62
256
6
ByLayer
370
18
48
1
60
0
100
AcDbEllipse
10
146.00652
20
8.717048
30
0
11
-0.1308686354351
21
0.202898866259484
31
0
210
0
220
0
230
1
40
0.503053
41
1.57329528829869
42
2.92839590873429
0
ELLIPSE
5
21C
100
AcDbEntity
8
1
62
256
6
ByLayer
370
18
48
1
60
0
100
AcDbEllipse
10
145.244148
20
8.219942
30
0
11
0.0414082085796692
21
-0.790115687897806
31
0
210
0
220
0
230
1
40
0.995725
41
1.04719755119659
42
2.0943951023932
0
ELLIPSE
5
21D
100
AcDbEntity
8
1
62
256
6
ByLayer
370
18
48
1
60
0
100
AcDbEllipse
10
145.336392
20
8.224776
30
0
11
0.0541703315095881
21
-1.03363149994771
31
0
210
0
220
0
230
1
40
0.995725
41
-0.523598775598275
42
0.523598775598326
0
ELLIPSE
5
21E
100
AcDbEntity
8
1
62
256
6
ByLayer
370
18
48
1
60
0
100
AcDbEllipse
10
146.152197
20
8.267531
30
0
11
-0.0126496006239025
21
0.241368758550178
31
0
210
0
220
0
230
1
40
0.501982
41
3.08402190138075
42
-0.604617605996969
0
ELLIPSE
5
21F
100
AcDbEntity
8
1
62
256
6
ByLayer
370
18
48
1
60
0
100
AcDbEllipse
10
145.739563
20
7.453966
30
0
11
-0.201645978398229
21
-0.131849256880551
31
0
210
0
220
0
230
1
40
0.505213
41
0.578233011004798
42
-3.08653893110315
0
ELLIPSE
5
220
100
AcDbEntity
8
1
62
256
6
ByLayer
370
18
48
1
60
0
100
AcDbEllipse
10
145.656782
20
9.033507
30
0
11
-0.2143233408347
21
0.110049228609661
31
0
210
0
220
0
230
1
40
0.505213
41
3.08653893110274
42
-0.692117992087608
0
ELLIPSE
5
221
100
AcDbEntity
8
1
62
256
6
ByLayer
370
18
48
1
60
0
100
AcDbEllipse
10
145.244148
20
8.219942
30
0
11
0.0902795245196275
21
-1.72263594745161
31
0
210
0
220
0
230
1
40
0.995725
41
3.14158687387697
42
-1.62293302890918
0
ELLIPSE
5
222
100
AcDbEntity
8
1
62
256
6
ByLayer
370
18
48
1
60
0
100
AcDbEllipse
10
145.244148
20
8.219942
30
0
11
0.0902795245196275
21
-1.72263594745161
31
0
210
0
220
0
230
1
40
0.995725
41
-1.62293302890917
42
0
0
ELLIPSE
5
223
100
AcDbEntity
8
1
62
256
6
ByLayer
370
18
48
1
60
0
100
AcDbEllipse
10
144.748733
20
8.985918
30
0
11
-0.201645978398224
21
-0.131849256880555
31
0
210
0
220
0
230
1
40
0.505213
41
3.08150487165716
42
-2.56336325251492
0
ELLIPSE
5
224
100
AcDbEntity
8
1
62
256
6
ByLayer
370
18
48
1
60
0
100
AcDbEllipse
10
146.525415
20
-3.304128
30
0
11
-1.4
21
1.41489467711531E-15
31
0
210
0
220
0
230
1
40
0.994336
41
-0.489695501775158
42
-0.361184668474899
0
ELLIPSE
5
225
100
AcDbEntity
8
1
62
256
6
ByLayer
370
18
48
1
60
0
100
AcDbEllipse
10
145.244148
20
8.219942
30
0
11
0.0414082085796692
21
-0.790115687897806
31
0
210
0
220
0
230
1
40
0.995725
41
-0.770704124409229
42
0
0
ELLIPSE
5
226
100
AcDbEntity
8
1
62
256
6
ByLayer
370
18
48
1
60
0
100
AcDbEllipse
10
145.244148
20
8.219942
30
0
11
0.0414082085796692
21
-0.790115687897806
31
0
210
0
220
0
230
1
40
0.995725
41
-1.89406959464851
42
-1.23165158891772
0
ELLIPSE
5
227
100
AcDbEntity
8
1
62
256
6
ByLayer
370
18
48
1
60
0
100
AcDbEllipse
10
146.525415
20
-3.212951
30
0
11
-1.4
21
1.41489467711531E-15
31
0
210
0
220
0
230
1
40
0.994336
41
-0.536819334161155
42
-0.309250323727004
0
ELLIPSE
5
228
100
AcDbEntity
8
1
62
256
6
ByLayer
370
18
48
1
60
0
100
AcDbEllipse
10
146.525415
20
-2.838433
30
0
11
1.25
21
0
31
0
210
0
220
0
230
1
40
0.994336
41
0.383077585896133
42
3.14159258453428
0
ELLIPSE
5
229
100
AcDbEntity
8
1
62
256
6
ByLayer
370
18
48
1
60
0
100
AcDbEllipse
10
146.525415
20
-2.806548
30
0
11
-0.950000000000001
21
9.60107102328246E-16
31
0
210
0
220
0
230
1
40
0.994336
41
-3.14159217215877
42
-9.4025022961648E-16
0
ELLIPSE
5
22A
100
AcDbEntity
8
1
62
256
6
ByLayer
370
18
48
1
60
0
100
AcDbEllipse
10
146.525415
20
-2.806548
30
0
11
-0.950000000000001
21
9.60107102328246E-16
31
0
210
0
220
0
230
1
40
0.994336
41
0
42
0.627827674274422
0
ELLIPSE
5
22B
100
AcDbEntity
8
1
62
256
6
ByLayer
370
18
48
1
60
0
100
AcDbEllipse
10
146.525415
20
-2.806548
30
0
11
-0.950000000000001
21
9.60107102328246E-16
31
0
210
0
220
0
230
1
40
0.994336
41
3.0410614038967
42
3.14159207639286
0
ELLIPSE
5
22C
100
AcDbEntity
8
1
62
256
6
ByLayer
370
13
48
1
60
0
100
AcDbEllipse
10
141.967496
20
4.955236
30
0
11
0.0261679781216311
21
-0.499314767377278
31
0
210
0
220
0
230
1
40
0.092371
41
-0.752144203760952
42
-0.444248267805064
0
ELLIPSE
5
22D
100
AcDbEntity
8
1
62
256
6
ByLayer
370
13
48
1
60
0
100
AcDbEllipse
10
139.872712
20
6.10373
30
0
11
0.493878886210539
21
0.0779977291684675
31
0
210
0
220
0
230
1
40
0.009655
41
1.66279490126863
42
1.98583982387713
0
ELLIPSE
5
22E
100
AcDbEntity
8
1
62
256
6
ByLayer
370
13
48
1
60
0
100
AcDbEllipse
10
139.688642
20
7.269254
30
0
11
0.493878886210539
21
0.0779977291684675
31
0
210
0
220
0
230
1
40
0.009655
41
1.82031632992263
42
1.9849551080037
0
ELLIPSE
5
22F
100
AcDbEntity
8
1
62
256
6
ByLayer
370
13
48
1
60
0
100
AcDbEllipse
10
139.814377
20
5.577199
30
0
11
0.46479293375659
21
-0.184302818019536
31
0
210
0
220
0
230
1
40
0.038632
41
-2.02873541903097
42
-1.65486207236211
0
ELLIPSE
5
230
100
AcDbEntity
8
1
62
256
6
ByLayer
370
18
48
1
60
0
100
AcDbEllipse
10
145.244148
20
8.219942
30
0
11
-0.0414082085794159
21
0.790115687897819
31
0
210
0
220
0
230
1
40
0.995725
41
-3.03621793493417
42
-2.09439510239324
0
ELLIPSE
5
231
100
AcDbEntity
8
1
62
256
6
ByLayer
370
13
48
1
60
0
100
AcDbEllipse
10
140.229593
20
9.238773
30
0
11
-0.143594274757501
21
2.73994198426769
31
0
210
0
220
0
230
1
40
0.016833
41
0.314106799254537
42
0.882904136179304
0
ELLIPSE
5
232
100
AcDbEntity
8
1
62
256
6
ByLayer
370
13
48
1
60
0
100
AcDbEllipse
10
119.550079
20
0
30
0
11
-131.559106390462
21
0.0596825225148486
31
0
210
0
220
0
230
1
40
0.092638
41
-1.79234580561314
42
-1.73613520554647
0
ELLIPSE
5
233
100
AcDbEntity
8
1
62
256
6
ByLayer
370
13
48
1
60
0
100
AcDbEllipse
10
140.831995
20
5.169848
30
0
11
0.0837375299892197
21
-1.59780725560729
31
0
210
0
220
0
230
1
40
0.995725
41
0.0514385024983887
42
0.98569810401664
0
ELLIPSE
5
234
100
AcDbEntity
8
1
62
256
6
ByLayer
370
13
48
1
60
0
100
AcDbEllipse
10
140.848525
20
11.520699
30
0
11
0.418687649946099
21
-7.98903627803646
31
0
210
0
220
0
230
1
40
0.995725
41
5.82080532050488E-06
42
0.252842860728334
0
ELLIPSE
5
235
100
AcDbEntity
8
1
62
256
6
ByLayer
370
13
48
1
60
0
100
AcDbEllipse
10
146.364025
20
-3.018052
30
0
11
1.25
21
0
31
0
210
0
220
0
230
1
40
0.994336
41
2.31535415412844
42
2.90793698172062
0
ELLIPSE
5
236
100
AcDbEntity
8
1
62
256
6
ByLayer
370
13
48
1
60
0
100
AcDbEllipse
10
146.364025
20
-2.656684
30
0
11
1.25
21
0
31
0
210
0
220
0
230
1
40
0.994336
41
0
42
-3.14159258453428
0
ELLIPSE
5
237
100
AcDbEntity
8
1
62
256
6
ByLayer
370
13
48
1
60
0
100
AcDbEllipse
10
146.364025
20
-2.656684
30
0
11
-1.35
21
1.36436272436119E-15
31
0
210
0
220
0
230
1
40
0.994336
41
-2.94298531387921
42
-0.191735761256135
0
ELLIPSE
5
238
100
AcDbEntity
8
1
62
256
6
ByLayer
370
13
48
1
60
0
100
AcDbEllipse
10
140.785873
20
5.16743
30
0
11
-0.0575695518672367
21
1.09849248823003
31
0
210
0
220
0
230
1
40
0.995725
41
1.13930248295311
42
2.68071944023135
0
ELLIPSE
5
239
100
AcDbEntity
8
1
62
256
6
ByLayer
370
18
48
1
60
0
100
AcDbEllipse
10
145.244148
20
8.219942
30
0
11
0.0414082085796692
21
-0.790115687897806
31
0
210
0
220
0
230
1
40
0.995725
41
3.14159265358979
42
-2.35432971300049
0
ELLIPSE
5
23A
100
AcDbEntity
8
1
62
256
6
ByLayer
370
13
48
1
60
0
100
AcDbEllipse
10
140.377034
20
4.934865
30
0
11
-0.0702831055395403
21
0.251592029870504
31
0
210
0
220
0
230
1
40
0.953152
41
1.53139650456508
42
1.87271600622706
0
ELLIPSE
5
23B
100
AcDbEntity
8
1
62
256
6
ByLayer
370
13
48
1
60
0
100
AcDbEllipse
10
145.246331
20
8.220056
30
0
11
0.0919468753972561
21
-1.75445089745385
31
0
210
0
220
0
230
1
40
0.995725
41
-3.13286081871857
42
-1.62293276262282
0
ELLIPSE
5
23C
100
AcDbEntity
8
1
62
256
6
ByLayer
370
13
48
1
60
0
100
AcDbEllipse
10
145.246331
20
8.220056
30
0
11
0.0919468753972561
21
-1.75445089745385
31
0
210
0
220
0
230
1
40
0.995725
41
-1.62293276262282
42
0
0
ELLIPSE
5
23D
100
AcDbEntity
8
1
62
256
6
ByLayer
370
13
48
1
60
0
100
AcDbEllipse
10
145.246331
20
8.220056
30
0
11
0.0919468753972561
21
-1.75445089745385
31
0
210
0
220
0
230
1
40
0.995725
41
0
42
0.471233373569923
0
ELLIPSE
5
23E
100
AcDbEntity
8
1
62
256
6
ByLayer
370
13
48
1
60
0
100
AcDbEllipse
10
150.037261
20
4.931483
30
0
11
-0.0435995590996669
21
-0.257560367416576
31
0
210
0
220
0
230
1
40
0.953152
41
0.30253464223486
42
1.26887668597663
0
ELLIPSE
5
23F
100
AcDbEntity
8
1
62
256
6
ByLayer
370
13
48
1
60
0
100
AcDbEllipse
10
149.342786
20
12.238427
30
0
11
0.134175336907997
21
-0.0670595180837556
31
0
210
0
220
0
230
1
40
0.045711
41
-2.89614378097786
42
-1.65123426323879
0
ELLIPSE
5
240
100
AcDbEntity
8
1
62
256
6
ByLayer
370
13
48
1
60
0
100
AcDbEllipse
10
149.473571
20
8.698237
30
0
11
0.148163665863162
21
0.0233993187505403
31
0
210
0
220
0
230
1
40
0.009655
41
1.66279490126913
42
-3.04959407911743
0
ELLIPSE
5
241
100
AcDbEntity
8
1
62
256
6
ByLayer
370
13
48
1
60
0
100
AcDbEllipse
10
149.476805
20
8.454323
30
0
11
0.148731686424787
21
-0.0194649801756591
31
0
210
0
220
0
230
1
40
0.016833
41
-2.87064472766153
42
-1.66175841710532
0
ELLIPSE
5
242
100
AcDbEntity
8
1
62
256
6
ByLayer
370
13
48
1
60
0
100
AcDbEllipse
10
149.058717
20
5.259723
30
0
11
-0.157303252989574
21
-0.0460731444187869
31
0
210
0
220
0
230
1
40
0.019548
41
-1.48844818368449
42
0.0823481430935949
0
ELLIPSE
5
243
100
AcDbEntity
8
1
62
256
6
ByLayer
370
13
48
1
60
0
100
AcDbEllipse
10
149.256908
20
8.663331
30
0
11
0.0740818329315808
21
0.0116996593752701
31
0
210
0
220
0
230
1
40
0.009655
41
-1.47879775232191
42
-0.000215754845014784
0
ELLIPSE
5
244
100
AcDbEntity
8
1
62
256
6
ByLayer
370
13
48
1
60
0
100
AcDbEllipse
10
148.782471
20
11.66745
30
0
11
-0.0740818329315803
21
-0.0116996593752733
31
0
210
0
220
0
230
1
40
0.009655
41
1.66279490126789
42
3.14137689877667
0
ELLIPSE
5
245
100
AcDbEntity
8
1
62
256
6
ByLayer
370
13
48
1
60
0
100
AcDbEllipse
10
148.04377
20
3.74533
30
0
11
0.0732703387405673
21
-1.39808134865638
31
0
210
0
220
0
230
1
40
0.995725
41
2.2170719870179
42
2.88221331534774
0
ELLIPSE
5
246
100
AcDbEntity
8
1
62
256
6
ByLayer
370
13
48
1
60
0
100
AcDbEllipse
10
149.259286
20
8.483982
30
0
11
0.0743658432123935
21
-0.00973249008782954
31
0
210
0
220
0
230
1
40
0.016833
41
5.34639206652659E-05
42
1.47983423648284
0
ELLIPSE
5
247
100
AcDbEntity
8
1
62
256
6
ByLayer
370
13
48
1
60
0
100
AcDbEllipse
10
148.84032
20
5.282664
30
0
11
-0.0743658432123934
21
0.00973249008783109
31
0
210
0
220
0
230
1
40
0.016833
41
-3.14153918968461
42
-1.6617584171074
0
ELLIPSE
5
248
100
AcDbEntity
8
1
62
256
6
ByLayer
370
13
48
1
60
0
100
AcDbEllipse
10
145.271386
20
8.221369
30
0
11
0.097376230534423
21
-1.85804916495172
31
0
210
0
220
0
230
1
40
0.995725
41
-0.853733484678052
42
0
0
ELLIPSE
5
249
100
AcDbEntity
8
1
62
256
6
ByLayer
370
13
48
1
60
0
100
AcDbEllipse
10
145.271386
20
8.221369
30
0
11
0.097376230534423
21
-1.85804916495172
31
0
210
0
220
0
230
1
40
0.995725
41
0
42
-2.28787042844169
0
ELLIPSE
5
24A
100
AcDbEntity
8
1
62
256
6
ByLayer
370
13
48
1
60
0
100
AcDbEllipse
10
141.662576
20
11.248578
30
0
11
0.00523359562432562
21
-0.0998629534754439
31
0
210
0
220
0
230
1
40
0.995725
41
1.38753675533574
42
3.11837220864459
0
ELLIPSE
5
24B
100
AcDbEntity
8
1
62
256
6
ByLayer
370
13
48
1
60
0
100
AcDbEllipse
10
141.278221
20
4.183122
30
0
11
0.00653729335064122
21
-0.149857478277354
31
0
210
0
220
0
230
1
40
0.092367
41
-1.56998679074977
42
-0.0232440763782844
0
ELLIPSE
5
24C
100
AcDbEntity
8
1
62
256
6
ByLayer
370
13
48
1
60
0
100
AcDbEllipse
10
141.126658
20
4.177147
30
0
11
0.00247703513347986
21
-0.149979546261974
31
0
210
0
220
0
230
1
40
0.092312
41
-1.56748595439539
42
-0.0473509076689965
0
ELLIPSE
5
24D
100
AcDbEntity
8
1
62
256
6
ByLayer
370
13
48
1
60
0
100
AcDbEllipse
10
141.276038
20
4.233074
30
0
11
0.0104671912486523
21
-0.199725906950911
31
0
210
0
220
0
230
1
40
0.995725
41
0.0114010574348293
42
1.05311629343246
0
ELLIPSE
5
24E
100
AcDbEntity
8
1
62
256
6
ByLayer
370
13
48
1
60
0
100
AcDbEllipse
10
140.375263
20
11.005092
30
0
11
0.022232177635432
21
-0.148343285246035
31
0
210
0
220
0
230
1
40
0.091945
41
-3.05448529856659
42
-1.57968743413529
0
ELLIPSE
5
24F
100
AcDbEntity
8
1
62
256
6
ByLayer
370
13
48
1
60
0
100
AcDbEllipse
10
140.836234
20
4.177212
30
0
11
-0.00254430870317447
21
-0.149978420091768
31
0
210
0
220
0
230
1
40
0.092151
41
-1.56439802758319
42
-0.0688194685922349
0
ELLIPSE
5
250
100
AcDbEntity
8
1
62
256
6
ByLayer
370
13
48
1
60
0
100
AcDbEllipse
10
140.375263
20
11.005092
30
0
11
-0.148731686424787
21
0.0194649801756622
31
0
210
0
220
0
230
1
40
0.016833
41
0.263130755735051
42
1.47983423648391
0
ELLIPSE
5
251
100
AcDbEntity
8
1
62
256
6
ByLayer
370
13
48
1
60
0
100
AcDbEllipse
10
140.49776
20
4.472484
30
0
11
-0.148163665863161
21
-0.0233993187505466
31
0
210
0
220
0
230
1
40
0.009655
41
-1.4787977523211
42
0.091998574472972
0
ELLIPSE
5
252
100
AcDbEntity
8
1
62
256
6
ByLayer
370
13
48
1
60
0
100
AcDbEllipse
10
139.96984
20
7.90726
30
0
11
-0.148731686424787
21
0.0194649801756622
31
0
210
0
220
0
230
1
40
0.016833
41
0.263411998289924
42
1.47983423648432
0
ELLIPSE
5
253
100
AcDbEntity
8
1
62
256
6
ByLayer
370
13
48
1
60
0
100
AcDbEllipse
10
139.971171
20
7.806824
30
0
11
-0.148163665863161
21
-0.0233993187505466
31
0
210
0
220
0
230
1
40
0.009655
41
-1.47879775232072
42
-0.264819008248127
0
ELLIPSE
5
254
100
AcDbEntity
8
1
62
256
6
ByLayer
370
13
48
1
60
0
100
AcDbEllipse
10
140.317044
20
11.501379
30
0
11
-0.0435995590884283
21
-0.257560367419911
31
0
210
0
220
0
230
1
40
0.953152
41
-2.83905801139676
42
-1.74405583528107
0
ELLIPSE
5
255
100
AcDbEntity
8
1
62
256
6
ByLayer
370
13
48
1
60
0
100
AcDbEllipse
10
148.782471
20
11.66745
30
0
11
0.00392519671824468
21
-0.0748972151065918
31
0
210
0
220
0
230
1
40
0.995725
41
3.14156568617775
42
-2.58884312732116
0
ELLIPSE
5
256
100
AcDbEntity
8
1
62
256
6
ByLayer
370
13
48
1
60
0
100
AcDbEllipse
10
148.84032
20
5.282664
30
0
11
0.00392519671824468
21
-0.0748972151065918
31
0
210
0
220
0
230
1
40
0.995725
41
-0.358797302493893
42
1.91341724774267E-05
0
ELLIPSE
5
257
100
AcDbEntity
8
1
62
256
6
ByLayer
370
13
48
1
60
0
100
AcDbEllipse
10
141.890075
20
4.78209
30
0
11
0.00392519671824468
21
-0.0748972151065918
31
0
210
0
220
0
230
1
40
0.995725
41
-1.4660765716757
42
-2.89758365759642E-05
0
ELLIPSE
5
258
100
AcDbEntity
8
1
62
256
6
ByLayer
370
13
48
1
60
0
100
AcDbEllipse
10
141.832227
20
11.166876
30
0
11
0.00392519671824468
21
-0.0748972151065918
31
0
210
0
220
0
230
1
40
0.995725
41
-3.14157648440073
42
-1.7540558982547
0
ELLIPSE
5
259
100
AcDbEntity
8
1
62
256
6
ByLayer
370
13
48
1
60
0
100
AcDbEllipse
10
141.890075
20
4.78209
30
0
11
0.0427820306099553
21
-0.0616011189580908
31
0
210
0
220
0
230
1
40
0.078615
41
-3.97559176776918E-05
42
1.52212929101485
0
POINT
5
70
100
AcDbEntity
8
1
62
256
6
ByLayer
370
18
48
1
60
0
100
AcDbPoint
10
0
20
0
30
0
39
0
210
0
220
0
230
1
50
360
0
POINT
5
72
100
AcDbEntity
8
80
62
256
6
ByLayer
370
18
48
1
60
0
100
AcDbPoint
10
0
20
0
30
0
39
0
210
0
220
0
230
1
50
360
0
POINT
5
74
100
AcDbEntity
8
81
62
256
6
ByLayer
370
18
48
1
60
0
100
AcDbPoint
10
151
20
0
30
0
39
0
210
0
220
0
230
1
50
360
0
POINT
5
76
100
AcDbEntity
8
1
62
256
6
ByLayer
370
18
48
1
60
1
100
AcDbPoint
10
0
20
-16
30
0
39
0
210
0
220
0
230
1
50
360
0
POINT
5
77
100
AcDbEntity
8
1
62
256
6
ByLayer
370
18
48
1
60
1
100
AcDbPoint
10
151
20
-12.5
30
0
39
0
210
0
220
0
230
1
50
360
0
POINT
5
78
100
AcDbEntity
8
1
62
256
6
ByLayer
370
18
48
1
60
1
100
AcDbPoint
10
-56
20
-12.5
30
0
39
0
210
0
220
0
230
1
50
360
0
POINT
5
79
100
AcDbEntity
8
1
62
256
6
ByLayer
370
18
48
1
60
1
100
AcDbPoint
10
0
20
-16
30
0
39
0
210
0
220
0
230
1
50
360
0
POINT
5
7A
100
AcDbEntity
8
1
62
256
6
ByLayer
370
18
48
1
60
1
100
AcDbPoint
10
151
20
-12.5
30
0
39
0
210
0
220
0
230
1
50
360
0
POINT
5
7B
100
AcDbEntity
8
1
62
256
6
ByLayer
370
18
48
1
60
1
100
AcDbPoint
10
6.4898
20
-16
30
0
39
0
210
0
220
0
230
1
50
360
0
POINT
5
7C
100
AcDbEntity
8
1
62
256
6
ByLayer
370
18
48
1
60
1
100
AcDbPoint
10
22
20
-12.5
30
0
39
0
210
0
220
0
230
1
50
360
0
POINT
5
7D
100
AcDbEntity
8
1
62
256
6
ByLayer
370
18
48
1
60
1
100
AcDbPoint
10
151
20
-12.5
30
0
39
0
210
0
220
0
230
1
50
360
0
POINT
5
7E
100
AcDbEntity
8
1
62
256
6
ByLayer
370
18
48
1
60
1
100
AcDbPoint
10
150.335
20
-6.25
30
0
39
0
210
0
220
0
230
1
50
360
0
SPLINE
5
25A
100
AcDbEntity
8
SK1
62
256
6
ByLayer
370
13
48
1
60
0
100
AcDbSpline
70
4
71
3
72
71
73
67
40
0
40
0
40
0
40
0
40
0.0312500000000003
40
0.0312500000000003
40
0.0468750000000004
40
0.0468750000000004
40
0.0625000000000005
40
0.0625000000000005
40
0.0781250000000005
40
0.0781250000000005
40
0.0937500000000006
40
0.0937500000000006
40
0.125000000000001
40
0.125000000000001
40
0.140625000000001
40
0.140625000000001
40
0.156250000000001
40
0.156250000000001
40
0.187500000000001
40
0.187500000000001
40
0.218750000000001
40
0.218750000000001
40
0.250000000000001
40
0.250000000000001
40
0.312500000000001
40
0.312500000000001
40
0.375000000000002
40
0.375000000000002
40
0.406250000000002
40
0.406250000000002
40
0.437500000000002
40
0.437500000000002
40
0.500000000000002
40
0.562500000000002
40
0.562500000000002
40
0.593750000000002
40
0.593750000000002
40
0.625000000000002
40
0.625000000000002
40
0.687500000000002
40
0.687500000000002
40
0.750000000000002
40
0.750000000000002
40
0.781250000000002
40
0.781250000000002
40
0.812500000000001
40
0.812500000000001
40
0.843750000000001
40
0.843750000000001
40
0.859375000000001
40
0.859375000000001
40
0.875000000000001
40
0.875000000000001
40
0.906250000000001
40
0.906250000000001
40
0.921875000000001
40
0.921875000000001
40
0.937500000000001
40
0.937500000000001
40
0.953125
40
0.953125
40
0.96875
40
0.96875
40
0.984375
40
0.984375
40
1
40
1
40
1
40
1
41
1
10
-6.50000000009538
20
6.998572020241
30
0
41
1
10
-6.31571533004515
20
6.99857202024967
30
0
41
1
10
-6.13743573179397
20
6.97387109270571
30
0
41
1
10
-5.87807007883168
20
6.90321966844968
30
0
41
1
10
-5.79249754001009
20
6.87371201184882
30
0
41
1
10
-5.6293361169906
20
6.80569256211214
30
0
41
1
10
-5.55109427743696
20
6.76707109549224
30
0
41
1
10
-5.40055384552451
20
6.68141826816264
30
0
41
1
10
-5.32815416062539
20
6.63430399969613
30
0
41
1
10
-5.18925210594989
20
6.53244521628065
30
0
41
1
10
-5.12377844902809
20
6.47848470758717
30
0
41
1
10
-4.93748624451072
20
6.3085827822143
30
0
41
1
10
-4.8267115899061
20
6.1846770027818
30
0
41
1
10
-4.6761911608582
20
5.98533103669448
30
0
41
1
10
-4.62855056556253
20
5.91642308507087
30
0
41
1
10
-4.53922153852642
20
5.77634068999626
30
0
41
1
10
-4.49736020419419
20
5.70496414000004
30
0
41
1
10
-4.37902027112833
20
5.48717552116739
30
0
41
1
10
-4.30973548429904
20
5.33712034908373
30
0
41
1
10
-4.18597550641348
20
5.02855833309758
30
0
41
1
10
-4.13152858900258
20
4.87004242457732
30
0
41
1
10
-4.03445407647325
20
4.54538526361949
30
0
41
1
10
-3.99218870828807
20
4.38036541349672
30
0
41
1
10
-3.8806630298719
20
3.8815043831257
30
0
41
1
10
-3.82597090267365
20
3.54235643247728
30
0
41
1
10
-3.74047959020675
20
2.85273429591121
30
0
41
1
10
-3.70981920131712
20
2.50224542423098
30
0
41
1
10
-3.67535340381019
20
1.96866904162033
30
0
41
1
10
-3.66582822790039
20
1.78937635765021
30
0
41
1
10
-3.65011537208733
20
1.4316899722499
30
0
41
1
10
-3.64389707389739
20
1.25286356942047
30
0
41
1
10
-3.62929622079273
20
0.716432949039586
30
0
41
1
10
-3.62042488526302
20
0.0013212454733491
30
0
41
1
10
-3.62924953065914
20
-0.713539660438329
30
0
41
1
10
-3.64379211765163
20
-1.24958871665936
30
0
41
1
10
-3.64998697783565
20
-1.42825557634492
30
0
41
1
10
-3.66563837164477
20
-1.78555583380015
30
0
41
1
10
-3.67511786137808
20
-1.96455406997464
30
0
41
1
10
-3.70953832715443
20
-2.49881887149942
30
0
41
1
10
-3.74017720125841
20
-2.84981522124173
30
0
41
1
10
-3.82568979373829
20
-3.54056541591115
30
0
41
1
10
-3.88042216361382
20
-3.88033387025806
30
0
41
1
10
-3.99214803643076
20
-4.3802299370825
30
0
41
1
10
-4.03457139272209
20
-4.54577117988887
30
0
41
1
10
-4.13137165046336
20
-4.86952399241147
30
0
41
1
10
-4.18572933619737
20
-5.02789660502796
30
0
41
1
10
-4.30959364920602
20
-5.33681454089182
30
0
41
1
10
-4.37906730976638
20
-5.48736926922894
30
0
41
1
10
-4.49817195127201
20
-5.70640389482426
30
0
41
1
10
-4.54042880204571
20
-5.77832989383157
30
0
41
1
10
-4.62961647910464
20
-5.917996111653
30
0
41
1
10
-4.67665158712001
20
-5.98594616406356
30
0
41
1
10
-4.82600204453692
20
-6.18372658725997
30
0
41
1
10
-4.9364153318723
20
-6.30756945151506
30
0
41
1
10
-5.12387444002081
20
-6.47859050811525
30
0
41
1
10
-5.18982034314945
20
-6.53284983481481
30
0
41
1
10
-5.32716069139138
20
-6.63358751533818
30
0
41
1
10
-5.39883736540122
20
-6.68033932325883
30
0
41
1
10
-5.54894893429449
20
-6.76595018463183
30
0
41
1
10
-5.62776164553696
20
-6.80497288448146
30
0
41
1
10
-5.79153203652811
20
-6.87337183942776
30
0
41
1
10
-5.87542610285047
20
-6.90235315140345
30
0
41
1
10
-6.04744974985599
20
-6.94949997275469
30
0
41
1
10
-6.13557688289623
20
-6.9676718536326
30
0
41
1
10
-6.31646604914351
20
-6.99230795215647
30
0
41
1
10
-6.40810473763941
20
-6.99857202024529
30
0
41
1
10
-6.50000000009538
20
-6.99857202024097
30
0
0
SPLINE
5
25B
100
AcDbEntity
8
SK1
62
256
6
ByLayer
370
13
48
1
60
0
100
AcDbSpline
70
4
71
3
72
8
73
4
40
0
40
0
40
0
40
0
40
1
40
1
40
1
40
1
41
1
10
-56
20
4.99865085022955
30
0
41
1
10
-55.7014870272612
20
5.68522191153457
30
0
41
1
10
-55.3636283470437
20
6.34927205836655
30
0
41
1
10
-55
20
6.99857202024106
30
0
0
SPLINE
5
25C
100
AcDbEntity
8
SK1
62
256
6
ByLayer
370
13
48
1
60
0
100
AcDbSpline
70
4
71
3
72
18
73
14
40
0
40
0
40
0
40
0
40
0.125
40
0.125
40
0.25
40
0.25
40
0.375
40
0.375
40
0.5
40
0.5
40
0.75
40
0.75
40
1
40
1
40
1
40
1
41
1
10
-53.6338131992802
20
-6.3403281208584
30
0
41
1
10
-53.6738141958612
20
-6.31392800758456
30
0
41
1
10
-53.7178002036947
20
-6.29177848365677
30
0
41
1
10
-53.8095125775276
20
-6.2624499739369
30
0
41
1
10
-53.8584225384109
20
-6.25510027396828
30
0
41
1
10
-53.954380672524
20
-6.25785951942993
30
0
41
1
10
-54.0027856924058
20
-6.26797384899598
30
0
41
1
10
-54.0930673480266
20
-6.30196986632177
30
0
41
1
10
-54.1359763206845
20
-6.32601182555067
30
0
41
1
10
-54.2531658331207
20
-6.40990335070128
30
0
41
1
10
-54.3191410537013
20
-6.48264182751294
30
0
41
1
10
-54.4307896521674
20
-6.63931052396157
30
0
41
1
10
-54.4773867263329
20
-6.72477868031578
30
0
41
1
10
-54.5162221138916
20
-6.81202898183304
30
0
0
SPLINE
5
25D
100
AcDbEntity
8
1
62
256
6
ByLayer
370
18
48
1
60
0
100
AcDbSpline
70
4
71
1
72
4
73
2
40
0
40
0
40
1
40
1
41
1
10
150.166370100352
20
0.0723001516415707
30
0
41
1
10
150.466615309525
20
-0.127226464444505
30
0
0
SPLINE
5
25E
100
AcDbEntity
8
1
62
256
6
ByLayer
370
18
48
1
60
0
100
AcDbSpline
70
4
71
2
72
6
73
3
40
0
40
0
40
0
40
1
40
1
40
1
41
1
10
150.684757418258
20
-3.31075354213178
30
0
41
1
10
150.696112656548
20
-3.22499049778506
30
0
41
1
10
150.682503505788
20
-3.13955240413443
30
0
0
SPLINE
5
25F
100
AcDbEntity
8
1
62
256
6
ByLayer
370
18
48
1
60
0
100
AcDbSpline
70
4
71
1
72
4
73
2
40
0
40
0
40
1
40
1
41
1
10
150.992648177153
20
-3.40122773112279
30
0
41
1
10
150.974282064901
20
-3.28592548741958
30
0
0
SPLINE
5
260
100
AcDbEntity
8
1
62
256
6
ByLayer
370
18
48
1
60
0
100
AcDbSpline
70
4
71
1
72
4
73
2
40
0
40
0
40
1
40
1
41
1
10
150.536940327407
20
-7.03129022076541
30
0
41
1
10
150.887182729961
20
-4.38600406401378
30
0
0
SPLINE
5
261
100
AcDbEntity
8
1
62
256
6
ByLayer
370
18
48
1
60
0
100
AcDbSpline
70
4
71
2
72
6
73
3
40
0
40
0
40
0
40
1
40
1
40
1
41
1
10
149.784582439791
20
-6.8756202028901
30
0
41
1
10
149.820828203864
20
-6.86991195517118
30
0
41
1
10
149.856104174253
20
-6.85985402894192
30
0
0
SPLINE
5
262
100
AcDbEntity
8
1
62
256
6
ByLayer
370
18
48
1
60
0
100
AcDbSpline
70
4
71
1
72
4
73
2
40
0
40
0
40
1
40
1
41
1
10
150.939180077801
20
-3.06555561188765
30
0
41
1
10
150.872711299182
20
-2.64826537616003
30
0
0
SPLINE
5
263
100
AcDbEntity
8
1
62
256
6
ByLayer
370
18
48
1
60
0
100
AcDbSpline
70
4
71
1
72
4
73
2
40
0
40
0
40
1
40
1
41
1
10
150.977657051299
20
-3.70267598029085
30
0
41
1
10
150.99490208962
20
-3.57242886911453
30
0
0
SPLINE
5
264
100
AcDbEntity
8
1
62
256
6
ByLayer
370
18
48
1
60
0
100
AcDbSpline
70
4
71
1
72
4
73
2
40
0
40
0
40
1
40
1
41
1
10
150.887182729961
20
-4.38600406401378
30
0
41
1
10
150.946018303758
20
-3.94163488497114
30
0
0
SPLINE
5
265
100
AcDbEntity
8
1
62
256
6
ByLayer
370
18
48
1
60
0
100
AcDbSpline
70
4
71
3
72
12
73
8
40
0
40
0
40
0
40
0
40
0.264273670175433
40
0.528713999025559
40
0.793154327875685
40
0.925374492300747
40
1
40
1
40
1
40
1
41
1
10
150.536941208152
20
-7.03130839295486
30
0
41
1
10
150.532241213043
20
-7.06658920540661
30
0
41
1
10
150.511638558598
20
-7.1356259202885
30
0
41
1
10
150.451324360173
20
-7.22541626001686
30
0
41
1
10
150.380554674667
20
-7.28208533377244
30
0
41
1
10
150.322566751985
20
-7.3082793189632
30
0
41
1
10
150.296044544493
20
-7.31732509130612
30
0
41
1
10
150.286407700467
20
-7.32041513937844
30
0
0
SPLINE
5
266
100
AcDbEntity
8
1
62
256
6
ByLayer
370
18
48
1
60
0
100
AcDbSpline
70
4
71
1
72
4
73
2
40
0
40
0
40
1
40
1
41
1
10
150.482471296323
20
-0.198343079339509
30
0
41
1
10
150.182226087138
20
0.0011835367450033
30
0
0
SPLINE
5
267
100
AcDbEntity
8
1
62
256
6
ByLayer
370
18
48
1
60
0
100
AcDbSpline
70
4
71
3
72
12
73
8
40
0
40
0
40
0
40
0
40
0.124999999566195
40
0.24999999958259
40
0.499999999744946
40
0.749999999412652
40
1
40
1
40
1
40
1
41
1
10
150.361633672333
20
0.236799727597372
30
0
41
1
10
150.36600790733
20
0.221631787651603
30
0
41
1
10
150.374756377339
20
0.191295907705381
30
0
41
1
10
150.392253317855
20
0.130623043553044
30
0
41
1
10
150.414124493637
20
0.0547816827463521
30
0
41
1
10
150.440369903339
20
-0.0362252904103286
30
0
41
1
10
150.457866843136
20
-0.0968967585408222
30
0
41
1
10
150.466615313051
20
-0.127232492661904
30
0
0
SPLINE
5
268
100
AcDbEntity
8
1
62
256
6
ByLayer
370
18
48
1
60
0
100
AcDbSpline
70
4
71
1
72
4
73
2
40
0
40
0
40
1
40
1
41
1
10
149.851145200145
20
-7.43987708334816
30
0
41
1
10
149.784582439791
20
-6.87562020289008
30
0
0
SPLINE
5
269
100
AcDbEntity
8
1
62
256
6
ByLayer
370
18
48
1
60
0
100
AcDbSpline
70
4
71
1
72
4
73
2
40
0
40
0
40
1
40
1
41
1
10
149.856104174253
20
-6.85985402894192
30
0
41
1
10
149.922666934611
20
-7.42411090940035
30
0
0
SPLINE
5
26A
100
AcDbEntity
8
1
62
256
6
ByLayer
370
18
48
1
60
0
100
AcDbSpline
70
4
71
3
72
9
73
5
40
0
40
0
40
0
40
0
40
0.487896018775195
40
1
40
1
40
1
40
1
41
1
10
149.922666934611
20
-7.42411692539096
30
0
41
1
10
149.911154478782
20
-7.42721392464924
30
0
41
1
10
149.887558352996
20
-7.43356158714101
30
0
41
1
10
149.863477236021
20
-7.43774255724148
30
0
41
1
10
149.851145200145
20
-7.43988364867533
30
0
0
SPLINE
5
26B
100
AcDbEntity
8
1
62
256
6
ByLayer
370
18
48
1
60
0
100
AcDbSpline
70
4
71
3
72
8
73
4
40
0
40
0
40
0
40
0
40
1
40
1
40
1
40
1
41
1
10
151.000016230658
20
-3.48674706245512
30
0
41
1
10
151.000393649301
20
-3.5154147677267
30
0
41
1
10
150.998666439992
20
-3.5439922971039
30
0
41
1
10
150.995767837083
20
-3.57251585873618
30
0
0
SPLINE
5
26C
100
AcDbEntity
8
1
62
256
6
ByLayer
370
18
48
1
60
0
100
AcDbSpline
70
4
71
1
72
4
73
2
40
0
40
0
40
1
40
1
41
1
10
150.872711299182
20
-2.64826537616003
30
0
41
1
10
150.482471296323
20
-0.198343079339565
30
0
0
SPLINE
5
26D
100
AcDbEntity
8
1
62
256
6
ByLayer
370
18
48
1
60
0
100
AcDbSpline
70
4
71
1
72
4
73
2
40
0
40
0
40
1
40
1
41
1
10
150.946018303758
20
-3.94163488497114
30
0
41
1
10
150.977657051299
20
-3.70267598029085
30
0
0
SPLINE
5
26E
100
AcDbEntity
8
1
62
256
6
ByLayer
370
18
48
1
60
0
100
AcDbSpline
70
4
71
2
72
12
73
9
40
0
40
0
40
0
40
0.25
40
0.5
40
0.5
40
0.75
40
0.75
40
0.875
40
1
40
1
40
1
41
1
10
150.008341145986
20
-6.81644804424974
30
0
41
1
10
150.056825266135
20
-6.8026241948061
30
0
41
1
10
150.142555244756
20
-6.74852042219101
30
0
41
1
10
150.17682077162
20
-6.70930885304915
30
0
41
1
10
150.209591110724
20
-6.67180829388039
30
0
41
1
10
150.231157804881
20
-6.62446697443426
30
0
41
1
10
150.241173749079
20
-6.60248085034857
30
0
41
1
10
150.255456730901
20
-6.55314554568523
30
0
41
1
10
150.258873772936
20
-6.5273375512082
30
0
0
SPLINE
5
26F
100
AcDbEntity
8
1
62
256
6
ByLayer
370
18
48
1
60
0
100
AcDbSpline
70
4
71
1
72
4
73
2
40
0
40
0
40
1
40
1
41
1
10
150.974282064901
20
-3.28592548741958
30
0
41
1
10
150.939180077801
20
-3.06555561188765
30
0
0
SPLINE
5
270
100
AcDbEntity
8
1
62
256
6
ByLayer
370
18
48
1
60
0
100
AcDbSpline
70
4
71
2
72
6
73
3
40
0
40
0
40
0
40
1
40
1
40
1
41
1
10
150.182226087138
20
0.0011835367450317
30
0
41
1
10
150.176485322079
20
0.0372239945405965
30
0
41
1
10
150.166370100352
20
0.0723001516415422
30
0
0
SPLINE
5
271
100
AcDbEntity
8
1
62
256
6
ByLayer
370
18
48
1
60
0
100
AcDbSpline
70
4
71
3
72
12
73
8
40
0
40
0
40
0
40
0
40
0.12500000007268
40
0.249999999874695
40
0.499999999534588
40
0.749999999436901
40
1
40
1
40
1
40
1
41
1
10
150.288644988828
20
-7.31977731931872
30
0
41
1
10
150.273395902624
20
-7.32412473487204
30
0
41
1
10
150.24289773025
20
-7.33281956596926
30
0
41
1
10
150.181901383875
20
-7.35021032762876
30
0
41
1
10
150.105655950447
20
-7.37194905818257
30
0
41
1
10
150.014161434618
20
-7.39803287844575
30
0
41
1
10
149.953165090693
20
-7.41542224609438
30
0
41
1
10
149.92266691869
20
-7.42411692993022
30
0
0
SPLINE
5
272
100
AcDbEntity
8
1
62
256
6
ByLayer
370
18
48
1
60
0
100
AcDbSpline
70
4
71
1
72
4
73
2
40
0
40
0
40
1
40
1
41
1
10
149.831959424837
20
0.472788348139574
30
0
41
1
10
150.071556897008
20
0.483567508049845
30
0
0
SPLINE
5
273
100
AcDbEntity
8
1
62
256
6
ByLayer
370
18
48
1
60
0
100
AcDbSpline
70
4
71
1
72
4
73
2
40
0
40
0
40
1
40
1
41
1
10
150.99490208962
20
-3.57242886911453
30
0
41
1
10
150.684757418258
20
-3.31075354213178
30
0
0
SPLINE
5
274
100
AcDbEntity
8
1
62
256
6
ByLayer
370
18
48
1
60
0
100
AcDbSpline
70
4
71
1
72
4
73
2
40
0
40
0
40
1
40
1
41
1
10
150.682503505788
20
-3.13955240413446
30
0
41
1
10
150.992648177153
20
-3.40122773112276
30
0
0
SPLINE
5
275
100
AcDbEntity
8
1
62
256
6
ByLayer
370
18
48
1
60
0
100
AcDbSpline
70
4
71
1
72
4
73
2
40
0
40
0
40
1
40
1
41
1
10
150.258873772936
20
-6.52733755120781
30
0
41
1
10
150.536940327407
20
-7.03129022076544
30
0
0
SPLINE
5
276
100
AcDbEntity
8
1
62
256
6
ByLayer
370
18
48
1
60
0
100
AcDbSpline
70
4
71
1
72
4
73
2
40
0
40
0
40
1
40
1
41
1
10
150.286407700467
20
-7.32040071380894
30
0
41
1
10
150.008341145986
20
-6.81644804424983
30
0
0
SPLINE
5
277
100
AcDbEntity
8
1
62
256
6
ByLayer
370
18
48
1
60
0
100
AcDbSpline
70
4
71
3
72
8
73
4
40
0
40
0
40
0
40
0
40
1
40
1
40
1
40
1
41
1
10
150.993317187265
20
-3.40114064255846
30
0
41
1
10
150.997060006051
20
-3.42957029280913
30
0
41
1
10
150.999638871263
20
-3.45808385779219
30
0
41
1
10
151.000016230658
20
-3.48674706245512
30
0
0
SPLINE
5
278
100
AcDbEntity
8
1
62
256
6
ByLayer
370
18
48
1
60
0
100
AcDbSpline
70
4
71
3
72
9
73
5
40
0
40
0
40
0
40
0
40
0.487896018588429
40
1
40
1
40
1
40
1
41
1
10
150.466615309525
20
-0.127232480435112
30
0
41
1
10
150.469730108715
20
-0.138679569598423
30
0
41
1
10
150.476114254253
20
-0.162141718759699
30
0
41
1
10
150.480318358037
20
-0.186087112960166
30
0
41
1
10
150.482471296323
20
-0.198349644666706
30
0
0
SPLINE
5
279
100
AcDbEntity
8
1
62
256
6
ByLayer
370
18
48
1
60
0
100
AcDbSpline
70
4
71
3
72
12
73
8
40
0
40
0
40
0
40
0
40
0.264273670176128
40
0.528713999021014
40
0.7931543278659
40
0.925374492288343
40
1
40
1
40
1
40
1
41
1
10
150.071557013674
20
0.483550327625522
30
0
41
1
10
150.10703884688
20
0.478876996131987
30
0
41
1
10
150.176461557276
20
0.458383806433346
30
0
41
1
10
150.266772255065
20
0.398420057313075
30
0
41
1
10
150.323764121501
20
0.328051205995735
30
0
41
1
10
150.350108528666
20
0.270392943212073
30
0
41
1
10
150.359206456705
20
0.24402158751883
30
0
41
1
10
150.362314323315
20
0.234439544023928
30
0
0
SPLINE
5
27A
100
AcDbEntity
8
1
62
256
6
ByLayer
370
18
48
1
60
0
100
AcDbSpline
70
4
71
1
72
4
73
2
40
0
40
0
40
1
40
1
41
1
10
150.362314323315
20
0.234453969593091
30
0
41
1
10
150.122716851144
20
0.223674809681512
30
0
0
SPLINE
5
27B
100
AcDbEntity
8
1
62
256
6
ByLayer
370
18
48
1
60
0
100
AcDbSpline
70
4
71
2
72
12
73
9
40
0
40
0
40
0
40
0.25
40
0.5
40
0.5
40
0.75
40
0.75
40
0.875
40
1
40
1
40
1
41
1
10
150.122716851144
20
0.223674809681512
30
0
41
1
10
150.108814253409
20
0.271884301896847
30
0
41
1
10
150.054402275782
20
0.35712868138981
30
0
41
1
10
150.014967335854
20
0.39120011850514
30
0
41
1
10
149.977253152761
20
0.423784837029388
30
0
41
1
10
149.929642150976
20
0.445229371260325
30
0
41
1
10
149.907530781769
20
0.455188582284421
30
0
41
1
10
149.857914435921
20
0.469390661209218
30
0
41
1
10
149.831959424838
20
0.472788348139517
30
0
0
SPLINE
5
27C
100
AcDbEntity
8
1
62
256
6
ByLayer
370
13
48
1
60
0
100
AcDbSpline
70
4
71
3
72
20
73
16
40
0
40
0
40
0
40
0
40
0.0624999999999956
40
0.0624999999999956
40
0.124999999999991
40
0.124999999999991
40
0.187499999999987
40
0.187499999999987
40
0.218749999999985
40
0.218749999999985
40
0.249999999999983
40
0.249999999999983
40
0.499999999999988
40
0.499999999999988
40
1
40
1
40
1
40
1
41
1
10
148.739975553843
20
11.729141803223
30
0
41
1
10
148.678039010103
20
11.6861268198111
30
0
41
1
10
148.613364004755
20
11.6480579161951
30
0
41
1
10
148.478607896872
20
11.5816843459272
30
0
41
1
10
148.407992897636
20
11.5532263584715
30
0
41
1
10
148.263683918424
20
11.5073838175036
30
0
41
1
10
148.19055528792
20
11.4900185339268
30
0
41
1
10
148.079414817501
20
11.4722265272848
30
0
41
1
10
148.042122056275
20
11.4676985578844
30
0
41
1
10
147.96704603862
20
11.4614401455427
30
0
41
1
10
147.929224849824
20
11.4599260488469
30
0
41
1
10
147.589574456433
20
11.442076864174
30
0
41
1
10
147.287665845344
20
11.4262854767261
30
0
41
1
10
146.38193483414
20
11.3788181258011
30
0
41
1
10
145.778114160007
20
11.3471732251846
30
0
41
1
10
145.174293485871
20
11.3155283245679
30
0
0
SPLINE
5
27D
100
AcDbEntity
8
1
62
256
6
ByLayer
370
13
48
1
60
0
100
AcDbSpline
70
4
71
2
72
6
73
3
40
0
40
0
40
0
40
1
40
1
40
1
41
1
10
150.94994704578
20
8.59551910900035
30
0
41
0.997409491337352
10
150.949373383796
20
8.63878670926759
30
0
41
1
10
150.942623511713
20
8.68152666262168
30
0
0
SPLINE
5
27E
100
AcDbEntity
8
1
62
256
6
ByLayer
370
13
48
1
60
0
100
AcDbSpline
70
4
71
3
72
18
73
14
40
0
40
0
40
0
40
0
40
0.124999999999961
40
0.124999999999961
40
0.187499999999941
40
0.187499999999941
40
0.218749999999931
40
0.218749999999931
40
0.249999999999921
40
0.249999999999921
40
0.499999999999955
40
0.499999999999955
40
1
40
1
40
1
40
1
41
1
10
148.789389639248
20
11.6678125751261
30
0
41
1
10
148.661570976162
20
11.579042402617
30
0
41
1
10
148.52414159886
20
11.5109539338889
30
0
41
1
10
148.30393894237
20
11.4390745083954
30
0
41
1
10
148.22820305529
20
11.4203299803588
30
0
41
1
10
148.114993123778
20
11.4008887374078
30
0
41
1
10
148.077156366431
20
11.3958149436031
30
0
41
1
10
148.001285089723
20
11.3884459630684
30
0
41
1
10
147.963219598222
20
11.3865859428339
30
0
41
1
10
147.620708594002
20
11.3687439496638
30
0
41
1
10
147.316268804196
20
11.3526815683306
30
0
41
1
10
146.402926594832
20
11.3048153314124
30
0
41
1
10
145.794031788589
20
11.2729045068002
30
0
41
1
10
145.185136982347
20
11.240993682188
30
0
0
SPLINE
5
27F
100
AcDbEntity
8
1
62
256
6
ByLayer
370
13
48
1
60
0
100
AcDbSpline
70
4
71
3
72
8
73
4
40
0
40
0
40
0
40
0
40
1
40
1
40
1
40
1
41
1
10
149.68643236679
20
12.5233270457504
30
0
41
1
10
149.63665027932
20
12.5233383294135
30
0
41
1
10
149.58686324718
20
12.5229127800861
30
0
41
1
10
149.537071991588
20
12.522114113249
30
0
0
SPLINE
5
280
100
AcDbEntity
8
1
62
256
6
ByLayer
370
13
48
1
60
0
100
AcDbSpline
70
4
71
3
72
22
73
18
40
0
40
0
40
0
40
0
40
0.125000000000037
40
0.125000000000037
40
0.250000000000073
40
0.250000000000073
40
0.500000000000096
40
0.500000000000096
40
0.625000000000073
40
0.625000000000073
40
0.750000000000049
40
0.750000000000049
40
0.812500000000037
40
0.812500000000037
40
0.875000000000024
40
0.875000000000024
40
1
40
1
40
1
40
1
41
1
10
150.41603497047
20
12.0158668416649
30
0
41
1
10
150.410052592832
20
12.0569253759298
30
0
41
1
10
150.400032248453
20
12.0967922900902
30
0
41
1
10
150.371164232538
20
12.1739211389289
30
0
41
1
10
150.352196663581
20
12.2110653865949
30
0
41
1
10
150.28595784888
20
12.3142851520276
30
0
41
1
10
150.226753761221
20
12.3742203000801
30
0
41
1
10
150.125051230379
20
12.4425415355831
30
0
41
1
10
150.08823136566
20
12.4620458426906
30
0
41
1
10
150.012189593635
20
12.4927475032154
30
0
41
1
10
149.973058239752
20
12.5043070276647
30
0
41
1
10
149.912604304288
20
12.5156479753137
30
0
41
1
10
149.892055384261
20
12.5183796560887
30
0
41
1
10
149.850959067382
20
12.5218680928236
30
0
41
1
10
149.830395745431
20
12.5222727026362
30
0
41
1
10
149.768699020439
20
12.5228894013468
30
0
41
1
10
149.727568065001
20
12.5233177218874
30
0
41
1
10
149.68643236679
20
12.5233270457504
30
0
0
SPLINE
5
281
100
AcDbEntity
8
1
62
256
6
ByLayer
370
13
48
1
60
0
100
AcDbSpline
70
4
71
3
72
11
73
7
40
0
40
0
40
0
40
0
40
0.25
40
0.5
40
0.75
40
1
40
1
40
1
40
1
41
1
10
141.135474549297
20
3.92742571575585
30
0
41
1
10
141.148672622227
20
3.92764369274775
30
0
41
1
10
141.175064653115
20
3.92834033127127
30
0
41
1
10
141.214622601839
20
3.93017178163561
30
0
41
1
10
141.254185159018
20
3.93187647546412
30
0
41
1
10
141.280559685006
20
3.93302702207248
30
0
41
1
10
141.293746948121
20
3.93360229538192
30
0
0
SPLINE
5
282
100
AcDbEntity
8
1
62
256
6
ByLayer
370
13
48
1
60
0
100
AcDbSpline
70
4
71
1
72
4
73
2
40
0
40
0
40
1
40
1
41
1
10
139.593457554335
20
7.84606894286688
30
0
41
1
10
139.722599495106
20
7.85402072000454
30
0
0
SPLINE
5
283
100
AcDbEntity
8
1
62
256
6
ByLayer
370
13
48
1
60
0
100
AcDbSpline
70
4
71
3
72
18
73
14
40
0
40
0
40
0
40
0
40
0.500000000000024
40
0.500000000000024
40
0.750000000000049
40
0.750000000000049
40
0.812500000000055
40
0.812500000000055
40
0.843750000000046
40
0.843750000000046
40
0.875000000000037
40
0.875000000000037
40
1
40
1
40
1
40
1
41
1
10
145.501246158054
20
5.20927129227033
30
0
41
1
10
146.060893797525
20
5.23860118223598
30
0
41
1
10
146.62054267843
20
5.2679073256312
30
0
41
1
10
147.460013800468
20
5.31190865169197
30
0
41
1
10
147.739834100013
20
5.32664101644392
30
0
41
1
10
148.089616030132
20
5.34493093735509
30
0
41
1
10
148.159574407903
20
5.34855078150261
30
0
41
1
10
148.264505991799
20
5.3540951117929
30
0
41
1
10
148.299518911793
20
5.35624776941782
30
0
41
1
10
148.369458355401
20
5.35776556831951
30
0
41
1
10
148.404255551088
20
5.35727599299796
30
0
41
1
10
148.577480023022
20
5.34931752086084
30
0
41
1
10
148.71364840489
20
5.32550227203626
30
0
41
1
10
148.847238102077
20
5.28302652810368
30
0
0
SPLINE
5
284
100
AcDbEntity
8
1
62
256
6
ByLayer
370
13
48
1
60
0
100
AcDbSpline
70
4
71
2
72
6
73
3
40
0
40
0
40
0
40
1
40
1
40
1
41
0.99872063564448
10
139.583159913027
20
8.03752043539349
30
0
41
0.998848208416404
10
139.583665639986
20
8.01927986178573
30
0
41
1
10
139.585332269105
20
8.00110862095724
30
0
0
SPLINE
5
285
100
AcDbEntity
8
1
62
256
6
ByLayer
370
13
48
1
60
0
100
AcDbSpline
70
4
71
3
72
11
73
7
40
0
40
0
40
0
40
0
40
0.25
40
0.5
40
0.75
40
1
40
1
40
1
40
1
41
1
10
149.537071991588
20
12.522114113249
30
0
41
1
10
149.523873918658
20
12.5218961362571
30
0
41
1
10
149.49748188777
20
12.5211994977336
30
0
41
1
10
149.457923939046
20
12.5193680473693
30
0
41
1
10
149.418361381867
20
12.5176633535408
30
0
41
1
10
149.391986855879
20
12.5165128069324
30
0
41
1
10
149.378799592764
20
12.5159375336229
30
0
0
SPLINE
5
286
100
AcDbEntity
8
1
62
256
6
ByLayer
370
13
48
1
60
0
100
AcDbSpline
70
4
71
2
72
6
73
3
40
0
40
0
40
0
40
1
40
1
40
1
41
1
10
150.94994704578
20
8.59551910900035
30
0
41
0.997409491337352
10
150.950520707763
20
8.55225150873462
30
0
41
1
10
150.944906286435
20
8.50935178087221
30
0
0
SPLINE
5
287
100
AcDbEntity
8
1
62
256
6
ByLayer
370
13
48
1
60
0
100
AcDbSpline
70
4
71
2
72
6
73
3
40
0
40
0
40
0
40
1
40
1
40
1
41
0.999764304478499
10
139.597750375058
20
7.924026673199
30
0
41
0.99753325169186
10
139.592938776071
20
7.88519702036949
30
0
41
1
10
139.593457554335
20
7.84606894286688
30
0
0
SPLINE
5
288
100
AcDbEntity
8
1
62
256
6
ByLayer
370
13
48
1
60
0
100
AcDbSpline
70
4
71
3
72
18
73
14
40
0
40
0
40
0
40
0
40
0.5
40
0.5
40
0.75
40
0.75
40
0.812500000000001
40
0.812500000000001
40
0.84375
40
0.84375
40
0.875
40
0.875
40
1
40
1
40
1
40
1
41
1
10
145.185136982346
20
11.240993682188
30
0
41
1
10
144.625489342876
20
11.2116637922223
30
0
41
1
10
144.06584046197
20
11.1823576488271
30
0
41
1
10
143.226369339932
20
11.1383563227663
30
0
41
1
10
142.946549040387
20
11.1236239580144
30
0
41
1
10
142.596767110268
20
11.1053340371032
30
0
41
1
10
142.526808732497
20
11.1017141929557
30
0
41
1
10
142.421877148601
20
11.0961698626654
30
0
41
1
10
142.386864228606
20
11.0940172050404
30
0
41
1
10
142.316924784998
20
11.0924994061388
30
0
41
1
10
142.282127589313
20
11.0929889814603
30
0
41
1
10
142.108903117379
20
11.1009474535975
30
0
41
1
10
141.97273473551
20
11.1247627024221
30
0
41
1
10
141.839145038323
20
11.1672384463546
30
0
0
SPLINE
5
289
100
AcDbEntity
8
1
62
256
6
ByLayer
370
13
48
1
60
0
100
AcDbSpline
70
4
71
1
72
4
73
2
40
0
40
0
40
1
40
1
41
1
10
140.706019856657
20
11.8679755312005
30
0
41
1
10
140.549101384596
20
12.0531926587934
30
0
0
SPLINE
5
28A
100
AcDbEntity
8
1
62
256
6
ByLayer
370
13
48
1
60
0
100
AcDbSpline
70
4
71
2
72
6
73
3
40
0
40
0
40
0
40
1
40
1
40
1
41
1
10
139.722599495106
20
7.85402072000454
30
0
41
0.997409491337352
10
139.723173157089
20
7.81075311973727
30
0
41
1
10
139.729923029172
20
7.76801316638318
30
0
0
SPLINE
5
28B
100
AcDbEntity
8
1
62
256
6
ByLayer
370
13
48
1
60
0
100
AcDbSpline
70
4
71
2
72
6
73
3
40
0
40
0
40
0
40
1
40
1
40
1
41
1
10
139.598245351682
20
7.92791210911
30
0
41
0.999876239645492
10
139.597991214306
20
7.92597024838812
30
0
41
0.999764304478499
10
139.597750375058
20
7.924026673199
30
0
0
SPLINE
5
28C
100
AcDbEntity
8
1
62
256
6
ByLayer
370
13
48
1
60
0
100
AcDbSpline
70
4
71
3
72
20
73
16
40
0
40
0
40
0
40
0
40
0.0625000000000226
40
0.0625000000000226
40
0.125000000000045
40
0.125000000000045
40
0.187500000000068
40
0.187500000000068
40
0.218750000000068
40
0.218750000000068
40
0.250000000000068
40
0.250000000000068
40
0.500000000000045
40
0.500000000000045
40
1
40
1
40
1
40
1
41
1
10
141.932570987041
20
4.72039802578127
30
0
41
1
10
141.99450753078
20
4.76341300919313
30
0
41
1
10
142.059182536129
20
4.80148191280924
30
0
41
1
10
142.193938644012
20
4.86785548307714
30
0
41
1
10
142.264553643247
20
4.8963134705329
30
0
41
1
10
142.40886262246
20
4.94215601150094
30
0
41
1
10
142.481991252964
20
4.95952129507774
30
0
41
1
10
142.593131723383
20
4.97731330171985
30
0
41
1
10
142.630424484608
20
4.98184127112035
30
0
41
1
10
142.705500502264
20
4.98809968346211
30
0
41
1
10
142.743321691059
20
4.98961378015787
30
0
41
1
10
143.08297208445
20
5.00746296483069
30
0
41
1
10
143.384880695538
20
5.02325435227863
30
0
41
1
10
144.290611706742
20
5.07072170320359
30
0
41
1
10
144.894432380879
20
5.10236660382029
30
0
41
1
10
145.498253055014
20
5.13401150443693
30
0
0
SPLINE
5
28D
100
AcDbEntity
8
1
62
256
6
ByLayer
370
13
48
1
60
0
100
AcDbSpline
70
4
71
1
72
4
73
2
40
0
40
0
40
1
40
1
41
1
10
140.256511570416
20
4.43367298733997
30
0
41
1
10
140.226480391294
20
4.43282994194436
30
0
0
SPLINE
5
28E
100
AcDbEntity
8
1
62
256
6
ByLayer
370
13
48
1
60
0
100
AcDbSpline
70
4
71
1
72
4
73
2
40
0
40
0
40
1
40
1
41
1
10
139.729923029172
20
7.76801316638321
30
0
41
1
10
139.602593248112
20
7.76443872179834
30
0
0
SPLINE
5
28F
100
AcDbEntity
8
1
62
256
6
ByLayer
370
13
48
1
60
0
100
AcDbSpline
70
4
71
1
72
4
73
2
40
0
40
0
40
1
40
1
41
1
10
139.72764025445
20
7.94018804813268
30
0
41
1
10
139.598245351682
20
7.92791210911
30
0
0
SPLINE
5
290
100
AcDbEntity
8
1
62
256
6
ByLayer
370
13
48
1
60
0
100
AcDbSpline
70
4
71
3
72
22
73
18
40
0
40
0
40
0
40
0
40
0.124999999999982
40
0.124999999999982
40
0.249999999999964
40
0.249999999999964
40
0.374999999999945
40
0.374999999999945
40
0.499999999999927
40
0.499999999999927
40
0.624999999999909
40
0.624999999999909
40
0.6874999999999
40
0.6874999999999
40
0.749999999999891
40
0.749999999999891
40
1
40
1
40
1
40
1
41
1
10
140.256511570416
20
4.43367298733997
30
0
41
1
10
140.26339892615
20
4.38640336503897
30
0
41
1
10
140.275659041467
20
4.34071926553855
30
0
41
1
10
140.311936427373
20
4.25282064999186
30
0
41
1
10
140.335620750674
20
4.21145966459832
30
0
41
1
10
140.391153325168
20
4.1354893896019
30
0
41
1
10
140.424115049618
20
4.10040401260994
30
0
41
1
10
140.496221363403
20
4.03967888185443
30
0
41
1
10
140.535327524997
20
4.01356727851578
30
0
41
1
10
140.620386466747
20
3.97087720999337
30
0
41
1
10
140.664793362829
20
3.95483389273718
30
0
41
1
10
140.733414848642
20
3.93843982584426
30
0
41
1
10
140.756683440658
20
3.93427562300661
30
0
41
1
10
140.803979237987
20
3.92872907981774
30
0
41
1
10
140.827645346377
20
3.92756453209927
30
0
41
1
10
140.946021225665
20
3.92574708488109
30
0
41
1
10
141.040740187458
20
3.92590614786732
30
0
41
1
10
141.135474549297
20
3.92742571575585
30
0
0
SPLINE
5
291
100
AcDbEntity
8
1
62
256
6
ByLayer
370
13
48
1
60
0
100
AcDbSpline
70
4
71
3
72
8
73
4
40
0
40
0
40
0
40
0
40
1
40
1
40
1
40
1
41
1
10
139.595103169658
20
7.80962952311737
30
0
41
1
10
139.597051914946
20
7.79613181153161
30
0
41
1
10
139.59943618867
20
7.78129767949701
30
0
41
1
10
139.602593248112
20
7.76443872179834
30
0
0
SPLINE
5
292
100
AcDbEntity
8
1
62
256
6
ByLayer
370
13
48
1
60
0
100
AcDbSpline
70
4
71
3
72
11
73
7
40
0
40
0
40
0
40
0
40
0.25
40
0.5
40
0.75
40
1
40
1
40
1
40
1
41
1
10
140.391050390156
20
12.0427914318433
30
0
41
1
10
140.404198947462
20
12.0439542232336
30
0
41
1
10
140.430519218597
20
12.0460201194
30
0
41
1
10
140.470051903431
20
12.0483336335026
30
0
41
1
10
140.509575921809
20
12.0507736914701
30
0
41
1
10
140.535926230253
20
12.0523863363474
30
0
41
1
10
140.549101384596
20
12.0531926587934
30
0
0
SPLINE
5
293
100
AcDbEntity
8
1
62
256
6
ByLayer
370
13
48
1
60
0
100
AcDbSpline
70
4
71
3
72
14
73
10
40
0
40
0
40
0
40
0
40
0.24869597728261
40
0.24869597728261
40
0.496731428084465
40
0.496731428084465
40
0.748365550121379
40
0.748365550121379
40
1
40
1
40
1
40
1
41
1
10
149.766856763138
20
4.56355605929929
30
0
41
1
10
149.753934710784
20
4.56300467958471
30
0
41
1
10
149.741343429005
20
4.56272615278027
30
0
41
1
10
149.716986396237
20
4.56265067784895
30
0
41
1
10
149.705131531821
20
4.56280831743652
30
0
41
1
10
149.68107504669
20
4.56301506071125
30
0
41
1
10
149.668908075707
20
4.56308794071447
30
0
41
1
10
149.644598473404
20
4.56324824268185
30
0
41
1
10
149.632452901655
20
4.56333397280963
30
0
41
1
10
149.620307350017
20
4.56341971135345
30
0
0
SPLINE
5
294
100
AcDbEntity
8
1
62
256
6
ByLayer
370
13
48
1
60
0
100
AcDbSpline
70
4
71
3
72
10
73
6
40
0
40
0
40
0
40
0
40
0.5
40
0.5
40
1
40
1
40
1
40
1
41
1
10
141.794029271508
20
4.58910936951855
30
0
41
1
10
141.790348689956
20
4.58891647841298
30
0
41
1
10
141.773695239368
20
4.59923431779461
30
0
41
1
10
141.724393777188
20
4.63384241985008
30
0
41
1
10
141.691752681595
20
4.65803068311288
30
0
41
1
10
141.660476436228
20
4.68186699289848
30
0
0
SPLINE
5
295
100
AcDbEntity
8
1
62
256
6
ByLayer
370
13
48
1
60
0
100
AcDbSpline
70
4
71
3
72
24
73
20
40
0
40
0
40
0
40
0
40
0.249999999999928
40
0.249999999999928
40
0.499999999999857
40
0.499999999999857
40
0.624999999999821
40
0.624999999999821
40
0.749999999999785
40
0.749999999999785
40
0.812499999999767
40
0.812499999999767
40
0.843749999999758
40
0.843749999999758
40
0.874999999999748
40
0.874999999999748
40
0.937499999999874
40
0.937499999999874
40
1
40
1
40
1
40
1
41
1
10
150.36622465611
20
4.6684819789316
30
0
41
1
10
150.341106539162
20
4.65456434195656
30
0
41
1
10
150.312973409144
20
4.6404831947153
30
0
41
1
10
150.247889658838
20
4.61355331739369
30
0
41
1
10
150.210759638416
20
4.60048628577613
30
0
41
1
10
150.146802947533
20
4.58457194827679
30
0
41
1
10
150.124436736722
20
4.5801456952301
30
0
41
1
10
150.080369925635
20
4.57428326339291
30
0
41
1
10
150.059160124721
20
4.5728476227381
30
0
41
1
10
150.028778787324
20
4.57163856820043
30
0
41
1
10
150.019071222447
20
4.57155459916106
30
0
41
1
10
150.004095381449
20
4.57111156071403
30
0
41
1
10
149.998947574932
20
4.57083000580835
30
0
41
1
10
149.988235215505
20
4.5699089316426
30
0
41
1
10
149.982721466085
20
4.56931305010352
30
0
41
1
10
149.966911036117
20
4.56815314166596
30
0
41
1
10
149.956805563675
20
4.56775335292292
30
0
41
1
10
149.936377838474
20
4.5667675720457
30
0
41
1
10
149.926185768187
20
4.56629340010912
30
0
41
1
10
149.916103334469
20
4.56591340047731
30
0
0
SPLINE
5
296
100
AcDbEntity
8
1
62
256
6
ByLayer
370
13
48
1
60
0
100
AcDbSpline
70
4
71
3
72
14
73
10
40
0
40
0
40
0
40
0
40
0.248695977282669
40
0.248695977282669
40
0.496731428084458
40
0.496731428084458
40
0.748365550121447
40
0.748365550121447
40
1
40
1
40
1
40
1
41
1
10
140.545137384679
20
11.8670880194697
30
0
41
1
10
140.5589690821
20
11.8676870716622
30
0
41
1
10
140.572616629808
20
11.8680209550183
30
0
41
1
10
140.599321187017
20
11.8682194584924
30
0
41
1
10
140.612446259254
20
11.8681283876759
30
0
41
1
10
140.639006013946
20
11.8680528351998
30
0
41
1
10
140.652418249755
20
11.8680452167608
30
0
41
1
10
140.679225535558
20
11.868015812839
30
0
41
1
10
140.692622704389
20
11.8679956761348
30
0
41
1
10
140.706019856657
20
11.8679755312005
30
0
0
SPLINE
5
297
100
AcDbEntity
8
1
62
256
6
ByLayer
370
13
48
1
60
0
100
AcDbSpline
70
4
71
3
72
16
73
12
40
0
40
0
40
0
40
0
40
0.5
40
0.5
40
0.750000000000012
40
0.750000000000012
40
0.812500000000009
40
0.812500000000009
40
0.875000000000006
40
0.875000000000006
40
1
40
1
40
1
40
1
41
1
10
145.498253055015
20
5.13401150443704
30
0
41
1
10
146.051353038263
20
5.16299824628058
30
0
41
1
10
146.604454189791
20
5.19196269377883
30
0
41
1
10
147.434103948454
20
5.23544693249582
30
0
41
1
10
147.710651523908
20
5.25000143209408
30
0
41
1
10
148.056339565016
20
5.26808957369951
30
0
41
1
10
148.125478070481
20
5.27167962016816
30
0
41
1
10
148.263752656922
20
5.27893424347803
30
0
41
1
10
148.332864016406
20
5.28335877470232
30
0
41
1
10
148.540822575795
20
5.27743542680483
30
0
41
1
10
148.680097594131
20
5.25494954938051
30
0
41
1
10
148.817807446816
20
5.21116377425838
30
0
0
SPLINE
5
298
100
AcDbEntity
8
1
62
256
6
ByLayer
370
13
48
1
60
0
100
AcDbSpline
70
4
71
3
72
8
73
4
40
0
40
0
40
0
40
0
40
1
40
1
40
1
40
1
41
1
10
149.916103334469
20
4.56591340047731
30
0
41
1
10
149.864692395766
20
4.56397575939525
30
0
41
1
10
149.815725959849
20
4.56375401460383
30
0
41
1
10
149.766856763138
20
4.56355605929923
30
0
0
SPLINE
5
299
100
AcDbEntity
8
1
62
256
6
ByLayer
370
13
48
1
60
0
100
AcDbSpline
70
4
71
2
72
6
73
3
40
0
40
0
40
0
40
1
40
1
40
1
41
0.999764304477965
10
139.597750375057
20
7.92402667319109
30
0
41
0.997533251692155
10
139.588906330575
20
7.96214066406718
30
0
41
1
10
139.585332269105
20
8.00110862095724
30
0
0
SPLINE
5
29A
100
AcDbEntity
8
1
62
256
6
ByLayer
370
13
48
1
60
0
100
AcDbSpline
70
4
71
2
72
6
73
3
40
0
40
0
40
0
40
1
40
1
40
1
41
1
10
139.722599495106
20
7.85402072000454
30
0
41
0.997409491337352
10
139.722025833122
20
7.89728832027021
30
0
41
1
10
139.72764025445
20
7.94018804813268
30
0
0
SPLINE
5
29B
100
AcDbEntity
8
1
62
256
6
ByLayer
370
13
48
1
60
0
100
AcDbSpline
70
4
71
3
72
10
73
6
40
0
40
0
40
0
40
0
40
0.5
40
0.5
40
1
40
1
40
1
40
1
41
1
10
141.826043234859
20
4.67934193972303
30
0
41
1
10
141.8223610763
20
4.67914896596997
30
0
41
1
10
141.801991009857
20
4.67935498518528
30
0
41
1
10
141.740644021774
20
4.68033328098292
30
0
41
1
10
141.699738376685
20
4.68109250485864
30
0
41
1
10
141.660476436228
20
4.68186699289848
30
0
0
SPLINE
5
29C
100
AcDbEntity
8
1
62
256
6
ByLayer
370
13
48
1
60
0
100
AcDbSpline
70
4
71
2
72
6
73
3
40
0
40
0
40
0
40
1
40
1
40
1
41
0.998720635644481
10
139.595103169658
20
7.80962952311734
30
0
41
0.998848208416404
10
139.593699467063
20
7.82782303581622
30
0
41
1
10
139.593457554335
20
7.84606894286688
30
0
0
SPLINE
5
29D
100
AcDbEntity
8
1
62
256
6
ByLayer
370
13
48
1
60
0
100
AcDbSpline
70
4
71
3
72
18
73
14
40
0
40
0
40
0
40
0
40
0.124999999999998
40
0.124999999999998
40
0.187500000000008
40
0.187500000000008
40
0.218750000000013
40
0.218750000000013
40
0.250000000000018
40
0.250000000000018
40
0.500000000000012
40
0.500000000000012
40
1
40
1
40
1
40
1
41
1
10
141.896993501152
20
4.78245239933219
30
0
41
1
10
142.024812164238
20
4.87122257184134
30
0
41
1
10
142.16224154154
20
4.93931104056944
30
0
41
1
10
142.38244419803
20
5.01119046606289
30
0
41
1
10
142.458180085111
20
5.02993499409948
30
0
41
1
10
142.571390016622
20
5.04937623705047
30
0
41
1
10
142.609226773969
20
5.05445003085515
30
0
41
1
10
142.685098050678
20
5.06181901138987
30
0
41
1
10
142.723163542178
20
5.06367903162442
30
0
41
1
10
143.065674546398
20
5.08152102479448
30
0
41
1
10
143.370114336205
20
5.09758340612771
30
0
41
1
10
144.283456545569
20
5.14544964304594
30
0
41
1
10
144.892351351811
20
5.17736046765808
30
0
41
1
10
145.501246158054
20
5.20927129227022
30
0
0
SPLINE
5
29E
100
AcDbEntity
8
1
62
256
6
ByLayer
370
13
48
1
60
0
100
AcDbSpline
70
4
71
3
72
16
73
12
40
0
40
0
40
0
40
0
40
0.5
40
0.5
40
0.750000000000012
40
0.750000000000012
40
0.812500000000009
40
0.812500000000009
40
0.875000000000006
40
0.875000000000006
40
1
40
1
40
1
40
1
41
1
10
145.174293485871
20
11.3155283245679
30
0
41
1
10
144.621193502622
20
11.2865415827243
30
0
41
1
10
144.068092351094
20
11.257577135226
30
0
41
1
10
143.238442592432
20
11.214092896509
30
0
41
1
10
142.961895016978
20
11.1995383969108
30
0
41
1
10
142.616206975869
20
11.1814502553054
30
0
41
1
10
142.547068470404
20
11.1778602088367
30
0
41
1
10
142.408793883963
20
11.1706055855268
30
0
41
1
10
142.339682524479
20
11.1661810543025
30
0
41
1
10
142.13172396509
20
11.1721044022
30
0
41
1
10
141.992448946754
20
11.1945902796244
30
0
41
1
10
141.854739094069
20
11.2383760547465
30
0
0
SPLINE
5
29F
100
AcDbEntity
8
1
62
256
6
ByLayer
370
13
48
1
60
0
100
AcDbSpline
70
4
71
1
72
4
73
2
40
0
40
0
40
1
40
1
41
1
10
140.391050390156
20
12.0427914318433
30
0
41
1
10
140.545137384679
20
11.8670880194697
30
0
0
SPLINE
5
2A0
100
AcDbEntity
8
1
62
256
6
ByLayer
370
13
48
1
60
0
100
AcDbSpline
70
4
71
3
72
10
73
6
40
0
40
0
40
0
40
0
40
0.5
40
0.5
40
1
40
1
40
1
40
1
41
1
10
148.869292869701
20
11.859947029184
30
0
41
1
10
148.865612288149
20
11.8597541380784
30
0
41
1
10
148.875067467609
20
11.8490590532923
30
0
41
1
10
148.914191285962
20
11.8139175635256
30
0
41
1
10
148.943896260584
20
11.7895754246828
30
0
41
1
10
148.975172505951
20
11.7657391148973
30
0
0
SPLINE
5
2A1
100
AcDbEntity
8
SK1
62
256
6
ByLayer
370
13
48
1
60
0
100
AcDbSpline
70
4
71
3
72
8
73
4
40
0
40
0
40
0
40
0
40
1
40
1
40
1
40
1
41
1
10
-53.6338131992802
20
6.34032812085854
30
0
41
1
10
-53.2931973263098
20
6.56512996075952
30
0
41
1
10
-52.9482491695224
20
6.7841493260708
30
0
41
1
10
-52.5998571439059
20
6.99857202024131
30
0
0
SPLINE
5
2A2
100
AcDbEntity
8
SK1
62
256
6
ByLayer
370
13
48
1
60
0
100
AcDbSpline
70
4
71
3
72
8
73
4
40
0
40
0
40
0
40
0
40
1
40
1
40
1
40
1
41
1
10
-54.5162221138915
20
-6.81202898183307
30
0
41
1
10
-54.5439351414378
20
-6.87429101039413
30
0
41
1
10
-54.5718768490337
20
-6.93647114421498
30
0
41
1
10
-54.6000398733642
20
-6.99857202024091
30
0
0
SPLINE
5
2A3
100
AcDbEntity
8
SK1
62
256
6
ByLayer
370
13
48
1
60
0
100
AcDbSpline
70
4
71
3
72
8
73
4
40
0
40
0
40
0
40
0
40
1
40
1
40
1
40
1
41
1
10
-52.5998571439056
20
-6.99857202024091
30
0
41
1
10
-52.9479487851792
20
-6.78433420177188
30
0
41
1
10
-53.2928798234837
20
-6.56533950830294
30
0
41
1
10
-53.6338131992802
20
-6.34032812085843
30
0
0
SPLINE
5
2A4
100
AcDbEntity
8
SK1
62
256
6
ByLayer
370
13
48
1
60
0
100
AcDbSpline
70
4
71
3
72
8
73
4
40
0
40
0
40
0
40
0
40
1
40
1
40
1
40
1
41
1
10
-54.6000398733642
20
6.99857202024106
30
0
41
1
10
-54.571876118047
20
6.93646953235279
30
0
41
1
10
-54.5439344142792
20
6.87428937670879
30
0
41
1
10
-54.5162221138915
20
6.81202898183318
30
0
0
SPLINE
5
2A5
100
AcDbEntity
8
SK1
62
256
6
ByLayer
370
13
48
1
60
0
100
AcDbSpline
70
4
71
3
72
8
73
4
40
0
40
0
40
0
40
0
40
1
40
1
40
1
40
1
41
1
10
-55
20
-6.99857202024091
30
0
41
1
10
-55.3647894321562
20
-6.34719880823223
30
0
41
1
10
-55.7025751082723
20
-5.68271935719739
30
0
41
1
10
-56
20
-4.99865085022941
30
0
0
SPLINE
5
2A6
100
AcDbEntity
8
SK1
62
256
6
ByLayer
370
13
48
1
60
0
100
AcDbSpline
70
4
71
3
72
18
73
14
40
0
40
0
40
0
40
0
40
0.249999999999993
40
0.249999999999993
40
0.499999999999985
40
0.499999999999985
40
0.624999999999989
40
0.624999999999989
40
0.749999999999993
40
0.749999999999993
40
0.874999999999996
40
0.874999999999996
40
1
40
1
40
1
40
1
41
1
10
-54.5162221138916
20
6.81202898183318
30
0
41
1
10
-54.4772970244431
20
6.72457714976824
30
0
41
1
10
-54.4307065013895
20
6.63918003305162
30
0
41
1
10
-54.319110443676
20
6.4826126999028
30
0
41
1
10
-54.2534817600869
20
6.41019877906004
30
0
41
1
10
-54.1362837870009
20
6.32619750079633
30
0
41
1
10
-54.0935094971742
20
6.30217611468402
30
0
41
1
10
-54.0030350925562
20
6.26802830974705
30
0
41
1
10
-53.954986307026
20
6.25793437821719
30
0
41
1
10
-53.8587999994146
20
6.25505426790869
30
0
41
1
10
-53.8097812214382
20
6.26239551321621
30
0
41
1
10
-53.7180788416409
20
6.29165811737894
30
0
41
1
10
-53.6739760596325
20
6.31382117969852
30
0
41
1
10
-53.63381319928
20
6.34032812085832
30
0
0
SPLINE
5
2A7
100
AcDbEntity
8
1
62
256
6
ByLayer
370
13
48
1
60
0
100
AcDbSpline
70
4
71
3
72
8
73
4
40
0
40
0
40
0
40
0
40
1
40
1
40
1
40
1
41
1
10
138.396356155011
20
-12.1267082281218
30
0
41
1
10
137.7269644898
20
-12.0989742956531
30
0
41
1
10
137.057572824761
20
-12.0712403590895
30
0
41
1
10
136.388181159896
20
-12.0435064183453
30
0
0
SPLINE
5
2A8
100
AcDbEntity
8
1
62
256
6
ByLayer
370
13
48
1
60
0
100
AcDbSpline
70
4
71
3
72
18
73
14
40
0
40
0
40
0
40
0
40
0.249999999999982
40
0.249999999999982
40
0.37499999999998
40
0.37499999999998
40
0.499999999999978
40
0.499999999999978
40
0.749999999999988
40
0.749999999999988
40
0.874999999999994
40
0.874999999999994
40
1
40
1
40
1
40
1
41
1
10
136.193053907021
20
4.63229042795007
30
0
41
1
10
136.213871666443
20
4.69928565837787
30
0
41
1
10
136.232912145789
20
4.77299268863854
30
0
41
1
10
136.260379937795
20
4.89325253007428
30
0
41
1
10
136.269352518192
20
4.93510109259154
30
0
41
1
10
136.28655007884
20
5.01959731011391
30
0
41
1
10
136.294843469208
20
5.06253917835488
30
0
41
1
10
136.319123254068
20
5.19337950839787
30
0
41
1
10
136.334536179636
20
5.28410463747159
30
0
41
1
10
136.357071457204
20
5.41606129779262
30
0
41
1
10
136.364545664205
20
5.45966041667754
30
0
41
1
10
136.380303343207
20
5.54590601575248
30
0
41
1
10
136.388543542408
20
5.58865269009073
30
0
41
1
10
136.398124221825
20
5.62959822448707
30
0
0
SPLINE
5
2A9
100
AcDbEntity
8
1
62
256
6
ByLayer
370
13
48
1
60
0
100
AcDbSpline
70
4
71
3
72
8
73
4
40
0
40
0
40
0
40
0
40
1
40
1
40
1
40
1
41
1
10
27
20
-4.18954535098868
30
0
41
1
10
25.3333330697601
20
-4.18926387191371
30
0
41
1
10
23.6666660277659
20
-4.1884259064835
30
0
41
1
10
22
20
-4.18677288531694
30
0
0
SPLINE
5
2AA
100
AcDbEntity
8
1
62
256
6
ByLayer
370
13
48
1
60
0
100
AcDbSpline
70
4
71
3
72
34
73
30
40
0
40
0
40
0
40
0
40
0.125
40
0.125
40
0.1875
40
0.1875
40
0.25
40
0.25
40
0.28125
40
0.28125
40
0.3125
40
0.3125
40
0.375
40
0.375
40
0.4375
40
0.4375
40
0.5
40
0.5
40
0.5625
40
0.5625
40
0.625
40
0.625
40
0.6875
40
0.6875
40
0.75
40
0.75
40
0.875
40
0.875
40
1
40
1
40
1
40
1
41
1
10
6.87862656162145
20
-13.5025417218896
30
0
41
1
10
6.75929444557423
20
-13.6905668447616
30
0
41
1
10
6.68588891229601
20
-13.8692494055834
30
0
41
1
10
6.65196266594157
20
-14.1205424327144
30
0
41
1
10
6.65407531961776
20
-14.1992170993759
30
0
41
1
10
6.68247650611411
20
-14.3471103097241
30
0
41
1
10
6.70878930575782
20
-14.4163227588426
30
0
41
1
10
6.76620085058536
20
-14.5131422440013
30
0
41
1
10
6.78839966340976
20
-14.5442778674532
30
0
41
1
10
6.83802864822025
20
-14.6033168631855
30
0
41
1
10
6.86552101246016
20
-14.6313478743743
30
0
41
1
10
6.95572754617825
20
-14.7111845238834
30
0
41
1
10
7.02617508118794
20
-14.7587376626119
30
0
41
1
10
7.18667626732119
20
-14.8432828295391
30
0
41
1
10
7.27708686807634
20
-14.8802712867426
30
0
41
1
10
7.47225675846013
20
-14.9426867451882
30
0
41
1
10
7.5774742994108
20
-14.968408938787
30
0
41
1
10
7.8022888658661
20
-15.0099067286244
30
0
41
1
10
7.92232788555114
20
-15.0257275231374
30
0
41
1
10
8.17455584100728
20
-15.0477819781175
30
0
41
1
10
8.30575388409949
20
-15.053941253595
30
0
41
1
10
8.57753054571035
20
-15.0576779024024
30
0
41
1
10
8.7181128087712
20
-15.0552502579002
30
0
41
1
10
9.00837422410518
20
-15.0424829951657
30
0
41
1
10
9.15879819304354
20
-15.0320641853864
30
0
41
1
10
9.61757509800125
20
-14.9900299335762
30
0
41
1
10
9.93277595493518
20
-14.948006787865
30
0
41
1
10
10.5817288367759
20
-14.8394899876799
30
0
41
1
10
10.9171487014365
20
-14.7725102192097
30
0
41
1
10
11.2545905056881
20
-14.6947821492667
30
0
0
SPLINE
5
2AB
100
AcDbEntity
8
1
62
256
6
ByLayer
370
13
48
1
60
0
100
AcDbSpline
70
4
71
3
72
8
73
4
40
0
40
0
40
0
40
0
40
1
40
1
40
1
40
1
41
1
10
0
20
3.54400902933392
30
0
41
1
10
0.0316790368941895
20
3.68613527180352
30
0
41
1
10
0.0650361897271239
20
3.82766613327232
30
0
41
1
10
0.0999999999999943
20
3.96862696659682
30
0
0
SPLINE
5
2AC
100
AcDbEntity
8
1
62
256
6
ByLayer
370
13
48
1
60
0
100
AcDbSpline
70
4
71
3
72
8
73
4
40
0
40
0
40
0
40
0
40
1
40
1
40
1
40
1
41
1
10
142.904210559901
20
4.67762434718298
30
0
41
1
10
142.819556476883
20
4.67318781468475
30
0
41
1
10
142.734944722447
20
4.66875350053351
30
0
41
1
10
142.650363143428
20
4.66432076780887
30
0
0
SPLINE
5
2AD
100
AcDbEntity
8
1
62
256
6
ByLayer
370
13
48
1
60
0
100
AcDbSpline
70
4
71
1
72
4
73
2
40
0
40
0
40
1
40
1
41
1
10
22.01
20
-11.617497299258
30
0
41
1
10
22.01
20
-6.84034337657394
30
0
0
SPLINE
5
2AE
100
AcDbEntity
8
1
62
256
6
ByLayer
370
13
48
1
60
0
100
AcDbSpline
70
4
71
3
72
8
73
4
40
0
40
0
40
0
40
0
40
1
40
1
40
1
40
1
41
1
10
135.282140202557
20
11.3744442668506
30
0
41
1
10
135.729678645525
20
10.5715154757386
30
0
41
1
10
136.237226825053
20
9.80715246141764
30
0
41
1
10
136.817906785795
20
9.08978821950112
30
0
0
SPLINE
5
2AF
100
AcDbEntity
8
1
62
256
6
ByLayer
370
13
48
1
60
0
100
AcDbSpline
70
4
71
3
72
38
73
34
40
0
40
0
40
0
40
0
40
0.125000000000001
40
0.125000000000001
40
0.187500000000002
40
0.187500000000002
40
0.250000000000002
40
0.250000000000002
40
0.375000000000003
40
0.375000000000003
40
0.437500000000003
40
0.437500000000003
40
0.468750000000003
40
0.468750000000003
40
0.500000000000003
40
0.500000000000003
40
0.562500000000003
40
0.562500000000003
40
0.625000000000002
40
0.625000000000002
40
0.750000000000001
40
0.750000000000001
40
0.781250000000001
40
0.781250000000001
40
0.812500000000001
40
0.812500000000001
40
0.875
40
0.875
40
0.9375
40
0.9375
40
0.96875
40
0.96875
40
1
40
1
40
1
40
1
41
1
10
11.2545845490254
20
-6.78962229792535
30
0
41
1
10
10.9161285692913
20
-6.85614158023725
30
0
41
1
10
10.5853001639761
20
-6.94947549799011
30
0
41
1
10
10.099281153544
20
-7.12588597657788
30
0
41
1
10
9.93899585370431
20
-7.19082036901645
30
0
41
1
10
9.62186041741927
20
-7.33303962611268
30
0
41
1
10
9.46419992619019
20
-7.41080066220701
30
0
41
1
10
9.00516461421833
20
-7.65862066629944
30
0
41
1
10
8.71609610488179
20
-7.84330703342658
30
0
41
1
10
8.30886175532314
20
-8.14998073489775
30
0
41
1
10
8.17755624786224
20
-8.25719663281492
30
0
41
1
10
7.98787711716181
20
-8.4261218121411
30
0
41
1
10
7.92583945080727
20
-8.4838290322979
30
0
41
1
10
7.80582539066344
20
-8.60044067817634
30
0
41
1
10
7.74764822947509
20
-8.65953174498313
30
0
41
1
10
7.57865451323732
20
-8.83914402367247
30
0
41
1
10
7.47335261985504
20
-8.96199451359325
30
0
41
1
10
7.27823846090149
20
-9.21404697982652
30
0
41
1
10
7.18819379175631
20
-9.34361340203449
30
0
41
1
10
6.94510854544757
20
-9.740239366769
30
0
41
1
10
6.82453102965803
20
-10.0054772002209
30
0
41
1
10
6.72897012947467
20
-10.3374010202296
30
0
41
1
10
6.71265557196864
20
-10.403806880359
30
0
41
1
10
6.68591090566764
20
-10.536657940199
30
0
41
1
10
6.67549123860306
20
-10.6032712318973
30
0
41
1
10
6.65392143577517
20
-10.7993125491921
30
0
41
1
10
6.65209652336304
20
-10.9261684284309
30
0
41
1
10
6.67433995133786
20
-11.1721998752088
30
0
41
1
10
6.69817765528705
20
-11.2914089547402
30
0
41
1
10
6.75311909595123
20
-11.4644922531717
30
0
41
1
10
6.77461380513273
20
-11.5210606544701
30
0
41
1
10
6.82336983142602
20
-11.6308098631622
30
0
41
1
10
6.85068528495975
20
-11.684171304332
30
0
41
1
10
6.88088250141337
20
-11.736060517154
30
0
0
SPLINE
5
2B0
100
AcDbEntity
8
1
62
256
6
ByLayer
370
13
48
1
60
0
100
AcDbSpline
70
4
71
3
72
8
73
4
40
0
40
0
40
0
40
0
40
1
40
1
40
1
40
1
41
1
10
136.113570251806
20
4.34040263729818
30
0
41
1
10
136.141180263825
20
4.43642998824058
30
0
41
1
10
136.167197931151
20
4.53272646427754
30
0
41
1
10
136.1921734522
20
4.62919907536696
30
0
0
SPLINE
5
2B1
100
AcDbEntity
8
1
62
256
6
ByLayer
370
13
48
1
60
0
100
AcDbSpline
70
4
71
3
72
8
73
4
40
0
40
0
40
0
40
0
40
1
40
1
40
1
40
1
41
1
10
142.17633392512
20
4.12362530811839
30
0
41
1
10
142.222552006953
20
4.17258808618223
30
0
41
1
10
142.267611791397
20
4.22711918856891
30
0
41
1
10
142.310191876869
20
4.28821730801667
30
0
0
SPLINE
5
2B2
100
AcDbEntity
8
1
62
256
6
ByLayer
370
13
48
1
60
0
100
AcDbSpline
70
4
71
3
72
8
73
4
40
0
40
0
40
0
40
0
40
1
40
1
40
1
40
1
41
1
10
136.1921734522
20
4.62919907536696
30
0
41
1
10
136.192440944208
20
4.63023231317183
30
0
41
1
10
136.192734570394
20
4.63126274622672
30
0
41
1
10
136.193053907021
20
4.63229042795007
30
0
0
SPLINE
5
2B3
100
AcDbEntity
8
1
62
256
6
ByLayer
370
13
48
1
60
0
100
AcDbSpline
70
4
71
3
72
18
73
14
40
0
40
0
40
0
40
0
40
0.5
40
0.5
40
0.625000000000001
40
0.625000000000001
40
0.656250000000001
40
0.656250000000001
40
0.687500000000001
40
0.687500000000001
40
0.75
40
0.75
40
1
40
1
40
1
40
1
41
1
10
11.2535571588776
20
-14.6950201640796
30
0
41
1
10
12.7173301075131
20
-14.3578791925818
30
0
41
1
10
14.1585143276927
20
-13.9600347746599
30
0
41
1
10
15.9307803002913
20
-13.3842206784917
30
0
41
1
10
16.2836733297802
20
-13.2651500854229
30
0
41
1
10
16.723448272417
20
-13.1111050428846
30
0
41
1
10
16.8113313204104
20
-13.0800370152543
30
0
41
1
10
16.9869525642867
20
-13.0173794255482
30
0
41
1
10
17.0745893320064
20
-12.9854246752762
30
0
41
1
10
17.3381033969273
20
-12.8917342454345
30
0
41
1
10
17.5147422652605
20
-12.8327405733999
30
0
41
1
10
18.4027232643767
20
-12.5550063890574
30
0
41
1
10
19.1283310174782
20
-12.3876287005833
30
0
41
1
10
19.8695918579035
20
-12.2766093502676
30
0
0
SPLINE
5
2B4
100
AcDbEntity
8
1
62
256
6
ByLayer
370
13
48
1
60
0
100
AcDbSpline
70
4
71
3
72
12
73
8
40
0
40
0
40
0
40
0
40
0.500000000000001
40
0.500000000000001
40
0.750000000000001
40
0.750000000000001
40
1
40
1
40
1
40
1
41
1
10
138.640168947073
20
4.84676380094149
30
0
41
1
10
138.675696462196
20
4.99480902135335
30
0
41
1
10
138.700235235018
20
5.14485069428943
30
0
41
1
10
138.714248236888
20
5.37405466485592
30
0
41
1
10
138.715026025928
20
5.45161503997699
30
0
41
1
10
138.707263256652
20
5.60503994414245
30
0
41
1
10
138.698789276485
20
5.68110351354301
30
0
41
1
10
138.684967020108
20
5.75641143098389
30
0
0
SPLINE
5
2B5
100
AcDbEntity
8
1
62
256
6
ByLayer
370
13
48
1
60
0
100
AcDbSpline
70
4
71
3
72
8
73
4
40
0
40
0
40
0
40
0
40
1
40
1
40
1
40
1
41
1
10
139.775685050538
20
8.4771115142201
30
0
41
1
10
139.761696626208
20
8.4416925657363
30
0
41
1
10
139.744661485678
20
8.4095890529758
30
0
41
1
10
139.725791555742
20
8.38074564799692
30
0
0
SPLINE
5
2B6
100
AcDbEntity
8
1
62
256
6
ByLayer
370
13
48
1
60
0
100
AcDbSpline
70
4
71
3
72
8
73
4
40
0
40
0
40
0
40
0
40
1
40
1
40
1
40
1
41
1
10
22.01
20
-11.6216135407991
30
0
41
1
10
21.9643278649481
20
-11.621666842062
30
0
41
1
10
21.9186557302285
20
-11.6217203522854
30
0
41
1
10
21.8729835953543
20
-11.6217737652161
30
0
0
SPLINE
5
2B7
100
AcDbEntity
8
1
62
256
6
ByLayer
370
13
48
1
60
0
100
AcDbSpline
70
4
71
3
72
8
73
4
40
0
40
0
40
0
40
0
40
1
40
1
40
1
40
1
41
1
10
138.588774221847
20
4.38201756958216
30
0
41
1
10
138.590526492364
20
4.37921596981556
30
0
41
1
10
138.592285876465
20
4.37642059678214
30
0
41
1
10
138.594052303048
20
4.37363138966109
30
0
0
SPLINE
5
2B8
100
AcDbEntity
8
1
62
256
6
ByLayer
370
13
48
1
60
0
100
AcDbSpline
70
4
71
3
72
10
73
6
40
0
40
0
40
0
40
0
40
0.5
40
0.5
40
1
40
1
40
1
40
1
41
1
10
148.461834490754
20
5.00226615368803
30
0
41
1
10
148.474505468082
20
4.99219127000248
30
0
41
1
10
148.485403016094
20
4.98433411511706
30
0
41
1
10
148.501977858929
20
4.97392714433607
30
0
41
1
10
148.507740795797
20
4.97129292299161
30
0
41
1
10
148.510638909411
20
4.97144480669024
30
0
0
SPLINE
5
2B9
100
AcDbEntity
8
1
62
256
6
ByLayer
370
13
48
1
60
0
100
AcDbSpline
70
4
71
1
72
4
73
2
40
0
40
0
40
1
40
1
41
1
10
22.45
20
-6.83512484284054
30
0
41
1
10
22
20
-6.83512484284054
30
0
0
SPLINE
5
2BA
100
AcDbEntity
8
1
62
256
6
ByLayer
370
13
48
1
60
0
100
AcDbSpline
70
4
71
3
72
8
73
4
40
0
40
0
40
0
40
0
40
1
40
1
40
1
40
1
41
1
10
137.120816068772
20
1.25448817673873
30
0
41
1
10
137.535809515658
20
1.16943497140093
30
0
41
1
10
137.953335104387
20
1.08980507296485
30
0
41
1
10
138.374933462055
20
1.01889817555289
30
0
0
SPLINE
5
2BB
100
AcDbEntity
8
1
62
256
6
ByLayer
370
13
48
1
60
0
100
AcDbSpline
70
4
71
3
72
42
73
38
40
0
40
0
40
0
40
0
40
0.124999999999999
40
0.124999999999999
40
0.187499999999999
40
0.187499999999999
40
0.249999999999998
40
0.249999999999998
40
0.312499999999998
40
0.312499999999998
40
0.343749999999998
40
0.343749999999998
40
0.374999999999998
40
0.374999999999998
40
0.437499999999999
40
0.437499999999999
40
0.468749999999999
40
0.468749999999999
40
0.499999999999999
40
0.499999999999999
40
0.562499999999999
40
0.562499999999999
40
0.593749999999999
40
0.593749999999999
40
0.624999999999999
40
0.624999999999999
40
0.656249999999999
40
0.656249999999999
40
0.687499999999999
40
0.687499999999999
40
0.749999999999999
40
0.749999999999999
40
0.812499999999999
40
0.812499999999999
40
0.875
40
0.875
40
1
40
1
40
1
40
1
41
1
10
5.98979999999997
20
-3.96862696659693
30
0
41
1
10
6.36532142555748
20
-3.75585375292604
30
0
41
1
10
6.72322870859125
20
-3.51993617991818
30
0
41
1
10
7.22623814435943
20
-3.12158016325472
30
0
41
1
10
7.38821794081983
20
-2.98131834560471
30
0
41
1
10
7.69853330475488
20
-2.68286667673178
30
0
41
1
10
7.84717051008718
20
-2.52411901197931
30
0
41
1
10
8.12099249182515
20
-2.19257075769894
30
0
41
1
10
8.2470505000307
20
-2.01906399340177
30
0
41
1
10
8.4167124782721
20
-1.7449637124179
30
0
41
1
10
8.47001515317754
20
-1.6512804219773
30
0
41
1
10
8.56936544307996
20
-1.45874468644394
30
0
41
1
10
8.61519820544498
20
-1.36020860559003
30
0
41
1
10
8.73850807246592
20
-1.06153646494093
30
0
41
1
10
8.80266731762552
20
-0.856861362086192
30
0
41
1
10
8.86840883004129
20
-0.54045254162628
30
0
41
1
10
8.88527518084447
20
-0.432803889936253
30
0
41
1
10
8.90771040292475
20
-0.217202721520209
30
0
41
1
10
8.91330186149219
20
-0.109711236464335
30
0
41
1
10
8.91356113753534
20
0.211855884014767
30
0
41
1
10
8.89176314879026
20
0.425026892916293
30
0
41
1
10
8.8266192426596
20
0.743000781919051
30
0
41
1
10
8.79941366962629
20
0.848668989513641
30
0
41
1
10
8.73577383787082
20
1.05499134027653
30
0
41
1
10
8.69923651052636
20
1.15623821603757
30
0
41
1
10
8.61743457959352
20
1.35519048687286
30
0
41
1
10
8.57216869116493
20
1.452895360566
30
0
41
1
10
8.47346373848154
20
1.64498847816665
30
0
41
1
10
8.41978913230665
20
1.7397304300855
30
0
41
1
10
8.24942755101745
20
2.01572996357251
30
0
41
1
10
8.12340191144853
20
2.18932382476379
30
0
41
1
10
7.85114665125946
20
2.51962656666632
30
0
41
1
10
7.70488324959314
20
2.67630721569867
30
0
41
1
10
7.39503658502588
20
2.97519386551844
30
0
41
1
10
7.23117479347462
20
3.11748045167525
30
0
41
1
10
6.7250216005462
20
3.51889012091004
30
0
41
1
10
6.36577086609458
20
3.75559909659773
30
0
41
1
10
5.98979999999997
20
3.96862696659693
30
0
0
SPLINE
5
2BC
100
AcDbEntity
8
1
62
256
6
ByLayer
370
13
48
1
60
0
100
AcDbSpline
70
4
71
3
72
8
73
4
40
0
40
0
40
0
40
0
40
1
40
1
40
1
40
1
41
1
10
142.650363143462
20
4.66432076729023
30
0
41
1
10
142.632134807571
20
4.63672358120462
30
0
41
1
10
142.616592875747
20
4.60697033197511
30
0
41
1
10
142.604380582877
20
4.57607900855342
30
0
0
SPLINE
5
2BD
100
AcDbEntity
8
1
62
256
6
ByLayer
370
13
48
1
60
0
100
AcDbSpline
70
4
71
3
72
12
73
8
40
0
40
0
40
0
40
0
40
0.500000000000048
40
0.500000000000048
40
0.750000000000024
40
0.750000000000024
40
1
40
1
40
1
40
1
41
1
10
144.05416204493
20
4.89048082256767
30
0
41
1
10
144.171846992614
20
4.84436152756422
30
0
41
1
10
144.290329051809
20
4.8130908892166
30
0
41
1
10
144.470529252351
20
4.78479405453666
30
0
41
1
10
144.531183240233
20
4.77852862488439
30
0
41
1
10
144.652137311643
20
4.77234551868924
30
0
41
1
10
144.713020817237
20
4.77242007591431
30
0
41
1
10
144.77291351275
20
4.77555891908142
30
0
0
SPLINE
5
2BE
100
AcDbEntity
8
1
62
256
6
ByLayer
370
13
48
1
60
0
100
AcDbSpline
70
4
71
3
72
14
73
10
40
0
40
0
40
0
40
0
40
0.500000000000007
40
0.500000000000007
40
0.625000000000005
40
0.625000000000005
40
0.750000000000004
40
0.750000000000004
40
1
40
1
40
1
40
1
41
1
10
139.863214468951
20
3.58266962548979
30
0
41
1
10
140.507784564034
20
3.50886024542436
30
0
41
1
10
141.135455064754
20
3.5073207603354
30
0
41
1
10
141.898708206726
20
3.57890316721455
30
0
41
1
10
142.050276006539
20
3.59694282956062
30
0
41
1
10
142.351182586418
20
3.64020481743506
30
0
41
1
10
142.500712982341
20
3.66547101631542
30
0
41
1
10
142.943528081009
20
3.75121954527253
30
0
41
1
10
143.231567291247
20
3.82166825102215
30
0
41
1
10
143.512416657996
20
3.90403659863569
30
0
0
SPLINE
5
2BF
100
AcDbEntity
8
1
62
256
6
ByLayer
370
13
48
1
60
0
100
AcDbSpline
70
4
71
3
72
8
73
4
40
0
40
0
40
0
40
0
40
1
40
1
40
1
40
1
41
1
10
21.8729835953543
20
-11.6217737651974
30
0
41
1
10
21.8729835971141
20
-11.8001914905396
30
0
41
1
10
21.8729835989136
20
-11.9786092158651
30
0
41
1
10
21.8729836007526
20
-12.157026941174
30
0
0
SPLINE
5
2C0
100
AcDbEntity
8
1
62
256
6
ByLayer
370
13
48
1
60
0
100
AcDbSpline
70
4
71
3
72
16
73
12
40
0
40
0
40
0
40
0
40
0.125
40
0.125
40
0.25
40
0.25
40
0.5
40
0.5
40
0.75
40
0.75
40
1
40
1
40
1
40
1
41
1
10
73.6
20
-12.0280797781039
30
0
41
1
10
71.6583408918265
20
-12.0337728831273
30
0
41
1
10
69.716679745678
20
-12.0394061721452
30
0
41
1
10
65.8333535268866
20
-12.0505629164117
30
0
41
1
10
63.8916836465882
20
-12.0559730016547
30
0
41
1
10
58.0666780837026
20
-12.0717906843125
30
0
41
1
10
54.1833400222696
20
-12.0817905225067
30
0
41
1
10
46.4166656387072
20
-12.1027202565872
30
0
41
1
10
42.533332263951
20
-12.1135441839564
30
0
41
1
10
34.7666681937721
20
-12.1352118441302
30
0
41
1
10
30.8833362528825
20
-12.1460460182282
30
0
41
1
10
27
20
-12.1566361794614
30
0
0
SPLINE
5
2C1
100
AcDbEntity
8
1
62
256
6
ByLayer
370
13
48
1
60
0
100
AcDbSpline
70
4
71
3
72
8
73
4
40
0
40
0
40
0
40
0
40
1
40
1
40
1
40
1
41
1
10
133.808158507363
20
1.44616533747447
30
0
41
1
10
134.304037546355
20
1.12070706672293
30
0
41
1
10
134.832510365945
20
0.86024464058579
30
0
41
1
10
135.396356155012
20
0.67161230122386
30
0
0
SPLINE
5
2C2
100
AcDbEntity
8
1
62
256
6
ByLayer
370
13
48
1
60
0
100
AcDbSpline
70
4
71
3
72
10
73
6
40
0
40
0
40
0
40
0
40
0.5
40
0.5
40
1
40
1
40
1
40
1
41
1
10
136.511896885754
20
5.69170714069165
30
0
41
1
10
136.605963024538
20
5.69443743139192
30
0
41
1
10
136.699929034498
20
5.69338920200127
30
0
41
1
10
136.88251331439
20
5.68364110312532
30
0
41
1
10
136.971582644431
20
5.67498928098956
30
0
41
1
10
137.058455148674
20
5.66251747059502
30
0
0
SPLINE
5
2C3
100
AcDbEntity
8
1
62
256
6
ByLayer
370
13
48
1
60
0
100
AcDbSpline
70
4
71
3
72
40
73
36
40
0
40
0
40
0
40
0
40
0.0625000000000106
40
0.0625000000000106
40
0.125000000000021
40
0.125000000000021
40
0.187500000000032
40
0.187500000000032
40
0.250000000000042
40
0.250000000000042
40
0.312500000000053
40
0.312500000000053
40
0.375000000000064
40
0.375000000000064
40
0.437500000000074
40
0.437500000000074
40
0.468750000000079
40
0.468750000000079
40
0.500000000000085
40
0.500000000000085
40
0.53125000000009
40
0.53125000000009
40
0.562500000000095
40
0.562500000000095
40
0.625000000000086
40
0.625000000000086
40
0.750000000000069
40
0.750000000000069
40
0.812500000000052
40
0.812500000000052
40
0.875000000000034
40
0.875000000000034
40
0.937500000000017
40
0.937500000000017
40
1
40
1
40
1
40
1
41
1
10
142.604380582877
20
4.57607900855342
30
0
41
1
10
142.573840119748
20
4.49882608528699
30
0
41
1
10
142.537626319159
20
4.42394686459826
30
0
41
1
10
142.457831792937
20
4.28527770732523
30
0
41
1
10
142.413980344441
20
4.22061878596009
30
0
41
1
10
142.318595481701
20
4.09954202981189
30
0
41
1
10
142.266935306294
20
4.04316212169522
30
0
41
1
10
142.159185942716
20
3.94127674952898
30
0
41
1
10
142.102715870431
20
3.89523919394998
30
0
41
1
10
141.984123077162
20
3.81206321551147
30
0
41
1
10
141.921771539323
20
3.77480244372009
30
0
41
1
10
141.791002500121
20
3.7095787613595
30
0
41
1
10
141.723221845052
20
3.68183674803109
30
0
41
1
10
141.579499893836
20
3.6359468169388
30
0
41
1
10
141.503111981293
20
3.61779760367418
30
0
41
1
10
141.38245032982
20
3.5997080299467
30
0
41
1
10
141.340574182328
20
3.595132492132
30
0
41
1
10
141.256202806312
20
3.58942266186458
30
0
41
1
10
141.214081044907
20
3.58827337154898
30
0
41
1
10
141.129946329731
20
3.58918045230661
30
0
41
1
10
141.087677453693
20
3.59126090533269
30
0
41
1
10
141.004438707348
20
3.59842185919291
30
0
41
1
10
140.963761760404
20
3.60344940059991
30
0
41
1
10
140.843681330073
20
3.62250299046676
30
0
41
1
10
140.766168287733
20
3.64046149028823
30
0
41
1
10
140.537983234661
20
3.70982055650529
30
0
41
1
10
140.396919352806
20
3.77466409242101
30
0
41
1
10
140.197794291404
20
3.90226621595798
30
0
41
1
10
140.133099105123
20
3.95043374576628
30
0
41
1
10
140.011511761697
20
4.05608084442289
30
0
41
1
10
139.954487026124
20
4.11350216632809
30
0
41
1
10
139.848411922255
20
4.23868926885319
30
0
41
1
10
139.799001780423
20
4.3071924785543
30
0
41
1
10
139.712786733479
20
4.45088462732861
30
0
41
1
10
139.675541713675
20
4.52639006755186
30
0
41
1
10
139.644695544253
20
4.60603554443395
30
0
0
SPLINE
5
2C4
100
AcDbEntity
8
1
62
256
6
ByLayer
370
13
48
1
60
0
100
AcDbSpline
70
4
71
3
72
10
73
6
40
0
40
0
40
0
40
0
40
0.5
40
0.5
40
1
40
1
40
1
40
1
41
1
10
137.06480059254
20
5.66335230727017
30
0
41
1
10
137.095980691418
20
5.66683025489112
30
0
41
1
10
137.127374903795
20
5.66933985716727
30
0
41
1
10
137.190886083223
20
5.67109034616439
30
0
41
1
10
137.223093808756
20
5.67039846744495
30
0
41
1
10
137.255223132044
20
5.66643997990272
30
0
0
SPLINE
5
2C5
100
AcDbEntity
8
1
62
256
6
ByLayer
370
13
48
1
60
0
100
AcDbSpline
70
4
71
3
72
8
73
4
40
0
40
0
40
0
40
0
40
1
40
1
40
1
40
1
41
1
10
137.284714295236
20
0.275857761301893
30
0
41
1
10
137.655256530093
20
0.254787044202658
30
0
41
1
10
138.025803872175
20
0.233762514910438
30
0
41
1
10
138.396356155011
20
0.212783054731261
30
0
0
SPLINE
5
2C6
100
AcDbEntity
8
1
62
256
6
ByLayer
370
13
48
1
60
0
100
AcDbSpline
70
4
71
3
72
10
73
6
40
0
40
0
40
0
40
0
40
0.5
40
0.5
40
1
40
1
40
1
40
1
41
1
10
138.588774221847
20
4.38201756958216
30
0
41
1
10
138.588101548093
20
4.45476908544603
30
0
41
1
10
138.591522253739
20
4.5302089876956
30
0
41
1
10
138.60794340001
20
4.68641191352359
30
0
41
1
10
138.621045557913
20
4.76707552683962
30
0
41
1
10
138.640168947073
20
4.84676380094146
30
0
0
SPLINE
5
2C7
100
AcDbEntity
8
1
62
256
6
ByLayer
370
13
48
1
60
0
100
AcDbSpline
70
4
71
3
72
60
73
56
40
0
40
0
40
0
40
0
40
0.0312500000000014
40
0.0312500000000014
40
0.0625000000000027
40
0.0625000000000027
40
0.0937500000000041
40
0.0937500000000041
40
0.109375000000004
40
0.109375000000004
40
0.125000000000004
40
0.125000000000004
40
0.132812500000005
40
0.132812500000005
40
0.140625000000005
40
0.140625000000005
40
0.148437500000006
40
0.148437500000006
40
0.156250000000007
40
0.156250000000007
40
0.187500000000007
40
0.187500000000007
40
0.218750000000007
40
0.218750000000007
40
0.250000000000007
40
0.250000000000007
40
0.281250000000007
40
0.281250000000007
40
0.312500000000008
40
0.312500000000008
40
0.375000000000007
40
0.375000000000007
40
0.437500000000007
40
0.437500000000007
40
0.468750000000007
40
0.468750000000007
40
0.500000000000006
40
0.500000000000006
40
0.562500000000006
40
0.562500000000006
40
0.625000000000006
40
0.625000000000006
40
0.687500000000006
40
0.687500000000006
40
0.750000000000005
40
0.750000000000005
40
0.781250000000005
40
0.781250000000005
40
0.812500000000005
40
0.812500000000005
40
0.875000000000003
40
0.875000000000003
40
0.937500000000002
40
0.937500000000002
40
1
40
1
40
1
40
1
41
1
10
135.396356155012
20
-11.9876237740332
30
0
41
1
10
134.739147811726
20
-11.9775437377342
30
0
41
1
10
134.079696524376
20
-11.9687813312691
30
0
41
1
10
132.758859153567
20
-11.9527271073094
30
0
41
1
10
132.096517767782
20
-11.9455070067715
30
0
41
1
10
130.77750144611
20
-11.9266313450905
30
0
41
1
10
130.120948330289
20
-11.9150426397757
30
0
41
1
10
129.148101306102
20
-11.8872525222868
30
0
41
1
10
128.82580053363
20
-11.8762352507946
30
0
41
1
10
128.18672018688
20
-11.8485697962439
30
0
41
1
10
127.869850857709
20
-11.8320229298131
30
0
41
1
10
127.400570813559
20
-11.8000751999396
30
0
41
1
10
127.24529849036
20
-11.7880895295041
30
0
41
1
10
126.936737441917
20
-11.7613552801569
30
0
41
1
10
126.783446426901
20
-11.7465955910976
30
0
41
1
10
126.47747759828
20
-11.7153409563721
30
0
41
1
10
126.324713065809
20
-11.6989411251576
30
0
41
1
10
126.019122374253
20
-11.6650710201896
30
0
41
1
10
125.866296874479
20
-11.6476057116236
30
0
41
1
10
125.101974448085
20
-11.5577060189886
30
0
41
1
10
124.489953050172
20
-11.4775014070072
30
0
41
1
10
123.266679674756
20
-11.3003684086547
30
0
41
1
10
122.65538861103
20
-11.2033505934295
30
0
41
1
10
121.433774526541
20
-10.9920350930946
30
0
41
1
10
120.823279906723
20
-10.8778540185848
30
0
41
1
10
119.601600068779
20
-10.6337029309675
30
0
41
1
10
118.990473803692
20
-10.5036652556841
30
0
41
1
10
117.766054170818
20
-10.2297530193416
30
0
41
1
10
117.152416149684
20
-10.0858842650366
30
0
41
1
10
115.309175572995
20
-9.6403337577986
30
0
41
1
10
114.075481324127
20
-9.32537965101019
30
0
41
1
10
111.590751961629
20
-8.6839725754636
30
0
41
1
10
110.33981648782
20
-8.35747207532199
30
0
41
1
10
108.44763623064
20
-7.87394842428495
30
0
41
1
10
107.814283104058
20
-7.7138120250649
30
0
41
1
10
106.541830710905
20
-7.3982145004166
30
0
41
1
10
105.902258117836
20
-7.24264356805585
30
0
41
1
10
103.978151408756
20
-6.78791655849329
30
0
41
1
10
102.688594169079
20
-6.50125604771787
30
0
41
1
10
100.095850438129
20
-5.96918018529203
30
0
41
1
10
98.7926767929911
20
-5.72368991081956
30
0
41
1
10
96.1723762104436
20
-5.28181318628472
30
0
41
1
10
94.8548560002173
20
-5.08534437913352
30
0
41
1
10
92.2082613470839
20
-4.74381442424192
30
0
41
1
10
90.8837162290309
20
-4.59924668260246
30
0
41
1
10
88.8949151263782
20
-4.42626882477265
30
0
41
1
10
88.2316300868324
20
-4.37638384682384
30
0
41
1
10
86.9042449625148
20
-4.29499004166382
30
0
41
1
10
86.2401484007871
20
-4.26340455106296
30
0
41
1
10
84.2467921636399
20
-4.1929336418051
30
0
41
1
10
82.9165644593496
20
-4.17611023160865
30
0
41
1
10
80.2554058566822
20
-4.1586209424446
30
0
41
1
10
78.924403113071
20
-4.1595713500638
30
0
41
1
10
76.2622823832565
20
-4.16411387634773
30
0
41
1
10
74.9311312660881
20
-4.16846309608306
30
0
41
1
10
73.6
20
-4.17235672663486
30
0
0
SPLINE
5
2C8
100
AcDbEntity
8
1
62
256
6
ByLayer
370
13
48
1
60
0
100
AcDbSpline
70
4
71
3
72
10
73
6
40
0
40
0
40
0
40
0
40
0.5
40
0.5
40
1
40
1
40
1
40
1
41
1
10
143.512416657996
20
3.90403659863569
30
0
41
1
10
143.793003563333
20
3.98632797077647
30
0
41
1
10
144.0627878198
20
4.05070596517135
30
0
41
1
10
144.579917858494
20
4.15274391758075
30
0
41
1
10
144.827218344791
20
4.19032451618034
30
0
41
1
10
145.061556994176
20
4.21800968855328
30
0
0
SPLINE
5
2C9
100
AcDbEntity
8
1
62
256
6
ByLayer
370
13
48
1
60
0
100
AcDbSpline
70
4
71
3
72
10
73
6
40
0
40
0
40
0
40
0
40
0.5
40
0.5
40
1
40
1
40
1
40
1
41
1
10
145.109372111034
20
4.79319196703818
30
0
41
1
10
144.742684951322
20
4.77397470730605
30
0
41
1
10
144.375286699861
20
4.75472018083454
30
0
41
1
10
143.63981607208
20
4.71617579850462
30
0
41
1
10
143.271797198923
20
4.69688874662819
30
0
41
1
10
142.904210559901
20
4.67762434718298
30
0
0
SPLINE
5
2CA
100
AcDbEntity
8
1
62
256
6
ByLayer
370
13
48
1
60
0
100
AcDbSpline
70
4
71
3
72
8
73
4
40
0
40
0
40
0
40
0
40
1
40
1
40
1
40
1
41
1
10
22.45
20
-11.6079446520193
30
0
41
1
10
22.3033333220243
20
-11.6081002832144
30
0
41
1
10
22.1566666547056
20
-11.6082634882028
30
0
41
1
10
22.01
20
-11.608434475089
30
0
0
SPLINE
5
2CB
100
AcDbEntity
8
1
62
256
6
ByLayer
370
13
48
1
60
0
100
AcDbSpline
70
4
71
3
72
18
73
14
40
0
40
0
40
0
40
0
40
0.249999999999996
40
0.249999999999996
40
0.374999999999993
40
0.374999999999993
40
0.49999999999999
40
0.49999999999999
40
0.750000000000047
40
0.750000000000047
40
0.875000000000024
40
0.875000000000024
40
1
40
1
40
1
40
1
41
1
10
142.640580693626
20
4.66380809133881
30
0
41
1
10
142.635260143786
20
4.66352925313291
30
0
41
1
10
142.636524088004
20
4.67378770526074
30
0
41
1
10
142.65178918366
20
4.70220603612478
30
0
41
1
10
142.659147838133
20
4.71371054490044
30
0
41
1
10
142.679090097322
20
4.73920890448153
30
0
41
1
10
142.691941178091
20
4.75345368937951
30
0
41
1
10
142.738024439698
20
4.79592069813282
30
0
41
1
10
142.780212133771
20
4.82461343726379
30
0
41
1
10
142.853501099177
20
4.8557987061464
30
0
41
1
10
142.880013212968
20
4.86447668842371
30
0
41
1
10
142.934157935751
20
4.87695822647697
30
0
41
1
10
142.962023259123
20
4.88091304883002
30
0
41
1
10
142.99069160346
20
4.88243105944136
30
0
0
SPLINE
5
2CC
100
AcDbEntity
8
1
62
256
6
ByLayer
370
13
48
1
60
0
100
AcDbSpline
70
4
71
3
72
8
73
4
40
0
40
0
40
0
40
0
40
1
40
1
40
1
40
1
41
1
10
137.064800592523
20
5.66335230732739
30
0
41
1
10
137.062692678448
20
5.6630556848998
30
0
41
1
10
137.060577519156
20
5.66277747509523
30
0
41
1
10
137.058455148674
20
5.66251747059499
30
0
0
SPLINE
5
2CD
100
AcDbEntity
8
1
62
256
6
ByLayer
370
13
48
1
60
0
100
AcDbSpline
70
4
71
3
72
12
73
8
40
0
40
0
40
0
40
0
40
0.25
40
0.25
40
0.5
40
0.5
40
1
40
1
40
1
40
1
41
1
10
146.374972417837
20
4.85951926857769
30
0
41
1
10
146.428959516003
20
4.8623486125025
30
0
41
1
10
146.483529797653
20
4.8683247318767
30
0
41
1
10
146.591423002796
20
4.886501215631
30
0
41
1
10
146.64526828365
20
4.89876729768724
30
0
41
1
10
146.804624652874
20
4.94485953812958
30
0
41
1
10
146.908568889988
20
4.98778704472093
30
0
41
1
10
147.011470784703
20
5.04546680627354
30
0
0
SPLINE
5
2CE
100
AcDbEntity
8
1
62
256
6
ByLayer
370
13
48
1
60
0
100
AcDbSpline
70
4
71
3
72
16
73
12
40
0
40
0
40
0
40
0
40
0.25
40
0.25
40
0.5
40
0.5
40
0.75
40
0.75
40
0.875
40
0.875
40
1
40
1
40
1
40
1
41
1
10
21.8729835953543
20
-11.6217737652356
30
0
41
1
10
21.6887383621601
20
-11.62198923749
30
0
41
1
10
21.5078899270885
20
-11.6375475731838
30
0
41
1
10
21.1524647879037
20
-11.6969927786593
30
0
41
1
10
20.9775174641848
20
-11.7410207998703
30
0
41
1
10
20.6352967275603
20
-11.8562560302423
30
0
41
1
10
20.472348098811
20
-11.9259051283209
30
0
41
1
10
20.2385301716508
20
-12.046011970686
30
0
41
1
10
20.1623687570766
20
-12.0886684362629
30
0
41
1
10
20.0134302824061
20
-12.1789703532439
30
0
41
1
10
19.9404407188233
20
-12.2267687618772
30
0
41
1
10
19.8695918579036
20
-12.2766093502677
30
0
0
SPLINE
5
2CF
100
AcDbEntity
8
1
62
256
6
ByLayer
370
13
48
1
60
0
100
AcDbSpline
70
4
71
3
72
8
73
4
40
0
40
0
40
0
40
0
40
1
40
1
40
1
40
1
41
1
10
149.306428792047
20
-1.69962515450791
30
0
41
1
10
149.377389759949
20
-2.09158677858727
30
0
41
1
10
149.39330649196
20
-2.48228446231425
30
0
41
1
10
149.357874006889
20
-2.87143507023126
30
0
0
SPLINE
5
2D0
100
AcDbEntity
8
1
62
256
6
ByLayer
370
13
48
1
60
0
100
AcDbSpline
70
4
71
3
72
12
73
8
40
0
40
0
40
0
40
0
40
0.25
40
0.25
40
0.5
40
0.5
40
1
40
1
40
1
40
1
41
1
10
137.255223132012
20
5.66643997990568
30
0
41
1
10
137.384273825456
20
5.65334984518645
30
0
41
1
10
137.509495093518
20
5.64862401679468
30
0
41
1
10
137.755768668053
20
5.65012134778354
30
0
41
1
10
137.87667938134
20
5.65630380948869
30
0
41
1
10
138.231766253997
20
5.68499088792504
30
0
41
1
10
138.460302330283
20
5.71730434090142
30
0
41
1
10
138.684967020124
20
5.75641143098616
30
0
0
SPLINE
5
2D1
100
AcDbEntity
8
1
62
256
6
ByLayer
370
13
48
1
60
0
100
AcDbSpline
70
4
71
3
72
8
73
4
40
0
40
0
40
0
40
0
40
1
40
1
40
1
40
1
41
1
10
27
20
-12.1566361794621
30
0
41
1
10
25.3333330727733
20
-12.1566180562909
30
0
41
1
10
23.6666660096546
20
-12.1565558056787
30
0
41
1
10
22
20
-12.1564296883999
30
0
0
SPLINE
5
2D2
100
AcDbEntity
8
1
62
256
6
ByLayer
370
13
48
1
60
0
100
AcDbSpline
70
4
71
3
72
8
73
4
40
0
40
0
40
0
40
0
40
1
40
1
40
1
40
1
41
1
10
0.0999999999999659
20
-3.96862696659682
30
0
41
1
10
0.0650328392778476
20
-3.82765262553048
30
0
41
1
10
0.0316759574587309
20
-3.68612145608716
30
0
41
1
10
0
20
-3.54400902933392
30
0
0
SPLINE
5
2D3
100
AcDbEntity
8
1
62
256
6
ByLayer
370
13
48
1
60
0
100
AcDbSpline
70
4
71
3
72
16
73
12
40
0
40
0
40
0
40
0
40
0.124999999999998
40
0.124999999999998
40
0.249999999999997
40
0.249999999999997
40
0.499999999999998
40
0.499999999999998
40
0.749999999999999
40
0.749999999999999
40
1
40
1
40
1
40
1
41
1
10
19.8588122555601
20
-4.7277647888188
30
0
41
1
10
19.9344642734626
20
-4.68393973203319
30
0
41
1
10
20.0117128484287
20
-4.64247877906834
30
0
41
1
10
20.1694477236533
20
-4.56439249894535
30
0
41
1
10
20.2502099739927
20
-4.52766473144129
30
0
41
1
10
20.4943706013009
20
-4.4262100796191
30
0
41
1
10
20.6601628116894
20
-4.36982186424251
30
0
41
1
10
20.9976211885233
20
-4.27900210603755
30
0
41
1
10
21.16928740917
20
-4.24457055526622
30
0
41
1
10
21.518641000107
20
-4.198256422951
30
0
41
1
10
21.6959167230658
20
-4.18655394247278
30
0
41
1
10
21.8729836260655
20
-4.18666872959557
30
0
0
SPLINE
5
2D4
100
AcDbEntity
8
1
62
256
6
ByLayer
370
13
48
1
60
0
100
AcDbSpline
70
4
71
3
72
10
73
6
40
0
40
0
40
0
40
0
40
0.5
40
0.5
40
1
40
1
40
1
40
1
41
1
10
135.396356155011
20
0.671612301223917
30
0
41
1
10
135.70201152064
20
0.559177910492764
30
0
41
1
10
136.012218909028
20
0.469818771905153
30
0
41
1
10
136.641610125916
20
0.337384652050844
30
0
41
1
10
136.96078796118
20
0.294277686222017
30
0
41
1
10
137.284714295236
20
0.275857761301637
30
0
0
SPLINE
5
2D5
100
AcDbEntity
8
1
62
256
6
ByLayer
370
13
48
1
60
0
100
AcDbSpline
70
4
71
3
72
18
73
14
40
0
40
0
40
0
40
0
40
0.250000000000001
40
0.250000000000001
40
0.375000000000001
40
0.375000000000001
40
0.500000000000001
40
0.500000000000001
40
0.625000000000001
40
0.625000000000001
40
0.750000000000001
40
0.750000000000001
40
1
40
1
40
1
40
1
41
1
10
6.88088250141334
20
-11.736060517154
30
0
41
1
10
6.78102443043625
20
-11.9041311744977
30
0
41
1
10
6.70365698629143
20
-12.0704089166985
30
0
41
1
10
6.62399683521181
20
-12.3166488740661
30
0
41
1
10
6.60350349936397
20
-12.3987196839349
30
0
41
1
10
6.57636892385904
20
-12.5584105134594
30
0
41
1
10
6.56960746706179
20
-12.6361258729853
30
0
41
1
10
6.56976908793843
20
-12.7873234697286
30
0
41
1
10
6.57641898500538
20
-12.8608424400658
30
0
41
1
10
6.60281930304848
20
-13.0037254341601
30
0
41
1
10
6.62272403084276
20
-13.0734464677004
30
0
41
1
10
6.70148238598171
20
-13.2734942945591
30
0
41
1
10
6.77845946519912
20
-13.3939466618782
30
0
41
1
10
6.87862656162142
20
-13.5025417218897
30
0
0
SPLINE
5
2D6
100
AcDbEntity
8
1
62
256
6
ByLayer
370
13
48
1
60
0
100
AcDbSpline
70
4
71
3
72
12
73
8
40
0
40
0
40
0
40
0
40
0.250000000000002
40
0.250000000000002
40
0.500000000000003
40
0.500000000000003
40
1
40
1
40
1
40
1
41
1
10
136.398124221811
20
5.62959822449119
30
0
41
1
10
136.400701846679
20
5.64061437721702
30
0
41
1
10
136.407047599183
20
5.65046094275178
30
0
41
1
10
136.423278047944
20
5.66627426511582
30
0
41
1
10
136.433113486068
20
5.67242397902868
30
0
41
1
10
136.464477908224
20
5.68671506354212
30
0
41
1
10
136.488011726932
20
5.69101380470468
30
0
41
1
10
136.511887338462
20
5.69170686356654
30
0
0
SPLINE
5
2D7
100
AcDbEntity
8
1
62
256
6
ByLayer
370
13
48
1
60
0
100
AcDbSpline
70
4
71
3
72
18
73
14
40
0
40
0
40
0
40
0
40
0.249999999999995
40
0.249999999999995
40
0.312499999999994
40
0.312499999999994
40
0.343749999999993
40
0.343749999999993
40
0.374999999999993
40
0.374999999999993
40
0.499999999999994
40
0.499999999999994
40
1
40
1
40
1
40
1
41
1
10
19.8588122555601
20
-4.72776478881866
30
0
41
1
10
19.1176859912812
20
-4.82296036594079
30
0
41
1
10
18.3925647345677
20
-4.96618254103655
30
0
41
1
10
17.5055715909658
20
-5.20344957850355
30
0
41
1
10
17.3291494192769
20
-5.25383306329314
30
0
41
1
10
17.0659883392308
20
-5.33382588765977
30
0
41
1
10
16.9784474437443
20
-5.3610286858291
30
0
41
1
10
16.8030206806164
20
-5.41439911620944
30
0
41
1
10
16.715233498934
20
-5.44086287766984
30
0
41
1
10
16.2759310181292
20
-5.57208170267799
30
0
41
1
10
15.9234179470741
20
-5.67351079194515
30
0
41
1
10
14.1536491582984
20
-6.16387252647658
30
0
41
1
10
12.7147248021466
20
-6.50268218032588
30
0
41
1
10
11.2534806534111
20
-6.78983924118359
30
0
0
SPLINE
5
2D8
100
AcDbEntity
8
1
62
256
6
ByLayer
370
13
48
1
60
0
100
AcDbSpline
70
4
71
3
72
18
73
14
40
0
40
0
40
0
40
0
40
0.125000000000009
40
0.125000000000009
40
0.250000000000018
40
0.250000000000018
40
0.500000000000036
40
0.500000000000036
40
0.625000000000027
40
0.625000000000027
40
0.750000000000018
40
0.750000000000018
40
1
40
1
40
1
40
1
41
1
10
138.594052303044
20
4.37363138965785
30
0
41
1
10
138.630896581472
20
4.3154538663068
30
0
41
1
10
138.670868820193
20
4.26039434836787
30
0
41
1
10
138.756483498016
20
4.1558459625378
30
0
41
1
10
138.802375782332
20
4.10618537553214
30
0
41
1
10
138.94487102042
20
3.96845028969167
30
0
41
1
10
139.047050656937
20
3.89024330618108
30
0
41
1
10
139.210513844963
20
3.79099804231544
30
0
41
1
10
139.267009571142
20
3.7608552327205
30
0
41
1
10
139.38154126495
20
3.70756014616521
30
0
41
1
10
139.439676278489
20
3.68430511240365
30
0
41
1
10
139.616688471225
20
3.62422710493911
30
0
41
1
10
139.738657411327
20
3.59693258816228
30
0
41
1
10
139.863214468951
20
3.58266962548979
30
0
0
SPLINE
5
2D9
100
AcDbEntity
8
1
62
256
6
ByLayer
370
13
48
1
60
0
100
AcDbSpline
70
4
71
3
72
8
73
4
40
0
40
0
40
0
40
0
40
1
40
1
40
1
40
1
41
1
10
133.727660280298
20
1.92681735606988
30
0
41
1
10
133.65567516915
20
1.96186078353281
30
0
41
1
10
133.583714161443
20
1.99699985027019
30
0
41
1
10
133.511777111582
20
2.03223397857116
30
0
0
SPLINE
5
2DA
100
AcDbEntity
8
1
62
256
6
ByLayer
370
13
48
1
60
0
100
AcDbSpline
70
4
71
3
72
8
73
4
40
0
40
0
40
0
40
0
40
1
40
1
40
1
40
1
41
1
10
136.511891422897
20
5.69175016246248
30
0
41
1
10
136.618934979141
20
6.82651418477502
30
0
41
1
10
136.721522082432
20
7.9590437905058
30
0
41
1
10
136.817925392102
20
9.09000649993371
30
0
0
SPLINE
5
2DB
100
AcDbEntity
8
1
62
256
6
ByLayer
370
13
48
1
60
0
100
AcDbSpline
70
4
71
3
72
8
73
4
40
0
40
0
40
0
40
0
40
1
40
1
40
1
40
1
41
1
10
138.224156678854
20
3.8411951973919
30
0
41
1
10
138.348152424343
20
4.02302033313103
30
0
41
1
10
138.46868484256
20
4.20403284431373
30
0
41
1
10
138.588774221847
20
4.38201756958213
30
0
0
SPLINE
5
2DC
100
AcDbEntity
8
1
62
256
6
ByLayer
370
13
48
1
60
0
100
AcDbSpline
70
4
71
3
72
10
73
6
40
0
40
0
40
0
40
0
40
0.445234219227954
40
0.445234219227954
40
1
40
1
40
1
40
1
41
1
10
22.45
20
-11.6079443569592
30
0
41
1
10
22.45
20
-10.8996034668228
30
0
41
1
10
22.45
20
-10.1912625916077
30
0
41
1
10
22.45
20
-8.60032274532813
30
0
41
1
10
22.45
20
-7.71772378250662
30
0
41
1
10
22.45
20
-6.83512484284054
30
0
0
SPLINE
5
2DD
100
AcDbEntity
8
1
62
256
6
ByLayer
370
13
48
1
60
0
100
AcDbSpline
70
4
71
3
72
8
73
4
40
0
40
0
40
0
40
0
40
1
40
1
40
1
40
1
41
1
10
135.550936037287
20
11.8665354825058
30
0
41
1
10
135.499412158461
20
11.868474124587
30
0
41
1
10
135.447885504289
20
11.8703501633368
30
0
41
1
10
135.396356155011
20
11.8721636456922
30
0
0
SPLINE
5
2DE
100
AcDbEntity
8
1
62
256
6
ByLayer
370
13
48
1
60
0
100
AcDbSpline
70
4
71
3
72
12
73
8
40
0
40
0
40
0
40
0
40
0.499999999999998
40
0.499999999999998
40
0.749999999999999
40
0.749999999999999
40
1
40
1
40
1
40
1
41
1
10
21.8729836007527
20
-12.1570269411741
30
0
41
1
10
21.5197119232492
20
-12.1603760307155
30
0
41
1
10
21.174279393208
20
-12.1744885152947
30
0
41
1
10
20.6675373385009
20
-12.2073670673397
30
0
41
1
10
20.4994659046797
20
-12.2203368923343
30
0
41
1
10
20.1761152445183
20
-12.2478220599816
30
0
41
1
10
20.0200739116893
20
-12.2623633895051
30
0
41
1
10
19.8695918579036
20
-12.2766093502676
30
0
0
SPLINE
5
2DF
100
AcDbEntity
8
1
62
256
6
ByLayer
370
13
48
1
60
0
100
AcDbSpline
70
4
71
3
72
14
73
10
40
0
40
0
40
0
40
0
40
0.25
40
0.25
40
0.5
40
0.5
40
0.75
40
0.75
40
1
40
1
40
1
40
1
41
1
10
142.037459759697
20
4.48841194791697
30
0
41
1
10
142.067843543201
20
4.48145834911537
30
0
41
1
10
142.095367406817
20
4.47303270742353
30
0
41
1
10
142.142169448369
20
4.45373828628735
30
0
41
1
10
142.161056583873
20
4.44310682564884
30
0
41
1
10
142.18995266894
20
4.41990802106705
30
0
41
1
10
142.199488471694
20
4.40760970197161
30
0
41
1
10
142.208975074852
20
4.38264492877278
30
0
41
1
10
142.208977204678
20
4.3696485136735
30
0
41
1
10
142.204571456679
20
4.35691851880509
30
0
0
SPLINE
5
2E0
100
AcDbEntity
8
1
62
256
6
ByLayer
370
13
48
1
60
0
100
AcDbSpline
70
4
71
3
72
20
73
16
40
0
40
0
40
0
40
0
40
0.124999999999979
40
0.124999999999979
40
0.249999999999958
40
0.249999999999958
40
0.374999999999937
40
0.374999999999937
40
0.499999999999916
40
0.499999999999916
40
0.749999999999957
40
0.749999999999957
40
0.874999999999979
40
0.874999999999979
40
1
40
1
40
1
40
1
41
1
10
138.224156678853
20
3.84119519738923
30
0
41
1
10
138.204328332826
20
3.80905758003053
30
0
41
1
10
138.182034998979
20
3.77790280024945
30
0
41
1
10
138.133298780866
20
3.72028391803912
30
0
41
1
10
138.106880597082
20
3.69373801494913
30
0
41
1
10
138.049189353599
20
3.64607736273777
30
0
41
1
10
138.017841040501
20
3.62506466067649
30
0
41
1
10
137.952607251873
20
3.59164054444335
30
0
41
1
10
137.917849473001
20
3.57883408016207
30
0
41
1
10
137.812662621284
20
3.55514995738054
30
0
41
1
10
137.740670007752
20
3.55932441911747
30
0
41
1
10
137.6407393708
20
3.58617138715368
30
0
41
1
10
137.608200270432
20
3.59846309605408
30
0
41
1
10
137.545373998463
20
3.62739121595803
30
0
41
1
10
137.515295808926
20
3.64387460288265
30
0
41
1
10
137.486026385676
20
3.66163781276188
30
0
0
SPLINE
5
2E1
100
AcDbEntity
8
1
62
256
6
ByLayer
370
13
48
1
60
0
100
AcDbSpline
70
4
71
3
72
8
73
4
40
0
40
0
40
0
40
0
40
1
40
1
40
1
40
1
41
1
10
135.282140202553
20
11.3744442668423
30
0
41
1
10
135.373476551945
20
11.5374670790044
30
0
41
1
10
135.463030262288
20
11.7015235193257
30
0
41
1
10
135.550936037292
20
11.8665354825115
30
0
0
SPLINE
5
2E2
100
AcDbEntity
8
1
62
256
6
ByLayer
370
13
48
1
60
0
100
AcDbSpline
70
4
71
3
72
8
73
4
40
0
40
0
40
0
40
0
40
1
40
1
40
1
40
1
41
1
10
137.028165455115
20
1.27394030853893
30
0
41
1
10
137.05902984473
20
1.26730644704563
30
0
41
1
10
137.089913128813
20
1.26082175650367
30
0
41
1
10
137.120816068772
20
1.25448817673859
30
0
0
SPLINE
5
2E3
100
AcDbEntity
8
1
62
256
6
ByLayer
370
13
48
1
60
0
100
AcDbSpline
70
4
71
3
72
18
73
14
40
0
40
0
40
0
40
0
40
0.125000000000026
40
0.125000000000026
40
0.250000000000052
40
0.250000000000052
40
0.50000000000005
40
0.50000000000005
40
0.750000000000048
40
0.750000000000048
40
0.875000000000024
40
0.875000000000024
40
1
40
1
40
1
40
1
41
1
10
149.764814127955
20
4.53648717172698
30
0
41
1
10
149.704268028835
20
4.53331408512784
30
0
41
1
10
149.644908243353
20
4.53363946651322
30
0
41
1
10
149.527682618518
20
4.54015716043429
30
0
41
1
10
149.47020581733
20
4.5463883087242
30
0
41
1
10
149.304534806513
20
4.57214735149895
30
0
41
1
10
149.199864352125
20
4.59879256009293
30
0
41
1
10
148.994631846382
20
4.67150199650482
30
0
41
1
10
148.895812080753
20
4.71720933829783
30
0
41
1
10
148.753843025676
20
4.80067933864484
30
0
41
1
10
148.70748751876
20
4.83104694712895
30
0
41
1
10
148.616720578925
20
4.89752925764478
30
0
41
1
10
148.572336922976
20
4.93366279356897
30
0
41
1
10
148.529730782631
20
4.97244536915778
30
0
0
SPLINE
5
2E4
100
AcDbEntity
8
1
62
256
6
ByLayer
370
13
48
1
60
0
100
AcDbSpline
70
4
71
3
72
44
73
40
40
0
40
0
40
0
40
0
40
0.125000000000013
40
0.125000000000013
40
0.18750000000002
40
0.18750000000002
40
0.250000000000027
40
0.250000000000027
40
0.312500000000034
40
0.312500000000034
40
0.375000000000041
40
0.375000000000041
40
0.437500000000047
40
0.437500000000047
40
0.468750000000047
40
0.468750000000047
40
0.500000000000047
40
0.500000000000047
40
0.562500000000039
40
0.562500000000039
40
0.593750000000038
40
0.593750000000038
40
0.625000000000038
40
0.625000000000038
40
0.687500000000031
40
0.687500000000031
40
0.750000000000024
40
0.750000000000024
40
0.812500000000017
40
0.812500000000017
40
0.843750000000014
40
0.843750000000014
40
0.875000000000011
40
0.875000000000011
40
0.937500000000006
40
0.937500000000006
40
0.968750000000003
40
0.968750000000003
40
1
40
1
40
1
40
1
41
1
10
138.388945945339
20
1.01654499283828
30
0
41
1
10
138.817797111069
20
0.953228945828613
30
0
41
1
10
139.251280155626
20
0.903446768717714
30
0
41
1
10
139.911515510932
20
0.858023989477118
30
0
41
1
10
140.133778028176
20
0.847814925266306
30
0
41
1
10
140.575421382759
20
0.839195511490828
30
0
41
1
10
140.795512326592
20
0.840708553450867
30
0
41
1
10
141.234035030725
20
0.856955612679826
30
0
41
1
10
141.45246808368
20
0.871679329606849
30
0
41
1
10
141.887417334971
20
0.916400955297576
30
0
41
1
10
142.104564081923
20
0.946607602403901
30
0
41
1
10
142.526075398995
20
1.02290213210046
30
0
41
1
10
142.731655954791
20
1.06905258907608
30
0
41
1
10
143.031451409595
20
1.15153992522721
30
0
41
1
10
143.129950317898
20
1.18125167033659
30
0
41
1
10
143.323887203512
20
1.24540882866884
30
0
41
1
10
143.419689167157
20
1.28000119008649
30
0
41
1
10
143.699347672653
20
1.3903415253593
30
0
41
1
10
143.874467231623
20
1.47211031464869
30
0
41
1
10
144.119404220134
20
1.60762978756057
30
0
41
1
10
144.198083709735
20
1.65495393659035
30
0
41
1
10
144.349250794268
20
1.75409243501221
30
0
41
1
10
144.421964318244
20
1.80608489243869
30
0
41
1
10
144.628735882132
20
1.96800004922568
30
0
41
1
10
144.749365612455
20
2.08203786702953
30
0
41
1
10
144.956811978579
20
2.32208179728559
30
0
41
1
10
145.043657230454
20
2.44812707834655
30
0
41
1
10
145.181853849493
20
2.712582914237
30
0
41
1
10
145.231115543466
20
2.84695649139252
30
0
41
1
10
145.277338943852
20
3.05150973391869
30
0
41
1
10
145.288113151498
20
3.12019534802735
30
0
41
1
10
145.300507354734
20
3.25855675621594
30
0
41
1
10
145.302112669662
20
3.32847619394985
30
0
41
1
10
145.29325963594
20
3.53797657624048
30
0
41
1
10
145.269412471437
20
3.67602828192028
30
0
41
1
10
145.209374890993
20
3.88092161842113
30
0
41
1
10
145.185298678901
20
3.94885363091799
30
0
41
1
10
145.129270478836
20
4.08400876890522
30
0
41
1
10
145.097230544163
20
4.15138763189685
30
0
41
1
10
145.061556994176
20
4.21800968855328
30
0
0
SPLINE
5
2E5
100
AcDbEntity
8
1
62
256
6
ByLayer
370
13
48
1
60
0
100
AcDbSpline
70
4
71
3
72
8
73
4
40
0
40
0
40
0
40
0
40
1
40
1
40
1
40
1
41
1
10
22
20
-12.1564296883999
30
0
41
1
10
21.9576544872171
20
-12.1564264840981
30
0
41
1
10
21.9153156893325
20
-12.1566256241024
30
0
41
1
10
21.8729836007527
20
-12.1570269411741
30
0
0
SPLINE
5
2E6
100
AcDbEntity
8
1
62
256
6
ByLayer
370
13
48
1
60
0
100
AcDbSpline
70
4
71
3
72
8
73
4
40
0
40
0
40
0
40
0
40
1
40
1
40
1
40
1
41
1
10
135.021067115983
20
1.34480041748796
30
0
41
1
10
134.583433351471
20
1.52865966911574
30
0
41
1
10
134.151357816092
20
1.72055506620404
30
0
41
1
10
133.727660280298
20
1.92681735606993
30
0
0
SPLINE
5
2E7
100
AcDbEntity
8
1
62
256
6
ByLayer
370
13
48
1
60
0
100
AcDbSpline
70
4
71
3
72
14
73
10
40
0
40
0
40
0
40
0
40
0.25
40
0.25
40
0.5
40
0.5
40
0.75
40
0.75
40
1
40
1
40
1
40
1
41
1
10
149.783526506103
20
0.40807599568052
30
0
41
1
10
149.78367583803
20
0.470396931504098
30
0
41
1
10
149.784879600519
20
0.528981053418704
30
0
41
1
10
149.789526741582
20
0.638212284756293
30
0
41
1
10
149.792851738969
20
0.685917145615321
30
0
41
1
10
149.80153485056
20
0.765694908777647
30
0
41
1
10
149.806683919449
20
0.795810235454127
30
0
41
1
10
149.818494783343
20
0.834347977145342
30
0
41
1
10
149.824841214762
20
0.841741315433637
30
0
41
1
10
149.831510852428
20
0.836746825856949
30
0
0
SPLINE
5
2E8
100
AcDbEntity
8
1
62
256
6
ByLayer
370
13
48
1
60
0
100
AcDbSpline
70
4
71
3
72
8
73
4
40
0
40
0
40
0
40
0
40
1
40
1
40
1
40
1
41
1
10
149.784212478731
20
0.346537907693545
30
0
41
1
10
149.783708671886
20
0.367086994197621
30
0
41
1
10
149.783477794823
20
0.387747238239712
30
0
41
1
10
149.783526506103
20
0.40807599568052
30
0
0
SPLINE
5
2E9
100
AcDbEntity
8
1
62
256
6
ByLayer
370
13
48
1
60
0
100
AcDbSpline
70
4
71
3
72
14
73
10
40
0
40
0
40
0
40
0
40
0.25
40
0.25
40
0.5
40
0.5
40
0.75
40
0.75
40
1
40
1
40
1
40
1
41
1
10
148.062196410172
20
5.14821740036862
30
0
41
1
10
148.104023651344
20
5.15040947319198
30
0
41
1
10
148.145350063368
20
5.1473364088404
30
0
41
1
10
148.227045470539
20
5.13143011847825
30
0
41
1
10
148.266036346988
20
5.11872827800693
30
0
41
1
10
148.337870497161
20
5.08707580007643
30
0
41
1
10
148.369341583373
20
5.06879285958681
30
0
41
1
10
148.423470714337
20
5.03265062063102
30
0
41
1
10
148.444835071455
20
5.01578264635936
30
0
41
1
10
148.461834490756
20
5.00226615368925
30
0
0
SPLINE
5
2EA
100
AcDbEntity
8
1
62
256
6
ByLayer
370
13
48
1
60
0
100
AcDbSpline
70
4
71
3
72
12
73
8
40
0
40
0
40
0
40
0
40
0.5
40
0.5
40
0.75
40
0.75
40
1
40
1
40
1
40
1
41
1
10
138.684967020108
20
5.75641143098764
30
0
41
1
10
138.695139861462
20
5.86673194547416
30
0
41
1
10
138.692266901883
20
5.97989110638022
30
0
41
1
10
138.660918656186
20
6.14185172333953
30
0
41
1
10
138.646028125746
20
6.19483473123728
30
0
41
1
10
138.606043873619
20
6.29849442976669
30
0
41
1
10
138.580841922073
20
6.34907899999445
30
0
41
1
10
138.551085390788
20
6.39665107874856
30
0
0
SPLINE
5
2EB
100
AcDbEntity
8
1
62
256
6
ByLayer
370
13
48
1
60
0
100
AcDbSpline
70
4
71
3
72
8
73
4
40
0
40
0
40
0
40
0
40
1
40
1
40
1
40
1
41
1
10
141.971301254482
20
4.50334926105839
30
0
41
1
10
141.994269598212
20
4.49839428640263
30
0
41
1
10
142.016289462229
20
4.4932569585809
30
0
41
1
10
142.037459759697
20
4.48841194791686
30
0
0
SPLINE
5
2EC
100
AcDbEntity
8
1
62
256
6
ByLayer
370
13
48
1
60
0
100
AcDbSpline
70
4
71
3
72
20
73
16
40
0
40
0
40
0
40
0
40
0.124999999999996
40
0.124999999999996
40
0.249999999999992
40
0.249999999999992
40
0.374999999999988
40
0.374999999999988
40
0.499999999999984
40
0.499999999999984
40
0.749999999999992
40
0.749999999999992
40
0.874999999999996
40
0.874999999999996
40
1
40
1
40
1
40
1
41
1
10
137.058455148674
20
5.66251747059499
30
0
41
1
10
137.144327463674
20
5.60457737976384
30
0
41
1
10
137.227322497894
20
5.54007235537719
30
0
41
1
10
137.382801993005
20
5.40543800908833
30
0
41
1
10
137.455607017907
20
5.3354263802467
30
0
41
1
10
137.592551583464
20
5.19116899985704
30
0
41
1
10
137.656627851974
20
5.11683070864265
30
0
41
1
10
137.776007348807
20
4.96361302923887
30
0
41
1
10
137.831546649795
20
4.88426905770444
30
0
41
1
10
137.980925623029
20
4.64632544804581
30
0
41
1
10
138.059705049784
20
4.48642612100181
30
0
41
1
10
138.147395676069
20
4.24328852171266
30
0
41
1
10
138.17127666826
20
4.16171156295212
30
0
41
1
10
138.206748947784
20
4.00074260893066
30
0
41
1
10
138.218535490881
20
3.92081749240546
30
0
41
1
10
138.224156678858
20
3.84119519738536
30
0
0
SPLINE
5
2ED
100
AcDbEntity
8
1
62
256
6
ByLayer
370
13
48
1
60
0
100
AcDbSpline
70
4
71
3
72
10
73
6
40
0
40
0
40
0
40
0
40
0.5
40
0.5
40
1
40
1
40
1
40
1
41
1
10
147.011470784703
20
5.04546680627354
30
0
41
1
10
147.040783780602
20
5.06189766615731
30
0
41
1
10
147.073499002948
20
5.07573267675946
30
0
41
1
10
147.143029705974
20
5.0957762896864
30
0
41
1
10
147.179191523511
20
5.10192066047074
30
0
41
1
10
147.216721994881
20
5.10390792743843
30
0
0
SPLINE
5
2EE
100
AcDbEntity
8
1
62
256
6
ByLayer
370
13
48
1
60
0
100
AcDbSpline
70
4
71
3
72
8
73
4
40
0
40
0
40
0
40
0
40
1
40
1
40
1
40
1
41
1
10
136.388181159896
20
-12.0435064183453
30
0
41
1
10
136.058522292782
20
-12.0245653868552
30
0
41
1
10
135.727838093669
20
-12.0059203921261
30
0
41
1
10
135.396356155011
20
-11.9876237740332
30
0
0
SPLINE
5
2EF
100
AcDbEntity
8
1
62
256
6
ByLayer
370
13
48
1
60
0
100
AcDbSpline
70
2053
71
3
72
83
73
79
40
0
40
0
40
0
40
0
40
0.0312499999999979
40
0.0312499999999979
40
0.0468749999999921
40
0.0468749999999921
40
0.0624999999999863
40
0.0624999999999863
40
0.0937499999999748
40
0.0937499999999748
40
0.109374999999973
40
0.109374999999973
40
0.124999999999971
40
0.124999999999971
40
0.156249999999967
40
0.156249999999967
40
0.187499999999964
40
0.187499999999964
40
0.21874999999996
40
0.21874999999996
40
0.249999999999956
40
0.249999999999956
40
0.281249999999952
40
0.281249999999952
40
0.312499999999948
40
0.312499999999948
40
0.343749999999945
40
0.343749999999945
40
0.374999999999941
40
0.374999999999941
40
0.406249999999937
40
0.406249999999937
40
0.421874999999939
40
0.421874999999939
40
0.437499999999941
40
0.437499999999941
40
0.468749999999945
40
0.468749999999945
40
0.499999999999949
40
0.499999999999949
40
0.531249999999953
40
0.531249999999953
40
0.546874999999955
40
0.546874999999955
40
0.562499999999957
40
0.578124999999959
40
0.578124999999959
40
0.593749999999961
40
0.593749999999961
40
0.624999999999965
40
0.624999999999965
40
0.656249999999969
40
0.656249999999969
40
0.687499999999973
40
0.687499999999973
40
0.718749999999977
40
0.718749999999977
40
0.749999999999981
40
0.749999999999981
40
0.781249999999985
40
0.781249999999985
40
0.796874999999987
40
0.796874999999987
40
0.81249999999999
40
0.81249999999999
40
0.843749999999996
40
0.843749999999996
40
0.875000000000001
40
0.875000000000001
40
0.906250000000007
40
0.906250000000007
40
0.921875000000006
40
0.921875000000006
40
0.937500000000005
40
0.937500000000005
40
0.968750000000002
40
0.968750000000002
40
1
40
1
40
1
40
1
41
1
10
146.364025201603
20
-0.740674008311885
30
0
41
1
10
146.455158054498
20
-0.740674008311885
30
0
41
1
10
146.54471162006
20
-0.749918598162566
30
0
41
1
10
146.676770082843
20
-0.777078517037125
30
0
41
1
10
146.72040793911
20
-0.788364679539512
30
0
41
1
10
146.80690097051
20
-0.815513930265837
30
0
41
1
10
146.849728380932
20
-0.831404866652235
30
0
41
1
10
146.974107107277
20
-0.884861865317191
30
0
41
1
10
147.05260867558
20
-0.928442070891634
30
0
41
1
10
147.163762242678
20
-1.00564685006822
30
0
41
1
10
147.199896677974
20
-1.03354491975065
30
0
41
1
10
147.268637018624
20
-1.09238734288934
30
0
41
1
10
147.301292862981
20
-1.12332738225172
30
0
41
1
10
147.394268506465
20
-1.22055901810495
30
0
41
1
10
147.449682122735
20
-1.29128327161172
30
0
41
1
10
147.546784525698
20
-1.44441080613981
30
0
41
1
10
147.586962781735
20
-1.52440141691045
30
0
41
1
10
147.651525512756
20
-1.69078369609704
30
0
41
1
10
147.676021148743
20
-1.77813030972274
30
0
41
1
10
147.707595963747
20
-1.95390675823123
30
0
41
1
10
147.714902426966
20
-2.04226598716286
30
0
41
1
10
147.712982154361
20
-2.21988084360763
30
0
41
1
10
147.703511190777
20
-2.30946543905546
30
0
41
1
10
147.668728186574
20
-2.48254062122945
30
0
41
1
10
147.643482469927
20
-2.56692663549615
30
0
41
1
10
147.576993262097
20
-2.73137544050351
30
0
41
1
10
147.535938727901
20
-2.81054812467701
30
0
41
1
10
147.440756993045
20
-2.95842404111005
30
0
41
1
10
147.386362335083
20
-3.02785085784336
30
0
41
1
10
147.262966512797
20
-3.15716243554229
30
0
41
1
10
147.195688602975
20
-3.21517229074382
30
0
41
1
10
147.087171972569
20
-3.29168770309332
30
0
41
1
10
147.049685391076
20
-3.31547071301861
30
0
41
1
10
146.971974608443
20
-3.35946929049334
30
0
41
1
10
146.931490357712
20
-3.37979287089726
30
0
41
1
10
146.80774428317
20
-3.43415610665042
30
0
41
1
10
146.72264856134
20
-3.46160918641709
30
0
41
1
10
146.547227803017
20
-3.49893652209383
30
0
41
1
10
146.455772117807
20
-3.50869182168265
30
0
41
1
10
146.27549218283
20
-3.50891480270798
30
0
41
1
10
146.186108696895
20
-3.49973678382133
30
0
41
1
10
146.0531747532
20
-3.47192521112299
30
0
41
1
10
146.009085815963
20
-3.46026549059326
30
0
41
1
10
145.923377333416
20
-3.43282165889565
30
0
41
1
10
145.83959046867
20
-3.40115537060262
30
0
41
1
10
145.75952765769
20
-3.36127620647361
30
0
41
1
10
145.681322882783
20
-3.31728126436272
30
0
41
1
10
145.643067341374
20
-3.29313921129898
30
0
41
1
10
145.533432325124
20
-3.216104232292
30
0
41
1
10
145.466315176461
20
-3.15824558262821
30
0
41
1
10
145.343494992971
20
-3.0299465112671
30
0
41
1
10
145.287973834944
20
-2.95937113506849
30
0
41
1
10
145.192454355615
20
-2.81118937090716
30
0
41
1
10
145.151789374884
20
-2.73295148248383
30
0
41
1
10
145.084882571149
20
-2.56793618479338
30
0
41
1
10
145.059457173585
20
-2.48301147991714
30
0
41
1
10
145.024655560367
20
-2.31024359161969
30
0
41
1
10
145.015157986856
20
-2.2215780395581
30
0
41
1
10
145.013083481042
20
-2.04282094410567
30
0
41
1
10
145.020426729628
20
-1.95444499153356
30
0
41
1
10
145.043866594935
20
-1.82338315392121
30
0
41
1
10
145.053764627595
20
-1.77994814089595
30
0
41
1
10
145.077880572077
20
-1.69360662797069
30
0
41
1
10
145.092177093709
20
-1.65055617883746
30
0
41
1
10
145.140756728743
20
-1.52504007603739
30
0
41
1
10
145.18085609882
20
-1.44531081528001
30
0
41
1
10
145.276578051717
20
-1.29385836749594
30
0
41
1
10
145.332905908258
20
-1.22159003187605
30
0
41
1
10
145.456980116629
20
-1.09160794357777
30
0
41
1
10
145.525004380255
20
-1.03315232794736
30
0
41
1
10
145.636247726558
20
-0.95556018243451
30
0
41
1
10
145.675040854818
20
-0.931322887801258
30
0
41
1
10
145.754040994711
20
-0.887370461960586
30
0
41
1
10
145.794422266578
20
-0.867512465496247
30
0
41
1
10
145.918163026306
20
-0.814187288321222
30
0
41
1
10
146.004479452926
20
-0.786826269937762
30
0
41
1
10
146.18270840151
20
-0.749928155206419
30
0
41
1
10
146.272892348708
20
-0.740674008311885
30
0
41
1
10
146.364025201603
20
-0.740674008311885
30
0
0
SPLINE
5
2F0
100
AcDbEntity
8
1
62
256
6
ByLayer
370
13
48
1
60
0
100
AcDbSpline
70
4
71
3
72
8
73
4
40
0
40
0
40
0
40
0
40
1
40
1
40
1
40
1
41
1
10
132.511474581682
20
2.32343674433471
30
0
41
1
10
132.846317703201
20
2.21823784736688
30
0
41
1
10
133.179846547169
20
2.12062391427975
30
0
41
1
10
133.511777111582
20
2.0322339785711
30
0
0
SPLINE
5
2F1
100
AcDbEntity
8
1
62
256
6
ByLayer
370
13
48
1
60
0
100
AcDbSpline
70
4
71
3
72
10
73
6
40
0
40
0
40
0
40
0
40
0.5
40
0.5
40
1
40
1
40
1
40
1
41
1
10
137.486026385676
20
3.66163781276191
30
0
41
1
10
137.271027136379
20
3.79211789624455
30
0
41
1
10
137.047973286775
20
3.91242815594029
30
0
41
1
10
136.589542950675
20
4.13748998327725
30
0
41
1
10
136.354131317417
20
4.24219717424364
30
0
41
1
10
136.113570251796
20
4.34040263728613
30
0
0
SPLINE
5
2F2
100
AcDbEntity
8
1
62
256
6
ByLayer
370
13
48
1
60
0
100
AcDbSpline
70
4
71
3
72
18
73
14
40
0
40
0
40
0
40
0
40
0.25
40
0.25
40
0.375
40
0.375
40
0.5
40
0.5
40
0.624999999999999
40
0.624999999999999
40
0.749999999999999
40
0.749999999999999
40
1
40
1
40
1
40
1
41
1
10
135.021339448468
20
1.34468602129829
30
0
41
1
10
135.184202643112
20
1.27628343902631
30
0
41
1
10
135.351656156018
20
1.22344305896405
30
0
41
1
10
135.609698169083
20
1.16729826448855
30
0
41
1
10
135.697336747807
20
1.15244215733622
30
0
41
1
10
135.870980350166
20
1.13119164061595
30
0
41
1
10
135.95733816137
20
1.12467655444726
30
0
41
1
10
136.129185159069
20
1.11954896423794
30
0
41
1
10
136.214674064498
20
1.12093781218067
30
0
41
1
10
136.384788837746
20
1.13154714454299
30
0
41
1
10
136.469687305994
20
1.14084741358408
30
0
41
1
10
136.717917753787
20
1.17969808472554
30
0
41
1
10
136.876452245488
20
1.22010555929896
30
0
41
1
10
137.028165455115
20
1.27394030853893
30
0
0
SPLINE
5
2F3
100
AcDbEntity
8
1
62
256
6
ByLayer
370
13
48
1
60
0
100
AcDbSpline
70
4
71
3
72
8
73
4
40
0
40
0
40
0
40
0
40
1
40
1
40
1
40
1
41
1
10
22
20
-4.18677288531694
30
0
41
1
10
21.9576542283641
20
-4.18673088622674
30
0
41
1
10
21.9153154390822
20
-4.18669617203082
30
0
41
1
10
21.8729836260655
20
-4.18666872959557
30
0
0
SPLINE
5
2F4
100
AcDbEntity
8
1
62
256
6
ByLayer
370
13
48
1
60
0
100
AcDbSpline
70
4
71
3
72
10
73
6
40
0
40
0
40
0
40
0
40
0.5
40
0.5
40
1
40
1
40
1
40
1
41
1
10
143.836166018782
20
4.9267405323732
30
0
41
1
10
143.873752340718
20
4.92871034803733
30
0
41
1
10
143.911610621482
20
4.92635746407427
30
0
41
1
10
143.98533846659
20
4.91373372166007
30
0
41
1
10
144.02058301465
20
4.90364003480266
30
0
41
1
10
144.05416204493
20
4.89048082256767
30
0
0
SPLINE
5
2F5
100
AcDbEntity
8
1
62
256
6
ByLayer
370
13
48
1
60
0
100
AcDbSpline
70
4
71
3
72
14
73
10
40
0
40
0
40
0
40
0
40
0.125
40
0.125
40
0.250000000000001
40
0.250000000000001
40
0.5
40
0.5
40
1
40
1
40
1
40
1
41
1
10
73.6
20
-4.17235672663486
30
0
41
1
10
71.6583367852145
20
-4.17822614367927
30
0
41
1
10
69.7166733140259
20
-4.18390972252018
30
0
41
1
10
65.8333397836164
20
-4.19037478548591
30
0
41
1
10
63.8916689836299
20
-4.19094740839108
30
0
41
1
10
58.0666702509587
20
-4.18870105364556
30
0
41
1
10
54.1833459635623
20
-4.18231409203571
30
0
41
1
10
42.5333471167944
20
-4.17858922034875
30
0
41
1
10
34.7666691204177
20
-4.1900863455931
30
0
41
1
10
27
20
-4.18954535098868
30
0
0
SPLINE
5
2F6
100
AcDbEntity
8
1
62
256
6
ByLayer
370
13
48
1
60
0
100
AcDbSpline
70
4
71
2
72
12
73
9
40
0
40
0
40
0
40
0.306801663929222
40
0.306801663929222
40
0.613603327858444
40
0.613603327858444
40
0.920404991787666
40
0.920404991787666
40
1
40
1
40
1
41
1
10
21.9999999999992
20
-6.84033750017815
30
0
41
1
10
19.7845878920496
20
-7.27944081184776
30
0
41
1
10
17.8281138660719
20
-8.22972457518577
30
0
41
1
10
15.8076765403965
20
-9.21107610857601
30
0
41
1
10
14.2369056889243
20
-10.6469677340949
30
0
41
1
10
12.6777360704746
20
-12.0722543032958
30
0
41
1
10
11.6976695915057
20
-13.8196007264663
30
0
41
1
10
11.4550173731099
20
-14.2522218751197
30
0
41
1
10
11.2536723909675
20
-14.6947668996286
30
0
0
SPLINE
5
2F7
100
AcDbEntity
8
1
62
256
6
ByLayer
370
18
48
1
60
0
100
AcDbSpline
70
4
71
3
72
14
73
10
40
0
40
0
40
0
40
0
40
0.125000000000009
40
0.125000000000009
40
0.250000000000019
40
0.250000000000019
40
0.500000000000049
40
0.500000000000049
40
1
40
1
40
1
40
1
41
1
10
144.442761073186
20
7.93631221158384
30
0
41
1
10
144.432260125149
20
7.93447663849301
30
0
41
1
10
144.421253848503
20
7.93582620949948
30
0
41
1
10
144.400425979739
20
7.94421231657921
30
0
41
1
10
144.390739668769
20
7.95106052719424
30
0
41
1
10
144.36475984232
20
7.97594583904865
30
0
41
1
10
144.351301806942
20
7.99810115952388
30
0
41
1
10
144.319983249125
20
8.06765083271057
30
0
41
1
10
144.309876404476
20
8.11937114040146
30
0
41
1
10
144.307179173245
20
8.17083737819502
30
0
0
SPLINE
5
2F8
100
AcDbEntity
8
1
62
256
6
ByLayer
370
18
48
1
60
0
100
AcDbSpline
70
4
71
3
72
8
73
4
40
0
40
0
40
0
40
0
40
1
40
1
40
1
40
1
41
1
10
145.518497406161
20
9.12250790971206
30
0
41
1
10
145.521188302351
20
9.12881160196878
30
0
41
1
10
145.523879122465
20
9.13511491611408
30
0
41
1
10
145.526569871189
20
9.14141787566041
30
0
0
SPLINE
5
2F9
100
AcDbEntity
8
1
62
256
6
ByLayer
370
18
48
1
60
0
100
AcDbSpline
70
4
71
3
72
18
73
14
40
0
40
0
40
0
40
0
40
0.124999999999998
40
0.124999999999998
40
0.249999999999995
40
0.249999999999995
40
0.499999999999995
40
0.499999999999995
40
0.749999999999995
40
0.749999999999995
40
0.874999999999998
40
0.874999999999998
40
1
40
1
40
1
40
1
41
1
10
144.717638275342
20
7.54350605184115
30
0
41
1
10
144.727768042386
20
7.56044550547441
30
0
41
1
10
144.73104341843
20
7.58137087824565
30
0
41
1
10
144.730513759033
20
7.62413929455138
30
0
41
1
10
144.72663002816
20
7.64620929282881
30
0
41
1
10
144.708587714023
20
7.7114645008553
30
0
41
1
10
144.688103701768
20
7.75416895236344
30
0
41
1
10
144.637435416314
20
7.8325059563119
30
0
41
1
10
144.607229509985
20
7.86817169152263
30
0
41
1
10
144.556122363325
20
7.90982123283979
30
0
41
1
10
144.538022960931
20
7.92175736616147
30
0
41
1
10
144.500161870945
20
7.93823885513524
30
0
41
1
10
144.480412857549
20
7.9428848724024
30
0
41
1
10
144.461468538622
20
7.93957788465784
30
0
0
SPLINE
5
2FA
100
AcDbEntity
8
1
62
256
6
ByLayer
370
18
48
1
60
0
100
AcDbSpline
70
4
71
3
72
18
73
14
40
0
40
0
40
0
40
0
40
0.125000000000035
40
0.125000000000035
40
0.25000000000007
40
0.25000000000007
40
0.500000000000046
40
0.500000000000046
40
0.750000000000023
40
0.750000000000023
40
0.875000000000012
40
0.875000000000012
40
1
40
1
40
1
40
1
41
1
10
144.436450125859
20
8.41695763829091
30
0
41
1
10
144.455638705525
20
8.41564882578081
30
0
41
1
10
144.474876141081
20
8.42237463434796
30
0
41
1
10
144.510725673369
20
8.44269168142702
30
0
41
1
10
144.527491719883
20
8.45646005048059
30
0
41
1
10
144.573960132929
20
8.50322454039602
30
0
41
1
10
144.600269864425
20
8.54185075814974
30
0
41
1
10
144.642469516985
20
8.62505640065552
30
0
41
1
10
144.658377238248
20
8.66967123890723
30
0
41
1
10
144.669496029186
20
8.736458905093
30
0
41
1
10
144.67105455032
20
8.75879907595885
30
0
41
1
10
144.667090365366
20
8.80147700216102
30
0
41
1
10
144.661659227997
20
8.82185091467323
30
0
41
1
10
144.64981575793
20
8.83763677708077
30
0
0
SPLINE
5
2FB
100
AcDbEntity
8
1
62
256
6
ByLayer
370
18
48
1
60
0
100
AcDbSpline
70
4
71
3
72
8
73
4
40
0
40
0
40
0
40
0
40
1
40
1
40
1
40
1
41
1
10
145.954784462949
20
8.92222893857306
30
0
41
1
10
145.950743826266
20
8.91661694218482
30
0
41
1
10
145.946703041333
20
8.91100463054067
30
0
41
1
10
145.942662098364
20
8.90539198273714
30
0
0
SPLINE
5
2FC
100
AcDbEntity
8
1
62
256
6
ByLayer
370
18
48
1
60
0
100
AcDbSpline
70
4
71
3
72
8
73
4
40
0
40
0
40
0
40
0
40
1
40
1
40
1
40
1
41
1
10
146.223850247846
20
8.03194039628735
30
0
41
1
10
146.230872892631
20
8.03154664009838
30
0
41
1
10
146.237895198366
20
8.03115291238797
30
0
41
1
10
146.244917186094
20
8.0307592113827
30
0
0
SPLINE
5
2FD
100
AcDbEntity
8
1
62
256
6
ByLayer
370
18
48
1
60
0
100
AcDbSpline
70
4
71
3
72
14
73
10
40
0
40
0
40
0
40
0
40
0.499999999999952
40
0.499999999999952
40
0.749999999999932
40
0.749999999999932
40
0.874999999999966
40
0.874999999999966
40
1
40
1
40
1
40
1
41
1
10
144.868698263123
20
7.30265560958478
30
0
41
1
10
144.822947878031
20
7.32607372394298
30
0
41
1
10
144.779927105401
20
7.35651263303347
30
0
41
1
10
144.728821524574
20
7.41439535477596
30
0
41
1
10
144.713934599239
20
7.43608661890195
30
0
41
1
10
144.701303278565
20
7.47087176745581
30
0
41
1
10
144.698758894998
20
7.48303758682252
30
0
41
1
10
144.69910201564
20
7.5064087228341
30
0
41
1
10
144.702019034873
20
7.51739063733743
30
0
41
1
10
144.707636509234
20
7.52678023186215
30
0
0
SPLINE
5
2FE
100
AcDbEntity
8
1
62
256
6
ByLayer
370
18
48
1
60
0
100
AcDbSpline
70
4
71
3
72
14
73
10
40
0
40
0
40
0
40
0
40
0.500000000000129
40
0.500000000000129
40
0.750000000000195
40
0.750000000000195
40
0.875000000000097
40
0.875000000000097
40
1
40
1
40
1
40
1
41
1
10
145.897910676443
20
7.3565943465774
30
0
41
1
10
145.854858776254
20
7.32852230165236
30
0
41
1
10
145.807012359844
20
7.30649807314998
30
0
41
1
10
145.731045060435
20
7.2918174642034
30
0
41
1
10
145.704662431406
20
7.29009449340359
30
0
41
1
10
145.667789219146
20
7.297389470848
30
0
41
1
10
145.655798181748
20
7.3016178209532
30
0
41
1
10
145.635277173528
20
7.31444345706311
30
0
41
1
10
145.626958586134
20
7.32294845922712
30
0
41
1
10
145.621343209237
20
7.33303485802725
30
0
0
SPLINE
5
2FF
100
AcDbEntity
8
1
62
256
6
ByLayer
370
18
48
1
60
0
100
AcDbSpline
70
4
71
3
72
14
73
10
40
0
40
0
40
0
40
0
40
0.124999999999911
40
0.124999999999911
40
0.249999999999822
40
0.249999999999822
40
0.499999999999881
40
0.499999999999881
40
1
40
1
40
1
40
1
41
1
10
145.135851100994
20
7.30759129477477
30
0
41
1
10
145.132512412491
20
7.29703766293528
30
0
41
1
10
145.126159171976
20
7.28766214704933
30
0
41
1
10
145.109058799212
20
7.27291340663103
30
0
41
1
10
145.098539798672
20
7.26756647557727
30
0
41
1
10
145.064666785502
20
7.25654762949347
30
0
41
1
10
145.039077344248
20
7.25555827847117
30
0
41
1
10
144.963973371095
20
7.26231939869621
30
0
41
1
10
144.914427393331
20
7.27924837490124
30
0
41
1
10
144.868698263123
20
7.30265560958478
30
0
0
SPLINE
5
300
100
AcDbEntity
8
1
62
256
6
ByLayer
370
18
48
1
60
0
100
AcDbSpline
70
4
71
3
72
14
73
10
40
0
40
0
40
0
40
0
40
0.500000000000034
40
0.500000000000034
40
0.750000000000017
40
0.750000000000017
40
0.875000000000008
40
0.875000000000008
40
1
40
1
40
1
40
1
41
1
10
144.307179173245
20
8.17083737819502
30
0
41
1
10
144.304480688342
20
8.22232753747826
30
0
41
1
10
144.309115839711
20
8.27478069178696
30
0
41
1
10
144.333025256308
20
8.34729411444374
30
0
41
1
10
144.344081747932
20
8.37068533124034
30
0
41
1
10
144.367286737661
20
8.39812116062609
30
0
41
1
10
144.376314167614
20
8.40603665929515
30
0
41
1
10
144.396191285068
20
8.41653043212082
30
0
41
1
10
144.406866413878
20
8.41897797106242
30
0
41
1
10
144.417503786089
20
8.4182499590525
30
0
0
SPLINE
5
301
100
AcDbEntity
8
1
62
256
6
ByLayer
370
18
48
1
60
0
100
AcDbSpline
70
4
71
3
72
8
73
4
40
0
40
0
40
0
40
0
40
1
40
1
40
1
40
1
41
1
10
145.041077762946
20
9.11597431240796
30
0
41
1
10
145.04370561784
20
9.10995008906613
30
0
41
1
10
145.046333704183
20
9.10392552699648
30
0
41
1
10
145.048962037371
20
9.09790060373891
30
0
0
SPLINE
5
302
100
AcDbEntity
8
1
62
256
6
ByLayer
370
18
48
1
60
0
100
AcDbSpline
70
4
71
3
72
8
73
4
40
0
40
0
40
0
40
0
40
1
40
1
40
1
40
1
41
1
10
144.417503786089
20
8.4182499590525
30
0
41
1
10
144.423818781513
20
8.41781920615065
30
0
41
1
10
144.430134218331
20
8.41738843301002
30
0
41
1
10
144.436450125859
20
8.41695763829091
30
0
0
SPLINE
5
303
100
AcDbEntity
8
1
62
256
6
ByLayer
370
18
48
1
60
0
100
AcDbSpline
70
4
71
3
72
14
73
10
40
0
40
0
40
0
40
0
40
0.499999999999901
40
0.499999999999901
40
0.749999999999852
40
0.749999999999852
40
0.874999999999926
40
0.874999999999926
40
1
40
1
40
1
40
1
41
1
10
146.365603999884
20
8.27871485218026
30
0
41
1
10
146.362905514981
20
8.33020501146353
30
0
41
1
10
146.352431923023
20
8.38186635008668
30
0
41
1
10
146.319169164103
20
8.45138350598796
30
0
41
1
10
146.304849769013
20
8.47344482891455
30
0
41
1
10
146.276830269846
20
8.4981960965923
30
0
41
1
10
146.26618645043
20
8.50508066876617
30
0
41
1
10
146.243347301143
20
8.51333577691264
30
0
41
1
10
146.231353858687
20
8.51459530637462
30
0
41
1
10
146.219659898997
20
8.51269695885136
30
0
0
SPLINE
5
304
100
AcDbEntity
8
1
62
256
6
ByLayer
370
18
48
1
60
0
100
AcDbSpline
70
4
71
3
72
8
73
4
40
0
40
0
40
0
40
0
40
1
40
1
40
1
40
1
41
1
10
146.010484615776
20
7.61126125749749
30
0
41
1
10
146.015090103486
20
7.60610174992456
30
0
41
1
10
146.019695398889
20
7.60094256015034
30
0
41
1
10
146.024300513899
20
7.59578366840856
30
0
0
SPLINE
5
305
100
AcDbEntity
8
1
62
256
6
ByLayer
370
18
48
1
60
0
100
AcDbSpline
70
4
71
3
72
14
73
10
40
0
40
0
40
0
40
0
40
0.124999999999996
40
0.124999999999996
40
0.249999999999993
40
0.249999999999993
40
0.499999999999939
40
0.499999999999939
40
1
40
1
40
1
40
1
41
1
10
144.638120458284
20
8.85322550202665
30
0
41
1
10
144.631553561367
20
8.86197476240804
30
0
41
1
10
144.627467667838
20
8.87272957198471
30
0
41
1
10
144.624724784024
20
8.89591602082086
30
0
41
1
10
144.625971538411
20
8.90813286270722
30
0
41
1
10
144.634903073505
20
8.94409143817779
30
0
41
1
10
144.647474096544
20
8.96725914903456
30
0
41
1
10
144.692210510871
20
9.03009754174141
30
0
41
1
10
144.731840597709
20
9.06489888068785
30
0
41
1
10
144.774872496686
20
9.09295788379788
30
0
0
SPLINE
5
306
100
AcDbEntity
8
1
62
256
6
ByLayer
370
18
48
1
60
0
100
AcDbSpline
70
4
71
3
72
8
73
4
40
0
40
0
40
0
40
0
40
1
40
1
40
1
40
1
41
1
10
144.461468538622
20
7.93957788465784
30
0
41
1
10
144.455232260606
20
7.93848925776922
30
0
41
1
10
144.448996448466
20
7.93740070154351
30
0
41
1
10
144.442761073186
20
7.93631221158384
30
0
0
SPLINE
5
307
100
AcDbEntity
8
1
62
256
6
ByLayer
370
18
48
1
60
0
100
AcDbSpline
70
4
71
3
72
20
73
16
40
0
40
0
40
0
40
0
40
0.125000000000018
40
0.125000000000018
40
0.250000000000035
40
0.250000000000035
40
0.375000000000053
40
0.375000000000053
40
0.50000000000007
40
0.50000000000007
40
0.750000000000038
40
0.750000000000038
40
0.875000000000019
40
0.875000000000019
40
1
40
1
40
1
40
1
41
1
10
146.010484615776
20
7.61126125749749
30
0
41
1
10
145.996407380574
20
7.62703192201846
30
0
41
1
10
145.989027563429
20
7.64748791494344
30
0
41
1
10
145.981758355004
20
7.6898963241446
30
0
41
1
10
145.981915915569
20
7.7121601398012
30
0
41
1
10
145.987043073735
20
7.75637355402273
30
0
41
1
10
145.992135369557
20
7.77879309054421
30
0
41
1
10
146.005949436616
20
7.82224037258504
30
0
41
1
10
146.01469950086
20
7.84350936120373
30
0
41
1
10
146.04633127788
20
7.90602944053293
30
0
41
1
10
146.073807920775
20
7.94479858749301
30
0
41
1
10
146.123852043589
20
7.99193666465359
30
0
41
1
10
146.141965766507
20
8.00574099104404
30
0
41
1
10
146.181325469639
20
8.02632313180621
30
0
41
1
10
146.202479623116
20
8.03313863655265
30
0
41
1
10
146.223850247846
20
8.03194039628735
30
0
0
SPLINE
5
308
100
AcDbEntity
8
1
62
256
6
ByLayer
370
18
48
1
60
0
100
AcDbSpline
70
4
71
3
72
14
73
10
40
0
40
0
40
0
40
0
40
0.125000000000095
40
0.125000000000095
40
0.25000000000019
40
0.25000000000019
40
0.500000000000127
40
0.500000000000127
40
1
40
1
40
1
40
1
41
1
10
145.526569871189
20
9.14141787566041
30
0
41
1
10
145.531099284929
20
9.15203391076534
30
0
41
1
10
145.538586810646
20
9.16146887201978
30
0
41
1
10
145.557656407782
20
9.17632081511437
30
0
41
1
10
145.569003537957
20
9.18171114660325
30
0
41
1
10
145.604953247874
20
9.19283882775179
30
0
41
1
10
145.631421923452
20
9.1938742574925
30
0
41
1
10
145.708427894587
20
9.18721281675786
30
0
41
1
10
145.758355779798
20
9.17030385547403
30
0
41
1
10
145.804084910006
20
9.1468966207905
30
0
0
SPLINE
5
309
100
AcDbEntity
8
1
62
256
6
ByLayer
370
18
48
1
60
0
100
AcDbSpline
70
4
71
3
72
8
73
4
40
0
40
0
40
0
40
0
40
1
40
1
40
1
40
1
41
1
10
146.219659898997
20
8.51269695885136
30
0
41
1
10
146.212717531413
20
8.51157141699511
30
0
41
1
10
146.205774850356
20
8.51044581533915
30
0
41
1
10
146.198831835084
20
8.50932014992043
30
0
0
SPLINE
5
30A
100
AcDbEntity
8
1
62
256
6
ByLayer
370
18
48
1
60
0
100
AcDbSpline
70
4
71
3
72
8
73
4
40
0
40
0
40
0
40
0
40
1
40
1
40
1
40
1
41
1
10
144.707636509234
20
7.52678023186215
30
0
41
1
10
144.710970153613
20
7.53235517635383
30
0
41
1
10
144.714304069629
20
7.53793044256773
30
0
41
1
10
144.717638275342
20
7.54350605184112
30
0
0
SPLINE
5
30B
100
AcDbEntity
8
1
62
256
6
ByLayer
370
18
48
1
60
0
100
AcDbSpline
70
4
71
3
72
14
73
10
40
0
40
0
40
0
40
0
40
0.500000000000031
40
0.500000000000031
40
0.750000000000053
40
0.750000000000053
40
0.875000000000026
40
0.875000000000026
40
1
40
1
40
1
40
1
41
1
10
145.804084910006
20
9.1468966207905
30
0
41
1
10
145.849835295098
20
9.12347850643229
30
0
41
1
10
145.892475082908
20
9.09301963077345
30
0
41
1
10
145.941676059763
20
9.03503709296635
30
0
41
1
10
145.95568456096
20
9.01329979258202
30
0
41
1
10
145.966242077918
20
8.97840596058077
30
0
41
1
10
145.967948013728
20
8.96619620002909
30
0
41
1
10
145.965630870272
20
8.94272160986554
30
0
41
1
10
145.961592895404
20
8.93168094856671
30
0
41
1
10
145.954784462949
20
8.92222893857306
30
0
0
SPLINE
5
30C
100
AcDbEntity
8
1
62
256
6
ByLayer
370
18
48
1
60
0
100
AcDbSpline
70
4
71
3
72
8
73
4
40
0
40
0
40
0
40
0
40
1
40
1
40
1
40
1
41
1
10
144.64981575793
20
8.83763677708075
30
0
41
1
10
144.645917007476
20
8.84283332318381
30
0
41
1
10
144.642018580991
20
8.84802955838828
30
0
41
1
10
144.638120458284
20
8.85322550202665
30
0
0
SPLINE
5
30D
100
AcDbEntity
8
1
62
256
6
ByLayer
370
18
48
1
60
0
100
AcDbSpline
70
4
71
3
72
14
73
10
40
0
40
0
40
0
40
0
40
0.124999999999981
40
0.124999999999981
40
0.249999999999962
40
0.249999999999962
40
0.499999999999925
40
0.499999999999925
40
1
40
1
40
1
40
1
41
1
10
146.024300513899
20
7.59578366840856
30
0
41
1
10
146.032058136052
20
7.58709681129255
30
0
41
1
10
146.037278314783
20
7.57640144708438
30
0
41
1
10
146.04199042297
20
7.55331820092445
30
0
41
1
10
146.041571798219
20
7.54114475947327
30
0
41
1
10
146.034716959871
20
7.50529501906746
30
0
41
1
10
146.023025171156
20
7.48217338692911
30
0
41
1
10
145.980190754811
20
7.41943467371266
30
0
41
1
10
145.94094257542
20
7.38465334968743
30
0
41
1
10
145.897910676443
20
7.3565943465774
30
0
0
SPLINE
5
30E
100
AcDbEntity
8
1
62
256
6
ByLayer
370
18
48
1
60
0
100
AcDbSpline
70
4
71
3
72
14
73
10
40
0
40
0
40
0
40
0
40
0.125
40
0.125
40
0.250000000000001
40
0.250000000000001
40
0.5
40
0.5
40
1
40
1
40
1
40
1
41
1
10
146.244917186094
20
8.0307592113827
30
0
41
1
10
146.256743203711
20
8.03009374497992
30
0
41
1
10
146.26868240344
20
8.0326458374478
30
0
41
1
10
146.290488812446
20
8.04326631234679
30
0
41
1
10
146.300234357495
20
8.05113290338315
30
0
41
1
10
146.325547337077
20
8.07870635729481
30
0
41
1
10
146.33749502065
20
8.10219313508125
30
0
41
1
10
146.363274089654
20
8.1747351680921
30
0
41
1
10
146.368301231115
20
8.22724861438664
30
0
41
1
10
146.365603999884
20
8.27871485218026
30
0
0
SPLINE
5
30F
100
AcDbEntity
8
1
62
256
6
ByLayer
370
18
48
1
60
0
100
AcDbSpline
70
4
71
3
72
18
73
14
40
0
40
0
40
0
40
0
40
0.124999999999984
40
0.124999999999984
40
0.249999999999969
40
0.249999999999969
40
0.499999999999936
40
0.499999999999936
40
0.749999999999904
40
0.749999999999904
40
0.874999999999952
40
0.874999999999952
40
1
40
1
40
1
40
1
41
1
10
145.611338336335
20
7.35099743083936
30
0
41
1
10
145.60120594212
20
7.36918943295552
30
0
41
1
10
145.584261581508
20
7.3833375169404
30
0
41
1
10
145.546195650112
20
7.40570048788459
30
0
41
1
10
145.524836185958
20
7.41396492400102
30
0
41
1
10
145.458618183476
20
7.43236616760495
30
0
41
1
10
145.411238611092
20
7.43641369938172
30
0
41
1
10
145.318370812824
20
7.43154506814821
30
0
41
1
10
145.272843176096
20
7.42262667558705
30
0
41
1
10
145.212324886237
20
7.39757804474422
30
0
41
1
10
145.19337599753
20
7.3872111661405
30
0
41
1
10
145.161169921702
20
7.36110334151584
30
0
41
1
10
145.14783036715
20
7.34542671792667
30
0
41
1
10
145.141802967545
20
7.32639012486621
30
0
0
SPLINE
5
310
100
AcDbEntity
8
1
62
256
6
ByLayer
370
18
48
1
60
0
100
AcDbSpline
70
4
71
3
72
8
73
4
40
0
40
0
40
0
40
0
40
1
40
1
40
1
40
1
41
1
10
145.621343209237
20
7.33303485802725
30
0
41
1
10
145.61800836204
20
7.33902202947249
30
0
41
1
10
145.614673406779
20
7.34500954611192
30
0
41
1
10
145.611338336335
20
7.35099743083936
30
0
0
SPLINE
5
311
100
AcDbEntity
8
1
62
256
6
ByLayer
370
18
48
1
60
0
100
AcDbSpline
70
4
71
3
72
8
73
4
40
0
40
0
40
0
40
0
40
1
40
1
40
1
40
1
41
1
10
145.141802967545
20
7.32639012486621
30
0
41
1
10
145.139818808611
20
7.32012347113959
30
0
41
1
10
145.137834857415
20
7.31385720242454
30
0
41
1
10
145.135851100994
20
7.3075912947748
30
0
0
SPLINE
5
312
100
AcDbEntity
8
1
62
256
6
ByLayer
370
18
48
1
60
0
100
AcDbSpline
70
4
71
3
72
14
73
10
40
0
40
0
40
0
40
0
40
0.500000000000119
40
0.500000000000119
40
0.75000000000018
40
0.75000000000018
40
0.87500000000009
40
0.87500000000009
40
1
40
1
40
1
40
1
41
1
10
144.774872496686
20
9.09295788379788
30
0
41
1
10
144.817924396875
20
9.12102992872292
30
0
41
1
10
144.865389828465
20
9.14303419065695
30
0
41
1
10
144.939452523902
20
9.15761498353893
30
0
41
1
10
144.964956728792
20
9.15929191808036
30
0
41
1
10
144.999756137338
20
9.15188825718857
30
0
41
1
10
145.010908726979
20
9.14761596589841
30
0
41
1
10
145.029455712384
20
9.1346868756365
30
0
41
1
10
145.036653344144
20
9.12612312667704
30
0
41
1
10
145.041077762946
20
9.11597431240796
30
0
0
SPLINE
5
313
100
AcDbEntity
8
1
62
256
6
ByLayer
370
18
48
1
60
0
100
AcDbSpline
70
4
71
3
72
18
73
14
40
0
40
0
40
0
40
0
40
0.125000000000019
40
0.125000000000019
40
0.250000000000037
40
0.250000000000037
40
0.500000000000071
40
0.500000000000071
40
0.750000000000105
40
0.750000000000105
40
0.875000000000053
40
0.875000000000053
40
1
40
1
40
1
40
1
41
1
10
145.048962037371
20
9.09790060373891
30
0
41
1
10
145.056947268398
20
9.0795960735683
30
0
41
1
10
145.071927026811
20
9.06534502914499
30
0
41
1
10
145.106619478784
20
9.04280526163586
30
0
41
1
10
145.126559569406
20
9.03446643930457
30
0
41
1
10
145.189363021287
20
9.01588624668639
30
0
41
1
10
145.235570936406
20
9.0117773109543
30
0
41
1
10
145.328439014167
20
9.01664595683545
30
0
41
1
10
145.375138632621
20
9.02562577035619
30
0
41
1
10
145.439072217959
20
9.05085338925062
30
0
41
1
10
145.459439176309
20
9.06129458573523
30
0
41
1
10
145.495026910546
20
9.08757963556741
30
0
41
1
10
145.510323108047
20
9.10335880246836
30
0
41
1
10
145.518497406161
20
9.12250790971206
30
0
0
SPLINE
5
314
100
AcDbEntity
8
1
62
256
6
ByLayer
370
18
48
1
60
0
100
AcDbSpline
70
4
71
3
72
18
73
14
40
0
40
0
40
0
40
0
40
0.12499999999996
40
0.12499999999996
40
0.249999999999921
40
0.249999999999921
40
0.499999999999958
40
0.499999999999958
40
0.749999999999995
40
0.749999999999995
40
0.874999999999997
40
0.874999999999997
40
1
40
1
40
1
40
1
41
1
10
146.198831835084
20
8.5093201499204
30
0
41
1
10
146.177709573765
20
8.50589561487345
30
0
41
1
10
146.155880075307
20
8.51048693973473
30
0
41
1
10
146.114679787977
20
8.52681136231496
30
0
41
1
10
146.095125586803
20
8.53870510756443
30
0
41
1
10
146.040556909748
20
8.58026670749297
30
0
41
1
10
146.009155551892
20
8.61594787993482
30
0
41
1
10
145.958496892597
20
8.69442131289281
30
0
41
1
10
145.939326397812
20
8.73709273354254
30
0
41
1
10
145.92480153933
20
8.80205952602077
30
0
41
1
10
145.922316568251
20
8.82427516840971
30
0
41
1
10
145.925107749293
20
8.86706454141569
30
0
41
1
10
145.930301925501
20
8.88822438160778
30
0
41
1
10
145.942662098364
20
8.90539198273711
30
0
0
SPLINE
5
315
100
AcDbEntity
8
1
62
256
6
ByLayer
370
18
48
1
60
0
100
AcDbSpline
70
4
71
1
72
4
73
2
40
0
40
0
40
1
40
1
41
1
10
150.071556897008
20
0.483567508049845
30
0
41
1
10
149.785942727378
20
0.520956339367274
30
0
0
SPLINE
5
316
100
AcDbEntity
8
1
62
256
6
ByLayer
370
18
48
1
60
0
100
AcDbSpline
70
4
71
3
72
24
73
20
40
0
40
0
40
0
40
0
40
0.0153029382053049
40
0.0469204923027006
40
0.110155600497492
40
0.236625816887075
40
0.363096033276658
40
0.481661861141892
40
0.48956624966624
40
0.505375026714938
40
0.521183803763636
40
0.552801357861032
40
0.616036466055823
40
0.742506682445406
40
0.868976898834989
40
0.93221200702978
40
0.963829561127176
40
0.995447115224572
40
1
40
1
40
1
40
1
41
1
10
149.890451683592
20
-6.45060672257617
30
0
41
1
10
149.910884841452
20
-6.42700554351032
30
0
41
1
10
149.961667130323
20
-6.34351534641306
30
0
41
1
10
149.972825512446
20
-6.10093521824038
30
0
41
1
10
150.050456676818
20
-5.6189376807375
30
0
41
1
10
150.135669614578
20
-4.92237743351768
30
0
41
1
10
150.245427144689
20
-4.10645430240967
30
0
41
1
10
150.319936689696
20
-3.55137068247484
30
0
41
1
10
150.361276497565
20
-3.24123514689836
30
0
41
1
10
150.358201389597
20
-3.15943407963445
30
0
41
1
10
150.328735679284
20
-3.02206612705408
30
0
41
1
10
150.294998382152
20
-2.77955353864661
30
0
41
1
10
150.214778174206
20
-2.29536536461103
30
0
41
1
10
150.106575367567
20
-1.6034671464524
30
0
41
1
10
149.994646609057
20
-0.912298867837393
30
0
41
1
10
149.920010370963
20
-0.427004122882437
30
0
41
1
10
149.871361197845
20
-0.151794975638154
30
0
41
1
10
149.856684932692
20
-0.0052998835900553
30
0
41
1
10
149.81936741376
20
0.0574384570997779
30
0
41
1
10
149.814243183089
20
0.0650642180027887
30
0
0
SPLINE
5
317
100
AcDbEntity
8
1
62
256
6
ByLayer
370
13
48
1
60
0
100
AcDbSpline
70
4
71
3
72
20
73
16
40
0
40
0
40
0
40
0
40
0.163612581967782
40
0.163612581967782
40
0.327225163935563
40
0.327225163935563
40
0.490837745903345
40
0.490837745903345
40
0.654450327871126
40
0.654450327871126
40
0.818062909838908
40
0.818062909838908
40
0.981675491806689
40
0.981675491806689
40
1
40
1
40
1
40
1
41
1
10
22.01
20
-6.83512484284054
30
0
41
1
10
22.01
20
-6.70305058269332
30
0
41
1
10
22.01
20
-6.56576508578465
30
0
41
1
10
22.01
20
-6.28120610115545
30
0
41
1
10
22.01
20
-6.13277714095048
30
0
41
1
10
22.01
20
-5.83067073012487
30
0
41
1
10
22.01
20
-5.67912346534956
30
0
41
1
10
22.01
20
-5.37506667765606
30
0
41
1
10
22.01
20
-5.22097934568916
30
0
41
1
10
22.01
20
-4.9209358472726
30
0
41
1
10
22.01
20
-4.77507822763292
30
0
41
1
10
22.01
20
-4.49160345454999
30
0
41
1
10
22.01
20
-4.35292874638134
30
0
41
1
10
22.01
20
-4.20917558922125
30
0
41
1
10
22.01
20
-4.19480076544204
30
0
41
1
10
22.01
20
-4.18052984283412
30
0
0
SPLINE
5
318
100
AcDbEntity
8
1
62
256
6
ByLayer
370
13
48
1
60
0
100
AcDbSpline
70
4
71
3
72
46
73
42
40
0
40
0
40
0
40
0
40
0.0760167264727017
40
0.0760167264727017
40
0.114025089709052
40
0.114025089709052
40
0.152033452945403
40
0.152033452945403
40
0.228050179418107
40
0.228050179418107
40
0.30406690589081
40
0.30406690589081
40
0.342075269127161
40
0.342075269127161
40
0.380083632363512
40
0.380083632363512
40
0.456100358836214
40
0.456100358836214
40
0.532117085308917
40
0.532117085308917
40
0.570125448545268
40
0.570125448545268
40
0.608133811781619
40
0.608133811781619
40
0.64614217501797
40
0.64614217501797
40
0.684150538254321
40
0.684150538254321
40
0.722158901490673
40
0.722158901490673
40
0.760167264727024
40
0.760167264727024
40
0.798175627963375
40
0.798175627963375
40
0.836183991199726
40
0.836183991199726
40
0.912200717672429
40
0.912200717672429
40
0.988217444145132
40
0.988217444145132
40
1
40
1
40
1
40
1
41
1
10
132.511474581682
20
2.32343674433469
30
0
41
1
10
131.329854242026
20
2.84588646494305
30
0
41
1
10
130.148297588468
20
3.36054630566579
30
0
41
1
10
128.373816760946
20
4.11606991427738
30
0
41
1
10
127.781592514558
20
4.36531213450192
30
0
41
1
10
126.598433522012
20
4.85643833645625
30
0
41
1
10
126.007416735593
20
5.09836113791371
30
0
41
1
10
124.235434500535
20
5.81200961670174
30
0
41
1
10
123.055535579318
20
6.27160714819311
30
0
41
1
10
120.695260319482
20
7.15214689650577
30
0
41
1
10
119.514858767399
20
7.57306530622697
30
0
41
1
10
117.742001706059
20
8.17178266053162
30
0
41
1
10
117.150306030086
20
8.36602632616481
30
0
41
1
10
115.967663302499
20
8.74241169558053
30
0
41
1
10
115.377111865595
20
8.92444585812643
30
0
41
1
10
113.607310694185
20
9.45120595917697
30
0
41
1
10
112.429893279392
20
9.77616188558474
30
0
41
1
10
110.067597367616
20
10.358519657656
30
0
41
1
10
108.882325725063
20
10.6150909541321
30
0
41
1
10
107.082701742164
20
10.9391926509395
30
0
41
1
10
106.478898342634
20
11.037439842415
30
0
41
1
10
105.264509099169
20
11.2145913487576
30
0
41
1
10
104.654550962033
20
11.2932033113966
30
0
41
1
10
103.42896512859
20
11.4335224736656
30
0
41
1
10
102.813501861242
20
11.495448901401
30
0
41
1
10
101.578534043825
20
11.6065556906658
30
0
41
1
10
100.959113693154
20
11.6557931799997
30
0
41
1
10
99.716983042579
20
11.7437773611332
30
0
41
1
10
99.094228947654
20
11.7824791465355
30
0
41
1
10
97.8456371521057
20
11.8508542438609
30
0
41
1
10
97.2199051615948
20
11.8805680110674
30
0
41
1
10
95.9645149292967
20
11.9317042580982
30
0
41
1
10
95.3344910741358
20
11.9531171056941
30
0
41
1
10
94.0705923601492
20
11.9885947972649
30
0
41
1
10
93.4379102720371
20
12.0026381795497
30
0
41
1
10
91.5376013501884
20
12.036411138138
30
0
41
1
10
90.2677156910809
20
12.0479105578235
30
0
41
1
10
87.7216895804581
20
12.0607787208444
30
0
41
1
10
86.4455107948058
20
12.0621659592762
30
0
41
1
10
84.9679496608514
20
12.0624931655595
30
0
41
1
10
84.7695880813076
20
12.0625071847335
30
0
41
1
10
84.5711536694526
20
12.0624993669792
30
0
0
SPLINE
5
319
100
AcDbEntity
8
1
62
256
6
ByLayer
370
13
48
1
60
0
100
AcDbSpline
70
4
71
3
72
14
73
10
40
0
40
0
40
0
40
0
40
0.0174616414567043
40
0.0174616414567043
40
0.344974427637803
40
0.344974427637803
40
0.672487213818901
40
0.672487213818901
40
1
40
1
40
1
40
1
41
1
10
22.4499782203963
20
-4.18156089381728
30
0
41
1
10
22.4499737712561
20
-4.19519731667828
30
0
41
1
10
22.4499693784238
20
-4.20892149575511
30
0
41
1
10
22.4498837254961
20
-4.48174672596971
30
0
41
1
10
22.4498226215892
20
-4.77067575767691
30
0
41
1
10
22.4497488871535
20
-5.37031361801897
30
0
41
1
10
22.4497362786602
20
-5.68084324332585
30
0
41
1
10
22.4497612394501
20
-6.28243234084314
30
0
41
1
10
22.4497988012736
20
-6.57331202659324
30
0
41
1
10
22.4498589713947
20
-6.83512486138352
30
0
0
SPLINE
5
31A
100
AcDbEntity
8
1
62
256
6
ByLayer
370
13
48
1
60
0
100
AcDbSpline
70
4
71
3
72
8
73
4
40
0
40
0
40
0
40
0
40
1
40
1
40
1
40
1
41
1
10
139.49978737322
20
7.34769189163447
30
0
41
1
10
139.5143427594
20
7.34584603931361
30
0
41
1
10
139.529054752994
20
7.34390972192713
30
0
41
1
10
139.543921043101
20
7.34188657848543
30
0
0
SPLINE
5
31B
100
AcDbEntity
8
1
62
256
6
ByLayer
370
13
48
1
60
0
100
AcDbSpline
70
4
71
3
72
22
73
18
40
0
40
0
40
0
40
0
40
0.174015702023577
40
0.174015702023577
40
0.261023553035366
40
0.261023553035366
40
0.348031404047154
40
0.348031404047154
40
0.52204710607073
40
0.52204710607073
40
0.609054957082518
40
0.609054957082518
40
0.696062808094305
40
0.696062808094305
40
0.870078510117881
40
0.870078510117881
40
1
40
1
40
1
40
1
41
1
10
22.01
20
-6.84033695461378
30
0
41
1
10
22.01
20
-6.7007782779408
30
0
41
1
10
22.01
20
-6.55459677155568
30
0
41
1
10
22.01
20
-6.32545503592561
30
0
41
1
10
22.01
20
-6.24710982426566
30
0
41
1
10
22.01
20
-6.08838417120916
30
0
41
1
10
22.01
20
-6.00863514823899
30
0
41
1
10
22.01
20
-5.76826476363198
30
0
41
1
10
22.01
20
-5.60653052079803
30
0
41
1
10
22.01
20
-5.36164519993503
30
0
41
1
10
22.01
20
-5.27965480794586
30
0
41
1
10
22.01
20
-5.1176208075457
30
0
41
1
10
22.01
20
-5.03723461871775
30
0
41
1
10
22.01
20
-4.79798506017596
30
0
41
1
10
22.01
20
-4.64482636506978
30
0
41
1
10
22.01
20
-4.38927437949761
30
0
41
1
10
22.01
20
-4.28368371783125
30
0
41
1
10
22.01
20
-4.18188395461178
30
0
0
SPLINE
5
31C
100
AcDbEntity
8
1
62
256
6
ByLayer
370
13
48
1
60
0
100
AcDbSpline
70
4
71
3
72
56
73
52
40
0
40
0
40
0
40
0
40
0.0191089573550387
40
0.0191089573550387
40
0.0554382552307786
40
0.0554382552307786
40
0.0736029041686485
40
0.0736029041686485
40
0.0917675531065184
40
0.0917675531065184
40
0.128096850982258
40
0.128096850982258
40
0.164426148857997
40
0.164426148857997
40
0.200755446733737
40
0.200755446733737
40
0.237084744609476
40
0.237084744609476
40
0.273414042485216
40
0.273414042485216
40
0.291578691423086
40
0.291578691423086
40
0.309743340360955
40
0.309743340360955
40
0.327907989298825
40
0.327907989298825
40
0.33699031376776
40
0.33699031376776
40
0.346072638236694
40
0.346072638236694
40
0.364237287174564
40
0.364237287174564
40
0.382401936112434
40
0.382401936112434
40
0.418731233988173
40
0.418731233988173
40
0.455060531863912
40
0.455060531863912
40
0.491389829739651
40
0.491389829739651
40
0.52771912761539
40
0.52771912761539
40
0.564048425491129
40
0.564048425491129
40
0.636707021242607
40
0.636707021242607
40
0.709365616994086
40
0.709365616994086
40
0.854682808497043
40
0.854682808497043
40
1
40
1
40
1
40
1
41
1
10
115.978616361505
20
-9.80909153277003
30
0
41
1
10
115.423364569676
20
-9.93535390857642
30
0
41
1
10
114.867849449042
20
-10.05545525786
30
0
41
1
10
113.253700833049
20
-10.3851204968668
30
0
41
1
10
112.19217909232
20
-10.5788161362514
30
0
41
1
10
110.591588676785
20
-10.8234449559937
30
0
41
1
10
110.056484180971
20
-10.8970623954318
30
0
41
1
10
108.981656231497
20
-11.0283004684815
30
0
41
1
10
108.441990623198
20
-11.0864951462594
30
0
41
1
10
106.815590342838
20
-11.2483934707551
30
0
41
1
10
105.721312006636
20
-11.3388283251888
30
0
41
1
10
103.518710122867
20
-11.4766021796098
30
0
41
1
10
102.412900274584
20
-11.5230216919622
30
0
41
1
10
100.190976941963
20
-11.5905852256981
30
0
41
1
10
99.0747288430562
20
-11.6115404835861
30
0
41
1
10
96.8300053491866
20
-11.641010839332
30
0
41
1
10
95.7015017892114
20
-11.6485303535418
30
0
41
1
10
93.4389375649415
20
-11.6523639056064
30
0
41
1
10
92.3040010771207
20
-11.6489982702274
30
0
41
1
10
90.5957951040866
20
-11.6400532205777
30
0
41
1
10
90.0254273170246
20
-11.6363806975629
30
0
41
1
10
88.882693398028
20
-11.6285227208607
30
0
41
1
10
88.310081566372
20
-11.6242516556293
30
0
41
1
10
87.1652310609962
20
-11.6169993225657
30
0
41
1
10
86.592753820798
20
-11.6141485649636
30
0
41
1
10
85.7339628019713
20
-11.61331495585
30
0
41
1
10
85.4476865897326
20
-11.6136155476992
30
0
41
1
10
84.8751096116747
20
-11.6157292183366
30
0
41
1
10
84.5888089570048
20
-11.617438183841
30
0
41
1
10
83.7298817645803
20
-11.6215930323801
30
0
41
1
10
83.157233012942
20
-11.6219614015195
30
0
41
1
10
82.0118982277393
20
-11.6189261978215
30
0
41
1
10
81.4392114264028
20
-11.6159094773628
30
0
41
1
10
79.7211196898065
20
-11.6072668078248
30
0
41
1
10
78.5756814294161
20
-11.6014921206497
30
0
41
1
10
76.2847952078751
20
-11.5987950011985
30
0
41
1
10
75.1393469335064
20
-11.6018000288725
30
0
41
1
10
72.8484512389824
20
-11.6081655656689
30
0
41
1
10
71.7030050494328
20
-11.6110117656138
30
0
41
1
10
69.4121182143434
20
-11.6127729030703
30
0
41
1
10
68.2666759064063
20
-11.6118897809072
30
0
41
1
10
65.9758012283914
20
-11.6096856963469
30
0
41
1
10
64.8303697697259
20
-11.6086095120836
30
0
41
1
10
61.3940903209633
20
-11.6062796307126
30
0
41
1
10
59.1032569401205
20
-11.6058393798807
30
0
41
1
10
54.5215991936882
20
-11.6073321643822
30
0
41
1
10
52.2307711910023
20
-11.608956625836
30
0
41
1
10
45.3582857330678
20
-11.6111818820933
30
0
41
1
10
40.7766285015909
20
-11.6101283901724
30
0
41
1
10
31.6133141160477
20
-11.6087587822335
30
0
41
1
10
27.031656957128
20
-11.6083399736101
30
0
41
1
10
22.45
20
-11.6079443569592
30
0
0
SPLINE
5
31D
100
AcDbEntity
8
1
62
256
6
ByLayer
370
13
48
1
60
0
100
AcDbSpline
70
4
71
3
72
32
73
28
40
0
40
0
40
0
40
0
40
0.0084953548227089
40
0.0084953548227089
40
0.0535637477853129
40
0.0535637477853129
40
0.0986321407479169
40
0.0986321407479169
40
0.121166337229219
40
0.121166337229219
40
0.14370053371052
40
0.14370053371052
40
0.188768926673124
40
0.188768926673124
40
0.211303123154426
40
0.211303123154426
40
0.233837319635728
40
0.233837319635728
40
0.278905712598333
40
0.278905712598333
40
0.369042498523541
40
0.369042498523541
40
0.45917928444875
40
0.45917928444875
40
0.639452856299166
40
0.639452856299166
40
1
40
1
40
1
40
1
41
1
10
101.523377239813
20
-6.28370918014551
30
0
41
1
10
101.302154827448
20
-6.29986684896463
30
0
41
1
10
101.080845881951
20
-6.31567028392652
30
0
41
1
10
99.6849194497017
20
-6.41310332096509
30
0
41
1
10
98.5077982652693
20
-6.48487786975971
30
0
41
1
10
96.1474490144317
20
-6.60679589390841
30
0
41
1
10
94.964224027456
20
-6.656764419572
30
0
41
1
10
93.1846491605152
20
-6.71637828470932
30
0
41
1
10
92.5904902740198
20
-6.73371525840497
30
0
41
1
10
91.4024763301803
20
-6.76344418498775
30
0
41
1
10
90.8084278492666
20
-6.77581646244471
30
0
41
1
10
89.0261554132492
20
-6.8059214892823
30
0
41
1
10
87.8377996039948
20
-6.81654070838349
30
0
41
1
10
86.0549903164089
20
-6.82660187472217
30
0
41
1
10
85.4606737511982
20
-6.82910767298523
30
0
41
1
10
84.2719572204368
20
-6.83336421444659
30
0
41
1
10
83.6775666034911
20
-6.83481180903718
30
0
41
1
10
81.8943682084984
20
-6.83736768397532
30
0
41
1
10
80.7055213477843
20
-6.83772979989871
30
0
41
1
10
77.1389120550362
20
-6.83877000239846
30
0
41
1
10
74.7610634305027
20
-6.83715236776263
30
0
41
1
10
70.0054267356429
20
-6.83523651286623
30
0
41
1
10
67.6276317526512
20
-6.83435234484597
30
0
41
1
10
60.4942989379585
20
-6.83364391444547
30
0
41
1
10
55.7388080063671
20
-6.83519812111714
30
0
41
1
10
41.4722131486237
20
-6.83653145217372
30
0
41
1
10
31.9610948759597
20
-6.83387430577903
30
0
41
1
10
22.45
20
-6.83512484284054
30
0
0
SPLINE
5
31E
100
AcDbEntity
8
1
62
256
6
ByLayer
370
13
48
1
60
0
100
AcDbSpline
70
4
71
3
72
10
73
6
40
0
40
0
40
0
40
0
40
0.718221990568653
40
0.718221990568653
40
1
40
1
40
1
40
1
41
1
10
139.725791555742
20
8.38074564799692
30
0
41
1
10
139.681488318714
20
8.31302646663917
30
0
41
1
10
139.644868946922
20
8.24421266643631
30
0
41
1
10
139.604658335354
20
8.15098373540366
30
0
41
1
10
139.59462725286
20
8.12521137467857
30
0
41
1
10
139.586398272226
20
8.10140052454165
30
0
0
SPLINE
5
31F
100
AcDbEntity
8
1
62
256
6
ByLayer
370
13
48
1
60
0
100
AcDbSpline
70
4
71
3
72
10
73
6
40
0
40
0
40
0
40
0
40
0.637516502185516
40
0.637516502185516
40
1
40
1
40
1
40
1
41
1
10
141.208397816872
20
12.0113275543605
30
0
41
1
10
141.138493772652
20
12.001441716047
30
0
41
1
10
141.063765335156
20
11.9925539855079
30
0
41
1
10
140.939237809674
20
11.9805657883537
30
0
41
1
10
140.892244443154
20
11.9766088932666
30
0
41
1
10
140.844168710166
20
11.9731449065937
30
0
0
SPLINE
5
320
100
AcDbEntity
8
1
62
256
6
ByLayer
370
13
48
1
60
0
100
AcDbSpline
70
4
71
3
72
8
73
4
40
0
40
0
40
0
40
0
40
1
40
1
40
1
40
1
41
1
10
139.839869861851
20
12.1874999747634
30
0
41
1
10
139.867426317152
20
12.1874995297983
30
0
41
1
10
139.895540869312
20
12.1874751974073
30
0
41
1
10
139.923915832211
20
12.1874371673837
30
0
0
SPLINE
5
321
100
AcDbEntity
8
1
62
256
6
ByLayer
370
13
48
1
60
0
100
AcDbSpline
70
4
71
3
72
8
73
4
40
0
40
0
40
0
40
0
40
1
40
1
40
1
40
1
41
1
10
141.982050986734
20
3.9769906472344
30
0
41
1
10
141.975173902188
20
3.96932240406872
30
0
41
1
10
141.969687610295
20
3.96296801696482
30
0
41
1
10
141.965985214015
20
3.95815468700306
30
0
0
SPLINE
5
322
100
AcDbEntity
8
1
62
256
6
ByLayer
370
13
48
1
60
0
100
AcDbSpline
70
4
71
3
72
14
73
10
40
0
40
0
40
0
40
0
40
0.151192057364049
40
0.151192057364049
40
0.320953645891239
40
0.320953645891239
40
0.66047682294562
40
0.66047682294562
40
1
40
1
40
1
40
1
41
1
10
141.961933677588
20
3.94714228393164
30
0
41
1
10
141.963995260474
20
3.9470794966881
30
0
41
1
10
141.968181236118
20
3.94877612536908
30
0
41
1
10
141.980749449388
20
3.9556664221754
30
0
41
1
10
141.9896863692
20
3.96130943070673
30
0
41
1
10
142.021563812366
20
3.98335014794361
30
0
41
1
10
142.049112357985
20
4.00451724883678
30
0
41
1
10
142.110012924906
20
4.05714603331236
30
0
41
1
10
142.142682819831
20
4.08797580613719
30
0
41
1
10
142.176333925119
20
4.12362530811745
30
0
0
SPLINE
5
323
100
AcDbEntity
8
1
62
256
6
ByLayer
370
13
48
1
60
0
100
AcDbSpline
70
4
71
3
72
8
73
4
40
0
40
0
40
0
40
0
40
1
40
1
40
1
40
1
41
1
10
149.786595813007
20
0.574100618697202
30
0
41
1
10
149.88891304732
20
0.599668629939003
30
0
41
1
10
149.991177072404
20
0.613413649425922
30
0
41
1
10
150.09429947396
20
0.617250224433604
30
0
0
SPLINE
5
324
100
AcDbEntity
8
1
62
256
6
ByLayer
370
13
48
1
60
0
100
AcDbSpline
70
4
71
3
72
10
73
6
40
0
40
0
40
0
40
0
40
0.470496236619748
40
0.470496236619748
40
1
40
1
40
1
40
1
41
1
10
148.836669655302
20
11.7696357046086
30
0
41
1
10
148.836686576361
20
11.7693893430275
30
0
41
1
10
148.84961961151
20
11.7688539864937
30
0
41
1
10
148.897941243158
20
11.7674267129676
30
0
41
1
10
148.935910565493
20
11.7665136029371
30
0
41
1
10
148.975172505951
20
11.7657391148973
30
0
0
SPLINE
5
325
100
AcDbEntity
8
1
62
256
6
ByLayer
370
13
48
1
60
0
100
AcDbSpline
70
4
71
3
72
36
73
32
40
0
40
0
40
0
40
0
40
0.0055934716773789
40
0.0055934716773789
40
0.0884606823709314
40
0.0884606823709314
40
0.171327893064484
40
0.171327893064484
40
0.21276149841126
40
0.21276149841126
40
0.254195103758035
40
0.254195103758035
40
0.337062314451587
40
0.337062314451587
40
0.419929525145139
40
0.419929525145139
40
0.50279673583869
40
0.50279673583869
40
0.585663946532242
40
0.585663946532242
40
0.668531157225794
40
0.668531157225794
40
0.709964762572569
40
0.709964762572569
40
0.751398367919345
40
0.751398367919345
40
0.834265578612897
40
0.834265578612897
40
0.917132789306448
40
0.917132789306448
40
1
40
1
40
1
40
1
41
1
10
116.550065474141
20
-9.94721601083791
30
0
41
1
10
116.474748479673
20
-9.96604094320085
30
0
41
1
10
116.399435890121
20
-9.98475286140888
30
0
41
1
10
115.208431339764
20
-10.2788847477864
30
0
41
1
10
114.093378012031
20
-10.5287963752597
30
0
41
1
10
111.852659254328
20
-10.9665829666597
30
0
41
1
10
110.726718280866
20
-11.1539273700496
30
0
41
1
10
109.015879955503
20
-11.384064637191
30
0
41
1
10
108.441843632539
20
-11.4526403321806
30
0
41
1
10
107.290761921842
20
-11.575267619482
30
0
41
1
10
106.713285420948
20
-11.6293822679779
30
0
41
1
10
104.975086186151
20
-11.7732933834099
30
0
41
1
10
103.808619709957
20
-11.8448476029609
30
0
41
1
10
101.462176480827
20
-11.9537279035467
30
0
41
1
10
100.282096962032
20
-11.9908025893737
30
0
41
1
10
97.906445377293
20
-12.0405774815813
30
0
41
1
10
96.7094746271108
20
-12.0532763697129
30
0
41
1
10
94.3097065380672
20
-12.0644160243306
30
0
41
1
10
93.1060088974593
20
-12.0629561105464
30
0
41
1
10
90.6903899976614
20
-12.0551303467806
30
0
41
1
10
89.478464468609
20
-12.0487888218237
30
0
41
1
10
87.6539897889095
20
-12.0406670004028
30
0
41
1
10
87.0447526204933
20
-12.0381649536663
30
0
41
1
10
85.8243834730604
20
-12.0339218794389
30
0
41
1
10
85.213064888165
20
-12.0321793260939
30
0
41
1
10
83.3796915918149
20
-12.0282477293158
30
0
41
1
10
82.1572943465848
20
-12.0273548123611
30
0
41
1
10
79.7124157540642
20
-12.0267507096617
30
0
41
1
10
78.4899313967534
20
-12.0270342014722
30
0
41
1
10
76.0449648872393
20
-12.0275696541516
30
0
41
1
10
74.8224807373823
20
-12.0278472302629
30
0
41
1
10
73.6
20
-12.0280797781038
30
0
0
SPLINE
5
326
100
AcDbEntity
8
1
62
256
6
ByLayer
370
13
48
1
60
0
100
AcDbSpline
70
4
71
3
72
18
73
14
40
0
40
0
40
0
40
0
40
0.332502082621766
40
0.332502082621766
40
0.498753123932649
40
0.498753123932649
40
0.665004165243534
40
0.665004165243534
40
0.831255206554419
40
0.831255206554419
40
0.997506247865303
40
0.997506247865303
40
1
40
1
40
1
40
1
41
1
10
135.396356155012
20
11.8721636456922
30
0
41
1
10
132.922024854384
20
12.0696400221963
30
0
41
1
10
130.45466206919
20
12.1136061701489
30
0
41
1
10
126.742388507074
20
11.9482050995717
30
0
41
1
10
125.507933731813
20
11.8547451481288
30
0
41
1
10
123.042177442236
20
11.5925517783192
30
0
41
1
10
121.810939327265
20
11.4236713614885
30
0
41
1
10
119.346997107987
20
11.0127367644636
30
0
41
1
10
118.114299959617
20
10.7703089759009
30
0
41
1
10
115.638098298684
20
10.2226039838278
30
0
41
1
10
114.400089441296
20
9.91854031345736
30
0
41
1
10
113.138051696123
20
9.59029927902532
30
0
41
1
10
113.119399804735
20
9.58544410498007
30
0
41
1
10
113.100746715033
20
9.58058461922121
30
0
0
SPLINE
5
327
100
AcDbEntity
8
1
62
256
6
ByLayer
370
13
48
1
60
0
100
AcDbSpline
70
4
71
3
72
22
73
18
40
0
40
0
40
0
40
0
40
0.305483337201241
40
0.305483337201241
40
0.610966674402483
40
0.610966674402483
40
0.687337508702795
40
0.687337508702795
40
0.763708343003106
40
0.763708343003106
40
0.840079177303418
40
0.840079177303418
40
0.916450011603729
40
0.916450011603729
40
0.992820845904041
40
0.992820845904041
40
1
40
1
40
1
40
1
41
1
10
135.282140202533
20
11.3744442668528
30
0
41
1
10
133.062858529814
20
11.5586405614753
30
0
41
1
10
130.847598620582
20
11.6247254623912
30
0
41
1
10
126.405702948525
20
11.5198012992015
30
0
41
1
10
124.191145180208
20
11.3483979308436
30
0
41
1
10
121.417827611449
20
10.9834823873268
30
0
41
1
10
120.862692962447
20
10.9030229991458
30
0
41
1
10
119.753444390826
20
10.7278167715735
30
0
41
1
10
119.1991439283
20
10.6329780976347
30
0
41
1
10
118.090782410375
20
10.4318970295629
30
0
41
1
10
117.536807787779
20
10.3259556998432
30
0
41
1
10
116.428461098954
20
10.1035498938414
30
0
41
1
10
115.874022340611
20
9.98673656484212
30
0
41
1
10
114.762913516806
20
9.74129032573615
30
0
41
1
10
114.206162582178
20
9.6124723837948
30
0
41
1
10
113.595030631775
20
9.46586428011133
30
0
41
1
10
113.542511676818
20
9.45322635388459
30
0
41
1
10
113.489986045545
20
9.44054924824098
30
0
0
SPLINE
5
328
100
AcDbEntity
8
1
62
256
6
ByLayer
370
13
48
1
60
0
100
AcDbSpline
70
4
71
3
72
12
73
8
40
0
40
0
40
0
40
0
40
0.371760782692424
40
0.371760782692424
40
0.685880391346212
40
0.685880391346212
40
1
40
1
40
1
40
1
41
1
10
125.213610527432
20
5.42628835810774
30
0
41
1
10
126.599253199107
20
5.51184109648369
30
0
41
1
10
127.984604084145
20
5.57552145915034
30
0
41
1
10
130.541281365776
20
5.65145372635732
30
0
41
1
10
131.712783650014
20
5.67015667932063
30
0
41
1
10
134.055554644301
20
5.67467711645511
30
0
41
1
10
135.22673926549
20
5.66050536859674
30
0
41
1
10
136.398124221825
20
5.62959822448713
30
0
0
SPLINE
5
329
100
AcDbEntity
8
1
62
256
6
ByLayer
370
13
48
1
60
0
100
AcDbSpline
70
4
71
3
72
8
73
4
40
0
40
0
40
0
40
0
40
1
40
1
40
1
40
1
41
1
10
136.193053907021
20
4.63229042795001
30
0
41
1
10
133.194874744643
20
4.72966682319293
30
0
41
1
10
130.200459900661
20
4.73630003419089
30
0
41
1
10
127.204941634186
20
4.65585695962079
30
0
0
SPLINE
5
32A
100
AcDbEntity
8
1
62
256
6
ByLayer
370
13
48
1
60
0
100
AcDbSpline
70
4
71
3
72
34
73
30
40
0
40
0
40
0
40
0
40
0.0446095555885382
40
0.149542064292062
40
0.264009781795877
40
0.388148810019944
40
0.521937784479446
40
0.536457575877396
40
0.551654359317612
40
0.567530520215437
40
0.584088333252351
40
0.6013299445028
40
0.61925735116159
40
0.637872379076771
40
0.657176658253477
40
0.677171596469407
40
0.697858351128668
40
0.719237799475097
40
0.741310507287091
40
0.76407669618218
40
0.787536209670238
40
0.81168847810855
40
0.836532482729679
40
0.862066718933644
40
0.888289159059248
40
0.915197214875074
40
0.942787700058735
40
0.971056792963068
40
1
40
1
40
1
40
1
41
1
10
20.3173709883378
20
-4.4800274370379
30
0
41
1
10
20.3339717479207
20
-4.51544437809827
30
0
41
1
10
20.3912146081609
20
-4.63494539932245
30
0
41
1
10
20.5014056426838
20
-4.85011655471843
30
0
41
1
10
20.6626292851854
20
-5.13493915234065
30
0
41
1
10
20.8569321284966
20
-5.4453449598507
30
0
41
1
10
21.0125582783482
20
-5.67066695887425
30
0
41
1
10
21.1092355030524
20
-5.80400235626527
30
0
41
1
10
21.1363400884908
20
-5.84111020382124
30
0
41
1
10
21.1648423173775
20
-5.87975990690325
30
0
41
1
10
21.1947742800953
20
-5.9199246646177
30
0
41
1
10
21.2261714632813
20
-5.96156885482657
30
0
41
1
10
21.2590660583234
20
-6.00465465751199
30
0
41
1
10
21.293488310686
20
-6.04913985478103
30
0
41
1
10
21.3294655437437
20
-6.09497814971303
30
0
41
1
10
21.3670218137107
20
-6.14211877176956
30
0
41
1
10
21.4061773550945
20
-6.19050629074968
30
0
41
1
10
21.446948056351
20
-6.24008038039813
30
0
41
1
10
21.4893448991492
20
-6.29077560650663
30
0
41
1
10
21.5333733822268
20
-6.34252122600807
30
0
41
1
10
21.5790329249811
20
-6.3952409851037
30
0
41
1
10
21.6263162597981
20
-6.44885299628791
30
0
41
1
10
21.6752087951405
20
-6.50326938904689
30
0
41
1
10
21.7256880316372
20
-6.55839693739895
30
0
41
1
10
21.7777227277516
20
-6.61413399690525
30
0
41
1
10
21.8312730121735
20
-6.67038189748271
30
0
41
1
10
21.8862868185897
20
-6.72700039103259
30
0
41
1
10
21.9427105899419
20
-6.78398003443075
30
0
41
1
10
21.9807541117859
20
-6.82140469069893
30
0
41
1
10
22
20
-6.84033750017815
30
0
0
SPLINE
5
32B
100
AcDbEntity
8
1
62
256
6
ByLayer
370
13
48
1
60
0
100
AcDbSpline
70
4
71
3
72
30
73
26
40
0
40
0
40
0
40
0
40
0.108787511753728
40
0.108787511753728
40
0.217575023507456
40
0.217575023507456
40
0.326362535261185
40
0.326362535261185
40
0.380756291138054
40
0.380756291138054
40
0.435150047014924
40
0.435150047014924
40
0.652725070522437
40
0.652725070522437
40
0.707118826399313
40
0.707118826399313
40
0.761512582276188
40
0.761512582276188
40
0.87030009402995
40
0.87030009402995
40
0.924693849906831
40
0.924693849906831
40
0.979087605783712
40
0.979087605783712
40
1
40
1
40
1
40
1
41
1
10
136.113570251801
20
4.3404026372842
30
0
41
1
10
135.8690484611
20
4.3974969892308
30
0
41
1
10
135.622076757194
20
4.44449058163548
30
0
41
1
10
135.123693736
20
4.52147670199773
30
0
41
1
10
134.872275984359
20
4.55143941700524
30
0
41
1
10
134.364961894172
20
4.59584094609946
30
0
41
1
10
134.109063737252
20
4.61026690973392
30
0
41
1
10
133.721558981484
20
4.62060949525753
30
0
41
1
10
133.591778464139
20
4.62216737092649
30
0
41
1
10
133.330910381653
20
4.62148761494555
30
0
41
1
10
133.199542033623
20
4.61923945762871
30
0
41
1
10
132.542846669202
20
4.59848028072952
30
0
41
1
10
132.020457339108
20
4.55205039716358
30
0
41
1
10
131.371053951987
20
4.45629100571821
30
0
41
1
10
131.241354935288
20
4.43522612586637
30
0
41
1
10
130.98232930928
20
4.389126624402
30
0
41
1
10
130.852622868209
20
4.36401118193879
30
0
41
1
10
130.466961504874
20
4.28297776581113
30
0
41
1
10
130.215659703444
20
4.22174087932379
30
0
41
1
10
129.848594676765
20
4.11839721017972
30
0
41
1
10
129.727895483386
20
4.08202295612941
30
0
41
1
10
129.490154576925
20
4.00509555900723
30
0
41
1
10
129.372698746756
20
3.96439034897395
30
0
41
1
10
129.214313915685
20
3.90525601381043
30
0
41
1
10
129.170867174079
20
3.88858183047714
30
0
41
1
10
129.127981689606
20
3.87163962522206
30
0
0
SPLINE
5
32C
100
AcDbEntity
8
1
62
256
6
ByLayer
370
13
48
1
60
0
100
AcDbSpline
70
4
71
3
72
18
73
14
40
0
40
0
40
0
40
0
40
0.21190234685858
40
0.21190234685858
40
0.343251955715483
40
0.343251955715483
40
0.408926760143934
40
0.408926760143934
40
0.474601564572386
40
0.474601564572386
40
0.737300782286193
40
0.737300782286193
40
1
40
1
40
1
40
1
41
1
10
11.1198932940327
20
-6.82455646991048
30
0
41
1
10
10.6778238005126
20
-7.21535266175877
30
0
41
1
10
10.2635582786222
20
-7.62703078297406
30
0
41
1
10
9.63657934142142
20
-8.3271426521338
30
0
41
1
10
9.40716087456764
20
-8.60293849713113
30
0
41
1
10
9.079214669658
20
-9.02871837687329
30
0
41
1
10
8.97248040085643
20
-9.17285460286487
30
0
41
1
10
8.76617217656175
20
-9.46289368247525
30
0
41
1
10
8.66639536462017
20
-9.60904539285505
30
0
41
1
10
8.18433227228559
20
-10.3454087572973
30
0
41
1
10
7.85338510453693
20
-10.9528417652701
30
0
41
1
10
7.29186266835592
20
-12.2025355924171
30
0
41
1
10
7.06075565993987
20
-12.8443634705593
30
0
41
1
10
6.87862656162142
20
-13.5025417218897
30
0
0
SPLINE
5
32D
100
AcDbEntity
8
1
62
256
6
ByLayer
370
13
48
1
60
0
100
AcDbSpline
70
4
71
3
72
8
73
4
40
0
40
0
40
0
40
0
40
1
40
1
40
1
40
1
41
1
10
148.584130970517
20
5.01371800867062
30
0
41
1
10
148.568308078951
20
4.99552973571127
30
0
41
1
10
148.552553148363
20
4.97812322185638
30
0
41
1
10
148.536764115194
20
4.96156311445733
30
0
0
SPLINE
5
32E
100
AcDbEntity
8
1
62
256
6
ByLayer
370
13
48
1
60
0
100
AcDbSpline
70
4
71
3
72
10
73
6
40
0
40
0
40
0
40
0
40
0.158603985153595
40
0.158603985153595
40
1
40
1
40
1
40
1
41
1
10
125.76014919057
20
5.20061895419221
30
0
41
1
10
126.169633243579
20
5.04265668408453
30
0
41
1
10
126.579040470975
20
4.88289607283389
30
0
41
1
10
129.160283958613
20
3.86512900725225
30
0
41
1
10
131.331882518967
20
2.96249638697555
30
0
41
1
10
133.511777111582
20
2.03223397857113
30
0
0
SPLINE
5
32F
100
AcDbEntity
8
1
62
256
6
ByLayer
370
13
48
1
60
0
100
AcDbSpline
70
4
71
3
72
14
73
10
40
0
40
0
40
0
40
0
40
0.455113637063281
40
0.455113637063281
40
0.682670455594921
40
0.682670455594921
40
0.910227274126561
40
0.910227274126561
40
1
40
1
40
1
40
1
41
1
10
6.88088250141337
20
-11.736060517154
30
0
41
1
10
7.06306077554933
20
-11.1081917607778
30
0
41
1
10
7.29517470478089
20
-10.4906870588074
30
0
41
1
10
7.72152324983037
20
-9.58001935466055
30
0
41
1
10
7.87726106557076
20
-9.27831813685435
30
0
41
1
10
8.2127991745044
20
-8.68688908102533
30
0
41
1
10
8.39293145078801
20
-8.39661459040002
30
0
41
1
10
8.66103219806706
20
-7.99963172496822
30
0
41
1
10
8.7387331082914
20
-7.88817127015281
30
0
41
1
10
8.81828366327321
20
-7.77755144593618
30
0
0
SPLINE
5
330
100
AcDbEntity
8
1
62
256
6
ByLayer
370
13
48
1
60
0
100
AcDbSpline
70
4
71
3
72
12
73
8
40
0
40
0
40
0
40
0
40
0.0331406435960636
40
0.0331406435960636
40
0.607171123553387
40
0.607171123553387
40
1
40
1
40
1
40
1
41
1
10
150.307336565242
20
4.59174094974088
30
0
41
1
10
150.305473885231
20
4.58975128492153
30
0
41
1
10
150.303598946077
20
4.58777580731282
30
0
41
1
10
150.269030212145
20
4.55185009097457
30
0
41
1
10
150.232867683966
20
4.52179382275543
30
0
41
1
10
150.16538427149
20
4.47855081747966
30
0
41
1
10
150.136832247557
20
4.46335881796483
30
0
41
1
10
150.107323625961
20
4.45050230815832
30
0
0
SPLINE
5
331
100
AcDbEntity
8
1
62
256
6
ByLayer
370
13
48
1
60
0
100
AcDbSpline
70
4
71
1
72
4
73
2
40
0
40
0
40
1
40
1
41
1
10
149.749675077619
20
4.53674030298461
30
0
41
1
10
149.766856763138
20
4.56355605929929
30
0
0
SPLINE
5
332
100
AcDbEntity
8
1
62
256
6
ByLayer
370
13
48
1
60
0
100
AcDbSpline
70
4
71
3
72
18
73
14
40
0
40
0
40
0
40
0
40
0.069072163095556
40
0.069072163095556
40
0.138144326191112
40
0.138144326191112
40
0.276288652382221
40
0.276288652382221
40
0.41443297857333
40
0.41443297857333
40
0.552577304764439
40
0.552577304764439
40
1
40
1
40
1
40
1
41
1
10
150.496198038842
20
4.97104303771621
30
0
41
1
10
150.495290037624
20
4.95862926977392
30
0
41
1
10
150.49411839378
20
4.94522394866979
30
0
41
1
10
150.491122789385
20
4.9183392453846
30
0
41
1
10
150.489297513883
20
4.9050497591349
30
0
41
1
10
150.483700982107
20
4.86941626325421
30
0
41
1
10
150.479977099306
20
4.85139345564636
30
0
41
1
10
150.47293681673
20
4.82114469627282
30
0
41
1
10
150.469580659694
20
4.80891844124468
30
0
41
1
10
150.463133208307
20
4.78754071209025
30
0
41
1
10
150.460016270889
20
4.77836347684715
30
0
41
1
10
150.447155642657
20
4.74348479253737
30
0
41
1
10
150.438108252996
20
4.72581150351067
30
0
41
1
10
150.429497764864
20
4.71254632839296
30
0
0
SPLINE
5
333
100
AcDbEntity
8
1
62
256
6
ByLayer
370
13
48
1
60
0
100
AcDbSpline
70
4
71
3
72
10
73
6
40
0
40
0
40
0
40
0
40
0.283552140910828
40
0.283552140910828
40
1
40
1
40
1
40
1
41
1
10
150.40521167517
20
4.68393132035237
30
0
41
1
10
150.401334417634
20
4.68069407002014
30
0
41
1
10
150.397524969536
20
4.67810369999114
30
0
41
1
10
150.384279009142
20
4.6706715367732
30
0
41
1
10
150.375134616506
20
4.66850555279268
30
0
41
1
10
150.36622465611
20
4.6684819789316
30
0
0
SPLINE
5
334
100
AcDbEntity
8
1
62
256
6
ByLayer
370
13
48
1
60
0
100
AcDbSpline
70
4
71
1
72
4
73
2
40
0
40
0
40
1
40
1
41
1
10
149.620307350017
20
4.56341971135345
30
0
41
1
10
149.562005813313
20
4.47578789444893
30
0
0
SPLINE
5
335
100
AcDbEntity
8
1
62
256
6
ByLayer
370
13
48
1
60
0
100
AcDbSpline
70
4
71
3
72
10
73
6
40
0
40
0
40
0
40
0
40
0.0523557545473923
40
0.0523557545473923
40
1
40
1
40
1
40
1
41
1
10
140.092859112756
20
12.0113070848586
30
0
41
1
10
140.098044040463
20
12.0120202541856
30
0
41
1
10
140.103234507264
20
12.0126859030365
30
0
41
1
10
140.202459446947
20
12.0246576022223
30
0
41
1
10
140.296676154967
20
12.0344002381183
30
0
41
1
10
140.391050390156
20
12.0427914318433
30
0
0
SPLINE
5
336
100
AcDbEntity
8
1
62
256
6
ByLayer
370
13
48
1
60
0
100
AcDbSpline
70
4
71
1
72
4
73
2
40
0
40
0
40
1
40
1
41
1
10
139.544437928402
20
7.91579107451724
30
0
41
1
10
139.598648778794
20
7.92021426124128
30
0
0
SPLINE
5
337
100
AcDbEntity
8
1
62
256
6
ByLayer
370
18
48
1
60
0
100
AcDbSpline
70
4
71
3
72
26
73
22
40
0
40
0
40
0
40
0
40
0.0083927604912578
40
0.0383669828420294
40
0.0683412051928009
40
0.128289649894344
40
0.24818653929743
40
0.368083428700516
40
0.480486762515909
40
0.487980318103602
40
0.502967429278988
40
0.517954540454374
40
0.547928762805145
40
0.607877207506689
40
0.727774096909775
40
0.847670986312861
40
0.907619431014404
40
0.937593653365175
40
0.967567875715947
40
0.997542098066718
40
1
40
1
40
1
40
1
41
1
10
149.821379109528
20
-6.67788326946405
30
0
41
1
10
149.844007593138
20
-6.6703701768985
30
0
41
1
10
149.946091799901
20
-6.62714756630623
30
0
41
1
10
150.102452716406
20
-6.44782912882235
30
0
41
1
10
150.117188327862
20
-6.12748102851319
30
0
41
1
10
150.193955071953
20
-5.65085051661151
30
0
41
1
10
150.279394021842
20
-4.95244276749247
30
0
41
1
10
150.389039751074
20
-4.13735074950611
30
0
41
1
10
150.463560752933
20
-3.58218177794191
30
0
41
1
10
150.506523038323
20
-3.25987424735681
30
0
41
1
10
150.502520439765
20
-3.15340096663337
30
0
41
1
10
150.471536134404
20
-3.0089533852136
30
0
41
1
10
150.438264333829
20
-2.76978690880611
30
0
41
1
10
150.357846171592
20
-2.28440393449614
30
0
41
1
10
150.249683673795
20
-1.59276346950898
30
0
41
1
10
150.1377838838
20
-0.901774073590559
30
0
41
1
10
150.062990602419
20
-0.41545821230099
30
0
41
1
10
150.014999787679
20
-0.14397340888766
30
0
41
1
10
149.989287518484
20
0.11268052882923
30
0
41
1
10
149.824608688131
20
0.254654040615804
30
0
41
1
10
149.738179369665
20
0.290664448405351
30
0
41
1
10
149.731626986822
20
0.293195709380143
30
0
0
SPLINE
5
338
100
AcDbEntity
8
1
62
256
6
ByLayer
370
13
48
1
60
0
100
AcDbSpline
70
4
71
3
72
26
73
22
40
0
40
0
40
0
40
0
40
0.100758089076435
40
0.100758089076435
40
0.190682280168645
40
0.190682280168645
40
0.280606471260856
40
0.280606471260856
40
0.370530662353067
40
0.370530662353067
40
0.415492757899253
40
0.415492757899253
40
0.460454853445439
40
0.460454853445439
40
0.505416948991625
40
0.505416948991625
40
0.550379044537812
40
0.550379044537812
40
0.640303235630185
40
0.640303235630185
40
1
40
1
40
1
40
1
41
1
10
140.078360998996
20
11.8263525462783
30
0
41
1
10
140.09097767448
20
11.8307865362402
30
0
41
1
10
140.104474955528
20
11.8350053037861
30
0
41
1
10
140.132062514685
20
11.8423958120732
30
0
41
1
10
140.145731279159
20
11.8455287027582
30
0
41
1
10
140.174285916325
20
11.8507636876718
30
0
41
1
10
140.189223449003
20
11.8528275843193
30
0
41
1
10
140.218534302362
20
11.855738317575
30
0
41
1
10
140.233220982518
20
11.8566697361056
30
0
41
1
10
140.254769922032
20
11.8576277731908
30
0
41
1
10
140.261893800966
20
11.8578745517111
30
0
41
1
10
140.276025158127
20
11.8582251858774
30
0
41
1
10
140.283013702303
20
11.8582888617387
30
0
41
1
10
140.297389093935
20
11.8589980128857
30
0
41
1
10
140.304843520054
20
11.8597691512064
30
0
41
1
10
140.319585290222
20
11.8610504898294
30
0
41
1
10
140.32679216693
20
11.8614350209408
30
0
41
1
10
140.348369291977
20
11.8625206707195
30
0
41
1
10
140.362743543442
20
11.8632280412243
30
0
41
1
10
140.43422763304
20
11.8661602389874
30
0
41
1
10
140.48974354636
20
11.8666295529108
30
0
41
1
10
140.545137384679
20
11.8670880194697
30
0
0
SPLINE
5
339
100
AcDbEntity
8
1
62
256
6
ByLayer
370
13
48
1
60
0
100
AcDbSpline
70
4
71
3
72
20
73
16
40
0
40
0
40
0
40
0
40
0.04799886981713
40
0.04799886981713
40
0.0959977396342599
40
0.0959977396342599
40
0.191995479268523
40
0.191995479268523
40
0.287993218902785
40
0.287993218902785
40
0.383990958537048
40
0.383990958537048
40
0.767981917074082
40
0.767981917074082
40
1
40
1
40
1
40
1
41
1
10
140.226480391294
20
4.43282994194436
30
0
41
1
10
140.228681010473
20
4.42057908989369
30
0
41
1
10
140.231247473544
20
4.40736967467186
30
0
41
1
10
140.237036884424
20
4.38094537452824
30
0
41
1
10
140.240241290451
20
4.36791948271795
30
0
41
1
10
140.249531878406
20
4.33306618772215
30
0
41
1
10
140.25511925777
20
4.3155313626869
30
0
41
1
10
140.265282829275
20
4.28618421910079
30
0
41
1
10
140.269898592581
20
4.27437575471436
30
0
41
1
10
140.278545305331
20
4.25378907718263
30
0
41
1
10
140.282604450137
20
4.24498792447253
30
0
41
1
10
140.301991974595
20
4.20565690504256
30
0
41
1
10
140.314888732194
20
4.18768526015248
30
0
41
1
10
140.33385783055
20
4.16687754397572
30
0
41
1
10
140.34057619011
20
4.16109811632336
30
0
41
1
10
140.346979763168
20
4.15680165403094
30
0
0
SPLINE
5
33A
100
AcDbEntity
8
1
62
256
6
ByLayer
370
13
48
1
60
0
100
AcDbSpline
70
4
71
2
72
6
73
3
40
0
40
0
40
0
40
1
40
1
40
1
41
1
10
125.692824883737
20
5.22658918034702
30
0
41
1
10
125.603420652361
20
5.26084368375467
30
0
41
1
10
125.514040441429
20
5.2971940451462
30
0
0
SPLINE
5
33B
100
AcDbEntity
8
1
62
256
6
ByLayer
370
18
48
1
60
0
100
AcDbSpline
70
4
71
3
72
9
73
5
40
0
40
0
40
0
40
0
40
0.114864008488852
40
1
40
1
40
1
40
1
41
1
10
145.216053191749
20
-2.81409856264193
30
0
41
1
10
145.219074679082
20
-2.80648607450993
30
0
41
1
10
145.245915552152
20
-2.74043165575398
30
0
41
1
10
145.277142152866
20
-2.67639496640439
30
0
41
1
10
145.308381154413
20
-2.62178292763406
30
0
0
SPLINE
5
33C
100
AcDbEntity
8
1
62
256
6
ByLayer
370
13
48
1
60
0
100
AcDbSpline
70
4
71
3
72
14
73
10
40
0
40
0
40
0
40
0
40
0.186555911228345
40
0.37342073432871
40
0.560236859056118
40
0.670169100539949
40
0.779938961011479
40
0.890158236256559
40
1
40
1
40
1
40
1
41
1
10
5.98979999999995
20
-16
30
0
41
1
10
7.0082571455508
20
-15.8568038970203
30
0
41
1
10
9.03370185863588
20
-15.5083700308161
30
0
41
1
10
12.0369144693191
20
-14.7960087709138
30
0
41
1
10
14.5883783708647
20
-14.0276697587277
30
0
41
1
10
16.6912039417001
20
-13.2634063846938
30
0
41
1
10
18.3938178646895
20
-12.6234579278169
30
0
41
1
10
20.1852353358823
20
-12.2710592046818
30
0
41
1
10
21.3912691606995
20
-12.1878618875378
30
0
41
1
10
22
20
-12.1875
30
0
0
SPLINE
5
33D
100
AcDbEntity
8
1
62
256
6
ByLayer
370
13
48
1
60
0
100
AcDbSpline
70
4
71
3
72
14
73
10
40
0
40
0
40
0
40
0
40
0.111844427014016
40
0.224061566680013
40
0.33582503293741
40
0.447769167451044
40
0.5598540189115
40
0.780097209148948
40
1
40
1
40
1
40
1
41
1
10
22
20
12.1875
30
0
41
1
10
21.3800316829401
20
12.1878889604741
30
0
41
1
10
20.1522729105313
20
12.2740314967771
30
0
41
1
10
18.3293587919087
20
12.6397558757751
30
0
41
1
10
16.5996003297043
20
13.3012155333564
30
0
41
1
10
14.8600605957717
20
13.9256376920224
30
0
41
1
10
12.5253169160754
20
14.6561185237327
30
0
41
1
10
9.57554244020068
20
15.4071721702058
30
0
41
1
10
7.19094530024066
20
15.8310717356739
30
0
41
1
10
5.9898
20
16
30
0
0
SPLINE
5
33E
100
AcDbEntity
8
1
62
256
6
ByLayer
370
13
48
1
60
0
100
AcDbSpline
70
4
71
2
72
6
73
3
40
0
40
0
40
0
40
1
40
1
40
1
41
1
10
150.305572351641
20
4.58989231230458
30
0
41
1
10
150.355304654705
20
4.6424833856226
30
0
41
1
10
150.406301295765
20
4.68350988686205
30
0
0
SPLINE
5
33F
100
AcDbEntity
8
1
62
256
6
ByLayer
370
13
48
1
60
0
100
AcDbSpline
70
4
71
2
72
6
73
3
40
0
40
0
40
0
40
1
40
1
40
1
41
1
10
140.345940069003
20
4.15626869618231
30
0
41
1
10
140.400945782255
20
4.12079754293117
30
0
41
1
10
140.455902910635
20
4.07369301022956
30
0
0
LINE
5
7F
100
AcDbEntity
8
SK1
62
256
6
ByLayer
370
13
48
1
60
0
100
AcDbLine
10
-6.5
20
-6.998572
30
0
11
-52.599857
21
-6.998572
31
0
39
0
210
0
220
0
230
1
0
LINE
5
81
100
AcDbEntity
8
SK1
62
256
6
ByLayer
370
13
48
1
60
0
100
AcDbLine
10
-6.5
20
-6.998572
30
0
11
-6.5
21
6.998572
31
0
39
0
210
0
220
0
230
1
0
LINE
5
82
100
AcDbEntity
8
1
62
256
6
ByLayer
370
18
48
1
60
0
100
AcDbLine
10
150.122717
20
0.223675
30
0
11
150.16637
21
0.0723
31
0
39
0
210
0
220
0
230
1
0
LINE
5
83
100
AcDbEntity
8
1
62
256
6
ByLayer
370
18
48
1
60
0
100
AcDbLine
10
150.008341
20
-6.816448
30
0
11
149.856104
21
-6.859854
31
0
39
0
210
0
220
0
230
1
0
LINE
5
84
100
AcDbEntity
8
1
62
256
6
ByLayer
370
18
48
1
60
0
100
AcDbLine
10
150.684757
20
-3.310754
30
0
11
150.258874
21
-6.527338
31
0
39
0
210
0
220
0
230
1
0
LINE
5
85
100
AcDbEntity
8
1
62
256
6
ByLayer
370
18
48
1
60
0
100
AcDbLine
10
150.182226
20
0.001184
30
0
11
150.682504
21
-3.139552
31
0
39
0
210
0
220
0
230
1
0
LINE
5
86
100
AcDbEntity
8
1
62
256
6
ByLayer
370
13
48
1
60
0
100
AcDbLine
10
150.944906
20
8.509352
30
0
11
150.541013
21
5.423212
31
0
39
0
210
0
220
0
230
1
0
LINE
5
87
100
AcDbEntity
8
1
62
256
6
ByLayer
370
13
48
1
60
0
100
AcDbLine
10
150.068784
20
4.673238
30
0
11
150.35697
21
4.716429
31
0
39
0
210
0
220
0
230
1
0
LINE
5
88
100
AcDbEntity
8
1
62
256
6
ByLayer
370
13
48
1
60
0
100
AcDbLine
10
149.009346
20
12.344838
30
0
11
149.124906
21
12.350895
31
0
39
0
210
0
220
0
230
1
0
LINE
5
89
100
AcDbEntity
8
1
62
256
6
ByLayer
370
13
48
1
60
0
100
AcDbLine
10
141.659496
20
11.449892
30
0
11
140.347031
21
11.253193
31
0
39
0
210
0
220
0
230
1
0
LINE
5
8A
100
AcDbEntity
8
1
62
256
6
ByLayer
370
13
48
1
60
0
100
AcDbLine
10
140.285521
20
11.759623
30
0
11
140.347031
21
11.253193
31
0
39
0
210
0
220
0
230
1
0
LINE
5
8B
100
AcDbEntity
8
1
62
256
6
ByLayer
370
13
48
1
60
0
100
AcDbLine
10
150.068784
20
4.673238
30
0
11
150.325516
21
5.196346
31
0
39
0
210
0
220
0
230
1
0
LINE
5
8C
100
AcDbEntity
8
1
62
256
6
ByLayer
370
13
48
1
60
0
100
AcDbLine
10
150.072411
20
5.158414
30
0
11
150.325516
21
5.196346
31
0
39
0
210
0
220
0
230
1
0
LINE
5
8D
100
AcDbEntity
8
1
62
256
6
ByLayer
370
13
48
1
60
0
100
AcDbLine
10
141.339217
20
7.975364
30
0
11
141.758183
21
11.176682
31
0
39
0
210
0
220
0
230
1
0
LINE
5
8E
100
AcDbEntity
8
1
62
256
6
ByLayer
370
13
48
1
60
0
100
AcDbLine
10
150.314782
20
5.295851
30
0
11
150.310169
21
5.295609
31
0
39
0
210
0
220
0
230
1
0
LINE
5
8F
100
AcDbEntity
8
1
62
256
6
ByLayer
370
13
48
1
60
0
100
AcDbLine
10
149.538754
20
12.422129
30
0
11
149.534142
21
12.421887
31
0
39
0
210
0
220
0
230
1
0
LINE
5
90
100
AcDbEntity
8
1
62
256
6
ByLayer
370
13
48
1
60
0
100
AcDbLine
10
150.317691
20
12.000246
30
0
11
150.844279
21
8.665905
31
0
39
0
210
0
220
0
230
1
0
LINE
5
91
100
AcDbEntity
8
1
62
256
6
ByLayer
370
13
48
1
60
0
100
AcDbLine
10
149.013051
20
4.999648
30
0
11
150.072411
21
5.158414
31
0
39
0
210
0
220
0
230
1
0
LINE
5
92
100
AcDbEntity
8
1
62
256
6
ByLayer
370
13
48
1
60
0
100
AcDbLine
10
141.34188
20
7.774493
30
0
11
141.337268
21
7.774251
31
0
39
0
210
0
220
0
230
1
0
LINE
5
93
100
AcDbEntity
8
1
62
256
6
ByLayer
370
13
48
1
60
0
100
AcDbLine
10
150.846182
20
8.522426
30
0
11
150.841569
21
8.522185
31
0
39
0
210
0
220
0
230
1
0
LINE
5
94
100
AcDbEntity
8
1
62
256
6
ByLayer
370
13
48
1
60
0
100
AcDbLine
10
149.295904
20
12.512321
30
0
11
149.3788
21
12.515938
31
0
39
0
210
0
220
0
230
1
0
LINE
5
95
100
AcDbEntity
8
1
62
256
6
ByLayer
370
13
48
1
60
0
100
AcDbLine
10
150.274223
20
5.443239
30
0
11
150.679646
21
8.541071
31
0
39
0
210
0
220
0
230
1
0
LINE
5
96
100
AcDbEntity
8
1
62
256
6
ByLayer
370
13
48
1
60
0
100
AcDbLine
10
141.339217
20
7.975364
30
0
11
141.334605
21
7.975122
31
0
39
0
210
0
220
0
230
1
0
LINE
5
97
100
AcDbEntity
8
1
62
256
6
ByLayer
370
13
48
1
60
0
100
AcDbLine
10
141.159787
20
4.177834
30
0
11
141.264384
21
4.182397
31
0
39
0
210
0
220
0
230
1
0
LINE
5
98
100
AcDbEntity
8
1
62
256
6
ByLayer
370
13
48
1
60
0
100
AcDbLine
10
141.590768
20
11.188608
30
0
11
140.361426
21
11.004367
31
0
39
0
210
0
220
0
230
1
0
LINE
5
99
100
AcDbEntity
8
1
62
256
6
ByLayer
370
13
48
1
60
0
100
AcDbLine
10
149.916103
20
4.565913
30
0
11
150.072411
21
5.158414
31
0
39
0
210
0
220
0
230
1
0
LINE
5
9A
100
AcDbEntity
8
1
62
256
6
ByLayer
370
13
48
1
60
0
100
AcDbLine
10
150.440759
20
5.424594
30
0
11
150.436146
21
5.424352
31
0
39
0
210
0
220
0
230
1
0
LINE
5
9B
100
AcDbEntity
8
1
62
256
6
ByLayer
370
13
48
1
60
0
100
AcDbLine
10
141.289381
20
4.033507
30
0
11
141.184784
21
4.028944
31
0
39
0
210
0
220
0
230
1
0
LINE
5
9C
100
AcDbEntity
8
1
62
256
6
ByLayer
370
13
48
1
60
0
100
AcDbLine
10
149.475862
20
12.269772
30
0
11
149.371265
21
12.265209
31
0
39
0
210
0
220
0
230
1
0
LINE
5
9D
100
AcDbEntity
8
1
62
256
6
ByLayer
370
13
48
1
60
0
100
AcDbLine
10
150.310169
20
5.295609
30
0
11
149.015486
21
5.101575
31
0
39
0
210
0
220
0
230
1
0
LINE
5
9E
100
AcDbEntity
8
1
62
256
6
ByLayer
370
13
48
1
60
0
100
AcDbLine
10
142.383805
20
11.28945
30
0
11
147.952221
21
11.581278
31
0
39
0
210
0
220
0
230
1
0
LINE
5
9F
100
AcDbEntity
8
1
62
256
6
ByLayer
370
13
48
1
60
0
100
AcDbLine
10
150.366225
20
4.668482
30
0
11
150.35697
21
4.716429
31
0
39
0
210
0
220
0
230
1
0
LINE
5
A0
100
AcDbEntity
8
1
62
256
6
ByLayer
370
13
48
1
60
0
100
AcDbLine
10
149.487762
20
12.420596
30
0
11
149.48315
21
12.420354
31
0
39
0
210
0
220
0
230
1
0
LINE
5
A1
100
AcDbEntity
8
1
62
256
6
ByLayer
370
13
48
1
60
0
100
AcDbLine
10
149.383165
20
12.416033
30
0
11
149.487762
21
12.420596
31
0
39
0
210
0
220
0
230
1
0
LINE
5
A2
100
AcDbEntity
8
1
62
256
6
ByLayer
370
13
48
1
60
0
100
AcDbLine
10
140.361426
20
11.004367
30
0
11
139.956003
21
7.906535
31
0
39
0
210
0
220
0
230
1
0
LINE
5
A3
100
AcDbEntity
8
1
62
256
6
ByLayer
370
13
48
1
60
0
100
AcDbLine
10
150.844279
20
8.665905
30
0
11
150.839667
21
8.665664
31
0
39
0
210
0
220
0
230
1
0
LINE
5
A4
100
AcDbEntity
8
1
62
256
6
ByLayer
370
13
48
1
60
0
100
AcDbLine
10
150.846182
20
8.522426
30
0
11
150.440759
21
5.424594
31
0
39
0
210
0
220
0
230
1
0
LINE
5
A5
100
AcDbEntity
8
1
62
256
6
ByLayer
370
13
48
1
60
0
100
AcDbLine
10
141.830655
20
4.679584
30
0
11
141.816317
21
4.770374
31
0
39
0
210
0
220
0
230
1
0
LINE
5
A6
100
AcDbEntity
8
1
62
256
6
ByLayer
370
13
48
1
60
0
100
AcDbLine
10
149.462968
20
8.453597
30
0
11
149.044881
21
5.258998
31
0
39
0
210
0
220
0
230
1
0
LINE
5
A7
100
AcDbEntity
8
1
62
256
6
ByLayer
370
13
48
1
60
0
100
AcDbLine
10
140.631921
20
12.058261
30
0
11
140.549101
21
12.053193
31
0
39
0
210
0
220
0
230
1
0
LINE
5
A8
100
AcDbEntity
8
1
62
256
6
ByLayer
370
13
48
1
60
0
100
AcDbLine
10
139.729923
20
7.768013
30
0
11
140.256512
21
4.433673
31
0
39
0
210
0
220
0
230
1
0
LINE
5
A9
100
AcDbEntity
8
1
62
256
6
ByLayer
370
13
48
1
60
0
100
AcDbLine
10
150.678314
20
8.641507
30
0
11
150.151726
21
11.975847
31
0
39
0
210
0
220
0
230
1
0
LINE
5
AA
100
AcDbEntity
8
1
62
256
6
ByLayer
370
13
48
1
60
0
100
AcDbLine
10
139.826365
20
7.927113
30
0
11
140.231788
21
11.024946
31
0
39
0
210
0
220
0
230
1
0
LINE
5
AB
100
AcDbEntity
8
1
62
256
6
ByLayer
370
13
48
1
60
0
100
AcDbLine
10
141.816317
20
4.770374
30
0
11
141.34188
21
7.774493
31
0
39
0
210
0
220
0
230
1
0
LINE
5
AC
100
AcDbEntity
8
1
62
256
6
ByLayer
370
13
48
1
60
0
100
AcDbLine
10
139.957335
20
7.806099
30
0
11
140.483923
21
4.471759
31
0
39
0
210
0
220
0
230
1
0
LINE
5
AD
100
AcDbEntity
8
1
62
256
6
ByLayer
370
13
48
1
60
0
100
AcDbLine
10
141.458644
20
4.143536
30
0
11
141.454031
21
4.143294
31
0
39
0
210
0
220
0
230
1
0
LINE
5
AE
100
AcDbEntity
8
1
62
256
6
ByLayer
370
13
48
1
60
0
100
AcDbLine
10
150.313079
20
12.000004
30
0
11
150.839667
21
8.665664
31
0
39
0
210
0
220
0
230
1
0
LINE
5
AF
100
AcDbEntity
8
1
62
256
6
ByLayer
370
13
48
1
60
0
100
AcDbLine
10
141.005492
20
11.867525
30
0
11
141.014943
21
11.868942
31
0
39
0
210
0
220
0
230
1
0
LINE
5
B0
100
AcDbEntity
8
1
62
256
6
ByLayer
370
13
48
1
60
0
100
AcDbLine
10
149.383165
20
12.416033
30
0
11
149.378553
21
12.415791
31
0
39
0
210
0
220
0
230
1
0
LINE
5
B1
100
AcDbEntity
8
1
62
256
6
ByLayer
370
13
48
1
60
0
100
AcDbLine
10
141.758183
20
11.176682
30
0
11
141.765913
21
11.235745
31
0
39
0
210
0
220
0
230
1
0
LINE
5
B2
100
AcDbEntity
8
1
62
256
6
ByLayer
370
13
48
1
60
0
100
AcDbLine
10
141.798641
20
4.589351
30
0
11
141.794029
21
4.589109
31
0
39
0
210
0
220
0
230
1
0
LINE
5
B3
100
AcDbEntity
8
1
62
256
6
ByLayer
370
13
48
1
60
0
100
AcDbLine
10
141.839145
20
11.167238
30
0
11
141.420179
21
7.96592
31
0
39
0
210
0
220
0
230
1
0
LINE
5
B4
100
AcDbEntity
8
1
62
256
6
ByLayer
370
13
48
1
60
0
100
AcDbLine
10
140.357765
20
11.153689
30
0
11
141.652448
21
11.347723
31
0
39
0
210
0
220
0
230
1
0
LINE
5
B5
100
AcDbEntity
8
1
62
256
6
ByLayer
370
13
48
1
60
0
100
AcDbLine
10
150.942624
20
8.681527
30
0
11
150.416035
21
12.015867
31
0
39
0
210
0
220
0
230
1
0
LINE
5
B6
100
AcDbEntity
8
1
62
256
6
ByLayer
370
13
48
1
60
0
100
AcDbLine
10
149.834156
20
12.422063
30
0
11
149.829543
21
12.421821
31
0
39
0
210
0
220
0
230
1
0
LINE
5
B7
100
AcDbEntity
8
1
62
256
6
ByLayer
370
13
48
1
60
0
100
AcDbLine
10
148.288742
20
5.16009
30
0
11
142.720325
21
4.868262
31
0
39
0
210
0
220
0
230
1
0
LINE
5
B8
100
AcDbEntity
8
1
62
256
6
ByLayer
370
13
48
1
60
0
100
AcDbLine
10
149.263827
20
8.663694
30
0
11
148.78939
21
11.667813
31
0
39
0
210
0
220
0
230
1
0
LINE
5
B9
100
AcDbEntity
8
1
62
256
6
ByLayer
370
13
48
1
60
0
100
AcDbLine
10
148.847238
20
5.283027
30
0
11
149.266205
21
8.484345
31
0
39
0
210
0
220
0
230
1
0
LINE
5
BA
100
AcDbEntity
8
1
62
256
6
ByLayer
370
13
48
1
60
0
100
AcDbLine
10
140.354856
20
4.449294
30
0
11
139.828267
21
7.783634
31
0
39
0
210
0
220
0
230
1
0
LINE
5
BB
100
AcDbEntity
8
1
62
256
6
ByLayer
370
13
48
1
60
0
100
AcDbLine
10
139.602593
20
7.764439
30
0
11
140.22648
21
4.43283
31
0
39
0
210
0
220
0
230
1
0
LINE
5
BC
100
AcDbEntity
8
1
62
256
6
ByLayer
370
13
48
1
60
0
100
AcDbLine
10
141.660476
20
4.681867
30
0
11
141.175915
21
7.750094
31
0
39
0
210
0
220
0
230
1
0
LINE
5
BD
100
AcDbEntity
8
1
62
256
6
ByLayer
370
13
48
1
60
0
100
AcDbLine
10
148.975173
20
11.765739
30
0
11
149.459734
21
8.697512
31
0
39
0
210
0
220
0
230
1
0
LINE
5
BE
100
AcDbEntity
8
1
62
256
6
ByLayer
370
13
48
1
60
0
100
AcDbLine
10
141.172681
20
7.994009
30
0
11
141.590768
21
11.188608
31
0
39
0
210
0
220
0
230
1
0
LINE
5
BF
100
AcDbEntity
8
1
62
256
6
ByLayer
370
13
48
1
60
0
100
AcDbLine
10
141.830655
20
4.679584
30
0
11
141.826043
21
4.679342
31
0
39
0
210
0
220
0
230
1
0
LINE
5
C0
100
AcDbEntity
8
1
62
256
6
ByLayer
370
13
48
1
60
0
100
AcDbLine
10
141.761301
20
11.235503
30
0
11
141.334605
21
7.975122
31
0
39
0
210
0
220
0
230
1
0
LINE
5
C1
100
AcDbEntity
8
1
62
256
6
ByLayer
370
13
48
1
60
0
100
AcDbLine
10
149.020098
20
5.101817
30
0
11
149.015486
21
5.101575
31
0
39
0
210
0
220
0
230
1
0
LINE
5
C2
100
AcDbEntity
8
1
62
256
6
ByLayer
370
13
48
1
60
0
100
AcDbLine
10
141.337268
20
7.774251
30
0
11
141.826043
21
4.679342
31
0
39
0
210
0
220
0
230
1
0
LINE
5
C3
100
AcDbEntity
8
1
62
256
6
ByLayer
370
13
48
1
60
0
100
AcDbLine
10
150.317691
20
12.000246
30
0
11
150.313079
21
12.000004
31
0
39
0
210
0
220
0
230
1
0
LINE
5
C4
100
AcDbEntity
8
1
62
256
6
ByLayer
370
13
48
1
60
0
100
AcDbLine
10
150.841569
20
8.522185
30
0
11
150.436146
21
5.424352
31
0
39
0
210
0
220
0
230
1
0
LINE
5
C5
100
AcDbEntity
8
1
62
256
6
ByLayer
370
13
48
1
60
0
100
AcDbLine
10
141.376642
20
3.937218
30
0
11
141.293747
21
3.933602
31
0
39
0
210
0
220
0
230
1
0
LINE
5
C6
100
AcDbEntity
8
1
62
256
6
ByLayer
370
13
48
1
60
0
100
AcDbLine
10
141.422556
20
7.786571
30
0
11
141.896994
21
4.782452
31
0
39
0
210
0
220
0
230
1
0
LINE
5
C7
100
AcDbEntity
8
1
62
256
6
ByLayer
370
13
48
1
60
0
100
AcDbLine
10
141.765913
20
11.235745
30
0
11
141.761301
21
11.235503
31
0
39
0
210
0
220
0
230
1
0
LINE
5
C8
100
AcDbEntity
8
1
62
256
6
ByLayer
370
13
48
1
60
0
100
AcDbLine
10
149.044881
20
5.258998
30
0
11
150.274223
21
5.443239
31
0
39
0
210
0
220
0
230
1
0
LINE
5
C9
100
AcDbEntity
8
1
62
256
6
ByLayer
370
13
48
1
60
0
100
AcDbLine
10
150.314782
20
5.295851
30
0
11
149.020098
21
5.101817
31
0
39
0
210
0
220
0
230
1
0
LINE
5
CA
100
AcDbEntity
8
1
62
256
6
ByLayer
370
13
48
1
60
0
100
AcDbLine
10
139.72764
20
7.940188
30
0
11
140.131533
21
11.026328
31
0
39
0
210
0
220
0
230
1
0
LINE
5
CB
100
AcDbEntity
8
1
62
256
6
ByLayer
370
13
48
1
60
0
100
AcDbLine
10
141.005492
20
11.867525
30
0
11
140.70602
21
11.867976
31
0
39
0
210
0
220
0
230
1
0
LINE
5
CC
100
AcDbEntity
8
SK1
62
256
6
ByLayer
370
13
48
1
60
0
100
AcDbLine
10
-52.599857
20
6.998572
30
0
11
-6.5
21
6.998572
31
0
39
0
210
0
220
0
230
1
0
LINE
5
CD
100
AcDbEntity
8
SK1
62
256
6
ByLayer
370
13
48
1
60
0
100
AcDbLine
10
-55
20
6.998572
30
0
11
-54.60004
21
6.998572
31
0
39
0
210
0
220
0
230
1
0
LINE
5
CE
100
AcDbEntity
8
SK1
62
256
6
ByLayer
370
13
48
1
60
0
100
AcDbLine
10
-56
20
4.998651
30
0
11
-56
21
-4.998651
31
0
39
0
210
0
220
0
230
1
0
LINE
5
CF
100
AcDbEntity
8
SK1
62
256
6
ByLayer
370
13
48
1
60
0
100
AcDbLine
10
-54.60004
20
-6.998572
30
0
11
-55
21
-6.998572
31
0
39
0
210
0
220
0
230
1
0
LINE
5
D0
100
AcDbEntity
8
1
62
256
6
ByLayer
370
13
48
1
60
0
100
AcDbLine
10
147.216722
20
5.103908
30
0
11
148.062196
21
5.148217
31
0
39
0
210
0
220
0
230
1
0
LINE
5
D1
100
AcDbEntity
8
1
62
256
6
ByLayer
370
13
48
1
60
0
100
AcDbLine
10
150.114565
20
0.633878
30
0
11
150.160585
21
0.581372
31
0
39
0
210
0
220
0
230
1
0
LINE
5
D2
100
AcDbEntity
8
1
62
256
6
ByLayer
370
13
48
1
60
0
100
AcDbLine
10
139.678478
20
6.041215
30
0
11
139.494408
21
7.206738
31
0
39
0
210
0
220
0
230
1
0
LINE
5
D3
100
AcDbEntity
8
1
62
256
6
ByLayer
370
13
48
1
60
0
100
AcDbLine
10
0
20
-3.544009
30
0
11
0
21
3.544009
31
0
39
0
210
0
220
0
230
1
0
LINE
5
D4
100
AcDbEntity
8
1
62
256
6
ByLayer
370
13
48
1
60
0
100
AcDbLine
10
149.832016
20
-0.175915
30
0
11
148.971091
21
0.687244
31
0
39
0
210
0
220
0
230
1
0
LINE
5
D5
100
AcDbEntity
8
1
62
256
6
ByLayer
370
13
48
1
60
0
100
AcDbLine
10
137.255223
20
5.66644
30
0
11
138.551085
21
6.396651
31
0
39
0
210
0
220
0
230
1
0
LINE
5
D6
100
AcDbEntity
8
1
62
256
6
ByLayer
370
13
48
1
60
0
100
AcDbLine
10
137.064801
20
5.663352
30
0
11
137.064801
21
8.741882
31
0
39
0
210
0
220
0
230
1
0
LINE
5
D7
100
AcDbEntity
8
1
62
256
6
ByLayer
370
13
48
1
60
0
100
AcDbLine
10
148.984306
20
1.20937
30
0
11
149.783527
21
0.408076
31
0
39
0
210
0
220
0
230
1
0
LINE
5
D8
100
AcDbEntity
8
1
62
256
6
ByLayer
370
13
48
1
60
0
100
AcDbLine
10
145.220533
20
4.248263
30
0
11
145.646009
21
4.270561
31
0
39
0
210
0
220
0
230
1
0
LINE
5
D9
100
AcDbEntity
8
1
62
256
6
ByLayer
370
13
48
1
60
0
100
AcDbLine
10
148.971091
20
0.687244
30
0
11
149.013594
21
-0.025507
31
0
39
0
210
0
220
0
230
1
0
LINE
5
DA
100
AcDbEntity
8
1
62
256
6
ByLayer
370
13
48
1
60
0
100
AcDbLine
10
138.551085
20
6.396651
30
0
11
137.064801
21
8.741882
31
0
39
0
210
0
220
0
230
1
0
LINE
5
DB
100
AcDbEntity
8
1
62
256
6
ByLayer
370
13
48
1
60
0
100
AcDbLine
10
135.396356
20
-11.987624
30
0
11
135.396356
21
0.671612
31
0
39
0
210
0
220
0
230
1
0
LINE
5
DC
100
AcDbEntity
8
1
62
256
6
ByLayer
370
13
48
1
60
0
100
AcDbLine
10
147.011471
20
5.045467
30
0
11
146.927128
21
5.041047
31
0
39
0
210
0
220
0
230
1
0
LINE
5
DD
100
AcDbEntity
8
1
62
256
6
ByLayer
370
13
48
1
60
0
100
AcDbLine
10
149.339918
20
4.464151
30
0
11
148.984306
21
1.20937
31
0
39
0
210
0
220
0
230
1
0
LINE
5
DE
100
AcDbEntity
8
1
62
256
6
ByLayer
370
13
48
1
60
0
100
AcDbLine
10
150.243502
20
3.851818
30
0
11
150.202488
21
3.696852
31
0
39
0
210
0
220
0
230
1
0
LINE
5
DF
100
AcDbEntity
8
1
62
256
6
ByLayer
370
13
48
1
60
0
100
AcDbLine
10
149.306429
20
-1.699625
30
0
11
150.220738
21
-2.616307
31
0
39
0
210
0
220
0
230
1
0
LINE
5
E0
100
AcDbEntity
8
1
62
256
6
ByLayer
370
13
48
1
60
0
100
AcDbLine
10
149.339918
20
4.464151
30
0
11
149.82391
21
4.489516
31
0
39
0
210
0
220
0
230
1
0
LINE
5
E1
100
AcDbEntity
8
1
62
256
6
ByLayer
370
13
48
1
60
0
100
AcDbLine
10
139.579299
20
8.027432
30
0
11
140.096488
21
11.979265
31
0
39
0
210
0
220
0
230
1
0
LINE
5
E2
100
AcDbEntity
8
1
62
256
6
ByLayer
370
13
48
1
60
0
100
AcDbLine
10
150.235685
20
-3.751523
30
0
11
149.825526
21
-6.84934
31
0
39
0
210
0
220
0
230
1
0
LINE
5
E3
100
AcDbEntity
8
1
62
256
6
ByLayer
370
13
48
1
60
0
100
AcDbLine
10
142.640581
20
4.663808
30
0
11
142.650363
21
4.664321
31
0
39
0
210
0
220
0
230
1
0
LINE
5
E4
100
AcDbEntity
8
1
62
256
6
ByLayer
370
13
48
1
60
0
100
AcDbLine
10
140.102791
20
10.976523
30
0
11
139.775685
21
8.477112
31
0
39
0
210
0
220
0
230
1
0
LINE
5
E5
100
AcDbEntity
8
1
62
256
6
ByLayer
370
13
48
1
60
0
100
AcDbLine
10
149.832016
20
-0.175915
30
0
11
150.220738
21
-2.616307
31
0
39
0
210
0
220
0
230
1
0
LINE
5
E6
100
AcDbEntity
8
1
62
256
6
ByLayer
370
13
48
1
60
0
100
AcDbLine
10
140.096488
20
11.979265
30
0
11
140.092419
21
12.0569
31
0
39
0
210
0
220
0
230
1
0
LINE
5
E7
100
AcDbEntity
8
1
62
256
6
ByLayer
370
13
48
1
60
0
100
AcDbLine
10
133.72766
20
1.926817
30
0
11
133.808159
21
1.446165
31
0
39
0
210
0
220
0
230
1
0
LINE
5
E8
100
AcDbEntity
8
1
62
256
6
ByLayer
370
13
48
1
60
0
100
AcDbLine
10
145.646009
20
4.270561
30
0
11
149.339918
21
4.464151
31
0
39
0
210
0
220
0
230
1
0
LINE
5
E9
100
AcDbEntity
8
1
62
256
6
ByLayer
370
13
48
1
60
0
100
AcDbLine
10
150.096926
20
4.553892
30
0
11
149.855698
21
4.54125
31
0
39
0
210
0
220
0
230
1
0
LINE
5
EA
100
AcDbEntity
8
1
62
256
6
ByLayer
370
13
48
1
60
0
100
AcDbLine
10
5.9898
20
-3.968627
30
0
11
0.1
21
-3.968627
31
0
39
0
210
0
220
0
230
1
0
LINE
5
EB
100
AcDbEntity
8
1
62
256
6
ByLayer
370
13
48
1
60
0
100
AcDbLine
10
150.235685
20
-3.751523
30
0
11
149.357874
21
-2.871435
31
0
39
0
210
0
220
0
230
1
0
LINE
5
EC
100
AcDbEntity
8
1
62
256
6
ByLayer
370
13
48
1
60
0
100
AcDbLine
10
149.507756
20
-12.126708
30
0
11
138.396356
21
-12.126708
31
0
39
0
210
0
220
0
230
1
0
LINE
5
ED
100
AcDbEntity
8
1
62
256
6
ByLayer
370
13
48
1
60
0
100
AcDbLine
10
150.243502
20
3.851818
30
0
11
150.2457
21
0.656541
31
0
39
0
210
0
220
0
230
1
0
LINE
5
EE
100
AcDbEntity
8
1
62
256
6
ByLayer
370
13
48
1
60
0
100
AcDbLine
10
143.243873
20
3.889963
30
0
11
143.512417
21
3.904037
31
0
39
0
210
0
220
0
230
1
0
LINE
5
EF
100
AcDbEntity
8
1
62
256
6
ByLayer
370
13
48
1
60
0
100
AcDbLine
10
148.529731
20
4.972445
30
0
11
145.109372
21
4.793192
31
0
39
0
210
0
220
0
230
1
0
LINE
5
F0
100
AcDbEntity
8
1
62
256
6
ByLayer
370
13
48
1
60
0
100
AcDbLine
10
142.604381
20
4.576079
30
0
11
142.468117
21
4.568938
31
0
39
0
210
0
220
0
230
1
0
LINE
5
F1
100
AcDbEntity
8
1
62
256
6
ByLayer
370
13
48
1
60
0
100
AcDbLine
10
0.1
20
3.968627
30
0
11
5.9898
21
3.968627
31
0
39
0
210
0
220
0
230
1
0
LINE
5
F2
100
AcDbEntity
8
1
62
256
6
ByLayer
370
13
48
1
60
0
100
AcDbLine
10
138.640169
20
4.846764
30
0
11
138.7199
21
4.822267
31
0
39
0
210
0
220
0
230
1
0
LINE
5
F3
100
AcDbEntity
8
1
62
256
6
ByLayer
370
13
48
1
60
0
100
AcDbLine
10
149.855698
20
4.54125
30
0
11
149.764814
21
4.536487
31
0
39
0
210
0
220
0
230
1
0
LINE
5
F4
100
AcDbEntity
8
1
62
256
6
ByLayer
370
13
48
1
60
0
100
AcDbLine
10
142.990692
20
4.882431
30
0
11
143.836166
21
4.926741
31
0
39
0
210
0
220
0
230
1
0
LINE
5
F5
100
AcDbEntity
8
1
62
256
6
ByLayer
370
13
48
1
60
0
100
AcDbLine
10
150.100548
20
-7.649504
30
0
11
149.811068
21
-7.408125
31
0
39
0
210
0
220
0
230
1
0
LINE
5
F6
100
AcDbEntity
8
1
62
256
6
ByLayer
370
13
48
1
60
0
100
AcDbLine
10
150.129403
20
3.992268
30
0
11
150.096926
21
4.553892
31
0
39
0
210
0
220
0
230
1
0
LINE
5
F7
100
AcDbEntity
8
1
62
256
6
ByLayer
370
13
48
1
60
0
100
AcDbLine
10
137.120816
20
1.254488
30
0
11
137.284714
21
0.275858
31
0
39
0
210
0
220
0
230
1
0
LINE
5
F8
100
AcDbEntity
8
1
62
256
6
ByLayer
370
13
48
1
60
0
100
AcDbLine
10
150.218267
20
0.687841
30
0
11
150.2457
21
0.656541
31
0
39
0
210
0
220
0
230
1
0
LINE
5
F9
100
AcDbEntity
8
1
62
256
6
ByLayer
370
13
48
1
60
0
100
AcDbLine
10
149.507756
20
-12.126708
30
0
11
150.100548
21
-7.649504
31
0
39
0
210
0
220
0
230
1
0
LINE
5
FA
100
AcDbEntity
8
1
62
256
6
ByLayer
370
13
48
1
60
0
100
AcDbLine
10
138.396356
20
-12.126708
30
0
11
138.396356
21
0.212783
31
0
39
0
210
0
220
0
230
1
0
LINE
5
FB
100
AcDbEntity
8
1
62
256
6
ByLayer
370
18
48
1
60
0
100
AcDbLine
10
145.85666
20
8.900885
30
0
11
145.867722
21
8.917666
31
0
39
0
210
0
220
0
230
1
0
LINE
5
FC
100
AcDbEntity
8
1
62
256
6
ByLayer
370
18
48
1
60
0
100
AcDbLine
10
145.041078
20
9.115974
30
0
11
144.954015
21
9.111412
31
0
39
0
210
0
220
0
230
1
0
LINE
5
FD
100
AcDbEntity
8
1
62
256
6
ByLayer
370
18
48
1
60
0
100
AcDbLine
10
145.942662
20
8.905392
30
0
11
145.85666
21
8.900885
31
0
39
0
210
0
220
0
230
1
0
LINE
5
FE
100
AcDbEntity
8
1
62
256
6
ByLayer
370
18
48
1
60
0
100
AcDbLine
10
146.198832
20
8.50932
30
0
11
146.112829
21
8.504813
31
0
39
0
210
0
220
0
230
1
0
LINE
5
FF
100
AcDbEntity
8
1
62
256
6
ByLayer
370
18
48
1
60
0
100
AcDbLine
10
146.024301
20
7.595784
30
0
11
145.937238
21
7.591221
31
0
39
0
210
0
220
0
230
1
0
LINE
5
100
100
AcDbEntity
8
1
62
256
6
ByLayer
370
18
48
1
60
0
100
AcDbLine
10
145.937238
20
7.591221
30
0
11
145.924482
21
7.606754
31
0
39
0
210
0
220
0
230
1
0
LINE
5
101
100
AcDbEntity
8
1
62
256
6
ByLayer
370
18
48
1
60
0
100
AcDbLine
10
146.22385
20
8.03194
30
0
11
146.137848
21
8.027433
31
0
39
0
210
0
220
0
230
1
0
LINE
5
102
100
AcDbEntity
8
1
62
256
6
ByLayer
370
18
48
1
60
0
100
AcDbLine
10
144.962959
20
9.093393
30
0
11
144.954015
21
9.111412
31
0
39
0
210
0
220
0
230
1
0
LINE
5
103
100
AcDbEntity
8
1
62
256
6
ByLayer
370
18
48
1
60
0
100
AcDbLine
10
145.048962
20
9.097901
30
0
11
144.962959
21
9.093393
31
0
39
0
210
0
220
0
230
1
0
LINE
5
104
100
AcDbEntity
8
1
62
256
6
ByLayer
370
18
48
1
60
0
100
AcDbLine
10
145.954784
20
8.922229
30
0
11
145.867722
21
8.917666
31
0
39
0
210
0
220
0
230
1
0
LINE
5
105
100
AcDbEntity
8
1
62
256
6
ByLayer
370
18
48
1
60
0
100
AcDbLine
10
145.141803
20
7.32639
30
0
11
145.0558
21
7.321883
31
0
39
0
210
0
220
0
230
1
0
LINE
5
106
100
AcDbEntity
8
1
62
256
6
ByLayer
370
18
48
1
60
0
100
AcDbLine
10
145.135851
20
7.307591
30
0
11
145.048788
21
7.303029
31
0
39
0
210
0
220
0
230
1
0
LINE
5
107
100
AcDbEntity
8
1
62
256
6
ByLayer
370
18
48
1
60
0
100
AcDbLine
10
146.010485
20
7.611261
30
0
11
145.924482
21
7.606754
31
0
39
0
210
0
220
0
230
1
0
LINE
5
108
100
AcDbEntity
8
1
62
256
6
ByLayer
370
18
48
1
60
0
100
AcDbLine
10
145.048788
20
7.303029
30
0
11
145.0558
21
7.321883
31
0
39
0
210
0
220
0
230
1
0
LINE
5
109
100
AcDbEntity
8
1
62
256
6
ByLayer
370
18
48
1
60
0
100
AcDbLine
10
145.334427
20
6.497306
30
0
11
145.334586
21
6.497314
31
0
39
0
210
0
220
0
230
1
0
LINE
5
10A
100
AcDbEntity
8
1
62
256
6
ByLayer
370
18
48
1
60
0
100
AcDbLine
10
144.43645
20
8.416958
30
0
11
144.397984
21
8.414942
31
0
39
0
210
0
220
0
230
1
0
LINE
5
10B
100
AcDbEntity
8
1
62
256
6
ByLayer
370
18
48
1
60
0
100
AcDbLine
10
144.461469
20
7.939578
30
0
11
144.422118
21
7.937516
31
0
39
0
210
0
220
0
230
1
0
LINE
5
10C
100
AcDbEntity
8
1
62
256
6
ByLayer
370
18
48
1
60
0
100
AcDbLine
10
149.785053
20
0.478929
30
0
11
149.831959
21
0.472788
31
0
39
0
210
0
220
0
230
1
0
LINE
5
10D
100
AcDbEntity
8
1
62
256
6
ByLayer
370
13
48
1
60
0
100
AcDbLine
10
150.124236
20
4.08163
30
0
11
150.243502
21
3.851818
31
0
39
0
210
0
220
0
230
1
0
LINE
5
10E
100
AcDbEntity
8
1
62
256
6
ByLayer
370
13
48
1
60
0
100
AcDbLine
10
139.796848
20
6.289636
30
0
11
139.82659
21
6.101313
31
0
39
0
210
0
220
0
230
1
0
LINE
5
10F
100
AcDbEntity
8
1
62
256
6
ByLayer
370
13
48
1
60
0
100
AcDbLine
10
150.2457
20
0.656541
30
0
11
150.169837
21
0.626455
31
0
39
0
210
0
220
0
230
1
0
LINE
5
110
100
AcDbEntity
8
1
62
256
6
ByLayer
370
13
48
1
60
0
100
AcDbLine
10
150.082072
20
0.591648
30
0
11
149.87457
21
0.509355
31
0
39
0
210
0
220
0
230
1
0
LINE
5
111
100
AcDbEntity
8
1
62
256
6
ByLayer
370
13
48
1
60
0
100
AcDbLine
10
150.202488
20
3.696852
30
0
11
150.166596
21
3.694971
31
0
39
0
210
0
220
0
230
1
0
LINE
5
112
100
AcDbEntity
8
1
62
256
6
ByLayer
370
13
48
1
60
0
100
AcDbLine
10
142.44049
20
4.509534
30
0
11
142.03746
21
4.488412
31
0
39
0
210
0
220
0
230
1
0
LINE
5
113
100
AcDbEntity
8
1
62
256
6
ByLayer
370
13
48
1
60
0
100
AcDbLine
10
150.218267
20
0.687841
30
0
11
150.196393
21
0.690704
31
0
39
0
210
0
220
0
230
1
0
LINE
5
114
100
AcDbEntity
8
1
62
256
6
ByLayer
370
13
48
1
60
0
100
AcDbLine
10
141.172348
20
11.735873
30
0
11
141.208398
21
12.011328
31
0
39
0
210
0
220
0
230
1
0
LINE
5
115
100
AcDbEntity
8
1
62
256
6
ByLayer
370
13
48
1
60
0
100
AcDbLine
10
27
20
-12.156636
30
0
11
27
21
-12.1875
31
0
39
0
210
0
220
0
230
1
0
LINE
5
116
100
AcDbEntity
8
1
62
256
6
ByLayer
370
13
48
1
60
0
100
AcDbLine
10
150.160585
20
0.581372
30
0
11
150.008762
21
0.601247
31
0
39
0
210
0
220
0
230
1
0
LINE
5
117
100
AcDbEntity
8
1
62
256
6
ByLayer
370
13
48
1
60
0
100
AcDbLine
10
138.396356
20
12.1875
30
0
11
138.396356
21
12.032644
31
0
39
0
210
0
220
0
230
1
0
LINE
5
118
100
AcDbEntity
8
1
62
256
6
ByLayer
370
13
48
1
60
0
100
AcDbLine
10
150.114565
20
0.633878
30
0
11
150.103591
21
0.635315
31
0
39
0
210
0
220
0
230
1
0
LINE
5
119
100
AcDbEntity
8
1
62
256
6
ByLayer
370
13
48
1
60
0
100
AcDbLine
10
73.6
20
-12.02808
30
0
11
73.6
21
-12.0625
31
0
39
0
210
0
220
0
230
1
0
LINE
5
11A
100
AcDbEntity
8
1
62
256
6
ByLayer
370
13
48
1
60
0
100
AcDbLine
10
135.396356
20
12.0625
30
0
11
135.396356
21
11.872164
31
0
39
0
210
0
220
0
230
1
0
LINE
5
11B
100
AcDbEntity
8
SK1
62
256
6
ByLayer
370
13
48
1
60
0
100
AcDbLine
10
-54.60004
20
-12.49675
30
0
11
-54.60004
21
-6.998572
31
0
39
0
210
0
220
0
230
1
0
LINE
5
11C
100
AcDbEntity
8
SK1
62
256
6
ByLayer
370
13
48
1
60
0
100
AcDbLine
10
-54.60004
20
6.998572
30
0
11
-54.60004
21
12.49675
31
0
39
0
210
0
220
0
230
1
0
LINE
5
11D
100
AcDbEntity
8
SK1
62
256
6
ByLayer
370
13
48
1
60
0
100
AcDbLine
10
-55
20
-12.49675
30
0
11
-55
21
-6.998572
31
0
39
0
210
0
220
0
230
1
0
LINE
5
11E
100
AcDbEntity
8
SK1
62
256
6
ByLayer
370
13
48
1
60
0
100
AcDbLine
10
-55
20
6.998572
30
0
11
-55
21
12.49675
31
0
39
0
210
0
220
0
230
1
0
LINE
5
11F
100
AcDbEntity
8
SK1
62
256
6
ByLayer
370
13
48
1
60
0
100
AcDbLine
10
-56
20
-11.49675
30
0
11
-56
21
-4.998651
31
0
39
0
210
0
220
0
230
1
0
LINE
5
120
100
AcDbEntity
8
SK1
62
256
6
ByLayer
370
13
48
1
60
0
100
AcDbLine
10
-56
20
4.998651
30
0
11
-56
21
11.49675
31
0
39
0
210
0
220
0
230
1
0
LINE
5
121
100
AcDbEntity
8
SK1
62
256
6
ByLayer
370
13
48
1
60
0
100
AcDbLine
10
-54.516222
20
12.393244
30
0
11
-54.516222
21
6.812029
31
0
39
0
210
0
220
0
230
1
0
LINE
5
122
100
AcDbEntity
8
SK1
62
256
6
ByLayer
370
13
48
1
60
0
100
AcDbLine
10
-54.516222
20
-6.812029
30
0
11
-54.516222
21
-12.393244
31
0
39
0
210
0
220
0
230
1
0
LINE
5
123
100
AcDbEntity
8
SK1
62
256
6
ByLayer
370
13
48
1
60
0
100
AcDbLine
10
-53.633813
20
12.140367
30
0
11
-53.633813
21
6.340328
31
0
39
0
210
0
220
0
230
1
0
LINE
5
124
100
AcDbEntity
8
SK1
62
256
6
ByLayer
370
13
48
1
60
0
100
AcDbLine
10
-53.633813
20
-6.340328
30
0
11
-53.633813
21
-12.140367
31
0
39
0
210
0
220
0
230
1
0
LINE
5
125
100
AcDbEntity
8
1
62
256
6
ByLayer
370
13
48
1
60
0
100
AcDbLine
10
73.6
20
12.0625
30
0
11
73.6
21
-4.172357
31
0
39
0
210
0
220
0
230
1
0
LINE
5
126
100
AcDbEntity
8
1
62
256
6
ByLayer
370
13
48
1
60
0
100
AcDbLine
10
27
20
12.1875
30
0
11
27
21
-4.189545
31
0
39
0
210
0
220
0
230
1
0
LINE
5
127
100
AcDbEntity
8
SK1
62
256
6
ByLayer
370
13
48
1
60
0
100
AcDbLine
10
-1.375195
20
-12.24675
30
0
11
-1.375195
21
12.24675
31
0
39
0
210
0
220
0
230
1
0
LINE
5
128
100
AcDbEntity
8
SK1
62
256
6
ByLayer
370
13
48
1
60
0
100
AcDbLine
10
-1.544243
20
-12.284227
30
0
11
-1.544243
21
12.284227
31
0
39
0
210
0
220
0
230
1
0
LINE
5
129
100
AcDbEntity
8
SK1
62
256
6
ByLayer
370
13
48
1
60
0
100
AcDbLine
10
-2
20
-12.49675
30
0
11
-2
21
12.49675
31
0
39
0
210
0
220
0
230
1
0
LINE
5
12A
100
AcDbEntity
8
SK1
62
256
6
ByLayer
370
13
48
1
60
0
100
AcDbLine
10
-52.599857
20
12.49675
30
0
11
-52.599857
21
6.998572
31
0
39
0
210
0
220
0
230
1
0
LINE
5
12B
100
AcDbEntity
8
SK1
62
256
6
ByLayer
370
13
48
1
60
0
100
AcDbLine
10
-52.599857
20
-6.998572
30
0
11
-52.599857
21
-12.49675
31
0
39
0
210
0
220
0
230
1
0
LINE
5
12C
100
AcDbEntity
8
SK1
62
256
6
ByLayer
370
13
48
1
60
0
100
AcDbLine
10
-0.15
20
-12.24675
30
0
11
-0.15
21
12.24675
31
0
39
0
210
0
220
0
230
1
0
LINE
5
12D
100
AcDbEntity
8
1
62
256
6
ByLayer
370
13
48
1
60
0
100
AcDbLine
10
0
20
15.9
30
0
11
0
21
3.544009
31
0
39
0
210
0
220
0
230
1
0
LINE
5
12E
100
AcDbEntity
8
1
62
256
6
ByLayer
370
13
48
1
60
0
100
AcDbLine
10
0.1
20
16
30
0
11
0.1
21
3.968627
31
0
39
0
210
0
220
0
230
1
0
LINE
5
12F
100
AcDbEntity
8
1
62
256
6
ByLayer
370
13
48
1
60
0
100
AcDbLine
10
0
20
-15.9
30
0
11
0
21
-3.544009
31
0
39
0
210
0
220
0
230
1
0
LINE
5
130
100
AcDbEntity
8
1
62
256
6
ByLayer
370
13
48
1
60
0
100
AcDbLine
10
0.1
20
-16
30
0
11
0.1
21
-3.968627
31
0
39
0
210
0
220
0
230
1
0
LINE
5
131
100
AcDbEntity
8
1
62
256
6
ByLayer
370
13
48
1
60
0
100
AcDbLine
10
5.9898
20
16
30
0
11
5.9898
21
3.968627
31
0
39
0
210
0
220
0
230
1
0
LINE
5
132
100
AcDbEntity
8
1
62
256
6
ByLayer
370
13
48
1
60
0
100
AcDbLine
10
5.9898
20
-3.968627
30
0
11
5.9898
21
-16
31
0
39
0
210
0
220
0
230
1
0
LINE
5
133
100
AcDbEntity
8
1
62
256
6
ByLayer
370
13
48
1
60
0
100
AcDbLine
10
22
20
12.1875
30
0
11
22
21
-4.186773
31
0
39
0
210
0
220
0
230
1
0
LINE
5
134
100
AcDbEntity
8
1
62
256
6
ByLayer
370
13
48
1
60
0
100
AcDbLine
10
22
20
-12.15643
30
0
11
22
21
-12.1875
31
0
39
0
210
0
220
0
230
1
0
LINE
5
135
100
AcDbEntity
8
1
62
256
6
ByLayer
370
13
48
1
60
0
100
AcDbLine
10
150.528282
20
5.369239
30
0
11
150.496198
21
4.971043
31
0
39
0
210
0
220
0
230
1
0
LINE
5
136
100
AcDbEntity
8
1
62
256
6
ByLayer
370
13
48
1
60
0
100
AcDbLine
10
150.400665
20
5.104554
30
0
11
150.35697
21
4.716429
31
0
39
0
210
0
220
0
230
1
0
LINE
5
137
100
AcDbEntity
8
1
62
256
6
ByLayer
370
13
48
1
60
0
100
AcDbLine
10
148.935327
20
12.283978
30
0
11
148.93477
21
12.284002
31
0
39
0
210
0
220
0
230
1
0
LINE
5
138
100
AcDbEntity
8
1
62
256
6
ByLayer
370
13
48
1
60
0
100
AcDbLine
10
139.481705
20
7.606739
30
0
11
140.134646
21
4.877837
31
0
39
0
210
0
220
0
230
1
0
LINE
5
139
100
AcDbEntity
8
1
62
256
6
ByLayer
370
13
48
1
60
0
100
AcDbLine
10
140.134646
20
4.877837
30
0
11
140.14676
21
4.858556
31
0
39
0
210
0
220
0
230
1
0
LINE
5
13A
100
AcDbEntity
8
1
62
256
6
ByLayer
370
13
48
1
60
0
100
AcDbLine
10
139.58316
20
8.03752
30
0
11
139.591262
21
8.109489
31
0
39
0
210
0
220
0
230
1
0
LINE
5
13B
100
AcDbEntity
8
1
62
256
6
ByLayer
370
13
48
1
60
0
100
AcDbLine
10
149.379166
20
12.415818
30
0
11
149.48315
21
12.420354
31
0
39
0
210
0
220
0
230
1
0
LINE
5
13C
100
AcDbEntity
8
1
62
256
6
ByLayer
370
13
48
1
60
0
100
AcDbLine
10
149.008661
20
5.100793
30
0
11
149.015486
21
5.101575
31
0
39
0
210
0
220
0
230
1
0
LINE
5
13D
100
AcDbEntity
8
1
62
256
6
ByLayer
370
13
48
1
60
0
100
AcDbLine
10
140.285521
20
11.759623
30
0
11
140.079837
21
11.728798
31
0
39
0
210
0
220
0
230
1
0
LINE
5
13E
100
AcDbEntity
8
1
62
256
6
ByLayer
370
13
48
1
60
0
100
AcDbLine
10
140.131533
20
11.026328
30
0
11
140.088545
21
11.380259
31
0
39
0
210
0
220
0
230
1
0
LINE
5
13F
100
AcDbEntity
8
1
62
256
6
ByLayer
370
13
48
1
60
0
100
AcDbLine
10
139.635663
20
8.213821
30
0
11
139.598245
21
7.927912
31
0
39
0
210
0
220
0
230
1
0
LINE
5
140
100
AcDbEntity
8
1
62
256
6
ByLayer
370
13
48
1
60
0
100
AcDbLine
10
148.841891
20
11.769956
30
0
11
148.855165
21
11.685907
31
0
39
0
210
0
220
0
230
1
0
LINE
5
141
100
AcDbEntity
8
1
62
256
6
ByLayer
370
13
48
1
60
0
100
AcDbLine
10
148.913494
20
5.266216
30
0
11
148.906634
21
5.213795
31
0
39
0
210
0
220
0
230
1
0
LINE
5
142
100
AcDbEntity
8
4
62
256
6
ByLayer
370
18
48
0.05
60
0
100
AcDbLine
10
151
20
0
30
0
11
0
21
0
31
0
39
0
210
0
220
0
230
1
0
LINE
5
144
100
AcDbEntity
8
SK4
62
256
6
ByLayer
370
13
48
0.05
60
0
100
AcDbLine
10
151
20
0
30
0
11
-56
21
0
31
0
39
0
210
0
220
0
230
1
0
LINE
5
146
100
AcDbEntity
8
1
62
256
6
ByLayer
370
13
48
1
60
0
100
AcDbLine
10
84.624409
20
12.0625
30
0
11
73.6
21
12.0625
31
0
39
0
210
0
220
0
230
1
0
LINE
5
147
100
AcDbEntity
8
SK1
62
256
6
ByLayer
370
13
48
1
60
0
100
AcDbLine
10
-54.516222
20
12.393244
30
0
11
-54.60004
21
12.49675
31
0
39
0
210
0
220
0
230
1
0
LINE
5
148
100
AcDbEntity
8
SK1
62
256
6
ByLayer
370
13
48
1
60
0
100
AcDbLine
10
-54.60004
20
-12.49675
30
0
11
-54.516222
21
-12.393244
31
0
39
0
210
0
220
0
230
1
0
LINE
5
149
100
AcDbEntity
8
SK1
62
256
6
ByLayer
370
13
48
1
60
0
100
AcDbLine
10
-53.633813
20
-12.140367
30
0
11
-52.599857
21
-12.49675
31
0
39
0
210
0
220
0
230
1
0
LINE
5
14A
100
AcDbEntity
8
SK1
62
256
6
ByLayer
370
13
48
1
60
0
100
AcDbLine
10
-52.599857
20
12.49675
30
0
11
-53.633813
21
12.140367
31
0
39
0
210
0
220
0
230
1
0
LINE
5
14B
100
AcDbEntity
8
SK1
62
256
6
ByLayer
370
13
48
1
60
0
100
AcDbLine
10
-54.60004
20
12.49675
30
0
11
-55
21
12.49675
31
0
39
0
210
0
220
0
230
1
0
LINE
5
14C
100
AcDbEntity
8
SK1
62
256
6
ByLayer
370
13
48
1
60
0
100
AcDbLine
10
-55
20
-12.49675
30
0
11
-54.60004
21
-12.49675
31
0
39
0
210
0
220
0
230
1
0
LINE
5
14D
100
AcDbEntity
8
SK1
62
256
6
ByLayer
370
13
48
1
60
0
100
AcDbLine
10
-56
20
-11.49675
30
0
11
-55
21
-12.49675
31
0
39
0
210
0
220
0
230
1
0
LINE
5
14E
100
AcDbEntity
8
SK1
62
256
6
ByLayer
370
13
48
1
60
0
100
AcDbLine
10
-55
20
12.49675
30
0
11
-56
21
11.49675
31
0
39
0
210
0
220
0
230
1
0
LINE
5
14F
100
AcDbEntity
8
SK1
62
256
6
ByLayer
370
13
48
1
60
0
100
AcDbLine
10
-0.15
20
12.24675
30
0
11
-1.375195
21
12.24675
31
0
39
0
210
0
220
0
230
1
0
LINE
5
150
100
AcDbEntity
8
SK1
62
256
6
ByLayer
370
13
48
1
60
0
100
AcDbLine
10
-1.375195
20
-12.24675
30
0
11
-0.15
21
-12.24675
31
0
39
0
210
0
220
0
230
1
0
LINE
5
151
100
AcDbEntity
8
SK1
62
256
6
ByLayer
370
13
48
1
60
0
100
AcDbLine
10
-2
20
12.49675
30
0
11
-52.599857
21
12.49675
31
0
39
0
210
0
220
0
230
1
0
LINE
5
152
100
AcDbEntity
8
SK1
62
256
6
ByLayer
370
13
48
1
60
0
100
AcDbLine
10
-52.599857
20
-12.49675
30
0
11
-2
21
-12.49675
31
0
39
0
210
0
220
0
230
1
0
LINE
5
153
100
AcDbEntity
8
SK1
62
256
6
ByLayer
370
13
48
1
60
0
100
AcDbLine
10
-1.544243
20
12.284227
30
0
11
-2
21
12.49675
31
0
39
0
210
0
220
0
230
1
0
LINE
5
154
100
AcDbEntity
8
SK1
62
256
6
ByLayer
370
13
48
1
60
0
100
AcDbLine
10
-2
20
-12.49675
30
0
11
-1.544243
21
-12.284227
31
0
39
0
210
0
220
0
230
1
0
LINE
5
155
100
AcDbEntity
8
1
62
256
6
ByLayer
370
18
48
1
60
0
100
AcDbLine
10
145.202739
20
9.010058
30
0
11
145.281997
21
9.014211
31
0
39
0
210
0
220
0
230
1
0
LINE
5
156
100
AcDbEntity
8
1
62
256
6
ByLayer
370
18
48
1
60
0
100
AcDbLine
10
145.364813
20
7.43398
30
0
11
145.285556
21
7.429826
31
0
39
0
210
0
220
0
230
1
0
LINE
5
157
100
AcDbEntity
8
1
62
256
6
ByLayer
370
18
48
1
60
0
100
AcDbLine
10
145.228517
20
9.94649
30
0
11
145.153868
21
9.942578
31
0
39
0
210
0
220
0
230
1
0
LINE
5
158
100
AcDbEntity
8
1
62
256
6
ByLayer
370
18
48
1
60
0
100
AcDbLine
10
145.334427
20
6.497306
30
0
11
145.409076
21
6.501218
31
0
39
0
210
0
220
0
230
1
0
LINE
5
159
100
AcDbEntity
8
1
62
256
6
ByLayer
370
18
48
1
60
0
100
AcDbLine
10
144.46987
20
7.940516
30
0
11
144.420691
21
7.937939
31
0
39
0
210
0
220
0
230
1
0
LINE
5
15A
100
AcDbEntity
8
1
62
256
6
ByLayer
370
18
48
1
60
0
100
AcDbLine
10
144.393734
20
8.414221
30
0
11
144.444881
21
8.416902
31
0
39
0
210
0
220
0
230
1
0
LINE
5
15B
100
AcDbEntity
8
1
62
256
6
ByLayer
370
13
48
1
60
0
100
AcDbLine
10
22
20
-12.1875
30
0
11
27
21
-12.1875
31
0
39
0
210
0
220
0
230
1
0
LINE
5
15C
100
AcDbEntity
8
1
62
256
6
ByLayer
370
13
48
1
60
0
100
AcDbLine
10
27
20
-12.1875
30
0
11
73.6
21
-12.0625
31
0
39
0
210
0
220
0
230
1
0
LINE
5
15D
100
AcDbEntity
8
1
62
256
6
ByLayer
370
13
48
1
60
0
100
AcDbLine
10
139.841286
20
12.1875
30
0
11
138.396356
21
12.1875
31
0
39
0
210
0
220
0
230
1
0
LINE
5
15E
100
AcDbEntity
8
1
62
256
6
ByLayer
370
13
48
1
60
0
100
AcDbLine
10
138.396356
20
12.1875
30
0
11
135.396356
21
12.0625
31
0
39
0
210
0
220
0
230
1
0
LINE
5
15F
100
AcDbEntity
8
1
62
256
6
ByLayer
370
13
48
1
60
0
100
AcDbLine
10
73.6
20
-12.0625
30
0
11
93.769571
21
-12.0625
31
0
39
0
210
0
220
0
230
1
0
LINE
5
160
100
AcDbEntity
8
1
62
256
6
ByLayer
370
13
48
1
60
0
100
AcDbLine
10
135.396356
20
12.0625
30
0
11
130.634545
21
12.0625
31
0
39
0
210
0
220
0
230
1
0
LINE
5
161
100
AcDbEntity
8
1
62
256
6
ByLayer
370
13
48
1
60
0
100
AcDbLine
10
27
20
12.1875
30
0
11
22
21
12.1875
31
0
39
0
210
0
220
0
230
1
0
LINE
5
162
100
AcDbEntity
8
1
62
256
6
ByLayer
370
13
48
1
60
0
100
AcDbLine
10
73.6
20
12.0625
30
0
11
27
21
12.1875
31
0
39
0
210
0
220
0
230
1
0
LINE
5
163
100
AcDbEntity
8
1
62
256
6
ByLayer
370
13
48
1
60
0
100
AcDbLine
10
0.1
20
-16
30
0
11
5.9898
21
-16
31
0
39
0
210
0
220
0
230
1
0
LINE
5
164
100
AcDbEntity
8
1
62
256
6
ByLayer
370
13
48
1
60
0
100
AcDbLine
10
0.1
20
16
30
0
11
0
21
15.9
31
0
39
0
210
0
220
0
230
1
0
LINE
5
165
100
AcDbEntity
8
1
62
256
6
ByLayer
370
13
48
1
60
0
100
AcDbLine
10
5.9898
20
16
30
0
11
0.1
21
16
31
0
39
0
210
0
220
0
230
1
0
LINE
5
166
100
AcDbEntity
8
1
62
256
6
ByLayer
370
13
48
1
60
0
100
AcDbLine
10
0
20
-15.9
30
0
11
0.1
21
-16
31
0
39
0
210
0
220
0
230
1
0
LINE
5
167
100
AcDbEntity
8
1
62
256
6
ByLayer
370
13
48
1
60
0
100
AcDbLine
10
150.258687
20
4.815221
30
0
11
150.515419
21
5.338329
31
0
39
0
210
0
220
0
230
1
0
LINE
5
168
100
AcDbEntity
8
1
62
256
6
ByLayer
370
13
48
1
60
0
100
AcDbLine
10
149.33099
20
8.675031
30
0
11
148.856553
21
11.67915
31
0
39
0
210
0
220
0
230
1
0
LINE
5
169
100
AcDbEntity
8
1
62
256
6
ByLayer
370
13
48
1
60
0
100
AcDbLine
10
148.914686
20
5.272931
30
0
11
149.333652
21
8.47425
31
0
39
0
210
0
220
0
230
1
0
LINE
5
16A
100
AcDbEntity
8
81
62
256
6
ByLayer
370
18
48
1
60
0
100
AcDbLine
10
151
20
0
30
0
11
158
21
0
31
0
39
0
210
0
220
0
230
1
0
LINE
5
16B
100
AcDbEntity
8
80
62
256
6
ByLayer
370
18
48
1
60
0
100
AcDbLine
10
0
20
0
30
0
11
-7
21
0
31
0
39
0
210
0
220
0
230
1
0
LINE
5
16C
100
AcDbEntity
8
SK2
62
256
6
ByLayer
370
13
48
1
60
0
100
AcDbLine
10
-76.725
20
23.75
30
0
11
-76.725
21
-23.75
31
0
39
0
210
0
220
0
230
1
0
LINE
5
16E
100
AcDbEntity
8
SK2
62
256
6
ByLayer
370
13
48
1
60
0
100
AcDbLine
10
-57.5875
20
-12.5
30
0
11
-79.9
21
-12.5
31
0
39
0
210
0
220
0
230
1
0
LINE
5
16F
100
AcDbEntity
8
SK2
62
256
6
ByLayer
370
13
48
1
60
0
100
AcDbLine
10
-57.5875
20
12.5
30
0
11
-79.9
21
12.5
31
0
39
0
210
0
220
0
230
1
0
LINE
5
170
100
AcDbEntity
8
1
62
256
6
ByLayer
370
18
48
1
60
1
100
AcDbLine
10
-76.725
20
-12.5
30
0
11
-75.799425
21
-16.674997
31
0
39
0
210
0
220
0
230
1
0
LINE
5
171
100
AcDbEntity
8
1
62
256
6
ByLayer
370
18
48
1
60
1
100
AcDbLine
10
-75.799425
20
-16.674997
30
0
11
-77.650575
21
-16.675003
31
0
39
0
210
0
220
0
230
1
0
LINE
5
172
100
AcDbEntity
8
1
62
256
6
ByLayer
370
18
48
1
60
1
100
AcDbLine
10
-77.650575
20
-16.675003
30
0
11
-76.725
21
-12.5
31
0
39
0
210
0
220
0
230
1
0
LINE
5
173
100
AcDbEntity
8
1
62
256
6
ByLayer
370
18
48
1
60
1
100
AcDbLine
10
-76.725
20
12.5
30
0
11
-77.650575
21
16.674997
31
0
39
0
210
0
220
0
230
1
0
LINE
5
174
100
AcDbEntity
8
1
62
256
6
ByLayer
370
18
48
1
60
1
100
AcDbLine
10
-77.650575
20
16.674997
30
0
11
-75.799425
21
16.675003
31
0
39
0
210
0
220
0
230
1
0
LINE
5
175
100
AcDbEntity
8
1
62
256
6
ByLayer
370
18
48
1
60
1
100
AcDbLine
10
-75.799425
20
16.675003
30
0
11
-76.725
21
12.5
31
0
39
0
210
0
220
0
230
1
0
LINE
5
176
100
AcDbEntity
8
SK2
62
256
6
ByLayer
370
13
48
1
60
0
100
AcDbLine
10
-86.725
20
-16
30
0
11
-86.725
21
16
31
0
39
0
210
0
220
0
230
1
0
LINE
5
177
100
AcDbEntity
8
SK2
62
256
6
ByLayer
370
13
48
1
60
0
100
AcDbLine
10
-1.5875
20
16
30
0
11
-89.9
21
16
31
0
39
0
210
0
220
0
230
1
0
LINE
5
178
100
AcDbEntity
8
SK2
62
256
6
ByLayer
370
13
48
1
60
0
100
AcDbLine
10
-1.5875
20
-16
30
0
11
-89.9
21
-16
31
0
39
0
210
0
220
0
230
1
0
LINE
5
179
100
AcDbEntity
8
1
62
256
6
ByLayer
370
18
48
1
60
1
100
AcDbLine
10
-86.725
20
16
30
0
11
-85.799425
21
11.825003
31
0
39
0
210
0
220
0
230
1
0
LINE
5
17A
100
AcDbEntity
8
1
62
256
6
ByLayer
370
18
48
1
60
1
100
AcDbLine
10
-85.799425
20
11.825003
30
0
11
-87.650575
21
11.824997
31
0
39
0
210
0
220
0
230
1
0
LINE
5
17B
100
AcDbEntity
8
1
62
256
6
ByLayer
370
18
48
1
60
1
100
AcDbLine
10
-87.650575
20
11.824997
30
0
11
-86.725
21
16
31
0
39
0
210
0
220
0
230
1
0
LINE
5
17C
100
AcDbEntity
8
1
62
256
6
ByLayer
370
18
48
1
60
1
100
AcDbLine
10
-86.725
20
-16
30
0
11
-87.650575
21
-11.825003
31
0
39
0
210
0
220
0
230
1
0
LINE
5
17D
100
AcDbEntity
8
1
62
256
6
ByLayer
370
18
48
1
60
1
100
AcDbLine
10
-87.650575
20
-11.825003
30
0
11
-85.799425
21
-11.824997
31
0
39
0
210
0
220
0
230
1
0
LINE
5
17E
100
AcDbEntity
8
1
62
256
6
ByLayer
370
18
48
1
60
1
100
AcDbLine
10
-85.799425
20
-11.824997
30
0
11
-86.725
21
-16
31
0
39
0
210
0
220
0
230
1
0
LINE
5
17F
100
AcDbEntity
8
2
62
256
6
ByLayer
370
13
48
1
60
0
100
AcDbLine
10
177.975
20
23.75
30
0
11
177.975
21
-23.75
31
0
39
0
210
0
220
0
230
1
0
LINE
5
181
100
AcDbEntity
8
2
62
256
6
ByLayer
370
13
48
1
60
0
100
AcDbLine
10
152.5875
20
-12.5
30
0
11
181.15
21
-12.5
31
0
39
0
210
0
220
0
230
1
0
LINE
5
182
100
AcDbEntity
8
2
62
256
6
ByLayer
370
13
48
1
60
0
100
AcDbLine
10
152.5875
20
12.5
30
0
11
181.15
21
12.5
31
0
39
0
210
0
220
0
230
1
0
LINE
5
183
100
AcDbEntity
8
1
62
256
6
ByLayer
370
18
48
1
60
1
100
AcDbLine
10
177.975
20
-12.5
30
0
11
178.900575
21
-16.674997
31
0
39
0
210
0
220
0
230
1
0
LINE
5
184
100
AcDbEntity
8
1
62
256
6
ByLayer
370
18
48
1
60
1
100
AcDbLine
10
178.900575
20
-16.674997
30
0
11
177.049425
21
-16.675003
31
0
39
0
210
0
220
0
230
1
0
LINE
5
185
100
AcDbEntity
8
1
62
256
6
ByLayer
370
18
48
1
60
1
100
AcDbLine
10
177.049425
20
-16.675003
30
0
11
177.975
21
-12.5
31
0
39
0
210
0
220
0
230
1
0
LINE
5
186
100
AcDbEntity
8
1
62
256
6
ByLayer
370
18
48
1
60
1
100
AcDbLine
10
177.975
20
12.5
30
0
11
177.049425
21
16.674997
31
0
39
0
210
0
220
0
230
1
0
LINE
5
187
100
AcDbEntity
8
1
62
256
6
ByLayer
370
18
48
1
60
1
100
AcDbLine
10
177.049425
20
16.674997
30
0
11
178.900575
21
16.675003
31
0
39
0
210
0
220
0
230
1
0
LINE
5
188
100
AcDbEntity
8
1
62
256
6
ByLayer
370
18
48
1
60
1
100
AcDbLine
10
178.900575
20
16.675003
30
0
11
177.975
21
12.5
31
0
39
0
210
0
220
0
230
1
0
LINE
5
344
100
AcDbEntity
8
1
62
256
6
ByLayer
370
18
48
1
60
1
100
AcDbLine
10
-76.725
20
-12.5
30
0
11
-75.799425
21
-16.674997
31
0
39
0
210
0
220
0
230
1
0
LINE
5
345
100
AcDbEntity
8
1
62
256
6
ByLayer
370
18
48
1
60
1
100
AcDbLine
10
-75.799425
20
-16.674997
30
0
11
-77.650575
21
-16.675003
31
0
39
0
210
0
220
0
230
1
0
LINE
5
346
100
AcDbEntity
8
1
62
256
6
ByLayer
370
18
48
1
60
1
100
AcDbLine
10
-77.650575
20
-16.675003
30
0
11
-76.725
21
-12.5
31
0
39
0
210
0
220
0
230
1
0
LINE
5
348
100
AcDbEntity
8
1
62
256
6
ByLayer
370
18
48
1
60
1
100
AcDbLine
10
-76.725
20
12.5
30
0
11
-77.650575
21
16.674997
31
0
39
0
210
0
220
0
230
1
0
LINE
5
349
100
AcDbEntity
8
1
62
256
6
ByLayer
370
18
48
1
60
1
100
AcDbLine
10
-77.650575
20
16.674997
30
0
11
-75.799425
21
16.675003
31
0
39
0
210
0
220
0
230
1
0
LINE
5
34A
100
AcDbEntity
8
1
62
256
6
ByLayer
370
18
48
1
60
1
100
AcDbLine
10
-75.799425
20
16.675003
30
0
11
-76.725
21
12.5
31
0
39
0
210
0
220
0
230
1
0
LINE
5
34E
100
AcDbEntity
8
1
62
256
6
ByLayer
370
18
48
1
60
1
100
AcDbLine
10
-86.725
20
16
30
0
11
-85.799425
21
11.825003
31
0
39
0
210
0
220
0
230
1
0
LINE
5
34F
100
AcDbEntity
8
1
62
256
6
ByLayer
370
18
48
1
60
1
100
AcDbLine
10
-85.799425
20
11.825003
30
0
11
-87.650575
21
11.824997
31
0
39
0
210
0
220
0
230
1
0
LINE
5
350
100
AcDbEntity
8
1
62
256
6
ByLayer
370
18
48
1
60
1
100
AcDbLine
10
-87.650575
20
11.824997
30
0
11
-86.725
21
16
31
0
39
0
210
0
220
0
230
1
0
LINE
5
352
100
AcDbEntity
8
1
62
256
6
ByLayer
370
18
48
1
60
1
100
AcDbLine
10
-86.725
20
-16
30
0
11
-87.650575
21
-11.825003
31
0
39
0
210
0
220
0
230
1
0
LINE
5
353
100
AcDbEntity
8
1
62
256
6
ByLayer
370
18
48
1
60
1
100
AcDbLine
10
-87.650575
20
-11.825003
30
0
11
-85.799425
21
-11.824997
31
0
39
0
210
0
220
0
230
1
0
LINE
5
354
100
AcDbEntity
8
1
62
256
6
ByLayer
370
18
48
1
60
1
100
AcDbLine
10
-85.799425
20
-11.824997
30
0
11
-86.725
21
-16
31
0
39
0
210
0
220
0
230
1
0
LINE
5
358
100
AcDbEntity
8
1
62
256
6
ByLayer
370
18
48
1
60
1
100
AcDbLine
10
177.975
20
-12.5
30
0
11
178.900575
21
-16.674997
31
0
39
0
210
0
220
0
230
1
0
LINE
5
359
100
AcDbEntity
8
1
62
256
6
ByLayer
370
18
48
1
60
1
100
AcDbLine
10
178.900575
20
-16.674997
30
0
11
177.049425
21
-16.675003
31
0
39
0
210
0
220
0
230
1
0
LINE
5
35A
100
AcDbEntity
8
1
62
256
6
ByLayer
370
18
48
1
60
1
100
AcDbLine
10
177.049425
20
-16.675003
30
0
11
177.975
21
-12.5
31
0
39
0
210
0
220
0
230
1
0
LINE
5
35C
100
AcDbEntity
8
1
62
256
6
ByLayer
370
18
48
1
60
1
100
AcDbLine
10
177.975
20
12.5
30
0
11
177.049425
21
16.674997
31
0
39
0
210
0
220
0
230
1
0
LINE
5
35D
100
AcDbEntity
8
1
62
256
6
ByLayer
370
18
48
1
60
1
100
AcDbLine
10
177.049425
20
16.674997
30
0
11
178.900575
21
16.675003
31
0
39
0
210
0
220
0
230
1
0
LINE
5
35E
100
AcDbEntity
8
1
62
256
6
ByLayer
370
18
48
1
60
1
100
AcDbLine
10
178.900575
20
16.675003
30
0
11
177.975
21
12.5
31
0
39
0
210
0
220
0
230
1
0
MTEXT
5
340
100
AcDbEntity
8
SK2
62
256
6
ByLayer
370
18
48
1
60
0
100
AcDbMText
10
-78.736672
20
-6.949399
30
0
210
0
220
0
230
1
1
%%c
40
4.5
41
0
44
1.084337
50
90
71
7
72
5
7
iso_b_vert
0
MTEXT
5
343
100
AcDbEntity
8
SK2
62
256
6
ByLayer
370
18
48
1
60
0
100
AcDbMText
10
-78.736672
20
4.265444
30
0
210
0
220
0
230
1
1
\W0.6740;25
40
4.5
41
0
44
1.084337
50
90
71
7
72
5
7
iso_b_vert
0
MTEXT
5
34C
100
AcDbEntity
8
SK2
62
256
6
ByLayer
370
18
48
1
60
0
100
AcDbMText
10
-88.736672
20
-6.949399
30
0
210
0
220
0
230
1
1
%%c
40
4.5
41
0
44
1.084337
50
90
71
7
72
5
7
iso_b_vert
0
MTEXT
5
34D
100
AcDbEntity
8
SK2
62
256
6
ByLayer
370
18
48
1
60
0
100
AcDbMText
10
-88.736672
20
4.265444
30
0
210
0
220
0
230
1
1
\W0.6740;32
40
4.5
41
0
44
1.084337
50
90
71
7
72
5
7
iso_b_vert
0
MTEXT
5
356
100
AcDbEntity
8
2
62
256
6
ByLayer
370
18
48
1
60
0
100
AcDbMText
10
175.963328
20
-6.949399
30
0
210
0
220
0
230
1
1
%%c
40
4.5
41
0
44
1.084337
50
90
71
7
72
5
7
iso_b_vert
0
MTEXT
5
357
100
AcDbEntity
8
2
62
256
6
ByLayer
370
18
48
1
60
0
100
AcDbMText
10
175.963328
20
4.265444
30
0
210
0
220
0
230
1
1
\W0.6740;25
40
4.5
41
0
44
1.084337
50
90
71
7
72
5
7
iso_b_vert
0
MTEXT
5
360
100
AcDbEntity
8
SK6
62
256
6
ByLayer
370
18
48
1
60
0
100
AcDbMText
10
9.308916
20
-94.592562
30
0
210
0
220
0
230
1
1
\W0.7663;DS20-D2500L25-05
40
3.5
41
0
44
1.084337
50
0
71
7
72
5
7
iso_b_vert
0
HATCH
5
347
100
AcDbEntity
8
SK2
62
256
6
ByLayer
370
13
48
1
60
0
100
AcDbHatch
10
0
20
0
30
0
210
0
220
0
230
1
2
ANSI31
70
0
71
0
91
1
92
5
93
3
72
1
10
-76.725
20
-12.4999999999999
11
-75.799424783472
21
-16.6749966001723
72
1
10
-75.799424783472
20
-16.6749966001723
11
-77.650575216528
21
-16.6750033998275
72
1
10
-77.650575216528
20
-16.6750033998275
11
-76.725
21
-12.4999999999999
97
0
75
0
76
1
52
0
41
0.0062
77
0
78
1
53
45
43
0
44
0
45
-0.0139193969876572
46
0.0139193969876572
79
0
47
0
98
1
10
0
20
0
0
HATCH
5
34B
100
AcDbEntity
8
SK2
62
256
6
ByLayer
370
13
48
1
60
0
100
AcDbHatch
10
0
20
0
30
0
210
0
220
0
230
1
2
ANSI31
70
0
71
0
91
1
92
5
93
3
72
1
10
-76.725
20
12.5000000000001
11
-77.650575216528
21
16.6749966001725
72
1
10
-77.650575216528
20
16.6749966001725
11
-75.799424783472
21
16.6750033998277
72
1
10
-75.799424783472
20
16.6750033998277
11
-76.725
21
12.5000000000001
97
0
75
0
76
1
52
0
41
0.0062
77
0
78
1
53
45
43
0
44
0
45
-0.0139193969876572
46
0.0139193969876572
79
0
47
0
98
1
10
0
20
0
0
HATCH
5
351
100
AcDbEntity
8
SK2
62
256
6
ByLayer
370
13
48
1
60
0
100
AcDbHatch
10
0
20
0
30
0
210
0
220
0
230
1
2
ANSI31
70
0
71
0
91
1
92
5
93
3
72
1
10
-86.725
20
16
11
-85.799424783472
21
11.8250033998276
72
1
10
-85.799424783472
20
11.8250033998276
11
-87.650575216528
21
11.8249966001724
72
1
10
-87.650575216528
20
11.8249966001724
11
-86.725
21
16
97
0
75
0
76
1
52
0
41
0.0062
77
0
78
1
53
45
43
0
44
0
45
-0.0139193969876572
46
0.0139193969876572
79
0
47
0
98
1
10
0
20
0
0
HATCH
5
355
100
AcDbEntity
8
SK2
62
256
6
ByLayer
370
13
48
1
60
0
100
AcDbHatch
10
0
20
0
30
0
210
0
220
0
230
1
2
ANSI31
70
0
71
0
91
1
92
5
93
3
72
1
10
-86.725
20
-16
11
-87.650575216528
21
-11.8250033998276
72
1
10
-87.650575216528
20
-11.8250033998276
11
-85.799424783472
21
-11.8249966001724
72
1
10
-85.799424783472
20
-11.8249966001724
11
-86.725
21
-16
97
0
75
0
76
1
52
0
41
0.0062
77
0
78
1
53
45
43
0
44
0
45
-0.0139193969876572
46
0.0139193969876572
79
0
47
0
98
1
10
0
20
0
0
HATCH
5
35B
100
AcDbEntity
8
2
62
256
6
ByLayer
370
13
48
1
60
0
100
AcDbHatch
10
0
20
0
30
0
210
0
220
0
230
1
2
ANSI31
70
0
71
0
91
1
92
5
93
3
72
1
10
177.975
20
-12.5000000000002
11
178.900575216528
21
-16.6749966001726
72
1
10
178.900575216528
20
-16.6749966001726
11
177.049424783472
21
-16.6750033998278
72
1
10
177.049424783472
20
-16.6750033998278
11
177.975
21
-12.5000000000002
97
0
75
0
76
1
52
0
41
0.0062
77
0
78
1
53
45
43
0
44
0
45
-0.0139193969876572
46
0.0139193969876572
79
0
47
0
98
1
10
0
20
0
0
HATCH
5
35F
100
AcDbEntity
8
2
62
256
6
ByLayer
370
13
48
1
60
0
100
AcDbHatch
10
0
20
0
30
0
210
0
220
0
230
1
2
ANSI31
70
0
71
0
91
1
92
5
93
3
72
1
10
177.975
20
12.4999999999998
11
177.049424783472
21
16.6749966001722
72
1
10
177.049424783472
20
16.6749966001722
11
178.900575216528
21
16.6750033998275
72
1
10
178.900575216528
20
16.6750033998275
11
177.975
21
12.4999999999998
97
0
75
0
76
1
52
0
41
0.0062
77
0
78
1
53
45
43
0
44
0
45
-0.0139193969876572
46
0.0139193969876572
79
0
47
0
98
1
10
0
20
0
0
DIMENSION
5
363
100
AcDbEntity
8
2
62
256
6
ByLayer
370
18
48
1
60
0
100
AcDbDimension
2
_U0
10
151
20
-64.860799
30
0
11
75.5
21
-64.860799
31
0
70
32
71
1
72
1
41
1
210
0
220
0
230
1
3
Standard
100
AcDbAlignedDimension
13
0
23
-16
33
0
14
151
24
-12.5
34
0
50
0
100
AcDbRotatedDimension
1001
ACAD
1000
DSTYLE
1002
{
1070
   371
1070
    13
1070
   372
1070
    13
1070
   170
1070
     0
1070
   144
1040
1.0
1070
   277
1070
     2
1070
   284
1070
     8
1070
   278
1070
    46
1070
   146
1040
0.777778
1070
   345
1005
16
1070
   347
1005
16
1070
   346
1005
16
1070
   344
1005
0
1070
   343
1005
0
1070
   172
1070
     1
1070
    76
1070
     0
1070
    75
1070
     0
1070
   282
1070
     0
1070
   281
1070
     0
1070
    71
1070
     0
1070
    74
1070
     0
1070
   279
1070
     0
1070
   173
1070
     1
1070
   340
1005
341
1070
   271
1070
     1
1070
   272
1070
     2
1070
    77
1070
     1
1070
    73
1070
     1
1070
   171
1070
     3
1070
   274
1070
     4
1070
   177
1070
   150
1070
   176
1070
     9
1070
   178
1070
    43
1070
    78
1070
     8
1070
    48
1040
-0.1
1070
    41
1040
4.175
1070
   147
1040
2.25
1070
    42
1040
1.5875
1070
    44
1040
3.175
1070
   140
1040
4.5
1002
}
1001
ACAD_DSTYLE_DIM_LINETYPE
1070
   380
1005
16
1001
ACAD_DSTYLE_DIM_EXT1_LINETYPE
1070
   381
1005
16
1001
ACAD_DSTYLE_DIM_EXT2_LINETYPE
1070
   382
1005
16
0
DIMENSION
5
37C
100
AcDbEntity
8
SK2
62
256
6
ByLayer
370
18
48
1
60
0
100
AcDbDimension
2
_U1
10
0
20
-64.860799
30
0
11
-28
21
-64.860799
31
0
70
32
71
1
72
1
41
1
210
0
220
0
230
1
3
Standard
100
AcDbAlignedDimension
13
-56
23
-12.5
33
0
14
0
24
-16
34
0
50
0
100
AcDbRotatedDimension
1001
ACAD
1000
DSTYLE
1002
{
1070
   371
1070
    13
1070
   372
1070
    13
1070
   170
1070
     0
1070
   144
1040
1.0
1070
   277
1070
     2
1070
   284
1070
     8
1070
   278
1070
    46
1070
   146
1040
0.777778
1070
   345
1005
16
1070
   347
1005
16
1070
   346
1005
16
1070
   344
1005
0
1070
   343
1005
0
1070
   172
1070
     1
1070
    76
1070
     0
1070
    75
1070
     0
1070
   282
1070
     0
1070
   281
1070
     0
1070
    71
1070
     0
1070
    74
1070
     0
1070
   279
1070
     0
1070
   173
1070
     1
1070
   340
1005
341
1070
   271
1070
     1
1070
   272
1070
     2
1070
    77
1070
     1
1070
    73
1070
     1
1070
   171
1070
     3
1070
   274
1070
     4
1070
   177
1070
   150
1070
   176
1070
     9
1070
   178
1070
    43
1070
    78
1070
     8
1070
    48
1040
-0.1
1070
    41
1040
4.175
1070
   147
1040
2.25
1070
    42
1040
1.5875
1070
    44
1040
3.175
1070
   140
1040
4.5
1002
}
1001
ACAD_DSTYLE_DIM_LINETYPE
1070
   380
1005
16
1001
ACAD_DSTYLE_DIM_EXT1_LINETYPE
1070
   381
1005
16
1001
ACAD_DSTYLE_DIM_EXT2_LINETYPE
1070
   382
1005
16
0
DIMENSION
5
394
100
AcDbEntity
8
SK2
62
256
6
ByLayer
370
18
48
1
60
0
100
AcDbDimension
2
_U2
10
6.4898
20
-54.860799
30
0
11
78.7449
21
-54.860799
31
0
70
32
71
1
72
1
41
1
210
0
220
0
230
1
3
Standard
100
AcDbAlignedDimension
13
151
23
-12.5
33
0
14
6.4898
24
-16
34
0
50
0
100
AcDbRotatedDimension
1001
ACAD
1000
DSTYLE
1002
{
1070
   371
1070
    13
1070
   372
1070
    13
1070
   170
1070
     0
1070
   144
1040
1.0
1070
   277
1070
     2
1070
   284
1070
     8
1070
   278
1070
    46
1070
   146
1040
0.777778
1070
   345
1005
16
1070
   347
1005
16
1070
   346
1005
16
1070
   344
1005
0
1070
   343
1005
0
1070
   172
1070
     1
1070
    76
1070
     0
1070
    75
1070
     0
1070
   282
1070
     0
1070
   281
1070
     0
1070
    71
1070
     0
1070
    74
1070
     0
1070
   279
1070
     0
1070
   173
1070
     1
1070
   340
1005
341
1070
   271
1070
     1
1070
   272
1070
     2
1070
    77
1070
     1
1070
    73
1070
     1
1070
   171
1070
     3
1070
   274
1070
     4
1070
   177
1070
   150
1070
   176
1070
     9
1070
   178
1070
    43
1070
    78
1070
     8
1070
    48
1040
-0.1
1070
    41
1040
4.175
1070
   147
1040
2.25
1070
    42
1040
1.5875
1070
    44
1040
3.175
1070
   140
1040
4.5
1002
}
1001
ACAD_DSTYLE_DIM_LINETYPE
1070
   380
1005
16
1001
ACAD_DSTYLE_DIM_EXT1_LINETYPE
1070
   381
1005
16
1001
ACAD_DSTYLE_DIM_EXT2_LINETYPE
1070
   382
1005
16
0
DIMENSION
5
3AC
100
AcDbEntity
8
SK2
62
256
6
ByLayer
370
18
48
1
60
0
100
AcDbDimension
2
_U3
10
151
20
-44.860799
30
0
11
86.5
21
-44.860799
31
0
70
32
71
1
72
1
41
1
210
0
220
0
230
1
3
Standard
100
AcDbAlignedDimension
13
22
23
-12.5
33
0
14
151
24
-12.5
34
0
50
0
100
AcDbRotatedDimension
1001
ACAD
1000
DSTYLE
1002
{
1070
   371
1070
    13
1070
   372
1070
    13
1070
   170
1070
     0
1070
   144
1040
1.0
1070
   277
1070
     2
1070
   284
1070
     8
1070
   278
1070
    46
1070
   146
1040
0.777778
1070
   345
1005
16
1070
   347
1005
16
1070
   346
1005
16
1070
   344
1005
0
1070
   343
1005
0
1070
   172
1070
     1
1070
    76
1070
     0
1070
    75
1070
     0
1070
   282
1070
     0
1070
   281
1070
     0
1070
    71
1070
     0
1070
    74
1070
     0
1070
   279
1070
     0
1070
   173
1070
     1
1070
   340
1005
341
1070
   271
1070
     1
1070
   272
1070
     2
1070
    77
1070
     1
1070
    73
1070
     1
1070
   171
1070
     3
1070
   274
1070
     4
1070
   177
1070
   150
1070
   176
1070
     9
1070
   178
1070
    43
1070
    78
1070
     8
1070
    48
1040
-0.1
1070
    41
1040
4.175
1070
   147
1040
2.25
1070
    42
1040
1.5875
1070
    44
1040
3.175
1070
   140
1040
4.5
1002
}
1001
ACAD_DSTYLE_DIM_LINETYPE
1070
   380
1005
16
1001
ACAD_DSTYLE_DIM_EXT1_LINETYPE
1070
   381
1005
16
1001
ACAD_DSTYLE_DIM_EXT2_LINETYPE
1070
   382
1005
16
0
DIMENSION
5
3C4
100
AcDbEntity
8
2
62
256
6
ByLayer
370
18
48
1
60
0
100
AcDbDimension
2
_U4
10
151
20
-34.860799
30
0
11
173.350893
21
-34.860799
31
0
70
32
71
1
72
1
41
1
210
0
220
0
230
1
3
Standard
100
AcDbAlignedDimension
13
150.335
23
-6.25
33
0
14
151
24
0
34
0
50
0
100
AcDbRotatedDimension
1001
ACAD
1000
DSTYLE
1002
{
1070
   371
1070
    13
1070
   372
1070
    13
1070
   170
1070
     0
1070
   144
1040
1.0
1070
   277
1070
     2
1070
   284
1070
     8
1070
   278
1070
    46
1070
   146
1040
0.777778
1070
   345
1005
16
1070
   347
1005
16
1070
   346
1005
16
1070
   344
1005
0
1070
   343
1005
0
1070
   172
1070
     1
1070
    76
1070
     0
1070
    75
1070
     0
1070
   282
1070
     0
1070
   281
1070
     0
1070
    71
1070
     0
1070
    74
1070
     0
1070
   279
1070
     0
1070
   173
1070
     1
1070
   340
1005
341
1070
   271
1070
     2
1070
   272
1070
     2
1070
    77
1070
     1
1070
    73
1070
     1
1070
   171
1070
     3
1070
   274
1070
     4
1070
   177
1070
   150
1070
   176
1070
     9
1070
   178
1070
    43
1070
    78
1070
     8
1070
    48
1040
-0.1
1070
    41
1040
4.175
1070
   147
1040
2.25
1070
    42
1040
1.5875
1070
    44
1040
3.175
1070
   140
1040
4.5
1002
}
1001
ACAD_DSTYLE_DIM_LINETYPE
1070
   380
1005
16
1001
ACAD_DSTYLE_DIM_EXT1_LINETYPE
1070
   381
1005
16
1001
ACAD_DSTYLE_DIM_EXT2_LINETYPE
1070
   382
1005
16
0
ENDSEC
0
SECTION
2
OBJECTS
0
DICTIONARY
5
44e
330
0
100
AcDbDictionary
280
0
281
1
3
ACAD_GROUP
350
44f
3
ACAD_MLINESTYLE
350
450
0
DICTIONARY
5
44f
330
0
100
AcDbDictionary
280
0
281
1
0
DICTIONARY
5
450
330
0
100
AcDbDictionary
280
0
281
1
3
Standard
350
18
0
MLINESTYLE
5
18
330
450
100
AcDbMlineStyle
2
Standard
70
0
3

62
256
51
90
52
90
71
2
49
-0.5
62
256
6
ByLayer
49
0.5
62
256
6
ByLayer
0
RASTERVARIABLES
5
43c
330

100
AcDbRasterVariables
90
0
70
1
71
1
72
1
0
ENDSEC
0
EOF
