0
SECTION
2
HEADER
9
$ACADVER
1
AC1015
9
$DWGCODEPAGE
3
ANSI_1252
9
$HANDSEED
5
45c
9
$ANGBASE
50
0
9
$ANGDIR
70
0
9
$ATTMODE
70
1
9
$AUNITS
70
0
9
$AUPREC
70
0
9
$CECOLOR
62
256
9
$CELTSCALE
40
1
9
$CELTYPE
6
ByLayer
9
$CELWEIGHT
370
18
9
$CLAYER
8
0
9
$CMLJUST
70
0
9
$CMLSCALE
40
1
9
$CMLSTYLE
2
Standard
9
$DIMSTYLE
2
Standard
9
$TEXTSIZE
40
0.2
9
$TEXTSTYLE
7
Standard
9
$LUNITS
70
2
9
$LUPREC
70
4
9
$EXTNAMES
290
1
9
$INSUNITS
70
4
9
$LTSCALE
40
1
9
$LWDISPLAY
290
1
9
$PDMODE
70
0
9
$PDSIZE
40
0
9
$PLINEGEN
70
0
0
ENDSEC
0
SECTION
2
CLASSES
0
CLASS
1
RASTERVARIABLES
2
AcDbRasterVariables
3
ISM
90
0
280
0
281
0
0
ENDSEC
0
SECTION
2
TABLES
0
TABLE
2
VPORT
5
452
100
AcDbSymbolTable
0
VPORT
5
1
100
AcDbSymbolTableRecord
100
AcDbViewportTableRecord
2
*Active
70
0
10
0
20
0
11
1
21
1
12
-1
22
1
13
0
23
0
14
0.5
24
0.5
15
10
25
10
16
0
26
0
36
1
17
0
27
0
37
0
0
ENDTAB
0
TABLE
2
LTYPE
5
453
100
AcDbSymbolTable
0
LTYPE
5
14
100
AcDbSymbolTableRecord
100
AcDbLinetypeTableRecord
70
0
2
ByBlock
3

72
65
73
0
40
0
0
LTYPE
5
15
100
AcDbSymbolTableRecord
100
AcDbLinetypeTableRecord
70
0
2
ByLayer
3

72
65
73
0
40
0
0
LTYPE
5
16
100
AcDbSymbolTableRecord
100
AcDbLinetypeTableRecord
70
0
2
Continuous
3
Solid line
72
65
73
0
40
0
0
LTYPE
5
6E
100
AcDbSymbolTableRecord
100
AcDbLinetypeTableRecord
70
0
2
CENTER
3
____ _ ____ _ ____ _ ____
72
65
73
4
40
47.5
49
22
74
0
49
-8.5
74
0
49
8.5
74
0
49
-8.5
74
0
0
LTYPE
5
6F
100
AcDbSymbolTableRecord
100
AcDbLinetypeTableRecord
70
0
2
DASHED
3
__ __ __ __ __ __ __ __ __
72
65
73
2
40
25.72
49
12.86
74
0
49
-12.86
74
0
0
ENDTAB
0
TABLE
2
LAYER
5
454
100
AcDbSymbolTable
0
LAYER
5
10
100
AcDbSymbolTableRecord
100
AcDbLayerTableRecord
2
0
70
0
62
7
6
Continuous
290
1
370
-3
390
0
0
LAYER
5
71
100
AcDbSymbolTableRecord
100
AcDbLayerTableRecord
2
1
70
0
62
4
6
Continuous
290
1
370
-3
390
0
0
LAYER
5
73
100
AcDbSymbolTableRecord
100
AcDbLayerTableRecord
2
80
70
0
62
-6
6
Continuous
290
1
370
-3
390
0
0
LAYER
5
75
100
AcDbSymbolTableRecord
100
AcDbLayerTableRecord
2
81
70
0
62
-3
6
Continuous
290
1
370
-3
390
0
0
LAYER
5
149
100
AcDbSymbolTableRecord
100
AcDbLayerTableRecord
2
4
70
0
62
-2
6
CENTER
290
1
370
-3
390
0
0
LAYER
5
185
100
AcDbSymbolTableRecord
100
AcDbLayerTableRecord
2
2
70
0
62
7
6
Continuous
290
1
370
-3
390
0
0
LAYER
5
367
100
AcDbSymbolTableRecord
100
AcDbLayerTableRecord
2
Defpoints
70
0
62
7
6
Continuous
290
0
370
-3
390
0
0
LAYER
5
43e
100
AcDbSymbolTableRecord
100
AcDbLayerTableRecord
2
SK1
70
0
62
4
6
Continuous
290
1
370
-3
390
0
0
LAYER
5
43f
100
AcDbSymbolTableRecord
100
AcDbLayerTableRecord
2
SK4
70
0
62
2
6
CENTER
290
1
370
-3
390
0
0
LAYER
5
440
100
AcDbSymbolTableRecord
100
AcDbLayerTableRecord
2
SK2
70
0
62
7
6
Continuous
290
1
370
-3
390
0
0
LAYER
5
441
100
AcDbSymbolTableRecord
100
AcDbLayerTableRecord
2
SK6
70
0
62
5
6
Continuous
290
1
370
-3
390
0
0
ENDTAB
0
TABLE
2
STYLE
5
455
100
AcDbSymbolTable
0
STYLE
5
11
100
AcDbSymbolTableRecord
100
AcDbTextStyleTableRecord
2
Standard
3
txt
70
0
71
0
40
0
41
1
42
0
50
0
0
STYLE
5
342
100
AcDbSymbolTableRecord
100
AcDbTextStyleTableRecord
2
iso_b_vert
3
simplex.shx
70
0
71
0
40
0
41
1
42
0
50
0
0
STYLE
5
343
100
AcDbSymbolTableRecord
100
AcDbTextStyleTableRecord
2
DWGDirectTextStyle
3
simplex
70
0
71
0
40
0
41
1
42
0
50
0
0
ENDTAB
0
TABLE
2
DIMSTYLE
5
456
100
AcDbSymbolTable
100
AcDbDimStyleTable
0
DIMSTYLE
105
27
100
AcDbSymbolTableRecord
100
AcDbDimStyleTableRecord
2
Standard
70
0
3
<>
41
0.18
42
0.0625
44
0.18
140
0.18
147
0.09
73
0
74
0
77
1
271
2
275
0
278
52
280
0
340
11
0
ENDTAB
0
TABLE
2
VIEW
5
457
100
AcDbSymbolTable
0
ENDTAB
0
TABLE
2
UCS
5
458
100
AcDbSymbolTable
0
ENDTAB
0
TABLE
2
APPID
5
459
100
AcDbSymbolTable
0
APPID
5
12
100
AcDbSymbolTableRecord
100
AcDbRegAppTableRecord
2
ACAD
70
0
0
APPID
5
363
100
AcDbSymbolTableRecord
100
AcDbRegAppTableRecord
2
ACAD_DSTYLE_DIMBREAK
70
0
0
APPID
5
3FD
100
AcDbSymbolTableRecord
100
AcDbRegAppTableRecord
2
ACAD_DSTYLE_DIM_LINETYPE
70
0
0
APPID
5
3FE
100
AcDbSymbolTableRecord
100
AcDbRegAppTableRecord
2
ACAD_DSTYLE_DIM_EXT1_LINETYPE
70
0
0
APPID
5
3FF
100
AcDbSymbolTableRecord
100
AcDbRegAppTableRecord
2
ACAD_DSTYLE_DIM_EXT2_LINETYPE
70
0
0
APPID
5
43A
100
AcDbSymbolTableRecord
100
AcDbRegAppTableRecord
2
ACAD_MLEADERVER
70
0
0
ENDTAB
0
TABLE
2
BLOCK_RECORD
5
45a
100
AcDbSymbolTable
0
BLOCK_RECORD
5
1F
100
AcDbSymbolTableRecord
100
AcDbBlockTableRecord
2
*Model_Space
340
0
70
0
0
BLOCK_RECORD
5
1B
100
AcDbSymbolTableRecord
100
AcDbBlockTableRecord
2
*Paper_Space
340
0
70
0
0
BLOCK_RECORD
5
23
100
AcDbSymbolTableRecord
100
AcDbBlockTableRecord
2
*Paper_Space0
340
0
70
0
0
BLOCK_RECORD
5
368
100
AcDbSymbolTableRecord
100
AcDbBlockTableRecord
2
*D1
340
0
70
0
0
BLOCK_RECORD
5
374
100
AcDbSymbolTableRecord
100
AcDbBlockTableRecord
2
_U0
340
0
70
0
0
BLOCK_RECORD
5
380
100
AcDbSymbolTableRecord
100
AcDbBlockTableRecord
2
*D3
340
0
70
0
0
BLOCK_RECORD
5
38C
100
AcDbSymbolTableRecord
100
AcDbBlockTableRecord
2
_U1
340
0
70
0
0
BLOCK_RECORD
5
398
100
AcDbSymbolTableRecord
100
AcDbBlockTableRecord
2
*D5
340
0
70
0
0
BLOCK_RECORD
5
3A4
100
AcDbSymbolTableRecord
100
AcDbBlockTableRecord
2
_U2
340
0
70
0
0
BLOCK_RECORD
5
3B0
100
AcDbSymbolTableRecord
100
AcDbBlockTableRecord
2
*D7
340
0
70
0
0
BLOCK_RECORD
5
3BC
100
AcDbSymbolTableRecord
100
AcDbBlockTableRecord
2
_U3
340
0
70
0
0
BLOCK_RECORD
5
3C8
100
AcDbSymbolTableRecord
100
AcDbBlockTableRecord
2
*D9
340
0
70
0
0
BLOCK_RECORD
5
3D6
100
AcDbSymbolTableRecord
100
AcDbBlockTableRecord
2
_U4
340
0
70
0
0
ENDTAB
0
ENDSEC
0
SECTION
2
BLOCKS
0
BLOCK
5
20
100
AcDbEntity
8
0
100
AcDbBlockBegin
2
*Model_Space
70
0
10
0
20
0
30
0
3
*Model_Space
0
ENDBLK
5
21
100
AcDbEntity
8
0
100
AcDbBlockEnd
0
BLOCK
5
1C
100
AcDbEntity
8
0
100
AcDbBlockBegin
2
*Paper_Space
70
0
10
0
20
0
30
0
3
*Paper_Space
0
ENDBLK
5
1D
100
AcDbEntity
8
0
100
AcDbBlockEnd
0
BLOCK
5
24
100
AcDbEntity
8
0
100
AcDbBlockBegin
2
*Paper_Space0
70
0
10
0
20
0
30
0
3
*Paper_Space0
0
ENDBLK
5
25
100
AcDbEntity
8
0
100
AcDbBlockEnd
0
BLOCK
5
369
100
AcDbEntity
8
0
100
AcDbBlockBegin
2
*D1
70
1
10
0
20
0
30
0
3
*D1
0
LINE
5
36B
100
AcDbEntity
8
0
62
256
6
ByLayer
370
-2
48
1
60
0
100
AcDbLine
10
0
20
-17.5875
30
0
11
0
21
-68.037234
31
0
39
0
210
0
220
0
230
1
0
LINE
5
36C
100
AcDbEntity
8
0
62
256
6
ByLayer
370
-2
48
1
60
0
100
AcDbLine
10
158
20
-11.0875
30
0
11
158
21
-68.037234
31
0
39
0
210
0
220
0
230
1
0
LINE
5
36D
100
AcDbEntity
8
0
62
256
6
ByLayer
370
-2
48
1
60
0
100
AcDbLine
10
4.175
20
-64.862234
30
0
11
153.825
21
-64.862234
31
0
39
0
210
0
220
0
230
1
0
SOLID
5
36E
100
AcDbEntity
8
0
62
256
6
ByLayer
370
-1
48
1
60
0
100
AcDbTrace
10
4.175
20
-64.1664
30
0
11
4.175
21
-65.558067
31
0
12
0
22
-64.862234
32
0
13
0
23
-64.862234
33
0
39
0
210
0
220
0
230
1
0
SOLID
5
36F
100
AcDbEntity
8
0
62
256
6
ByLayer
370
-1
48
1
60
0
100
AcDbTrace
10
153.825
20
-65.558067
30
0
11
153.825
21
-64.1664
31
0
12
158
22
-64.862234
32
0
13
158
23
-64.862234
33
0
39
0
210
0
220
0
230
1
0
MTEXT
5
370
100
AcDbEntity
8
0
62
256
6
ByLayer
370
18
48
1
60
0
100
AcDbMText
10
79
20
-55.468484
30
0
210
0
220
0
230
1
1
\A1;158
40
4.5
41
0
44
1
50
0
71
5
72
5
7
iso_b_vert
0
POINT
5
371
100
AcDbEntity
8
Defpoints
62
0
6
ByLayer
370
-1
48
1
60
0
100
AcDbPoint
10
0
20
-16
30
0
39
0
210
0
220
0
230
1
50
360
0
POINT
5
372
100
AcDbEntity
8
Defpoints
62
0
6
ByLayer
370
-1
48
1
60
0
100
AcDbPoint
10
158
20
-9.5
30
0
39
0
210
0
220
0
230
1
50
360
0
POINT
5
373
100
AcDbEntity
8
Defpoints
62
0
6
ByLayer
370
-1
48
1
60
0
100
AcDbPoint
10
158
20
-64.862234
30
0
39
0
210
0
220
0
230
1
50
360
0
ENDBLK
5
36A
100
AcDbEntity
8
0
100
AcDbBlockEnd
0
BLOCK
5
37B
100
AcDbEntity
8
0
100
AcDbBlockBegin
2
_U0
70
0
10
0
20
0
30
0
3
_U0
0
MTEXT
5
375
100
AcDbEntity
8
2
62
256
6
ByLayer
370
18
48
1
60
0
100
AcDbMText
10
75.431801
20
-63.534562
30
0
210
0
220
0
230
1
1
\W0.6217;158
40
4.5
41
0
44
1.084337
50
0
71
7
72
5
7
iso_b_vert
0
LINE
5
376
100
AcDbEntity
8
2
62
256
6
ByLayer
370
13
48
1
60
0
100
AcDbLine
10
0
20
-17.5875
30
0
11
0
21
-68.037234
31
0
39
0
210
0
220
0
230
1
0
LINE
5
377
100
AcDbEntity
8
2
62
256
6
ByLayer
370
13
48
1
60
0
100
AcDbLine
10
158
20
-11.0875
30
0
11
158
21
-68.037234
31
0
39
0
210
0
220
0
230
1
0
LINE
5
378
100
AcDbEntity
8
2
62
256
6
ByLayer
370
13
48
1
60
0
100
AcDbLine
10
0
20
-64.862234
30
0
11
158
21
-64.862234
31
0
39
0
210
0
220
0
230
1
0
SOLID
5
379
100
AcDbEntity
8
2
62
256
6
ByLayer
370
18
48
1
60
0
100
AcDbTrace
10
0
20
-64.862234
30
0
11
4.174997
21
-63.936659
31
0
12
4.175003
22
-65.787809
32
0
13
4.175003
23
-65.787809
33
0
39
0
210
0
220
0
230
1
0
SOLID
5
37A
100
AcDbEntity
8
2
62
256
6
ByLayer
370
18
48
1
60
0
100
AcDbTrace
10
158
20
-64.862234
30
0
11
153.825003
21
-65.787809
31
0
12
153.824997
22
-63.936659
32
0
13
153.824997
23
-63.936659
33
0
39
0
210
0
220
0
230
1
0
ENDBLK
5
37C
100
AcDbEntity
8
0
100
AcDbBlockEnd
0
BLOCK
5
381
100
AcDbEntity
8
0
100
AcDbBlockBegin
2
*D3
70
1
10
0
20
0
30
0
3
*D3
0
LINE
5
383
100
AcDbEntity
8
0
62
256
6
ByLayer
370
-2
48
1
60
0
100
AcDbLine
10
-56
20
-14.0875
30
0
11
-56
21
-68.037234
31
0
39
0
210
0
220
0
230
1
0
LINE
5
384
100
AcDbEntity
8
0
62
256
6
ByLayer
370
-2
48
1
60
0
100
AcDbLine
10
0
20
-17.5875
30
0
11
0
21
-68.037234
31
0
39
0
210
0
220
0
230
1
0
LINE
5
385
100
AcDbEntity
8
0
62
256
6
ByLayer
370
-2
48
1
60
0
100
AcDbLine
10
-51.825
20
-64.862234
30
0
11
-4.175
21
-64.862234
31
0
39
0
210
0
220
0
230
1
0
SOLID
5
386
100
AcDbEntity
8
0
62
256
6
ByLayer
370
-1
48
1
60
0
100
AcDbTrace
10
-51.825
20
-64.1664
30
0
11
-51.825
21
-65.558067
31
0
12
-56
22
-64.862234
32
0
13
-56
23
-64.862234
33
0
39
0
210
0
220
0
230
1
0
SOLID
5
387
100
AcDbEntity
8
0
62
256
6
ByLayer
370
-1
48
1
60
0
100
AcDbTrace
10
-4.175
20
-65.558067
30
0
11
-4.175
21
-64.1664
31
0
12
0
22
-64.862234
32
0
13
0
23
-64.862234
33
0
39
0
210
0
220
0
230
1
0
MTEXT
5
388
100
AcDbEntity
8
0
62
256
6
ByLayer
370
18
48
1
60
0
100
AcDbMText
10
-28
20
-55.468484
30
0
210
0
220
0
230
1
1
\A1;56
40
4.5
41
0
44
1
50
0
71
5
72
5
7
iso_b_vert
0
POINT
5
389
100
AcDbEntity
8
Defpoints
62
0
6
ByLayer
370
-1
48
1
60
0
100
AcDbPoint
10
-56
20
-12.5
30
0
39
0
210
0
220
0
230
1
50
360
0
POINT
5
38A
100
AcDbEntity
8
Defpoints
62
0
6
ByLayer
370
-1
48
1
60
0
100
AcDbPoint
10
0
20
-16
30
0
39
0
210
0
220
0
230
1
50
360
0
POINT
5
38B
100
AcDbEntity
8
Defpoints
62
0
6
ByLayer
370
-1
48
1
60
0
100
AcDbPoint
10
0
20
-64.862234
30
0
39
0
210
0
220
0
230
1
50
360
0
ENDBLK
5
382
100
AcDbEntity
8
0
100
AcDbBlockEnd
0
BLOCK
5
393
100
AcDbEntity
8
0
100
AcDbBlockBegin
2
_U1
70
0
10
0
20
0
30
0
3
_U1
0
MTEXT
5
38D
100
AcDbEntity
8
SK2
62
256
6
ByLayer
370
18
48
1
60
0
100
AcDbMText
10
-30.449242
20
-63.534562
30
0
210
0
220
0
230
1
1
\W0.6740;56
40
4.5
41
0
44
1.084337
50
0
71
7
72
5
7
iso_b_vert
0
LINE
5
38E
100
AcDbEntity
8
SK2
62
256
6
ByLayer
370
13
48
1
60
0
100
AcDbLine
10
-56
20
-14.0875
30
0
11
-56
21
-68.037234
31
0
39
0
210
0
220
0
230
1
0
LINE
5
38F
100
AcDbEntity
8
SK2
62
256
6
ByLayer
370
13
48
1
60
0
100
AcDbLine
10
0
20
-17.5875
30
0
11
0
21
-68.037234
31
0
39
0
210
0
220
0
230
1
0
LINE
5
390
100
AcDbEntity
8
SK2
62
256
6
ByLayer
370
13
48
1
60
0
100
AcDbLine
10
-56
20
-64.862234
30
0
11
0
21
-64.862234
31
0
39
0
210
0
220
0
230
1
0
SOLID
5
391
100
AcDbEntity
8
SK2
62
256
6
ByLayer
370
18
48
1
60
0
100
AcDbTrace
10
-56
20
-64.862234
30
0
11
-51.825003
21
-63.936659
31
0
12
-51.824997
22
-65.787809
32
0
13
-51.824997
23
-65.787809
33
0
39
0
210
0
220
0
230
1
0
SOLID
5
392
100
AcDbEntity
8
SK2
62
256
6
ByLayer
370
18
48
1
60
0
100
AcDbTrace
10
0
20
-64.862234
30
0
11
-4.174997
21
-65.787809
31
0
12
-4.175003
22
-63.936659
32
0
13
-4.175003
23
-63.936659
33
0
39
0
210
0
220
0
230
1
0
ENDBLK
5
394
100
AcDbEntity
8
0
100
AcDbBlockEnd
0
BLOCK
5
399
100
AcDbEntity
8
0
100
AcDbBlockBegin
2
*D5
70
1
10
0
20
0
30
0
3
*D5
0
LINE
5
39B
100
AcDbEntity
8
0
62
256
6
ByLayer
370
-2
48
1
60
0
100
AcDbLine
10
158
20
-11.0875
30
0
11
158
21
-58.037234
31
0
39
0
210
0
220
0
230
1
0
LINE
5
39C
100
AcDbEntity
8
0
62
256
6
ByLayer
370
-2
48
1
60
0
100
AcDbLine
10
6.0216
20
-17.5875
30
0
11
6.0216
21
-58.037234
31
0
39
0
210
0
220
0
230
1
0
LINE
5
39D
100
AcDbEntity
8
0
62
256
6
ByLayer
370
-2
48
1
60
0
100
AcDbLine
10
153.825
20
-54.862234
30
0
11
10.1966
21
-54.862234
31
0
39
0
210
0
220
0
230
1
0
SOLID
5
39E
100
AcDbEntity
8
0
62
256
6
ByLayer
370
-1
48
1
60
0
100
AcDbTrace
10
153.825
20
-55.558067
30
0
11
153.825
21
-54.1664
31
0
12
158
22
-54.862234
32
0
13
158
23
-54.862234
33
0
39
0
210
0
220
0
230
1
0
SOLID
5
39F
100
AcDbEntity
8
0
62
256
6
ByLayer
370
-1
48
1
60
0
100
AcDbTrace
10
10.1966
20
-54.1664
30
0
11
10.1966
21
-55.558067
31
0
12
6.0216
22
-54.862234
32
0
13
6.0216
23
-54.862234
33
0
39
0
210
0
220
0
230
1
0
MTEXT
5
3A0
100
AcDbEntity
8
0
62
256
6
ByLayer
370
18
48
1
60
0
100
AcDbMText
10
82.0108
20
-45.468484
30
0
210
0
220
0
230
1
1
\A1;152
40
4.5
41
0
44
1
50
0
71
5
72
5
7
iso_b_vert
0
POINT
5
3A1
100
AcDbEntity
8
Defpoints
62
0
6
ByLayer
370
-1
48
1
60
0
100
AcDbPoint
10
158
20
-9.5
30
0
39
0
210
0
220
0
230
1
50
360
0
POINT
5
3A2
100
AcDbEntity
8
Defpoints
62
0
6
ByLayer
370
-1
48
1
60
0
100
AcDbPoint
10
6.0216
20
-16
30
0
39
0
210
0
220
0
230
1
50
360
0
POINT
5
3A3
100
AcDbEntity
8
Defpoints
62
0
6
ByLayer
370
-1
48
1
60
0
100
AcDbPoint
10
6.0216
20
-54.862234
30
0
39
0
210
0
220
0
230
1
50
360
0
ENDBLK
5
39A
100
AcDbEntity
8
0
100
AcDbBlockEnd
0
BLOCK
5
3AB
100
AcDbEntity
8
0
100
AcDbBlockBegin
2
_U2
70
0
10
0
20
0
30
0
3
_U2
0
MTEXT
5
3A5
100
AcDbEntity
8
SK2
62
256
6
ByLayer
370
18
48
1
60
0
100
AcDbMText
10
78.442601
20
-53.534562
30
0
210
0
220
0
230
1
1
\W0.6217;152
40
4.5
41
0
44
1.084337
50
0
71
7
72
5
7
iso_b_vert
0
LINE
5
3A6
100
AcDbEntity
8
SK2
62
256
6
ByLayer
370
13
48
1
60
0
100
AcDbLine
10
158
20
-11.0875
30
0
11
158
21
-58.037234
31
0
39
0
210
0
220
0
230
1
0
LINE
5
3A7
100
AcDbEntity
8
SK2
62
256
6
ByLayer
370
13
48
1
60
0
100
AcDbLine
10
6.0216
20
-17.5875
30
0
11
6.0216
21
-58.037234
31
0
39
0
210
0
220
0
230
1
0
LINE
5
3A8
100
AcDbEntity
8
SK2
62
256
6
ByLayer
370
13
48
1
60
0
100
AcDbLine
10
158
20
-54.862234
30
0
11
6.0216
21
-54.862234
31
0
39
0
210
0
220
0
230
1
0
SOLID
5
3A9
100
AcDbEntity
8
SK2
62
256
6
ByLayer
370
18
48
1
60
0
100
AcDbTrace
10
158
20
-54.862234
30
0
11
153.825003
21
-55.787809
31
0
12
153.824997
22
-53.936659
32
0
13
153.824997
23
-53.936659
33
0
39
0
210
0
220
0
230
1
0
SOLID
5
3AA
100
AcDbEntity
8
SK2
62
256
6
ByLayer
370
18
48
1
60
0
100
AcDbTrace
10
6.0216
20
-54.862234
30
0
11
10.196597
21
-53.936659
31
0
12
10.196603
22
-55.787809
32
0
13
10.196603
23
-55.787809
33
0
39
0
210
0
220
0
230
1
0
ENDBLK
5
3AC
100
AcDbEntity
8
0
100
AcDbBlockEnd
0
BLOCK
5
3B1
100
AcDbEntity
8
0
100
AcDbBlockBegin
2
*D7
70
1
10
0
20
0
30
0
3
*D7
0
LINE
5
3B3
100
AcDbEntity
8
0
62
256
6
ByLayer
370
-2
48
1
60
0
100
AcDbLine
10
22
20
-11.0875
30
0
11
22
21
-48.037234
31
0
39
0
210
0
220
0
230
1
0
LINE
5
3B4
100
AcDbEntity
8
0
62
256
6
ByLayer
370
-2
48
1
60
0
100
AcDbLine
10
158
20
-11.0875
30
0
11
158
21
-48.037234
31
0
39
0
210
0
220
0
230
1
0
LINE
5
3B5
100
AcDbEntity
8
0
62
256
6
ByLayer
370
-2
48
1
60
0
100
AcDbLine
10
26.175
20
-44.862234
30
0
11
153.825
21
-44.862234
31
0
39
0
210
0
220
0
230
1
0
SOLID
5
3B6
100
AcDbEntity
8
0
62
256
6
ByLayer
370
-1
48
1
60
0
100
AcDbTrace
10
26.175
20
-44.1664
30
0
11
26.175
21
-45.558067
31
0
12
22
22
-44.862234
32
0
13
22
23
-44.862234
33
0
39
0
210
0
220
0
230
1
0
SOLID
5
3B7
100
AcDbEntity
8
0
62
256
6
ByLayer
370
-1
48
1
60
0
100
AcDbTrace
10
153.825
20
-45.558067
30
0
11
153.825
21
-44.1664
31
0
12
158
22
-44.862234
32
0
13
158
23
-44.862234
33
0
39
0
210
0
220
0
230
1
0
MTEXT
5
3B8
100
AcDbEntity
8
0
62
256
6
ByLayer
370
18
48
1
60
0
100
AcDbMText
10
90
20
-35.468484
30
0
210
0
220
0
230
1
1
\A1;136
40
4.5
41
0
44
1
50
0
71
5
72
5
7
iso_b_vert
0
POINT
5
3B9
100
AcDbEntity
8
Defpoints
62
0
6
ByLayer
370
-1
48
1
60
0
100
AcDbPoint
10
22
20
-9.5
30
0
39
0
210
0
220
0
230
1
50
360
0
POINT
5
3BA
100
AcDbEntity
8
Defpoints
62
0
6
ByLayer
370
-1
48
1
60
0
100
AcDbPoint
10
158
20
-9.5
30
0
39
0
210
0
220
0
230
1
50
360
0
POINT
5
3BB
100
AcDbEntity
8
Defpoints
62
0
6
ByLayer
370
-1
48
1
60
0
100
AcDbPoint
10
158
20
-44.862234
30
0
39
0
210
0
220
0
230
1
50
360
0
ENDBLK
5
3B2
100
AcDbEntity
8
0
100
AcDbBlockEnd
0
BLOCK
5
3C3
100
AcDbEntity
8
0
100
AcDbBlockBegin
2
_U3
70
0
10
0
20
0
30
0
3
_U3
0
MTEXT
5
3BD
100
AcDbEntity
8
SK2
62
256
6
ByLayer
370
18
48
1
60
0
100
AcDbMText
10
86.431801
20
-43.534562
30
0
210
0
220
0
230
1
1
\W0.6217;136
40
4.5
41
0
44
1.084337
50
0
71
7
72
5
7
iso_b_vert
0
LINE
5
3BE
100
AcDbEntity
8
SK2
62
256
6
ByLayer
370
13
48
1
60
0
100
AcDbLine
10
22
20
-11.0875
30
0
11
22
21
-48.037234
31
0
39
0
210
0
220
0
230
1
0
LINE
5
3BF
100
AcDbEntity
8
SK2
62
256
6
ByLayer
370
13
48
1
60
0
100
AcDbLine
10
158
20
-11.0875
30
0
11
158
21
-48.037234
31
0
39
0
210
0
220
0
230
1
0
LINE
5
3C0
100
AcDbEntity
8
SK2
62
256
6
ByLayer
370
13
48
1
60
0
100
AcDbLine
10
22
20
-44.862234
30
0
11
158
21
-44.862234
31
0
39
0
210
0
220
0
230
1
0
SOLID
5
3C1
100
AcDbEntity
8
SK2
62
256
6
ByLayer
370
18
48
1
60
0
100
AcDbTrace
10
22
20
-44.862234
30
0
11
26.174997
21
-43.936659
31
0
12
26.175003
22
-45.787809
32
0
13
26.175003
23
-45.787809
33
0
39
0
210
0
220
0
230
1
0
SOLID
5
3C2
100
AcDbEntity
8
SK2
62
256
6
ByLayer
370
18
48
1
60
0
100
AcDbTrace
10
158
20
-44.862234
30
0
11
153.825003
21
-45.787809
31
0
12
153.824997
22
-43.936659
32
0
13
153.824997
23
-43.936659
33
0
39
0
210
0
220
0
230
1
0
ENDBLK
5
3C4
100
AcDbEntity
8
0
100
AcDbBlockEnd
0
BLOCK
5
3C9
100
AcDbEntity
8
0
100
AcDbBlockBegin
2
*D9
70
1
10
0
20
0
30
0
3
*D9
0
LINE
5
3CB
100
AcDbEntity
8
0
62
256
6
ByLayer
370
-2
48
1
60
0
100
AcDbLine
10
157.4423
20
-6.3375
30
0
11
157.4423
21
-38.037234
31
0
39
0
210
0
220
0
230
1
0
LINE
5
3CC
100
AcDbEntity
8
0
62
256
6
ByLayer
370
-2
48
1
60
0
100
AcDbLine
10
158
20
-1.5875
30
0
11
158
21
-38.037234
31
0
39
0
210
0
220
0
230
1
0
LINE
5
3CD
100
AcDbEntity
8
0
62
256
6
ByLayer
370
-2
48
1
60
0
100
AcDbLine
10
158
20
-34.862234
30
0
11
194.351786
21
-34.862234
31
0
39
0
210
0
220
0
230
1
0
LINE
5
3CE
100
AcDbEntity
8
0
62
256
6
ByLayer
370
-2
48
1
60
0
100
AcDbLine
10
153.2673
20
-34.862234
30
0
11
149.0923
21
-34.862234
31
0
39
0
210
0
220
0
230
1
0
LINE
5
3CF
100
AcDbEntity
8
0
62
256
6
ByLayer
370
-2
48
1
60
0
100
AcDbLine
10
162.175
20
-34.862234
30
0
11
166.35
21
-34.862234
31
0
39
0
210
0
220
0
230
1
0
SOLID
5
3D0
100
AcDbEntity
8
0
62
256
6
ByLayer
370
-1
48
1
60
0
100
AcDbTrace
10
153.2673
20
-35.558067
30
0
11
153.2673
21
-34.1664
31
0
12
157.4423
22
-34.862234
32
0
13
157.4423
23
-34.862234
33
0
39
0
210
0
220
0
230
1
0
SOLID
5
3D1
100
AcDbEntity
8
0
62
256
6
ByLayer
370
-1
48
1
60
0
100
AcDbTrace
10
162.175
20
-34.1664
30
0
11
162.175
21
-35.558067
31
0
12
158
22
-34.862234
32
0
13
158
23
-34.862234
33
0
39
0
210
0
220
0
230
1
0
MTEXT
5
3D2
100
AcDbEntity
8
0
62
256
6
ByLayer
370
18
48
1
60
0
100
AcDbMText
10
180.350893
20
-25.468484
30
0
210
0
220
0
230
1
1
\A1;0.56
40
4.5
41
0
44
1
50
0
71
5
72
5
7
iso_b_vert
0
POINT
5
3D3
100
AcDbEntity
8
Defpoints
62
0
6
ByLayer
370
-1
48
1
60
0
100
AcDbPoint
10
157.4423
20
-4.75
30
0
39
0
210
0
220
0
230
1
50
360
0
POINT
5
3D4
100
AcDbEntity
8
Defpoints
62
0
6
ByLayer
370
-1
48
1
60
0
100
AcDbPoint
10
158
20
0
30
0
39
0
210
0
220
0
230
1
50
360
0
POINT
5
3D5
100
AcDbEntity
8
Defpoints
62
0
6
ByLayer
370
-1
48
1
60
0
100
AcDbPoint
10
158
20
-34.862234
30
0
39
0
210
0
220
0
230
1
50
360
0
ENDBLK
5
3CA
100
AcDbEntity
8
0
100
AcDbBlockEnd
0
BLOCK
5
3DD
100
AcDbEntity
8
0
100
AcDbBlockBegin
2
_U4
70
0
10
0
20
0
30
0
3
_U4
0
MTEXT
5
3D7
100
AcDbEntity
8
2
62
256
6
ByLayer
370
18
48
1
60
0
100
AcDbMText
10
170.351
20
-33.534562
30
0
210
0
220
0
230
1
1
\W0.7346;0.56
40
4.5
41
0
44
1.084337
50
0
71
7
72
5
7
iso_b_vert
0
LINE
5
3D8
100
AcDbEntity
8
2
62
256
6
ByLayer
370
13
48
1
60
0
100
AcDbLine
10
157.4423
20
-6.3375
30
0
11
157.4423
21
-38.037234
31
0
39
0
210
0
220
0
230
1
0
LINE
5
3D9
100
AcDbEntity
8
2
62
256
6
ByLayer
370
13
48
1
60
0
100
AcDbLine
10
158
20
-1.5875
30
0
11
158
21
-38.037234
31
0
39
0
210
0
220
0
230
1
0
LINE
5
3DA
100
AcDbEntity
8
2
62
256
6
ByLayer
370
13
48
1
60
0
100
AcDbLine
10
180.673869
20
-34.862234
30
0
11
146.1923
21
-34.862234
31
0
39
0
210
0
220
0
230
1
0
SOLID
5
3DB
100
AcDbEntity
8
2
62
256
6
ByLayer
370
18
48
1
60
0
100
AcDbTrace
10
157.4423
20
-34.862234
30
0
11
153.267303
21
-35.787809
31
0
12
153.267297
22
-33.936659
32
0
13
153.267297
23
-33.936659
33
0
39
0
210
0
220
0
230
1
0
SOLID
5
3DC
100
AcDbEntity
8
2
62
256
6
ByLayer
370
18
48
1
60
0
100
AcDbTrace
10
158
20
-34.862234
30
0
11
162.174997
21
-33.936659
31
0
12
162.175003
22
-35.787809
32
0
13
162.175003
23
-35.787809
33
0
39
0
210
0
220
0
230
1
0
ENDBLK
5
3DE
100
AcDbEntity
8
0
100
AcDbBlockEnd
0
ENDSEC
0
SECTION
2
ENTITIES
0
ARC
5
18E
100
AcDbEntity
8
SK1
62
256
6
ByLayer
370
13
48
1
60
0
100
AcDbCircle
39
0
10
-53.894505
20
-12.8967
30
0
40
0.800000000000004
210
0
220
0
230
1
100
AcDbArc
50
70.982
51
141
0
ARC
5
18F
100
AcDbEntity
8
SK1
62
256
6
ByLayer
370
13
48
1
60
0
100
AcDbCircle
39
0
10
-53.894505
20
12.8967
30
0
40
0.800000000000004
210
0
220
0
230
1
100
AcDbArc
50
219
51
289.018
0
ARC
5
190
100
AcDbEntity
8
SK1
62
256
6
ByLayer
370
13
48
1
60
0
100
AcDbCircle
39
0
10
-0.15
20
12.64675
30
0
40
0.400000000000002
210
0
220
0
230
1
100
AcDbArc
50
270
51
292.024313
0
ARC
5
191
100
AcDbEntity
8
SK1
62
256
6
ByLayer
370
13
48
1
60
0
100
AcDbCircle
39
0
10
-0.15
20
-12.64675
30
0
40
0.400000000000002
210
0
220
0
230
1
100
AcDbArc
50
67.975687
51
90
0
ARC
5
192
100
AcDbEntity
8
SK1
62
256
6
ByLayer
370
13
48
1
60
0
100
AcDbCircle
39
0
10
-1.375195
20
12.64675
30
0
40
0.400000000000001
210
0
220
0
230
1
100
AcDbArc
50
245
51
270
0
ARC
5
193
100
AcDbEntity
8
SK1
62
256
6
ByLayer
370
13
48
1
60
0
100
AcDbCircle
39
0
10
-1.375195
20
-12.64675
30
0
40
0.400000000000001
210
0
220
0
230
1
100
AcDbArc
50
90
51
115
0
ARC
5
194
100
AcDbEntity
8
1
62
256
6
ByLayer
370
13
48
1
60
0
100
AcDbCircle
39
0
10
156.047632
20
8.792653
30
0
40
0.1
210
0
220
0
230
1
100
AcDbArc
50
8.974534
51
93
0
ARC
5
195
100
AcDbEntity
8
1
62
256
6
ByLayer
370
13
48
1
60
0
100
AcDbCircle
39
0
10
156.08906
20
3.541819
30
0
40
0.1
210
0
220
0
230
1
100
AcDbArc
50
273
51
352.543899
0
ARC
5
196
100
AcDbEntity
8
1
62
256
6
ByLayer
370
13
48
1
60
0
100
AcDbCircle
39
0
10
150.075302
20
8.365361
30
0
40
0.1
210
0
220
0
230
1
100
AcDbArc
50
71.611938
51
93
0
ARC
5
197
100
AcDbEntity
8
1
62
256
6
ByLayer
370
13
48
1
60
0
100
AcDbCircle
39
0
10
150.116729
20
3.114527
30
0
40
0.1
210
0
220
0
230
1
100
AcDbArc
50
273
51
303.659979
0
ELLIPSE
5
198
100
AcDbEntity
8
1
62
256
6
ByLayer
370
13
48
1
60
0
100
AcDbEllipse
10
148.798198
20
8.199595
30
0
11
-0.0436352238253478
21
-0.256157131820684
31
0
210
0
220
0
230
1
40
0.958209
41
-2.83654843614282
42
-1.53052250837548
0
ELLIPSE
5
199
100
AcDbEntity
8
1
62
256
6
ByLayer
370
13
48
1
60
0
100
AcDbEllipse
10
156.047632
20
8.792653
30
0
11
-0.0554263173694304
21
0.0832341476971031
31
0
210
0
220
0
230
1
40
0.079546
41
-1.6179174222715
42
-0.0471210954283364
0
ELLIPSE
5
19A
100
AcDbEntity
8
1
62
256
6
ByLayer
370
13
48
1
60
0
100
AcDbEllipse
10
156.727178
20
9.280675
30
0
11
-0.00247703513348025
21
0.149979546261974
31
0
210
0
220
0
230
1
40
0.092312
41
0.00331037239777945
42
1.5741066991944
0
ELLIPSE
5
19B
100
AcDbEntity
8
1
62
256
6
ByLayer
370
13
48
1
60
0
100
AcDbEllipse
10
157.3604
20
3.698253
30
0
11
0.00785039343644122
21
-0.149794430213184
31
0
210
0
220
0
230
1
40
0.995725
41
0.095993108859345
42
1.38753675533548
0
ELLIPSE
5
19C
100
AcDbEntity
8
1
62
256
6
ByLayer
370
13
48
1
60
0
100
AcDbEllipse
10
150.317313
20
5.644992
30
0
11
-0.0366351693700592
21
0.699040674328174
31
0
210
0
220
0
230
1
40
0.995725
41
1.38753675533551
42
1.6755160819146
0
ELLIPSE
5
19D
100
AcDbEntity
8
1
62
256
6
ByLayer
370
13
48
1
60
0
100
AcDbEllipse
10
156.581117
20
9.224933
30
0
11
0.0104671912485885
21
-0.199725906950916
31
0
210
0
220
0
230
1
40
0.995725
41
3.13286600732981
42
-2.19332842139613
0
ELLIPSE
5
19E
100
AcDbEntity
8
1
62
256
6
ByLayer
370
13
48
1
60
0
100
AcDbEllipse
10
155.666179
20
10.169603
30
0
11
-1.60310663426828
21
-1.23532020654365
31
0
210
0
220
0
230
1
40
0.479614
41
1.50478182434413
42
1.55549013799342
0
ELLIPSE
5
19F
100
AcDbEntity
8
1
62
256
6
ByLayer
370
13
48
1
60
0
100
AcDbEllipse
10
156.223637
20
8.954862
30
0
11
0.00523359562429374
21
-0.0998629534754484
31
0
210
0
220
0
230
1
40
0.995725
41
-2.45974164378499
42
-1.46607657167588
0
ELLIPSE
5
1A0
100
AcDbEntity
8
1
62
256
6
ByLayer
370
13
48
1
60
0
100
AcDbEllipse
10
155.582478
20
2.004032
30
0
11
-0.0732703387401215
21
1.3980813486564
31
0
210
0
220
0
230
1
40
0.995725
41
-0.496200779837839
42
-3.67628001253193E-13
0
ELLIPSE
5
1A1
100
AcDbEntity
8
1
62
256
6
ByLayer
370
13
48
1
60
0
100
AcDbEllipse
10
155.15594
20
10.142863
30
0
11
-0.0732703387401217
21
1.39808134865641
31
0
210
0
220
0
230
1
40
0.995725
41
3.14159265358941
42
-2.19332842139618
0
ELLIPSE
5
1A2
100
AcDbEntity
8
1
62
256
6
ByLayer
370
13
48
1
60
0
100
AcDbEllipse
10
149.481387
20
5.512212
30
0
11
-0.148163665863161
21
-0.0233993187505451
31
0
210
0
220
0
230
1
40
0.009655
41
-3.04959407911989
42
-1.47879775232128
0
ELLIPSE
5
1A3
100
AcDbEntity
8
1
62
256
6
ByLayer
370
13
48
1
60
0
100
AcDbEllipse
10
148.693781
20
5.623466
30
0
11
-0.0130839890607362
21
0.249657383688647
31
0
210
0
220
0
230
1
40
0.995725
41
1.38753675533548
42
1.67551608191459
0
ELLIPSE
5
1A4
100
AcDbEntity
8
1
62
256
6
ByLayer
370
13
48
1
60
0
100
AcDbEllipse
10
157.694331
20
6.249818
30
0
11
0.148731686424787
21
-0.0194649801756591
31
0
210
0
220
0
230
1
40
0.016833
41
-1.66175841710529
42
-0.0909620903102276
0
ELLIPSE
5
1A5
100
AcDbEntity
8
1
62
256
6
ByLayer
370
13
48
1
60
0
100
AcDbEllipse
10
152.953696
20
8.405225
30
0
11
0.00523359562429422
21
-0.0998629534754574
31
0
210
0
220
0
230
1
40
0.092371
41
1.5707963267949
42
3.14159265358979
0
ELLIPSE
5
1A6
100
AcDbEntity
8
1
62
256
6
ByLayer
370
13
48
1
60
0
100
AcDbEllipse
10
155.279102
20
10.149318
30
0
11
-1.27269738797504
21
-1.09871759087941
31
0
210
0
220
0
230
1
40
0.713274
41
1.23963919587388
42
1.64467702025934
0
ELLIPSE
5
1A7
100
AcDbEntity
8
1
62
256
6
ByLayer
370
13
48
1
60
0
100
AcDbEllipse
10
148.740906
20
8.610891
30
0
11
-0.0436352238277963
21
-0.256157131820165
31
0
210
0
220
0
230
1
40
0.958209
41
-2.83654843613445
42
-1.53052250836627
0
ELLIPSE
5
1A8
100
AcDbEntity
8
1
62
256
6
ByLayer
370
13
48
1
60
0
100
AcDbEllipse
10
149.127793
20
2.875322
30
0
11
-0.0130839890607371
21
0.249657383688665
31
0
210
0
220
0
230
1
40
0.995725
41
1.67551608191458
42
3.07256533766217
0
ELLIPSE
5
1A9
100
AcDbEntity
8
1
62
256
6
ByLayer
370
13
48
1
60
0
100
AcDbEllipse
10
151.008422
20
1.764316
30
0
11
-0.0732703387401217
21
1.39808134865641
31
0
210
0
220
0
230
1
40
0.995725
41
0
42
0.948264232194336
0
ELLIPSE
5
1AA
100
AcDbEntity
8
1
62
256
6
ByLayer
370
13
48
1
60
0
100
AcDbEllipse
10
157.013508
20
9.030648
30
0
11
0.020934382497178
21
-0.399451813901851
31
0
210
0
220
0
230
1
40
0.995725
41
1.67551608191454
42
3.07256533766194
0
ELLIPSE
5
1AB
100
AcDbEntity
8
1
62
256
6
ByLayer
370
13
48
1
60
0
100
AcDbEllipse
10
150.33115
20
5.645717
30
0
11
-0.0314015737457649
21
0.599177720852717
31
0
210
0
220
0
230
1
40
0.995725
41
1.38753675533552
42
1.67551608191457
0
ELLIPSE
5
1AC
100
AcDbEntity
8
1
62
256
6
ByLayer
370
13
48
1
60
0
100
AcDbEllipse
10
154.879208
20
10.12836
30
0
11
0.0732703387401189
21
-1.3980813486564
31
0
210
0
220
0
230
1
40
0.995725
41
0
42
0.496200779837138
0
ELLIPSE
5
1AD
100
AcDbEntity
8
1
62
256
6
ByLayer
370
13
48
1
60
0
100
AcDbEllipse
10
150.18199
20
9.88219
30
0
11
-1.38057267989612
21
0.959665598853098
31
0
210
0
220
0
230
1
40
0.713274
41
1.49691563336162
42
1.90195345773081
0
ELLIPSE
5
1AE
100
AcDbEntity
8
1
62
256
6
ByLayer
370
13
48
1
60
0
100
AcDbEllipse
10
151.008422
20
1.764316
30
0
11
-0.0785039343644162
21
1.49794430213187
31
0
210
0
220
0
230
1
40
0.995725
41
0.681851009804929
42
0.948264232194374
0
ELLIPSE
5
1AF
100
AcDbEntity
8
1
62
256
6
ByLayer
370
13
48
1
60
0
100
AcDbEllipse
10
156.860508
20
0.531235
30
0
11
-0.457939617125759
21
8.73800842910252
31
0
210
0
220
0
230
1
40
0.995725
41
-0.0690273159278878
42
-0.0356924391917528
0
ELLIPSE
5
1B0
100
AcDbEntity
8
1
62
256
6
ByLayer
370
13
48
1
60
0
100
AcDbEllipse
10
153.091405
20
5.954073
30
0
11
0.0876992016580922
21
-1.67340045424275
31
0
210
0
220
0
230
1
40
0.995725
41
0
42
6.28318530717959
0
ELLIPSE
5
1B1
100
AcDbEntity
8
1
62
256
6
ByLayer
370
13
48
1
60
0
100
AcDbEllipse
10
156.874345
20
0.53196
30
0
11
0.465790010562185
21
-8.88780285931571
31
0
210
0
220
0
230
1
40
0.995725
41
3.0725653376619
42
3.10590021439804
0
ELLIPSE
5
1B2
100
AcDbEntity
8
1
62
256
6
ByLayer
370
13
48
1
60
0
100
AcDbEllipse
10
150.989973
20
1.763349
30
0
11
0.0863543278008553
21
-1.64773873234506
31
0
210
0
220
0
230
1
40
0.995725
41
-2.44322184791082
42
-2.19332842139575
0
ELLIPSE
5
1B3
100
AcDbEntity
8
1
62
256
6
ByLayer
370
13
48
1
60
0
100
AcDbEllipse
10
149.936112
20
2.952076
30
0
11
0.00523359562429374
21
-0.0998629534754484
31
0
210
0
220
0
230
1
40
0.995725
41
0.681851009805266
42
1.67551608191563
0
ELLIPSE
5
1B4
100
AcDbEntity
8
1
62
256
6
ByLayer
370
13
48
1
60
0
100
AcDbEllipse
10
150.075302
20
8.365361
30
0
11
-0.0315451332107597
21
-0.0948941756416875
31
0
210
0
220
0
230
1
40
0.086058
41
1.60448866453544
42
-3.10790031585117
0
ELLIPSE
5
1B5
100
AcDbEntity
8
1
62
256
6
ByLayer
370
13
48
1
60
0
100
AcDbEllipse
10
149.729577
20
5.723682
30
0
11
-0.0991544576165244
21
0.0129766534504419
31
0
210
0
220
0
230
1
40
0.016833
41
-1.66175841710548
42
-0.0909620903105779
0
ELLIPSE
5
1B6
100
AcDbEntity
8
1
62
256
6
ByLayer
370
13
48
1
60
0
100
AcDbEllipse
10
155.182585
20
1.983075
30
0
11
-1.13371805621785
21
-1.1799481465497
31
0
210
0
220
0
230
1
40
0.704685
41
2.88504843520564
42
-2.99309904757786
0
ELLIPSE
5
1B7
100
AcDbEntity
8
1
62
256
6
ByLayer
370
13
48
1
60
0
100
AcDbEllipse
10
157.3604
20
3.698253
30
0
11
0.148731686424787
21
-0.0194649801756591
31
0
210
0
220
0
230
1
40
0.016833
41
-1.66175841710548
42
-0.0909620903112785
0
ELLIPSE
5
1B8
100
AcDbEntity
8
1
62
256
6
ByLayer
370
13
48
1
60
0
100
AcDbEllipse
10
149.819189
20
8.361978
30
0
11
-0.157303252992357
21
-0.0460731444196956
31
0
210
0
220
0
230
1
40
0.019548
41
-3.05924451048349
42
-1.48844818373117
0
ELLIPSE
5
1B9
100
AcDbEntity
8
1
62
256
6
ByLayer
370
13
48
1
60
0
100
AcDbEllipse
10
149.266956
20
11.374011
30
0
11
-0.457939617125759
21
8.73800842910252
31
0
210
0
220
0
230
1
40
0.995725
41
3.0725653376619
42
3.10590021439803
0
ELLIPSE
5
1BA
100
AcDbEntity
8
1
62
256
6
ByLayer
370
13
48
1
60
0
100
AcDbEllipse
10
149.583245
20
2.682246
30
0
11
0.0104671912485885
21
-0.199725906950916
31
0
210
0
220
0
230
1
40
0.995725
41
-0.00872664625912572
42
0.948264232194542
0
ELLIPSE
5
1BB
100
AcDbEntity
8
1
62
256
6
ByLayer
370
13
48
1
60
0
100
AcDbEllipse
10
155.851661
20
6.262429
30
0
11
-0.0314015737457649
21
0.599177720852717
31
0
210
0
220
0
230
1
40
0.995725
41
-1.75405589825427
42
-1.46607657167522
0
ELLIPSE
5
1BC
100
AcDbEntity
8
1
62
256
6
ByLayer
370
13
48
1
60
0
100
AcDbEllipse
10
157.018121
20
9.03089
30
0
11
0.020934382497178
21
-0.399451813901851
31
0
210
0
220
0
230
1
40
0.995725
41
1.67551608191418
42
3.07256533766158
0
ELLIPSE
5
1BD
100
AcDbEntity
8
1
62
256
6
ByLayer
370
13
48
1
60
0
100
AcDbEllipse
10
155.842437
20
6.261946
30
0
11
0.0366351693700581
21
-0.699040674328174
31
0
210
0
220
0
230
1
40
0.995725
41
1.38753675533551
42
1.67551608191456
0
ELLIPSE
5
1BE
100
AcDbEntity
8
1
62
256
6
ByLayer
370
13
48
1
60
0
100
AcDbEllipse
10
149.940724
20
2.952317
30
0
11
0.00523359562429374
21
-0.0998629534754484
31
0
210
0
220
0
230
1
40
0.995725
41
0.681851009805632
42
1.67551608191448
0
ELLIPSE
5
1BF
100
AcDbEntity
8
1
62
256
6
ByLayer
370
13
48
1
60
0
100
AcDbEllipse
10
149.194214
20
8.812558
30
0
11
-0.42253282158636
21
0.260117697410212
31
0
210
0
220
0
230
1
40
0.479615
41
-1.55549009581473
42
-0.926801202901259
0
ELLIPSE
5
1C0
100
AcDbEntity
8
1
62
256
6
ByLayer
370
13
48
1
60
0
100
AcDbEllipse
10
154.795507
20
1.962788
30
0
11
-1.58689230250233
21
-1.24226493360253
31
0
210
0
220
0
230
1
40
0.477355
41
2.79074239722641
42
2.84145066958805
0
ELLIPSE
5
1C1
100
AcDbEntity
8
1
62
256
6
ByLayer
370
13
48
1
60
0
100
AcDbEllipse
10
157.365012
20
3.698494
30
0
11
0.00785039343644122
21
-0.149794430213184
31
0
210
0
220
0
230
1
40
0.995725
41
0.0959931088595256
42
1.38753675533509
0
ELLIPSE
5
1C2
100
AcDbEntity
8
1
62
256
6
ByLayer
370
13
48
1
60
0
100
AcDbEllipse
10
156.562669
20
9.223966
30
0
11
-0.00261679781214725
21
0.0499314767377297
31
0
210
0
220
0
230
1
40
0.995725
41
-0.00872664625926942
42
0.948264232194541
0
ELLIPSE
5
1C3
100
AcDbEntity
8
1
62
256
6
ByLayer
370
13
48
1
60
0
100
AcDbEllipse
10
151.00381
20
1.764075
30
0
11
-0.0785039343644162
21
1.49794430213187
31
0
210
0
220
0
230
1
40
0.995725
41
0.681851009804574
42
0.948264232194024
0
ELLIPSE
5
1C4
100
AcDbEntity
8
1
62
256
6
ByLayer
370
13
48
1
60
0
100
AcDbEllipse
10
149.478153
20
5.756127
30
0
11
-0.148731686424787
21
0.0194649801756628
31
0
210
0
220
0
230
1
40
0.016833
41
1.47983423648432
42
3.05063056328133
0
ELLIPSE
5
1C5
100
AcDbEntity
8
1
62
256
6
ByLayer
370
13
48
1
60
0
100
AcDbEllipse
10
149.285405
20
11.374977
30
0
11
0.465790010562185
21
-8.88780285931571
31
0
210
0
220
0
230
1
40
0.995725
41
-0.0690273159275444
42
-0.0356924391914103
0
ELLIPSE
5
1C6
100
AcDbEntity
8
1
62
256
6
ByLayer
370
13
48
1
60
0
100
AcDbEllipse
10
157.3604
20
3.698253
30
0
11
-0.0222321776353618
21
0.148343285246046
31
0
210
0
220
0
230
1
40
0.091945
41
1.56190521945469
42
3.13270154624631
0
ELLIPSE
5
1C7
100
AcDbEntity
8
1
62
256
6
ByLayer
370
13
48
1
60
0
100
AcDbEllipse
10
150.581884
20
9.903147
30
0
11
-0.0732703387401215
21
1.3980813486564
31
0
210
0
220
0
230
1
40
0.995725
41
2.64539187375266
42
-3.14159265358941
0
ELLIPSE
5
1C8
100
AcDbEntity
8
1
62
256
6
ByLayer
370
13
48
1
60
0
100
AcDbEllipse
10
157.433683
20
6.28178
30
0
11
-0.0130839890607362
21
0.249657383688647
31
0
210
0
220
0
230
1
40
0.995725
41
-1.75405589825431
42
-1.46607657167521
0
ELLIPSE
5
1C9
100
AcDbEntity
8
1
62
256
6
ByLayer
370
13
48
1
60
0
100
AcDbEllipse
10
149.819189
20
8.361978
30
0
11
-0.0435852065188992
21
-0.158111345874712
31
0
210
0
220
0
230
1
40
0.080185
41
-3.11490714532428
42
-1.54411081860744
0
ELLIPSE
5
1CA
100
AcDbEntity
8
1
62
256
6
ByLayer
370
13
48
1
60
0
100
AcDbEllipse
10
149.794913
20
9.861903
30
0
11
-1.72345108202768
21
1.06098293106341
31
0
210
0
220
0
230
1
40
0.479615
41
1.58610252984352
42
1.63681083410202
0
ELLIPSE
5
1CB
100
AcDbEntity
8
1
62
256
6
ByLayer
370
13
48
1
60
0
100
AcDbEllipse
10
155.823988
20
6.260979
30
0
11
0.0444855628064994
21
-0.84883510454136
31
0
210
0
220
0
230
1
40
0.995725
41
1.38753675533551
42
1.67551608191458
0
ELLIPSE
5
1CC
100
AcDbEntity
8
1
62
256
6
ByLayer
370
13
48
1
60
0
100
AcDbEllipse
10
155.444112
20
1.996781
30
0
11
-0.0732703387401215
21
1.3980813486564
31
0
210
0
220
0
230
1
40
0.995725
41
-0.901238604216661
42
-0.8975559423355
0
ELLIPSE
5
1CD
100
AcDbEntity
8
1
62
256
6
ByLayer
370
13
48
1
60
0
100
AcDbEllipse
10
150.321925
20
5.645234
30
0
11
0.0366351693700581
21
-0.699040674328174
31
0
210
0
220
0
230
1
40
0.995725
41
-1.75405589825428
42
-1.46607657167523
0
ELLIPSE
5
1CE
100
AcDbEntity
8
1
62
256
6
ByLayer
370
13
48
1
60
0
100
AcDbEllipse
10
149.881773
20
8.421464
30
0
11
0.00523359562429507
21
-0.0998629534754736
31
0
210
0
220
0
230
1
40
0.995725
41
1.38753675533609
42
-3.04559954472989
0
ELLIPSE
5
1CF
100
AcDbEntity
8
1
62
256
6
ByLayer
370
13
48
1
60
0
100
AcDbEllipse
10
155.305746
20
1.98953
30
0
11
0.0732703387401194
21
-1.39808134865641
31
0
210
0
220
0
230
1
40
0.995725
41
2.19332842139543
42
3.14159265358941
0
ELLIPSE
5
1D0
100
AcDbEntity
8
1
62
256
6
ByLayer
370
13
48
1
60
0
100
AcDbEllipse
10
156.680212
20
9.279263
30
0
11
-0.00653729335064158
21
0.149857478277354
31
0
210
0
220
0
230
1
40
0.092367
41
0.000809536045656042
42
1.57160586284002
0
ELLIPSE
5
1D1
100
AcDbEntity
8
1
62
256
6
ByLayer
370
13
48
1
60
0
100
AcDbEllipse
10
150.075302
20
8.365361
30
0
11
0.0991544576165247
21
-0.0129766534504395
31
0
210
0
220
0
230
1
40
0.016833
41
1.47983423648715
42
3.05063056327922
0
ELLIPSE
5
1D2
100
AcDbEntity
8
1
62
256
6
ByLayer
370
13
48
1
60
0
100
AcDbEllipse
10
150.303477
20
5.644267
30
0
11
0.0444855628064994
21
-0.84883510454136
31
0
210
0
220
0
230
1
40
0.995725
41
-1.75405589825429
42
-1.46607657167522
0
ELLIPSE
5
1D3
100
AcDbEntity
8
1
62
256
6
ByLayer
370
13
48
1
60
0
100
AcDbEllipse
10
157.366164
20
3.707584
30
0
11
-0.0436352238243517
21
-0.256157131820944
31
0
210
0
220
0
230
1
40
0.958209
41
0.305044217442994
42
1.61107014521014
0
ELLIPSE
5
1D4
100
AcDbEntity
8
1
62
256
6
ByLayer
370
13
48
1
60
0
100
AcDbEllipse
10
148.79935
20
8.208685
30
0
11
0.00785039343644122
21
-0.149794430213184
31
0
210
0
220
0
230
1
40
0.995725
41
-3.04559954472971
42
-1.75405589825393
0
ELLIPSE
5
1D5
100
AcDbEntity
8
1
62
256
6
ByLayer
370
13
48
1
60
0
100
AcDbEllipse
10
155.137491
20
10.141896
30
0
11
0.0863543278008553
21
-1.64773873234506
31
0
210
0
220
0
230
1
40
0.995725
41
0.698370805678997
42
0.948264232194029
0
ELLIPSE
5
1D6
100
AcDbEntity
8
1
62
256
6
ByLayer
370
13
48
1
60
0
100
AcDbEllipse
10
157.452132
20
6.282746
30
0
11
0.020934382497177
21
-0.399451813901833
31
0
210
0
220
0
230
1
40
0.995725
41
1.38753675533505
42
1.67551608191419
0
ELLIPSE
5
1D7
100
AcDbEntity
8
1
62
256
6
ByLayer
370
13
48
1
60
0
100
AcDbEllipse
10
156.574322
20
9.274644
30
0
11
-0.00653729335064158
21
0.149857478277354
31
0
210
0
220
0
230
1
40
0.092367
41
0.000809536043604682
42
1.57160586284002
0
ELLIPSE
5
1D8
100
AcDbEntity
8
1
62
256
6
ByLayer
370
13
48
1
60
0
100
AcDbEllipse
10
156.08906
20
3.541819
30
0
11
0.0315451332107429
21
0.094894175641693
31
0
210
0
220
0
230
1
40
0.086058
41
-3.10790031584786
42
-1.53710398905378
0
ELLIPSE
5
1D9
100
AcDbEntity
8
1
62
256
6
ByLayer
370
13
48
1
60
0
100
AcDbEllipse
10
156.742775
20
7.530207
30
0
11
-0.091587923425152
21
1.74760168582051
31
0
210
0
220
0
230
1
40
0.995725
41
-0.0356924391916967
42
-0.00872664625995549
0
ELLIPSE
5
1DA
100
AcDbEntity
8
1
62
256
6
ByLayer
370
13
48
1
60
0
100
AcDbEllipse
10
149.73186
20
5.551507
30
0
11
-0.0987757772421073
21
-0.0155995458336967
31
0
210
0
220
0
230
1
40
0.009655
41
0.0919985744735827
42
1.66279490126951
0
ELLIPSE
5
1DB
100
AcDbEntity
8
1
62
256
6
ByLayer
370
13
48
1
60
0
100
AcDbEllipse
10
155.15594
20
10.142863
30
0
11
-0.0785039343644162
21
1.49794430213187
31
0
210
0
220
0
230
1
40
0.995725
41
-2.45974164378559
42
-2.19332842139614
0
ELLIPSE
5
1DC
100
AcDbEntity
8
1
62
256
6
ByLayer
370
13
48
1
60
0
100
AcDbEllipse
10
149.547
20
2.70559
30
0
11
0.017963442522435
21
-0.342762902152742
31
0
210
0
220
0
230
1
40
0.995725
41
0.319575339230568
42
0.948264232193466
0
ELLIPSE
5
1DD
100
AcDbEntity
8
1
62
256
6
ByLayer
370
13
48
1
60
0
100
AcDbEllipse
10
149.474925
20
2.627433
30
0
11
0.00653729335064122
21
-0.149857478277354
31
0
210
0
220
0
230
1
40
0.092367
41
-1.56998679074977
42
0.000809536045688095
0
ELLIPSE
5
1DE
100
AcDbEntity
8
1
62
256
6
ByLayer
370
13
48
1
60
0
100
AcDbEllipse
10
157.259369
20
9.069701
30
0
11
0.148163665863162
21
0.0233993187505403
31
0
210
0
220
0
230
1
40
0.009655
41
0.0919985744735827
42
1.66279490126875
0
ELLIPSE
5
1DF
100
AcDbEntity
8
1
62
256
6
ByLayer
370
13
48
1
60
0
100
AcDbEllipse
10
149.620549
20
2.655007
30
0
11
-0.126435160183936
21
0.0807102860189604
31
0
210
0
220
0
230
1
40
0.053861
41
1.49557403044858
42
3.06637035724354
0
ELLIPSE
5
1E0
100
AcDbEntity
8
1
62
256
6
ByLayer
370
13
48
1
60
0
100
AcDbEllipse
10
157.017601
20
9.28061
30
0
11
0.00254430870314636
21
0.149978420091769
31
0
210
0
220
0
230
1
40
0.092151
41
0.00639829921356568
42
1.5771946260066
0
ELLIPSE
5
1E1
100
AcDbEntity
8
1
62
256
6
ByLayer
370
13
48
1
60
0
100
AcDbEllipse
10
156.761224
20
7.531174
30
0
11
0.0994383168615901
21
-1.89739611603369
31
0
210
0
220
0
230
1
40
0.995725
41
3.10590021439773
42
3.13286600732947
0
ELLIPSE
5
1E2
100
AcDbEntity
8
1
62
256
6
ByLayer
370
13
48
1
60
0
100
AcDbEllipse
10
149.384689
20
4.375039
30
0
11
-0.091587923425152
21
1.74760168582051
31
0
210
0
220
0
230
1
40
0.995725
41
3.10590021439805
42
3.13286600732982
0
ELLIPSE
5
1E3
100
AcDbEntity
8
1
62
256
6
ByLayer
370
13
48
1
60
0
100
AcDbEllipse
10
149.564796
20
2.681279
30
0
11
-0.00261679781214725
21
0.0499314767377297
31
0
210
0
220
0
230
1
40
0.995725
41
3.13286600733109
42
-2.19332842139525
0
ELLIPSE
5
1E4
100
AcDbEntity
8
1
62
256
6
ByLayer
370
13
48
1
60
0
100
AcDbEllipse
10
149.403138
20
4.376006
30
0
11
0.0994383168615901
21
-1.89739611603369
31
0
210
0
220
0
230
1
40
0.995725
41
-0.0356924391913718
42
-0.00872664625961603
0
ELLIPSE
5
1E5
100
AcDbEntity
8
1
62
256
6
ByLayer
370
13
48
1
60
0
100
AcDbEllipse
10
156.335948
20
3.544718
30
0
11
-0.043585206514878
21
-0.158111345858439
31
0
210
0
220
0
230
1
40
0.080185
41
-1.54411081857126
42
0.0266855082595628
0
ELLIPSE
5
1E6
100
AcDbEntity
8
1
62
256
6
ByLayer
370
13
48
1
60
0
100
AcDbEllipse
10
155.017574
20
10.135612
30
0
11
0.0732703387401189
21
-1.3980813486564
31
0
210
0
220
0
230
1
40
0.995725
41
0.897555942335476
42
0.901238604216609
0
ELLIPSE
5
1E7
100
AcDbEntity
8
1
62
256
6
ByLayer
370
13
48
1
60
0
100
AcDbEllipse
10
156.999672
20
9.029923
30
0
11
-0.0130839890607371
21
0.249657383688665
31
0
210
0
220
0
230
1
40
0.995725
41
-1.46607657167522
42
-0.0690273159276269
0
ELLIPSE
5
1E8
100
AcDbEntity
8
1
62
256
6
ByLayer
370
13
48
1
60
0
100
AcDbEllipse
10
156.756612
20
7.530932
30
0
11
0.0994383168615901
21
-1.89739611603369
31
0
210
0
220
0
230
1
40
0.995725
41
3.10590021439806
42
3.13286600732983
0
ELLIPSE
5
1E9
100
AcDbEntity
8
1
62
256
6
ByLayer
370
13
48
1
60
0
100
AcDbEllipse
10
156.373274
20
9.188797
30
0
11
-0.393028439373445
21
-0.302859451924404
31
0
210
0
220
0
230
1
40
0.479615
41
-2.21479145066898
42
-1.58610255769954
0
ELLIPSE
5
1EA
100
AcDbEntity
8
1
62
256
6
ByLayer
370
13
48
1
60
0
100
AcDbEllipse
10
156.617362
20
9.201589
30
0
11
0.017963442522435
21
-0.342762902152742
31
0
210
0
220
0
230
1
40
0.995725
41
-2.82201731435994
42
-2.19332842139703
0
ELLIPSE
5
1EB
100
AcDbEntity
8
1
62
256
6
ByLayer
370
13
48
1
60
0
100
AcDbEllipse
10
153.210666
20
3.501954
30
0
11
0.00523359562429422
21
-0.0998629534754574
31
0
210
0
220
0
230
1
40
0.092371
41
0
42
1.5707963267949
0
ELLIPSE
5
1EC
100
AcDbEntity
8
1
62
256
6
ByLayer
370
13
48
1
60
0
100
AcDbEllipse
10
150.116729
20
3.114527
30
0
11
0.0987757772421078
21
0.0155995458336935
31
0
210
0
220
0
230
1
40
0.009655
41
-3.04959407911944
42
-1.47879775231604
0
ELLIPSE
5
1ED
100
AcDbEntity
8
1
62
256
6
ByLayer
370
13
48
1
60
0
100
AcDbEllipse
10
148.71223
20
5.624433
30
0
11
0.020934382497177
21
-0.399451813901833
31
0
210
0
220
0
230
1
40
0.995725
41
-1.75405589825402
42
-1.46607657167489
0
ELLIPSE
5
1EE
100
AcDbEntity
8
1
62
256
6
ByLayer
370
13
48
1
60
0
100
AcDbEllipse
10
156.878957
20
0.532202
30
0
11
0.465790010562185
21
-8.88780285931571
31
0
210
0
220
0
230
1
40
0.995725
41
3.07256533766156
42
3.10590021439769
0
ELLIPSE
5
1EF
100
AcDbEntity
8
1
62
256
6
ByLayer
370
13
48
1
60
0
100
AcDbEllipse
10
157.44752
20
6.282505
30
0
11
0.020934382497177
21
-0.399451813901833
31
0
210
0
220
0
230
1
40
0.995725
41
1.38753675533541
42
1.67551608191454
0
ELLIPSE
5
1F0
100
AcDbEntity
8
1
62
256
6
ByLayer
370
13
48
1
60
0
100
AcDbEllipse
10
156.282589
20
3.485715
30
0
11
0.00523359562429507
21
-0.0998629534754736
31
0
210
0
220
0
230
1
40
0.995725
41
-1.75405589825457
42
0.095993108859303
0
ELLIPSE
5
1F1
100
AcDbEntity
8
1
62
256
6
ByLayer
370
13
48
1
60
0
100
AcDbEllipse
10
157.69338
20
6.321558
30
0
11
0.148163665863162
21
0.0233993187505403
31
0
210
0
220
0
230
1
40
0.009655
41
0.0919985744699012
42
1.66279490126851
0
ELLIPSE
5
1F2
100
AcDbEntity
8
1
62
256
6
ByLayer
370
13
48
1
60
0
100
AcDbEllipse
10
149.146241
20
2.876289
30
0
11
0.020934382497178
21
-0.399451813901851
31
0
210
0
220
0
230
1
40
0.995725
41
-1.4660765716749
42
-0.0690273159273621
0
ELLIPSE
5
1F3
100
AcDbEntity
8
1
62
256
6
ByLayer
370
13
48
1
60
0
100
AcDbEllipse
10
152.944587
20
6.860682
30
0
11
-0.240336834258461
21
-0.0125955197633462
31
0
210
0
220
0
230
1
40
0.506302
41
0.339146065052536
42
1.5707963267949
0
ELLIPSE
5
1F4
100
AcDbEntity
8
1
62
256
6
ByLayer
370
13
48
1
60
0
100
AcDbEllipse
10
153.80253
20
5.53419
30
0
11
-0.108943016668337
21
-0.215466862388185
31
0
210
0
220
0
230
1
40
0.503053
41
-1.57329528828214
42
-0.341645026539372
0
ELLIPSE
5
1F5
100
AcDbEntity
8
1
62
256
6
ByLayer
370
13
48
1
60
0
100
AcDbEllipse
10
152.992373
20
5.948883
30
0
11
0.0414082085794159
21
-0.790115687897819
31
0
210
0
220
0
230
1
40
0.995725
41
1.04719755119664
42
2.0943951023932
0
ELLIPSE
5
1F6
100
AcDbEntity
8
1
62
256
6
ByLayer
370
13
48
1
60
0
100
AcDbEllipse
10
153.080004
20
5.953476
30
0
11
0.0541703315092572
21
-1.03363149994772
31
0
210
0
220
0
230
1
40
0.995725
41
0.523598775598287
42
1.5707963267949
0
ELLIPSE
5
1F7
100
AcDbEntity
8
1
62
256
6
ByLayer
370
13
48
1
60
0
100
AcDbEllipse
10
153.080004
20
5.953476
30
0
11
0.0541703315092572
21
-1.03363149994772
31
0
210
0
220
0
230
1
40
0.995725
41
2.61799387799151
42
-2.61799387799151
0
ELLIPSE
5
1F8
100
AcDbEntity
8
1
62
256
6
ByLayer
370
13
48
1
60
0
100
AcDbEllipse
10
153.040158
20
5.037084
30
0
11
-0.240336834257556
21
-0.0125955197639049
31
0
210
0
220
0
230
1
40
0.506302
41
-1.5707963267949
42
-0.339146065052973
0
ELLIPSE
5
1F9
100
AcDbEntity
8
1
62
256
6
ByLayer
370
13
48
1
60
0
100
AcDbEllipse
10
153.080004
20
5.953476
30
0
11
0.0643732261788185
21
-1.22831432774812
31
0
210
0
220
0
230
1
40
0.995725
41
0
42
6.28318530717959
0
ELLIPSE
5
1FA
100
AcDbEntity
8
1
62
256
6
ByLayer
370
13
48
1
60
0
100
AcDbEllipse
10
153.754745
20
6.445989
30
0
11
-0.130868635434358
21
0.202898866248752
31
0
210
0
220
0
230
1
40
0.503053
41
1.573295288251
42
2.80494555001663
0
ELLIPSE
5
1FB
100
AcDbEntity
8
1
62
256
6
ByLayer
370
13
48
1
60
0
100
AcDbEllipse
10
153.80253
20
5.53419
30
0
11
-0.108943016668551
21
-0.215466862386625
31
0
210
0
220
0
230
1
40
0.503053
41
-2.80494555002182
42
-1.57329528827297
0
ELLIPSE
5
1FC
100
AcDbEntity
8
1
62
256
6
ByLayer
370
13
48
1
60
0
100
AcDbEllipse
10
153.080004
20
5.953476
30
0
11
0.0541703315092572
21
-1.03363149994772
31
0
210
0
220
0
230
1
40
0.995725
41
-1.5707963267949
42
-0.523598775598325
0
ELLIPSE
5
1FD
100
AcDbEntity
8
1
62
256
6
ByLayer
370
13
48
1
60
0
100
AcDbEllipse
10
153.080004
20
5.953476
30
0
11
0.0541703315092572
21
-1.03363149994772
31
0
210
0
220
0
230
1
40
0.995725
41
1.5707963267949
42
2.61799387799151
0
ELLIPSE
5
1FE
100
AcDbEntity
8
1
62
256
6
ByLayer
370
13
48
1
60
0
100
AcDbEllipse
10
152.992373
20
5.948883
30
0
11
0.0414082085794159
21
-0.790115687897819
31
0
210
0
220
0
230
1
40
0.995725
41
2.0943951023932
42
3.14159265358979
0
ELLIPSE
5
1FF
100
AcDbEntity
8
1
62
256
6
ByLayer
370
13
48
1
60
0
100
AcDbEllipse
10
153.754745
20
6.445989
30
0
11
-0.130868635430088
21
0.202898866252928
31
0
210
0
220
0
230
1
40
0.503053
41
0.34164502654213
42
1.57329528830408
0
ELLIPSE
5
200
100
AcDbEntity
8
1
62
256
6
ByLayer
370
13
48
1
60
0
100
AcDbEllipse
10
153.080004
20
5.953476
30
0
11
0.0541703315092572
21
-1.03363149994772
31
0
210
0
220
0
230
1
40
0.995725
41
-0.523598775598325
42
0.523598775598287
0
ELLIPSE
5
201
100
AcDbEntity
8
1
62
256
6
ByLayer
370
13
48
1
60
0
100
AcDbEllipse
10
153.080004
20
5.953476
30
0
11
0.0541703315092572
21
-1.03363149994772
31
0
210
0
220
0
230
1
40
0.995725
41
-2.61799387799151
42
-1.5707963267949
0
ELLIPSE
5
202
100
AcDbEntity
8
1
62
256
6
ByLayer
370
13
48
1
60
0
100
AcDbEllipse
10
153.064535
20
5.952665
30
0
11
0.0811207321765604
21
-1.54787577886959
31
0
210
0
220
0
230
1
40
0.995725
41
0
42
6.28318530717959
0
ELLIPSE
5
203
100
AcDbEntity
8
1
62
256
6
ByLayer
370
13
48
1
60
0
100
AcDbEllipse
10
154.297345
20
-2.031456
30
0
11
-0.75
21
7.57979291311772E-16
31
0
210
0
220
0
230
1
40
0.992272
41
0
42
6.28318530717959
0
ELLIPSE
5
204
100
AcDbEntity
8
1
62
256
6
ByLayer
370
13
48
1
60
0
100
AcDbEllipse
10
147.218521
20
2.466931
30
0
11
-3.96879667864655
21
-0.70490665344319
31
0
210
0
220
0
230
1
40
0.015321
41
-3.01817314103678
42
-2.80577404772957
0
ELLIPSE
5
205
100
AcDbEntity
8
1
62
256
6
ByLayer
370
13
48
1
60
0
100
AcDbEllipse
10
156.706702
20
-5.418489
30
0
11
-0.116785120327393
21
-0.993159404675141
31
0
210
0
220
0
230
1
40
0.119172
41
0
42
6.28318530717959
0
ELLIPSE
5
206
100
AcDbEntity
8
1
62
256
6
ByLayer
370
13
48
1
60
0
100
AcDbEllipse
10
157.341388
20
2.734436
30
0
11
-0.0105340448786271
21
0.500131422802868
31
0
210
0
220
0
230
1
40
0.104582
41
1.92313668872491
42
3.13077773471347
0
ELLIPSE
5
207
100
AcDbEntity
8
1
62
256
6
ByLayer
370
13
48
1
60
0
100
AcDbEllipse
10
153.842821
20
4.46636
30
0
11
-0.859660226672243
21
-1.06694988935637
31
0
210
0
220
0
230
1
40
0.966608
41
0.713732916674527
42
1.18301787703311
0
ELLIPSE
5
208
100
AcDbEntity
8
1
62
256
6
ByLayer
370
13
48
1
60
0
100
AcDbEllipse
10
157.014442
20
-5.53566
30
0
11
-0.0629695858407797
21
-0.515760607904975
31
0
210
0
220
0
230
1
40
0.115385
41
-1.66084403145146
42
-0.0900477046718439
0
ELLIPSE
5
209
100
AcDbEntity
8
1
62
256
6
ByLayer
370
13
48
1
60
0
100
AcDbEllipse
10
147.157484
20
1.7E-05
30
0
11
-1.23687502745502
21
-9.26180775524617
31
0
210
0
220
0
230
1
40
0.090398
41
2.9909230564719
42
3.00294580337729
0
ELLIPSE
5
20A
100
AcDbEntity
8
1
62
256
6
ByLayer
370
13
48
1
60
0
100
AcDbEllipse
10
153.298149
20
-2.515282
30
0
11
-4.02200581690871
21
-0.0145492604680624
31
0
210
0
220
0
230
1
40
0.986837
41
3.00783044054651
42
-2.98893152220858
0
ELLIPSE
5
20B
100
AcDbEntity
8
1
62
256
6
ByLayer
370
13
48
1
60
0
100
AcDbEllipse
10
810.252795
20
0
30
0
11
-1197.86589345807
21
7.71617694073561
31
0
210
0
220
0
230
1
40
0.004278
41
0.983957528394192
42
0.99345738764116
0
ELLIPSE
5
20C
100
AcDbEntity
8
1
62
256
6
ByLayer
370
13
48
1
60
0
100
AcDbEllipse
10
156.979368
20
3.629368
30
0
11
-0.0210680897712617
21
1.0002628459526
31
0
210
0
220
0
230
1
40
0.104582
41
-3.13831814203896
42
-2.58350710915045
0
ELLIPSE
5
20D
100
AcDbEntity
8
1
62
256
6
ByLayer
370
13
48
1
60
0
100
AcDbEllipse
10
147.805175
20
3.091298
30
0
11
-0.29369042064903
21
-0.95590058940195
31
0
210
0
220
0
230
1
40
0.0868
41
-1.53907871771949
42
-0.201034998329278
0
ELLIPSE
5
20E
100
AcDbEntity
8
1
62
256
6
ByLayer
370
13
48
1
60
0
100
AcDbEllipse
10
154.02272
20
0
30
0
11
-19.3257294620826
21
8.2588907403726
31
0
210
0
220
0
230
1
40
0.2059
41
0.813014971797267
42
1.03365577109941
0
ELLIPSE
5
20F
100
AcDbEntity
8
1
62
256
6
ByLayer
370
13
48
1
60
0
100
AcDbEllipse
10
149.527815
20
3.389054
30
0
11
0.0706535409279717
21
-1.34814987191867
31
0
210
0
220
0
230
1
40
0.995725
41
-1.74128991378718
42
-1.29370592484069
0
ELLIPSE
5
210
100
AcDbEntity
8
1
62
256
6
ByLayer
370
13
48
1
60
0
100
AcDbEllipse
10
150.847936
20
2.657141
30
0
11
-3.96879667708774
21
-0.704906653165147
31
0
210
0
220
0
230
1
40
0.015321
41
-3.01817314116295
42
-2.80577404766314
0
ELLIPSE
5
211
100
AcDbEntity
8
1
62
256
6
ByLayer
370
13
48
1
60
0
100
AcDbEllipse
10
157.345288
20
-0.08692
30
0
11
-0.023311828614405
21
1.01141778664315
31
0
210
0
220
0
230
1
40
0.101829
41
-0.139045945755891
42
0.817179166123546
0
ELLIPSE
5
212
100
AcDbEntity
8
1
62
256
6
ByLayer
370
13
48
1
60
0
100
AcDbEllipse
10
157.205869
20
0
30
0
11
-1.58758934921204
21
9.26157628337641
31
0
210
0
220
0
230
1
40
0.082376
41
1.5655243058893
42
1.67936058956721
0
ELLIPSE
5
213
100
AcDbEntity
8
1
62
256
6
ByLayer
370
13
48
1
60
0
100
AcDbEllipse
10
150.720155
20
3.091791
30
0
11
0.294086657459335
21
-0.955778759914864
31
0
210
0
220
0
230
1
40
0.089609
41
-1.2582164315425
42
-0.0225091052266058
0
ELLIPSE
5
214
100
AcDbEntity
8
1
62
256
6
ByLayer
370
13
48
1
60
0
100
AcDbEllipse
10
153.907385
20
-3.541235
30
0
11
-4.84956802172781
21
4.20148442337239
31
0
210
0
220
0
230
1
40
0.870668
41
-0.73536063327285
42
-0.490231320600273
0
ELLIPSE
5
215
100
AcDbEntity
8
1
62
256
6
ByLayer
370
13
48
1
60
0
100
AcDbEllipse
10
160.46304
20
1.04587
30
0
11
-3.94126088232297
21
-1.19143304385418
31
0
210
0
220
0
230
1
40
0.806687
41
-0.351501229043764
42
-0.203949159004544
0
ELLIPSE
5
216
100
AcDbEntity
8
1
62
256
6
ByLayer
370
13
48
1
60
0
100
AcDbEllipse
10
152.398395
20
3.389289
30
0
11
0.0523359562429422
21
-0.998629534754574
31
0
210
0
220
0
230
1
40
0.092371
41
-1.21322522314951
42
-4.80766918026288E-15
0
ELLIPSE
5
217
100
AcDbEntity
8
1
62
256
6
ByLayer
370
13
48
1
60
0
100
AcDbEllipse
10
152.764746
20
-3.601118
30
0
11
-0.314015737457663
21
5.99177720852745
31
0
210
0
220
0
230
1
40
0.995725
41
0
42
0.245129312672919
0
ELLIPSE
5
218
100
AcDbEntity
8
1
62
256
6
ByLayer
370
13
48
1
60
0
100
AcDbEllipse
10
149.402621
20
3.382493
30
0
11
-0.859659833605606
21
-1.06695011325081
31
0
210
0
220
0
230
1
40
0.966608
41
1.76533268365686
42
1.83734017405907
0
ELLIPSE
5
219
100
AcDbEntity
8
1
62
256
6
ByLayer
370
13
48
1
60
0
100
AcDbEllipse
10
154.705719
20
2.859319
30
0
11
-0.318392675885435
21
-0.39516662633455
31
0
210
0
220
0
230
1
40
0.966608
41
-2.21492179151949
42
-1.95857477839031
0
ELLIPSE
5
21A
100
AcDbEntity
8
1
62
256
6
ByLayer
370
13
48
1
60
0
100
AcDbEllipse
10
149.167489
20
7.867605
30
0
11
-0.261679781214719
21
4.99314767377287
31
0
210
0
220
0
230
1
40
0.995725
41
2.79252680319534
42
2.90488366949346
0
ELLIPSE
5
21B
100
AcDbEntity
8
1
62
256
6
ByLayer
370
13
48
1
60
0
100
AcDbEllipse
10
158.025791
20
0
30
0
11
-1.1050674709329
21
-9.2615690196686
31
0
210
0
220
0
230
1
40
0.118836
41
-1.30437609211867
42
-0.108066353423721
0
ELLIPSE
5
21C
100
AcDbEntity
8
1
62
256
6
ByLayer
370
13
48
1
60
0
100
AcDbEllipse
10
147.394087
20
3.591548
30
0
11
0.0523359562429422
21
-0.998629534754574
31
0
210
0
220
0
230
1
40
0.995725
41
1.40030273980262
42
1.67551608191459
0
ELLIPSE
5
21D
100
AcDbEntity
8
1
62
256
6
ByLayer
370
13
48
1
60
0
100
AcDbEllipse
10
149.075515
20
3.36535
30
0
11
-1.1908482286102
21
0.95948729237837
31
0
210
0
220
0
230
1
40
0.775936
41
-3.08479702224836
42
-2.88746812225214
0
ELLIPSE
5
21E
100
AcDbEntity
8
1
62
256
6
ByLayer
370
13
48
1
60
0
100
AcDbEllipse
10
157.239384
20
0.12767
30
0
11
-0.0116559143121416
21
0.505708893452204
31
0
210
0
220
0
230
1
40
0.101829
41
-0.13904594573824
42
0.454041463165646
0
ELLIPSE
5
21F
100
AcDbEntity
8
1
62
256
6
ByLayer
370
13
48
1
60
0
100
AcDbEllipse
10
157.507203
20
-1.015476
30
0
11
-1.13510017560871
21
1.96227051637801
31
0
210
0
220
0
230
1
40
0.322931
41
-0.828071582386628
42
-0.656284382716753
0
ELLIPSE
5
220
100
AcDbEntity
8
1
62
256
6
ByLayer
370
13
48
1
60
0
100
AcDbEllipse
10
160.967446
20
0.454727
30
0
11
-4.0220057578085
21
-0.0145490160347294
31
0
210
0
220
0
230
1
40
0.986837
41
0.05537877694543
42
0.152661192441183
0
ELLIPSE
5
221
100
AcDbEntity
8
1
62
256
6
ByLayer
370
13
48
1
60
0
100
AcDbEllipse
10
149.304692
20
5.246269
30
0
11
0.0706535409279717
21
-1.34814987191867
31
0
210
0
220
0
230
1
40
0.995725
41
-2.01983957028341
42
-1.46607657167526
0
ELLIPSE
5
222
100
AcDbEntity
8
1
62
256
6
ByLayer
370
13
48
1
60
0
100
AcDbEllipse
10
144.5
20
2.519618
30
0
11
-1.5
21
1.51595858262354E-15
31
0
210
0
220
0
230
1
40
0.750035
41
-3.11406262159139
42
-1.6938337656596
0
ELLIPSE
5
223
100
AcDbEntity
8
1
62
256
6
ByLayer
370
13
48
1
60
0
100
AcDbEllipse
10
165.184776
20
-2E-06
30
0
11
-99.9849296021283
21
0.0453590131772396
31
0
210
0
220
0
230
1
40
0.092638
41
-1.40315808631599
42
-1.38714166754371
0
ELLIPSE
5
224
100
AcDbEntity
8
1
62
256
6
ByLayer
370
13
48
1
60
0
100
AcDbEllipse
10
144.5
20
2.32268
30
0
11
-0.196572107145658
21
5.81737304066505
31
0
210
0
220
0
230
1
40
0.342133
41
-0.540841539720918
42
-0.460725887084115
0
ELLIPSE
5
225
100
AcDbEntity
8
1
62
256
6
ByLayer
370
13
48
1
60
0
100
AcDbEllipse
10
148.853582
20
0
30
0
11
-0.489634810398838
21
9.26238892707773
31
0
210
0
220
0
230
1
40
0.092638
41
-0.149583473649308
42
-0.0033141730042479
0
ELLIPSE
5
226
100
AcDbEntity
8
1
62
256
6
ByLayer
370
13
48
1
60
0
100
AcDbEllipse
10
151.076305
20
2.669109
30
0
11
-0.318392676587642
21
-0.395166625646493
31
0
210
0
220
0
230
1
40
0.966608
41
-2.21492178960653
42
-1.3042521552333
0
ELLIPSE
5
227
100
AcDbEntity
8
1
62
256
6
ByLayer
370
13
48
1
60
0
100
AcDbEllipse
10
148.795259
20
7.848099
30
0
11
-4.84956745619649
21
4.20148731328185
31
0
210
0
220
0
230
1
40
0.870668
41
2.61642369926428
42
2.65136173224233
0
ELLIPSE
5
228
100
AcDbEntity
8
1
62
256
6
ByLayer
370
13
48
1
60
0
100
AcDbEllipse
10
206.299762
20
-0.018493
30
0
11
-120.279470617211
21
0.0545106403942419
31
0
210
0
220
0
230
1
40
0.087058
41
-1.05452725969091
42
-1.03400771954881
0
ELLIPSE
5
229
100
AcDbEntity
8
1
62
256
6
ByLayer
370
13
48
1
60
0
100
AcDbEllipse
10
147.698492
20
3.607501
30
0
11
-0.0261679781214719
21
0.499314767377287
31
0
210
0
220
0
230
1
40
0.995725
41
-1.74128991378715
42
-1.46607657167515
0
ELLIPSE
5
22A
100
AcDbEntity
8
1
62
256
6
ByLayer
370
13
48
1
60
0
100
AcDbEllipse
10
149.223409
20
3.373101
30
0
11
-0.0444855628065023
21
0.848835104541388
31
0
210
0
220
0
230
1
40
0.995725
41
1.40030273980256
42
2.29258939293536
0
ELLIPSE
5
22B
100
AcDbEntity
8
1
62
256
6
ByLayer
370
18
48
1
60
0
100
AcDbEllipse
10
154.297345
20
-2.617734
30
0
11
-1.25
21
1.26329881885295E-15
31
0
210
0
220
0
230
1
40
0.992272
41
-0.496175596431307
42
-0.340863015455119
0
ELLIPSE
5
22C
100
AcDbEntity
8
1
62
256
6
ByLayer
370
18
48
1
60
0
100
AcDbEllipse
10
154.297345
20
-2.524513
30
0
11
-1.25
21
1.26329881885295E-15
31
0
210
0
220
0
230
1
40
0.992272
41
-0.512570218011697
42
-0.281172380715595
0
ELLIPSE
5
22D
100
AcDbEntity
8
1
62
256
6
ByLayer
370
13
48
1
60
0
100
AcDbEllipse
10
152.992373
20
5.948883
30
0
11
0.0414082085794159
21
-0.790115687897819
31
0
210
0
220
0
230
1
40
0.995725
41
-3.14159265358976
42
-2.34312059445257
0
ELLIPSE
5
22E
100
AcDbEntity
8
1
62
256
6
ByLayer
370
13
48
1
60
0
100
AcDbEllipse
10
152.992373
20
5.948883
30
0
11
0.0414082085794159
21
-0.790115687897819
31
0
210
0
220
0
230
1
40
0.995725
41
-0.778411789590745
42
-3.7203899869749E-14
0
ELLIPSE
5
22F
100
AcDbEntity
8
1
62
256
6
ByLayer
370
13
48
1
60
0
100
AcDbEllipse
10
152.992373
20
5.948883
30
0
11
-0.0414082085794172
21
0.790115687897819
31
0
210
0
220
0
230
1
40
0.995725
41
-3.0360872002058
42
-2.09439510239316
0
ELLIPSE
5
230
100
AcDbEntity
8
1
62
256
6
ByLayer
370
13
48
1
60
0
100
AcDbEllipse
10
152.992373
20
5.948883
30
0
11
0.0414082085794159
21
-0.790115687897819
31
0
210
0
220
0
230
1
40
0.995725
41
-1.89951813695368
42
-1.22654676685739
0
ELLIPSE
5
231
100
AcDbEntity
8
1
62
256
6
ByLayer
370
13
48
1
60
0
100
AcDbEllipse
10
153.900422
20
5.996472
30
0
11
-0.0126496006239266
21
0.241368758550175
31
0
210
0
220
0
230
1
40
0.501982
41
-2.88888761101839
42
-0.554556224962605
0
ELLIPSE
5
232
100
AcDbEntity
8
1
62
256
6
ByLayer
370
13
48
1
60
0
100
AcDbEllipse
10
153.405007
20
6.762448
30
0
11
-0.214323340834723
21
0.110049228609662
31
0
210
0
220
0
230
1
40
0.505213
41
2.94906700001397
42
-0.70516838547107
0
ELLIPSE
5
233
100
AcDbEntity
8
1
62
256
6
ByLayer
370
13
48
1
60
0
100
AcDbEllipse
10
153.487788
20
5.182907
30
0
11
-0.201645978398243
21
-0.131849256880544
31
0
210
0
220
0
230
1
40
0.505213
41
0.601424803180055
42
-2.9490670000141
0
ELLIPSE
5
234
100
AcDbEntity
8
1
62
256
6
ByLayer
370
13
48
1
60
0
100
AcDbEllipse
10
153.015434
20
5.950092
30
0
11
0.0811207321765604
21
-1.54787577886959
31
0
210
0
220
0
230
1
40
0.995725
41
3.1415867987545
42
-1.62293299150808
0
ELLIPSE
5
235
100
AcDbEntity
8
1
62
256
6
ByLayer
370
13
48
1
60
0
100
AcDbEllipse
10
153.015434
20
5.950092
30
0
11
0.0811207321765604
21
-1.54787577886959
31
0
210
0
220
0
230
1
40
0.995725
41
-1.62293299150808
42
0
0
ELLIPSE
5
236
100
AcDbEntity
8
1
62
256
6
ByLayer
370
13
48
1
60
0
100
AcDbEllipse
10
152.496958
20
6.714859
30
0
11
-0.201645978398252
21
-0.131849256880542
31
0
210
0
220
0
230
1
40
0.505213
41
2.9440329405682
42
-2.54016254484605
0
ELLIPSE
5
237
100
AcDbEntity
8
1
62
256
6
ByLayer
370
13
48
1
60
0
100
AcDbEllipse
10
152.579738
20
5.135318
30
0
11
-0.214323340834707
21
0.110049228609676
31
0
210
0
220
0
230
1
40
0.505213
41
2.43642482912272
42
-2.94403294056813
0
ELLIPSE
5
238
100
AcDbEntity
8
1
62
256
6
ByLayer
370
13
48
1
60
0
100
AcDbEllipse
10
148.779706
20
3.257587
30
0
11
-0.0701718968402081
21
0.250192753362698
31
0
210
0
220
0
230
1
40
0.958209
41
1.53052250840912
42
1.89045646716608
0
ELLIPSE
5
239
100
AcDbEntity
8
1
62
256
6
ByLayer
370
13
48
1
60
0
100
AcDbEllipse
10
157.146724
20
3.281786
30
0
11
-0.043635223850467
21
-0.256157131813753
31
0
210
0
220
0
230
1
40
0.958209
41
0.305044217541597
42
1.25113576953041
0
ELLIPSE
5
23A
100
AcDbEntity
8
1
62
256
6
ByLayer
370
13
48
1
60
0
100
AcDbEllipse
10
156.534588
20
9.251689
30
0
11
0.126435160183933
21
-0.0807102860189656
31
0
210
0
220
0
230
1
40
0.053861
41
-2.90515367206416
42
-1.64601862314102
0
ELLIPSE
5
23B
100
AcDbEntity
8
1
62
256
6
ByLayer
370
13
48
1
60
0
100
AcDbEllipse
10
156.67375
20
6.394484
30
0
11
0.148163665863162
21
0.0233993187505403
31
0
210
0
220
0
230
1
40
0.009655
41
1.66279490126926
42
2.86621140934709
0
ELLIPSE
5
23C
100
AcDbEntity
8
1
62
256
6
ByLayer
370
13
48
1
60
0
100
AcDbEllipse
10
154.297345
20
-2.067898
30
0
11
-1.1
21
1.1117029605906E-15
31
0
210
0
220
0
230
1
40
0.992272
41
-2.87416420214773
42
-4.06861690645366E-16
0
ELLIPSE
5
23D
100
AcDbEntity
8
1
62
256
6
ByLayer
370
13
48
1
60
0
100
AcDbEllipse
10
153.014179
20
5.950026
30
0
11
0.0810185496333006
21
-1.54592601979455
31
0
210
0
220
0
230
1
40
0.995725
41
-2.90578250564735
42
-1.62293306778966
0
ELLIPSE
5
23E
100
AcDbEntity
8
1
62
256
6
ByLayer
370
13
48
1
60
0
100
AcDbEllipse
10
153.014179
20
5.950026
30
0
11
0.0810185496333006
21
-1.54592601979455
31
0
210
0
220
0
230
1
40
0.995725
41
-1.62293306778966
42
-0.0763856142116189
0
ELLIPSE
5
23F
100
AcDbEntity
8
1
62
256
6
ByLayer
370
13
48
1
60
0
100
AcDbEllipse
10
156.676984
20
6.15057
30
0
11
0.148731686424787
21
-0.0194649801756591
31
0
210
0
220
0
230
1
40
0.016833
41
3.05063056328133
42
-1.66175841710529
0
ELLIPSE
5
240
100
AcDbEntity
8
1
62
256
6
ByLayer
370
13
48
1
60
0
100
AcDbEllipse
10
156.335948
20
3.544718
30
0
11
-0.157303253004395
21
-0.0460731444228415
31
0
210
0
220
0
230
1
40
0.019548
41
-1.4884481835974
42
0.0823481430830734
0
ELLIPSE
5
241
100
AcDbEntity
8
1
62
256
6
ByLayer
370
13
48
1
60
0
100
AcDbEllipse
10
156.432502
20
6.355673
30
0
11
0.0987757772421078
21
0.0155995458336935
31
0
210
0
220
0
230
1
40
0.009655
41
-1.47879775232085
42
0.000129454971760383
0
ELLIPSE
5
242
100
AcDbEntity
8
1
62
256
6
ByLayer
370
13
48
1
60
0
100
AcDbEllipse
10
156.047632
20
8.792653
30
0
11
-0.0987757772421073
21
-0.0155995458336967
31
0
210
0
220
0
230
1
40
0.009655
41
1.66279490126357
42
-3.14146319916262
0
ELLIPSE
5
243
100
AcDbEntity
8
1
62
256
6
ByLayer
370
13
48
1
60
0
100
AcDbEllipse
10
156.434785
20
6.183498
30
0
11
0.0991544576165247
21
-0.0129766534504395
31
0
210
0
220
0
230
1
40
0.016833
41
-0.000144555467329815
42
1.47983423648432
0
ELLIPSE
5
244
100
AcDbEntity
8
1
62
256
6
ByLayer
370
13
48
1
60
0
100
AcDbEllipse
10
156.08906
20
3.541819
30
0
11
-0.0991544576165244
21
0.0129766534504419
31
0
210
0
220
0
230
1
40
0.016833
41
3.14144809794649
42
-1.66175841710833
0
ELLIPSE
5
245
100
AcDbEntity
8
1
62
256
6
ByLayer
370
13
48
1
60
0
100
AcDbEllipse
10
153.037048
20
5.951224
30
0
11
0.0855426305566245
21
-1.63225062627884
31
0
210
0
220
0
230
1
40
0.995725
41
-0.853733178408434
42
0
0
ELLIPSE
5
246
100
AcDbEntity
8
1
62
256
6
ByLayer
370
13
48
1
60
0
100
AcDbEllipse
10
153.037048
20
5.951224
30
0
11
0.0855426305566245
21
-1.63225062627884
31
0
210
0
220
0
230
1
40
0.995725
41
0
42
-2.28787052676355
0
ELLIPSE
5
247
100
AcDbEntity
8
1
62
256
6
ByLayer
370
13
48
1
60
0
100
AcDbEllipse
10
149.877161
20
8.421222
30
0
11
0.00523359562429507
21
-0.0998629534754736
31
0
210
0
220
0
230
1
40
0.995725
41
1.38753675533551
42
3.14158141713594
0
ELLIPSE
5
248
100
AcDbEntity
8
1
62
256
6
ByLayer
370
13
48
1
60
0
100
AcDbEllipse
10
149.580815
20
2.632052
30
0
11
0.00653729335064122
21
-0.149857478277354
31
0
210
0
220
0
230
1
40
0.092367
41
-1.56998679074977
42
-0.0232440763773187
0
ELLIPSE
5
249
100
AcDbEntity
8
1
62
256
6
ByLayer
370
13
48
1
60
0
100
AcDbEllipse
10
149.427959
20
2.626021
30
0
11
0.00247703513347986
21
-0.149979546261974
31
0
210
0
220
0
230
1
40
0.092312
41
-1.56748595439539
42
-0.0473509076690926
0
ELLIPSE
5
24A
100
AcDbEntity
8
1
62
256
6
ByLayer
370
13
48
1
60
0
100
AcDbEllipse
10
149.578632
20
2.682005
30
0
11
0.0104671912485885
21
-0.199725906950916
31
0
210
0
220
0
230
1
40
0.995725
41
0.0113995454452673
42
0.948264232194197
0
ELLIPSE
5
24B
100
AcDbEntity
8
1
62
256
6
ByLayer
370
13
48
1
60
0
100
AcDbEllipse
10
148.794738
20
8.208443
30
0
11
0.0222321776353755
21
-0.148343285246044
31
0
210
0
220
0
230
1
40
0.091945
41
-3.05448529856492
42
-1.57968743413511
0
ELLIPSE
5
24C
100
AcDbEntity
8
1
62
256
6
ByLayer
370
13
48
1
60
0
100
AcDbEllipse
10
149.137536
20
2.626086
30
0
11
-0.00254430870314638
21
-0.149978420091769
31
0
210
0
220
0
230
1
40
0.092151
41
-1.56439802758319
42
-0.0696307375418091
0
ELLIPSE
5
24D
100
AcDbEntity
8
1
62
256
6
ByLayer
370
13
48
1
60
0
100
AcDbEllipse
10
148.794738
20
8.208443
30
0
11
-0.148731686424787
21
0.0194649801756628
31
0
210
0
220
0
230
1
40
0.016833
41
-0.09096209030986
42
1.4798342364841
0
ELLIPSE
5
24E
100
AcDbEntity
8
1
62
256
6
ByLayer
370
13
48
1
60
0
100
AcDbEllipse
10
148.895769
20
2.836995
30
0
11
-0.148163665863161
21
-0.0233993187505451
31
0
210
0
220
0
230
1
40
0.009655
41
-1.47879775232107
42
-0.264793552089779
0
ELLIPSE
5
24F
100
AcDbEntity
8
1
62
256
6
ByLayer
370
13
48
1
60
0
100
AcDbEllipse
10
148.460806
20
5.656878
30
0
11
-0.148731686424787
21
0.0194649801756628
31
0
210
0
220
0
230
1
40
0.016833
41
-0.0909620903105779
42
1.47983423648394
0
ELLIPSE
5
250
100
AcDbEntity
8
1
62
256
6
ByLayer
370
13
48
1
60
0
100
AcDbEllipse
10
148.461757
20
5.585138
30
0
11
-0.148163665863161
21
-0.0233993187505451
31
0
210
0
220
0
230
1
40
0.009655
41
-1.4787977523211
42
0.0919985744723613
0
ELLIPSE
5
251
100
AcDbEntity
8
1
62
256
6
ByLayer
370
13
48
1
60
0
100
AcDbEllipse
10
156.047632
20
8.792653
30
0
11
0.00523359562429422
21
-0.0998629534754574
31
0
210
0
220
0
230
1
40
0.995725
41
3.14157742130819
42
-2.60835254622972
0
ELLIPSE
5
252
100
AcDbEntity
8
1
62
256
6
ByLayer
370
13
48
1
60
0
100
AcDbEllipse
10
156.08906
20
3.541819
30
0
11
0.00523359562429422
21
-0.0998629534754574
31
0
210
0
220
0
230
1
40
0.995725
41
-0.371839530755692
42
1.88673427703262E-05
0
ELLIPSE
5
253
100
AcDbEntity
8
1
62
256
6
ByLayer
370
13
48
1
60
0
100
AcDbEllipse
10
150.116729
20
3.114527
30
0
11
0.00523359562429422
21
-0.0998629534754574
31
0
210
0
220
0
230
1
40
0.995725
41
-1.46607657167475
42
-1.22376082127071E-05
0
ELLIPSE
5
254
100
AcDbEntity
8
1
62
256
6
ByLayer
370
13
48
1
60
0
100
AcDbEllipse
10
150.075302
20
8.365361
30
0
11
0.00523359562429422
21
-0.0998629534754574
31
0
210
0
220
0
230
1
40
0.995725
41
-3.14157313675453
42
-1.75405589825403
0
ELLIPSE
5
255
100
AcDbEntity
8
1
62
256
6
ByLayer
370
13
48
1
60
0
100
AcDbEllipse
10
150.116729
20
3.114527
30
0
11
0.0554263173694272
21
-0.0832341476971052
31
0
210
0
220
0
230
1
40
0.079546
41
7.03908725411926E-06
42
1.52367523131858
0
ELLIPSE
5
256
100
AcDbEntity
8
1
62
256
6
ByLayer
370
13
48
1
60
0
100
AcDbEllipse
10
150.171221
20
3.265742
30
0
11
0.0261679781214711
21
-0.499314767377287
31
0
210
0
220
0
230
1
40
0.092371
41
-0.684395096575697
42
-0.46219309651664
0
ELLIPSE
5
257
100
AcDbEntity
8
1
62
256
6
ByLayer
370
13
48
1
60
0
100
AcDbEllipse
10
148.429032
20
3.475886
30
0
11
0.496557167385188
21
-0.0585745637491125
31
0
210
0
220
0
230
1
40
0.015672
41
-2.0761159038265
42
-1.6619650705702
0
ELLIPSE
5
258
100
AcDbEntity
8
1
62
256
6
ByLayer
370
13
48
1
60
0
100
AcDbEllipse
10
148.423652
20
3.750177
30
0
11
0.493878886210539
21
0.0779977291684675
31
0
210
0
220
0
230
1
40
0.009655
41
1.66279490126857
42
2.07294360322989
0
ELLIPSE
5
259
100
AcDbEntity
8
1
62
256
6
ByLayer
370
13
48
1
60
0
100
AcDbEllipse
10
148.210483
20
5.099953
30
0
11
0.493878886210539
21
0.0779977291684675
31
0
210
0
220
0
230
1
40
0.009655
41
1.82323785567451
42
2.07211126091355
0
ELLIPSE
5
25A
100
AcDbEntity
8
1
62
256
6
ByLayer
370
13
48
1
60
0
100
AcDbEllipse
10
150.275802
20
2.928734
30
0
11
0.0261679781214711
21
-0.499314767377288
31
0
210
0
220
0
230
1
40
0.092371
41
-0.190832052367625
42
-6.0736453883624E-06
0
ELLIPSE
5
25B
100
AcDbEntity
8
1
62
256
6
ByLayer
370
13
48
1
60
0
100
AcDbEllipse
10
129.410087
20
0
30
0
11
-99.9849207576341
21
0.0453587204563861
31
0
210
0
220
0
230
1
40
0.092638
41
-1.83574281046265
42
-1.77018071499832
0
ELLIPSE
5
25C
100
AcDbEntity
8
1
62
256
6
ByLayer
370
13
48
1
60
0
100
AcDbEllipse
10
149.269531
20
3.375518
30
0
11
0.0706535409279717
21
-1.34814987191867
31
0
210
0
220
0
230
1
40
0.995725
41
0.0592770815293889
42
0.967857446913125
0
ELLIPSE
5
25D
100
AcDbEntity
8
1
62
256
6
ByLayer
370
13
48
1
60
0
100
AcDbEllipse
10
149.259733
20
7.872439
30
0
11
0.314015737457653
21
-5.99177720852744
31
0
210
0
220
0
230
1
40
0.995725
41
-2.58380882652807E-06
42
0.245129312672932
0
ELLIPSE
5
25E
100
AcDbEntity
8
1
62
256
6
ByLayer
370
13
48
1
60
0
100
AcDbEllipse
10
154.160163
20
-2.347318
30
0
11
1.1
21
0
31
0
210
0
220
0
230
1
40
0.992272
41
2.54537730297253
42
2.97597212614607
0
ELLIPSE
5
25F
100
AcDbEntity
8
1
62
256
6
ByLayer
370
13
48
1
60
0
100
AcDbEllipse
10
154.160163
20
-1.987476
30
0
11
1.1
21
0
31
0
210
0
220
0
230
1
40
0.992272
41
0.964665263994526
42
3.14159220464346
0
ELLIPSE
5
260
100
AcDbEntity
8
1
62
256
6
ByLayer
370
13
48
1
60
0
100
AcDbEllipse
10
154.160163
20
-1.987476
30
0
11
-1.2
21
1.21276686609884E-15
31
0
210
0
220
0
230
1
40
0.992272
41
-2.83568030741006
42
-0.144414977274182
0
POINT
5
70
100
AcDbEntity
8
1
62
256
6
ByLayer
370
18
48
1
60
0
100
AcDbPoint
10
0
20
0
30
0
39
0
210
0
220
0
230
1
50
360
0
POINT
5
72
100
AcDbEntity
8
80
62
256
6
ByLayer
370
18
48
1
60
0
100
AcDbPoint
10
0
20
0
30
0
39
0
210
0
220
0
230
1
50
360
0
POINT
5
74
100
AcDbEntity
8
81
62
256
6
ByLayer
370
18
48
1
60
0
100
AcDbPoint
10
158
20
0
30
0
39
0
210
0
220
0
230
1
50
360
0
POINT
5
76
100
AcDbEntity
8
1
62
256
6
ByLayer
370
18
48
1
60
1
100
AcDbPoint
10
0
20
-16
30
0
39
0
210
0
220
0
230
1
50
360
0
POINT
5
77
100
AcDbEntity
8
1
62
256
6
ByLayer
370
18
48
1
60
1
100
AcDbPoint
10
158
20
-9.5
30
0
39
0
210
0
220
0
230
1
50
360
0
POINT
5
78
100
AcDbEntity
8
1
62
256
6
ByLayer
370
18
48
1
60
1
100
AcDbPoint
10
-56
20
-12.5
30
0
39
0
210
0
220
0
230
1
50
360
0
POINT
5
79
100
AcDbEntity
8
1
62
256
6
ByLayer
370
18
48
1
60
1
100
AcDbPoint
10
0
20
-16
30
0
39
0
210
0
220
0
230
1
50
360
0
POINT
5
7A
100
AcDbEntity
8
1
62
256
6
ByLayer
370
18
48
1
60
1
100
AcDbPoint
10
158
20
-9.5
30
0
39
0
210
0
220
0
230
1
50
360
0
POINT
5
7B
100
AcDbEntity
8
1
62
256
6
ByLayer
370
18
48
1
60
1
100
AcDbPoint
10
6.0216
20
-16
30
0
39
0
210
0
220
0
230
1
50
360
0
POINT
5
7C
100
AcDbEntity
8
1
62
256
6
ByLayer
370
18
48
1
60
1
100
AcDbPoint
10
22
20
-9.5
30
0
39
0
210
0
220
0
230
1
50
360
0
POINT
5
7D
100
AcDbEntity
8
1
62
256
6
ByLayer
370
18
48
1
60
1
100
AcDbPoint
10
158
20
-9.5
30
0
39
0
210
0
220
0
230
1
50
360
0
POINT
5
7E
100
AcDbEntity
8
1
62
256
6
ByLayer
370
18
48
1
60
1
100
AcDbPoint
10
157.4423
20
-4.75
30
0
39
0
210
0
220
0
230
1
50
360
0
SPLINE
5
261
100
AcDbEntity
8
1
62
256
6
ByLayer
370
13
48
1
60
0
100
AcDbSpline
70
4
71
3
72
8
73
4
40
0
40
0
40
0
40
0
40
1
40
1
40
1
40
1
41
1
10
148.092811271891
20
5.78318529111939
30
0
41
1
10
148.089604263103
20
5.7994909208013
30
0
41
1
10
148.087144496065
20
5.81836970110899
30
0
41
1
10
148.087384935857
20
5.84163713899795
30
0
0
SPLINE
5
262
100
AcDbEntity
8
1
62
256
6
ByLayer
370
13
48
1
60
0
100
AcDbSpline
70
4
71
1
72
4
73
2
40
0
40
0
40
1
40
1
41
1
10
148.220509020883
20
5.54632713034204
30
0
41
1
10
148.111218407419
20
5.54325908735817
30
0
0
SPLINE
5
263
100
AcDbEntity
8
1
62
256
6
ByLayer
370
13
48
1
60
0
100
AcDbSpline
70
4
71
3
72
8
73
4
40
0
40
0
40
0
40
0
40
1
40
1
40
1
40
1
41
1
10
148.102331444751
20
5.6015295714798
30
0
41
1
10
148.104269425683
20
5.58515743486612
30
0
41
1
10
148.10691375254
20
5.56628832692891
30
0
41
1
10
148.111218407419
20
5.54325908735817
30
0
0
SPLINE
5
264
100
AcDbEntity
8
1
62
256
6
ByLayer
370
13
48
1
60
0
100
AcDbSpline
70
4
71
2
72
6
73
3
40
0
40
0
40
0
40
1
40
1
40
1
41
1
10
157.949955871483
20
6.28917941197113
30
0
41
0.997409491337352
10
157.94947781983
20
6.32523574552746
30
0
41
1
10
157.943852926428
20
6.36085237332233
30
0
0
SPLINE
5
265
100
AcDbEntity
8
1
62
256
6
ByLayer
370
13
48
1
60
0
100
AcDbSpline
70
4
71
1
72
4
73
2
40
0
40
0
40
1
40
1
41
1
10
148.218606708614
20
5.68980619846658
30
0
41
1
10
148.10608940186
20
5.67913146888125
30
0
0
SPLINE
5
266
100
AcDbEntity
8
1
62
256
6
ByLayer
370
13
48
1
60
0
100
AcDbSpline
70
4
71
2
72
6
73
3
40
0
40
0
40
0
40
1
40
1
40
1
41
0.99937552972988
10
148.102331444751
20
5.60152957146905
30
0
41
0.999636859374539
10
148.10217209919
20
5.60630643070039
30
0
41
1
10
148.102108736027
20
5.6110855028779
30
0
0
SPLINE
5
267
100
AcDbEntity
8
1
62
256
6
ByLayer
370
13
48
1
60
0
100
AcDbSpline
70
4
71
3
72
18
73
14
40
0
40
0
40
0
40
0
40
0.500000000000086
40
0.500000000000086
40
0.750000000000128
40
0.750000000000128
40
0.781250000000116
40
0.781250000000116
40
0.812500000000104
40
0.812500000000104
40
0.875000000000079
40
0.875000000000079
40
1
40
1
40
1
40
1
41
1
10
152.962920600755
20
8.40570868995698
30
0
41
1
10
152.481247754087
20
8.38046528572212
30
0
41
1
10
151.999573372668
20
8.35525170351343
30
0
41
1
10
151.277064493319
20
8.31737802983955
30
0
41
1
10
151.036232373028
20
8.3046713142619
30
0
41
1
10
150.7652886858
20
8.29052494666954
30
0
41
1
10
150.735182462195
20
8.28898009116816
30
0
41
1
10
150.67497525551
20
8.28578720080614
30
0
41
1
10
150.644867844645
20
8.28426572093682
30
0
41
1
10
150.554380756116
20
8.28294708725704
30
0
41
1
10
150.494269299089
20
8.28555190947873
30
0
41
1
10
150.315970072475
20
8.30316970820945
30
0
41
1
10
150.19916170691
20
8.32773686571085
30
0
41
1
10
150.084526428738
20
8.36584442179765
30
0
0
SPLINE
5
268
100
AcDbEntity
8
1
62
256
6
ByLayer
370
13
48
1
60
0
100
AcDbSpline
70
4
71
2
72
6
73
3
40
0
40
0
40
0
40
1
40
1
40
1
41
0.99937552972988
10
148.09281127189
20
5.78318529113023
30
0
41
0.999636859374539
10
148.093152116995
20
5.77841794388694
30
0
41
1
10
148.093588650012
20
5.77365842871279
30
0
0
SPLINE
5
269
100
AcDbEntity
8
1
62
256
6
ByLayer
370
13
48
1
60
0
100
AcDbSpline
70
4
71
3
72
22
73
18
40
0
40
0
40
0
40
0
40
0.125000000000104
40
0.125000000000104
40
0.187500000000155
40
0.187500000000155
40
0.250000000000207
40
0.250000000000207
40
0.281250000000219
40
0.281250000000219
40
0.312500000000232
40
0.312500000000232
40
0.37500000000023
40
0.37500000000023
40
0.5000000000002
40
0.5000000000002
40
1
40
1
40
1
40
1
41
1
10
150.171782400505
20
3.03117726925254
30
0
41
1
10
150.280193206861
20
3.10336893487948
30
0
41
1
10
150.396257962628
20
3.16073585638603
30
0
41
1
10
150.581992483463
20
3.22424607305192
30
0
41
1
10
150.645454111597
20
3.24141895576867
30
0
41
1
10
150.772269658245
20
3.2671463711919
30
0
41
1
10
150.836072051525
20
3.27591885906546
30
0
41
1
10
150.93238691971
20
3.28274016739633
30
0
41
1
10
150.964578211439
20
3.28411885237335
30
0
41
1
10
151.028903831479
20
3.28746679018377
30
0
41
1
10
151.061065821434
20
3.28914926110582
30
0
41
1
10
151.157550859449
20
3.29420633483241
30
0
41
1
10
151.221873364871
20
3.29758656342725
30
0
41
1
10
151.414842396764
20
3.30771153595111
30
0
41
1
10
151.543489444413
20
3.31445095669162
30
0
41
1
10
152.186724575653
20
3.34814818111261
30
0
41
1
10
152.701311792943
20
3.375122899849
30
0
41
1
10
153.215899341856
20
3.40209129053423
30
0
0
SPLINE
5
26A
100
AcDbEntity
8
1
62
256
6
ByLayer
370
13
48
1
60
0
100
AcDbSpline
70
4
71
3
72
10
73
6
40
0
40
0
40
0
40
0
40
0.5
40
0.5
40
1
40
1
40
1
40
1
41
1
10
150.00284334958
20
2.8778256728416
30
0
41
1
10
149.999163134238
20
2.87763280092824
30
0
41
1
10
149.982469213194
20
2.88788960836598
30
0
41
1
10
149.933032660546
20
2.92229571629474
30
0
41
1
10
149.900288556755
20
2.94635013019251
30
0
41
1
10
149.868916645535
20
2.97005135536366
30
0
0
SPLINE
5
26B
100
AcDbEntity
8
1
62
256
6
ByLayer
370
13
48
1
60
0
100
AcDbSpline
70
4
71
3
72
10
73
6
40
0
40
0
40
0
40
0
40
0.5
40
0.5
40
1
40
1
40
1
40
1
41
1
10
150.034456495944
20
2.96769693738679
30
0
41
1
10
150.030774723208
20
2.9675039838539
30
0
41
1
10
150.010411179082
20
2.96769075805122
30
0
41
1
10
149.949081101211
20
2.9686052863772
30
0
41
1
10
149.908174463195
20
2.9693203712894
30
0
41
1
10
149.868916645535
20
2.97005135536366
30
0
0
SPLINE
5
26C
100
AcDbEntity
8
1
62
256
6
ByLayer
370
13
48
1
60
0
100
AcDbSpline
70
4
71
2
72
6
73
3
40
0
40
0
40
0
40
1
40
1
40
1
41
1
10
157.949955871483
20
6.28917941197113
30
0
41
0.997409491337352
10
157.950433923136
20
6.25312307841609
30
0
41
1
10
157.945755238696
20
6.21737330519778
30
0
0
SPLINE
5
26D
100
AcDbEntity
8
1
62
256
6
ByLayer
370
13
48
1
60
0
100
AcDbSpline
70
4
71
3
72
10
73
6
40
0
40
0
40
0
40
0
40
0.5
40
0.5
40
1
40
1
40
1
40
1
41
1
10
156.908168788088
20
2.9237518139233
30
0
41
1
10
156.881604792223
20
2.92278104693008
30
0
41
1
10
156.857484788206
20
2.92328760303047
30
0
41
1
10
156.809122929624
20
2.92415780674267
30
0
41
1
10
156.784783621111
20
2.92450913435948
30
0
41
1
10
156.760529482699
20
2.92490552127569
30
0
0
SPLINE
5
26E
100
AcDbEntity
8
1
62
256
6
ByLayer
370
13
48
1
60
0
100
AcDbSpline
70
4
71
1
72
4
73
2
40
0
40
0
40
1
40
1
41
1
10
148.806085464529
20
9.11573183001451
30
0
41
1
10
148.936792225741
20
8.9666885961164
30
0
0
SPLINE
5
26F
100
AcDbEntity
8
1
62
256
6
ByLayer
370
13
48
1
60
0
100
AcDbSpline
70
4
71
3
72
22
73
18
40
0
40
0
40
0
40
0
40
0.125
40
0.125
40
0.25
40
0.25
40
0.375
40
0.375
40
0.5
40
0.5
40
0.75
40
0.75
40
0.8125
40
0.8125
40
0.875
40
0.875
40
1
40
1
40
1
40
1
41
1
10
157.509841711292
20
9.10899616954796
30
0
41
1
10
157.505008263151
20
9.14441808247003
30
0
41
1
10
157.496249639558
20
9.17846296405563
30
0
41
1
10
157.471102293055
20
9.24387593328888
30
0
41
1
10
157.454751738492
20
9.27573443087491
30
0
41
1
10
157.415711815732
20
9.33473081175856
30
0
41
1
10
157.393314356214
20
9.3617790736732
30
0
41
1
10
157.343006917792
20
9.41118218751359
30
0
41
1
10
157.314846720745
20
9.43338318048879
30
0
41
1
10
157.225997062091
20
9.48975159226134
30
0
41
1
10
157.158136385116
20
9.51482865604518
30
0
41
1
10
157.071545458334
20
9.52794844550681
30
0
41
1
10
157.054075858739
20
9.52970993366236
30
0
41
1
10
157.01878554191
20
9.53123291088065
30
0
41
1
10
157.001020602096
20
9.53121413916466
30
0
41
1
10
156.947845528032
20
9.53182217580888
30
0
41
1
10
156.912395648102
20
9.53208161112138
30
0
41
1
10
156.876946054949
20
9.53209408317318
30
0
0
SPLINE
5
270
100
AcDbEntity
8
1
62
256
6
ByLayer
370
13
48
1
60
0
100
AcDbSpline
70
4
71
1
72
4
73
2
40
0
40
0
40
1
40
1
41
1
10
156.804812502181
20
2.76244185551343
30
0
41
1
10
156.908168788088
20
2.9237518139233
30
0
0
SPLINE
5
271
100
AcDbEntity
8
1
62
256
6
ByLayer
370
13
48
1
60
0
100
AcDbSpline
70
4
71
3
72
24
73
20
40
0
40
0
40
0
40
0
40
0.249999999999852
40
0.249999999999852
40
0.374999999999778
40
0.374999999999778
40
0.499999999999705
40
0.499999999999705
40
0.624999999999631
40
0.624999999999631
40
0.749999999999558
40
0.749999999999558
40
0.812499999999594
40
0.812499999999594
40
0.843749999999612
40
0.843749999999612
40
0.87499999999963
40
0.87499999999963
40
1
40
1
40
1
40
1
41
1
10
157.458537903448
20
3.01605269438767
30
0
41
1
10
157.436843885736
20
3.00377780384801
30
0
41
1
10
157.412562315648
20
2.99130278081285
30
0
41
1
10
157.370435122034
20
2.97307270446959
30
0
41
1
10
157.355449060021
20
2.96709084764942
30
0
41
1
10
157.322549040133
20
2.95542137839601
30
0
41
1
10
157.304942633635
20
2.94984594264659
30
0
41
1
10
157.26620603301
20
2.93987858599027
30
0
41
1
10
157.245419016218
20
2.93562699730637
30
0
41
1
10
157.205010690739
20
2.93021099451715
30
0
41
1
10
157.185656777185
20
2.92912776220672
30
0
41
1
10
157.158174581581
20
2.92827295700289
30
0
41
1
10
157.149527393752
20
2.92834019919667
30
0
41
1
10
157.13515527194
20
2.92748974379336
30
0
41
1
10
157.13007255628
20
2.92700889125055
30
0
41
1
10
157.120105739032
20
2.92618141711529
30
0
41
1
10
157.115338021565
20
2.92591313829863
30
0
41
1
10
157.09183834028
20
2.92480029638017
30
0
41
1
10
157.073453641204
20
2.9241899223978
30
0
41
1
10
157.055351763602
20
2.92377027814902
30
0
0
SPLINE
5
272
100
AcDbEntity
8
1
62
256
6
ByLayer
370
13
48
1
60
0
100
AcDbSpline
70
4
71
3
72
11
73
7
40
0
40
0
40
0
40
0
40
0.25
40
0.5
40
0.75
40
1
40
1
40
1
40
1
41
1
10
156.727585741801
20
9.53088006813627
30
0
41
1
10
156.714279830633
20
9.53066031010749
30
0
41
1
10
156.687672249646
20
9.52995443713721
30
0
41
1
10
156.647791224423
20
9.5281050283055
30
0
41
1
10
156.607905382855
20
9.52638700466557
30
0
41
1
10
156.58131535704
20
9.52522705722117
30
0
41
1
10
156.568020344012
20
9.52464708349368
30
0
0
SPLINE
5
273
100
AcDbEntity
8
1
62
256
6
ByLayer
370
13
48
1
60
0
100
AcDbSpline
70
4
71
3
72
11
73
7
40
0
40
0
40
0
40
0
40
0.25
40
0.5
40
0.75
40
1
40
1
40
1
40
1
41
1
10
148.806085464529
20
9.11573183001451
30
0
41
1
10
148.819341455492
20
9.11690412228995
30
0
41
1
10
148.845877061184
20
9.11898336571755
30
0
41
1
10
148.885732929841
20
9.121312790421
30
0
41
1
10
148.925579854966
20
9.12377338401953
30
0
41
1
10
148.952145465361
20
9.12539920542525
30
0
41
1
10
148.965428270679
20
9.12621211613555
30
0
0
SPLINE
5
274
100
AcDbEntity
8
1
62
256
6
ByLayer
370
13
48
1
60
0
100
AcDbSpline
70
4
71
3
72
8
73
4
40
0
40
0
40
0
40
0
40
1
40
1
40
1
40
1
41
1
10
156.876946054949
20
9.53209408317318
30
0
41
1
10
156.82715879365
20
9.53211159957453
30
0
41
1
10
156.777372047079
20
9.53168584857269
30
0
41
1
10
156.727585741801
20
9.53088006813627
30
0
0
SPLINE
5
275
100
AcDbEntity
8
1
62
256
6
ByLayer
370
13
48
1
60
0
100
AcDbSpline
70
4
71
1
72
4
73
2
40
0
40
0
40
1
40
1
41
1
10
156.760529482699
20
2.92490552127572
30
0
41
1
10
156.645469696031
20
2.75196156939239
30
0
0
SPLINE
5
276
100
AcDbEntity
8
1
62
256
6
ByLayer
370
13
48
1
60
0
100
AcDbSpline
70
4
71
3
72
10
73
6
40
0
40
0
40
0
40
0
40
0.5
40
0.5
40
1
40
1
40
1
40
1
41
1
10
148.936792225741
20
8.9666885961164
30
0
41
1
10
148.965476464157
20
8.96777048031325
30
0
41
1
10
148.992499231428
20
8.96741605158874
30
0
41
1
10
149.046578826287
20
8.96684550173737
30
0
41
1
10
149.073734717464
20
8.96664178496312
30
0
41
1
10
149.100828184211
20
8.96639420093959
30
0
0
SPLINE
5
277
100
AcDbEntity
8
1
62
256
6
ByLayer
370
13
48
1
60
0
100
AcDbSpline
70
4
71
3
72
8
73
4
40
0
40
0
40
0
40
0
40
1
40
1
40
1
40
1
41
1
10
157.055351763602
20
2.92377027814902
30
0
41
1
10
157.004415209748
20
2.92258944860484
30
0
41
1
10
156.95624854955
20
2.92319479367254
30
0
41
1
10
156.908168788088
20
2.9237518139233
30
0
0
SPLINE
5
278
100
AcDbEntity
8
1
62
256
6
ByLayer
370
13
48
1
60
0
100
AcDbSpline
70
4
71
1
72
4
73
2
40
0
40
0
40
1
40
1
41
1
10
148.102108736027
20
5.6110855028779
30
0
41
1
10
148.214406075828
20
5.61800009169326
30
0
0
SPLINE
5
279
100
AcDbEntity
8
1
62
256
6
ByLayer
370
13
48
1
60
0
100
AcDbSpline
70
4
71
2
72
6
73
3
40
0
40
0
40
0
40
1
40
1
40
1
41
1
10
148.214406075828
20
5.61800009169326
30
0
41
0.997409491337352
10
148.214884127481
20
5.58194375813689
30
0
41
1
10
148.220509020883
20
5.54632713034204
30
0
0
SPLINE
5
27A
100
AcDbEntity
8
1
62
256
6
ByLayer
370
13
48
1
60
0
100
AcDbSpline
70
4
71
2
72
6
73
3
40
0
40
0
40
0
40
1
40
1
40
1
41
1
10
148.10608940186
20
5.67913146888125
30
0
41
0.997409491337352
10
148.101655717642
20
5.6452537395011
30
0
41
1
10
148.102108736027
20
5.6110855028779
30
0
0
SPLINE
5
27B
100
AcDbEntity
8
1
62
256
6
ByLayer
370
13
48
1
60
0
100
AcDbSpline
70
4
71
3
72
18
73
14
40
0
40
0
40
0
40
0
40
0.499999999999972
40
0.499999999999972
40
0.749999999999972
40
0.749999999999972
40
0.781249999999979
40
0.781249999999979
40
0.812499999999986
40
0.812499999999986
40
0.875
40
0.875
40
1
40
1
40
1
40
1
41
1
10
153.219890145908
20
3.50243767431195
30
0
41
1
10
153.701562992577
20
3.52768107854678
30
0
41
1
10
154.183237373996
20
3.55289466075547
30
0
41
1
10
154.905746253345
20
3.59076833442936
30
0
41
1
10
155.146578373635
20
3.60347505000703
30
0
41
1
10
155.417522060864
20
3.61762141759937
30
0
41
1
10
155.447628284469
20
3.61916627310075
30
0
41
1
10
155.507835491154
20
3.62235916346276
30
0
41
1
10
155.537942902018
20
3.62388064333211
30
0
41
1
10
155.628429990548
20
3.62519927701189
30
0
41
1
10
155.688541447575
20
3.6225944547902
30
0
41
1
10
155.866840674189
20
3.60497665605951
30
0
41
1
10
155.983649039754
20
3.58040949855805
30
0
41
1
10
156.098284317926
20
3.54230194247128
30
0
0
SPLINE
5
27C
100
AcDbEntity
8
1
62
256
6
ByLayer
370
13
48
1
60
0
100
AcDbSpline
70
4
71
3
72
18
73
14
40
0
40
0
40
0
40
0
40
0.500000000000101
40
0.500000000000101
40
0.750000000000152
40
0.750000000000152
40
0.781250000000144
40
0.781250000000144
40
0.812500000000136
40
0.812500000000136
40
0.875000000000091
40
0.875000000000091
40
1
40
1
40
1
40
1
41
1
10
153.215899341856
20
3.4020912905342
30
0
41
1
10
153.689601799686
20
3.42691698439
30
0
41
1
10
154.163305635547
20
3.45171539038881
30
0
41
1
10
154.873859177299
20
3.48895837331398
30
0
41
1
10
155.110706946185
20
3.50144544395496
30
0
41
1
10
155.377166136687
20
3.51537718470473
30
0
41
1
10
155.406772831455
20
3.51692263898656
30
0
41
1
10
155.465986532757
20
3.52000690017127
30
0
41
1
10
155.495579543798
20
3.52184411388137
30
0
41
1
10
155.58446312301
20
3.52512666135891
30
0
41
1
10
155.643981715539
20
3.52388574215254
30
0
41
1
10
155.822077714092
20
3.50934489260666
30
0
41
1
10
155.940258178251
20
3.48596309298492
30
0
41
1
10
156.057807781207
20
3.4468867444206
30
0
0
SPLINE
5
27D
100
AcDbEntity
8
1
62
256
6
ByLayer
370
13
48
1
60
0
100
AcDbSpline
70
4
71
2
72
6
73
3
40
0
40
0
40
0
40
1
40
1
40
1
41
1
10
148.214406075828
20
5.61800009169326
30
0
41
0.997409491337352
10
148.213928024175
20
5.65405642524827
30
0
41
1
10
148.218606708614
20
5.68980619846658
30
0
0
SPLINE
5
27E
100
AcDbEntity
8
1
62
256
6
ByLayer
370
13
48
1
60
0
100
AcDbSpline
70
4
71
3
72
22
73
18
40
0
40
0
40
0
40
0
40
0.125000000000024
40
0.125000000000024
40
0.187500000000036
40
0.187500000000036
40
0.250000000000048
40
0.250000000000048
40
0.281250000000067
40
0.281250000000067
40
0.312500000000086
40
0.312500000000086
40
0.375000000000097
40
0.375000000000097
40
0.500000000000094
40
0.500000000000094
40
1
40
1
40
1
40
1
41
1
10
155.992579546806
20
8.87600223441183
30
0
41
1
10
155.88416874045
20
8.80381056878485
30
0
41
1
10
155.768103984682
20
8.74644364727834
30
0
41
1
10
155.582369463848
20
8.68293343061245
30
0
41
1
10
155.518907835714
20
8.6657605478957
30
0
41
1
10
155.392092289065
20
8.64003313247247
30
0
41
1
10
155.328289895786
20
8.63126064459894
30
0
41
1
10
155.2319750276
20
8.62443933626804
30
0
41
1
10
155.199783735872
20
8.62306065129104
30
0
41
1
10
155.135458115832
20
8.6197127134806
30
0
41
1
10
155.103296125876
20
8.61803024255855
30
0
41
1
10
155.006811087862
20
8.61297316883199
30
0
41
1
10
154.94248858244
20
8.60959294023712
30
0
41
1
10
154.749519550547
20
8.59946796771325
30
0
41
1
10
154.620872502897
20
8.59272854697278
30
0
41
1
10
153.977637371657
20
8.55903132255176
30
0
41
1
10
153.463050154367
20
8.53205660381536
30
0
41
1
10
152.948462605455
20
8.50508821313014
30
0
0
SPLINE
5
27F
100
AcDbEntity
8
1
62
256
6
ByLayer
370
13
48
1
60
0
100
AcDbSpline
70
4
71
3
72
11
73
7
40
0
40
0
40
0
40
0
40
0.25
40
0.5
40
0.75
40
1
40
1
40
1
40
1
41
1
10
149.43677620551
20
2.3762994355281
30
0
41
1
10
149.450082116677
20
2.37651919355687
30
0
41
1
10
149.476689697665
20
2.37722506652716
30
0
41
1
10
149.516570722888
20
2.37907447535889
30
0
41
1
10
149.556456564455
20
2.3807924989988
30
0
41
1
10
149.58304659027
20
2.38195244644322
30
0
41
1
10
149.596341603299
20
2.38253242017069
30
0
0
SPLINE
5
280
100
AcDbEntity
8
1
62
256
6
ByLayer
370
13
48
1
60
0
100
AcDbSpline
70
4
71
3
72
22
73
18
40
0
40
0
40
0
40
0
40
0.12499999999999
40
0.12499999999999
40
0.249999999999979
40
0.249999999999979
40
0.374999999999969
40
0.374999999999969
40
0.499999999999958
40
0.499999999999958
40
0.624999999999948
40
0.624999999999948
40
0.687499999999943
40
0.687499999999943
40
0.749999999999938
40
0.749999999999938
40
1
40
1
40
1
40
1
41
1
10
148.654520236018
20
2.7981833341164
30
0
41
1
10
148.660202227556
20
2.75654287297732
30
0
41
1
10
148.671349867572
20
2.7168198724261
30
0
41
1
10
148.703952731357
20
2.64098998122677
30
0
41
1
10
148.725438865584
20
2.60444044975679
30
0
41
1
10
148.776114334192
20
2.5391581651017
30
0
41
1
10
148.80549290514
20
2.50943258549521
30
0
41
1
10
148.871079370148
20
2.45817667182041
30
0
41
1
10
148.906393690534
20
2.4369608025315
30
0
41
1
10
148.982057202987
20
2.40334045638355
30
0
41
1
10
149.022289180311
20
2.39112967215243
30
0
41
1
10
149.083095531227
20
2.38034263977136
30
0
41
1
10
149.103575957612
20
2.37795249929715
30
0
41
1
10
149.144999792108
20
2.37580940578965
30
0
41
1
10
149.165902221221
20
2.37594605624517
30
0
41
1
10
149.27008613271
20
2.37469562556498
30
0
41
1
10
149.353431804299
20
2.37495052466588
30
0
41
1
10
149.43677620551
20
2.3762994355281
30
0
0
SPLINE
5
281
100
AcDbEntity
8
1
62
256
6
ByLayer
370
13
48
1
60
0
100
AcDbSpline
70
4
71
3
72
22
73
18
40
0
40
0
40
0
40
0
40
0.124999999999959
40
0.124999999999959
40
0.187499999999951
40
0.187499999999951
40
0.249999999999942
40
0.249999999999942
40
0.281249999999938
40
0.281249999999938
40
0.312499999999934
40
0.312499999999934
40
0.374999999999926
40
0.374999999999926
40
0.499999999999935
40
0.499999999999935
40
1
40
1
40
1
40
1
41
1
10
150.125953877409
20
3.1150101359116
30
0
41
1
10
150.237165824439
20
3.18906710461823
30
0
41
1
10
150.355213153475
20
3.24798387338436
30
0
41
1
10
150.542236068262
20
3.31431577027072
30
0
41
1
10
150.606718872433
20
3.33279869532004
30
0
41
1
10
150.735954314533
20
3.36133659651478
30
0
41
1
10
150.800864652374
20
3.37148171925207
30
0
41
1
10
150.89865106851
20
3.38076755715724
30
0
41
1
10
150.931342800635
20
3.38250624992509
30
0
41
1
10
150.99672923466
20
3.38594178262406
30
0
41
1
10
151.029424359535
20
3.38763266160947
30
0
41
1
10
151.127505559434
20
3.392764132677
30
0
41
1
10
151.19289184509
20
3.3962017563382
30
0
41
1
10
151.389051956431
20
3.40649694953291
30
0
41
1
10
151.51982620364
20
3.41334857855426
30
0
41
1
10
152.173697687568
20
3.44760323027958
30
0
41
1
10
152.696793710996
20
3.47502335180732
30
0
41
1
10
153.219890145908
20
3.50243767431198
30
0
0
SPLINE
5
282
100
AcDbEntity
8
1
62
256
6
ByLayer
370
13
48
1
60
0
100
AcDbSpline
70
4
71
3
72
22
73
18
40
0
40
0
40
0
40
0
40
0.124999999999963
40
0.124999999999963
40
0.187499999999956
40
0.187499999999956
40
0.24999999999995
40
0.24999999999995
40
0.281249999999946
40
0.281249999999946
40
0.312499999999943
40
0.312499999999943
40
0.374999999999936
40
0.374999999999936
40
0.499999999999949
40
0.499999999999949
40
1
40
1
40
1
40
1
41
1
10
156.056856869254
20
8.7931362283573
30
0
41
1
10
155.945644922225
20
8.7190792596507
30
0
41
1
10
155.827597593188
20
8.66016249088457
30
0
41
1
10
155.640574678402
20
8.59383059399818
30
0
41
1
10
155.576091874231
20
8.57534766894889
30
0
41
1
10
155.446856432131
20
8.54680976775416
30
0
41
1
10
155.38194609429
20
8.53666464501686
30
0
41
1
10
155.284159678154
20
8.52737880711169
30
0
41
1
10
155.251467946029
20
8.52564011434382
30
0
41
1
10
155.186081512004
20
8.52220458164487
30
0
41
1
10
155.153386387129
20
8.52051370265946
30
0
41
1
10
155.05530518723
20
8.5153822315919
30
0
41
1
10
154.989918901574
20
8.51194460793073
30
0
41
1
10
154.793758790233
20
8.50164941473602
30
0
41
1
10
154.662984543024
20
8.49479778571467
30
0
41
1
10
154.009113059096
20
8.46054313398932
30
0
41
1
10
153.486017035668
20
8.43312301246158
30
0
41
1
10
152.962920600756
20
8.40570868995695
30
0
0
SPLINE
5
283
100
AcDbEntity
8
1
62
256
6
ByLayer
370
13
48
1
60
0
100
AcDbSpline
70
4
71
3
72
18
73
14
40
0
40
0
40
0
40
0
40
0.499999999999899
40
0.499999999999899
40
0.749999999999848
40
0.749999999999848
40
0.781249999999856
40
0.781249999999856
40
0.812499999999864
40
0.812499999999864
40
0.87499999999991
40
0.87499999999991
40
1
40
1
40
1
40
1
41
1
10
152.948462605454
20
8.50508821313016
30
0
41
1
10
152.474760147624
20
8.48026251927436
30
0
41
1
10
152.001056311764
20
8.45546411327555
30
0
41
1
10
151.290502770012
20
8.41822113035039
30
0
41
1
10
151.053655001126
20
8.4057340597094
30
0
41
1
10
150.787195810623
20
8.39180231895966
30
0
41
1
10
150.757589115856
20
8.39025686467781
30
0
41
1
10
150.698375414554
20
8.3871726034931
30
0
41
1
10
150.668782403512
20
8.38533538978299
30
0
41
1
10
150.5798988243
20
8.38205284230546
30
0
41
1
10
150.520380231771
20
8.38329376151182
30
0
41
1
10
150.342284233219
20
8.39783461105773
30
0
41
1
10
150.224103769059
20
8.42121641067942
30
0
41
1
10
150.106554166103
20
8.46029275924377
30
0
0
SPLINE
5
284
100
AcDbEntity
8
1
62
256
6
ByLayer
370
13
48
1
60
0
100
AcDbSpline
70
4
71
3
72
10
73
6
40
0
40
0
40
0
40
0
40
0.5
40
0.5
40
1
40
1
40
1
40
1
41
1
10
156.152294198054
20
9.0288704005205
30
0
41
1
10
156.148613982712
20
9.02867752860715
30
0
41
1
10
156.158110082271
20
9.01804349932976
30
0
41
1
10
156.197369014697
20
8.98310400492676
30
0
41
1
10
156.227175791849
20
8.95889565226284
30
0
41
1
10
156.258547703069
20
8.9351944270916
30
0
0
SPLINE
5
285
100
AcDbEntity
8
1
62
256
6
ByLayer
370
13
48
1
60
0
100
AcDbSpline
70
4
71
2
72
6
73
3
40
0
40
0
40
0
40
1
40
1
40
1
41
1
10
148.104660249599
20
5.70640131851326
30
0
41
0.997409491337352
10
148.096709666576
20
5.73963001594926
30
0
41
1
10
148.093588650012
20
5.77365842871279
30
0
0
SPLINE
5
286
100
AcDbEntity
8
1
62
256
6
ByLayer
370
13
48
1
60
0
100
AcDbSpline
70
4
71
1
72
4
73
2
40
0
40
0
40
1
40
1
41
1
10
149.100828184211
20
8.96639420093959
30
0
41
1
10
148.965428270679
20
9.12621211613555
30
0
0
SPLINE
5
287
100
AcDbEntity
8
1
62
256
6
ByLayer
370
13
48
1
60
0
100
AcDbSpline
70
4
71
1
72
4
73
2
40
0
40
0
40
1
40
1
41
1
10
148.654520236018
20
2.7981833341164
30
0
41
1
10
148.624489056897
20
2.79734028872082
30
0
0
SPLINE
5
288
100
AcDbEntity
8
1
62
256
6
ByLayer
370
13
48
1
60
0
100
AcDbSpline
70
4
71
3
72
8
73
4
40
0
40
0
40
0
40
0
40
1
40
1
40
1
40
1
41
1
10
152.220728460167
20
5.6692541633312
30
0
41
1
10
152.214401123794
20
5.66950479579839
30
0
41
1
10
152.208076322904
20
5.66975537195506
30
0
41
1
10
152.201753906596
20
5.6700058950442
30
0
0
SPLINE
5
289
100
AcDbEntity
8
1
62
256
6
ByLayer
370
13
48
1
60
0
100
AcDbSpline
70
4
71
3
72
16
73
12
40
0
40
0
40
0
40
0
40
0.125
40
0.125
40
0.25
40
0.25
40
0.5
40
0.5
40
0.75
40
0.75
40
1
40
1
40
1
40
1
41
1
10
153.970888448592
20
5.76272230764317
30
0
41
1
10
153.982847087874
20
5.75897038877491
30
0
41
1
10
153.995666487772
20
5.75827135160742
30
0
41
1
10
154.020252445914
20
5.76408320030509
30
0
41
1
10
154.031917999496
20
5.77055668233896
30
0
41
1
10
154.061864129404
20
5.79590892184072
30
0
41
1
10
154.076119283435
20
5.82041166334568
30
0
41
1
10
154.096273554158
20
5.87109843459387
30
0
41
1
10
154.102518461282
20
5.89803079334189
30
0
41
1
10
154.109727688545
20
5.95242388198685
30
0
41
1
10
154.110654465569
20
5.97998164191554
30
0
41
1
10
154.109216774725
20
6.00741441740959
30
0
0
SPLINE
5
28A
100
AcDbEntity
8
1
62
256
6
ByLayer
370
13
48
1
60
0
100
AcDbSpline
70
4
71
3
72
18
73
14
40
0
40
0
40
0
40
0
40
0.124999999999968
40
0.124999999999968
40
0.249999999999936
40
0.249999999999936
40
0.499999999999918
40
0.499999999999918
40
0.7499999999999
40
0.7499999999999
40
0.87499999999995
40
0.87499999999995
40
1
40
1
40
1
40
1
41
1
10
152.468037243372
20
5.2868825206458
30
0
41
1
10
152.47425441168
20
5.30466694628421
30
0
41
1
10
152.47536767634
20
5.3243786624007
30
0
41
1
10
152.472202348669
20
5.36478958830852
30
0
41
1
10
152.467820688808
20
5.38526232406056
30
0
41
1
10
152.449358092759
20
5.44591440815358
30
0
41
1
10
152.430010957275
20
5.48550063023959
30
0
41
1
10
152.382787112102
20
5.55852176411938
30
0
41
1
10
152.354929618134
20
5.59193941582311
30
0
41
1
10
152.308013881634
20
5.63233668982122
30
0
41
1
10
152.291444739741
20
5.64419197011151
30
0
41
1
10
152.25688611923
20
5.66222438989595
30
0
41
1
10
152.238911536948
20
5.66853391248219
30
0
41
1
10
152.220728460167
20
5.6692541633312
30
0
0
SPLINE
5
28B
100
AcDbEntity
8
1
62
256
6
ByLayer
370
13
48
1
60
0
100
AcDbSpline
70
4
71
3
72
16
73
12
40
0
40
0
40
0
40
0
40
0.249999999999999
40
0.249999999999999
40
0.499999999999999
40
0.499999999999999
40
0.749999999999998
40
0.749999999999998
40
0.874999999999999
40
0.874999999999999
40
1
40
1
40
1
40
1
41
1
10
152.518485271529
20
6.82165744902642
30
0
41
1
10
152.541425445693
20
6.83661561804797
30
0
41
1
10
152.565545551716
20
6.84962560599379
30
0
41
1
10
152.61564065759
20
6.87077413201868
30
0
41
1
10
152.641635085254
20
6.87897044787474
30
0
41
1
10
152.694279412442
20
6.8873532615043
30
0
41
1
10
152.721314080287
20
6.8877264651228
30
0
41
1
10
152.756645875216
20
6.87523116640938
30
0
41
1
10
152.767251310648
20
6.86869930233209
30
0
41
1
10
152.782741436439
20
6.85112930899697
30
0
41
1
10
152.787524930742
20
6.84020359768778
30
0
41
1
10
152.789294529619
20
6.82842152599241
30
0
0
SPLINE
5
28C
100
AcDbEntity
8
1
62
256
6
ByLayer
370
13
48
1
60
0
100
AcDbSpline
70
4
71
3
72
16
73
12
40
0
40
0
40
0
40
0
40
0.125000000000003
40
0.125000000000003
40
0.250000000000006
40
0.250000000000006
40
0.500000000000004
40
0.500000000000004
40
0.750000000000002
40
0.750000000000002
40
1
40
1
40
1
40
1
41
1
10
152.393321514432
20
6.5702268302278
30
0
41
1
10
152.38425112621
20
6.57723897749662
30
0
41
1
10
152.377149094079
20
6.58673706484527
30
0
41
1
10
152.369179774923
20
6.60921288708573
30
0
41
1
10
152.36833618213
20
6.62208938889142
30
0
41
1
10
152.373115974253
20
6.66032344731232
30
0
41
1
10
152.385290236946
20
6.68589132851471
30
0
41
1
10
152.415418390222
20
6.73147279798712
30
0
41
1
10
152.433783409329
20
6.75220127084739
30
0
41
1
10
152.473800504519
20
6.78980109313139
30
0
41
1
10
152.495548206876
20
6.80670130756545
30
0
41
1
10
152.518485271529
20
6.82165744902642
30
0
0
SPLINE
5
28D
100
AcDbEntity
8
1
62
256
6
ByLayer
370
13
48
1
60
0
100
AcDbSpline
70
4
71
3
72
16
73
12
40
0
40
0
40
0
40
0
40
0.125000000000079
40
0.125000000000079
40
0.250000000000157
40
0.250000000000157
40
0.500000000000105
40
0.500000000000105
40
0.750000000000052
40
0.750000000000052
40
1
40
1
40
1
40
1
41
1
10
152.882343813175
20
5.05293542775891
30
0
41
1
10
152.881815855576
20
5.04104160790448
30
0
41
1
10
152.878174992469
20
5.02960963582549
30
0
41
1
10
152.864582469498
20
5.01052715855189
30
0
41
1
10
152.854700697934
20
5.00295068049488
30
0
41
1
10
152.821303253559
20
4.98699966380642
30
0
41
1
10
152.793983944194
20
4.98439372487965
30
0
41
1
10
152.74075707644
20
4.98723223375365
30
0
41
1
10
152.714039057642
20
4.99267107576296
30
0
41
1
10
152.662042077406
20
5.00845868336125
30
0
41
1
10
152.636685793464
20
5.01887854078299
30
0
41
1
10
152.612311037967
20
5.03135517481601
30
0
0
SPLINE
5
28E
100
AcDbEntity
8
1
62
256
6
ByLayer
370
13
48
1
60
0
100
AcDbSpline
70
4
71
3
72
18
73
14
40
0
40
0
40
0
40
0
40
0.125
40
0.125
40
0.25
40
0.25
40
0.5
40
0.5
40
0.75
40
0.75
40
0.875
40
0.875
40
1
40
1
40
1
40
1
41
1
10
153.925086563366
20
6.23695333724544
30
0
41
1
10
153.904983645586
20
6.2375728583383
30
0
41
1
10
153.885224278843
20
6.24381555610762
30
0
41
1
10
153.847553796989
20
6.2618205876862
30
0
41
1
10
153.829803801552
20
6.27361084711654
30
0
41
1
10
153.779930218969
20
6.31390230110097
30
0
41
1
10
153.751026555994
20
6.34733884784194
30
0
41
1
10
153.703810928778
20
6.42049223280026
30
0
41
1
10
153.685745571712
20
6.45958405611077
30
0
41
1
10
153.670214512228
20
6.52048167146197
30
0
41
1
10
153.66708173542
20
6.54093723764919
30
0
41
1
10
153.666814331254
20
6.58129029279456
30
0
41
1
10
153.66959688662
20
6.60134704476263
30
0
41
1
10
153.677777780161
20
6.61932497993087
30
0
0
SPLINE
5
28F
100
AcDbEntity
8
1
62
256
6
ByLayer
370
13
48
1
60
0
100
AcDbSpline
70
4
71
3
72
8
73
4
40
0
40
0
40
0
40
0
40
1
40
1
40
1
40
1
41
1
10
153.744103318873
20
5.35375830988116
30
0
41
1
10
153.747569956496
20
5.34786560339049
30
0
41
1
10
153.751035947176
20
5.34197483678892
30
0
41
1
10
153.754501327592
20
5.33608589565716
30
0
0
SPLINE
5
290
100
AcDbEntity
8
1
62
256
6
ByLayer
370
13
48
1
60
0
100
AcDbSpline
70
4
71
3
72
16
73
12
40
0
40
0
40
0
40
0
40
0.125000000000069
40
0.125000000000069
40
0.250000000000137
40
0.250000000000137
40
0.500000000000092
40
0.500000000000092
40
0.750000000000046
40
0.750000000000046
40
1
40
1
40
1
40
1
41
1
10
152.201753906596
20
5.6700058950442
30
0
41
1
10
152.191521360618
20
5.66509098543679
30
0
41
1
10
152.180134062258
20
5.66312332896987
30
0
41
1
10
152.157406575071
20
5.66645558506775
30
0
41
1
10
152.146163561638
20
5.67172847997784
30
0
41
1
10
152.116274422633
20
5.69394488591317
30
0
41
1
10
152.100598292611
20
5.71687899528985
30
0
41
1
10
152.076751791684
20
5.76525978380906
30
0
41
1
10
152.068174493576
20
5.79141534369671
30
0
41
1
10
152.055902783435
20
5.8447874796739
30
0
41
1
10
152.052229638932
20
5.87210416793053
30
0
41
1
10
152.050791948089
20
5.89953694342452
30
0
0
SPLINE
5
291
100
AcDbEntity
8
1
62
256
6
ByLayer
370
13
48
1
60
0
100
AcDbSpline
70
4
71
3
72
16
73
12
40
0
40
0
40
0
40
0
40
0.125000000000085
40
0.125000000000085
40
0.250000000000169
40
0.250000000000169
40
0.500000000000113
40
0.500000000000113
40
0.750000000000056
40
0.750000000000056
40
1
40
1
40
1
40
1
41
1
10
153.265479028849
20
6.85337729812605
30
0
41
1
10
153.267275386761
20
6.86533759202416
30
0
41
1
10
153.272205056111
20
6.87683710757625
30
0
41
1
10
153.288128869201
20
6.89604176258783
30
0
41
1
10
153.299045938918
20
6.90367249832198
30
0
41
1
10
153.334986356799
20
6.91975678660467
30
0
41
1
10
153.363367832864
20
6.92241839132933
30
0
41
1
10
153.418090273516
20
6.91965826210975
30
0
41
1
10
153.445256889148
20
6.91424293006429
30
0
41
1
10
153.497837519573
20
6.89848591027624
30
0
41
1
10
153.523322929351
20
6.8880728200528
30
0
41
1
10
153.547697684847
20
6.87559618601978
30
0
0
SPLINE
5
292
100
AcDbEntity
8
1
62
256
6
ByLayer
370
13
48
1
60
0
100
AcDbSpline
70
4
71
3
72
8
73
4
40
0
40
0
40
0
40
0
40
1
40
1
40
1
40
1
41
1
10
153.25389075626
20
6.83629877765262
30
0
41
1
10
153.257754274934
20
6.84199340724138
30
0
41
1
10
153.261617017703
20
6.84768621156223
30
0
41
1
10
153.265479028849
20
6.85337729812605
30
0
0
SPLINE
5
293
100
AcDbEntity
8
1
62
256
6
ByLayer
370
13
48
1
60
0
100
AcDbSpline
70
4
71
3
72
18
73
14
40
0
40
0
40
0
40
0
40
0.125
40
0.125
40
0.25
40
0.25
40
0.5
40
0.5
40
0.750000000000001
40
0.750000000000001
40
0.875000000000001
40
0.875000000000001
40
1
40
1
40
1
40
1
41
1
10
152.800596693447
20
6.8125426424584
30
0
41
1
10
152.811429471965
20
6.79732518557717
30
0
41
1
10
152.826643462772
20
6.78569268325666
30
0
41
1
10
152.8609303379
20
6.76682739010289
30
0
41
1
10
152.879878589762
20
6.7598100655714
30
0
41
1
10
152.939244059456
20
6.74410839193871
30
0
41
1
10
152.982305948529
20
6.74064336047152
30
0
41
1
10
153.068868328466
20
6.74517583010433
30
0
41
1
10
153.112343564578
20
6.75316475335524
30
0
41
1
10
153.172783446431
20
6.77516513696088
30
0
41
1
10
153.192184191853
20
6.78422984760877
30
0
41
1
10
153.227135735732
20
6.80665554504978
30
0
41
1
10
153.242788034267
20
6.81993393138058
30
0
41
1
10
153.25389075626
20
6.83629877765262
30
0
0
SPLINE
5
294
100
AcDbEntity
8
1
62
256
6
ByLayer
370
13
48
1
60
0
100
AcDbSpline
70
4
71
3
72
8
73
4
40
0
40
0
40
0
40
0
40
1
40
1
40
1
40
1
41
1
10
152.461551284825
20
5.26832525519188
30
0
41
1
10
152.463712136056
20
5.27450905462999
30
0
41
1
10
152.465874098523
20
5.28069476975787
30
0
41
1
10
152.468037243372
20
5.28688252064578
30
0
0
SPLINE
5
295
100
AcDbEntity
8
1
62
256
6
ByLayer
370
13
48
1
60
0
100
AcDbSpline
70
4
71
3
72
8
73
4
40
0
40
0
40
0
40
0
40
1
40
1
40
1
40
1
41
1
10
152.176934393432
20
6.14359041824181
30
0
41
1
10
152.183195988089
20
6.14450044140017
30
0
41
1
10
152.189459948718
20
6.14541076659191
30
0
41
1
10
152.195726425053
20
6.14632141281584
30
0
0
SPLINE
5
296
100
AcDbEntity
8
1
62
256
6
ByLayer
370
13
48
1
60
0
100
AcDbSpline
70
4
71
3
72
16
73
12
40
0
40
0
40
0
40
0
40
0.25
40
0.25
40
0.5
40
0.5
40
0.75
40
0.75
40
0.875
40
0.875
40
1
40
1
40
1
40
1
41
1
10
154.109216774725
20
6.00741441740959
30
0
41
1
10
154.107778888979
20
6.03485091188511
30
0
41
1
10
154.103978853069
20
6.06215230033752
30
0
41
1
10
154.091113445501
20
6.11552823823757
30
0
41
1
10
154.082088221585
20
6.1416499596142
30
0
41
1
10
154.056739258114
20
6.18995496834998
30
0
41
1
10
154.040348768338
20
6.212556079015
30
0
41
1
10
154.007530774486
20
6.23494441120357
30
0
41
1
10
153.995234961116
20
6.24013494164421
30
0
41
1
10
153.97017871762
20
6.24331929848219
30
0
41
1
10
153.957578276813
20
6.24129185064314
30
0
41
1
10
153.946068935429
20
6.23630683084076
30
0
0
SPLINE
5
297
100
AcDbEntity
8
1
62
256
6
ByLayer
370
13
48
1
60
0
100
AcDbSpline
70
4
71
3
72
8
73
4
40
0
40
0
40
0
40
0
40
1
40
1
40
1
40
1
41
1
10
153.946068935429
20
6.23630683084076
30
0
41
1
10
153.939076535618
20
6.23652224158243
30
0
41
1
10
153.932082446356
20
6.2367377418218
30
0
41
1
10
153.925086563366
20
6.23695333724544
30
0
0
SPLINE
5
298
100
AcDbEntity
8
1
62
256
6
ByLayer
370
13
48
1
60
0
100
AcDbSpline
70
4
71
3
72
8
73
4
40
0
40
0
40
0
40
0
40
1
40
1
40
1
40
1
41
1
10
153.358528312405
20
5.07789119989255
30
0
41
1
10
153.354092577228
20
5.08314741999857
30
0
41
1
10
153.349655934881
20
5.08840527197603
30
0
41
1
10
153.345218330086
20
5.09366485811825
30
0
0
SPLINE
5
299
100
AcDbEntity
8
1
62
256
6
ByLayer
370
13
48
1
60
0
100
AcDbSpline
70
4
71
3
72
8
73
4
40
0
40
0
40
0
40
0
40
1
40
1
40
1
40
1
41
1
10
153.95008859848
20
5.7598860877608
30
0
41
1
10
153.957023621432
20
5.76083177102828
30
0
41
1
10
153.963956870433
20
5.76177717213733
30
0
41
1
10
153.970888448592
20
5.76272230764317
30
0
0
SPLINE
5
29A
100
AcDbEntity
8
1
62
256
6
ByLayer
370
13
48
1
60
0
100
AcDbSpline
70
4
71
3
72
16
73
12
40
0
40
0
40
0
40
0
40
0.125000000000003
40
0.125000000000003
40
0.250000000000005
40
0.250000000000005
40
0.500000000000003
40
0.500000000000003
40
0.750000000000002
40
0.750000000000002
40
1
40
1
40
1
40
1
41
1
10
153.754501327592
20
5.33608589565719
30
0
41
1
10
153.764840116127
20
5.32914022243202
30
0
41
1
10
153.773230954502
20
5.31970967855651
30
0
41
1
10
153.783531563776
20
5.29735603405402
30
0
41
1
10
153.785410454722
20
5.28453378992543
30
0
41
1
10
153.783173636105
20
5.24643300309876
30
0
41
1
10
153.772061540112
20
5.2209207876943
30
0
41
1
10
153.743428959734
20
5.17541769787627
30
0
41
1
10
153.725512537461
20
5.15471273497983
30
0
41
1
10
153.68607909246
20
5.1171435005061
30
0
41
1
10
153.664460515938
20
5.10025005327037
30
0
41
1
10
153.641523451285
20
5.0852939118094
30
0
0
SPLINE
5
29B
100
AcDbEntity
8
1
62
256
6
ByLayer
370
13
48
1
60
0
100
AcDbSpline
70
4
71
3
72
8
73
4
40
0
40
0
40
0
40
0
40
1
40
1
40
1
40
1
41
1
10
152.40171170466
20
6.55244919069548
30
0
41
1
10
152.398913613654
20
6.5583769342297
30
0
41
1
10
152.396116911347
20
6.56430277674855
30
0
41
1
10
152.393321514432
20
6.5702268302278
30
0
0
SPLINE
5
29C
100
AcDbEntity
8
1
62
256
6
ByLayer
370
13
48
1
60
0
100
AcDbSpline
70
4
71
3
72
16
73
12
40
0
40
0
40
0
40
0
40
0.249999999999998
40
0.249999999999998
40
0.499999999999996
40
0.499999999999996
40
0.749999999999995
40
0.749999999999995
40
0.874999999999997
40
0.874999999999997
40
1
40
1
40
1
40
1
41
1
10
153.547697684847
20
6.87559618601978
30
0
41
1
10
153.572075744758
20
6.86311786056581
30
0
41
1
10
153.595334913302
20
6.84858218879461
30
0
41
1
10
153.638506462323
20
6.81531768123989
30
0
41
1
10
153.658479869705
20
6.79660373547423
30
0
41
1
10
153.691711389076
20
6.75433567533815
30
0
41
1
10
153.705325701054
20
6.73054544807295
30
0
41
1
10
153.711645626351
20
6.69242145133236
30
0
41
1
10
153.711083986344
20
6.6794694189164
30
0
41
1
10
153.703153885716
20
6.65617452460759
30
0
41
1
10
153.6958346637
20
6.64598162353116
30
0
41
1
10
153.686271557199
20
6.6379874706931
30
0
0
SPLINE
5
29D
100
AcDbEntity
8
1
62
256
6
ByLayer
370
13
48
1
60
0
100
AcDbSpline
70
4
71
3
72
16
73
12
40
0
40
0
40
0
40
0
40
0.249999999999958
40
0.249999999999958
40
0.499999999999915
40
0.499999999999915
40
0.749999999999872
40
0.749999999999872
40
0.874999999999936
40
0.874999999999936
40
1
40
1
40
1
40
1
41
1
10
152.050791948089
20
5.89953694342452
30
0
41
1
10
152.049354062343
20
5.92697343790005
30
0
41
1
10
152.050150490565
20
5.95451571683017
30
0
41
1
10
152.056781979516
20
6.00891344377965
30
0
41
1
10
152.062578700678
20
6.03581195038262
30
0
41
1
10
152.081243465446
20
6.08642362087323
30
0
41
1
10
152.094145935588
20
6.1105599105162
30
0
41
1
10
152.121871679363
20
6.13612120554333
30
0
41
1
10
152.132519932795
20
6.14251418357276
30
0
41
1
10
152.154774258787
20
6.14817798229419
30
0
41
1
10
152.166236351144
20
6.14741159838223
30
0
41
1
10
152.176934393432
20
6.14359041824181
30
0
0
SPLINE
5
29E
100
AcDbEntity
8
1
62
256
6
ByLayer
370
13
48
1
60
0
100
AcDbSpline
70
4
71
3
72
8
73
4
40
0
40
0
40
0
40
0
40
1
40
1
40
1
40
1
41
1
10
152.789294529619
20
6.82842152599241
30
0
41
1
10
152.793060281294
20
6.82313019353893
30
0
41
1
10
152.796827635269
20
6.81783726564413
30
0
41
1
10
152.800596693447
20
6.8125426424584
30
0
0
SPLINE
5
29F
100
AcDbEntity
8
1
62
256
6
ByLayer
370
13
48
1
60
0
100
AcDbSpline
70
4
71
3
72
16
73
12
40
0
40
0
40
0
40
0
40
0.250000000000057
40
0.250000000000057
40
0.500000000000115
40
0.500000000000115
40
0.750000000000172
40
0.750000000000172
40
0.875000000000086
40
0.875000000000086
40
1
40
1
40
1
40
1
41
1
10
153.641523451285
20
5.0852939118094
30
0
41
1
10
153.618583277121
20
5.07033574278785
30
0
41
1
10
153.594334152585
20
5.05731899326827
30
0
41
1
10
153.543654910908
20
5.03613985398309
30
0
41
1
10
153.517211885004
20
5.02792002808951
30
0
41
1
10
153.463071471718
20
5.01945880790993
30
0
41
1
10
153.435001032424
20
5.01903132180993
30
0
41
1
10
153.397096985781
20
5.03139181452323
30
0
41
1
10
153.385453906332
20
5.03786929798196
30
0
41
1
10
153.367631979688
20
5.05531708681264
30
0
41
1
10
153.361567237462
20
5.06617565076346
30
0
41
1
10
153.358528312405
20
5.07789119989255
30
0
0
SPLINE
5
2A0
100
AcDbEntity
8
1
62
256
6
ByLayer
370
13
48
1
60
0
100
AcDbSpline
70
4
71
3
72
18
73
14
40
0
40
0
40
0
40
0
40
0.124999999999958
40
0.124999999999958
40
0.249999999999917
40
0.249999999999917
40
0.499999999999935
40
0.499999999999935
40
0.749999999999952
40
0.749999999999952
40
0.874999999999976
40
0.874999999999976
40
1
40
1
40
1
40
1
41
1
10
152.195726425053
20
6.14632141281587
30
0
41
1
10
152.213737118182
20
6.14893873215331
30
0
41
1
10
152.230908747578
20
6.15706219771172
30
0
41
1
10
152.263503494376
20
6.17868503757174
30
0
41
1
10
152.278685729821
20
6.19217271329805
30
0
41
1
10
152.321074819631
20
6.23720101304707
30
0
41
1
10
152.345299113384
20
6.27334890753431
30
0
41
1
10
152.384637995984
20
6.3509025292762
30
0
41
1
10
152.399747075373
20
6.39228244634549
30
0
41
1
10
152.411783413278
20
6.45460213126486
30
0
41
1
10
152.413996707669
20
6.47548971799418
30
0
41
1
10
152.412921345137
20
6.51587088561632
30
0
41
1
10
152.409752671762
20
6.53541443713254
30
0
41
1
10
152.40171170466
20
6.55244919069548
30
0
0
SPLINE
5
2A1
100
AcDbEntity
8
1
62
256
6
ByLayer
370
13
48
1
60
0
100
AcDbSpline
70
4
71
3
72
18
73
14
40
0
40
0
40
0
40
0
40
0.12500000000004
40
0.12500000000004
40
0.25000000000008
40
0.25000000000008
40
0.500000000000007
40
0.500000000000007
40
0.749999999999934
40
0.749999999999934
40
0.874999999999967
40
0.874999999999967
40
1
40
1
40
1
40
1
41
1
10
153.345218330086
20
5.09366485811827
30
0
41
1
10
153.332464058959
20
5.10878161383897
30
0
41
1
10
153.315561320296
20
5.12032561263459
30
0
41
1
10
153.278328046486
20
5.13903649157649
30
0
41
1
10
153.258148507735
20
5.14598928709646
30
0
41
1
10
153.195810605712
20
5.16153518215174
30
0
41
1
10
153.151729636311
20
5.16494680588207
30
0
41
1
10
153.065166560704
20
5.16041429979069
30
0
41
1
10
153.022708650099
20
5.15247869231044
30
0
41
1
10
152.965244383143
20
5.13063425407353
30
0
41
1
10
152.947080255998
20
5.12163435184337
30
0
41
1
10
152.915065283917
20
5.09936255360901
30
0
41
1
10
152.901105764639
20
5.08617288207984
30
0
41
1
10
152.891924267273
20
5.06990872292405
30
0
0
SPLINE
5
2A2
100
AcDbEntity
8
1
62
256
6
ByLayer
370
13
48
1
60
0
100
AcDbSpline
70
4
71
3
72
8
73
4
40
0
40
0
40
0
40
0
40
1
40
1
40
1
40
1
41
1
10
153.686271557199
20
6.6379874706931
30
0
41
1
10
153.683440722466
20
6.63176855890751
30
0
41
1
10
153.680609471627
20
6.62554776786232
30
0
41
1
10
153.677777780161
20
6.61932497993087
30
0
0
SPLINE
5
2A3
100
AcDbEntity
8
1
62
256
6
ByLayer
370
13
48
1
60
0
100
AcDbSpline
70
4
71
3
72
8
73
4
40
0
40
0
40
0
40
0
40
1
40
1
40
1
40
1
41
1
10
152.891924267273
20
5.06990872292405
30
0
41
1
10
152.888729295216
20
5.06424913037881
30
0
41
1
10
152.885535840819
20
5.05859140197526
30
0
41
1
10
152.882343813175
20
5.05293542775891
30
0
0
SPLINE
5
2A4
100
AcDbEntity
8
1
62
256
6
ByLayer
370
13
48
1
60
0
100
AcDbSpline
70
4
71
3
72
18
73
14
40
0
40
0
40
0
40
0
40
0.125000000000012
40
0.125000000000012
40
0.250000000000024
40
0.250000000000024
40
0.500000000000053
40
0.500000000000053
40
0.750000000000082
40
0.750000000000082
40
0.875000000000041
40
0.875000000000041
40
1
40
1
40
1
40
1
41
1
10
153.744103318873
20
5.35375830988133
30
0
41
1
10
153.734099023783
20
5.370763945031
30
0
41
1
10
153.729233922979
20
5.39031486218497
30
0
41
1
10
153.725257706025
20
5.43077027481363
30
0
41
1
10
153.726262336741
20
5.45136864669666
30
0
41
1
10
153.735315307531
20
5.51333351381001
30
0
41
1
10
153.749216329338
20
5.55424110978248
30
0
41
1
10
153.788539102539
20
5.63194183160644
30
0
41
1
10
153.813747894487
20
5.66817455955442
30
0
41
1
10
153.859240068293
20
5.71354408308306
30
0
41
1
10
153.875725778582
20
5.72715206731968
30
0
41
1
10
153.911192467935
20
5.7489015447164
30
0
41
1
10
153.9301291023
20
5.75716434311857
30
0
41
1
10
153.95008859848
20
5.7598860877608
30
0
0
SPLINE
5
2A5
100
AcDbEntity
8
1
62
256
6
ByLayer
370
13
48
1
60
0
100
AcDbSpline
70
4
71
3
72
16
73
12
40
0
40
0
40
0
40
0
40
0.249999999999998
40
0.249999999999998
40
0.499999999999996
40
0.499999999999996
40
0.749999999999994
40
0.749999999999994
40
0.874999999999997
40
0.874999999999997
40
1
40
1
40
1
40
1
41
1
10
152.612311037967
20
5.03135517481601
30
0
41
1
10
152.587932978056
20
5.04383350026998
30
0
41
1
10
152.564544790999
20
5.05836241046742
30
0
41
1
10
152.520789106175
20
5.09159630476185
30
0
41
1
10
152.500367100553
20
5.11028674048998
30
0
41
1
10
152.465639495084
20
5.15247639407605
30
0
41
1
10
152.450989411657
20
5.17621233885976
30
0
41
1
10
152.442097234646
20
5.21420152960027
30
0
41
1
10
152.441621230637
20
5.22709918139768
30
0
41
1
10
152.447219530411
20
5.25027187120202
30
0
41
1
10
152.453257504504
20
5.26039762492007
30
0
41
1
10
152.461551284825
20
5.26832525519185
30
0
0
SPLINE
5
2A6
100
AcDbEntity
8
1
62
256
6
ByLayer
370
18
48
1
60
0
100
AcDbSpline
70
4
71
1
72
4
73
2
40
0
40
0
40
1
40
1
41
1
10
157.62314717213
20
-5.6758372963474
30
0
41
1
10
157.908130517849
20
-3.52790281248653
30
0
0
SPLINE
5
2A7
100
AcDbEntity
8
1
62
256
6
ByLayer
370
18
48
1
60
0
100
AcDbSpline
70
4
71
3
72
8
73
4
40
0
40
0
40
0
40
0
40
1
40
1
40
1
40
1
41
1
10
158.000013525548
20
-2.79624373681671
30
0
41
1
10
158.000328025633
20
-2.8200827328661
30
0
41
1
10
157.998861294841
20
-2.84384611811132
30
0
41
1
10
157.996419196303
20
-2.86756470463837
30
0
0
SPLINE
5
2A8
100
AcDbEntity
8
1
62
256
6
ByLayer
370
18
48
1
60
0
100
AcDbSpline
70
4
71
3
72
12
73
8
40
0
40
0
40
0
40
0
40
0.499999999999931
40
0.499999999999931
40
0.749999999999965
40
0.749999999999965
40
1
40
1
40
1
40
1
41
1
10
157.62314717213
20
-5.67590871101501
30
0
41
1
10
157.614234436855
20
-5.74251196190133
30
0
41
1
10
157.585229401439
20
-5.80621153073
30
0
41
1
10
157.519128134863
20
-5.88283802691913
30
0
41
1
10
157.493320953295
20
-5.90529597768548
30
0
41
1
10
157.4362707831
20
-5.9412075392388
30
0
41
1
10
157.404886480082
20
-5.9540437747367
30
0
41
1
10
157.372614545175
20
-5.96441199259573
30
0
0
SPLINE
5
2A9
100
AcDbEntity
8
1
62
256
6
ByLayer
370
18
48
1
60
0
100
AcDbSpline
70
4
71
1
72
4
73
2
40
0
40
0
40
1
40
1
41
1
10
157.979786663198
20
-2.63687223551014
30
0
41
1
10
157.952054310459
20
-2.46313022075759
30
0
0
SPLINE
5
2AA
100
AcDbEntity
8
1
62
256
6
ByLayer
370
18
48
1
60
0
100
AcDbSpline
70
4
71
1
72
4
73
2
40
0
40
0
40
1
40
1
41
1
10
157.323883895257
20
0.0737252676530318
30
0
41
1
10
157.576089871003
20
-0.131369009553708
30
0
0
SPLINE
5
2AB
100
AcDbEntity
8
1
62
256
6
ByLayer
370
18
48
1
60
0
100
AcDbSpline
70
4
71
1
72
4
73
2
40
0
40
0
40
1
40
1
41
1
10
157.733351957012
20
-2.46793471749368
30
0
41
1
10
157.993873480965
20
-2.72512555189411
30
0
0
SPLINE
5
2AC
100
AcDbEntity
8
1
62
256
6
ByLayer
370
18
48
1
60
0
100
AcDbSpline
70
4
71
1
72
4
73
2
40
0
40
0
40
1
40
1
41
1
10
157.589303193332
20
-0.190509843476974
30
0
41
1
10
157.337097217593
20
0.0145844337310166
30
0
0
SPLINE
5
2AD
100
AcDbEntity
8
1
62
256
6
ByLayer
370
18
48
1
60
0
100
AcDbSpline
70
4
71
1
72
4
73
2
40
0
40
0
40
1
40
1
41
1
10
157.956206000982
20
-3.16555536445958
30
0
41
1
10
157.981918991595
20
-2.97175520016859
30
0
0
SPLINE
5
2AE
100
AcDbEntity
8
1
62
256
6
ByLayer
370
18
48
1
60
0
100
AcDbSpline
70
4
71
1
72
4
73
2
40
0
40
0
40
1
40
1
41
1
10
157.898688224361
20
-2.12879395273168
30
0
41
1
10
157.589303193332
20
-0.190509843476974
30
0
0
SPLINE
5
2AF
100
AcDbEntity
8
1
62
256
6
ByLayer
370
18
48
1
60
0
100
AcDbSpline
70
4
71
1
72
4
73
2
40
0
40
0
40
1
40
1
41
1
10
157.372614545174
20
-5.96434769317469
30
0
41
1
10
157.139038639435
20
-5.50406631556908
30
0
0
SPLINE
5
2B0
100
AcDbEntity
8
1
62
256
6
ByLayer
370
18
48
1
60
0
100
AcDbSpline
70
4
71
1
72
4
73
2
40
0
40
0
40
1
40
1
41
1
10
156.978083711585
20
0.512795157264151
30
0
41
1
10
157.179345588197
20
0.483991051788934
30
0
0
SPLINE
5
2B1
100
AcDbEntity
8
1
62
256
6
ByLayer
370
18
48
1
60
0
100
AcDbSpline
70
4
71
1
72
4
73
2
40
0
40
0
40
1
40
1
41
1
10
157.981918991595
20
-2.97175520016859
30
0
41
1
10
157.995751741345
20
-2.86749703686888
30
0
0
SPLINE
5
2B2
100
AcDbEntity
8
1
62
256
6
ByLayer
370
18
48
1
60
0
100
AcDbSpline
70
4
71
1
72
4
73
2
40
0
40
0
40
1
40
1
41
1
10
157.470103014495
20
0.235394589307702
30
0
41
1
10
157.268841137872
20
0.264198694783317
30
0
0
SPLINE
5
2B3
100
AcDbEntity
8
1
62
256
6
ByLayer
370
18
48
1
60
0
100
AcDbSpline
70
4
71
3
72
12
73
8
40
0
40
0
40
0
40
0
40
0.500000000000078
40
0.500000000000078
40
0.750000000000039
40
0.750000000000039
40
1
40
1
40
1
40
1
41
1
10
157.179345588197
20
0.483919637121346
30
0
41
1
10
157.246467651976
20
0.475075861822944
30
0
41
1
10
157.310657568936
20
0.446289258990248
30
0
41
1
10
157.387888862308
20
0.380706774605642
30
0
41
1
10
157.410522253963
20
0.355099561588872
30
0
41
1
10
157.446715010925
20
0.298491776915398
30
0
41
1
10
157.45965268302
20
0.267351469617438
30
0
41
1
10
157.470103014495
20
0.23533028988669
30
0
0
SPLINE
5
2B4
100
AcDbEntity
8
1
62
256
6
ByLayer
370
18
48
1
60
0
100
AcDbSpline
70
4
71
1
72
4
73
2
40
0
40
0
40
1
40
1
41
1
10
156.943393005543
20
-6.08262667003635
30
0
41
1
10
156.887480286844
20
-5.57179489915288
30
0
0
SPLINE
5
2B5
100
AcDbEntity
8
1
62
256
6
ByLayer
370
18
48
1
60
0
100
AcDbSpline
70
4
71
1
72
4
73
2
40
0
40
0
40
1
40
1
41
1
10
157.993873480965
20
-2.7251255518942
30
0
41
1
10
157.979786663198
20
-2.63687223551014
30
0
0
SPLINE
5
2B6
100
AcDbEntity
8
1
62
256
6
ByLayer
370
18
48
1
60
0
100
AcDbSpline
70
4
71
2
72
12
73
9
40
0
40
0
40
0
40
0.25
40
0.5
40
0.5
40
0.75
40
0.75
40
0.875
40
1
40
1
40
1
41
1
10
157.139038639435
20
-5.50406631556916
30
0
41
1
10
157.18752275958
20
-5.49027115979172
30
0
41
1
10
157.273252738202
20
-5.43627968842551
30
0
41
1
10
157.307518265066
20
-5.39714950931983
30
0
41
1
10
157.340288604171
20
-5.35972678870661
30
0
41
1
10
157.361855298325
20
-5.31248373392916
30
0
41
1
10
157.371871242523
20
-5.29054324564501
30
0
41
1
10
157.386154224343
20
-5.24131034449269
30
0
41
1
10
157.389571266376
20
-5.21555591874045
30
0
0
SPLINE
5
2B7
100
AcDbEntity
8
1
62
256
6
ByLayer
370
18
48
1
60
0
100
AcDbSpline
70
4
71
3
72
10
73
6
40
0
40
0
40
0
40
0
40
0.61917095638014
40
0.61917095638014
40
1
40
1
40
1
40
1
41
1
10
157.002994450923
20
-6.06956527656308
30
0
41
1
10
157.079754041875
20
-6.04772587581081
30
0
41
1
10
157.156513621016
20
-6.02589319322735
30
0
41
1
10
157.280485183174
20
-5.99062211069727
30
0
41
1
10
157.327697161329
20
-5.97718860680001
30
0
41
1
10
157.374909124057
20
-5.96375930201322
30
0
0
SPLINE
5
2B8
100
AcDbEntity
8
1
62
256
6
ByLayer
370
18
48
1
60
0
100
AcDbSpline
70
4
71
3
72
8
73
4
40
0
40
0
40
0
40
0
40
1
40
1
40
1
40
1
41
1
10
157.576089871003
20
-0.131369009553708
30
0
41
1
10
157.581709438631
20
-0.150815315603438
30
0
41
1
10
157.586113879407
20
-0.170528926911174
30
0
41
1
10
157.589303193332
20
-0.190509843476974
30
0
0
SPLINE
5
2B9
100
AcDbEntity
8
1
62
256
6
ByLayer
370
18
48
1
60
0
100
AcDbSpline
70
4
71
1
72
4
73
2
40
0
40
0
40
1
40
1
41
1
10
157.995751741345
20
-2.86749703686897
30
0
41
1
10
157.735230217407
20
-2.61030620246925
30
0
0
SPLINE
5
2BA
100
AcDbEntity
8
1
62
256
6
ByLayer
370
18
48
1
60
0
100
AcDbSpline
70
4
71
2
72
12
73
9
40
0
40
0
40
0
40
0.25
40
0.5
40
0.5
40
0.75
40
0.75
40
0.875
40
1
40
1
40
1
41
1
10
157.268841137872
20
0.264198694783317
30
0
41
1
10
157.254938540138
20
0.312308120299889
30
0
41
1
10
157.200526562513
20
0.397375561114501
30
0
41
1
10
157.161091622594
20
0.431376277371641
30
0
41
1
10
157.123377439499
20
0.463893360975561
30
0
41
1
10
157.07576643772
20
0.485293383558513
30
0
41
1
10
157.053655068514
20
0.495231922607815
30
0
41
1
10
157.00403872267
20
0.509404522789964
30
0
41
1
10
156.978083711585
20
0.512795157264065
30
0
0
SPLINE
5
2BB
100
AcDbEntity
8
1
62
256
6
ByLayer
370
18
48
1
60
0
100
AcDbSpline
70
4
71
1
72
4
73
2
40
0
40
0
40
1
40
1
41
1
10
157.952054310459
20
-2.46313022075759
30
0
41
1
10
157.898688224361
20
-2.12879395273168
30
0
0
SPLINE
5
2BC
100
AcDbEntity
8
1
62
256
6
ByLayer
370
18
48
1
60
0
100
AcDbSpline
70
4
71
1
72
4
73
2
40
0
40
0
40
1
40
1
41
1
10
157.389571266376
20
-5.21555591874008
30
0
41
1
10
157.62314717213
20
-5.67583729634734
30
0
0
SPLINE
5
2BD
100
AcDbEntity
8
1
62
256
6
ByLayer
370
18
48
1
60
0
100
AcDbSpline
70
4
71
2
72
6
73
3
40
0
40
0
40
0
40
1
40
1
40
1
41
1
10
157.337097217593
20
0.0145844337309597
30
0
41
1
10
157.33231324672
20
0.0445558085270079
30
0
41
1
10
157.323883895257
20
0.0737252676530886
30
0
0
SPLINE
5
2BE
100
AcDbEntity
8
1
62
256
6
ByLayer
370
18
48
1
60
0
100
AcDbSpline
70
4
71
1
72
4
73
2
40
0
40
0
40
1
40
1
41
1
10
157.908130517849
20
-3.52790281248653
30
0
41
1
10
157.956206000982
20
-3.16555536445958
30
0
0
SPLINE
5
2BF
100
AcDbEntity
8
1
62
256
6
ByLayer
370
18
48
1
60
0
100
AcDbSpline
70
4
71
3
72
8
73
4
40
0
40
0
40
0
40
0
40
1
40
1
40
1
40
1
41
1
10
157.994326207825
20
-2.72506580671259
30
0
41
1
10
157.997494067928
20
-2.74870330881146
30
0
41
1
10
157.999699096199
20
-2.77241010277987
30
0
41
1
10
158.000013525548
20
-2.79624373681671
30
0
0
SPLINE
5
2C0
100
AcDbEntity
8
1
62
256
6
ByLayer
370
18
48
1
60
0
100
AcDbSpline
70
4
71
2
72
6
73
3
40
0
40
0
40
0
40
1
40
1
40
1
41
1
10
157.735230217407
20
-2.6103062024693
30
0
41
1
10
157.744692916
20
-2.53898534493598
30
0
41
1
10
157.733351957012
20
-2.46793471749365
30
0
0
SPLINE
5
2C1
100
AcDbEntity
8
SK1
62
256
6
ByLayer
370
13
48
1
60
0
100
AcDbSpline
70
4
71
3
72
18
73
14
40
0
40
0
40
0
40
0
40
0.125
40
0.125
40
0.25
40
0.25
40
0.375
40
0.375
40
0.5
40
0.5
40
0.75
40
0.75
40
1
40
1
40
1
40
1
41
1
10
-53.6338131992802
20
-6.3403281208584
30
0
41
1
10
-53.6738141958612
20
-6.31392800758456
30
0
41
1
10
-53.7178002036947
20
-6.29177848365677
30
0
41
1
10
-53.8095125775276
20
-6.2624499739369
30
0
41
1
10
-53.8584225384109
20
-6.25510027396828
30
0
41
1
10
-53.954380672524
20
-6.25785951942993
30
0
41
1
10
-54.0027856924058
20
-6.26797384899598
30
0
41
1
10
-54.0930673480266
20
-6.30196986632177
30
0
41
1
10
-54.1359763206845
20
-6.32601182555067
30
0
41
1
10
-54.2531658331207
20
-6.40990335070128
30
0
41
1
10
-54.3191410537013
20
-6.48264182751294
30
0
41
1
10
-54.4307896521674
20
-6.63931052396157
30
0
41
1
10
-54.4773867263329
20
-6.72477868031578
30
0
41
1
10
-54.5162221138916
20
-6.81202898183304
30
0
0
SPLINE
5
2C2
100
AcDbEntity
8
SK1
62
256
6
ByLayer
370
13
48
1
60
0
100
AcDbSpline
70
4
71
3
72
8
73
4
40
0
40
0
40
0
40
0
40
1
40
1
40
1
40
1
41
1
10
-55
20
-6.99857202024091
30
0
41
1
10
-55.3647894321562
20
-6.34719880823223
30
0
41
1
10
-55.7025751082723
20
-5.68271935719739
30
0
41
1
10
-56
20
-4.99865085022941
30
0
0
SPLINE
5
2C3
100
AcDbEntity
8
SK1
62
256
6
ByLayer
370
13
48
1
60
0
100
AcDbSpline
70
4
71
3
72
18
73
14
40
0
40
0
40
0
40
0
40
0.249999999999993
40
0.249999999999993
40
0.499999999999985
40
0.499999999999985
40
0.624999999999989
40
0.624999999999989
40
0.749999999999993
40
0.749999999999993
40
0.874999999999996
40
0.874999999999996
40
1
40
1
40
1
40
1
41
1
10
-54.5162221138916
20
6.81202898183318
30
0
41
1
10
-54.4772970244431
20
6.72457714976824
30
0
41
1
10
-54.4307065013895
20
6.63918003305162
30
0
41
1
10
-54.319110443676
20
6.4826126999028
30
0
41
1
10
-54.2534817600869
20
6.41019877906004
30
0
41
1
10
-54.1362837870009
20
6.32619750079633
30
0
41
1
10
-54.0935094971742
20
6.30217611468402
30
0
41
1
10
-54.0030350925562
20
6.26802830974705
30
0
41
1
10
-53.954986307026
20
6.25793437821719
30
0
41
1
10
-53.8587999994146
20
6.25505426790869
30
0
41
1
10
-53.8097812214382
20
6.26239551321621
30
0
41
1
10
-53.7180788416409
20
6.29165811737894
30
0
41
1
10
-53.6739760596325
20
6.31382117969852
30
0
41
1
10
-53.63381319928
20
6.34032812085832
30
0
0
SPLINE
5
2C4
100
AcDbEntity
8
SK1
62
256
6
ByLayer
370
13
48
1
60
0
100
AcDbSpline
70
4
71
3
72
8
73
4
40
0
40
0
40
0
40
0
40
1
40
1
40
1
40
1
41
1
10
-52.5998571439056
20
-6.99857202024091
30
0
41
1
10
-52.9479487851792
20
-6.78433420177188
30
0
41
1
10
-53.2928798234837
20
-6.56533950830294
30
0
41
1
10
-53.6338131992802
20
-6.34032812085843
30
0
0
SPLINE
5
2C5
100
AcDbEntity
8
SK1
62
256
6
ByLayer
370
13
48
1
60
0
100
AcDbSpline
70
4
71
3
72
8
73
4
40
0
40
0
40
0
40
0
40
1
40
1
40
1
40
1
41
1
10
-54.5162221138915
20
-6.81202898183307
30
0
41
1
10
-54.5439351414378
20
-6.87429101039413
30
0
41
1
10
-54.5718768490337
20
-6.93647114421498
30
0
41
1
10
-54.6000398733642
20
-6.99857202024091
30
0
0
SPLINE
5
2C6
100
AcDbEntity
8
SK1
62
256
6
ByLayer
370
13
48
1
60
0
100
AcDbSpline
70
4
71
3
72
8
73
4
40
0
40
0
40
0
40
0
40
1
40
1
40
1
40
1
41
1
10
-56
20
4.99865085022955
30
0
41
1
10
-55.7014870272612
20
5.68522191153457
30
0
41
1
10
-55.3636283470437
20
6.34927205836655
30
0
41
1
10
-55
20
6.99857202024106
30
0
0
SPLINE
5
2C7
100
AcDbEntity
8
SK1
62
256
6
ByLayer
370
13
48
1
60
0
100
AcDbSpline
70
4
71
3
72
8
73
4
40
0
40
0
40
0
40
0
40
1
40
1
40
1
40
1
41
1
10
-53.6338131992802
20
6.34032812085854
30
0
41
1
10
-53.2931973263098
20
6.56512996075952
30
0
41
1
10
-52.9482491695224
20
6.7841493260708
30
0
41
1
10
-52.5998571439059
20
6.99857202024131
30
0
0
SPLINE
5
2C8
100
AcDbEntity
8
SK1
62
256
6
ByLayer
370
13
48
1
60
0
100
AcDbSpline
70
4
71
3
72
71
73
67
40
0
40
0
40
0
40
0
40
0.0312500000000003
40
0.0312500000000003
40
0.0468750000000004
40
0.0468750000000004
40
0.0625000000000005
40
0.0625000000000005
40
0.0781250000000005
40
0.0781250000000005
40
0.0937500000000006
40
0.0937500000000006
40
0.125000000000001
40
0.125000000000001
40
0.140625000000001
40
0.140625000000001
40
0.156250000000001
40
0.156250000000001
40
0.187500000000001
40
0.187500000000001
40
0.218750000000001
40
0.218750000000001
40
0.250000000000001
40
0.250000000000001
40
0.312500000000001
40
0.312500000000001
40
0.375000000000002
40
0.375000000000002
40
0.406250000000002
40
0.406250000000002
40
0.437500000000002
40
0.437500000000002
40
0.500000000000002
40
0.562500000000002
40
0.562500000000002
40
0.593750000000002
40
0.593750000000002
40
0.625000000000002
40
0.625000000000002
40
0.687500000000002
40
0.687500000000002
40
0.750000000000002
40
0.750000000000002
40
0.781250000000002
40
0.781250000000002
40
0.812500000000001
40
0.812500000000001
40
0.843750000000001
40
0.843750000000001
40
0.859375000000001
40
0.859375000000001
40
0.875000000000001
40
0.875000000000001
40
0.906250000000001
40
0.906250000000001
40
0.921875000000001
40
0.921875000000001
40
0.937500000000001
40
0.937500000000001
40
0.953125
40
0.953125
40
0.96875
40
0.96875
40
0.984375
40
0.984375
40
1
40
1
40
1
40
1
41
1
10
-6.50000000009538
20
6.998572020241
30
0
41
1
10
-6.31571533004515
20
6.99857202024967
30
0
41
1
10
-6.13743573179397
20
6.97387109270571
30
0
41
1
10
-5.87807007883168
20
6.90321966844968
30
0
41
1
10
-5.79249754001009
20
6.87371201184882
30
0
41
1
10
-5.6293361169906
20
6.80569256211214
30
0
41
1
10
-5.55109427743696
20
6.76707109549224
30
0
41
1
10
-5.40055384552451
20
6.68141826816264
30
0
41
1
10
-5.32815416062539
20
6.63430399969613
30
0
41
1
10
-5.18925210594989
20
6.53244521628065
30
0
41
1
10
-5.12377844902809
20
6.47848470758717
30
0
41
1
10
-4.93748624451072
20
6.3085827822143
30
0
41
1
10
-4.8267115899061
20
6.1846770027818
30
0
41
1
10
-4.6761911608582
20
5.98533103669448
30
0
41
1
10
-4.62855056556253
20
5.91642308507087
30
0
41
1
10
-4.53922153852642
20
5.77634068999626
30
0
41
1
10
-4.49736020419419
20
5.70496414000004
30
0
41
1
10
-4.37902027112833
20
5.48717552116739
30
0
41
1
10
-4.30973548429904
20
5.33712034908373
30
0
41
1
10
-4.18597550641348
20
5.02855833309758
30
0
41
1
10
-4.13152858900258
20
4.87004242457732
30
0
41
1
10
-4.03445407647325
20
4.54538526361949
30
0
41
1
10
-3.99218870828807
20
4.38036541349672
30
0
41
1
10
-3.8806630298719
20
3.8815043831257
30
0
41
1
10
-3.82597090267365
20
3.54235643247728
30
0
41
1
10
-3.74047959020675
20
2.85273429591121
30
0
41
1
10
-3.70981920131712
20
2.50224542423098
30
0
41
1
10
-3.67535340381019
20
1.96866904162033
30
0
41
1
10
-3.66582822790039
20
1.78937635765021
30
0
41
1
10
-3.65011537208733
20
1.4316899722499
30
0
41
1
10
-3.64389707389739
20
1.25286356942047
30
0
41
1
10
-3.62929622079273
20
0.716432949039586
30
0
41
1
10
-3.62042488526302
20
0.0013212454733491
30
0
41
1
10
-3.62924953065914
20
-0.713539660438329
30
0
41
1
10
-3.64379211765163
20
-1.24958871665936
30
0
41
1
10
-3.64998697783565
20
-1.42825557634492
30
0
41
1
10
-3.66563837164477
20
-1.78555583380015
30
0
41
1
10
-3.67511786137808
20
-1.96455406997464
30
0
41
1
10
-3.70953832715443
20
-2.49881887149942
30
0
41
1
10
-3.74017720125841
20
-2.84981522124173
30
0
41
1
10
-3.82568979373829
20
-3.54056541591115
30
0
41
1
10
-3.88042216361382
20
-3.88033387025806
30
0
41
1
10
-3.99214803643076
20
-4.3802299370825
30
0
41
1
10
-4.03457139272209
20
-4.54577117988887
30
0
41
1
10
-4.13137165046336
20
-4.86952399241147
30
0
41
1
10
-4.18572933619737
20
-5.02789660502796
30
0
41
1
10
-4.30959364920602
20
-5.33681454089182
30
0
41
1
10
-4.37906730976638
20
-5.48736926922894
30
0
41
1
10
-4.49817195127201
20
-5.70640389482426
30
0
41
1
10
-4.54042880204571
20
-5.77832989383157
30
0
41
1
10
-4.62961647910464
20
-5.917996111653
30
0
41
1
10
-4.67665158712001
20
-5.98594616406356
30
0
41
1
10
-4.82600204453692
20
-6.18372658725997
30
0
41
1
10
-4.9364153318723
20
-6.30756945151506
30
0
41
1
10
-5.12387444002081
20
-6.47859050811525
30
0
41
1
10
-5.18982034314945
20
-6.53284983481481
30
0
41
1
10
-5.32716069139138
20
-6.63358751533818
30
0
41
1
10
-5.39883736540122
20
-6.68033932325883
30
0
41
1
10
-5.54894893429449
20
-6.76595018463183
30
0
41
1
10
-5.62776164553696
20
-6.80497288448146
30
0
41
1
10
-5.79153203652811
20
-6.87337183942776
30
0
41
1
10
-5.87542610285047
20
-6.90235315140345
30
0
41
1
10
-6.04744974985599
20
-6.94949997275469
30
0
41
1
10
-6.13557688289623
20
-6.9676718536326
30
0
41
1
10
-6.31646604914351
20
-6.99230795215647
30
0
41
1
10
-6.40810473763941
20
-6.99857202024529
30
0
41
1
10
-6.50000000009538
20
-6.99857202024097
30
0
0
SPLINE
5
2C9
100
AcDbEntity
8
SK1
62
256
6
ByLayer
370
13
48
1
60
0
100
AcDbSpline
70
4
71
3
72
8
73
4
40
0
40
0
40
0
40
0
40
1
40
1
40
1
40
1
41
1
10
-54.6000398733642
20
6.99857202024106
30
0
41
1
10
-54.571876118047
20
6.93646953235279
30
0
41
1
10
-54.5439344142792
20
6.87428937670879
30
0
41
1
10
-54.5162221138915
20
6.81202898183318
30
0
0
SPLINE
5
2CA
100
AcDbEntity
8
1
62
256
6
ByLayer
370
13
48
1
60
0
100
AcDbSpline
70
4
71
3
72
8
73
4
40
0
40
0
40
0
40
0
40
1
40
1
40
1
40
1
41
1
10
0
20
3.54400902933392
30
0
41
1
10
0.0316790368941895
20
3.68613527180352
30
0
41
1
10
0.0650361897271239
20
3.82766613327232
30
0
41
1
10
0.0999999999999659
20
3.96862696659682
30
0
0
SPLINE
5
2CB
100
AcDbEntity
8
1
62
256
6
ByLayer
370
13
48
1
60
0
100
AcDbSpline
70
4
71
3
72
10
73
6
40
0
40
0
40
0
40
0
40
0.5
40
0.5
40
1
40
1
40
1
40
1
41
1
10
154.567793234018
20
3.29864813081019
30
0
41
1
10
154.598079551252
20
3.31693424691014
30
0
41
1
10
154.632240882869
20
3.33244990473895
30
0
41
1
10
154.706329254164
20
3.35514304536426
30
0
41
1
10
154.744990422782
20
3.36204099975021
30
0
41
1
10
154.785214267955
20
3.3641708829029
30
0
0
SPLINE
5
2CC
100
AcDbEntity
8
1
62
256
6
ByLayer
370
13
48
1
60
0
100
AcDbSpline
70
4
71
3
72
38
73
34
40
0
40
0
40
0
40
0
40
0.125
40
0.125
40
0.1875
40
0.1875
40
0.25
40
0.25
40
0.3125
40
0.3125
40
0.34375
40
0.34375
40
0.375
40
0.375
40
0.4375
40
0.4375
40
0.46875
40
0.46875
40
0.5
40
0.5
40
0.625
40
0.625
40
0.75
40
0.75
40
0.78125
40
0.78125
40
0.8125
40
0.8125
40
0.875
40
0.875
40
0.9375
40
0.9375
40
1
40
1
40
1
40
1
41
1
10
5.52160000000001
20
-3.96862696659696
30
0
41
1
10
5.88033835523916
20
-3.76536316454377
30
0
41
1
10
6.21194028905097
20
-3.52703166753636
30
0
41
1
10
6.66527210185814
20
-3.11258249594735
30
0
41
1
10
6.80969617878682
20
-2.96384465303359
30
0
41
1
10
7.07597090623833
20
-2.65262812567667
30
0
41
1
10
7.19845963226953
20
-2.48977343096985
30
0
41
1
10
7.42130650214565
20
-2.14900411163558
30
0
41
1
10
7.52167585836074
20
-1.97109711706082
30
0
41
1
10
7.65413407855954
20
-1.69192236747753
30
0
41
1
10
7.69513915603358
20
-1.59697141599042
30
0
41
1
10
7.76958795020536
20
-1.40609672202049
30
0
41
1
10
7.8032196044401
20
-1.30979183611237
30
0
41
1
10
7.89335549489962
20
-1.0182791872887
30
0
41
1
10
7.93914582637018
20
-0.820484339859092
30
0
41
1
10
7.98567003272825
20
-0.518440786089087
30
0
41
1
10
7.99747363656198
20
-0.416865085061659
30
0
41
1
10
8.01340746532341
20
-0.211860793682831
30
0
41
1
10
8.01750233279341
20
-0.108185452303133
30
0
41
1
10
8.01819365322964
20
0.40546537711586
30
0
41
1
10
7.95725911615708
20
0.808462273885908
30
0
41
1
10
7.71477349066026
20
1.59891248590418
30
0
41
1
10
7.53898232091078
20
1.9676594804404
30
0
41
1
10
7.2584317246517
20
2.39839811785043
30
0
41
1
10
7.19905530220316
20
2.48322148842305
30
0
41
1
10
7.07570764933726
20
2.64777585503316
30
0
41
1
10
7.0116072852384
20
2.72773652833897
30
0
41
1
10
6.81234809607915
20
2.96097595573272
30
0
41
1
10
6.6702575959342
20
3.10763734101968
30
0
41
1
10
6.36855017069524
20
3.38422839577655
30
0
41
1
10
6.20820157001666
20
3.5146395319816
30
0
41
1
10
5.87444759107723
20
3.75592686673784
30
0
41
1
10
5.70111855089138
20
3.86691042957116
30
0
41
1
10
5.52160000000001
20
3.96862696659693
30
0
0
SPLINE
5
2CD
100
AcDbEntity
8
1
62
256
6
ByLayer
370
13
48
1
60
0
100
AcDbSpline
70
4
71
3
72
10
73
6
40
0
40
0
40
0
40
0
40
0.5
40
0.5
40
1
40
1
40
1
40
1
41
1
10
145.999431608904
20
2.55058697841818
30
0
41
1
10
145.791032780478
20
2.70537277665244
30
0
41
1
10
145.566246947366
20
2.84265349351827
30
0
41
1
10
145.095162719244
20
3.09423457460761
30
0
41
1
10
144.848666505826
20
3.208323623377
30
0
41
1
10
144.593672326327
20
3.31333489432427
30
0
0
SPLINE
5
2CE
100
AcDbEntity
8
1
62
256
6
ByLayer
370
13
48
1
60
0
100
AcDbSpline
70
4
71
3
72
14
73
10
40
0
40
0
40
0
40
0
40
0.25
40
0.25
40
0.5
40
0.5
40
0.75
40
0.75
40
1
40
1
40
1
40
1
41
1
10
150.31024358972
20
2.43894143874593
30
0
41
1
10
150.323830254661
20
2.44874094631905
30
0
41
1
10
150.343431544595
20
2.46532443651643
30
0
41
1
10
150.387141767473
20
2.50718052458433
30
0
41
1
10
150.411196139987
20
2.5323359090105
30
0
41
1
10
150.461002767923
20
2.59054418059185
30
0
41
1
10
150.486494146402
20
2.62337906925276
30
0
41
1
10
150.535109103352
20
2.69394660540493
30
0
41
1
10
150.558570652601
20
2.73203233536512
30
0
41
1
10
150.58067222697
20
2.77346634051997
30
0
0
SPLINE
5
2CF
100
AcDbEntity
8
1
62
256
6
ByLayer
370
13
48
1
60
0
100
AcDbSpline
70
2053
71
3
72
74
73
70
40
0
40
0
40
0
40
0
40
0.0312500000000015
40
0.0312500000000015
40
0.062500000000003
40
0.062500000000003
40
0.0937500000000045
40
0.0937500000000045
40
0.125000000000006
40
0.125000000000006
40
0.156250000000007
40
0.156250000000007
40
0.187500000000009
40
0.187500000000009
40
0.21875000000001
40
0.21875000000001
40
0.250000000000012
40
0.250000000000012
40
0.281250000000013
40
0.281250000000013
40
0.312500000000015
40
0.312500000000015
40
0.343750000000016
40
0.343750000000016
40
0.375000000000018
40
0.375000000000018
40
0.406250000000019
40
0.406250000000019
40
0.437500000000021
40
0.437500000000021
40
0.468750000000022
40
0.468750000000022
40
0.500000000000024
40
0.500000000000024
40
0.531250000000025
40
0.531250000000025
40
0.562500000000027
40
0.562500000000027
40
0.593750000000028
40
0.593750000000028
40
0.62500000000003
40
0.62500000000003
40
0.656250000000031
40
0.656250000000031
40
0.687500000000033
40
0.687500000000033
40
0.718750000000034
40
0.718750000000034
40
0.750000000000036
40
0.750000000000036
40
0.781250000000037
40
0.781250000000037
40
0.796875000000038
40
0.796875000000038
40
0.812500000000039
40
0.812500000000039
40
0.843750000000037
40
0.843750000000037
40
0.875000000000035
40
0.875000000000035
40
0.906250000000033
40
0.906250000000033
40
0.921875000000028
40
0.921875000000028
40
0.937500000000022
40
0.937500000000022
40
0.968750000000011
40
0.968750000000011
40
1
40
1
40
1
40
1
41
1
10
154.160163024518
20
-0.380330059453996
30
0
41
1
10
154.24142701194
20
-0.380330059453996
30
0
41
1
10
154.321279308382
20
-0.388604635631964
30
0
41
1
10
154.47827534809
20
-0.42102420103285
30
0
41
1
10
154.556272031665
20
-0.445607161059741
30
0
41
1
10
154.704050283588
20
-0.509414202733524
30
0
41
1
10
154.773987708852
20
-0.548431184670704
30
0
41
1
10
154.905980533102
20
-0.640621832360267
30
0
41
1
10
154.967792713402
20
-0.693914307180648
30
0
41
1
10
155.077990160846
20
-0.809965651677317
30
0
41
1
10
155.127252744667
20
-0.873356207890112
30
0
41
1
10
155.213287067473
20
-1.01029733268402
30
0
41
1
10
155.248826456929
20
-1.08182575525348
30
0
41
1
10
155.305807417798
20
-1.23058555010547
30
0
41
1
10
155.327335858014
20
-1.30866673625474
30
0
41
1
10
155.354877737323
20
-1.46552364711653
30
0
41
1
10
155.36112290314
20
-1.54436247647774
30
0
41
1
10
155.358967215258
20
-1.70281535757761
30
0
41
1
10
155.35036092577
20
-1.78259088691715
30
0
41
1
10
155.319217269698
20
-1.93673343825412
30
0
41
1
10
155.296724194799
20
-2.0119114395379
30
0
41
1
10
155.237638205204
20
-2.1584719706369
30
0
41
1
10
155.201297688048
20
-2.22890458971475
30
0
41
1
10
155.117027729134
20
-2.36073376490992
30
0
41
1
10
155.06888497638
20
-2.42270469718955
30
0
41
1
10
154.959628710883
20
-2.53828815845947
30
0
41
1
10
154.900099431618
20
-2.59017501980753
30
0
41
1
10
154.771880487758
20
-2.68163934317926
30
0
41
1
10
154.702506946851
20
-2.72159170716952
30
0
41
1
10
154.555804671852
20
-2.78691023849649
30
0
41
1
10
154.480099294927
20
-2.81168968509186
30
0
41
1
10
154.323923872127
20
-2.84542804888014
30
0
41
1
10
154.242379967492
20
-2.85428796447002
30
0
41
1
10
154.08156161026
20
-2.85454242746073
30
0
41
1
10
154.001866761536
20
-2.84626321162318
30
0
41
1
10
153.843908697001
20
-2.81281099248849
30
0
41
1
10
153.7669946843
20
-2.78776591126569
30
0
41
1
10
153.621267957957
20
-2.72336306519162
30
0
41
1
10
153.551080403253
20
-2.68332112094078
30
0
41
1
10
153.421510902258
20
-2.59128303414445
30
0
41
1
10
153.362024867099
20
-2.53948470162157
30
0
41
1
10
153.253143015879
20
-2.4247073582707
30
0
41
1
10
153.204076837383
20
-2.36182022082261
30
0
41
1
10
153.119470575519
20
-2.22972592310356
30
0
41
1
10
153.083380407516
20
-2.15997447964889
30
0
41
1
10
153.023873494395
20
-2.01279713530212
30
0
41
1
10
153.001295734722
20
-1.93740713990678
30
0
41
1
10
152.970099551514
20
-1.78350525999267
30
0
41
1
10
152.96145157915
20
-1.70436380420173
30
0
41
1
10
152.959142419146
20
-1.54509270033768
30
0
41
1
10
152.965393761325
20
-1.46626795046447
30
0
41
1
10
152.985825722918
20
-1.34925793133189
30
0
41
1
10
152.994491041589
20
-1.31046070122662
30
0
41
1
10
153.015676761523
20
-1.23330071517921
30
0
41
1
10
153.02826344912
20
-1.19482156278633
30
0
41
1
10
153.071104478179
20
-1.08262399184801
30
0
41
1
10
153.106562535928
20
-1.01130704451597
30
0
41
1
10
153.191407683405
20
-0.875762289450449
30
0
41
1
10
153.241423118137
20
-0.811049321685005
30
0
41
1
10
153.35171597935
20
-0.694654575364268
30
0
41
1
10
153.412247614383
20
-0.642295063384836
30
0
41
1
10
153.511335582863
20
-0.572779685408875
30
0
41
1
10
153.545891350564
20
-0.551072034712206
30
0
41
1
10
153.616264950657
20
-0.511713494521501
30
0
41
1
10
153.652248077577
20
-0.493929018567883
30
0
41
1
10
153.7625453446
20
-0.446167167624594
30
0
41
1
10
153.839591837387
20
-0.421641318782719
30
0
41
1
10
153.998470241839
20
-0.388616387306627
30
0
41
1
10
154.078899037096
20
-0.380330059453996
30
0
41
1
10
154.160163024518
20
-0.380330059453996
30
0
0
SPLINE
5
2D0
100
AcDbEntity
8
1
62
256
6
ByLayer
370
13
48
1
60
0
100
AcDbSpline
70
4
71
3
72
10
73
6
40
0
40
0
40
0
40
0
40
0.5
40
0.5
40
1
40
1
40
1
40
1
41
1
10
152.330302815678
20
3.03523999253716
30
0
41
1
10
152.07848729277
20
3.02204290019259
30
0
41
1
10
151.826303002819
20
3.00882648158614
30
0
41
1
10
151.321490814557
20
2.9823703958443
30
0
41
1
10
151.06887095643
20
2.96913115007709
30
0
41
1
10
150.816401847738
20
2.95589980475299
30
0
0
SPLINE
5
2D1
100
AcDbEntity
8
1
62
256
6
ByLayer
370
13
48
1
60
0
100
AcDbSpline
70
4
71
3
72
14
73
10
40
0
40
0
40
0
40
0
40
0.250000000000001
40
0.250000000000001
40
0.500000000000001
40
0.500000000000001
40
0.750000000000001
40
0.750000000000001
40
1
40
1
40
1
40
1
41
1
10
146.803001764698
20
3.36603020974354
30
0
41
1
10
146.837718674061
20
3.45695898359131
30
0
41
1
10
146.868534845947
20
3.54936749996497
30
0
41
1
10
146.92051547686
20
3.73784590445331
30
0
41
1
10
146.941784217644
20
3.83452720930114
30
0
41
1
10
146.970872135339
20
4.02895690996431
30
0
41
1
10
146.978817732502
20
4.12669750294
30
0
41
1
10
146.976993989543
20
4.32359017532005
30
0
41
1
10
146.967019956679
20
4.42235188948501
30
0
41
1
10
146.945518838022
20
4.51778990043894
30
0
0
SPLINE
5
2D2
100
AcDbEntity
8
1
62
256
6
ByLayer
370
13
48
1
60
0
100
AcDbSpline
70
4
71
3
72
8
73
4
40
0
40
0
40
0
40
0
40
1
40
1
40
1
40
1
41
1
10
150.816401847738
20
2.95589980475296
30
0
41
1
10
150.798436868983
20
2.92849829795705
30
0
41
1
10
150.783532812609
20
2.89970756536445
30
0
41
1
10
150.771655810984
20
2.86965600021151
30
0
0
SPLINE
5
2D3
100
AcDbEntity
8
1
62
256
6
ByLayer
370
13
48
1
60
0
100
AcDbSpline
70
4
71
3
72
18
73
14
40
0
40
0
40
0
40
0
40
0.250000000000017
40
0.250000000000017
40
0.375000000000014
40
0.375000000000014
40
0.500000000000012
40
0.500000000000012
40
0.750000000000006
40
0.750000000000006
40
0.875000000000003
40
0.875000000000003
40
1
40
1
40
1
40
1
41
1
10
150.805689021906
20
2.95533836934126
30
0
41
1
10
150.800368472069
20
2.95505953113977
30
0
41
1
10
150.80163241629
20
2.96531798327334
30
0
41
1
10
150.816897511952
20
2.99373631414119
30
0
41
1
10
150.824256166426
20
3.00524082291716
30
0
41
1
10
150.844198425617
20
3.03073918249842
30
0
41
1
10
150.857049506388
20
3.04498396739587
30
0
41
1
10
150.903132767996
20
3.08745097614627
30
0
41
1
10
150.945320462067
20
3.11614371527401
30
0
41
1
10
151.018609427471
20
3.14732898415275
30
0
41
1
10
151.04512154126
20
3.15600696642889
30
0
41
1
10
151.099266264039
20
3.16848850448045
30
0
41
1
10
151.127131587409
20
3.17244332683296
30
0
41
1
10
151.155799931745
20
3.17396133744407
30
0
0
SPLINE
5
2D4
100
AcDbEntity
8
1
62
256
6
ByLayer
370
13
48
1
60
0
100
AcDbSpline
70
4
71
3
72
12
73
8
40
0
40
0
40
0
40
0
40
0.166867493783961
40
0.166867493783961
40
0.834337471403639
40
0.834337471403639
40
1
40
1
40
1
40
1
41
1
10
76.4
20
-9.14730673585504
30
0
41
1
10
73.6522484428041
20
-9.15267525990689
30
0
41
1
10
70.9044969121454
20
-9.15804692319219
30
0
41
1
10
57.1657393774172
20
-9.18491968754765
30
0
41
1
10
46.1747337231207
20
-9.20645947077861
30
0
41
1
10
32.4558189844979
20
-9.23338559546971
30
0
41
1
10
29.7279094768903
20
-9.23874187123428
30
0
41
1
10
27
20
-9.24410031264097
30
0
0
SPLINE
5
2D5
100
AcDbEntity
8
1
62
256
6
ByLayer
370
13
48
1
60
0
100
AcDbSpline
70
4
71
3
72
10
73
6
40
0
40
0
40
0
40
0
40
0.5
40
0.5
40
1
40
1
40
1
40
1
41
1
10
146.945518838028
20
4.51778990043886
30
0
41
1
10
146.951678527709
20
4.58913100113415
30
0
41
1
10
146.949883795609
20
4.66071986186662
30
0
41
1
10
146.922431311656
20
4.8038184292655
30
0
41
1
10
146.897423362466
20
4.87106973464566
30
0
41
1
10
146.859561976556
20
4.93342428182177
30
0
0
SPLINE
5
2D6
100
AcDbEntity
8
1
62
256
6
ByLayer
370
13
48
1
60
0
100
AcDbSpline
70
4
71
3
72
10
73
6
40
0
40
0
40
0
40
0
40
0.5
40
0.5
40
1
40
1
40
1
40
1
41
1
10
145.356213053509
20
4.16500774063698
30
0
41
1
10
145.395101505947
20
4.17625962376511
30
0
41
1
10
145.434286396609
20
4.1866612257335
30
0
41
1
10
145.513720753009
20
4.2044108823697
30
0
41
1
10
145.55405813211
20
4.21195682567549
30
0
41
1
10
145.595338978955
20
4.21580015314484
30
0
0
SPLINE
5
2D7
100
AcDbEntity
8
1
62
256
6
ByLayer
370
13
48
1
60
0
100
AcDbSpline
70
4
71
3
72
14
73
10
40
0
40
0
40
0
40
0
40
0.25
40
0.25
40
0.5
40
0.5
40
0.75
40
0.75
40
1
40
1
40
1
40
1
41
1
10
150.25326789314
20
2.79955097431281
30
0
41
1
10
150.283094167157
20
2.79256477452182
30
0
41
1
10
150.310294556569
20
2.78404149183041
30
0
41
1
10
150.355672191697
20
2.76495517186433
30
0
41
1
10
150.37455178432
20
2.7540991852369
30
0
41
1
10
150.40231569626
20
2.73120177825251
30
0
41
1
10
150.411395701105
20
2.71920306247145
30
0
41
1
10
150.420304344011
20
2.69414598550978
30
0
41
1
10
150.419913853351
20
2.68145873882602
30
0
41
1
10
150.415283301176
20
2.66897511019872
30
0
0
SPLINE
5
2D8
100
AcDbEntity
8
1
62
256
6
ByLayer
370
13
48
1
60
0
100
AcDbSpline
70
4
71
3
72
8
73
4
40
0
40
0
40
0
40
0
40
1
40
1
40
1
40
1
41
1
10
150.306704309586
20
2.45986194492875
30
0
41
1
10
150.300329264522
20
2.45064426235416
30
0
41
1
10
150.29551960947
20
2.44329057679423
30
0
41
1
10
150.292747125834
20
2.43802448792834
30
0
0
SPLINE
5
2D9
100
AcDbEntity
8
1
62
256
6
ByLayer
370
13
48
1
60
0
100
AcDbSpline
70
4
71
3
72
14
73
10
40
0
40
0
40
0
40
0
40
0.25
40
0.25
40
0.5
40
0.5
40
0.75
40
0.75
40
1
40
1
40
1
40
1
41
1
10
143.754230774903
20
0.962654481323227
30
0
41
1
10
143.853355232642
20
0.925184668355882
30
0
41
1
10
143.955060129633
20
0.894421179981407
30
0
41
1
10
144.163630475771
20
0.846637624791896
30
0
41
1
10
144.271058706766
20
0.82971131659437
30
0
41
1
10
144.482746871017
20
0.811095620750223
30
0
41
1
10
144.588013907927
20
0.809099044439421
30
0
41
1
10
144.797453767382
20
0.819433210315282
30
0
41
1
10
144.9012883142
20
0.831867790830216
30
0
41
1
10
145.001718568289
20
0.850935719972057
30
0
0
SPLINE
5
2DA
100
AcDbEntity
8
1
62
256
6
ByLayer
370
13
48
1
60
0
100
AcDbSpline
70
4
71
2
72
12
73
9
40
0
40
0
40
0
40
0.280818347713272
40
0.280818347713272
40
0.561636695426543
40
0.561636695426543
40
0.842455043139814
40
0.842455043139814
40
1
40
1
40
1
41
1
10
21.9999999999991
20
-5.27140812826229
30
0
41
1
10
19.4924268221512
20
-5.43558443595157
30
0
41
1
10
17.2229733021184
20
-6.30358600581175
30
0
41
1
10
14.8236279596351
20
-7.22126751174636
30
0
41
1
10
12.9885198505761
20
-8.79499388434121
30
0
41
1
10
11.1659098691583
20
-10.3580022872537
30
0
41
1
10
10.1286840670549
20
-12.370511562991
30
0
41
1
10
9.58551253294769
20
-13.4244168442619
30
0
41
1
10
9.29983954743682
20
-14.5288768862704
30
0
0
SPLINE
5
2DB
100
AcDbEntity
8
1
62
256
6
ByLayer
370
13
48
1
60
0
100
AcDbSpline
70
4
71
3
72
8
73
4
40
0
40
0
40
0
40
0
40
1
40
1
40
1
40
1
41
1
10
27
20
-9.24410031264097
30
0
41
1
10
25.3333333315666
20
-9.24411131399918
30
0
41
1
10
23.6666666647259
20
-9.24412331678082
30
0
41
1
10
22
20
-9.24413634552712
30
0
0
SPLINE
5
2DC
100
AcDbEntity
8
1
62
256
6
ByLayer
370
13
48
1
60
0
100
AcDbSpline
70
4
71
3
72
16
73
12
40
0
40
0
40
0
40
0
40
0.25
40
0.25
40
0.375
40
0.375
40
0.5
40
0.5
40
0.75
40
0.75
40
1
40
1
40
1
40
1
41
1
10
22
20
-8.73267495479743
30
0
41
1
10
21.8415679061473
20
-8.73265349783125
30
0
41
1
10
21.686451788929
20
-8.74773877843788
30
0
41
1
10
21.4583398388756
20
-8.79115102776609
30
0
41
1
10
21.3830671886266
20
-8.80910540135363
30
0
41
1
10
21.2340281143678
20
-8.85187612827391
30
0
41
1
10
21.1600953429169
20
-8.87679927199699
30
0
41
1
10
20.9453181301001
20
-8.95979409098979
30
0
41
1
10
20.8097730373519
20
-9.02642543692969
30
0
41
1
10
20.5519832964603
20
-9.17936353750599
30
0
41
1
10
20.4295552863112
20
-9.26610872144744
30
0
41
1
10
20.3168109056564
20
-9.3587130118064
30
0
0
SPLINE
5
2DD
100
AcDbEntity
8
1
62
256
6
ByLayer
370
13
48
1
60
0
100
AcDbSpline
70
4
71
3
72
38
73
34
40
0
40
0
40
0
40
0
40
0.124999999999999
40
0.124999999999999
40
0.156249999999999
40
0.156249999999999
40
0.187499999999999
40
0.187499999999999
40
0.249999999999999
40
0.249999999999999
40
0.312499999999999
40
0.312499999999999
40
0.374999999999999
40
0.374999999999999
40
0.406249999999999
40
0.406249999999999
40
0.437499999999999
40
0.437499999999999
40
0.499999999999999
40
0.499999999999999
40
0.562499999999999
40
0.562499999999999
40
0.625
40
0.625
40
0.6875
40
0.6875
40
0.75
40
0.75
40
0.875
40
0.875
40
0.9375
40
0.9375
40
1
40
1
40
1
40
1
41
1
10
6.3601039636757
20
-13.408320532465
30
0
41
1
10
6.24858489748169
20
-13.5539218223319
30
0
41
1
10
6.1697598627984
20
-13.6949901310656
30
0
41
1
10
6.11464279985745
20
-13.8652512404908
30
0
41
1
10
6.10588434669805
20
-13.8989200083742
30
0
41
1
10
6.09316511050545
20
-13.9645087813096
30
0
41
1
10
6.08915568011926
20
-13.9965683918349
30
0
41
1
10
6.08416622649835
20
-14.0905611257547
30
0
41
1
10
6.09024561790326
20
-14.1503094344162
30
0
41
1
10
6.12053322731711
20
-14.2640621632162
30
0
41
1
10
6.14504499984662
20
-14.3182839603306
30
0
41
1
10
6.21035024131399
20
-14.4178718951084
30
0
41
1
10
6.25115886685504
20
-14.4636549085703
30
0
41
1
10
6.32406420421196
20
-14.526562076616
30
0
41
1
10
6.35032210856571
20
-14.5465665517725
30
0
41
1
10
6.40676946975859
20
-14.5846420311165
30
0
41
1
10
6.43704713510684
20
-14.6027512795574
30
0
41
1
10
6.53256209470098
20
-14.653516757546
30
0
41
1
10
6.60272124816868
20
-14.6828511533069
30
0
41
1
10
6.75543395097745
20
-14.7329762514424
30
0
41
1
10
6.83799162237261
20
-14.7537643092221
30
0
41
1
10
7.01566350734336
20
-14.7868028653062
30
0
41
1
10
7.11041548808697
20
-14.7988872656668
30
0
41
1
10
7.3072291866583
20
-14.8143954579568
30
0
41
1
10
7.40981134771428
20
-14.8179159519583
30
0
41
1
10
7.62290911371599
20
-14.8169156347952
30
0
41
1
10
7.73384373819351
20
-14.8123600320129
30
0
41
1
10
8.07567541358432
20
-14.7869241336322
30
0
41
1
10
8.31158542187015
20
-14.7548607323787
30
0
41
1
10
8.67681385212319
20
-14.6857054013718
30
0
41
1
10
8.80090076718284
20
-14.6589955710424
30
0
41
1
10
9.05093138050674
20
-14.5987825781389
30
0
41
1
10
9.17651775917849
20
-14.5653901142778
30
0
41
1
10
9.30269441762294
20
-14.528689798779
30
0
0
SPLINE
5
2DE
100
AcDbEntity
8
1
62
256
6
ByLayer
370
13
48
1
60
0
100
AcDbSpline
70
4
71
3
72
8
73
4
40
0
40
0
40
0
40
0
40
1
40
1
40
1
40
1
41
1
10
144.893431704322
20
4.17510879901593
30
0
41
1
10
145.005599386704
20
5.30710082801579
30
0
41
1
10
145.111787454792
20
6.43605009574298
30
0
41
1
10
145.209134943635
20
7.56313546148888
30
0
0
SPLINE
5
2DF
100
AcDbEntity
8
1
62
256
6
ByLayer
370
13
48
1
60
0
100
AcDbSpline
70
4
71
3
72
12
73
8
40
0
40
0
40
0
40
0
40
0.25
40
0.25
40
0.5
40
0.5
40
1
40
1
40
1
40
1
41
1
10
144.79979128584
20
4.13672366831494
30
0
41
1
10
144.80243677074
20
4.14507228392876
30
0
41
1
10
144.808879660926
20
4.15170393346631
30
0
41
1
10
144.823404946081
20
4.16159796500247
30
0
41
1
10
144.831710352461
20
4.16513328398631
30
0
41
1
10
144.857259044959
20
4.17309618124963
30
0
41
1
10
144.875111891124
20
4.17505063691354
30
0
41
1
10
144.89343172317
20
4.17510898922995
30
0
0
SPLINE
5
2E0
100
AcDbEntity
8
1
62
256
6
ByLayer
370
13
48
1
60
0
100
AcDbSpline
70
4
71
3
72
8
73
4
40
0
40
0
40
0
40
0
40
1
40
1
40
1
40
1
41
1
10
27
20
-3.10768484733364
30
0
41
1
10
25.3333333208769
20
-3.10783300242321
30
0
41
1
10
23.666666646003
20
-3.10806599383949
30
0
41
1
10
22
20
-3.10841228233599
30
0
0
SPLINE
5
2E1
100
AcDbEntity
8
1
62
256
6
ByLayer
370
13
48
1
60
0
100
AcDbSpline
70
4
71
3
72
24
73
20
40
0
40
0
40
0
40
0
40
0.0624999999999993
40
0.0624999999999993
40
0.124999999999999
40
0.124999999999999
40
0.249999999999998
40
0.249999999999998
40
0.312499999999997
40
0.312499999999997
40
0.343749999999997
40
0.343749999999997
40
0.374999999999997
40
0.374999999999997
40
0.499999999999998
40
0.499999999999998
40
0.749999999999999
40
0.749999999999999
40
1
40
1
40
1
40
1
41
1
10
20.3180707420189
20
-3.62397245058065
30
0
41
1
10
20.0619618645449
20
-3.66316483567056
30
0
41
1
10
19.8079907677136
20
-3.71122845354319
30
0
41
1
10
19.3043285860016
20
-3.82511662395575
30
0
41
1
10
19.0537467365218
20
-3.8912846836902
30
0
41
1
10
18.3226730479422
20
-4.11233096957486
30
0
41
1
10
17.8584935405349
20
-4.29022884419348
30
0
41
1
10
17.1949178826122
20
-4.60009846480352
30
0
41
1
10
16.9792118818286
20
-4.71060743216876
30
0
41
1
10
16.6639399400555
20
-4.88727615325197
30
0
41
1
10
16.5602386599223
20
-4.9479833636274
30
0
41
1
10
16.3557152874214
20
-5.07303777185069
30
0
41
1
10
16.2552593848402
20
-5.13786946737369
30
0
41
1
10
15.7465610442847
20
-5.45383641383194
30
0
41
1
10
15.3291454876781
20
-5.69326518327463
30
0
41
1
10
14.0468752662955
20
-6.37323626154907
30
0
41
1
10
13.1521743649455
20
-6.7756896248346
30
0
41
1
10
11.285090371974
20
-7.48146047851895
30
0
41
1
10
10.3127047621124
20
-7.78477475520913
30
0
41
1
10
9.29956381107971
20
-8.03607818735858
30
0
0
SPLINE
5
2E2
100
AcDbEntity
8
1
62
256
6
ByLayer
370
13
48
1
60
0
100
AcDbSpline
70
4
71
3
72
12
73
8
40
0
40
0
40
0
40
0
40
0.25
40
0.25
40
0.5
40
0.5
40
1
40
1
40
1
40
1
41
1
10
20.3180707420189
20
-3.62397245058065
30
0
41
1
10
20.4413313912526
20
-3.54074405300545
30
0
41
1
10
20.5701003415664
20
-3.46698988044432
30
0
41
1
10
20.8385830871517
20
-3.33855646189602
30
0
41
1
10
20.9794721462698
20
-3.28361489893402
30
0
41
1
10
21.4066844481529
20
-3.1527899777054
30
0
41
1
10
21.6993151068667
20
-3.10847475656851
30
0
41
1
10
22
20
-3.10841228233599
30
0
0
SPLINE
5
2E3
100
AcDbEntity
8
1
62
256
6
ByLayer
370
13
48
1
60
0
100
AcDbSpline
70
4
71
3
72
8
73
4
40
0
40
0
40
0
40
0
40
1
40
1
40
1
40
1
41
1
10
143.929261594278
20
0.275439382808713
30
0
41
1
10
144.368387876631
20
0.143842047649571
30
0
41
1
10
144.815189223367
20
0.0702924780009937
30
0
41
1
10
145.269739023971
20
0.0564578140662491
30
0
0
SPLINE
5
2E4
100
AcDbEntity
8
1
62
256
6
ByLayer
370
13
48
1
60
0
100
AcDbSpline
70
4
71
3
72
8
73
4
40
0
40
0
40
0
40
0
40
1
40
1
40
1
40
1
41
1
10
150.174077446877
20
2.81773934229849
30
0
41
1
10
150.201792334127
20
2.81177281242151
30
0
41
1
10
150.228131657491
20
2.8054386277334
30
0
41
1
10
150.25326789314
20
2.79955097431267
30
0
0
SPLINE
5
2E5
100
AcDbEntity
8
1
62
256
6
ByLayer
370
13
48
1
60
0
100
AcDbSpline
70
4
71
3
72
14
73
10
40
0
40
0
40
0
40
0
40
0.499999999999997
40
0.499999999999997
40
0.624999999999998
40
0.624999999999998
40
0.749999999999998
40
0.749999999999998
40
1
40
1
40
1
40
1
41
1
10
22
20
-9.24413634552712
30
0
41
1
10
21.6991194978903
20
-9.24413869758456
30
0
41
1
10
21.4057639610447
20
-9.25684342166417
30
0
41
1
10
21.0483003165573
20
-9.28400500017449
30
0
41
1
10
20.9770412678047
20
-9.29000679188985
30
0
41
1
10
20.8376996727824
20
-9.30268338389507
30
0
41
1
10
20.7693987324949
20
-9.3093709762268
30
0
41
1
10
20.5685262888703
20
-9.33003883345873
30
0
41
1
10
20.4399635425968
20
-9.34464410816958
30
0
41
1
10
20.3168109056565
20
-9.35871301180643
30
0
0
SPLINE
5
2E6
100
AcDbEntity
8
1
62
256
6
ByLayer
370
13
48
1
60
0
100
AcDbSpline
70
4
71
1
72
4
73
2
40
0
40
0
40
1
40
1
41
1
10
22.0100000003443
20
-8.71889018679272
30
0
41
1
10
22.0099999996556
20
-8.73267630875893
30
0
0
SPLINE
5
2E7
100
AcDbEntity
8
1
62
256
6
ByLayer
370
13
48
1
60
0
100
AcDbSpline
70
4
71
3
72
12
73
8
40
0
40
0
40
0
40
0
40
0.5
40
0.5
40
0.75
40
0.75
40
1
40
1
40
1
40
1
41
1
10
151.88525696611
20
3.15806236216292
30
0
41
1
10
151.990975987501
20
3.11333133772632
30
0
41
1
10
152.097487139916
20
3.08312885233585
30
0
41
1
10
152.259570305341
20
3.05556422927788
30
0
41
1
10
152.314136038278
20
3.04939433151205
30
0
41
1
10
152.423473560441
20
3.0431064186013
30
0
41
1
10
152.478597563782
20
3.04301179096464
30
0
41
1
10
152.532554445822
20
3.04583955132941
30
0
0
SPLINE
5
2E8
100
AcDbEntity
8
1
62
256
6
ByLayer
370
13
48
1
60
0
100
AcDbSpline
70
4
71
1
72
4
73
2
40
0
40
0
40
1
40
1
41
1
10
21.9999999999997
20
-8.7326749548169
30
0
41
1
10
21.9999999999997
20
-9.24413634552712
30
0
0
SPLINE
5
2E9
100
AcDbEntity
8
1
62
256
6
ByLayer
370
13
48
1
60
0
100
AcDbSpline
70
4
71
3
72
8
73
4
40
0
40
0
40
0
40
0
40
1
40
1
40
1
40
1
41
1
10
144.593672326321
20
3.31333489431751
30
0
41
1
10
144.626060656633
20
3.4205676385977
30
0
41
1
10
144.65579648902
20
3.5282459308481
30
0
41
1
10
144.68409086893
20
3.63616634816063
30
0
0
SPLINE
5
2EA
100
AcDbEntity
8
1
62
256
6
ByLayer
370
13
48
1
60
0
100
AcDbSpline
70
4
71
1
72
4
73
2
40
0
40
0
40
1
40
1
41
1
10
22.45
20
-5.26625637595751
30
0
41
1
10
22.01
20
-5.26625637595748
30
0
0
SPLINE
5
2EB
100
AcDbEntity
8
1
62
256
6
ByLayer
370
13
48
1
60
0
100
AcDbSpline
70
4
71
3
72
18
73
14
40
0
40
0
40
0
40
0
40
0.250000000000057
40
0.250000000000057
40
0.500000000000113
40
0.500000000000113
40
0.625000000000085
40
0.625000000000085
40
0.750000000000057
40
0.750000000000057
40
0.875000000000028
40
0.875000000000028
40
1
40
1
40
1
40
1
41
1
10
155.282662650968
20
3.39024108434876
30
0
41
1
10
155.331281235035
20
3.39278907637154
30
0
41
1
10
155.380527334425
20
3.38799949943092
30
0
41
1
10
155.473588290095
20
3.36603143342867
30
0
41
1
10
155.518049701786
20
3.34854964590832
30
0
41
1
10
155.575558015817
20
3.31866376795375
30
0
41
1
10
155.593582422723
20
3.30794566388238
30
0
41
1
10
155.625728461287
20
3.28705429902325
30
0
41
1
10
155.64000496793
20
3.27682605818697
30
0
41
1
10
155.665458402237
20
3.25770241142732
30
0
41
1
10
155.676552352476
20
3.24886790072352
30
0
41
1
10
155.695244045726
20
3.23398629724556
30
0
41
1
10
155.702996687579
20
3.22781755008683
30
0
41
1
10
155.70937246848
20
3.22315517606702
30
0
0
SPLINE
5
2EC
100
AcDbEntity
8
1
62
256
6
ByLayer
370
13
48
1
60
0
100
AcDbSpline
70
4
71
3
72
10
73
6
40
0
40
0
40
0
40
0
40
0.420332626085987
40
0.420332626085987
40
1
40
1
40
1
40
1
41
1
10
22.45
20
-8.71894896119503
30
0
41
1
10
22.45
20
-8.23518918042723
30
0
41
1
10
22.45
20
-7.75142939978221
30
0
41
1
10
22.45
20
-6.60053187125368
30
0
41
1
10
22.45
20
-5.93339412348092
30
0
41
1
10
22.45
20
-5.26625637594168
30
0
0
SPLINE
5
2ED
100
AcDbEntity
8
1
62
256
6
ByLayer
370
13
48
1
60
0
100
AcDbSpline
70
4
71
3
72
8
73
4
40
0
40
0
40
0
40
0
40
1
40
1
40
1
40
1
41
1
10
156.963888539739
20
0.513542691313006
30
0
41
1
10
157.044547575776
20
0.545958723160936
30
0
41
1
10
157.125147752234
20
0.567933139014087
30
0
41
1
10
157.206322591664
20
0.581620639676885
30
0
0
SPLINE
5
2EE
100
AcDbEntity
8
1
62
256
6
ByLayer
370
13
48
1
60
0
100
AcDbSpline
70
4
71
3
72
8
73
4
40
0
40
0
40
0
40
0
40
1
40
1
40
1
40
1
41
1
10
22.45
20
-8.71894895882994
30
0
41
1
10
22.3033333332918
20
-8.71892959778995
30
0
41
1
10
22.1566666666245
20
-8.71891000775256
30
0
41
1
10
22.01
20
-8.71889018679269
30
0
0
SPLINE
5
2EF
100
AcDbEntity
8
1
62
256
6
ByLayer
370
13
48
1
60
0
100
AcDbSpline
70
4
71
3
72
14
73
10
40
0
40
0
40
0
40
0
40
0.125
40
0.125
40
0.25
40
0.25
40
0.5
40
0.5
40
1
40
1
40
1
40
1
41
1
10
76.4
20
-3.10421923796983
30
0
41
1
10
74.3416682649397
20
-3.10260258578683
30
0
41
1
10
72.2833350860583
20
-3.10259278486507
30
0
41
1
10
68.1666684054353
20
-3.10293443038674
30
0
41
1
10
66.1083348810289
20
-3.10331580435752
30
0
41
1
10
59.9333342679228
20
-3.10468513757101
30
0
41
1
10
55.8166670664776
20
-3.10584465194225
30
0
41
1
10
43.4666665103216
20
-3.1072460285171
30
0
41
1
10
35.2333339826802
20
-3.10637314975352
30
0
41
1
10
27
20
-3.10768484733373
30
0
0
SPLINE
5
2F0
100
AcDbEntity
8
1
62
256
6
ByLayer
370
13
48
1
60
0
100
AcDbSpline
70
4
71
3
72
14
73
10
40
0
40
0
40
0
40
0
40
0.25
40
0.25
40
0.5
40
0.5
40
0.75
40
0.75
40
1
40
1
40
1
40
1
41
1
10
156.85003594654
20
2.77142299587865
30
0
41
1
10
156.742449452102
20
2.76578462662431
30
0
41
1
10
156.637535927653
20
2.77298838399778
30
0
41
1
10
156.431112555831
20
2.80927587958308
30
0
41
1
10
156.334166567291
20
2.83753148203746
30
0
41
1
10
156.14825169686
20
2.91253689196333
30
0
41
1
10
156.058590803314
20
2.9599892791457
30
0
41
1
10
155.892181785317
20
3.0724912024279
30
0
41
1
10
155.814644367765
20
3.13765473488064
30
0
41
1
10
155.743157309941
20
3.21410011746738
30
0
0
SPLINE
5
2F1
100
AcDbEntity
8
1
62
256
6
ByLayer
370
13
48
1
60
0
100
AcDbSpline
70
4
71
3
72
8
73
4
40
0
40
0
40
0
40
0
40
1
40
1
40
1
40
1
41
1
10
145.265338179955
20
-9.14109402826978
30
0
41
1
10
144.821206936171
20
-9.12039194283796
30
0
41
1
10
144.375497533536
20
-9.10095164167748
30
0
41
1
10
143.929261594278
20
-9.08198116842118
30
0
0
SPLINE
5
2F2
100
AcDbEntity
8
1
62
256
6
ByLayer
370
13
48
1
60
0
100
AcDbSpline
70
4
71
3
72
8
73
4
40
0
40
0
40
0
40
0
40
1
40
1
40
1
40
1
41
1
10
142.546913281264
20
1.4640554036931
30
0
41
1
10
141.860076215345
20
1.78220217846555
30
0
41
1
10
141.176104645747
20
2.11061091893538
30
0
41
1
10
140.494739452203
20
2.44835365906602
30
0
0
SPLINE
5
2F3
100
AcDbEntity
8
1
62
256
6
ByLayer
370
13
48
1
60
0
100
AcDbSpline
70
4
71
3
72
20
73
16
40
0
40
0
40
0
40
0
40
0.124999999999993
40
0.124999999999993
40
0.249999999999986
40
0.249999999999986
40
0.374999999999978
40
0.374999999999978
40
0.499999999999971
40
0.499999999999971
40
0.749999999999986
40
0.749999999999986
40
0.874999999999993
40
0.874999999999993
40
1
40
1
40
1
40
1
41
1
10
146.75882258421
20
3.23763745142139
30
0
41
1
10
146.762047233405
20
3.17302008089939
30
0
41
1
10
146.771407163901
20
3.1104102860435
30
0
41
1
10
146.799675928736
20
2.98840298300488
30
0
41
1
10
146.818754736602
20
2.92896241128267
30
0
41
1
10
146.863469744067
20
2.81707652263785
30
0
41
1
10
146.889251080709
20
2.76398444316322
30
0
41
1
10
146.946668732521
20
2.6626621224421
30
0
41
1
10
146.978511675546
20
2.61424056876069
30
0
41
1
10
147.079594077745
20
2.47903835298939
30
0
41
1
10
147.154833326961
20
2.40090583156186
30
0
41
1
10
147.278015241402
20
2.2985391276487
30
0
41
1
10
147.320957305912
20
2.26687299447744
30
0
41
1
10
147.409048343271
20
2.20926326866609
30
0
41
1
10
147.454323570751
20
2.18319602452735
30
0
41
1
10
147.500831396091
20
2.15973948247955
30
0
0
SPLINE
5
2F4
100
AcDbEntity
8
1
62
256
6
ByLayer
370
13
48
1
60
0
100
AcDbSpline
70
4
71
3
72
8
73
4
40
0
40
0
40
0
40
0
40
1
40
1
40
1
40
1
41
1
10
146.375331299508
20
2.65645308113233
30
0
41
1
10
146.50536308055
20
2.85218977462952
30
0
41
1
10
146.630925265441
20
3.04753235352297
30
0
41
1
10
146.75882258421
20
3.23763745142136
30
0
0
SPLINE
5
2F5
100
AcDbEntity
8
1
62
256
6
ByLayer
370
13
48
1
60
0
100
AcDbSpline
70
4
71
3
72
8
73
4
40
0
40
0
40
0
40
0
40
1
40
1
40
1
40
1
41
1
10
147.500831396091
20
2.1597394824795
30
0
41
1
10
147.584373283175
20
2.11760455630753
30
0
41
1
10
147.671670394001
20
2.08607689940962
30
0
41
1
10
147.762882945905
20
2.06454845815563
30
0
0
SPLINE
5
2F6
100
AcDbEntity
8
1
62
256
6
ByLayer
370
13
48
1
60
0
100
AcDbSpline
70
4
71
3
72
10
73
6
40
0
40
0
40
0
40
0
40
0.5
40
0.5
40
1
40
1
40
1
40
1
41
1
10
151.653248314833
20
3.20003153889385
30
0
41
1
10
151.693526061719
20
3.20214240616269
30
0
41
1
10
151.733826719469
20
3.19932178823348
30
0
41
1
10
151.812755091601
20
3.1845830291964
30
0
41
1
10
151.850090194868
20
3.17294185766988
30
0
41
1
10
151.88525696611
20
3.15806236216292
30
0
0
SPLINE
5
2F7
100
AcDbEntity
8
1
62
256
6
ByLayer
370
13
48
1
60
0
100
AcDbSpline
70
4
71
3
72
8
73
4
40
0
40
0
40
0
40
0
40
1
40
1
40
1
40
1
41
1
10
144.684090868908
20
3.63616634816515
30
0
41
1
10
144.684273623378
20
3.6368634102208
30
0
41
1
10
144.684478473317
20
3.63755656501763
30
0
41
1
10
144.68470469024
20
3.63824594730977
30
0
0
SPLINE
5
2F8
100
AcDbEntity
8
1
62
256
6
ByLayer
370
13
48
1
60
0
100
AcDbSpline
70
4
71
3
72
8
73
4
40
0
40
0
40
0
40
0
40
1
40
1
40
1
40
1
41
1
10
145.356213053511
20
4.16500774063201
30
0
41
1
10
145.327514148178
20
4.15534815423661
30
0
41
1
10
145.296396225652
20
4.15011536842587
30
0
41
1
10
145.264572117194
20
4.14864488773711
30
0
0
SPLINE
5
2F9
100
AcDbEntity
8
1
62
256
6
ByLayer
370
13
48
1
60
0
100
AcDbSpline
70
4
71
3
72
8
73
4
40
0
40
0
40
0
40
0
40
1
40
1
40
1
40
1
41
1
10
150.771655810984
20
2.86965600021151
30
0
41
1
10
150.758645995916
20
2.83673815465508
30
0
41
1
10
150.744437889456
20
2.80440229445617
30
0
41
1
10
150.729094450556
20
2.77279874647442
30
0
0
SPLINE
5
2FA
100
AcDbEntity
8
1
62
256
6
ByLayer
370
13
48
1
60
0
100
AcDbSpline
70
4
71
3
72
8
73
4
40
0
40
0
40
0
40
0
40
1
40
1
40
1
40
1
41
1
10
156.950778644535
20
0.251199362293903
30
0
41
1
10
156.948105420241
20
0.307880668975088
30
0
41
1
10
156.947345288843
20
0.363060772518594
30
0
41
1
10
156.948502221637
20
0.41645855243786
30
0
0
SPLINE
5
2FB
100
AcDbEntity
8
1
62
256
6
ByLayer
370
13
48
1
60
0
100
AcDbSpline
70
4
71
3
72
26
73
22
40
0
40
0
40
0
40
0
40
0.250000000000006
40
0.250000000000006
40
0.500000000000011
40
0.500000000000011
40
0.625000000000014
40
0.625000000000014
40
0.640625000000014
40
0.640625000000014
40
0.656250000000013
40
0.656250000000013
40
0.687500000000012
40
0.687500000000012
40
0.75000000000001
40
0.75000000000001
40
0.812500000000008
40
0.812500000000008
40
0.875000000000005
40
0.875000000000005
40
1
40
1
40
1
40
1
41
1
10
9.29965971078514
20
-14.5295722650029
30
0
41
1
10
10.2996419801631
20
-14.2388583645842
30
0
41
1
10
11.2631849388847
20
-13.8877876156362
30
0
41
1
10
13.119446498436
20
-13.0683350335161
30
0
41
1
10
14.0121836021841
20
-12.5999838479557
30
0
41
1
10
15.2958036932555
20
-11.8055526467586
30
0
41
1
10
15.7141463239572
20
-11.525409333599
30
0
41
1
10
16.1706591225289
20
-11.1945110798313
30
0
41
1
10
16.2211977716217
20
-11.1575187915998
30
0
41
1
10
16.3219034697407
20
-11.0830806190882
30
0
41
1
10
16.3720524240668
20
-11.0456126473942
30
0
41
1
10
16.5243071681959
20
-10.935415534248
30
0
41
1
10
16.6274319770429
20
-10.8639302650482
30
0
41
1
10
16.941669105833
20
-10.6554101467121
30
0
41
1
10
17.1576332802291
20
-10.5242977454062
30
0
41
1
10
17.602750459448
20
-10.278171974804
30
0
41
1
10
17.8319018637725
20
-10.1631566518491
30
0
41
1
10
18.3040013593527
20
-9.9499670219615
30
0
41
1
10
18.5482427158503
20
-9.85138979973232
30
0
41
1
10
19.2893817010423
20
-9.58738566479579
30
0
41
1
10
19.7964358083659
20
-9.45211721675011
30
0
41
1
10
20.3168109056565
20
-9.35871301180643
30
0
0
SPLINE
5
2FC
100
AcDbEntity
8
1
62
256
6
ByLayer
370
13
48
1
60
0
100
AcDbSpline
70
4
71
3
72
12
73
8
40
0
40
0
40
0
40
0
40
0.24999999999999
40
0.24999999999999
40
0.499999999999979
40
0.499999999999979
40
1
40
1
40
1
40
1
41
1
10
145.595338978955
20
4.21580015314464
30
0
41
1
10
145.715563711308
20
4.23062074446938
30
0
41
1
10
145.832477758124
20
4.2496533603792
30
0
41
1
10
146.062486649732
20
4.29301155437639
30
0
41
1
10
146.175542400453
20
4.31735791296796
30
0
41
1
10
146.510919633444
20
4.3957203575419
30
0
41
1
10
146.729543725439
20
4.45491179875469
30
0
41
1
10
146.945518838022
20
4.51778990043914
30
0
0
SPLINE
5
2FD
100
AcDbEntity
8
1
62
256
6
ByLayer
370
13
48
1
60
0
100
AcDbSpline
70
4
71
3
72
8
73
4
40
0
40
0
40
0
40
0
40
1
40
1
40
1
40
1
41
1
10
156.619448548057
20
-1.13351111573539
30
0
41
1
10
156.69084693761
20
-1.52869091904429
30
0
41
1
10
156.706833991333
20
-1.92155809637586
30
0
41
1
10
156.673067302788
20
-2.31169357283022
30
0
0
SPLINE
5
2FE
100
AcDbEntity
8
1
62
256
6
ByLayer
370
13
48
1
60
0
100
AcDbSpline
70
4
71
3
72
8
73
4
40
0
40
0
40
0
40
0
40
1
40
1
40
1
40
1
41
1
10
146.929261594278
20
-9.19337785346877
30
0
41
1
10
146.374620456163
20
-9.17594991196799
30
0
41
1
10
145.819979318056
20
-9.15852197023631
30
0
41
1
10
145.265338179955
20
-9.14109402826978
30
0
0
SPLINE
5
2FF
100
AcDbEntity
8
1
62
256
6
ByLayer
370
13
48
1
60
0
100
AcDbSpline
70
4
71
3
72
8
73
4
40
0
40
0
40
0
40
0
40
1
40
1
40
1
40
1
41
1
10
146.75882258421
20
3.23763745142136
30
0
41
1
10
146.772000752315
20
3.28028938157289
30
0
41
1
10
146.786616225811
20
3.32311403468097
30
0
41
1
10
146.803001764698
20
3.36603020974357
30
0
0
SPLINE
5
300
100
AcDbEntity
8
1
62
256
6
ByLayer
370
13
48
1
60
0
100
AcDbSpline
70
4
71
3
72
18
73
14
40
0
40
0
40
0
40
0
40
0.249999999999998
40
0.249999999999998
40
0.374999999999999
40
0.374999999999999
40
0.499999999999999
40
0.499999999999999
40
0.625
40
0.625
40
0.75
40
0.75
40
1
40
1
40
1
40
1
41
1
10
6.36070176848904
20
-11.8491237650016
30
0
41
1
10
6.2612511315584
20
-11.99726216285
30
0
41
1
10
6.18482280560926
20
-12.1440513055298
30
0
41
1
10
6.10583944355767
20
-12.3621335319656
30
0
41
1
10
6.08545250414852
20
-12.4349910436941
30
0
41
1
10
6.05834914214705
20
-12.5770800644127
30
0
41
1
10
6.05154220290666
20
-12.6462170511853
30
0
41
1
10
6.05156575863808
20
-12.7806999601112
30
0
41
1
10
6.05829045290432
20
-12.8460606365028
30
0
41
1
10
6.08501826454466
20
-12.97301632309
30
0
41
1
10
6.10522582568177
20
-13.0349096509189
30
0
41
1
10
6.18403174898069
20
-13.210358863597
30
0
41
1
10
6.26051420993568
20
-13.3151827592934
30
0
41
1
10
6.36010396367567
20
-13.408320532465
30
0
0
SPLINE
5
301
100
AcDbEntity
8
1
62
256
6
ByLayer
370
13
48
1
60
0
100
AcDbSpline
70
4
71
3
72
54
73
50
40
0
40
0
40
0
40
0
40
0.0312500000000002
40
0.0312500000000002
40
0.0468750000000002
40
0.0468750000000002
40
0.0625000000000003
40
0.0625000000000003
40
0.0703125000000003
40
0.0703125000000003
40
0.0781250000000004
40
0.0781250000000004
40
0.0937500000000005
40
0.0937500000000005
40
0.125000000000001
40
0.125000000000001
40
0.156250000000001
40
0.156250000000001
40
0.187500000000001
40
0.187500000000001
40
0.218750000000001
40
0.218750000000001
40
0.250000000000001
40
0.250000000000001
40
0.281250000000001
40
0.281250000000001
40
0.312500000000002
40
0.312500000000002
40
0.375000000000001
40
0.375000000000001
40
0.406250000000001
40
0.406250000000001
40
0.437500000000001
40
0.437500000000001
40
0.500000000000001
40
0.500000000000001
40
0.5625
40
0.5625
40
0.625
40
0.625
40
0.75
40
0.75
40
0.8125
40
0.8125
40
0.875
40
0.875
40
0.9375
40
0.9375
40
1
40
1
40
1
40
1
41
1
10
143.929261594278
20
-9.08198116842118
30
0
41
1
10
143.211099447408
20
-9.07297440142617
30
0
41
1
10
142.489918551982
20
-9.06518894981542
30
0
41
1
10
141.41941026926
20
-9.04534112393213
30
0
41
1
10
141.06432567158
20
-9.03741530766297
30
0
41
1
10
140.361745741235
20
-9.01520504738573
30
0
41
1
10
140.014248602729
20
-9.00100729831237
30
0
41
1
10
139.502999632829
20
-8.96948857356611
30
0
41
1
10
139.334414534357
20
-8.9571053270343
30
0
41
1
10
139.000396208825
20
-8.92825535181174
30
0
41
1
10
138.834961824916
20
-8.91175527272785
30
0
41
1
10
138.339546998408
20
-8.85877073713962
30
0
41
1
10
138.009289031932
20
-8.82004345874736
30
0
41
1
10
137.018036445955
20
-8.69427388928366
30
0
41
1
10
136.35680621157
20
-8.59702927780151
30
0
41
1
10
135.036951754271
20
-8.37707723680111
30
0
41
1
10
134.37793874046
20
-8.25430268945516
30
0
41
1
10
133.060630046073
20
-7.98431063209296
30
0
41
1
10
132.402154686322
20
-7.83718839563409
30
0
41
1
10
131.081206005874
20
-7.52508054595174
30
0
41
1
10
130.41868558513
20
-7.3601820040704
30
0
41
1
10
129.086005595813
20
-7.02044437185458
30
0
41
1
10
128.415976495188
20
-6.84545630545429
30
0
41
1
10
127.066506683827
20
-6.4921202302254
30
0
41
1
10
126.388536524695
20
-6.31436718998967
30
0
41
1
10
125.026881295114
20
-5.96356036772485
30
0
41
1
10
124.342983420026
20
-5.79015839549507
30
0
41
1
10
122.281640013756
20
-5.28145432782364
30
0
41
1
10
120.894891387865
20
-4.95663842080654
30
0
41
1
10
118.790800562728
20
-4.52115715705833
30
0
41
1
10
118.084813015841
20
-4.38520864042391
30
0
41
1
10
116.671670127712
20
-4.13356487768618
30
0
41
1
10
115.963761987346
20
-4.01736395572317
30
0
41
1
10
113.836670131391
20
-3.69412278665371
30
0
41
1
10
112.414475194222
20
-3.5093438586957
30
0
41
1
10
109.557516877498
20
-3.24530060108268
30
0
41
1
10
108.122445118687
20
-3.16897433713132
30
0
41
1
10
105.244450228212
20
-3.08501714395729
30
0
41
1
10
103.801332913285
20
-3.07741036534847
30
0
41
1
10
99.4747663985211
20
-3.06556749863398
30
0
41
1
10
96.5904218710469
20
-3.07803687443422
30
0
41
1
10
92.2639056133545
20
-3.0970506735805
30
0
41
1
10
90.8217329927209
20
-3.10354159079145
30
0
41
1
10
87.9373860251455
20
-3.11304279723186
30
0
41
1
10
86.495212621755
20
-3.11575184856667
30
0
41
1
10
83.610866041955
20
-3.11541184492458
30
0
41
1
10
82.1686928418549
20
-3.11296350622393
30
0
41
1
10
79.2843464509755
20
-3.10782924931857
30
0
41
1
10
77.8421732479536
20
-3.10545405615201
30
0
41
1
10
76.4
20
-3.10421923797048
30
0
0
SPLINE
5
302
100
AcDbEntity
8
1
62
256
6
ByLayer
370
13
48
1
60
0
100
AcDbSpline
70
4
71
3
72
8
73
4
40
0
40
0
40
0
40
0
40
1
40
1
40
1
40
1
41
1
10
156.952400863402
20
0.220510383249604
30
0
41
1
10
156.951783824891
20
0.23082799016737
30
0
41
1
10
156.951243698919
20
0.241057143339134
30
0
41
1
10
156.950778644535
20
0.251199362293818
30
0
0
SPLINE
5
303
100
AcDbEntity
8
1
62
256
6
ByLayer
370
13
48
1
60
0
100
AcDbSpline
70
4
71
3
72
8
73
4
40
0
40
0
40
0
40
0
40
1
40
1
40
1
40
1
41
1
10
22.01
20
-8.73267630877501
30
0
41
1
10
22.0066666666666
20
-8.73267585756727
30
0
41
1
10
22.0033333333333
20
-8.73267540624144
30
0
41
1
10
22
20
-8.7326749547974
30
0
0
SPLINE
5
304
100
AcDbEntity
8
1
62
256
6
ByLayer
370
13
48
1
60
0
100
AcDbSpline
70
4
71
3
72
8
73
4
40
0
40
0
40
0
40
0
40
1
40
1
40
1
40
1
41
1
10
144.795455595749
20
9.00789706402927
30
0
41
1
10
144.506780629696
20
9.02421333173598
30
0
41
1
10
144.21806437861
20
9.03793138905573
30
0
41
1
10
143.929261594278
20
9.04904566490768
30
0
0
SPLINE
5
305
100
AcDbEntity
8
1
62
256
6
ByLayer
370
13
48
1
60
0
100
AcDbSpline
70
4
71
3
72
14
73
10
40
0
40
0
40
0
40
0
40
0.25
40
0.25
40
0.5
40
0.5
40
0.75
40
0.75
40
1
40
1
40
1
40
1
41
1
10
144.68470469024
20
3.63824594730974
30
0
41
1
10
144.695573824544
20
3.67136897200305
30
0
41
1
10
144.705688318195
20
3.70841921859673
30
0
41
1
10
144.725169662445
20
3.78901887765554
30
0
41
1
10
144.734196210378
20
3.83121526675777
30
0
41
1
10
144.751937140595
20
3.91916940018737
30
0
41
1
10
144.760432674728
20
3.96418944097061
30
0
41
1
10
144.778194331695
20
4.05278249592564
30
0
41
1
10
144.787041137019
20
4.09648677582857
30
0
41
1
10
144.79979128584
20
4.13672366831645
30
0
0
SPLINE
5
306
100
AcDbEntity
8
1
62
256
6
ByLayer
370
13
48
1
60
0
100
AcDbSpline
70
4
71
3
72
32
73
28
40
0
40
0
40
0
40
0
40
0.124999999999988
40
0.124999999999988
40
0.249999999999976
40
0.249999999999976
40
0.31249999999998
40
0.31249999999998
40
0.374999999999984
40
0.374999999999984
40
0.437499999999988
40
0.437499999999988
40
0.499999999999992
40
0.499999999999992
40
0.562499999999996
40
0.562499999999996
40
0.625
40
0.625
40
0.687500000000004
40
0.687500000000004
40
0.750000000000008
40
0.750000000000008
40
0.874999999999996
40
0.874999999999996
40
0.937499999999998
40
0.937499999999998
40
1
40
1
40
1
40
1
41
1
10
150.729094450556
20
2.77279874647442
30
0
41
1
10
150.672066422168
20
2.65533563777109
30
0
41
1
10
150.599296012508
20
2.54814652776938
30
0
41
1
10
150.431889391834
20
2.36375799076342
30
0
41
1
10
150.335519239776
20
2.28437601672866
30
0
41
1
10
150.176865242999
20
2.18911934299786
30
0
41
1
10
150.121450356919
20
2.16113652097766
30
0
41
1
10
150.004089637081
20
2.11286434379818
30
0
41
1
10
149.941378477828
20
2.0924381167859
30
0
41
1
10
149.812458424213
20
2.06161004465656
30
0
41
1
10
149.745988105268
20
2.05099127656501
30
0
41
1
10
149.60836920041
20
2.04004519342757
30
0
41
1
10
149.539446358956
20
2.03994215525387
30
0
41
1
10
149.403160504833
20
2.04967404206491
30
0
41
1
10
149.33493629564
20
2.05965925074975
30
0
41
1
10
149.203672880911
20
2.08833805569591
30
0
41
1
10
149.140156837729
20
2.10698911623399
30
0
41
1
10
149.016462867831
20
2.15258666863397
30
0
41
1
10
148.955920447226
20
2.17975338151245
30
0
41
1
10
148.839873216223
20
2.24178381573932
30
0
41
1
10
148.784466190668
20
2.27651625863263
30
0
41
1
10
148.62559925439
20
2.39231199074271
30
0
41
1
10
148.528476873312
20
2.48627663644672
30
0
41
1
10
148.40700386956
20
2.64679052048149
30
0
41
1
10
148.370064837525
20
2.70408905650058
30
0
41
1
10
148.305195956951
20
2.82539415859168
30
0
41
1
10
148.277961360398
20
2.88800601078856
30
0
41
1
10
148.25596102313
20
2.95258858097509
30
0
0
SPLINE
5
307
100
AcDbEntity
8
1
62
256
6
ByLayer
370
13
48
1
60
0
100
AcDbSpline
70
4
71
3
72
14
73
10
40
0
40
0
40
0
40
0
40
0.25
40
0.25
40
0.5
40
0.5
40
0.75
40
0.75
40
1
40
1
40
1
40
1
41
1
10
146.375331299508
20
2.65645308113227
30
0
41
1
10
146.355852359915
20
2.62080981882491
30
0
41
1
10
146.332384118402
20
2.58754215900072
30
0
41
1
10
146.274667614986
20
2.53107818135501
30
0
41
1
10
146.240312381179
20
2.50862901547328
30
0
41
1
10
146.166379923204
20
2.4873980424928
30
0
41
1
10
146.127785977689
20
2.48950733442158
30
0
41
1
10
146.05919970053
20
2.51089915648376
30
0
41
1
10
146.027906893769
20
2.52943729281927
30
0
41
1
10
145.999431608898
20
2.55058697841091
30
0
0
SPLINE
5
308
100
AcDbEntity
8
1
62
256
6
ByLayer
370
13
48
1
60
0
100
AcDbSpline
70
4
71
3
72
12
73
8
40
0
40
0
40
0
40
0
40
0.250000000000022
40
0.250000000000022
40
0.500000000000045
40
0.500000000000045
40
1
40
1
40
1
40
1
41
1
10
154.000906053843
20
3.12279259831246
30
0
41
1
10
154.04909612169
20
3.1253181327518
30
0
41
1
10
154.09803311357
20
3.130866366058
30
0
41
1
10
154.194589963666
20
3.14794474578574
30
0
41
1
10
154.242524790673
20
3.15948647027341
30
0
41
1
10
154.384292297025
20
3.20297523227296
30
0
41
1
10
154.476617086792
20
3.24359826783478
30
0
41
1
10
154.567793234018
20
3.29864813081019
30
0
0
SPLINE
5
309
100
AcDbEntity
8
1
62
256
6
ByLayer
370
13
48
1
60
0
100
AcDbSpline
70
4
71
3
72
8
73
4
40
0
40
0
40
0
40
0
40
1
40
1
40
1
40
1
41
1
10
0.0999999999999659
20
-3.96862696659682
30
0
41
1
10
0.0650328392778476
20
-3.82765262553048
30
0
41
1
10
0.0316759574587309
20
-3.68612145608716
30
0
41
1
10
0
20
-3.54400902933392
30
0
0
SPLINE
5
30A
100
AcDbEntity
8
1
62
256
6
ByLayer
370
13
48
1
60
0
100
AcDbSpline
70
4
71
3
72
18
73
14
40
0
40
0
40
0
40
0
40
0.125000000000005
40
0.125000000000005
40
0.250000000000009
40
0.250000000000009
40
0.375000000000014
40
0.375000000000014
40
0.500000000000019
40
0.500000000000019
40
0.750000000000009
40
0.750000000000009
40
1
40
1
40
1
40
1
41
1
10
145.264572117195
20
4.1486448877404
30
0
41
1
10
145.347891786245
20
4.10994165119095
30
0
41
1
10
145.42835380652
20
4.0657555816876
30
0
41
1
10
145.582704473107
20
3.96674785855407
30
0
41
1
10
145.654561176793
20
3.91329782064793
30
0
41
1
10
145.788876951216
20
3.80024748520455
30
0
41
1
10
145.851353390591
20
3.74068092528245
30
0
41
1
10
145.967685358241
20
3.61659556408773
30
0
41
1
10
146.021767180229
20
3.55168909362365
30
0
41
1
10
146.166488627744
20
3.35528473662532
30
0
41
1
10
146.241564912274
20
3.22008501848569
30
0
41
1
10
146.345701621868
20
2.93793735151618
30
0
41
1
10
146.372962911985
20
2.79739599984197
30
0
41
1
10
146.375331299509
20
2.65645308113261
30
0
0
SPLINE
5
30B
100
AcDbEntity
8
1
62
256
6
ByLayer
370
13
48
1
60
0
100
AcDbSpline
70
4
71
3
72
8
73
4
40
0
40
0
40
0
40
0
40
1
40
1
40
1
40
1
41
1
10
145.001718568289
20
0.850935719971943
30
0
41
1
10
145.041560683891
20
0.843366140990014
30
0
41
1
10
145.081434510078
20
0.836123168469356
30
0
41
1
10
145.121339222633
20
0.82920654707965
30
0
0
SPLINE
5
30C
100
AcDbEntity
8
1
62
256
6
ByLayer
370
13
48
1
60
0
100
AcDbSpline
70
4
71
3
72
36
73
32
40
0
40
0
40
0
40
0
40
0.124999999999992
40
0.124999999999992
40
0.249999999999983
40
0.249999999999983
40
0.312499999999984
40
0.312499999999984
40
0.374999999999985
40
0.374999999999985
40
0.437499999999987
40
0.437499999999987
40
0.468749999999987
40
0.468749999999987
40
0.499999999999988
40
0.499999999999988
40
0.62499999999999
40
0.62499999999999
40
0.656249999999991
40
0.656249999999991
40
0.687499999999992
40
0.687499999999992
40
0.749999999999994
40
0.749999999999994
40
0.812499999999995
40
0.812499999999995
40
0.874999999999997
40
0.874999999999997
40
0.937499999999998
40
0.937499999999998
40
1
40
1
40
1
40
1
41
1
10
145.121339222621
20
0.829206547081981
30
0
41
1
10
145.424046164281
20
0.776738826518255
30
0
41
1
10
145.728562542005
20
0.728921833092556
30
0
41
1
10
146.343330716668
20
0.648029383868732
30
0
41
1
10
146.653567453469
20
0.614915219550284
30
0
41
1
10
147.125255050024
20
0.581520143307046
30
0
41
1
10
147.283908707177
20
0.573105442056544
30
0
41
1
10
147.602163455052
20
0.562964309363821
30
0
41
1
10
147.760878558512
20
0.561254814503485
30
0
41
1
10
148.077359417042
20
0.565575471421084
30
0
41
1
10
148.235125847211
20
0.571600119384073
30
0
41
1
10
148.470945667601
20
0.587402311851861
30
0
41
1
10
148.549413653258
20
0.593799830424672
30
0
41
1
10
148.706047344009
20
0.609059236581203
30
0
41
1
10
148.784358151631
20
0.617947802898556
30
0
41
1
10
149.170155067332
20
0.668439394623164
30
0
41
1
10
149.464126165561
20
0.728147499671593
30
0
41
1
10
149.808679512151
20
0.832954446906029
30
0
41
1
10
149.876427696313
20
0.855446760952447
30
0
41
1
10
150.009394115899
20
0.903763182778022
30
0
41
1
10
150.074445773909
20
0.929554153740241
30
0
41
1
10
150.26162296684
20
1.01057644278743
30
0
41
1
10
150.377129854092
20
1.06989902234867
30
0
41
1
10
150.588566039194
20
1.19974415955619
30
0
41
1
10
150.685189632661
20
1.2710544860501
30
0
41
1
10
150.850746979288
20
1.4202824543363
30
0
41
1
10
150.920500064865
20
1.49846578994865
30
0
41
1
10
151.034258586623
20
1.66188799003385
30
0
41
1
10
151.07829470992
20
1.74782422009753
30
0
41
1
10
151.13782081519
20
1.92043231515737
30
0
41
1
10
151.153941814286
20
2.00770515688097
30
0
41
1
10
151.157272948532
20
2.09588627438367
30
0
0
SPLINE
5
30D
100
AcDbEntity
8
1
62
256
6
ByLayer
370
13
48
1
60
0
100
AcDbSpline
70
4
71
3
72
8
73
4
40
0
40
0
40
0
40
0
40
1
40
1
40
1
40
1
41
1
10
142.67307269856
20
0.80711699146579
30
0
41
1
10
143.069246803632
20
0.577181434077517
30
0
41
1
10
143.487570544515
20
0.398815634001011
30
0
41
1
10
143.929261594278
20
0.275439382808713
30
0
0
SPLINE
5
30E
100
AcDbEntity
8
1
62
256
6
ByLayer
370
13
48
1
60
0
100
AcDbSpline
70
4
71
3
72
8
73
4
40
0
40
0
40
0
40
0
40
1
40
1
40
1
40
1
41
1
10
144.558810246305
20
8.53511298424147
30
0
41
1
10
144.639640736401
20
8.69171110754812
30
0
41
1
10
144.718453773694
20
8.84934095748397
30
0
41
1
10
144.795455595749
20
9.0078970640289
30
0
0
SPLINE
5
30F
100
AcDbEntity
8
1
62
256
6
ByLayer
370
13
48
1
60
0
100
AcDbSpline
70
4
71
3
72
10
73
6
40
0
40
0
40
0
40
0
40
0.5
40
0.5
40
1
40
1
40
1
40
1
41
1
10
144.893427195668
20
4.17510897480526
30
0
41
1
10
144.956442967762
20
4.1753098005706
30
0
41
1
10
145.0189157624
20
4.17326115706308
30
0
41
1
10
145.142757989811
20
4.16450364808563
30
0
41
1
10
145.204457564577
20
4.15773623675838
30
0
41
1
10
145.264572117193
20
4.14864488773716
30
0
0
SPLINE
5
310
100
AcDbEntity
8
1
62
256
6
ByLayer
370
13
48
1
60
0
100
AcDbSpline
70
4
71
3
72
16
73
12
40
0
40
0
40
0
40
0
40
0.249999999999994
40
0.249999999999994
40
0.499999999999988
40
0.499999999999988
40
0.624999999999991
40
0.624999999999991
40
0.749999999999994
40
0.749999999999994
40
1
40
1
40
1
40
1
41
1
10
147.762882945905
20
2.06454845815529
30
0
41
1
10
148.083030565956
20
1.98898562072836
30
0
41
1
10
148.396368252611
20
1.93953677549192
30
0
41
1
10
149.007951854269
20
1.88218721393082
30
0
41
1
10
149.306211434194
20
1.87440469253156
30
0
41
1
10
149.739597632158
20
1.8879378539738
30
0
41
1
10
149.882019245544
20
1.89669627599722
30
0
41
1
10
150.159177948688
20
1.9213530416356
30
0
41
1
10
150.294076371914
20
1.93723840777312
30
0
41
1
10
150.686685026606
20
1.99342004024251
30
0
41
1
10
150.932634451663
20
2.04244357968835
30
0
41
1
10
151.157272948532
20
2.0958862743837
30
0
0
SPLINE
5
311
100
AcDbEntity
8
1
62
256
6
ByLayer
370
13
48
1
60
0
100
AcDbSpline
70
4
71
3
72
8
73
4
40
0
40
0
40
0
40
0
40
1
40
1
40
1
40
1
41
1
10
148.498200283522
20
9.15749530173912
30
0
41
1
10
148.496869504579
20
9.16030684840149
30
0
41
1
10
148.496579216012
20
9.163046833599
30
0
41
1
10
148.497286578905
20
9.16571767757662
30
0
0
SPLINE
5
312
100
AcDbEntity
8
1
62
256
6
ByLayer
370
13
48
1
60
0
100
AcDbSpline
70
4
71
3
72
34
73
30
40
0
40
0
40
0
40
0
40
0.124999999999999
40
0.124999999999999
40
0.187499999999999
40
0.187499999999999
40
0.249999999999999
40
0.249999999999999
40
0.374999999999999
40
0.374999999999999
40
0.437499999999999
40
0.437499999999999
40
0.499999999999999
40
0.499999999999999
40
0.562499999999999
40
0.562499999999999
40
0.624999999999999
40
0.624999999999999
40
0.749999999999999
40
0.749999999999999
40
0.781249999999999
40
0.781249999999999
40
0.8125
40
0.8125
40
0.875
40
0.875
40
0.9375
40
0.9375
40
1
40
1
40
1
40
1
41
1
10
9.30264370643206
20
-8.03531404553968
30
0
41
1
10
9.0497245236815
20
-8.098081557326
30
0
41
1
10
8.80194280103393
20
-8.18004399948089
30
0
41
1
10
8.43747516895405
20
-8.33010856125102
30
0
41
1
10
8.31720064335971
20
-8.38470166283412
30
0
41
1
10
8.07917153539455
20
-8.50339923569774
30
0
41
1
10
7.96184374992245
20
-8.56736785216933
30
0
41
1
10
7.6223411239105
20
-8.76916890487215
30
0
41
1
10
7.40963665190503
20
-8.91806603299094
30
0
41
1
10
7.11315562168755
20
-9.16518292039757
30
0
41
1
10
7.01762775269933
20
-9.25215492069026
30
0
41
1
10
6.84035218334944
20
-9.42971819938219
30
0
41
1
10
6.7579409746748
20
-9.52071381386705
30
0
41
1
10
6.60542967679018
20
-9.70702536187147
30
0
41
1
10
6.53532538093913
20
-9.80233970067911
30
0
41
1
10
6.40798092930487
20
-9.99744139898931
30
0
41
1
10
6.35047253525846
20
-10.0979519352425
30
0
41
1
10
6.20356182820623
20
-10.3973293311313
30
0
41
1
10
6.1373264014359
20
-10.5961839101106
30
0
41
1
10
6.09838253055827
20
-10.8439115337528
30
0
41
1
10
6.09285529676779
20
-10.893456298935
30
0
41
1
10
6.08660038471092
20
-10.9906570312616
30
0
41
1
10
6.08582740999643
20
-11.0385412056945
30
0
41
1
10
6.0906173072745
20
-11.1800560042248
30
0
41
1
10
6.1031794017749
20
-11.2715720105643
30
0
41
1
10
6.14653373666866
20
-11.44904887276
30
0
41
1
10
6.17765435249584
20
-11.5355639851081
30
0
41
1
10
6.25675857133066
20
-11.6990810065917
30
0
41
1
10
6.30463493915639
20
-11.7763170857093
30
0
41
1
10
6.36070176848904
20
-11.8491237650016
30
0
0
SPLINE
5
313
100
AcDbEntity
8
1
62
256
6
ByLayer
370
13
48
1
60
0
100
AcDbSpline
70
4
71
3
72
8
73
4
40
0
40
0
40
0
40
0
40
1
40
1
40
1
40
1
41
1
10
148.26227777579
20
6.19331005296024
30
0
41
1
10
148.245081594289
20
6.14517083079582
30
0
41
1
10
148.221777193484
20
6.10209371158274
30
0
41
1
10
148.196150662733
20
6.06562999229669
30
0
0
SPLINE
5
314
100
AcDbEntity
8
1
62
256
6
ByLayer
370
13
48
1
60
0
100
AcDbSpline
70
4
71
3
72
16
73
12
40
0
40
0
40
0
40
0
40
0.249999999999996
40
0.249999999999996
40
0.499999999999993
40
0.499999999999993
40
0.624999999999994
40
0.624999999999994
40
0.749999999999996
40
0.749999999999996
40
1
40
1
40
1
40
1
41
1
10
156.948502221637
20
0.41645855243786
30
0
41
1
10
156.949612916589
20
0.467722242893672
30
0
41
1
10
156.951447812979
20
0.516795168434697
30
0
41
1
10
156.956587136422
20
0.604312399081266
30
0
41
1
10
156.959964803267
20
0.643740795908968
30
0
41
1
10
156.965957133088
20
0.690973059126776
30
0
41
1
10
156.968117574955
20
0.704915868336968
30
0
41
1
10
156.9727897362
20
0.728919559800801
30
0
41
1
10
156.975293770171
20
0.738869946524545
30
0
41
1
10
156.983041549123
20
0.761404701725866
30
0
41
1
10
156.988701794392
20
0.7672743648763
30
0
41
1
10
156.994558701794
20
0.762828092095077
30
0
0
SPLINE
5
315
100
AcDbEntity
8
1
62
256
6
ByLayer
370
13
48
1
60
0
100
AcDbSpline
70
4
71
3
72
8
73
4
40
0
40
0
40
0
40
0
40
1
40
1
40
1
40
1
41
1
10
139.504738168403
20
2.78611199237372
30
0
41
1
10
139.837679327005
20
2.66501366480028
30
0
41
1
10
140.167894555675
20
2.55180579313193
30
0
41
1
10
140.494739452203
20
2.44835365906599
30
0
0
SPLINE
5
316
100
AcDbEntity
8
1
62
256
6
ByLayer
370
13
48
1
60
0
100
AcDbSpline
70
4
71
3
72
8
73
4
40
0
40
0
40
0
40
0
40
1
40
1
40
1
40
1
41
1
10
145.269739023971
20
0.056457814066448
30
0
41
1
10
145.822910799778
20
0.0396214946877649
30
0
41
1
10
146.376085017875
20
0.022816277621331
30
0
41
1
10
146.929261594278
20
0.0060413034100009
30
0
0
SPLINE
5
317
100
AcDbEntity
8
1
62
256
6
ByLayer
370
13
48
1
60
0
100
AcDbSpline
70
4
71
3
72
10
73
6
40
0
40
0
40
0
40
0
40
0.5
40
0.5
40
1
40
1
40
1
40
1
41
1
10
150.292747125835
20
2.43802448792994
30
0
41
1
10
150.289503371123
20
2.43186326109705
30
0
41
1
10
150.289217561789
20
2.42877759910283
30
0
41
1
10
150.295103384958
20
2.42908131591946
30
0
41
1
10
150.301371630159
20
2.43254245597296
30
0
41
1
10
150.310243589722
20
2.43894143874752
30
0
0
SPLINE
5
318
100
AcDbEntity
8
1
62
256
6
ByLayer
370
13
48
1
60
0
100
AcDbSpline
70
4
71
3
72
8
73
4
40
0
40
0
40
0
40
0
40
1
40
1
40
1
40
1
41
1
10
144.558810246305
20
8.53511298424147
30
0
41
1
10
144.760457391171
20
8.20147813462714
30
0
41
1
10
144.976669177714
20
7.87707525040059
30
0
41
1
10
145.209120294228
20
7.56296585196847
30
0
0
SPLINE
5
319
100
AcDbEntity
8
1
62
256
6
ByLayer
370
13
48
1
60
0
100
AcDbSpline
70
4
71
3
72
8
73
4
40
0
40
0
40
0
40
0
40
1
40
1
40
1
40
1
41
1
10
143.753949334762
20
0.962760888639679
30
0
41
1
10
143.346450465682
20
1.11685874524738
30
0
41
1
10
142.942751183466
20
1.28070107095903
30
0
41
1
10
142.546913281264
20
1.46405540369312
30
0
0
SPLINE
5
31A
100
AcDbEntity
8
1
62
256
6
ByLayer
370
18
48
1
60
0
100
AcDbSpline
70
4
71
1
72
4
73
2
40
0
40
0
40
1
40
1
41
1
10
156.950784196037
20
-5.59251027353258
30
0
41
1
10
157.002994450931
20
-6.0695154628124
30
0
0
SPLINE
5
31B
100
AcDbEntity
8
1
62
256
6
ByLayer
370
13
48
1
60
0
100
AcDbSpline
70
4
71
3
72
55
73
51
40
0
40
0
40
0
40
0
40
0.0063113438323636
40
0.0063113438323636
40
0.0150279109917292
40
0.0150279109917292
40
0.0237444781510947
40
0.0237444781510947
40
0.0324610453104602
40
0.0324610453104602
40
0.0411776124698258
40
0.0411776124698258
40
0.0586107467885569
40
0.0586107467885569
40
0.0760438811072879
40
0.0760438811072879
40
0.093477015426019
40
0.093477015426019
40
0.128343284063481
40
0.128343284063481
40
0.145776418382212
40
0.145776418382212
40
0.163209552700943
40
0.163209552700943
40
0.180642687019674
40
0.180642687019674
40
0.198075821338405
40
0.198075821338405
40
0.20679238849777
40
0.20679238849777
40
0.215508955657135
40
0.215508955657135
40
0.224225522816501
40
0.224225522816501
40
0.232942089975866
40
0.232942089975866
40
0.241658657135231
40
0.241658657135231
40
0.250375224294597
40
0.267808358613327
40
0.267808358613327
40
0.302674627250787
40
0.302674627250787
40
0.44213970180063
40
0.44213970180063
40
0.581604776350472
40
0.581604776350472
40
0.721069850900315
40
0.721069850900315
40
1
40
1
40
1
40
1
41
1
10
130.467864138579
20
-7.37011149513302
30
0
41
1
10
130.256940162158
20
-7.41801064595353
30
0
41
1
10
130.04591967556
20
-7.46468076542172
30
0
41
1
10
129.543164624287
20
-7.57255502395998
30
0
41
1
10
129.251587509887
20
-7.63245316498939
30
0
41
1
10
128.668275649603
20
-7.74616411722016
30
0
41
1
10
128.376557699548
20
-7.79988315968478
30
0
41
1
10
127.79236176487
20
-7.90226646594189
30
0
41
1
10
127.499876096712
20
-7.95088907979425
30
0
41
1
10
126.913417658475
20
-8.04374938086943
30
0
41
1
10
126.619409538908
20
-8.08821297869721
30
0
41
1
10
125.734559558261
20
-8.21389159992691
30
0
41
1
10
125.141031267019
20
-8.28729887512145
30
0
41
1
10
123.946432336537
20
-8.4113297247691
30
0
41
1
10
123.345332673451
20
-8.46197643792044
30
0
41
1
10
122.136596963395
20
-8.5477410493238
30
0
41
1
10
121.529032972509
20
-8.5830169711019
30
0
41
1
10
119.702074827332
20
-8.6698509052471
30
0
41
1
10
118.476467253645
20
-8.70249690626338
30
0
41
1
10
116.625905149903
20
-8.73345807692874
30
0
41
1
10
116.007059848732
20
-8.74090894127391
30
0
41
1
10
114.76481176444
20
-8.75016271718704
30
0
41
1
10
114.140842685135
20
-8.75202593548184
30
0
41
1
10
112.890812162835
20
-8.75079962775791
30
0
41
1
10
112.264801442521
20
-8.74717592206866
30
0
41
1
10
111.010833141291
20
-8.74154281152639
30
0
41
1
10
110.382850439501
20
-8.74097596482599
30
0
41
1
10
109.439786685123
20
-8.73800738228297
30
0
41
1
10
109.125265114922
20
-8.73644588176114
30
0
41
1
10
108.495865984703
20
-8.73177536123947
30
0
41
1
10
108.180968772153
20
-8.72887124634991
30
0
41
1
10
107.550571491857
20
-8.72386773110011
30
0
41
1
10
107.235052206179
20
-8.7218867764677
30
0
41
1
10
106.603291382943
20
-8.72042558048764
30
0
41
1
10
106.28709301489
20
-8.72061534307974
30
0
41
1
10
105.654412949515
20
-8.72139205293331
30
0
41
1
10
105.338024322435
20
-8.72199785318344
30
0
41
1
10
104.70529154792
20
-8.72274384624043
30
0
41
1
10
103.756192384004
20
-8.72329517640517
30
0
41
1
10
102.80709320141
20
-8.7226231444827
30
0
41
1
10
100.908894779651
20
-8.72091105141942
30
0
41
1
10
99.6434290759819
20
-8.71974242439879
30
0
41
1
10
93.3161001334086
20
-8.71582614016745
30
0
41
1
10
88.2542355768459
20
-8.71655503770819
30
0
41
1
10
78.130507241445
20
-8.71895214738072
30
0
41
1
10
73.0686430762736
20
-8.72016838337157
30
0
41
1
10
62.944914559611
20
-8.72104551154311
30
0
41
1
10
57.883050231944
20
-8.721002714317
30
0
41
1
10
42.6974572543392
20
-8.72024693386831
30
0
41
1
10
32.5737286551612
20
-8.71888172317625
30
0
41
1
10
22.45
20
-8.71894896119503
30
0
0
SPLINE
5
31C
100
AcDbEntity
8
1
62
256
6
ByLayer
370
18
48
1
60
0
100
AcDbSpline
70
4
71
3
72
23
73
19
40
0
40
0
40
0
40
0
40
0.0127000771158385
40
0.044450143595697
40
0.107950276555414
40
0.234950542474848
40
0.361950808394282
40
0.473076041073786
40
0.488951074313715
40
0.520701140793574
40
0.552451207273432
40
0.615951340233149
40
0.742951606152583
40
0.869951872072017
40
0.933452005031734
40
0.965202071511592
40
0.99695213799145
40
1
40
1
40
1
40
1
41
1
10
157.024718352586
20
-5.13623999386229
30
0
41
1
10
157.037990878022
20
-5.12021842902547
30
0
41
1
10
157.077747998766
20
-5.05869084420661
30
0
41
1
10
157.099508083537
20
-4.87132106447686
30
0
41
1
10
157.153480313021
20
-4.48047059411951
30
0
41
1
10
157.226938609606
20
-3.9169719510912
30
0
41
1
10
157.313896579977
20
-3.27058588324985
30
0
41
1
10
157.373639898734
20
-2.82101728814453
30
0
41
1
10
157.412585852129
20
-2.54263417676236
30
0
41
1
10
157.404398768315
20
-2.40783772893582
30
0
41
1
10
157.34826195454
20
-2.18447396596511
30
0
41
1
10
157.298672837902
20
-1.79157164442231
30
0
41
1
10
157.201011949638
20
-1.23243737006317
30
0
41
1
10
157.119941833071
20
-0.669840828689274
30
0
41
1
10
157.04413134846
20
-0.282386048971944
30
0
41
1
10
157.029168812666
20
-0.0494966282585949
30
0
41
1
10
156.998751752753
20
0.0554873048015452
30
0
41
1
10
156.967856718153
20
0.102843010852354
30
0
41
1
10
156.965039636525
20
0.106924691020112
30
0
0
SPLINE
5
31D
100
AcDbEntity
8
1
62
256
6
ByLayer
370
13
48
1
60
0
100
AcDbSpline
70
4
71
3
72
18
73
14
40
0
40
0
40
0
40
0
40
0.0552541904092731
40
0.0552541904092731
40
0.285378650293104
40
0.285378650293104
40
0.515503110176935
40
0.515503110176935
40
0.630565340118777
40
0.630565340118777
40
0.745627570060619
40
0.745627570060619
40
1
40
1
40
1
40
1
41
1
10
157.409680800887
20
2.95337151977952
30
0
41
1
10
157.402941154785
20
2.94601722973781
30
0
41
1
10
157.395974126601
20
2.93886012055884
30
0
41
1
10
157.358851889402
20
2.90300198061408
30
0
41
1
10
157.325948686773
20
2.87821098243578
30
0
41
1
10
157.254213950075
20
2.8368658213796
30
0
41
1
10
157.215478742243
20
2.8205165423382
30
0
41
1
10
157.156133046798
20
2.80343260803105
30
0
41
1
10
157.136014652042
20
2.79891477349932
30
0
41
1
10
157.095041755917
20
2.79245345031981
30
0
41
1
10
157.074239548635
20
2.79040445339606
30
0
41
1
10
157.007788527882
20
2.78261278571387
30
0
41
1
10
156.961994366012
20
2.77762924396799
30
0
41
1
10
156.916163381715
20
2.77300000133479
30
0
0
SPLINE
5
31E
100
AcDbEntity
8
1
62
256
6
ByLayer
370
13
48
1
60
0
100
AcDbSpline
70
4
71
3
72
14
73
10
40
0
40
0
40
0
40
0
40
0.230706644369707
40
0.230706644369707
40
0.461413288739413
40
0.461413288739413
40
0.922826577478788
40
0.922826577478788
40
1
40
1
40
1
40
1
41
1
10
157.568639103446
20
3.26608333023472
30
0
41
1
10
157.567316085027
20
3.24657318557922
30
0
41
1
10
157.564677690469
20
3.22288600398176
30
0
41
1
10
157.558620691167
20
3.18423660698144
30
0
41
1
10
157.555484487307
20
3.16962879893876
30
0
41
1
10
157.546606818924
20
3.13262259292077
30
0
41
1
10
157.541197862679
20
3.11629014268766
30
0
41
1
10
157.535164513662
20
3.10029298424337
30
0
41
1
10
157.534308139576
20
3.09809268199186
30
0
41
1
10
157.533459388978
20
3.09597684976913
30
0
0
SPLINE
5
31F
100
AcDbEntity
8
1
62
256
6
ByLayer
370
13
48
1
60
0
100
AcDbSpline
70
4
71
3
72
10
73
6
40
0
40
0
40
0
40
0
40
0.26090110552272
40
0.26090110552272
40
1
40
1
40
1
40
1
41
1
10
157.490969342379
20
3.03010835113068
30
0
41
1
10
157.488018237278
20
3.02765462204849
30
0
41
1
10
157.485106888433
20
3.02559851341783
30
0
41
1
10
157.474072820133
20
3.01893562436459
30
0
41
1
10
157.466209682584
20
3.01663482660368
30
0
41
1
10
157.458537903448
20
3.01605269438767
30
0
0
SPLINE
5
320
100
AcDbEntity
8
1
62
256
6
ByLayer
370
13
48
1
60
0
100
AcDbSpline
70
4
71
3
72
12
73
8
40
0
40
0
40
0
40
0
40
0.0139516774715567
40
0.0139516774715567
40
0.211161341977298
40
0.211161341977298
40
1
40
1
40
1
40
1
41
1
10
148.49102731162
20
9.08178462274998
30
0
41
1
10
148.492472960698
20
9.08202602250933
30
0
41
1
10
148.493920440677
20
9.08226101915767
30
0
41
1
10
148.515856210793
20
9.08572023520816
30
0
41
1
10
148.536658418075
20
9.0877692321319
30
0
41
1
10
148.640140893598
20
9.0999029969872
30
0
41
1
10
148.723056633089
20
9.10836148922144
30
0
41
1
10
148.806085464529
20
9.11573183001451
30
0
0
SPLINE
5
321
100
AcDbEntity
8
1
62
256
6
ByLayer
370
13
48
1
60
0
100
AcDbSpline
70
4
71
1
72
4
73
2
40
0
40
0
40
1
40
1
41
1
10
148.074272306811
20
5.84116852346639
30
0
41
1
10
148.087384935857
20
5.84163713899795
30
0
0
SPLINE
5
322
100
AcDbEntity
8
1
62
256
6
ByLayer
370
13
48
1
60
0
100
AcDbSpline
70
4
71
1
72
4
73
2
40
0
40
0
40
1
40
1
41
1
10
148.04267822382
20
5.70134406389386
30
0
41
1
10
148.104660249599
20
5.70640131851326
30
0
0
SPLINE
5
323
100
AcDbEntity
8
1
62
256
6
ByLayer
370
13
48
1
60
0
100
AcDbSpline
70
4
71
3
72
24
73
20
40
0
40
0
40
0
40
0
40
0.116593406338052
40
0.116593406338052
40
0.204934065704231
40
0.204934065704231
40
0.293274725070409
40
0.293274725070409
40
0.381615384436587
40
0.381615384436587
40
0.425785714119677
40
0.425785714119677
40
0.469956043802766
40
0.469956043802766
40
0.558296703168944
40
0.558296703168944
40
0.646637362535123
40
0.646637362535123
40
1
40
1
40
1
40
1
41
1
10
148.493889040418
20
8.93095962698555
30
0
41
1
10
148.506897175148
20
8.93597720860768
30
0
41
1
10
148.521278826069
20
8.94077996588879
30
0
41
1
10
148.549608855211
20
8.94832861495328
30
0
41
1
10
148.562505496537
20
8.95121379223107
30
0
41
1
10
148.590047657406
20
8.95596711828622
30
0
41
1
10
148.603866955076
20
8.95763411483216
30
0
41
1
10
148.631585390572
20
8.95979301189084
30
0
41
1
10
148.645233817459
20
8.9604213044768
30
0
41
1
10
148.665241953731
20
8.9609465217311
30
0
41
1
10
148.67178836949
20
8.96099318070719
30
0
41
1
10
148.685356909193
20
8.96158329303006
30
0
41
1
10
148.692476891889
20
8.96222865817683
30
0
41
1
10
148.713607191221
20
8.96392525349847
30
0
41
1
10
148.726904503873
20
8.9642361595557
30
0
41
1
10
148.753891306296
20
8.96526534998276
30
0
41
1
10
148.767316624369
20
8.96570922308391
30
0
41
1
10
148.833777884793
20
8.96723746976585
30
0
41
1
10
148.885346178743
20
8.96694846966227
30
0
41
1
10
148.936792225741
20
8.9666885961164
30
0
0
SPLINE
5
324
100
AcDbEntity
8
1
62
256
6
ByLayer
370
13
48
1
60
0
100
AcDbSpline
70
4
71
3
72
18
73
14
40
0
40
0
40
0
40
0
40
0.0944468797055932
40
0.0944468797055932
40
0.188893759411186
40
0.188893759411186
40
0.377787518822349
40
0.377787518822349
40
0.566681278233512
40
0.566681278233512
40
0.755575037644675
40
0.755575037644675
40
1
40
1
40
1
40
1
41
1
10
148.624489056897
20
2.79734028872082
30
0
41
1
10
148.627844193122
20
2.77807531576164
30
0
41
1
10
148.632944118969
20
2.75479368235145
30
0
41
1
10
148.64300789947
20
2.71698913962106
30
0
41
1
10
148.647653854604
20
2.70278917724923
30
0
41
1
10
148.660351092037
20
2.66691366413338
30
0
41
1
10
148.667437623377
20
2.65123607465566
30
0
41
1
10
148.680583782102
20
2.62505691940936
30
0
41
1
10
148.686524141673
20
2.61520451045641
30
0
41
1
10
148.697690199585
20
2.59883377280417
30
0
41
1
10
148.702922767898
20
2.59235224366447
30
0
41
1
10
148.714427952157
20
2.57990598422663
30
0
41
1
10
148.720549774251
20
2.57468421137116
30
0
41
1
10
148.726399151556
20
2.57077689656174
30
0
0
SPLINE
5
325
100
AcDbEntity
8
1
62
256
6
ByLayer
370
13
48
1
60
0
100
AcDbSpline
70
4
71
3
72
20
73
16
40
0
40
0
40
0
40
0
40
0.238322607382227
40
0.238322607382227
40
0.357483911073342
40
0.357483911073342
40
0.476645214764458
40
0.476645214764458
40
0.714967822146684
40
0.714967822146684
40
0.834129125837796
40
0.834129125837796
40
0.953290429528907
40
0.953290429528907
40
1
40
1
40
1
40
1
41
1
10
143.929261594278
20
9.04904566490768
30
0
41
1
10
142.598270981818
20
9.14514426085424
30
0
41
1
10
141.271667841057
20
9.18285121818968
30
0
41
1
10
139.28126509495
20
9.15136464699361
30
0
41
1
10
138.61772100639
20
9.12622235135299
30
0
41
1
10
137.289431108188
20
9.04677277192096
30
0
41
1
10
136.62409801047
20
8.99240064901048
30
0
41
1
10
134.629171562419
20
8.78626690892352
30
0
41
1
10
133.302904210014
20
8.59188165747244
30
0
41
1
10
131.313355130835
20
8.21888596096397
30
0
41
1
10
130.650449886278
20
8.08062191950975
30
0
41
1
10
129.321858221087
20
7.77967973570256
30
0
41
1
10
128.655291002608
20
7.61708313608199
30
0
41
1
10
127.725171631028
20
7.38034734527037
30
0
41
1
10
127.462901096591
20
7.31262448903789
30
0
41
1
10
127.200269959767
20
7.24394680150269
30
0
0
SPLINE
5
326
100
AcDbEntity
8
1
62
256
6
ByLayer
370
13
48
1
60
0
100
AcDbSpline
70
4
71
3
72
9
73
5
40
0
40
0
40
0
40
0
40
0.936522760915472
40
1
40
1
40
1
40
1
41
1
10
156.357800396773
20
2.89584100167042
30
0
41
1
10
156.345836824355
20
2.88524761447471
30
0
41
1
10
156.33354206542
20
2.873957204721
30
0
41
1
10
156.321786788016
20
2.86271712969417
30
0
41
1
10
156.321042772736
20
2.86200384933247
30
0
0
SPLINE
5
327
100
AcDbEntity
8
1
62
256
6
ByLayer
370
13
48
1
60
0
100
AcDbSpline
70
4
71
3
72
10
73
6
40
0
40
0
40
0
40
0
40
0.117597368094128
40
0.117597368094128
40
1
40
1
40
1
40
1
41
1
10
155.921240724984
20
3.21740600563416
30
0
41
1
10
155.91617677491
20
3.210826682445
30
0
41
1
10
155.911117024424
20
3.20439695326019
30
0
41
1
10
155.868087237593
20
3.15104745104131
30
0
41
1
10
155.831612527891
20
3.11464912501967
30
0
41
1
10
155.793209588974
20
3.08988701594632
30
0
0
SPLINE
5
328
100
AcDbEntity
8
1
62
256
6
ByLayer
370
13
48
1
60
0
100
AcDbSpline
70
4
71
3
72
18
73
14
40
0
40
0
40
0
40
0
40
0.321543425744428
40
0.321543425744428
40
0.482315138616641
40
0.482315138616641
40
0.643086851488855
40
0.643086851488855
40
0.803858564361069
40
0.803858564361069
40
0.964630277233283
40
0.964630277233283
40
1
40
1
40
1
40
1
41
1
10
22.01
20
-5.26625637594168
30
0
41
1
10
22.01
20
-5.05494331026361
30
0
41
1
10
22.01
20
-4.82523066486709
30
0
41
1
10
22.01
20
-4.46270638972018
30
0
41
1
10
22.01
20
-4.34146924446617
30
0
41
1
10
22.01
20
-4.09822422711932
30
0
41
1
10
22.01
20
-3.97495410252839
30
0
41
1
10
22.01
20
-3.73491771620493
30
0
41
1
10
22.01
20
-3.61823036685601
30
0
41
1
10
22.01
20
-3.39144712528361
30
0
41
1
10
22.01
20
-3.28050512688327
30
0
41
1
10
22.01
20
-3.15433000067611
30
0
41
1
10
22.01
20
-3.13186608160302
30
0
41
1
10
22.01
20
-3.1097053759384
30
0
0
SPLINE
5
329
100
AcDbEntity
8
1
62
256
6
ByLayer
370
13
48
1
60
0
100
AcDbSpline
70
4
71
3
72
8
73
4
40
0
40
0
40
0
40
0
40
1
40
1
40
1
40
1
41
1
10
147.989249476951
20
5.33803927288153
30
0
41
1
10
148.00057778405
20
5.33946550907095
30
0
41
1
10
148.012091321113
20
5.34082900415157
30
0
41
1
10
148.023766307122
20
5.34211520860779
30
0
0
SPLINE
5
32A
100
AcDbEntity
8
1
62
256
6
ByLayer
370
13
48
1
60
0
100
AcDbSpline
70
4
71
3
72
12
73
8
40
0
40
0
40
0
40
0
40
0.367456493675719
40
0.367456493675719
40
0.734912987351438
40
0.734912987351438
40
1
40
1
40
1
40
1
41
1
10
148.196150662733
20
6.06562999229669
30
0
41
1
10
148.175600979713
20
6.03639006589623
30
0
41
1
10
148.15692093912
20
6.00695026435884
30
0
41
1
10
148.123137766847
20
5.94814367295228
30
0
41
1
10
148.107985681048
20
5.91864134907718
30
0
41
1
10
148.085617865685
20
5.869849335536
30
0
41
1
10
148.077279411885
20
5.84982901543341
30
0
41
1
10
148.070391668353
20
5.83135427667372
30
0
0
SPLINE
5
32B
100
AcDbEntity
8
1
62
256
6
ByLayer
370
13
48
1
60
0
100
AcDbSpline
70
4
71
3
72
12
73
8
40
0
40
0
40
0
40
0
40
0.128788225266326
40
0.128788225266326
40
0.419192150177548
40
0.419192150177548
40
1
40
1
40
1
40
1
41
1
10
148.494266842536
20
9.05222537796746
30
0
41
1
10
148.494250647251
20
9.01758345821477
30
0
41
1
10
148.49461690763
20
8.98105222762183
30
0
41
1
10
148.496380939655
20
8.86055643849997
30
0
41
1
10
148.498510746361
20
8.77397165666886
30
0
41
1
10
148.505913208617
20
8.5123867254963
30
0
41
1
10
148.512283468727
20
8.33478917860208
30
0
41
1
10
148.519210726536
20
8.15653173197981
30
0
0
SPLINE
5
32C
100
AcDbEntity
8
1
62
256
6
ByLayer
370
13
48
1
60
0
100
AcDbSpline
70
4
71
3
72
42
73
38
40
0
40
0
40
0
40
0
40
0.0554938957807183
40
0.0554938957807183
40
0.110987791561437
40
0.110987791561437
40
0.221975583122875
40
0.221975583122875
40
0.332963374684314
40
0.332963374684314
40
0.388457270465033
40
0.388457270465033
40
0.443951166245753
40
0.443951166245753
40
0.499445062026472
40
0.499445062026472
40
0.527192009916832
40
0.527192009916832
40
0.554938957807191
40
0.554938957807191
40
0.610432853587911
40
0.610432853587911
40
0.66592674936863
40
0.66592674936863
40
0.721420645149349
40
0.721420645149349
40
0.776914540930069
40
0.776914540930069
40
0.832408436710788
40
0.832408436710788
40
0.887902332491508
40
0.887902332491508
40
0.943396228272227
40
0.943396228272227
40
0.998890124052946
40
0.998890124052946
40
1
40
1
40
1
40
1
41
1
10
139.504738168404
20
2.78611199237375
30
0
41
1
10
138.884774091144
20
3.05153019403559
30
0
41
1
10
138.264620024989
20
3.31307398689867
30
0
41
1
10
137.023170290255
20
3.82679004007733
30
0
41
1
10
136.4010285976
20
4.07929485945149
30
0
41
1
10
134.53923980121
20
4.81733522504589
30
0
41
1
10
133.304418021673
20
5.28342310152354
30
0
41
1
10
130.840902670136
20
6.15158497268473
30
0
41
1
10
129.612280447292
20
6.55373890017336
30
0
41
1
10
127.768344567332
20
7.09966633338948
30
0
41
1
10
127.153470465135
20
7.2720030853886
30
0
41
1
10
125.92190409555
20
7.59559280557485
30
0
41
1
10
125.305561614262
20
7.74723521390146
30
0
41
1
10
124.067023936918
20
8.02493147263212
30
0
41
1
10
123.44463762053
20
8.15069345480819
30
0
41
1
10
122.501235061627
20
8.31644333709878
30
0
41
1
10
122.185047335244
20
8.36782976046507
30
0
41
1
10
121.548972965625
20
8.46328296797941
30
0
41
1
10
121.22897595907
20
8.50745993089637
30
0
41
1
10
120.265643901853
20
8.63057710188386
30
0
41
1
10
119.620042151718
20
8.70007187899247
30
0
41
1
10
118.324060839434
20
8.82084288596454
30
0
41
1
10
117.673825611683
20
8.87216407610285
30
0
41
1
10
116.368478870455
20
8.9595333037156
30
0
41
1
10
115.713344041527
20
8.99555487695457
30
0
41
1
10
114.397583123048
20
9.05498853365171
30
0
41
1
10
113.736971223233
20
9.0783930319796
30
0
41
1
10
112.409097382371
20
9.11515346642207
30
0
41
1
10
111.741173539078
20
9.1285189965846
30
0
41
1
10
110.402829579897
20
9.14803579354123
30
0
41
1
10
109.732037888813
20
9.15426917465624
30
0
41
1
10
108.387467449702
20
9.16270892742648
30
0
41
1
10
107.713710767933
20
9.16491198337022
30
0
41
1
10
106.363385705455
20
9.16734264133751
30
0
41
1
10
105.68664031722
20
9.16752175282744
30
0
41
1
10
104.994147252771
20
9.16749773607637
30
0
41
1
10
104.98056809274
20
9.16749719767077
30
0
41
1
10
104.966988062137
20
9.16749659375893
30
0
0
SPLINE
5
32D
100
AcDbEntity
8
1
62
256
6
ByLayer
370
13
48
1
60
0
100
AcDbSpline
70
4
71
3
72
14
73
10
40
0
40
0
40
0
40
0
40
0.0405242058150693
40
0.0405242058150693
40
0.36034947054338
40
0.36034947054338
40
0.68017473527169
40
0.68017473527169
40
1
40
1
40
1
40
1
41
1
10
22.4499915371408
20
-3.09875937678893
30
0
41
1
10
22.4499930506049
20
-3.12421853095125
30
0
41
1
10
22.4499945390846
20
-3.15008837982609
30
0
41
1
10
22.4500075370587
20
-3.38356216199887
30
0
41
1
10
22.4500174000715
20
-3.61470889891359
30
0
41
1
10
22.4500324808404
20
-4.09442227564421
30
0
41
1
10
22.4500376940896
20
-4.34284555302563
30
0
41
1
10
22.4500427798227
20
-4.82411223594588
30
0
41
1
10
22.4500426507868
20
-5.05681181484439
30
0
41
1
10
22.4500398583442
20
-5.26625637584121
30
0
0
SPLINE
5
32E
100
AcDbEntity
8
1
62
256
6
ByLayer
370
13
48
1
60
0
100
AcDbSpline
70
4
71
3
72
36
73
32
40
0
40
0
40
0
40
0
40
0.0141761522540309
40
0.0141761522540309
40
0.0338926292089502
40
0.0338926292089502
40
0.0536091061638695
40
0.0536091061638695
40
0.0733255831187888
40
0.0733255831187888
40
0.0930420600737081
40
0.0930420600737081
40
0.112758537028627
40
0.112758537028627
40
0.132475013983547
40
0.132475013983547
40
0.152191490938466
40
0.152191490938466
40
0.171907967893385
40
0.171907967893385
40
0.211340921803224
40
0.211340921803224
40
0.290206829622902
40
0.290206829622902
40
0.369072737442579
40
0.369072737442579
40
0.526804553081934
40
0.526804553081934
40
0.68453636872129
40
0.68453636872129
40
1
40
1
40
1
40
1
41
1
10
120.132330521033
20
-4.81984134132114
30
0
41
1
10
119.678799427966
20
-4.85347822672856
30
0
41
1
10
119.224911176545
20
-4.88477087438139
30
0
41
1
10
118.138923797998
20
-4.95504112293236
30
0
41
1
10
117.506505326286
20
-4.99222176619449
30
0
41
1
10
116.240312902441
20
-5.06041669114958
30
0
41
1
10
115.606521049036
20
-5.09131530469875
30
0
41
1
10
114.337242069699
20
-5.14499593703354
30
0
41
1
10
113.701742077906
20
-5.16764735504981
30
0
41
1
10
112.428793346603
20
-5.20356896659507
30
0
41
1
10
111.791375544344
20
-5.21712522703868
30
0
41
1
10
110.514792408206
20
-5.23727795018675
30
0
41
1
10
109.875660419345
20
-5.24410845944601
30
0
41
1
10
108.596436833947
20
-5.25591032861385
30
0
41
1
10
107.956293499946
20
-5.26049313287945
30
0
41
1
10
106.673469613655
20
-5.26519052079894
30
0
41
1
10
106.030812550807
20
-5.26588259233822
30
0
41
1
10
104.745252459761
20
-5.266575928592
30
0
41
1
10
104.102359299407
20
-5.2661636132722
30
0
41
1
10
102.173603811396
20
-5.2642513417893
30
0
41
1
10
100.887717732383
20
-5.26277840727195
30
0
41
1
10
97.0301250807508
20
-5.26181301791203
30
0
41
1
10
94.4583969795463
20
-5.26367433917804
30
0
41
1
10
89.3149405169211
20
-5.2660931437772
30
0
41
1
10
86.743212216546
20
-5.26704839200826
30
0
41
1
10
79.0280269774967
20
-5.26788847070955
30
0
41
1
10
73.8845699048018
20
-5.26664738610791
30
0
41
1
10
63.5976559306726
20
-5.26614275112649
30
0
41
1
10
58.4541989345175
20
-5.26649342408317
30
0
41
1
10
43.023827956239
20
-5.266763940396
30
0
41
1
10
32.7369139797478
20
-5.26623044408078
30
0
41
1
10
22.4500000000213
20
-5.26625637594168
30
0
0
SPLINE
5
32F
100
AcDbEntity
8
1
62
256
6
ByLayer
370
13
48
1
60
0
100
AcDbSpline
70
4
71
3
72
24
73
20
40
0
40
0
40
0
40
0
40
0.210903728229552
40
0.210903728229552
40
0.316355592344329
40
0.316355592344329
40
0.421807456459107
40
0.421807456459107
40
0.632711184688667
40
0.632711184688667
40
0.738163048803445
40
0.738163048803445
40
0.843614912918223
40
0.843614912918223
40
0.896340844975612
40
0.896340844975612
40
0.949066777033001
40
0.949066777033001
40
1
40
1
40
1
40
1
41
1
10
144.558810246305
20
8.53511298424141
30
0
41
1
10
143.367243373159
20
8.64400788005321
30
0
41
1
10
142.178343482142
20
8.7083996255455
30
0
41
1
10
140.394546351294
20
8.73882089186449
30
0
41
1
10
139.799876105192
20
8.73791631826694
30
0
41
1
10
138.609664078633
20
8.71387305410855
30
0
41
1
10
138.013769462732
20
8.69070849248294
30
0
41
1
10
136.226082134305
20
8.58755053258076
30
0
41
1
10
135.037179488568
20
8.47415034633693
30
0
41
1
10
133.253857713074
20
8.23846094166959
30
0
41
1
10
132.659418540706
20
8.14894764423499
30
0
41
1
10
131.469741614569
20
7.94806296712858
30
0
41
1
10
130.874479653234
20
7.83607283340012
30
0
41
1
10
129.980417161931
20
7.65416268270889
30
0
41
1
10
129.682296856908
20
7.59145028850094
30
0
41
1
10
129.086305343188
20
7.46342231407021
30
0
41
1
10
128.78840928999
20
7.39831257612477
30
0
41
1
10
128.202263276664
20
7.2668511134674
30
0
41
1
10
127.913963395467
20
7.20035936115144
30
0
41
1
10
127.625089475249
20
7.13201389413942
30
0
0
SPLINE
5
330
100
AcDbEntity
8
1
62
256
6
ByLayer
370
13
48
1
60
0
100
AcDbSpline
70
4
71
3
72
10
73
6
40
0
40
0
40
0
40
0
40
0.382144397625214
40
0.382144397625214
40
1
40
1
40
1
40
1
41
1
10
156.123576951439
20
8.93862801587019
30
0
41
1
10
156.128851031774
20
8.93835257871086
30
0
41
1
10
156.139922717602
20
8.93796601918308
30
0
41
1
10
156.181320771189
20
8.93679444517682
30
0
41
1
10
156.219289885409
20
8.93592541116593
30
0
41
1
10
156.258547703069
20
8.9351944270916
30
0
0
SPLINE
5
331
100
AcDbEntity
8
1
62
256
6
ByLayer
370
13
48
1
60
0
100
AcDbSpline
70
4
71
3
72
45
73
41
40
0
40
0
40
0
40
0
40
0.016566893053501
40
0.016566893053501
40
0.0543912433206733
40
0.0543912433206733
40
0.0922155935878456
40
0.0922155935878456
40
0.130039943855018
40
0.130039943855018
40
0.16786429412219
40
0.16786429412219
40
0.205688644389362
40
0.205688644389362
40
0.243512994656535
40
0.243512994656535
40
0.281337344923707
40
0.281337344923707
40
0.319161695190879
40
0.319161695190879
40
0.356986045458052
40
0.356986045458052
40
0.394810395725224
40
0.394810395725224
40
0.41372257085881
40
0.41372257085881
40
0.432634745992397
40
0.432634745992397
40
0.451546921125983
40
0.451546921125983
40
0.47045909625957
40
0.47045909625957
40
0.489371271393156
40
0.489371271393156
40
0.508283446526743
40
0.546107796793916
40
0.546107796793916
40
0.69740519786261
40
0.69740519786261
40
1
40
1
40
1
40
1
41
1
10
130.993329654762
20
-7.5184507274551
30
0
41
1
10
130.714616017581
20
-7.58914660993165
30
0
41
1
10
130.435946834338
20
-7.65774770640536
30
0
41
1
10
129.520786375214
20
-7.87553252617099
30
0
41
1
10
128.883941810458
20
-8.01511409497252
30
0
41
1
10
127.605973488839
20
-8.26773316602916
30
0
41
1
10
126.964897755394
20
-8.3807493196955
30
0
41
1
10
125.672694054919
20
-8.57755859828919
30
0
41
1
10
125.021579642709
20
-8.66149800777924
30
0
41
1
10
123.707524727835
20
-8.80408314341196
30
0
41
1
10
123.04473687275
20
-8.86295769861263
30
0
41
1
10
121.709777938694
20
-8.96188529268525
30
0
41
1
10
121.036724099352
20
-9.00186368715202
30
0
41
1
10
119.685612060773
20
-9.06649833440059
30
0
41
1
10
119.007945994277
20
-9.09114603259354
30
0
41
1
10
117.648215853958
20
-9.12881239315425
30
0
41
1
10
116.966181452726
20
-9.1418373708949
30
0
41
1
10
115.59740644527
20
-9.15953603783734
30
0
41
1
10
114.910609447828
20
-9.164175510858
30
0
41
1
10
113.531188125515
20
-9.16822678514555
30
0
41
1
10
112.838449034365
20
-9.16766574644114
30
0
41
1
10
111.446720405065
20
-9.16446866116385
30
0
41
1
10
110.747375393804
20
-9.16183919275991
30
0
41
1
10
109.698742881277
20
-9.15777017165485
30
0
41
1
10
109.349100439957
20
-9.1563806464531
30
0
41
1
10
108.649632149253
20
-9.15368124942677
30
0
41
1
10
108.299799815472
20
-9.15237840876418
30
0
41
1
10
107.599849253687
20
-9.15018357926095
30
0
41
1
10
107.249722674172
20
-9.14931078377273
30
0
41
1
10
106.5491344017
20
-9.14820755648188
30
0
41
1
10
106.198692126584
20
-9.14793920547004
30
0
41
1
10
105.497687855446
20
-9.14764811721054
30
0
41
1
10
105.147134858452
20
-9.14760488052261
30
0
41
1
10
104.44603600409
20
-9.14750421863141
30
0
41
1
10
103.394362618759
20
-9.14740398699962
30
0
41
1
10
102.342637739577
20
-9.14740861862362
30
0
41
1
10
98.8368764225799
20
-9.14744806389373
30
0
41
1
10
96.0322664373803
20
-9.14745277801538
30
0
41
1
10
87.6184379604961
20
-9.14740736727117
30
0
41
1
10
82.0092190031795
20
-9.1473392394067
30
0
41
1
10
76.4
20
-9.14730673585501
30
0
0
SPLINE
5
332
100
AcDbEntity
8
1
62
256
6
ByLayer
370
13
48
1
60
0
100
AcDbSpline
70
4
71
3
72
10
73
6
40
0
40
0
40
0
40
0
40
0.0755696102483302
40
0.0755696102483302
40
1
40
1
40
1
40
1
41
1
10
136.62815069691
20
3.98216564978077
30
0
41
1
10
136.833957361738
20
3.99438423008979
30
0
41
1
10
137.039752309471
20
4.00599215325153
30
0
41
1
10
139.762835186468
20
4.15141169464726
30
0
41
1
10
142.280997033059
20
4.19277783721131
30
0
41
1
10
144.799791285845
20
4.13672366831491
30
0
0
SPLINE
5
333
100
AcDbEntity
8
1
62
256
6
ByLayer
370
13
48
1
60
0
100
AcDbSpline
70
4
71
3
72
8
73
4
40
0
40
0
40
0
40
0
40
1
40
1
40
1
40
1
41
1
10
144.68470469024
20
3.63824594730977
30
0
41
1
10
142.341700487865
20
3.69985551261692
30
0
41
1
10
140.002055830998
20
3.68721929443711
30
0
41
1
10
137.661218428733
20
3.60285332115598
30
0
0
SPLINE
5
334
100
AcDbEntity
8
1
62
256
6
ByLayer
370
13
48
1
60
0
100
AcDbSpline
70
4
71
3
72
22
73
18
40
0
40
0
40
0
40
0
40
0.226170828702642
40
0.226170828702642
40
0.33925624305397
40
0.33925624305397
40
0.395798950229641
40
0.395798950229641
40
0.452341657405313
40
0.452341657405313
40
0.678512486107999
40
0.678512486107999
40
0.791597900459342
40
0.791597900459342
40
0.904683314810685
40
0.904683314810685
40
1
40
1
40
1
40
1
41
1
10
144.593672326324
20
3.31333489432572
30
0
41
1
10
144.206115187907
20
3.40459959762825
30
0
41
1
10
143.810453052403
20
3.46326918774369
30
0
41
1
10
143.205732045829
20
3.51380990876291
30
0
41
1
10
143.002231842631
20
3.52422836950206
30
0
41
1
10
142.693793617359
20
3.53045069969417
30
0
41
1
10
142.590447061385
20
3.53095124742938
30
0
41
1
10
142.382605011751
20
3.52877670165833
30
0
41
1
10
142.278057135732
20
3.52609043390493
30
0
41
1
10
141.757220099995
20
3.50483397031084
30
0
41
1
10
141.342769847542
20
3.46318635330252
30
0
41
1
10
140.724263672236
20
3.3624420600874
30
0
41
1
10
140.517346759175
20
3.32206973080054
30
0
41
1
10
140.114903621024
20
3.22930991432699
30
0
41
1
10
139.918600306495
20
3.1769156328954
30
0
41
1
10
139.56753960797
20
3.06800411854246
30
0
41
1
10
139.410160722308
20
3.01300303281161
30
0
41
1
10
139.261912027311
20
2.95367005963496
30
0
0
SPLINE
5
335
100
AcDbEntity
8
1
62
256
6
ByLayer
370
13
48
1
60
0
100
AcDbSpline
70
4
71
3
72
30
73
26
40
0
40
0
40
0
40
0
40
0.0870327792140138
40
0.220493117500558
40
0.372502601711974
40
0.543093677933823
40
0.559107526286636
40
0.576005175429708
40
0.593789225155749
40
0.612462116111393
40
0.632026105534879
40
0.652483238240921
40
0.673835313382385
40
0.696083847410023
40
0.719230033591622
40
0.743274698426731
40
0.76821825529389
40
0.794060655687919
40
0.820801338441437
40
0.848439177374537
40
0.876972427877485
40
0.906398673001714
40
0.936714769713134
40
0.967916796047594
40
1
40
1
40
1
40
1
41
1
10
21.0032726211614
20
-3.25076209067848
30
0
41
1
10
21.0209560960805
20
-3.30660183437064
30
0
41
1
10
21.0689684686712
20
-3.45085884954756
30
0
41
1
10
21.1625502664835
20
-3.70491655561946
30
0
41
1
10
21.2978968177394
20
-4.02582356546628
30
0
41
1
10
21.4135178350613
20
-4.26650181415167
30
0
41
1
10
21.4862360200651
20
-4.40927736681081
30
0
41
1
10
21.5044550551529
20
-4.44479274066097
30
0
41
1
10
21.5237781480009
20
-4.48207376464345
30
0
41
1
10
21.5442371287176
20
-4.52109121507533
30
0
41
1
10
21.5658675167261
20
-4.56180552243382
30
0
41
1
10
21.5887006212018
20
-4.60417294627808
30
0
41
1
10
21.6127650171492
20
-4.64814318426048
30
0
41
1
10
21.6380852701444
20
-4.69365944575966
30
0
41
1
10
21.6646814031659
20
-4.74065781715873
30
0
41
1
10
21.6925681047137
20
-4.78906683955214
30
0
41
1
10
21.721753966056
20
-4.83880702307536
30
0
41
1
10
21.7522406741832
20
-4.88979045375962
30
0
41
1
10
21.7840221657266
20
-4.94192017587912
30
0
41
1
10
21.8170838259067
20
-4.9950905447827
30
0
41
1
10
21.8514014027368
20
-5.04918391234349
30
0
41
1
10
21.8869409638125
20
-5.10408183216884
30
0
41
1
10
21.9236547380419
20
-5.15961970562304
30
0
41
1
10
21.961493017656
20
-5.21576238889423
30
0
41
1
10
21.9870457413085
20
-5.25268816479149
30
0
41
1
10
22
20
-5.27140812826229
30
0
0
SPLINE
5
336
100
AcDbEntity
8
1
62
256
6
ByLayer
370
13
48
1
60
0
100
AcDbSpline
70
4
71
3
72
10
73
6
40
0
40
0
40
0
40
0
40
0.0636704604108148
40
0.0636704604108148
40
1
40
1
40
1
40
1
41
1
10
136.811275247514
20
3.91445590285875
30
0
41
1
10
136.889483910078
20
3.88451160093456
30
0
41
1
10
136.967686866417
20
3.85448494098972
30
0
41
1
10
138.195853736383
20
3.38162078518801
30
0
41
1
10
139.344735012013
20
2.92136058154219
30
0
41
1
10
140.494739452203
20
2.44835365906602
30
0
0
SPLINE
5
337
100
AcDbEntity
8
1
62
256
6
ByLayer
370
13
48
1
60
0
100
AcDbSpline
70
4
71
3
72
14
73
10
40
0
40
0
40
0
40
0
40
0.16265821667963
40
0.16265821667963
40
0.371993662509723
40
0.371993662509723
40
0.581329108339815
40
0.581329108339815
40
1
40
1
40
1
40
1
41
1
10
8.37747656731651
20
-8.35817185872608
30
0
41
1
10
8.20150106945439
20
-8.60742290639925
30
0
41
1
10
8.03537417133379
20
-8.86210601331751
30
0
41
1
10
7.67838560839891
20
-9.4571312961321
30
0
41
1
10
7.49399460137926
20
-9.80269397599793
30
0
41
1
10
7.16620250767457
20
-10.5008929238896
30
0
41
1
10
7.02177568654281
20
-10.8544713202189
30
0
41
1
10
6.6438863612828
20
-11.9277826178768
30
0
41
1
10
6.46497730790608
20
-12.6599165932204
30
0
41
1
10
6.36010396367567
20
-13.408320532465
30
0
0
SPLINE
5
338
100
AcDbEntity
8
1
62
256
6
ByLayer
370
18
48
1
60
0
100
AcDbSpline
70
4
71
3
72
24
73
20
40
0
40
0
40
0
40
0
40
0.0123032989918187
40
0.042458296771319
40
0.0726132945508194
40
0.13292329010982
40
0.253543281227821
40
0.374163272345823
40
0.479705764574074
40
0.494783263463824
40
0.524938261243325
40
0.555093259022825
40
0.615403254581826
40
0.736023245699827
40
0.856643236817829
40
0.916953232376829
40
0.94710823015633
40
0.97726322793583
40
1
40
1
40
1
40
1
41
1
10
156.953968949825
20
-5.3695084070346
30
0
41
1
10
156.980751749879
20
-5.35920745232139
30
0
41
1
10
157.072395011402
20
-5.31490527909654
30
0
41
1
10
157.212261043335
20
-5.17008576439514
30
0
41
1
10
157.243266561263
20
-4.90310624084677
30
0
41
1
10
157.29710199895
20
-4.51324637507884
30
0
41
1
10
157.370592532881
20
-3.9495004393502
30
0
41
1
10
157.457526849866
20
-3.30329019459344
30
0
41
1
10
157.517220611796
20
-2.85409451471324
30
0
41
1
10
157.558078632387
20
-2.56204407287237
30
0
41
1
10
157.548220172802
20
-2.39972921653873
30
0
41
1
10
157.490947922623
20
-2.17184764554514
30
0
41
1
10
157.442015280496
20
-1.78414667414876
30
0
41
1
10
157.344138614786
20
-1.22377701715394
30
0
41
1
10
157.262861740109
20
-0.659745651173523
30
0
41
1
10
157.188135462451
20
-0.277832072895137
30
0
41
1
10
157.172763419941
20
-0.038568747173656
30
0
41
1
10
157.118898943428
20
0.147343520897749
30
0
41
1
10
157.021446853363
20
0.250564751776892
30
0
41
1
10
156.975257752539
20
0.283542268824533
30
0
0
SPLINE
5
339
100
AcDbEntity
8
1
62
256
6
ByLayer
370
18
48
1
60
0
100
AcDbSpline
70
4
71
3
72
8
73
4
40
0
40
0
40
0
40
0
40
1
40
1
40
1
40
1
41
1
10
156.974465816007
20
-6.0767882742995
30
0
41
1
10
156.984042874823
20
-6.07465961205253
30
0
41
1
10
156.993560538838
20
-6.07224938396999
30
0
41
1
10
157.002994450931
20
-6.06956527656075
30
0
0
SPLINE
5
33A
100
AcDbEntity
8
1
62
256
6
ByLayer
370
13
48
1
60
0
100
AcDbSpline
70
4
71
3
72
14
73
10
40
0
40
0
40
0
40
0
40
0.381066329895125
40
0.381066329895125
40
0.571599494842686
40
0.571599494842686
40
0.762132659790248
40
0.762132659790248
40
1
40
1
40
1
40
1
41
1
10
6.36070176848904
20
-11.8491237650016
30
0
41
1
10
6.41319610414544
20
-11.4963098621133
30
0
41
1
10
6.48462410476981
20
-11.1457291256832
30
0
41
1
10
6.61986270792858
20
-10.6230489143894
30
0
41
1
10
6.669640538393
20
-10.4493557507329
30
0
41
1
10
6.77870954712964
20
-10.1030336584998
30
0
41
1
10
6.83795236550617
20
-9.93061929360275
30
0
41
1
10
6.98097243455757
20
-9.54680991050222
30
0
41
1
10
7.06730988998632
20
-9.33591085960737
30
0
41
1
10
7.16062158266203
20
-9.12724592430715
30
0
0
SPLINE
5
33B
100
AcDbEntity
8
1
62
256
6
ByLayer
370
13
48
1
60
0
100
AcDbSpline
70
4
71
1
72
4
73
2
40
0
40
0
40
1
40
1
41
1
10
157.407681346831
20
2.9512197614618
30
0
41
1
10
157.496442397851
20
3.0316597232997
30
0
0
SPLINE
5
33C
100
AcDbEntity
8
1
62
256
6
ByLayer
370
13
48
1
60
0
100
AcDbSpline
70
4
71
1
72
4
73
2
40
0
40
0
40
1
40
1
41
1
10
148.720794200771
20
2.57174748952161
30
0
41
1
10
148.817477275062
20
2.50102624247231
30
0
0
SPLINE
5
33D
100
AcDbEntity
8
1
62
256
6
ByLayer
370
13
48
1
60
0
100
AcDbSpline
70
4
71
2
72
6
73
3
40
0
40
0
40
0
40
1
40
1
40
1
41
1
10
136.768165373326
20
3.93095402953082
30
0
41
1
10
136.68614035907
20
3.96214392365482
30
0
41
1
10
136.60414242885
20
3.99558192131335
30
0
0
SPLINE
5
33E
100
AcDbEntity
8
1
62
256
6
ByLayer
370
13
48
1
60
0
100
AcDbSpline
70
4
71
3
72
17
73
13
40
0
40
0
40
0
40
0
40
0.139222802728566
40
0.2797138923371
40
0.420542994062133
40
0.560766379223987
40
0.633693237733004
40
0.706183317723087
40
0.779614516365976
40
0.853600156138326
40
0.92732735445007
40
1
40
1
40
1
40
1
41
1
10
5.52159999999998
20
-16
30
0
41
1
10
6.35593434178662
20
-15.8824210861576
30
0
41
1
10
8.00618997080298
20
-15.5531938864205
30
0
41
1
10
10.4239318831269
20
-14.7728200543787
30
0
41
1
10
12.7376979420118
20
-13.7163689507673
30
0
41
1
10
14.566645689298
20
-12.6103173459659
30
0
41
1
10
15.9543322348366
20
-11.5933047146248
30
0
41
1
10
16.9729930778886
20
-10.7531080909044
30
0
41
1
10
18.1343867575795
20
-10.1022194592249
30
0
41
1
10
19.3788991722387
20
-9.61813965660502
30
0
41
1
10
20.6810866804027
20
-9.32709994665166
30
0
41
1
10
21.5588362160612
20
-9.26284402412662
30
0
41
1
10
22
20
-9.26250000000002
30
0
0
SPLINE
5
33F
100
AcDbEntity
8
1
62
256
6
ByLayer
370
18
48
1
60
0
100
AcDbSpline
70
4
71
3
72
9
73
5
40
0
40
0
40
0
40
0
40
0.304307544710452
40
1
40
1
40
1
40
1
41
1
10
153.119281364242
20
-2.20492768958115
30
0
41
1
10
153.126950121781
20
-2.18478477312939
30
0
41
1
10
153.15389971302
20
-2.1191812426988
30
0
41
1
10
153.185662632114
20
-2.05585724582301
30
0
41
1
10
153.210194828398
20
-2.01320133021727
30
0
0
SPLINE
5
340
100
AcDbEntity
8
1
62
256
6
ByLayer
370
13
48
1
60
0
100
AcDbSpline
70
4
71
3
72
16
73
12
40
0
40
0
40
0
40
0
40
0.0926723965998219
40
0.186702180778553
40
0.280431738856391
40
0.372802303981751
40
0.465757067564578
40
0.559315267716576
40
0.706839612205454
40
0.854091729596496
40
1
40
1
40
1
40
1
41
1
10
22
20
9.26249999999999
30
0
41
1
10
21.4347418237699
20
9.26340916192672
30
0
41
1
10
20.3178173884747
20
9.36675174044487
30
0
41
1
10
18.6848429718812
20
9.84182243961692
30
0
41
1
10
17.1630132678652
20
10.5996945937443
30
0
41
1
10
15.8632498033795
20
11.6730715953718
30
0
41
1
10
14.4954903370317
20
12.6481426556194
30
0
41
1
10
12.7695709883008
20
13.6853622481418
30
0
41
1
10
10.6514015805641
20
14.6883062305297
30
0
41
1
10
8.12445250932578
20
15.526976857657
30
0
41
1
10
6.39626342643973
20
15.8766872306314
30
0
41
1
10
5.52160000000001
20
16
30
0
0
LINE
5
7F
100
AcDbEntity
8
SK1
62
256
6
ByLayer
370
13
48
1
60
0
100
AcDbLine
10
-6.5
20
-6.998572
30
0
11
-52.599857
21
-6.998572
31
0
39
0
210
0
220
0
230
1
0
LINE
5
81
100
AcDbEntity
8
1
62
256
6
ByLayer
370
13
48
1
60
0
100
AcDbLine
10
156.297329
20
3.386812
30
0
11
156.292717
21
3.38657
31
0
39
0
210
0
220
0
230
1
0
LINE
5
82
100
AcDbEntity
8
1
62
256
6
ByLayer
370
13
48
1
60
0
100
AcDbLine
10
149.975885
20
8.408148
30
0
11
149.62624
21
5.736515
31
0
39
0
210
0
220
0
230
1
0
LINE
5
83
100
AcDbEntity
8
1
62
256
6
ByLayer
370
13
48
1
60
0
100
AcDbLine
10
157.513099
20
3.678882
30
0
11
157.508487
21
3.678641
31
0
39
0
210
0
220
0
230
1
0
LINE
5
84
100
AcDbEntity
8
1
62
256
6
ByLayer
370
13
48
1
60
0
100
AcDbLine
10
148.780901
20
8.207718
30
0
11
148.44697
21
5.656153
31
0
39
0
210
0
220
0
230
1
0
LINE
5
85
100
AcDbEntity
8
1
62
256
6
ByLayer
370
13
48
1
60
0
100
AcDbLine
10
156.666376
20
9.278538
30
0
11
156.560486
21
9.273919
31
0
39
0
210
0
220
0
230
1
0
LINE
5
86
100
AcDbEntity
8
1
62
256
6
ByLayer
370
13
48
1
60
0
100
AcDbLine
10
149.983553
20
8.638944
30
0
11
148.766101
21
8.456484
31
0
39
0
210
0
220
0
230
1
0
LINE
5
87
100
AcDbEntity
8
1
62
256
6
ByLayer
370
13
48
1
60
0
100
AcDbLine
10
157.346563
20
3.697527
30
0
11
157.680495
21
6.249093
31
0
39
0
210
0
220
0
230
1
0
LINE
5
88
100
AcDbEntity
8
1
62
256
6
ByLayer
370
13
48
1
60
0
100
AcDbLine
10
149.633516
20
5.535886
30
0
11
149.628904
21
5.535644
31
0
39
0
210
0
220
0
230
1
0
LINE
5
89
100
AcDbEntity
8
1
62
256
6
ByLayer
370
13
48
1
60
0
100
AcDbLine
10
148.107891
20
5.692898
30
0
11
148.106089
21
5.679131
31
0
39
0
210
0
220
0
230
1
0
LINE
5
8A
100
AcDbEntity
8
1
62
256
6
ByLayer
370
13
48
1
60
0
100
AcDbLine
10
157.411497
20
9.093375
30
0
11
157.406885
21
9.093133
31
0
39
0
210
0
220
0
230
1
0
LINE
5
8B
100
AcDbEntity
8
1
62
256
6
ByLayer
370
13
48
1
60
0
100
AcDbLine
10
157.38251
20
3.549897
30
0
11
156.292717
21
3.38657
31
0
39
0
210
0
220
0
230
1
0
LINE
5
8C
100
AcDbEntity
8
1
62
256
6
ByLayer
370
13
48
1
60
0
100
AcDbLine
10
156.493084
20
9.521378
30
0
11
156.56802
21
9.524647
31
0
39
0
210
0
220
0
230
1
0
LINE
5
8D
100
AcDbEntity
8
1
62
256
6
ByLayer
370
13
48
1
60
0
100
AcDbLine
10
157.842418
20
6.230206
30
0
11
157.508487
21
3.678641
31
0
39
0
210
0
220
0
230
1
0
LINE
5
8E
100
AcDbEntity
8
1
62
256
6
ByLayer
370
13
48
1
60
0
100
AcDbLine
10
155.509208
20
3.402114
30
0
11
150.935151
21
3.162398
31
0
39
0
210
0
220
0
230
1
0
LINE
5
8F
100
AcDbEntity
8
1
62
256
6
ByLayer
370
13
48
1
60
0
100
AcDbLine
10
149.976577
20
8.378436
30
0
11
149.980497
21
8.408389
31
0
39
0
210
0
220
0
230
1
0
LINE
5
90
100
AcDbEntity
8
1
62
256
6
ByLayer
370
13
48
1
60
0
100
AcDbLine
10
150.018385
20
3.098906
30
0
11
149.633516
21
5.535886
31
0
39
0
210
0
220
0
230
1
0
LINE
5
91
100
AcDbEntity
8
1
62
256
6
ByLayer
370
13
48
1
60
0
100
AcDbLine
10
148.111218
20
5.543259
30
0
11
148.624489
21
2.79734
31
0
39
0
210
0
220
0
230
1
0
LINE
5
92
100
AcDbEntity
8
1
62
256
6
ByLayer
370
13
48
1
60
0
100
AcDbLine
10
157.178821
20
3.024897
30
0
11
157.398261
21
3.450695
31
0
39
0
210
0
220
0
230
1
0
LINE
5
93
100
AcDbEntity
8
1
62
256
6
ByLayer
370
13
48
1
60
0
100
AcDbLine
10
157.458538
20
3.016053
30
0
11
157.446707
21
3.065045
31
0
39
0
210
0
220
0
230
1
0
LINE
5
94
100
AcDbEntity
8
1
62
256
6
ByLayer
370
13
48
1
60
0
100
AcDbLine
10
157.847031
20
6.230448
30
0
11
157.842418
21
6.230206
31
0
39
0
210
0
220
0
230
1
0
LINE
5
95
100
AcDbEntity
8
1
62
256
6
ByLayer
370
13
48
1
60
0
100
AcDbLine
10
157.945755
20
6.217373
30
0
11
157.613173
21
3.67612
31
0
39
0
210
0
220
0
230
1
0
LINE
5
96
100
AcDbEntity
8
1
62
256
6
ByLayer
370
13
48
1
60
0
100
AcDbLine
10
149.868917
20
2.970051
30
0
11
149.467551
21
5.511487
31
0
39
0
210
0
220
0
230
1
0
LINE
5
97
100
AcDbEntity
8
1
62
256
6
ByLayer
370
13
48
1
60
0
100
AcDbLine
10
157.055352
20
2.92377
30
0
11
157.197238
21
3.420568
31
0
39
0
210
0
220
0
230
1
0
LINE
5
98
100
AcDbEntity
8
1
62
256
6
ByLayer
370
13
48
1
60
0
100
AcDbLine
10
156.536106
20
2.928573
30
0
11
156.760529
21
2.924906
31
0
39
0
210
0
220
0
230
1
0
LINE
5
99
100
AcDbEntity
8
1
62
256
6
ByLayer
370
13
48
1
60
0
100
AcDbLine
10
149.351524
20
8.964103
30
0
11
149.397449
21
8.970986
31
0
39
0
210
0
220
0
230
1
0
LINE
5
9A
100
AcDbEntity
8
1
62
256
6
ByLayer
370
13
48
1
60
0
100
AcDbLine
10
148.107891
20
5.692898
30
0
11
148.10466
21
5.706401
31
0
39
0
210
0
220
0
230
1
0
LINE
5
9B
100
AcDbEntity
8
1
62
256
6
ByLayer
370
13
48
1
60
0
100
AcDbLine
10
157.406885
20
9.093133
30
0
11
157.840896
21
6.344989
31
0
39
0
210
0
220
0
230
1
0
LINE
5
9C
100
AcDbEntity
8
1
62
256
6
ByLayer
370
13
48
1
60
0
100
AcDbLine
10
157.024669
20
9.430828
30
0
11
157.020057
21
9.430587
31
0
39
0
210
0
220
0
230
1
0
LINE
5
9D
100
AcDbEntity
8
1
62
256
6
ByLayer
370
13
48
1
60
0
100
AcDbLine
10
156.572386
20
9.424742
30
0
11
156.567774
21
9.424501
31
0
39
0
210
0
220
0
230
1
0
LINE
5
9E
100
AcDbEntity
8
1
62
256
6
ByLayer
370
13
48
1
60
0
100
AcDbLine
10
148.551188
20
8.23106
30
0
11
148.493896
21
8.642355
31
0
39
0
210
0
220
0
230
1
0
LINE
5
9F
100
AcDbEntity
8
1
62
256
6
ByLayer
370
13
48
1
60
0
100
AcDbLine
10
157.197238
20
3.420568
30
0
11
157.398261
21
3.450695
31
0
39
0
210
0
220
0
230
1
0
LINE
5
A0
100
AcDbEntity
8
1
62
256
6
ByLayer
370
13
48
1
60
0
100
AcDbLine
10
156.572386
20
9.424742
30
0
11
156.678276
21
9.429362
31
0
39
0
210
0
220
0
230
1
0
LINE
5
A1
100
AcDbEntity
8
1
62
256
6
ByLayer
370
13
48
1
60
0
100
AcDbLine
10
156.48954
20
2.869022
30
0
11
156.393975
21
2.864013
31
0
39
0
210
0
220
0
230
1
0
LINE
5
A2
100
AcDbEntity
8
1
62
256
6
ByLayer
370
13
48
1
60
0
100
AcDbLine
10
156.663148
20
6.149844
30
0
11
156.322112
21
3.543993
31
0
39
0
210
0
220
0
230
1
0
LINE
5
A3
100
AcDbEntity
8
1
62
256
6
ByLayer
370
13
48
1
60
0
100
AcDbLine
10
150.007456
20
2.878067
30
0
11
150.002843
21
2.877826
31
0
39
0
210
0
220
0
230
1
0
LINE
5
A4
100
AcDbEntity
8
1
62
256
6
ByLayer
370
13
48
1
60
0
100
AcDbLine
10
149.671278
20
2.385801
30
0
11
149.596342
21
2.382532
31
0
39
0
210
0
220
0
230
1
0
LINE
5
A5
100
AcDbEntity
8
1
62
256
6
ByLayer
370
13
48
1
60
0
100
AcDbLine
10
148.752864
20
2.813805
30
0
11
148.318853
21
5.561948
31
0
39
0
210
0
220
0
230
1
0
LINE
5
A6
100
AcDbEntity
8
1
62
256
6
ByLayer
370
13
48
1
60
0
100
AcDbLine
10
156.098284
20
3.542302
30
0
11
156.444009
21
6.183981
31
0
39
0
210
0
220
0
230
1
0
LINE
5
A7
100
AcDbEntity
8
1
62
256
6
ByLayer
370
13
48
1
60
0
100
AcDbLine
10
149.591976
20
2.482437
30
0
11
149.486086
21
2.477818
31
0
39
0
210
0
220
0
230
1
0
LINE
5
A8
100
AcDbEntity
8
1
62
256
6
ByLayer
370
13
48
1
60
0
100
AcDbLine
10
148.218607
20
5.689806
30
0
11
148.551188
21
8.23106
31
0
39
0
210
0
220
0
230
1
0
LINE
5
A9
100
AcDbEntity
8
1
62
256
6
ByLayer
370
13
48
1
60
0
100
AcDbLine
10
157.679544
20
6.320833
30
0
11
157.245532
21
9.068976
31
0
39
0
210
0
220
0
230
1
0
LINE
5
AA
100
AcDbEntity
8
1
62
256
6
ByLayer
370
13
48
1
60
0
100
AcDbLine
10
156.322112
20
3.543993
30
0
11
157.346563
21
3.697527
31
0
39
0
210
0
220
0
230
1
0
LINE
5
AB
100
AcDbEntity
8
1
62
256
6
ByLayer
370
13
48
1
60
0
100
AcDbLine
10
148.447921
20
5.584413
30
0
11
148.881932
21
2.836269
31
0
39
0
210
0
220
0
230
1
0
LINE
5
AC
100
AcDbEntity
8
1
62
256
6
ByLayer
370
13
48
1
60
0
100
AcDbLine
10
156.258548
20
8.935194
30
0
11
156.659914
21
6.393759
31
0
39
0
210
0
220
0
230
1
0
LINE
5
AD
100
AcDbEntity
8
1
62
256
6
ByLayer
370
13
48
1
60
0
100
AcDbLine
10
149.980497
20
8.408389
30
0
11
149.975885
21
8.408148
31
0
39
0
210
0
220
0
230
1
0
LINE
5
AE
100
AcDbEntity
8
1
62
256
6
ByLayer
370
13
48
1
60
0
100
AcDbLine
10
150.039069
20
2.967939
30
0
11
150.018385
21
3.098906
31
0
39
0
210
0
220
0
230
1
0
LINE
5
AF
100
AcDbEntity
8
1
62
256
6
ByLayer
370
13
48
1
60
0
100
AcDbLine
10
148.77724
20
8.357041
30
0
11
149.867033
21
8.520368
31
0
39
0
210
0
220
0
230
1
0
LINE
5
B0
100
AcDbEntity
8
1
62
256
6
ByLayer
370
13
48
1
60
0
100
AcDbLine
10
149.630853
20
5.736756
30
0
11
149.976577
21
8.378436
31
0
39
0
210
0
220
0
230
1
0
LINE
5
B1
100
AcDbEntity
8
1
62
256
6
ByLayer
370
13
48
1
60
0
100
AcDbLine
10
156.180808
20
3.268236
30
0
11
157.197238
21
3.420568
31
0
39
0
210
0
220
0
230
1
0
LINE
5
B2
100
AcDbEntity
8
1
62
256
6
ByLayer
370
13
48
1
60
0
100
AcDbLine
10
156.441726
20
6.356156
30
0
11
156.056857
21
8.793136
31
0
39
0
210
0
220
0
230
1
0
LINE
5
B3
100
AcDbEntity
8
1
62
256
6
ByLayer
370
13
48
1
60
0
100
AcDbLine
10
157.178821
20
3.024897
30
0
11
157.446707
21
3.065045
31
0
39
0
210
0
220
0
230
1
0
LINE
5
B4
100
AcDbEntity
8
1
62
256
6
ByLayer
370
13
48
1
60
0
100
AcDbLine
10
149.464317
20
5.755401
30
0
11
149.805353
21
8.361253
31
0
39
0
210
0
220
0
230
1
0
LINE
5
B5
100
AcDbEntity
8
1
62
256
6
ByLayer
370
13
48
1
60
0
100
AcDbLine
10
157.847031
20
6.230448
30
0
11
157.513099
21
3.678882
31
0
39
0
210
0
220
0
230
1
0
LINE
5
B6
100
AcDbEntity
8
1
62
256
6
ByLayer
370
13
48
1
60
0
100
AcDbLine
10
149.630853
20
5.736756
30
0
11
149.62624
21
5.736515
31
0
39
0
210
0
220
0
230
1
0
LINE
5
B7
100
AcDbEntity
8
1
62
256
6
ByLayer
370
13
48
1
60
0
100
AcDbLine
10
157.845509
20
6.345231
30
0
11
157.840896
21
6.344989
31
0
39
0
210
0
220
0
230
1
0
LINE
5
B8
100
AcDbEntity
8
1
62
256
6
ByLayer
370
13
48
1
60
0
100
AcDbLine
10
149.741084
20
5.55199
30
0
11
150.125954
21
3.11501
31
0
39
0
210
0
220
0
230
1
0
LINE
5
B9
100
AcDbEntity
8
1
62
256
6
ByLayer
370
13
48
1
60
0
100
AcDbLine
10
148.317331
20
5.676732
30
0
11
148.651263
21
8.228297
31
0
39
0
210
0
220
0
230
1
0
LINE
5
BA
100
AcDbEntity
8
1
62
256
6
ByLayer
370
13
48
1
60
0
100
AcDbLine
10
157.387122
20
3.550139
30
0
11
157.38251
21
3.549897
31
0
39
0
210
0
220
0
230
1
0
LINE
5
BB
100
AcDbEntity
8
1
62
256
6
ByLayer
370
13
48
1
60
0
100
AcDbLine
10
157.411497
20
9.093375
30
0
11
157.845509
21
6.345231
31
0
39
0
210
0
220
0
230
1
0
LINE
5
BC
100
AcDbEntity
8
1
62
256
6
ByLayer
370
13
48
1
60
0
100
AcDbLine
10
156.678276
20
9.429362
30
0
11
156.673664
21
9.42912
31
0
39
0
210
0
220
0
230
1
0
LINE
5
BD
100
AcDbEntity
8
1
62
256
6
ByLayer
370
13
48
1
60
0
100
AcDbLine
10
149.628904
20
5.535644
30
0
11
150.034456
21
2.967697
31
0
39
0
210
0
220
0
230
1
0
LINE
5
BE
100
AcDbEntity
8
1
62
256
6
ByLayer
370
13
48
1
60
0
100
AcDbLine
10
149.750913
20
2.574255
30
0
11
149.7463
21
2.574013
31
0
39
0
210
0
220
0
230
1
0
LINE
5
BF
100
AcDbEntity
8
1
62
256
6
ByLayer
370
13
48
1
60
0
100
AcDbLine
10
150.655154
20
8.505066
30
0
11
155.229211
21
8.744782
31
0
39
0
210
0
220
0
230
1
0
LINE
5
C0
100
AcDbEntity
8
1
62
256
6
ByLayer
370
13
48
1
60
0
100
AcDbLine
10
156.23405
20
9.381912
30
0
11
156.329615
21
9.386921
31
0
39
0
210
0
220
0
230
1
0
LINE
5
C1
100
AcDbEntity
8
1
62
256
6
ByLayer
370
13
48
1
60
0
100
AcDbLine
10
149.805353
20
8.361253
30
0
11
148.780901
21
8.207718
31
0
39
0
210
0
220
0
230
1
0
LINE
5
C2
100
AcDbEntity
8
1
62
256
6
ByLayer
370
13
48
1
60
0
100
AcDbLine
10
149.351524
20
8.964103
30
0
11
149.100828
21
8.966394
31
0
39
0
210
0
220
0
230
1
0
LINE
5
C3
100
AcDbEntity
8
1
62
256
6
ByLayer
370
13
48
1
60
0
100
AcDbLine
10
156.536106
20
2.928573
30
0
11
156.490181
21
2.921691
31
0
39
0
210
0
220
0
230
1
0
LINE
5
C4
100
AcDbEntity
8
1
62
256
6
ByLayer
370
13
48
1
60
0
100
AcDbLine
10
149.040295
20
9.130794
30
0
11
148.965428
21
9.126212
31
0
39
0
210
0
220
0
230
1
0
LINE
5
C5
100
AcDbEntity
8
1
62
256
6
ByLayer
370
13
48
1
60
0
100
AcDbLine
10
149.461088
20
2.626708
30
0
11
149.566979
21
2.631327
31
0
39
0
210
0
220
0
230
1
0
LINE
5
C6
100
AcDbEntity
8
1
62
256
6
ByLayer
370
13
48
1
60
0
100
AcDbLine
10
148.220509
20
5.546327
30
0
11
148.65452
21
2.798183
31
0
39
0
210
0
220
0
230
1
0
LINE
5
C7
100
AcDbEntity
8
1
62
256
6
ByLayer
370
13
48
1
60
0
100
AcDbLine
10
157.387122
20
3.550139
30
0
11
156.297329
21
3.386812
31
0
39
0
210
0
220
0
230
1
0
LINE
5
C8
100
AcDbEntity
8
1
62
256
6
ByLayer
370
13
48
1
60
0
100
AcDbLine
10
148.708808
20
8.86778
30
0
11
148.766101
21
8.456484
31
0
39
0
210
0
220
0
230
1
0
LINE
5
C9
100
AcDbEntity
8
1
62
256
6
ByLayer
370
13
48
1
60
0
100
AcDbLine
10
150.084526
20
8.365844
30
0
11
149.738802
21
5.724165
31
0
39
0
210
0
220
0
230
1
0
LINE
5
CA
100
AcDbEntity
8
1
62
256
6
ByLayer
370
13
48
1
60
0
100
AcDbLine
10
157.943853
20
6.360852
30
0
11
157.509842
21
9.108996
31
0
39
0
210
0
220
0
230
1
0
LINE
5
CB
100
AcDbEntity
8
1
62
256
6
ByLayer
370
13
48
1
60
0
100
AcDbLine
10
156.729268
20
9.430895
30
0
11
156.724655
21
9.430653
31
0
39
0
210
0
220
0
230
1
0
LINE
5
CC
100
AcDbEntity
8
1
62
256
6
ByLayer
370
13
48
1
60
0
100
AcDbLine
10
150.039069
20
2.967939
30
0
11
150.034456
21
2.967697
31
0
39
0
210
0
220
0
230
1
0
LINE
5
CD
100
AcDbEntity
8
1
62
256
6
ByLayer
370
13
48
1
60
0
100
AcDbLine
10
152.891924
20
5.069909
30
0
11
152.811389
21
5.065688
31
0
39
0
210
0
220
0
230
1
0
LINE
5
CE
100
AcDbEntity
8
1
62
256
6
ByLayer
370
13
48
1
60
0
100
AcDbLine
10
153.925087
20
6.236953
30
0
11
153.844552
21
6.232733
31
0
39
0
210
0
220
0
230
1
0
LINE
5
CF
100
AcDbEntity
8
1
62
256
6
ByLayer
370
13
48
1
60
0
100
AcDbLine
10
153.946069
20
6.236307
30
0
11
153.86453
21
6.232034
31
0
39
0
210
0
220
0
230
1
0
LINE
5
D0
100
AcDbEntity
8
1
62
256
6
ByLayer
370
13
48
1
60
0
100
AcDbLine
10
153.86453
20
6.232034
30
0
11
153.844552
21
6.232733
31
0
39
0
210
0
220
0
230
1
0
LINE
5
D1
100
AcDbEntity
8
1
62
256
6
ByLayer
370
13
48
1
60
0
100
AcDbLine
10
153.686272
20
6.637987
30
0
11
153.604733
21
6.633714
31
0
39
0
210
0
220
0
230
1
0
LINE
5
D2
100
AcDbEntity
8
1
62
256
6
ByLayer
370
13
48
1
60
0
100
AcDbLine
10
153.754501
20
5.336086
30
0
11
153.672962
21
5.331813
31
0
39
0
210
0
220
0
230
1
0
LINE
5
D3
100
AcDbEntity
8
1
62
256
6
ByLayer
370
13
48
1
60
0
100
AcDbLine
10
153.744103
20
5.353758
30
0
11
153.663568
21
5.349538
31
0
39
0
210
0
220
0
230
1
0
LINE
5
D4
100
AcDbEntity
8
1
62
256
6
ByLayer
370
13
48
1
60
0
100
AcDbLine
10
152.720062
20
6.808322
30
0
11
152.707756
21
6.824148
31
0
39
0
210
0
220
0
230
1
0
LINE
5
D5
100
AcDbEntity
8
1
62
256
6
ByLayer
370
13
48
1
60
0
100
AcDbLine
10
152.789295
20
6.828422
30
0
11
152.707756
21
6.824148
31
0
39
0
210
0
220
0
230
1
0
LINE
5
D6
100
AcDbEntity
8
1
62
256
6
ByLayer
370
13
48
1
60
0
100
AcDbLine
10
152.800597
20
6.812543
30
0
11
152.720062
21
6.808322
31
0
39
0
210
0
220
0
230
1
0
LINE
5
D7
100
AcDbEntity
8
1
62
256
6
ByLayer
370
13
48
1
60
0
100
AcDbLine
10
152.800805
20
5.048662
30
0
11
152.811389
21
5.065688
31
0
39
0
210
0
220
0
230
1
0
LINE
5
D8
100
AcDbEntity
8
1
62
256
6
ByLayer
370
13
48
1
60
0
100
AcDbLine
10
153.677778
20
6.619325
30
0
11
153.597243
21
6.615104
31
0
39
0
210
0
220
0
230
1
0
LINE
5
D9
100
AcDbEntity
8
1
62
256
6
ByLayer
370
13
48
1
60
0
100
AcDbLine
10
153.672962
20
5.331813
30
0
11
153.663568
21
5.349538
31
0
39
0
210
0
220
0
230
1
0
LINE
5
DA
100
AcDbEntity
8
1
62
256
6
ByLayer
370
13
48
1
60
0
100
AcDbLine
10
152.882344
20
5.052935
30
0
11
152.800805
21
5.048662
31
0
39
0
210
0
220
0
230
1
0
LINE
5
DB
100
AcDbEntity
8
1
62
256
6
ByLayer
370
13
48
1
60
0
100
AcDbLine
10
153.950089
20
5.759886
30
0
11
153.869554
21
5.755665
31
0
39
0
210
0
220
0
230
1
0
LINE
5
DC
100
AcDbEntity
8
1
62
256
6
ByLayer
370
13
48
1
60
0
100
AcDbLine
10
153.970888
20
5.762722
30
0
11
153.88935
21
5.758449
31
0
39
0
210
0
220
0
230
1
0
LINE
5
DD
100
AcDbEntity
8
1
62
256
6
ByLayer
370
13
48
1
60
0
100
AcDbLine
10
153.597243
20
6.615104
30
0
11
153.604733
21
6.633714
31
0
39
0
210
0
220
0
230
1
0
LINE
5
DE
100
AcDbEntity
8
1
62
256
6
ByLayer
370
13
48
1
60
0
100
AcDbLine
10
153.869554
20
5.755665
30
0
11
153.88935
21
5.758449
31
0
39
0
210
0
220
0
230
1
0
LINE
5
DF
100
AcDbEntity
8
1
62
256
6
ByLayer
370
18
48
1
60
0
100
AcDbLine
10
157.337097
20
0.014584
30
0
11
157.733352
21
-2.467935
31
0
39
0
210
0
220
0
230
1
0
LINE
5
E0
100
AcDbEntity
8
1
62
256
6
ByLayer
370
18
48
1
60
0
100
AcDbLine
10
157.73523
20
-2.610306
30
0
11
157.389571
21
-5.215556
31
0
39
0
210
0
220
0
230
1
0
LINE
5
E1
100
AcDbEntity
8
1
62
256
6
ByLayer
370
18
48
1
60
0
100
AcDbLine
10
157.57609
20
-0.131369
30
0
11
157.470103
21
0.235395
31
0
39
0
210
0
220
0
230
1
0
LINE
5
E2
100
AcDbEntity
8
1
62
256
6
ByLayer
370
18
48
1
60
0
100
AcDbLine
10
157.002994
20
-6.069515
30
0
11
157.372615
21
-5.964348
31
0
39
0
210
0
220
0
230
1
0
LINE
5
E3
100
AcDbEntity
8
1
62
256
6
ByLayer
370
18
48
1
60
0
100
AcDbLine
10
157.268841
20
0.264199
30
0
11
157.323884
21
0.073725
31
0
39
0
210
0
220
0
230
1
0
LINE
5
E4
100
AcDbEntity
8
SK1
62
256
6
ByLayer
370
13
48
1
60
0
100
AcDbLine
10
-55
20
6.998572
30
0
11
-54.60004
21
6.998572
31
0
39
0
210
0
220
0
230
1
0
LINE
5
E5
100
AcDbEntity
8
SK1
62
256
6
ByLayer
370
13
48
1
60
0
100
AcDbLine
10
-56
20
4.998651
30
0
11
-56
21
-4.998651
31
0
39
0
210
0
220
0
230
1
0
LINE
5
E6
100
AcDbEntity
8
SK1
62
256
6
ByLayer
370
13
48
1
60
0
100
AcDbLine
10
-52.599857
20
6.998572
30
0
11
-6.5
21
6.998572
31
0
39
0
210
0
220
0
230
1
0
LINE
5
E7
100
AcDbEntity
8
SK1
62
256
6
ByLayer
370
13
48
1
60
0
100
AcDbLine
10
-54.60004
20
-6.998572
30
0
11
-55
21
-6.998572
31
0
39
0
210
0
220
0
230
1
0
LINE
5
E8
100
AcDbEntity
8
SK1
62
256
6
ByLayer
370
13
48
1
60
0
100
AcDbLine
10
-6.5
20
-6.998572
30
0
11
-6.5
21
6.998572
31
0
39
0
210
0
220
0
230
1
0
LINE
5
E9
100
AcDbEntity
8
1
62
256
6
ByLayer
370
13
48
1
60
0
100
AcDbLine
10
0.1
20
3.968627
30
0
11
5.5216
21
3.968627
31
0
39
0
210
0
220
0
230
1
0
LINE
5
EA
100
AcDbEntity
8
1
62
256
6
ByLayer
370
13
48
1
60
0
100
AcDbLine
10
5.5216
20
-3.968627
30
0
11
0.1
21
-3.968627
31
0
39
0
210
0
220
0
230
1
0
LINE
5
EB
100
AcDbEntity
8
1
62
256
6
ByLayer
370
13
48
1
60
0
100
AcDbLine
10
156.619449
20
-1.133511
30
0
11
157.271195
21
-1.897331
31
0
39
0
210
0
220
0
230
1
0
LINE
5
EC
100
AcDbEntity
8
1
62
256
6
ByLayer
370
13
48
1
60
0
100
AcDbLine
10
157.052637
20
2.782041
30
0
11
156.850036
21
2.771423
31
0
39
0
210
0
220
0
230
1
0
LINE
5
ED
100
AcDbEntity
8
1
62
256
6
ByLayer
370
13
48
1
60
0
100
AcDbLine
10
156.808462
20
-9.193378
30
0
11
157.192971
21
-6.295314
31
0
39
0
210
0
220
0
230
1
0
LINE
5
EE
100
AcDbEntity
8
1
62
256
6
ByLayer
370
13
48
1
60
0
100
AcDbLine
10
151.012239
20
2.135661
30
0
11
151.351323
21
2.153431
31
0
39
0
210
0
220
0
230
1
0
LINE
5
EF
100
AcDbEntity
8
1
62
256
6
ByLayer
370
13
48
1
60
0
100
AcDbLine
10
146.803002
20
3.36603
30
0
11
147.712931
21
3.086464
31
0
39
0
210
0
220
0
230
1
0
LINE
5
F0
100
AcDbEntity
8
1
62
256
6
ByLayer
370
13
48
1
60
0
100
AcDbLine
10
157.351356
20
2.234322
30
0
11
157.353978
21
0.892141
31
0
39
0
210
0
220
0
230
1
0
LINE
5
F1
100
AcDbEntity
8
1
62
256
6
ByLayer
370
13
48
1
60
0
100
AcDbLine
10
157.286141
20
-3.030191
30
0
11
156.673067
21
-2.311694
31
0
39
0
210
0
220
0
230
1
0
LINE
5
F2
100
AcDbEntity
8
1
62
256
6
ByLayer
370
13
48
1
60
0
100
AcDbLine
10
156.9944
20
-0.163224
30
0
11
157.271195
21
-1.897331
31
0
39
0
210
0
220
0
230
1
0
LINE
5
F3
100
AcDbEntity
8
1
62
256
6
ByLayer
370
13
48
1
60
0
100
AcDbLine
10
148.064715
20
5.768129
30
0
11
148.506018
21
9.140113
31
0
39
0
210
0
220
0
230
1
0
LINE
5
F4
100
AcDbEntity
8
1
62
256
6
ByLayer
370
13
48
1
60
0
100
AcDbLine
10
157.336476
20
0.915065
30
0
11
157.353978
21
0.892141
31
0
39
0
210
0
220
0
230
1
0
LINE
5
F5
100
AcDbEntity
8
1
62
256
6
ByLayer
370
13
48
1
60
0
100
AcDbLine
10
154.567793
20
3.298648
30
0
11
154.472503
21
3.293654
31
0
39
0
210
0
220
0
230
1
0
LINE
5
F6
100
AcDbEntity
8
1
62
256
6
ByLayer
370
13
48
1
60
0
100
AcDbLine
10
152.450731
20
2.390659
30
0
11
152.765052
21
2.407132
31
0
39
0
210
0
220
0
230
1
0
LINE
5
F7
100
AcDbEntity
8
1
62
256
6
ByLayer
370
13
48
1
60
0
100
AcDbLine
10
156.808462
20
-9.193378
30
0
11
146.929262
21
-9.193378
31
0
39
0
210
0
220
0
230
1
0
LINE
5
F8
100
AcDbEntity
8
1
62
256
6
ByLayer
370
13
48
1
60
0
100
AcDbLine
10
145.356213
20
4.165008
30
0
11
145.356213
21
7.344399
31
0
39
0
210
0
220
0
230
1
0
LINE
5
F9
100
AcDbEntity
8
1
62
256
6
ByLayer
370
13
48
1
60
0
100
AcDbLine
10
156.64456
20
2.610449
30
0
11
157.000779
21
2.629117
31
0
39
0
210
0
220
0
230
1
0
LINE
5
FA
100
AcDbEntity
8
1
62
256
6
ByLayer
370
13
48
1
60
0
100
AcDbLine
10
150.771656
20
2.869656
30
0
11
150.623958
21
2.861915
31
0
39
0
210
0
220
0
230
1
0
LINE
5
FB
100
AcDbEntity
8
1
62
256
6
ByLayer
370
13
48
1
60
0
100
AcDbLine
10
156.9944
20
-0.163224
30
0
11
156.408802
21
0.523072
31
0
39
0
210
0
220
0
230
1
0
LINE
5
FC
100
AcDbEntity
8
1
62
256
6
ByLayer
370
13
48
1
60
0
100
AcDbLine
10
143.929262
20
-9.081981
30
0
11
143.929262
21
0.275439
31
0
39
0
210
0
220
0
230
1
0
LINE
5
FD
100
AcDbEntity
8
1
62
256
6
ByLayer
370
13
48
1
60
0
100
AcDbLine
10
150.805689
20
2.955338
30
0
11
150.816402
21
2.9559
31
0
39
0
210
0
220
0
230
1
0
LINE
5
FE
100
AcDbEntity
8
1
62
256
6
ByLayer
370
13
48
1
60
0
100
AcDbLine
10
157.192971
20
-6.295314
30
0
11
156.946376
21
-6.048677
31
0
39
0
210
0
220
0
230
1
0
LINE
5
FF
100
AcDbEntity
8
1
62
256
6
ByLayer
370
13
48
1
60
0
100
AcDbLine
10
154.785215
20
3.364171
30
0
11
155.282663
21
3.390241
31
0
39
0
210
0
220
0
230
1
0
LINE
5
100
100
AcDbEntity
8
1
62
256
6
ByLayer
370
13
48
1
60
0
100
AcDbLine
10
148.190214
20
3.685607
30
0
11
147.977045
21
5.035383
31
0
39
0
210
0
220
0
230
1
0
LINE
5
101
100
AcDbEntity
8
1
62
256
6
ByLayer
370
13
48
1
60
0
100
AcDbLine
10
155.743157
20
3.2141
30
0
11
152.330303
21
3.03524
31
0
39
0
210
0
220
0
230
1
0
LINE
5
102
100
AcDbEntity
8
1
62
256
6
ByLayer
370
13
48
1
60
0
100
AcDbLine
10
156.64456
20
2.610449
30
0
11
156.431842
21
1.021964
31
0
39
0
210
0
220
0
230
1
0
LINE
5
103
100
AcDbEntity
8
1
62
256
6
ByLayer
370
13
48
1
60
0
100
AcDbLine
10
145.595339
20
4.2158
30
0
11
146.859562
21
4.933424
31
0
39
0
210
0
220
0
230
1
0
LINE
5
104
100
AcDbEntity
8
1
62
256
6
ByLayer
370
13
48
1
60
0
100
AcDbLine
10
151.1558
20
3.173961
30
0
11
151.653248
21
3.200032
31
0
39
0
210
0
220
0
230
1
0
LINE
5
105
100
AcDbEntity
8
1
62
256
6
ByLayer
370
13
48
1
60
0
100
AcDbLine
10
146.929262
20
-9.193378
30
0
11
146.929262
21
0.006041
31
0
39
0
210
0
220
0
230
1
0
LINE
5
106
100
AcDbEntity
8
1
62
256
6
ByLayer
370
13
48
1
60
0
100
AcDbLine
10
142.546913
20
1.464055
30
0
11
142.673073
21
0.807117
31
0
39
0
210
0
220
0
230
1
0
LINE
5
107
100
AcDbEntity
8
1
62
256
6
ByLayer
370
13
48
1
60
0
100
AcDbLine
10
156.431842
20
1.021964
30
0
11
156.948502
21
0.416459
31
0
39
0
210
0
220
0
230
1
0
LINE
5
108
100
AcDbEntity
8
1
62
256
6
ByLayer
370
13
48
1
60
0
100
AcDbLine
10
157.286141
20
-3.030191
30
0
11
156.960835
21
-5.482043
31
0
39
0
210
0
220
0
230
1
0
LINE
5
109
100
AcDbEntity
8
1
62
256
6
ByLayer
370
13
48
1
60
0
100
AcDbLine
10
145.121339
20
0.829207
30
0
11
145.269739
21
0.056458
31
0
39
0
210
0
220
0
230
1
0
LINE
5
10A
100
AcDbEntity
8
1
62
256
6
ByLayer
370
13
48
1
60
0
100
AcDbLine
10
152.765052
20
2.407132
30
0
11
156.64456
21
2.610449
31
0
39
0
210
0
220
0
230
1
0
LINE
5
10B
100
AcDbEntity
8
1
62
256
6
ByLayer
370
13
48
1
60
0
100
AcDbLine
10
0
20
-3.544009
30
0
11
0
21
3.544009
31
0
39
0
210
0
220
0
230
1
0
LINE
5
10C
100
AcDbEntity
8
1
62
256
6
ByLayer
370
13
48
1
60
0
100
AcDbLine
10
157.295932
20
2.560809
30
0
11
157.282038
21
2.794063
31
0
39
0
210
0
220
0
230
1
0
LINE
5
10D
100
AcDbEntity
8
1
62
256
6
ByLayer
370
13
48
1
60
0
100
AcDbLine
10
146.859562
20
4.933424
30
0
11
145.356213
21
7.344399
31
0
39
0
210
0
220
0
230
1
0
LINE
5
10E
100
AcDbEntity
8
1
62
256
6
ByLayer
370
13
48
1
60
0
100
AcDbLine
10
157.234978
20
0.628662
30
0
11
157.254232
21
0.603442
31
0
39
0
210
0
220
0
230
1
0
LINE
5
10F
100
AcDbEntity
8
1
62
256
6
ByLayer
370
13
48
1
60
0
100
AcDbLine
10
22.01
20
-5.266256
30
0
11
22.01
21
-8.71889
31
0
39
0
210
0
220
0
230
1
0
LINE
5
110
100
AcDbEntity
8
1
62
256
6
ByLayer
370
13
48
1
60
0
100
AcDbLine
10
156.408802
20
0.523072
30
0
11
156.434581
21
-0.08195
31
0
39
0
210
0
220
0
230
1
0
LINE
5
111
100
AcDbEntity
8
1
62
256
6
ByLayer
370
13
48
1
60
0
100
AcDbLine
10
148.519211
20
8.156532
30
0
11
148.262278
21
6.19331
31
0
39
0
210
0
220
0
230
1
0
LINE
5
112
100
AcDbEntity
8
1
62
256
6
ByLayer
370
13
48
1
60
0
100
AcDbLine
10
157.282038
20
2.794063
30
0
11
157.052637
21
2.782041
31
0
39
0
210
0
220
0
230
1
0
LINE
5
113
100
AcDbEntity
8
1
62
256
6
ByLayer
370
18
48
1
60
0
100
AcDbLine
10
157.139039
20
-5.504066
30
0
11
156.951482
21
-5.557432
31
0
39
0
210
0
220
0
230
1
0
LINE
5
114
100
AcDbEntity
8
1
62
256
6
ByLayer
370
13
48
1
60
0
100
AcDbLine
10
153.096554
20
4.402216
30
0
11
153.096697
21
4.402223
31
0
39
0
210
0
220
0
230
1
0
LINE
5
115
100
AcDbEntity
8
1
62
256
6
ByLayer
370
13
48
1
60
0
100
AcDbLine
10
152.201754
20
5.670006
30
0
11
152.159516
21
5.667792
31
0
39
0
210
0
220
0
230
1
0
LINE
5
116
100
AcDbEntity
8
1
62
256
6
ByLayer
370
13
48
1
60
0
100
AcDbLine
10
152.176934
20
6.14359
30
0
11
152.135119
21
6.141399
31
0
39
0
210
0
220
0
230
1
0
LINE
5
117
100
AcDbEntity
8
1
62
256
6
ByLayer
370
13
48
1
60
0
100
AcDbLine
10
157.596341
20
3.611321
30
0
11
157.568639
21
3.266083
31
0
39
0
210
0
220
0
230
1
0
LINE
5
118
100
AcDbEntity
8
1
62
256
6
ByLayer
370
13
48
1
60
0
100
AcDbLine
10
157.483901
20
3.390325
30
0
11
157.446707
21
3.065045
31
0
39
0
210
0
220
0
230
1
0
LINE
5
119
100
AcDbEntity
8
1
62
256
6
ByLayer
370
13
48
1
60
0
100
AcDbLine
10
156.157263
20
9.324995
30
0
11
156.154592
21
9.325113
31
0
39
0
210
0
220
0
230
1
0
LINE
5
11A
100
AcDbEntity
8
1
62
256
6
ByLayer
370
13
48
1
60
0
100
AcDbLine
10
147.985563
20
5.506568
30
0
11
148.537338
21
3.200476
31
0
39
0
210
0
220
0
230
1
0
LINE
5
11B
100
AcDbEntity
8
1
62
256
6
ByLayer
370
13
48
1
60
0
100
AcDbLine
10
148.537338
20
3.200476
30
0
11
148.553838
21
3.175324
31
0
39
0
210
0
220
0
230
1
0
LINE
5
11C
100
AcDbEntity
8
1
62
256
6
ByLayer
370
13
48
1
60
0
100
AcDbLine
10
148.087385
20
5.841637
30
0
11
148.088504
21
5.949922
31
0
39
0
210
0
220
0
230
1
0
LINE
5
11D
100
AcDbEntity
8
1
62
256
6
ByLayer
370
13
48
1
60
0
100
AcDbLine
10
148.092811
20
5.783185
30
0
11
148.10778
21
5.914096
31
0
39
0
210
0
220
0
230
1
0
LINE
5
11E
100
AcDbEntity
8
1
62
256
6
ByLayer
370
13
48
1
60
0
100
AcDbLine
10
156.568386
20
9.424527
30
0
11
156.673664
21
9.42912
31
0
39
0
210
0
220
0
230
1
0
LINE
5
11F
100
AcDbEntity
8
1
62
256
6
ByLayer
370
13
48
1
60
0
100
AcDbLine
10
156.285846
20
3.385784
30
0
11
156.292717
21
3.38657
31
0
39
0
210
0
220
0
230
1
0
LINE
5
120
100
AcDbEntity
8
1
62
256
6
ByLayer
370
13
48
1
60
0
100
AcDbLine
10
148.708808
20
8.86778
30
0
11
148.49735
21
8.836088
31
0
39
0
210
0
220
0
230
1
0
LINE
5
121
100
AcDbEntity
8
1
62
256
6
ByLayer
370
13
48
1
60
0
100
AcDbLine
10
148.145822
20
5.982728
30
0
11
148.107891
21
5.692898
31
0
39
0
210
0
220
0
230
1
0
LINE
5
122
100
AcDbEntity
8
1
62
256
6
ByLayer
370
13
48
1
60
0
100
AcDbLine
10
156.125293
20
8.939241
30
0
11
156.144557
21
8.817262
31
0
39
0
210
0
220
0
230
1
0
LINE
5
123
100
AcDbEntity
8
1
62
256
6
ByLayer
370
13
48
1
60
0
100
AcDbLine
10
156.186626
20
3.519888
30
0
11
156.183864
21
3.49879
31
0
39
0
210
0
220
0
230
1
0
LINE
5
124
100
AcDbEntity
8
1
62
256
6
ByLayer
370
13
48
1
60
0
100
AcDbLine
10
148.321493
20
4.102582
30
0
11
148.37753
21
3.74776
31
0
39
0
210
0
220
0
230
1
0
LINE
5
125
100
AcDbEntity
8
1
62
256
6
ByLayer
370
13
48
1
60
0
100
AcDbLine
10
157.353978
20
0.892141
30
0
11
157.287459
21
0.859933
31
0
39
0
210
0
220
0
230
1
0
LINE
5
126
100
AcDbEntity
8
1
62
256
6
ByLayer
370
13
48
1
60
0
100
AcDbLine
10
150.60341
20
2.817901
30
0
11
150.253268
21
2.799551
31
0
39
0
210
0
220
0
230
1
0
LINE
5
127
100
AcDbEntity
8
1
62
256
6
ByLayer
370
13
48
1
60
0
100
AcDbLine
10
157.336476
20
0.915065
30
0
11
157.311017
21
0.918391
31
0
39
0
210
0
220
0
230
1
0
LINE
5
128
100
AcDbEntity
8
1
62
256
6
ByLayer
370
13
48
1
60
0
100
AcDbLine
10
27
20
-9.2441
30
0
11
27
21
-9.2625
31
0
39
0
210
0
220
0
230
1
0
LINE
5
129
100
AcDbEntity
8
1
62
256
6
ByLayer
370
13
48
1
60
0
100
AcDbLine
10
146.929262
20
9.2625
30
0
11
146.929262
21
9.114905
31
0
39
0
210
0
220
0
230
1
0
LINE
5
12A
100
AcDbEntity
8
1
62
256
6
ByLayer
370
13
48
1
60
0
100
AcDbLine
10
76.4
20
-9.147307
30
0
11
76.4
21
-9.1675
31
0
39
0
210
0
220
0
230
1
0
LINE
5
12B
100
AcDbEntity
8
1
62
256
6
ByLayer
370
13
48
1
60
0
100
AcDbLine
10
143.929262
20
9.1675
30
0
11
143.929262
21
9.049046
31
0
39
0
210
0
220
0
230
1
0
LINE
5
12C
100
AcDbEntity
8
1
62
256
6
ByLayer
370
13
48
1
60
0
100
AcDbLine
10
157.234978
20
0.628662
30
0
11
157.222228
21
0.630328
31
0
39
0
210
0
220
0
230
1
0
LINE
5
12D
100
AcDbEntity
8
1
62
256
6
ByLayer
370
13
48
1
60
0
100
AcDbLine
10
157.254232
20
0.603442
30
0
11
157.212537
21
0.608889
31
0
39
0
210
0
220
0
230
1
0
LINE
5
12E
100
AcDbEntity
8
1
62
256
6
ByLayer
370
13
48
1
60
0
100
AcDbLine
10
76.4
20
9.1675
30
0
11
76.4
21
-3.104219
31
0
39
0
210
0
220
0
230
1
0
LINE
5
12F
100
AcDbEntity
8
1
62
256
6
ByLayer
370
13
48
1
60
0
100
AcDbLine
10
27
20
9.2625
30
0
11
27
21
-3.107685
31
0
39
0
210
0
220
0
230
1
0
LINE
5
130
100
AcDbEntity
8
SK1
62
256
6
ByLayer
370
13
48
1
60
0
100
AcDbLine
10
-56
20
-11.49675
30
0
11
-56
21
-4.998651
31
0
39
0
210
0
220
0
230
1
0
LINE
5
131
100
AcDbEntity
8
SK1
62
256
6
ByLayer
370
13
48
1
60
0
100
AcDbLine
10
-56
20
4.998651
30
0
11
-56
21
11.49675
31
0
39
0
210
0
220
0
230
1
0
LINE
5
132
100
AcDbEntity
8
SK1
62
256
6
ByLayer
370
13
48
1
60
0
100
AcDbLine
10
-55
20
-12.49675
30
0
11
-55
21
-6.998572
31
0
39
0
210
0
220
0
230
1
0
LINE
5
133
100
AcDbEntity
8
SK1
62
256
6
ByLayer
370
13
48
1
60
0
100
AcDbLine
10
-55
20
6.998572
30
0
11
-55
21
12.49675
31
0
39
0
210
0
220
0
230
1
0
LINE
5
134
100
AcDbEntity
8
SK1
62
256
6
ByLayer
370
13
48
1
60
0
100
AcDbLine
10
-54.60004
20
-12.49675
30
0
11
-54.60004
21
-6.998572
31
0
39
0
210
0
220
0
230
1
0
LINE
5
135
100
AcDbEntity
8
SK1
62
256
6
ByLayer
370
13
48
1
60
0
100
AcDbLine
10
-54.60004
20
6.998572
30
0
11
-54.60004
21
12.49675
31
0
39
0
210
0
220
0
230
1
0
LINE
5
136
100
AcDbEntity
8
SK1
62
256
6
ByLayer
370
13
48
1
60
0
100
AcDbLine
10
-54.516222
20
12.393244
30
0
11
-54.516222
21
6.812029
31
0
39
0
210
0
220
0
230
1
0
LINE
5
137
100
AcDbEntity
8
SK1
62
256
6
ByLayer
370
13
48
1
60
0
100
AcDbLine
10
-54.516222
20
-6.812029
30
0
11
-54.516222
21
-12.393244
31
0
39
0
210
0
220
0
230
1
0
LINE
5
138
100
AcDbEntity
8
SK1
62
256
6
ByLayer
370
13
48
1
60
0
100
AcDbLine
10
-53.633813
20
12.140367
30
0
11
-53.633813
21
6.340328
31
0
39
0
210
0
220
0
230
1
0
LINE
5
139
100
AcDbEntity
8
SK1
62
256
6
ByLayer
370
13
48
1
60
0
100
AcDbLine
10
-53.633813
20
-6.340328
30
0
11
-53.633813
21
-12.140367
31
0
39
0
210
0
220
0
230
1
0
LINE
5
13A
100
AcDbEntity
8
SK1
62
256
6
ByLayer
370
13
48
1
60
0
100
AcDbLine
10
-1.375195
20
-12.24675
30
0
11
-1.375195
21
12.24675
31
0
39
0
210
0
220
0
230
1
0
LINE
5
13B
100
AcDbEntity
8
SK1
62
256
6
ByLayer
370
13
48
1
60
0
100
AcDbLine
10
-1.544243
20
-12.284227
30
0
11
-1.544243
21
12.284227
31
0
39
0
210
0
220
0
230
1
0
LINE
5
13C
100
AcDbEntity
8
SK1
62
256
6
ByLayer
370
13
48
1
60
0
100
AcDbLine
10
-2
20
-12.49675
30
0
11
-2
21
12.49675
31
0
39
0
210
0
220
0
230
1
0
LINE
5
13D
100
AcDbEntity
8
SK1
62
256
6
ByLayer
370
13
48
1
60
0
100
AcDbLine
10
-52.599857
20
12.49675
30
0
11
-52.599857
21
6.998572
31
0
39
0
210
0
220
0
230
1
0
LINE
5
13E
100
AcDbEntity
8
SK1
62
256
6
ByLayer
370
13
48
1
60
0
100
AcDbLine
10
-52.599857
20
-6.998572
30
0
11
-52.599857
21
-12.49675
31
0
39
0
210
0
220
0
230
1
0
LINE
5
13F
100
AcDbEntity
8
SK1
62
256
6
ByLayer
370
13
48
1
60
0
100
AcDbLine
10
-0.15
20
-12.24675
30
0
11
-0.15
21
12.24675
31
0
39
0
210
0
220
0
230
1
0
LINE
5
140
100
AcDbEntity
8
1
62
256
6
ByLayer
370
13
48
1
60
0
100
AcDbLine
10
0
20
15.9
30
0
11
0
21
3.544009
31
0
39
0
210
0
220
0
230
1
0
LINE
5
141
100
AcDbEntity
8
1
62
256
6
ByLayer
370
13
48
1
60
0
100
AcDbLine
10
0
20
-15.9
30
0
11
0
21
-3.544009
31
0
39
0
210
0
220
0
230
1
0
LINE
5
142
100
AcDbEntity
8
1
62
256
6
ByLayer
370
13
48
1
60
0
100
AcDbLine
10
0.1
20
-16
30
0
11
0.1
21
-3.968627
31
0
39
0
210
0
220
0
230
1
0
LINE
5
143
100
AcDbEntity
8
1
62
256
6
ByLayer
370
13
48
1
60
0
100
AcDbLine
10
0.1
20
16
30
0
11
0.1
21
3.968627
31
0
39
0
210
0
220
0
230
1
0
LINE
5
144
100
AcDbEntity
8
1
62
256
6
ByLayer
370
13
48
1
60
0
100
AcDbLine
10
5.5216
20
16
30
0
11
5.5216
21
3.968627
31
0
39
0
210
0
220
0
230
1
0
LINE
5
145
100
AcDbEntity
8
1
62
256
6
ByLayer
370
13
48
1
60
0
100
AcDbLine
10
5.5216
20
-3.968627
30
0
11
5.5216
21
-16
31
0
39
0
210
0
220
0
230
1
0
LINE
5
146
100
AcDbEntity
8
1
62
256
6
ByLayer
370
13
48
1
60
0
100
AcDbLine
10
22
20
9.2625
30
0
11
22
21
-3.108412
31
0
39
0
210
0
220
0
230
1
0
LINE
5
147
100
AcDbEntity
8
1
62
256
6
ByLayer
370
13
48
1
60
0
100
AcDbLine
10
22
20
-9.244136
30
0
11
22
21
-9.2625
31
0
39
0
210
0
220
0
230
1
0
LINE
5
148
100
AcDbEntity
8
4
62
256
6
ByLayer
370
18
48
0.05
60
0
100
AcDbLine
10
158
20
0
30
0
11
0
21
0
31
0
39
0
210
0
220
0
230
1
0
LINE
5
14A
100
AcDbEntity
8
SK4
62
256
6
ByLayer
370
13
48
0.05
60
0
100
AcDbLine
10
158
20
0
30
0
11
-56
21
0
31
0
39
0
210
0
220
0
230
1
0
LINE
5
14C
100
AcDbEntity
8
SK1
62
256
6
ByLayer
370
13
48
1
60
0
100
AcDbLine
10
-54.516222
20
12.393244
30
0
11
-54.60004
21
12.49675
31
0
39
0
210
0
220
0
230
1
0
LINE
5
14D
100
AcDbEntity
8
SK1
62
256
6
ByLayer
370
13
48
1
60
0
100
AcDbLine
10
-54.60004
20
-12.49675
30
0
11
-54.516222
21
-12.393244
31
0
39
0
210
0
220
0
230
1
0
LINE
5
14E
100
AcDbEntity
8
SK1
62
256
6
ByLayer
370
13
48
1
60
0
100
AcDbLine
10
-54.60004
20
12.49675
30
0
11
-55
21
12.49675
31
0
39
0
210
0
220
0
230
1
0
LINE
5
14F
100
AcDbEntity
8
SK1
62
256
6
ByLayer
370
13
48
1
60
0
100
AcDbLine
10
-55
20
-12.49675
30
0
11
-54.60004
21
-12.49675
31
0
39
0
210
0
220
0
230
1
0
LINE
5
150
100
AcDbEntity
8
SK1
62
256
6
ByLayer
370
13
48
1
60
0
100
AcDbLine
10
-53.633813
20
-12.140367
30
0
11
-52.599857
21
-12.49675
31
0
39
0
210
0
220
0
230
1
0
LINE
5
151
100
AcDbEntity
8
SK1
62
256
6
ByLayer
370
13
48
1
60
0
100
AcDbLine
10
-52.599857
20
12.49675
30
0
11
-53.633813
21
12.140367
31
0
39
0
210
0
220
0
230
1
0
LINE
5
152
100
AcDbEntity
8
SK1
62
256
6
ByLayer
370
13
48
1
60
0
100
AcDbLine
10
-56
20
-11.49675
30
0
11
-55
21
-12.49675
31
0
39
0
210
0
220
0
230
1
0
LINE
5
153
100
AcDbEntity
8
SK1
62
256
6
ByLayer
370
13
48
1
60
0
100
AcDbLine
10
-55
20
12.49675
30
0
11
-56
21
11.49675
31
0
39
0
210
0
220
0
230
1
0
LINE
5
154
100
AcDbEntity
8
SK1
62
256
6
ByLayer
370
13
48
1
60
0
100
AcDbLine
10
-0.15
20
12.24675
30
0
11
-1.375195
21
12.24675
31
0
39
0
210
0
220
0
230
1
0
LINE
5
155
100
AcDbEntity
8
SK1
62
256
6
ByLayer
370
13
48
1
60
0
100
AcDbLine
10
-1.375195
20
-12.24675
30
0
11
-0.15
21
-12.24675
31
0
39
0
210
0
220
0
230
1
0
LINE
5
156
100
AcDbEntity
8
SK1
62
256
6
ByLayer
370
13
48
1
60
0
100
AcDbLine
10
-1.544243
20
12.284227
30
0
11
-2
21
12.49675
31
0
39
0
210
0
220
0
230
1
0
LINE
5
157
100
AcDbEntity
8
SK1
62
256
6
ByLayer
370
13
48
1
60
0
100
AcDbLine
10
-2
20
-12.49675
30
0
11
-1.544243
21
-12.284227
31
0
39
0
210
0
220
0
230
1
0
LINE
5
158
100
AcDbEntity
8
SK1
62
256
6
ByLayer
370
13
48
1
60
0
100
AcDbLine
10
-2
20
12.49675
30
0
11
-52.599857
21
12.49675
31
0
39
0
210
0
220
0
230
1
0
LINE
5
159
100
AcDbEntity
8
SK1
62
256
6
ByLayer
370
13
48
1
60
0
100
AcDbLine
10
-52.599857
20
-12.49675
30
0
11
-2
21
-12.49675
31
0
39
0
210
0
220
0
230
1
0
LINE
5
15A
100
AcDbEntity
8
1
62
256
6
ByLayer
370
13
48
1
60
0
100
AcDbLine
10
76.4
20
-9.1675
30
0
11
113.228248
21
-9.1675
31
0
39
0
210
0
220
0
230
1
0
LINE
5
15B
100
AcDbEntity
8
1
62
256
6
ByLayer
370
13
48
1
60
0
100
AcDbLine
10
104.896959
20
9.1675
30
0
11
76.4
21
9.1675
31
0
39
0
210
0
220
0
230
1
0
LINE
5
15C
100
AcDbEntity
8
1
62
256
6
ByLayer
370
13
48
1
60
0
100
AcDbLine
10
153.197345
20
-2.067898
30
0
11
153.197345
21
-2.323456
31
0
39
0
210
0
220
0
230
1
0
LINE
5
15D
100
AcDbEntity
8
1
62
256
6
ByLayer
370
13
48
1
60
0
100
AcDbLine
10
153.108426
20
5.162679
30
0
11
153.033781
21
5.158767
31
0
39
0
210
0
220
0
230
1
0
LINE
5
15E
100
AcDbEntity
8
1
62
256
6
ByLayer
370
13
48
1
60
0
100
AcDbLine
10
152.950964
20
6.738999
30
0
11
153.025609
21
6.742911
31
0
39
0
210
0
220
0
230
1
0
LINE
5
15F
100
AcDbEntity
8
1
62
256
6
ByLayer
370
13
48
1
60
0
100
AcDbLine
10
152.983415
20
7.500541
30
0
11
152.934313
21
7.497967
31
0
39
0
210
0
220
0
230
1
0
LINE
5
160
100
AcDbEntity
8
1
62
256
6
ByLayer
370
13
48
1
60
0
100
AcDbLine
10
153.096554
20
4.402216
30
0
11
153.145656
21
4.404789
31
0
39
0
210
0
220
0
230
1
0
LINE
5
161
100
AcDbEntity
8
1
62
256
6
ByLayer
370
13
48
1
60
0
100
AcDbLine
10
157.366031
20
3.161598
30
0
11
157.58547
21
3.587397
31
0
39
0
210
0
220
0
230
1
0
LINE
5
162
100
AcDbEntity
8
1
62
256
6
ByLayer
370
13
48
1
60
0
100
AcDbLine
10
156.531278
20
6.371272
30
0
11
156.146408
21
8.808252
31
0
39
0
210
0
220
0
230
1
0
LINE
5
163
100
AcDbEntity
8
1
62
256
6
ByLayer
370
13
48
1
60
0
100
AcDbLine
10
156.188214
20
3.528842
30
0
11
156.533939
21
6.170521
31
0
39
0
210
0
220
0
230
1
0
LINE
5
164
100
AcDbEntity
8
1
62
256
6
ByLayer
370
13
48
1
60
0
100
AcDbLine
10
22
20
-9.2625
30
0
11
27
21
-9.2625
31
0
39
0
210
0
220
0
230
1
0
LINE
5
165
100
AcDbEntity
8
1
62
256
6
ByLayer
370
13
48
1
60
0
100
AcDbLine
10
27
20
-9.2625
30
0
11
76.4
21
-9.1675
31
0
39
0
210
0
220
0
230
1
0
LINE
5
166
100
AcDbEntity
8
1
62
256
6
ByLayer
370
13
48
1
60
0
100
AcDbLine
10
148.33936
20
9.2625
30
0
11
146.929262
21
9.2625
31
0
39
0
210
0
220
0
230
1
0
LINE
5
167
100
AcDbEntity
8
1
62
256
6
ByLayer
370
13
48
1
60
0
100
AcDbLine
10
146.929262
20
9.2625
30
0
11
143.929262
21
9.1675
31
0
39
0
210
0
220
0
230
1
0
LINE
5
168
100
AcDbEntity
8
1
62
256
6
ByLayer
370
13
48
1
60
0
100
AcDbLine
10
143.929262
20
9.1675
30
0
11
140.656892
21
9.1675
31
0
39
0
210
0
220
0
230
1
0
LINE
5
169
100
AcDbEntity
8
1
62
256
6
ByLayer
370
13
48
1
60
0
100
AcDbLine
10
76.4
20
9.1675
30
0
11
27
21
9.2625
31
0
39
0
210
0
220
0
230
1
0
LINE
5
16A
100
AcDbEntity
8
1
62
256
6
ByLayer
370
13
48
1
60
0
100
AcDbLine
10
27
20
9.2625
30
0
11
22
21
9.2625
31
0
39
0
210
0
220
0
230
1
0
LINE
5
16B
100
AcDbEntity
8
1
62
256
6
ByLayer
370
13
48
1
60
0
100
AcDbLine
10
0.1
20
16
30
0
11
0
21
15.9
31
0
39
0
210
0
220
0
230
1
0
LINE
5
16C
100
AcDbEntity
8
1
62
256
6
ByLayer
370
13
48
1
60
0
100
AcDbLine
10
0.1
20
-16
30
0
11
5.5216
21
-16
31
0
39
0
210
0
220
0
230
1
0
LINE
5
16D
100
AcDbEntity
8
1
62
256
6
ByLayer
370
13
48
1
60
0
100
AcDbLine
10
0
20
-15.9
30
0
11
0.1
21
-16
31
0
39
0
210
0
220
0
230
1
0
LINE
5
16E
100
AcDbEntity
8
1
62
256
6
ByLayer
370
13
48
1
60
0
100
AcDbLine
10
5.5216
20
16
30
0
11
0.1
21
16
31
0
39
0
210
0
220
0
230
1
0
LINE
5
16F
100
AcDbEntity
8
81
62
256
6
ByLayer
370
18
48
1
60
0
100
AcDbLine
10
158
20
0
30
0
11
165
21
0
31
0
39
0
210
0
220
0
230
1
0
LINE
5
170
100
AcDbEntity
8
80
62
256
6
ByLayer
370
18
48
1
60
0
100
AcDbLine
10
0
20
0
30
0
11
-7
21
0
31
0
39
0
210
0
220
0
230
1
0
LINE
5
171
100
AcDbEntity
8
SK2
62
256
6
ByLayer
370
13
48
1
60
0
100
AcDbLine
10
-76.725
20
23.75
30
0
11
-76.725
21
-23.75
31
0
39
0
210
0
220
0
230
1
0
LINE
5
173
100
AcDbEntity
8
SK2
62
256
6
ByLayer
370
13
48
1
60
0
100
AcDbLine
10
-57.5875
20
-12.5
30
0
11
-79.9
21
-12.5
31
0
39
0
210
0
220
0
230
1
0
LINE
5
174
100
AcDbEntity
8
SK2
62
256
6
ByLayer
370
13
48
1
60
0
100
AcDbLine
10
-57.5875
20
12.5
30
0
11
-79.9
21
12.5
31
0
39
0
210
0
220
0
230
1
0
LINE
5
175
100
AcDbEntity
8
1
62
256
6
ByLayer
370
18
48
1
60
1
100
AcDbLine
10
-76.725
20
-12.5
30
0
11
-75.799425
21
-16.674997
31
0
39
0
210
0
220
0
230
1
0
LINE
5
176
100
AcDbEntity
8
1
62
256
6
ByLayer
370
18
48
1
60
1
100
AcDbLine
10
-75.799425
20
-16.674997
30
0
11
-77.650575
21
-16.675003
31
0
39
0
210
0
220
0
230
1
0
LINE
5
177
100
AcDbEntity
8
1
62
256
6
ByLayer
370
18
48
1
60
1
100
AcDbLine
10
-77.650575
20
-16.675003
30
0
11
-76.725
21
-12.5
31
0
39
0
210
0
220
0
230
1
0
LINE
5
178
100
AcDbEntity
8
1
62
256
6
ByLayer
370
18
48
1
60
1
100
AcDbLine
10
-76.725
20
12.5
30
0
11
-77.650575
21
16.674997
31
0
39
0
210
0
220
0
230
1
0
LINE
5
179
100
AcDbEntity
8
1
62
256
6
ByLayer
370
18
48
1
60
1
100
AcDbLine
10
-77.650575
20
16.674997
30
0
11
-75.799425
21
16.675003
31
0
39
0
210
0
220
0
230
1
0
LINE
5
17A
100
AcDbEntity
8
1
62
256
6
ByLayer
370
18
48
1
60
1
100
AcDbLine
10
-75.799425
20
16.675003
30
0
11
-76.725
21
12.5
31
0
39
0
210
0
220
0
230
1
0
LINE
5
17B
100
AcDbEntity
8
SK2
62
256
6
ByLayer
370
13
48
1
60
0
100
AcDbLine
10
-86.725
20
-16
30
0
11
-86.725
21
16
31
0
39
0
210
0
220
0
230
1
0
LINE
5
17C
100
AcDbEntity
8
SK2
62
256
6
ByLayer
370
13
48
1
60
0
100
AcDbLine
10
-1.5875
20
16
30
0
11
-89.9
21
16
31
0
39
0
210
0
220
0
230
1
0
LINE
5
17D
100
AcDbEntity
8
SK2
62
256
6
ByLayer
370
13
48
1
60
0
100
AcDbLine
10
-1.5875
20
-16
30
0
11
-89.9
21
-16
31
0
39
0
210
0
220
0
230
1
0
LINE
5
17E
100
AcDbEntity
8
1
62
256
6
ByLayer
370
18
48
1
60
1
100
AcDbLine
10
-86.725
20
16
30
0
11
-85.799425
21
11.825003
31
0
39
0
210
0
220
0
230
1
0
LINE
5
17F
100
AcDbEntity
8
1
62
256
6
ByLayer
370
18
48
1
60
1
100
AcDbLine
10
-85.799425
20
11.825003
30
0
11
-87.650575
21
11.824997
31
0
39
0
210
0
220
0
230
1
0
LINE
5
180
100
AcDbEntity
8
1
62
256
6
ByLayer
370
18
48
1
60
1
100
AcDbLine
10
-87.650575
20
11.824997
30
0
11
-86.725
21
16
31
0
39
0
210
0
220
0
230
1
0
LINE
5
181
100
AcDbEntity
8
1
62
256
6
ByLayer
370
18
48
1
60
1
100
AcDbLine
10
-86.725
20
-16
30
0
11
-87.650575
21
-11.825003
31
0
39
0
210
0
220
0
230
1
0
LINE
5
182
100
AcDbEntity
8
1
62
256
6
ByLayer
370
18
48
1
60
1
100
AcDbLine
10
-87.650575
20
-11.825003
30
0
11
-85.799425
21
-11.824997
31
0
39
0
210
0
220
0
230
1
0
LINE
5
183
100
AcDbEntity
8
1
62
256
6
ByLayer
370
18
48
1
60
1
100
AcDbLine
10
-85.799425
20
-11.824997
30
0
11
-86.725
21
-16
31
0
39
0
210
0
220
0
230
1
0
LINE
5
184
100
AcDbEntity
8
2
62
256
6
ByLayer
370
13
48
1
60
0
100
AcDbLine
10
184.975
20
-9.5
30
0
11
184.975
21
39.361783
31
0
39
0
210
0
220
0
230
1
0
LINE
5
186
100
AcDbEntity
8
2
62
256
6
ByLayer
370
13
48
1
60
0
100
AcDbLine
10
159.5875
20
-9.5
30
0
11
188.15
21
-9.5
31
0
39
0
210
0
220
0
230
1
0
LINE
5
187
100
AcDbEntity
8
2
62
256
6
ByLayer
370
13
48
1
60
0
100
AcDbLine
10
159.5875
20
9.5
30
0
11
188.15
21
9.5
31
0
39
0
210
0
220
0
230
1
0
LINE
5
188
100
AcDbEntity
8
1
62
256
6
ByLayer
370
18
48
1
60
1
100
AcDbLine
10
184.975
20
-9.5
30
0
11
184.049425
21
-5.325003
31
0
39
0
210
0
220
0
230
1
0
LINE
5
189
100
AcDbEntity
8
1
62
256
6
ByLayer
370
18
48
1
60
1
100
AcDbLine
10
184.049425
20
-5.325003
30
0
11
185.900575
21
-5.324997
31
0
39
0
210
0
220
0
230
1
0
LINE
5
18A
100
AcDbEntity
8
1
62
256
6
ByLayer
370
18
48
1
60
1
100
AcDbLine
10
185.900575
20
-5.324997
30
0
11
184.975
21
-9.5
31
0
39
0
210
0
220
0
230
1
0
LINE
5
18B
100
AcDbEntity
8
1
62
256
6
ByLayer
370
18
48
1
60
1
100
AcDbLine
10
184.975
20
9.5
30
0
11
185.900575
21
5.325003
31
0
39
0
210
0
220
0
230
1
0
LINE
5
18C
100
AcDbEntity
8
1
62
256
6
ByLayer
370
18
48
1
60
1
100
AcDbLine
10
185.900575
20
5.325003
30
0
11
184.049425
21
5.324997
31
0
39
0
210
0
220
0
230
1
0
LINE
5
18D
100
AcDbEntity
8
1
62
256
6
ByLayer
370
18
48
1
60
1
100
AcDbLine
10
184.049425
20
5.324997
30
0
11
184.975
21
9.5
31
0
39
0
210
0
220
0
230
1
0
LINE
5
345
100
AcDbEntity
8
1
62
256
6
ByLayer
370
18
48
1
60
1
100
AcDbLine
10
-76.725
20
-12.5
30
0
11
-75.799425
21
-16.674997
31
0
39
0
210
0
220
0
230
1
0
LINE
5
346
100
AcDbEntity
8
1
62
256
6
ByLayer
370
18
48
1
60
1
100
AcDbLine
10
-75.799425
20
-16.674997
30
0
11
-77.650575
21
-16.675003
31
0
39
0
210
0
220
0
230
1
0
LINE
5
347
100
AcDbEntity
8
1
62
256
6
ByLayer
370
18
48
1
60
1
100
AcDbLine
10
-77.650575
20
-16.675003
30
0
11
-76.725
21
-12.5
31
0
39
0
210
0
220
0
230
1
0
LINE
5
349
100
AcDbEntity
8
1
62
256
6
ByLayer
370
18
48
1
60
1
100
AcDbLine
10
-76.725
20
12.5
30
0
11
-77.650575
21
16.674997
31
0
39
0
210
0
220
0
230
1
0
LINE
5
34A
100
AcDbEntity
8
1
62
256
6
ByLayer
370
18
48
1
60
1
100
AcDbLine
10
-77.650575
20
16.674997
30
0
11
-75.799425
21
16.675003
31
0
39
0
210
0
220
0
230
1
0
LINE
5
34B
100
AcDbEntity
8
1
62
256
6
ByLayer
370
18
48
1
60
1
100
AcDbLine
10
-75.799425
20
16.675003
30
0
11
-76.725
21
12.5
31
0
39
0
210
0
220
0
230
1
0
LINE
5
34F
100
AcDbEntity
8
1
62
256
6
ByLayer
370
18
48
1
60
1
100
AcDbLine
10
-86.725
20
16
30
0
11
-85.799425
21
11.825003
31
0
39
0
210
0
220
0
230
1
0
LINE
5
350
100
AcDbEntity
8
1
62
256
6
ByLayer
370
18
48
1
60
1
100
AcDbLine
10
-85.799425
20
11.825003
30
0
11
-87.650575
21
11.824997
31
0
39
0
210
0
220
0
230
1
0
LINE
5
351
100
AcDbEntity
8
1
62
256
6
ByLayer
370
18
48
1
60
1
100
AcDbLine
10
-87.650575
20
11.824997
30
0
11
-86.725
21
16
31
0
39
0
210
0
220
0
230
1
0
LINE
5
353
100
AcDbEntity
8
1
62
256
6
ByLayer
370
18
48
1
60
1
100
AcDbLine
10
-86.725
20
-16
30
0
11
-87.650575
21
-11.825003
31
0
39
0
210
0
220
0
230
1
0
LINE
5
354
100
AcDbEntity
8
1
62
256
6
ByLayer
370
18
48
1
60
1
100
AcDbLine
10
-87.650575
20
-11.825003
30
0
11
-85.799425
21
-11.824997
31
0
39
0
210
0
220
0
230
1
0
LINE
5
355
100
AcDbEntity
8
1
62
256
6
ByLayer
370
18
48
1
60
1
100
AcDbLine
10
-85.799425
20
-11.824997
30
0
11
-86.725
21
-16
31
0
39
0
210
0
220
0
230
1
0
LINE
5
359
100
AcDbEntity
8
1
62
256
6
ByLayer
370
18
48
1
60
1
100
AcDbLine
10
184.975
20
-9.5
30
0
11
184.049425
21
-5.325003
31
0
39
0
210
0
220
0
230
1
0
LINE
5
35A
100
AcDbEntity
8
1
62
256
6
ByLayer
370
18
48
1
60
1
100
AcDbLine
10
184.049425
20
-5.325003
30
0
11
185.900575
21
-5.324997
31
0
39
0
210
0
220
0
230
1
0
LINE
5
35B
100
AcDbEntity
8
1
62
256
6
ByLayer
370
18
48
1
60
1
100
AcDbLine
10
185.900575
20
-5.324997
30
0
11
184.975
21
-9.5
31
0
39
0
210
0
220
0
230
1
0
LINE
5
35D
100
AcDbEntity
8
1
62
256
6
ByLayer
370
18
48
1
60
1
100
AcDbLine
10
184.975
20
9.5
30
0
11
185.900575
21
5.325003
31
0
39
0
210
0
220
0
230
1
0
LINE
5
35E
100
AcDbEntity
8
1
62
256
6
ByLayer
370
18
48
1
60
1
100
AcDbLine
10
185.900575
20
5.325003
30
0
11
184.049425
21
5.324997
31
0
39
0
210
0
220
0
230
1
0
LINE
5
35F
100
AcDbEntity
8
1
62
256
6
ByLayer
370
18
48
1
60
1
100
AcDbLine
10
184.049425
20
5.324997
30
0
11
184.975
21
9.5
31
0
39
0
210
0
220
0
230
1
0
MTEXT
5
341
100
AcDbEntity
8
SK2
62
256
6
ByLayer
370
18
48
1
60
0
100
AcDbMText
10
-78.736672
20
-6.949399
30
0
210
0
220
0
230
1
1
%%c
40
4.5
41
0
44
1.084337
50
90
71
7
72
5
7
iso_b_vert
0
MTEXT
5
344
100
AcDbEntity
8
SK2
62
256
6
ByLayer
370
18
48
1
60
0
100
AcDbMText
10
-78.736672
20
4.265444
30
0
210
0
220
0
230
1
1
\W0.6740;25
40
4.5
41
0
44
1.084337
50
90
71
7
72
5
7
iso_b_vert
0
MTEXT
5
34D
100
AcDbEntity
8
SK2
62
256
6
ByLayer
370
18
48
1
60
0
100
AcDbMText
10
-88.736672
20
-6.949399
30
0
210
0
220
0
230
1
1
%%c
40
4.5
41
0
44
1.084337
50
90
71
7
72
5
7
iso_b_vert
0
MTEXT
5
34E
100
AcDbEntity
8
SK2
62
256
6
ByLayer
370
18
48
1
60
0
100
AcDbMText
10
-88.736672
20
4.265444
30
0
210
0
220
0
230
1
1
\W0.6740;32
40
4.5
41
0
44
1.084337
50
90
71
7
72
5
7
iso_b_vert
0
MTEXT
5
357
100
AcDbEntity
8
2
62
256
6
ByLayer
370
18
48
1
60
0
100
AcDbMText
10
182.963328
20
24.100156
30
0
210
0
220
0
230
1
1
%%c
40
4.5
41
0
44
1.084337
50
90
71
7
72
5
7
iso_b_vert
0
MTEXT
5
358
100
AcDbEntity
8
2
62
256
6
ByLayer
370
18
48
1
60
0
100
AcDbMText
10
182.963328
20
35.315
30
0
210
0
220
0
230
1
1
\W0.5469;19
40
4.5
41
0
44
1.084337
50
90
71
7
72
5
7
iso_b_vert
0
MTEXT
5
361
100
AcDbEntity
8
SK6
62
256
6
ByLayer
370
18
48
1
60
0
100
AcDbMText
10
9.308916
20
-94.592562
30
0
210
0
220
0
230
1
1
\W0.7503;DS20-D1900L25-07
40
3.5
41
0
44
1.084337
50
0
71
7
72
5
7
iso_b_vert
0
HATCH
5
348
100
AcDbEntity
8
SK2
62
256
6
ByLayer
370
13
48
1
60
0
100
AcDbHatch
10
0
20
0
30
0
210
0
220
0
230
1
2
ANSI31
70
0
71
0
91
1
92
5
93
3
72
1
10
-76.725
20
-12.4999999999999
11
-75.799424783472
21
-16.6749966001723
72
1
10
-75.799424783472
20
-16.6749966001723
11
-77.650575216528
21
-16.6750033998275
72
1
10
-77.650575216528
20
-16.6750033998275
11
-76.725
21
-12.4999999999999
97
0
75
0
76
1
52
0
41
0.0062
77
0
78
1
53
45
43
0
44
0
45
-0.0139193969876572
46
0.0139193969876572
79
0
47
0
98
1
10
0
20
0
0
HATCH
5
34C
100
AcDbEntity
8
SK2
62
256
6
ByLayer
370
13
48
1
60
0
100
AcDbHatch
10
0
20
0
30
0
210
0
220
0
230
1
2
ANSI31
70
0
71
0
91
1
92
5
93
3
72
1
10
-76.725
20
12.5000000000001
11
-77.650575216528
21
16.6749966001725
72
1
10
-77.650575216528
20
16.6749966001725
11
-75.799424783472
21
16.6750033998277
72
1
10
-75.799424783472
20
16.6750033998277
11
-76.725
21
12.5000000000001
97
0
75
0
76
1
52
0
41
0.0062
77
0
78
1
53
45
43
0
44
0
45
-0.0139193969876572
46
0.0139193969876572
79
0
47
0
98
1
10
0
20
0
0
HATCH
5
352
100
AcDbEntity
8
SK2
62
256
6
ByLayer
370
13
48
1
60
0
100
AcDbHatch
10
0
20
0
30
0
210
0
220
0
230
1
2
ANSI31
70
0
71
0
91
1
92
5
93
3
72
1
10
-86.725
20
16
11
-85.799424783472
21
11.8250033998276
72
1
10
-85.799424783472
20
11.8250033998276
11
-87.650575216528
21
11.8249966001724
72
1
10
-87.650575216528
20
11.8249966001724
11
-86.725
21
16
97
0
75
0
76
1
52
0
41
0.0062
77
0
78
1
53
45
43
0
44
0
45
-0.0139193969876572
46
0.0139193969876572
79
0
47
0
98
1
10
0
20
0
0
HATCH
5
356
100
AcDbEntity
8
SK2
62
256
6
ByLayer
370
13
48
1
60
0
100
AcDbHatch
10
0
20
0
30
0
210
0
220
0
230
1
2
ANSI31
70
0
71
0
91
1
92
5
93
3
72
1
10
-86.725
20
-16
11
-87.650575216528
21
-11.8250033998276
72
1
10
-87.650575216528
20
-11.8250033998276
11
-85.799424783472
21
-11.8249966001724
72
1
10
-85.799424783472
20
-11.8249966001724
11
-86.725
21
-16
97
0
75
0
76
1
52
0
41
0.0062
77
0
78
1
53
45
43
0
44
0
45
-0.0139193969876572
46
0.0139193969876572
79
0
47
0
98
1
10
0
20
0
0
HATCH
5
35C
100
AcDbEntity
8
2
62
256
6
ByLayer
370
13
48
1
60
0
100
AcDbHatch
10
0
20
0
30
0
210
0
220
0
230
1
2
ANSI31
70
0
71
0
91
1
92
5
93
3
72
1
10
184.975
20
-9.50000000000017
11
184.049424783472
21
-5.32500339982778
72
1
10
184.049424783472
20
-5.32500339982778
11
185.900575216528
21
-5.32499660017254
72
1
10
185.900575216528
20
-5.32499660017254
11
184.975
21
-9.50000000000017
97
0
75
0
76
1
52
0
41
0.0062
77
0
78
1
53
45
43
0
44
0
45
-0.0139193969876572
46
0.0139193969876572
79
0
47
0
98
1
10
0
20
0
0
HATCH
5
360
100
AcDbEntity
8
2
62
256
6
ByLayer
370
13
48
1
60
0
100
AcDbHatch
10
0
20
0
30
0
210
0
220
0
230
1
2
ANSI31
70
0
71
0
91
1
92
5
93
3
72
1
10
184.975
20
9.49999999999983
11
185.900575216528
21
5.32500339982744
72
1
10
185.900575216528
20
5.32500339982744
11
184.049424783472
21
5.3249966001722
72
1
10
184.049424783472
20
5.3249966001722
11
184.975
21
9.49999999999983
97
0
75
0
76
1
52
0
41
0.0062
77
0
78
1
53
45
43
0
44
0
45
-0.0139193969876572
46
0.0139193969876572
79
0
47
0
98
1
10
0
20
0
0
DIMENSION
5
364
100
AcDbEntity
8
2
62
256
6
ByLayer
370
18
48
1
60
0
100
AcDbDimension
2
_U0
10
158
20
-64.862234
30
0
11
79
21
-64.862234
31
0
70
32
71
1
72
1
41
1
210
0
220
0
230
1
3
Standard
100
AcDbAlignedDimension
13
0
23
-16
33
0
14
158
24
-9.5
34
0
50
0
100
AcDbRotatedDimension
1001
ACAD
1000
DSTYLE
1002
{
1070
   371
1070
    13
1070
   372
1070
    13
1070
   170
1070
     0
1070
   144
1040
1.0
1070
   277
1070
     2
1070
   284
1070
     8
1070
   278
1070
    46
1070
   146
1040
0.777778
1070
   345
1005
16
1070
   347
1005
16
1070
   346
1005
16
1070
   344
1005
0
1070
   343
1005
0
1070
   172
1070
     1
1070
    76
1070
     0
1070
    75
1070
     0
1070
   282
1070
     0
1070
   281
1070
     0
1070
    71
1070
     0
1070
    74
1070
     0
1070
   279
1070
     0
1070
   173
1070
     1
1070
   340
1005
342
1070
   271
1070
     1
1070
   272
1070
     2
1070
    77
1070
     1
1070
    73
1070
     1
1070
   171
1070
     3
1070
   274
1070
     4
1070
   177
1070
   150
1070
   176
1070
     9
1070
   178
1070
    43
1070
    78
1070
     8
1070
    48
1040
-0.1
1070
    41
1040
4.175
1070
   147
1040
2.25
1070
    42
1040
1.5875
1070
    44
1040
3.175
1070
   140
1040
4.5
1002
}
1001
ACAD_DSTYLE_DIM_LINETYPE
1070
   380
1005
16
1001
ACAD_DSTYLE_DIM_EXT1_LINETYPE
1070
   381
1005
16
1001
ACAD_DSTYLE_DIM_EXT2_LINETYPE
1070
   382
1005
16
0
DIMENSION
5
37D
100
AcDbEntity
8
SK2
62
256
6
ByLayer
370
18
48
1
60
0
100
AcDbDimension
2
_U1
10
0
20
-64.862234
30
0
11
-28
21
-64.862234
31
0
70
32
71
1
72
1
41
1
210
0
220
0
230
1
3
Standard
100
AcDbAlignedDimension
13
-56
23
-12.5
33
0
14
0
24
-16
34
0
50
0
100
AcDbRotatedDimension
1001
ACAD
1000
DSTYLE
1002
{
1070
   371
1070
    13
1070
   372
1070
    13
1070
   170
1070
     0
1070
   144
1040
1.0
1070
   277
1070
     2
1070
   284
1070
     8
1070
   278
1070
    46
1070
   146
1040
0.777778
1070
   345
1005
16
1070
   347
1005
16
1070
   346
1005
16
1070
   344
1005
0
1070
   343
1005
0
1070
   172
1070
     1
1070
    76
1070
     0
1070
    75
1070
     0
1070
   282
1070
     0
1070
   281
1070
     0
1070
    71
1070
     0
1070
    74
1070
     0
1070
   279
1070
     0
1070
   173
1070
     1
1070
   340
1005
342
1070
   271
1070
     1
1070
   272
1070
     2
1070
    77
1070
     1
1070
    73
1070
     1
1070
   171
1070
     3
1070
   274
1070
     4
1070
   177
1070
   150
1070
   176
1070
     9
1070
   178
1070
    43
1070
    78
1070
     8
1070
    48
1040
-0.1
1070
    41
1040
4.175
1070
   147
1040
2.25
1070
    42
1040
1.5875
1070
    44
1040
3.175
1070
   140
1040
4.5
1002
}
1001
ACAD_DSTYLE_DIM_LINETYPE
1070
   380
1005
16
1001
ACAD_DSTYLE_DIM_EXT1_LINETYPE
1070
   381
1005
16
1001
ACAD_DSTYLE_DIM_EXT2_LINETYPE
1070
   382
1005
16
0
DIMENSION
5
395
100
AcDbEntity
8
SK2
62
256
6
ByLayer
370
18
48
1
60
0
100
AcDbDimension
2
_U2
10
6.0216
20
-54.862234
30
0
11
82.0108
21
-54.862234
31
0
70
32
71
1
72
1
41
1
210
0
220
0
230
1
3
Standard
100
AcDbAlignedDimension
13
158
23
-9.5
33
0
14
6.0216
24
-16
34
0
50
0
100
AcDbRotatedDimension
1001
ACAD
1000
DSTYLE
1002
{
1070
   371
1070
    13
1070
   372
1070
    13
1070
   170
1070
     0
1070
   144
1040
1.0
1070
   277
1070
     2
1070
   284
1070
     8
1070
   278
1070
    46
1070
   146
1040
0.777778
1070
   345
1005
16
1070
   347
1005
16
1070
   346
1005
16
1070
   344
1005
0
1070
   343
1005
0
1070
   172
1070
     1
1070
    76
1070
     0
1070
    75
1070
     0
1070
   282
1070
     0
1070
   281
1070
     0
1070
    71
1070
     0
1070
    74
1070
     0
1070
   279
1070
     0
1070
   173
1070
     1
1070
   340
1005
342
1070
   271
1070
     1
1070
   272
1070
     2
1070
    77
1070
     1
1070
    73
1070
     1
1070
   171
1070
     3
1070
   274
1070
     4
1070
   177
1070
   150
1070
   176
1070
     9
1070
   178
1070
    43
1070
    78
1070
     8
1070
    48
1040
-0.1
1070
    41
1040
4.175
1070
   147
1040
2.25
1070
    42
1040
1.5875
1070
    44
1040
3.175
1070
   140
1040
4.5
1002
}
1001
ACAD_DSTYLE_DIM_LINETYPE
1070
   380
1005
16
1001
ACAD_DSTYLE_DIM_EXT1_LINETYPE
1070
   381
1005
16
1001
ACAD_DSTYLE_DIM_EXT2_LINETYPE
1070
   382
1005
16
0
DIMENSION
5
3AD
100
AcDbEntity
8
SK2
62
256
6
ByLayer
370
18
48
1
60
0
100
AcDbDimension
2
_U3
10
158
20
-44.862234
30
0
11
90
21
-44.862234
31
0
70
32
71
1
72
1
41
1
210
0
220
0
230
1
3
Standard
100
AcDbAlignedDimension
13
22
23
-9.5
33
0
14
158
24
-9.5
34
0
50
0
100
AcDbRotatedDimension
1001
ACAD
1000
DSTYLE
1002
{
1070
   371
1070
    13
1070
   372
1070
    13
1070
   170
1070
     0
1070
   144
1040
1.0
1070
   277
1070
     2
1070
   284
1070
     8
1070
   278
1070
    46
1070
   146
1040
0.777778
1070
   345
1005
16
1070
   347
1005
16
1070
   346
1005
16
1070
   344
1005
0
1070
   343
1005
0
1070
   172
1070
     1
1070
    76
1070
     0
1070
    75
1070
     0
1070
   282
1070
     0
1070
   281
1070
     0
1070
    71
1070
     0
1070
    74
1070
     0
1070
   279
1070
     0
1070
   173
1070
     1
1070
   340
1005
342
1070
   271
1070
     1
1070
   272
1070
     2
1070
    77
1070
     1
1070
    73
1070
     1
1070
   171
1070
     3
1070
   274
1070
     4
1070
   177
1070
   150
1070
   176
1070
     9
1070
   178
1070
    43
1070
    78
1070
     8
1070
    48
1040
-0.1
1070
    41
1040
4.175
1070
   147
1040
2.25
1070
    42
1040
1.5875
1070
    44
1040
3.175
1070
   140
1040
4.5
1002
}
1001
ACAD_DSTYLE_DIM_LINETYPE
1070
   380
1005
16
1001
ACAD_DSTYLE_DIM_EXT1_LINETYPE
1070
   381
1005
16
1001
ACAD_DSTYLE_DIM_EXT2_LINETYPE
1070
   382
1005
16
0
DIMENSION
5
3C5
100
AcDbEntity
8
2
62
256
6
ByLayer
370
18
48
1
60
0
100
AcDbDimension
2
_U4
10
158
20
-34.862234
30
0
11
180.350893
21
-34.862234
31
0
70
32
71
1
72
1
41
1
210
0
220
0
230
1
3
Standard
100
AcDbAlignedDimension
13
157.4423
23
-4.75
33
0
14
158
24
0
34
0
50
0
100
AcDbRotatedDimension
1001
ACAD
1000
DSTYLE
1002
{
1070
   371
1070
    13
1070
   372
1070
    13
1070
   170
1070
     0
1070
   144
1040
1.0
1070
   277
1070
     2
1070
   284
1070
     8
1070
   278
1070
    46
1070
   146
1040
0.777778
1070
   345
1005
16
1070
   347
1005
16
1070
   346
1005
16
1070
   344
1005
0
1070
   343
1005
0
1070
   172
1070
     1
1070
    76
1070
     0
1070
    75
1070
     0
1070
   282
1070
     0
1070
   281
1070
     0
1070
    71
1070
     0
1070
    74
1070
     0
1070
   279
1070
     0
1070
   173
1070
     1
1070
   340
1005
342
1070
   271
1070
     2
1070
   272
1070
     2
1070
    77
1070
     1
1070
    73
1070
     1
1070
   171
1070
     3
1070
   274
1070
     4
1070
   177
1070
   150
1070
   176
1070
     9
1070
   178
1070
    43
1070
    78
1070
     8
1070
    48
1040
-0.1
1070
    41
1040
4.175
1070
   147
1040
2.25
1070
    42
1040
1.5875
1070
    44
1040
3.175
1070
   140
1040
4.5
1002
}
1001
ACAD_DSTYLE_DIM_LINETYPE
1070
   380
1005
16
1001
ACAD_DSTYLE_DIM_EXT1_LINETYPE
1070
   381
1005
16
1001
ACAD_DSTYLE_DIM_EXT2_LINETYPE
1070
   382
1005
16
0
ENDSEC
0
SECTION
2
OBJECTS
0
DICTIONARY
5
44f
330
0
100
AcDbDictionary
280
0
281
1
3
ACAD_GROUP
350
450
3
ACAD_MLINESTYLE
350
451
0
DICTIONARY
5
450
330
0
100
AcDbDictionary
280
0
281
1
0
DICTIONARY
5
451
330
0
100
AcDbDictionary
280
0
281
1
3
Standard
350
18
0
MLINESTYLE
5
18
330
451
100
AcDbMlineStyle
2
Standard
70
0
3

62
256
51
90
52
90
71
2
49
-0.5
62
256
6
ByLayer
49
0.5
62
256
6
ByLayer
0
RASTERVARIABLES
5
43d
330

100
AcDbRasterVariables
90
0
70
1
71
1
72
1
0
ENDSEC
0
EOF
