0
SECTION
2
HEADER
9
$ACADVER
1
AC1015
9
$DWGCODEPAGE
3
ANSI_1252
9
$HANDSEED
5
451
9
$ANGBASE
50
0
9
$ANGDIR
70
0
9
$ATTMODE
70
1
9
$AUNITS
70
0
9
$AUPREC
70
0
9
$CECOLOR
62
256
9
$CELTSCALE
40
1
9
$CELTYPE
6
ByLayer
9
$CELWEIGHT
370
18
9
$CLAYER
8
0
9
$CMLJUST
70
0
9
$CMLSCALE
40
1
9
$CMLSTYLE
2
Standard
9
$DIMSTYLE
2
Standard
9
$TEXTSIZE
40
0.2
9
$TEXTSTYLE
7
Standard
9
$LUNITS
70
2
9
$LUPREC
70
4
9
$EXTNAMES
290
1
9
$INSUNITS
70
4
9
$LTSCALE
40
1
9
$LWDISPLAY
290
1
9
$PDMODE
70
0
9
$PDSIZE
40
0
9
$PLINEGEN
70
0
0
ENDSEC
0
SECTION
2
CLASSES
0
CLASS
1
RASTERVARIABLES
2
AcDbRasterVariables
3
ISM
90
0
280
0
281
0
0
ENDSEC
0
SECTION
2
TABLES
0
TABLE
2
VPORT
5
447
100
AcDbSymbolTable
0
VPORT
5
1
100
AcDbSymbolTableRecord
100
AcDbViewportTableRecord
2
*Active
70
0
10
0
20
0
11
1
21
1
12
-1
22
1
13
0
23
0
14
0.5
24
0.5
15
10
25
10
16
0
26
0
36
1
17
0
27
0
37
0
0
ENDTAB
0
TABLE
2
LTYPE
5
448
100
AcDbSymbolTable
0
LTYPE
5
14
100
AcDbSymbolTableRecord
100
AcDbLinetypeTableRecord
70
0
2
ByBlock
3

72
65
73
0
40
0
0
LTYPE
5
15
100
AcDbSymbolTableRecord
100
AcDbLinetypeTableRecord
70
0
2
ByLayer
3

72
65
73
0
40
0
0
LTYPE
5
16
100
AcDbSymbolTableRecord
100
AcDbLinetypeTableRecord
70
0
2
Continuous
3
Solid line
72
65
73
0
40
0
0
LTYPE
5
6E
100
AcDbSymbolTableRecord
100
AcDbLinetypeTableRecord
70
0
2
CENTER
3
____ _ ____ _ ____ _ ____
72
65
73
4
40
47.5
49
22
74
0
49
-8.5
74
0
49
8.5
74
0
49
-8.5
74
0
0
LTYPE
5
6F
100
AcDbSymbolTableRecord
100
AcDbLinetypeTableRecord
70
0
2
DASHED
3
__ __ __ __ __ __ __ __ __
72
65
73
2
40
25.72
49
12.86
74
0
49
-12.86
74
0
0
ENDTAB
0
TABLE
2
LAYER
5
449
100
AcDbSymbolTable
0
LAYER
5
10
100
AcDbSymbolTableRecord
100
AcDbLayerTableRecord
2
0
70
0
62
7
6
Continuous
290
1
370
-3
390
0
0
LAYER
5
71
100
AcDbSymbolTableRecord
100
AcDbLayerTableRecord
2
1
70
0
62
4
6
Continuous
290
1
370
-3
390
0
0
LAYER
5
73
100
AcDbSymbolTableRecord
100
AcDbLayerTableRecord
2
80
70
0
62
-6
6
Continuous
290
1
370
-3
390
0
0
LAYER
5
75
100
AcDbSymbolTableRecord
100
AcDbLayerTableRecord
2
81
70
0
62
-3
6
Continuous
290
1
370
-3
390
0
0
LAYER
5
141
100
AcDbSymbolTableRecord
100
AcDbLayerTableRecord
2
4
70
0
62
-2
6
CENTER
290
1
370
-3
390
0
0
LAYER
5
17B
100
AcDbSymbolTableRecord
100
AcDbLayerTableRecord
2
2
70
0
62
7
6
Continuous
290
1
370
-3
390
0
0
LAYER
5
35C
100
AcDbSymbolTableRecord
100
AcDbLayerTableRecord
2
Defpoints
70
0
62
7
6
Continuous
290
0
370
-3
390
0
0
LAYER
5
433
100
AcDbSymbolTableRecord
100
AcDbLayerTableRecord
2
SK1
70
0
62
4
6
Continuous
290
1
370
-3
390
0
0
LAYER
5
434
100
AcDbSymbolTableRecord
100
AcDbLayerTableRecord
2
SK4
70
0
62
2
6
CENTER
290
1
370
-3
390
0
0
LAYER
5
435
100
AcDbSymbolTableRecord
100
AcDbLayerTableRecord
2
SK2
70
0
62
7
6
Continuous
290
1
370
-3
390
0
0
LAYER
5
436
100
AcDbSymbolTableRecord
100
AcDbLayerTableRecord
2
SK6
70
0
62
5
6
Continuous
290
1
370
-3
390
0
0
ENDTAB
0
TABLE
2
STYLE
5
44a
100
AcDbSymbolTable
0
STYLE
5
11
100
AcDbSymbolTableRecord
100
AcDbTextStyleTableRecord
2
Standard
3
txt
70
0
71
0
40
0
41
1
42
0
50
0
0
STYLE
5
337
100
AcDbSymbolTableRecord
100
AcDbTextStyleTableRecord
2
iso_b_vert
3
simplex.shx
70
0
71
0
40
0
41
1
42
0
50
0
0
STYLE
5
338
100
AcDbSymbolTableRecord
100
AcDbTextStyleTableRecord
2
DWGDirectTextStyle
3
simplex
70
0
71
0
40
0
41
1
42
0
50
0
0
ENDTAB
0
TABLE
2
DIMSTYLE
5
44b
100
AcDbSymbolTable
100
AcDbDimStyleTable
0
DIMSTYLE
105
27
100
AcDbSymbolTableRecord
100
AcDbDimStyleTableRecord
2
Standard
70
0
3
<>
41
0.18
42
0.0625
44
0.18
140
0.18
147
0.09
73
0
74
0
77
1
271
2
275
0
278
52
280
0
340
11
0
ENDTAB
0
TABLE
2
VIEW
5
44c
100
AcDbSymbolTable
0
ENDTAB
0
TABLE
2
UCS
5
44d
100
AcDbSymbolTable
0
ENDTAB
0
TABLE
2
APPID
5
44e
100
AcDbSymbolTable
0
APPID
5
12
100
AcDbSymbolTableRecord
100
AcDbRegAppTableRecord
2
ACAD
70
0
0
APPID
5
358
100
AcDbSymbolTableRecord
100
AcDbRegAppTableRecord
2
ACAD_DSTYLE_DIMBREAK
70
0
0
APPID
5
3F2
100
AcDbSymbolTableRecord
100
AcDbRegAppTableRecord
2
ACAD_DSTYLE_DIM_LINETYPE
70
0
0
APPID
5
3F3
100
AcDbSymbolTableRecord
100
AcDbRegAppTableRecord
2
ACAD_DSTYLE_DIM_EXT1_LINETYPE
70
0
0
APPID
5
3F4
100
AcDbSymbolTableRecord
100
AcDbRegAppTableRecord
2
ACAD_DSTYLE_DIM_EXT2_LINETYPE
70
0
0
APPID
5
42F
100
AcDbSymbolTableRecord
100
AcDbRegAppTableRecord
2
ACAD_MLEADERVER
70
0
0
ENDTAB
0
TABLE
2
BLOCK_RECORD
5
44f
100
AcDbSymbolTable
0
BLOCK_RECORD
5
1F
100
AcDbSymbolTableRecord
100
AcDbBlockTableRecord
2
*Model_Space
340
0
70
0
0
BLOCK_RECORD
5
1B
100
AcDbSymbolTableRecord
100
AcDbBlockTableRecord
2
*Paper_Space
340
0
70
0
0
BLOCK_RECORD
5
23
100
AcDbSymbolTableRecord
100
AcDbBlockTableRecord
2
*Paper_Space0
340
0
70
0
0
BLOCK_RECORD
5
35D
100
AcDbSymbolTableRecord
100
AcDbBlockTableRecord
2
*D1
340
0
70
0
0
BLOCK_RECORD
5
369
100
AcDbSymbolTableRecord
100
AcDbBlockTableRecord
2
_U0
340
0
70
0
0
BLOCK_RECORD
5
375
100
AcDbSymbolTableRecord
100
AcDbBlockTableRecord
2
*D3
340
0
70
0
0
BLOCK_RECORD
5
381
100
AcDbSymbolTableRecord
100
AcDbBlockTableRecord
2
_U1
340
0
70
0
0
BLOCK_RECORD
5
38D
100
AcDbSymbolTableRecord
100
AcDbBlockTableRecord
2
*D5
340
0
70
0
0
BLOCK_RECORD
5
399
100
AcDbSymbolTableRecord
100
AcDbBlockTableRecord
2
_U2
340
0
70
0
0
BLOCK_RECORD
5
3A5
100
AcDbSymbolTableRecord
100
AcDbBlockTableRecord
2
*D7
340
0
70
0
0
BLOCK_RECORD
5
3B1
100
AcDbSymbolTableRecord
100
AcDbBlockTableRecord
2
_U3
340
0
70
0
0
BLOCK_RECORD
5
3BD
100
AcDbSymbolTableRecord
100
AcDbBlockTableRecord
2
*D9
340
0
70
0
0
BLOCK_RECORD
5
3CB
100
AcDbSymbolTableRecord
100
AcDbBlockTableRecord
2
_U4
340
0
70
0
0
ENDTAB
0
ENDSEC
0
SECTION
2
BLOCKS
0
BLOCK
5
20
100
AcDbEntity
8
0
100
AcDbBlockBegin
2
*Model_Space
70
0
10
0
20
0
30
0
3
*Model_Space
0
ENDBLK
5
21
100
AcDbEntity
8
0
100
AcDbBlockEnd
0
BLOCK
5
1C
100
AcDbEntity
8
0
100
AcDbBlockBegin
2
*Paper_Space
70
0
10
0
20
0
30
0
3
*Paper_Space
0
ENDBLK
5
1D
100
AcDbEntity
8
0
100
AcDbBlockEnd
0
BLOCK
5
24
100
AcDbEntity
8
0
100
AcDbBlockBegin
2
*Paper_Space0
70
0
10
0
20
0
30
0
3
*Paper_Space0
0
ENDBLK
5
25
100
AcDbEntity
8
0
100
AcDbBlockEnd
0
BLOCK
5
35E
100
AcDbEntity
8
0
100
AcDbBlockBegin
2
*D1
70
1
10
0
20
0
30
0
3
*D1
0
LINE
5
360
100
AcDbEntity
8
0
62
256
6
ByLayer
370
-2
48
1
60
0
100
AcDbLine
10
0
20
-14.0875
30
0
11
0
21
-64.536824
31
0
39
0
210
0
220
0
230
1
0
LINE
5
361
100
AcDbEntity
8
0
62
256
6
ByLayer
370
-2
48
1
60
0
100
AcDbLine
10
106
20
-10.0875
30
0
11
106
21
-64.536824
31
0
39
0
210
0
220
0
230
1
0
LINE
5
362
100
AcDbEntity
8
0
62
256
6
ByLayer
370
-2
48
1
60
0
100
AcDbLine
10
4.175
20
-61.361824
30
0
11
101.825
21
-61.361824
31
0
39
0
210
0
220
0
230
1
0
SOLID
5
363
100
AcDbEntity
8
0
62
256
6
ByLayer
370
-1
48
1
60
0
100
AcDbTrace
10
4.175
20
-60.66599
30
0
11
4.175
21
-62.057657
31
0
12
0
22
-61.361824
32
0
13
0
23
-61.361824
33
0
39
0
210
0
220
0
230
1
0
SOLID
5
364
100
AcDbEntity
8
0
62
256
6
ByLayer
370
-1
48
1
60
0
100
AcDbTrace
10
101.825
20
-62.057657
30
0
11
101.825
21
-60.66599
31
0
12
106
22
-61.361824
32
0
13
106
23
-61.361824
33
0
39
0
210
0
220
0
230
1
0
MTEXT
5
365
100
AcDbEntity
8
0
62
256
6
ByLayer
370
18
48
1
60
0
100
AcDbMText
10
53
20
-51.968074
30
0
210
0
220
0
230
1
1
\A1;106
40
4.5
41
0
44
1
50
0
71
5
72
5
7
iso_b_vert
0
POINT
5
366
100
AcDbEntity
8
Defpoints
62
0
6
ByLayer
370
-1
48
1
60
0
100
AcDbPoint
10
0
20
-12.5
30
0
39
0
210
0
220
0
230
1
50
360
0
POINT
5
367
100
AcDbEntity
8
Defpoints
62
0
6
ByLayer
370
-1
48
1
60
0
100
AcDbPoint
10
106
20
-8.5
30
0
39
0
210
0
220
0
230
1
50
360
0
POINT
5
368
100
AcDbEntity
8
Defpoints
62
0
6
ByLayer
370
-1
48
1
60
0
100
AcDbPoint
10
106
20
-61.361824
30
0
39
0
210
0
220
0
230
1
50
360
0
ENDBLK
5
35F
100
AcDbEntity
8
0
100
AcDbBlockEnd
0
BLOCK
5
370
100
AcDbEntity
8
0
100
AcDbBlockBegin
2
_U0
70
0
10
0
20
0
30
0
3
_U0
0
MTEXT
5
36A
100
AcDbEntity
8
2
62
256
6
ByLayer
370
18
48
1
60
0
100
AcDbMText
10
49.431801
20
-60.034152
30
0
210
0
220
0
230
1
1
\W0.6217;106
40
4.5
41
0
44
1.084337
50
0
71
7
72
5
7
iso_b_vert
0
LINE
5
36B
100
AcDbEntity
8
2
62
256
6
ByLayer
370
13
48
1
60
0
100
AcDbLine
10
0
20
-14.0875
30
0
11
0
21
-64.536824
31
0
39
0
210
0
220
0
230
1
0
LINE
5
36C
100
AcDbEntity
8
2
62
256
6
ByLayer
370
13
48
1
60
0
100
AcDbLine
10
106
20
-10.0875
30
0
11
106
21
-64.536824
31
0
39
0
210
0
220
0
230
1
0
LINE
5
36D
100
AcDbEntity
8
2
62
256
6
ByLayer
370
13
48
1
60
0
100
AcDbLine
10
0
20
-61.361824
30
0
11
106
21
-61.361824
31
0
39
0
210
0
220
0
230
1
0
SOLID
5
36E
100
AcDbEntity
8
2
62
256
6
ByLayer
370
18
48
1
60
0
100
AcDbTrace
10
0
20
-61.361824
30
0
11
4.174997
21
-60.436248
31
0
12
4.175003
22
-62.287399
32
0
13
4.175003
23
-62.287399
33
0
39
0
210
0
220
0
230
1
0
SOLID
5
36F
100
AcDbEntity
8
2
62
256
6
ByLayer
370
18
48
1
60
0
100
AcDbTrace
10
106
20
-61.361824
30
0
11
101.825003
21
-62.287399
31
0
12
101.824997
22
-60.436248
32
0
13
101.824997
23
-60.436248
33
0
39
0
210
0
220
0
230
1
0
ENDBLK
5
371
100
AcDbEntity
8
0
100
AcDbBlockEnd
0
BLOCK
5
376
100
AcDbEntity
8
0
100
AcDbBlockBegin
2
*D3
70
1
10
0
20
0
30
0
3
*D3
0
LINE
5
378
100
AcDbEntity
8
0
62
256
6
ByLayer
370
-2
48
1
60
0
100
AcDbLine
10
-50
20
-11.5875
30
0
11
-50
21
-64.536824
31
0
39
0
210
0
220
0
230
1
0
LINE
5
379
100
AcDbEntity
8
0
62
256
6
ByLayer
370
-2
48
1
60
0
100
AcDbLine
10
0
20
-14.0875
30
0
11
0
21
-64.536824
31
0
39
0
210
0
220
0
230
1
0
LINE
5
37A
100
AcDbEntity
8
0
62
256
6
ByLayer
370
-2
48
1
60
0
100
AcDbLine
10
-45.825
20
-61.361824
30
0
11
-4.175
21
-61.361824
31
0
39
0
210
0
220
0
230
1
0
SOLID
5
37B
100
AcDbEntity
8
0
62
256
6
ByLayer
370
-1
48
1
60
0
100
AcDbTrace
10
-45.825
20
-60.66599
30
0
11
-45.825
21
-62.057657
31
0
12
-50
22
-61.361824
32
0
13
-50
23
-61.361824
33
0
39
0
210
0
220
0
230
1
0
SOLID
5
37C
100
AcDbEntity
8
0
62
256
6
ByLayer
370
-1
48
1
60
0
100
AcDbTrace
10
-4.175
20
-62.057657
30
0
11
-4.175
21
-60.66599
31
0
12
0
22
-61.361824
32
0
13
0
23
-61.361824
33
0
39
0
210
0
220
0
230
1
0
MTEXT
5
37D
100
AcDbEntity
8
0
62
256
6
ByLayer
370
18
48
1
60
0
100
AcDbMText
10
-25
20
-51.968074
30
0
210
0
220
0
230
1
1
\A1;50
40
4.5
41
0
44
1
50
0
71
5
72
5
7
iso_b_vert
0
POINT
5
37E
100
AcDbEntity
8
Defpoints
62
0
6
ByLayer
370
-1
48
1
60
0
100
AcDbPoint
10
-50
20
-10
30
0
39
0
210
0
220
0
230
1
50
360
0
POINT
5
37F
100
AcDbEntity
8
Defpoints
62
0
6
ByLayer
370
-1
48
1
60
0
100
AcDbPoint
10
0
20
-12.5
30
0
39
0
210
0
220
0
230
1
50
360
0
POINT
5
380
100
AcDbEntity
8
Defpoints
62
0
6
ByLayer
370
-1
48
1
60
0
100
AcDbPoint
10
0
20
-61.361824
30
0
39
0
210
0
220
0
230
1
50
360
0
ENDBLK
5
377
100
AcDbEntity
8
0
100
AcDbBlockEnd
0
BLOCK
5
388
100
AcDbEntity
8
0
100
AcDbBlockBegin
2
_U1
70
0
10
0
20
0
30
0
3
_U1
0
MTEXT
5
382
100
AcDbEntity
8
SK2
62
256
6
ByLayer
370
18
48
1
60
0
100
AcDbMText
10
-27.449242
20
-60.034152
30
0
210
0
220
0
230
1
1
\W0.6740;50
40
4.5
41
0
44
1.084337
50
0
71
7
72
5
7
iso_b_vert
0
LINE
5
383
100
AcDbEntity
8
SK2
62
256
6
ByLayer
370
13
48
1
60
0
100
AcDbLine
10
-50
20
-11.5875
30
0
11
-50
21
-64.536824
31
0
39
0
210
0
220
0
230
1
0
LINE
5
384
100
AcDbEntity
8
SK2
62
256
6
ByLayer
370
13
48
1
60
0
100
AcDbLine
10
0
20
-14.0875
30
0
11
0
21
-64.536824
31
0
39
0
210
0
220
0
230
1
0
LINE
5
385
100
AcDbEntity
8
SK2
62
256
6
ByLayer
370
13
48
1
60
0
100
AcDbLine
10
-50
20
-61.361824
30
0
11
0
21
-61.361824
31
0
39
0
210
0
220
0
230
1
0
SOLID
5
386
100
AcDbEntity
8
SK2
62
256
6
ByLayer
370
18
48
1
60
0
100
AcDbTrace
10
-50
20
-61.361824
30
0
11
-45.825003
21
-60.436248
31
0
12
-45.824997
22
-62.287399
32
0
13
-45.824997
23
-62.287399
33
0
39
0
210
0
220
0
230
1
0
SOLID
5
387
100
AcDbEntity
8
SK2
62
256
6
ByLayer
370
18
48
1
60
0
100
AcDbTrace
10
0
20
-61.361824
30
0
11
-4.174997
21
-62.287399
31
0
12
-4.175003
22
-60.436248
32
0
13
-4.175003
23
-60.436248
33
0
39
0
210
0
220
0
230
1
0
ENDBLK
5
389
100
AcDbEntity
8
0
100
AcDbBlockEnd
0
BLOCK
5
38E
100
AcDbEntity
8
0
100
AcDbBlockBegin
2
*D5
70
1
10
0
20
0
30
0
3
*D5
0
LINE
5
390
100
AcDbEntity
8
0
62
256
6
ByLayer
370
-2
48
1
60
0
100
AcDbLine
10
106
20
-10.0875
30
0
11
106
21
-54.536824
31
0
39
0
210
0
220
0
230
1
0
LINE
5
391
100
AcDbEntity
8
0
62
256
6
ByLayer
370
-2
48
1
60
0
100
AcDbLine
10
5.6851
20
-14.0875
30
0
11
5.6851
21
-54.536824
31
0
39
0
210
0
220
0
230
1
0
LINE
5
392
100
AcDbEntity
8
0
62
256
6
ByLayer
370
-2
48
1
60
0
100
AcDbLine
10
101.825
20
-51.361824
30
0
11
9.8601
21
-51.361824
31
0
39
0
210
0
220
0
230
1
0
SOLID
5
393
100
AcDbEntity
8
0
62
256
6
ByLayer
370
-1
48
1
60
0
100
AcDbTrace
10
101.825
20
-52.057657
30
0
11
101.825
21
-50.66599
31
0
12
106
22
-51.361824
32
0
13
106
23
-51.361824
33
0
39
0
210
0
220
0
230
1
0
SOLID
5
394
100
AcDbEntity
8
0
62
256
6
ByLayer
370
-1
48
1
60
0
100
AcDbTrace
10
9.8601
20
-50.66599
30
0
11
9.8601
21
-52.057657
31
0
12
5.6851
22
-51.361824
32
0
13
5.6851
23
-51.361824
33
0
39
0
210
0
220
0
230
1
0
MTEXT
5
395
100
AcDbEntity
8
0
62
256
6
ByLayer
370
18
48
1
60
0
100
AcDbMText
10
55.84255
20
-41.968074
30
0
210
0
220
0
230
1
1
\A1;100.3
40
4.5
41
0
44
1
50
0
71
5
72
5
7
iso_b_vert
0
POINT
5
396
100
AcDbEntity
8
Defpoints
62
0
6
ByLayer
370
-1
48
1
60
0
100
AcDbPoint
10
106
20
-8.5
30
0
39
0
210
0
220
0
230
1
50
360
0
POINT
5
397
100
AcDbEntity
8
Defpoints
62
0
6
ByLayer
370
-1
48
1
60
0
100
AcDbPoint
10
5.6851
20
-12.5
30
0
39
0
210
0
220
0
230
1
50
360
0
POINT
5
398
100
AcDbEntity
8
Defpoints
62
0
6
ByLayer
370
-1
48
1
60
0
100
AcDbPoint
10
5.6851
20
-51.361824
30
0
39
0
210
0
220
0
230
1
50
360
0
ENDBLK
5
38F
100
AcDbEntity
8
0
100
AcDbBlockEnd
0
BLOCK
5
3A0
100
AcDbEntity
8
0
100
AcDbBlockBegin
2
_U2
70
0
10
0
20
0
30
0
3
_U2
0
MTEXT
5
39A
100
AcDbEntity
8
SK2
62
256
6
ByLayer
370
18
48
1
60
0
100
AcDbMText
10
49.681409
20
-50.034152
30
0
210
0
220
0
230
1
1
\W0.6864;100.3
40
4.5
41
0
44
1.084337
50
0
71
7
72
5
7
iso_b_vert
0
LINE
5
39B
100
AcDbEntity
8
SK2
62
256
6
ByLayer
370
13
48
1
60
0
100
AcDbLine
10
106
20
-10.0875
30
0
11
106
21
-54.536824
31
0
39
0
210
0
220
0
230
1
0
LINE
5
39C
100
AcDbEntity
8
SK2
62
256
6
ByLayer
370
13
48
1
60
0
100
AcDbLine
10
5.6851
20
-14.0875
30
0
11
5.6851
21
-54.536824
31
0
39
0
210
0
220
0
230
1
0
LINE
5
39D
100
AcDbEntity
8
SK2
62
256
6
ByLayer
370
13
48
1
60
0
100
AcDbLine
10
106
20
-51.361824
30
0
11
5.6851
21
-51.361824
31
0
39
0
210
0
220
0
230
1
0
SOLID
5
39E
100
AcDbEntity
8
SK2
62
256
6
ByLayer
370
18
48
1
60
0
100
AcDbTrace
10
106
20
-51.361824
30
0
11
101.825003
21
-52.287399
31
0
12
101.824997
22
-50.436248
32
0
13
101.824997
23
-50.436248
33
0
39
0
210
0
220
0
230
1
0
SOLID
5
39F
100
AcDbEntity
8
SK2
62
256
6
ByLayer
370
18
48
1
60
0
100
AcDbTrace
10
5.6851
20
-51.361824
30
0
11
9.860097
21
-50.436248
31
0
12
9.860103
22
-52.287399
32
0
13
9.860103
23
-52.287399
33
0
39
0
210
0
220
0
230
1
0
ENDBLK
5
3A1
100
AcDbEntity
8
0
100
AcDbBlockEnd
0
BLOCK
5
3A6
100
AcDbEntity
8
0
100
AcDbBlockBegin
2
*D7
70
1
10
0
20
0
30
0
3
*D7
0
LINE
5
3A8
100
AcDbEntity
8
0
62
256
6
ByLayer
370
-2
48
1
60
0
100
AcDbLine
10
18
20
-10.0875
30
0
11
18
21
-44.536824
31
0
39
0
210
0
220
0
230
1
0
LINE
5
3A9
100
AcDbEntity
8
0
62
256
6
ByLayer
370
-2
48
1
60
0
100
AcDbLine
10
106
20
-10.0875
30
0
11
106
21
-44.536824
31
0
39
0
210
0
220
0
230
1
0
LINE
5
3AA
100
AcDbEntity
8
0
62
256
6
ByLayer
370
-2
48
1
60
0
100
AcDbLine
10
22.175
20
-41.361824
30
0
11
101.825
21
-41.361824
31
0
39
0
210
0
220
0
230
1
0
SOLID
5
3AB
100
AcDbEntity
8
0
62
256
6
ByLayer
370
-1
48
1
60
0
100
AcDbTrace
10
22.175
20
-40.66599
30
0
11
22.175
21
-42.057657
31
0
12
18
22
-41.361824
32
0
13
18
23
-41.361824
33
0
39
0
210
0
220
0
230
1
0
SOLID
5
3AC
100
AcDbEntity
8
0
62
256
6
ByLayer
370
-1
48
1
60
0
100
AcDbTrace
10
101.825
20
-42.057657
30
0
11
101.825
21
-40.66599
31
0
12
106
22
-41.361824
32
0
13
106
23
-41.361824
33
0
39
0
210
0
220
0
230
1
0
MTEXT
5
3AD
100
AcDbEntity
8
0
62
256
6
ByLayer
370
18
48
1
60
0
100
AcDbMText
10
62
20
-31.968074
30
0
210
0
220
0
230
1
1
\A1;88
40
4.5
41
0
44
1
50
0
71
5
72
5
7
iso_b_vert
0
POINT
5
3AE
100
AcDbEntity
8
Defpoints
62
0
6
ByLayer
370
-1
48
1
60
0
100
AcDbPoint
10
18
20
-8.5
30
0
39
0
210
0
220
0
230
1
50
360
0
POINT
5
3AF
100
AcDbEntity
8
Defpoints
62
0
6
ByLayer
370
-1
48
1
60
0
100
AcDbPoint
10
106
20
-8.5
30
0
39
0
210
0
220
0
230
1
50
360
0
POINT
5
3B0
100
AcDbEntity
8
Defpoints
62
0
6
ByLayer
370
-1
48
1
60
0
100
AcDbPoint
10
106
20
-41.361824
30
0
39
0
210
0
220
0
230
1
50
360
0
ENDBLK
5
3A7
100
AcDbEntity
8
0
100
AcDbBlockEnd
0
BLOCK
5
3B8
100
AcDbEntity
8
0
100
AcDbBlockBegin
2
_U3
70
0
10
0
20
0
30
0
3
_U3
0
MTEXT
5
3B2
100
AcDbEntity
8
SK2
62
256
6
ByLayer
370
18
48
1
60
0
100
AcDbMText
10
59.550758
20
-40.034152
30
0
210
0
220
0
230
1
1
\W0.6740;88
40
4.5
41
0
44
1.084337
50
0
71
7
72
5
7
iso_b_vert
0
LINE
5
3B3
100
AcDbEntity
8
SK2
62
256
6
ByLayer
370
13
48
1
60
0
100
AcDbLine
10
18
20
-10.0875
30
0
11
18
21
-44.536824
31
0
39
0
210
0
220
0
230
1
0
LINE
5
3B4
100
AcDbEntity
8
SK2
62
256
6
ByLayer
370
13
48
1
60
0
100
AcDbLine
10
106
20
-10.0875
30
0
11
106
21
-44.536824
31
0
39
0
210
0
220
0
230
1
0
LINE
5
3B5
100
AcDbEntity
8
SK2
62
256
6
ByLayer
370
13
48
1
60
0
100
AcDbLine
10
18
20
-41.361824
30
0
11
106
21
-41.361824
31
0
39
0
210
0
220
0
230
1
0
SOLID
5
3B6
100
AcDbEntity
8
SK2
62
256
6
ByLayer
370
18
48
1
60
0
100
AcDbTrace
10
18
20
-41.361824
30
0
11
22.174997
21
-40.436248
31
0
12
22.175003
22
-42.287399
32
0
13
22.175003
23
-42.287399
33
0
39
0
210
0
220
0
230
1
0
SOLID
5
3B7
100
AcDbEntity
8
SK2
62
256
6
ByLayer
370
18
48
1
60
0
100
AcDbTrace
10
106
20
-41.361824
30
0
11
101.825003
21
-42.287399
31
0
12
101.824997
22
-40.436248
32
0
13
101.824997
23
-40.436248
33
0
39
0
210
0
220
0
230
1
0
ENDBLK
5
3B9
100
AcDbEntity
8
0
100
AcDbBlockEnd
0
BLOCK
5
3BE
100
AcDbEntity
8
0
100
AcDbBlockBegin
2
*D9
70
1
10
0
20
0
30
0
3
*D9
0
LINE
5
3C0
100
AcDbEntity
8
0
62
256
6
ByLayer
370
-2
48
1
60
0
100
AcDbLine
10
105.5369
20
-5.8375
30
0
11
105.5369
21
-34.536824
31
0
39
0
210
0
220
0
230
1
0
LINE
5
3C1
100
AcDbEntity
8
0
62
256
6
ByLayer
370
-2
48
1
60
0
100
AcDbLine
10
106
20
-1.5875
30
0
11
106
21
-34.536824
31
0
39
0
210
0
220
0
230
1
0
LINE
5
3C2
100
AcDbEntity
8
0
62
256
6
ByLayer
370
-2
48
1
60
0
100
AcDbLine
10
106
20
-31.361824
30
0
11
142.351786
21
-31.361824
31
0
39
0
210
0
220
0
230
1
0
LINE
5
3C3
100
AcDbEntity
8
0
62
256
6
ByLayer
370
-2
48
1
60
0
100
AcDbLine
10
101.3619
20
-31.361824
30
0
11
97.1869
21
-31.361824
31
0
39
0
210
0
220
0
230
1
0
LINE
5
3C4
100
AcDbEntity
8
0
62
256
6
ByLayer
370
-2
48
1
60
0
100
AcDbLine
10
110.175
20
-31.361824
30
0
11
114.35
21
-31.361824
31
0
39
0
210
0
220
0
230
1
0
SOLID
5
3C5
100
AcDbEntity
8
0
62
256
6
ByLayer
370
-1
48
1
60
0
100
AcDbTrace
10
101.3619
20
-32.057657
30
0
11
101.3619
21
-30.66599
31
0
12
105.5369
22
-31.361824
32
0
13
105.5369
23
-31.361824
33
0
39
0
210
0
220
0
230
1
0
SOLID
5
3C6
100
AcDbEntity
8
0
62
256
6
ByLayer
370
-1
48
1
60
0
100
AcDbTrace
10
110.175
20
-30.66599
30
0
11
110.175
21
-32.057657
31
0
12
106
22
-31.361824
32
0
13
106
23
-31.361824
33
0
39
0
210
0
220
0
230
1
0
MTEXT
5
3C7
100
AcDbEntity
8
0
62
256
6
ByLayer
370
18
48
1
60
0
100
AcDbMText
10
128.350893
20
-21.968074
30
0
210
0
220
0
230
1
1
\A1;0.46
40
4.5
41
0
44
1
50
0
71
5
72
5
7
iso_b_vert
0
POINT
5
3C8
100
AcDbEntity
8
Defpoints
62
0
6
ByLayer
370
-1
48
1
60
0
100
AcDbPoint
10
105.5369
20
-4.25
30
0
39
0
210
0
220
0
230
1
50
360
0
POINT
5
3C9
100
AcDbEntity
8
Defpoints
62
0
6
ByLayer
370
-1
48
1
60
0
100
AcDbPoint
10
106
20
0
30
0
39
0
210
0
220
0
230
1
50
360
0
POINT
5
3CA
100
AcDbEntity
8
Defpoints
62
0
6
ByLayer
370
-1
48
1
60
0
100
AcDbPoint
10
106
20
-31.361824
30
0
39
0
210
0
220
0
230
1
50
360
0
ENDBLK
5
3BF
100
AcDbEntity
8
0
100
AcDbBlockEnd
0
BLOCK
5
3D2
100
AcDbEntity
8
0
100
AcDbBlockBegin
2
_U4
70
0
10
0
20
0
30
0
3
_U4
0
MTEXT
5
3CC
100
AcDbEntity
8
2
62
256
6
ByLayer
370
18
48
1
60
0
100
AcDbMText
10
118.351
20
-30.034152
30
0
210
0
220
0
230
1
1
\W0.7640;0.46
40
4.5
41
0
44
1.084337
50
0
71
7
72
5
7
iso_b_vert
0
LINE
5
3CD
100
AcDbEntity
8
2
62
256
6
ByLayer
370
13
48
1
60
0
100
AcDbLine
10
105.5369
20
-5.8375
30
0
11
105.5369
21
-34.536824
31
0
39
0
210
0
220
0
230
1
0
LINE
5
3CE
100
AcDbEntity
8
2
62
256
6
ByLayer
370
13
48
1
60
0
100
AcDbLine
10
106
20
-1.5875
30
0
11
106
21
-34.536824
31
0
39
0
210
0
220
0
230
1
0
LINE
5
3CF
100
AcDbEntity
8
2
62
256
6
ByLayer
370
13
48
1
60
0
100
AcDbLine
10
129.147698
20
-31.361824
30
0
11
94.2869
21
-31.361824
31
0
39
0
210
0
220
0
230
1
0
SOLID
5
3D0
100
AcDbEntity
8
2
62
256
6
ByLayer
370
18
48
1
60
0
100
AcDbTrace
10
105.5369
20
-31.361824
30
0
11
101.361903
21
-32.287399
31
0
12
101.361897
22
-30.436248
32
0
13
101.361897
23
-30.436248
33
0
39
0
210
0
220
0
230
1
0
SOLID
5
3D1
100
AcDbEntity
8
2
62
256
6
ByLayer
370
18
48
1
60
0
100
AcDbTrace
10
106
20
-31.361824
30
0
11
110.174997
21
-30.436248
31
0
12
110.175003
22
-32.287399
32
0
13
110.175003
23
-32.287399
33
0
39
0
210
0
220
0
230
1
0
ENDBLK
5
3D3
100
AcDbEntity
8
0
100
AcDbBlockEnd
0
ENDSEC
0
SECTION
2
ENTITIES
0
ARC
5
184
100
AcDbEntity
8
SK1
62
256
6
ByLayer
370
13
48
1
60
0
100
AcDbCircle
39
0
10
-47.894505
20
-10.3968
30
0
40
0.800000000000004
210
0
220
0
230
1
100
AcDbArc
50
70.982
51
141
0
ARC
5
185
100
AcDbEntity
8
SK1
62
256
6
ByLayer
370
13
48
1
60
0
100
AcDbCircle
39
0
10
-47.894505
20
10.3968
30
0
40
0.800000000000004
210
0
220
0
230
1
100
AcDbArc
50
219
51
289.018
0
ARC
5
186
100
AcDbEntity
8
SK1
62
256
6
ByLayer
370
13
48
1
60
0
100
AcDbCircle
39
0
10
-0.15
20
10.14675
30
0
40
0.399999999999999
210
0
220
0
230
1
100
AcDbArc
50
270
51
292.024313
0
ARC
5
187
100
AcDbEntity
8
SK1
62
256
6
ByLayer
370
13
48
1
60
0
100
AcDbCircle
39
0
10
-0.15
20
-10.14675
30
0
40
0.399999999999999
210
0
220
0
230
1
100
AcDbArc
50
67.975687
51
90
0
ARC
5
188
100
AcDbEntity
8
SK1
62
256
6
ByLayer
370
13
48
1
60
0
100
AcDbCircle
39
0
10
-1.375195
20
10.14675
30
0
40
0.400000000000001
210
0
220
0
230
1
100
AcDbArc
50
245
51
270
0
ARC
5
189
100
AcDbEntity
8
SK1
62
256
6
ByLayer
370
13
48
1
60
0
100
AcDbCircle
39
0
10
-1.375195
20
-10.14675
30
0
40
0.400000000000001
210
0
220
0
230
1
100
AcDbArc
50
90
51
115
0
ARC
5
18A
100
AcDbEntity
8
1
62
256
6
ByLayer
370
13
48
1
60
0
100
AcDbCircle
39
0
10
104.351672
20
7.894457
30
0
40
0.075
210
0
220
0
230
1
100
AcDbArc
50
8.974534
51
93
0
ARC
5
18B
100
AcDbEntity
8
1
62
256
6
ByLayer
370
13
48
1
60
0
100
AcDbCircle
39
0
10
104.379489
20
3.639419
30
0
40
0.075
210
0
220
0
230
1
100
AcDbArc
50
273
51
352.543899
0
ARC
5
18C
100
AcDbEntity
8
1
62
256
6
ByLayer
370
13
48
1
60
0
100
AcDbCircle
39
0
10
99.077816
20
7.522202
30
0
40
0.075
210
0
220
0
230
1
100
AcDbArc
50
71.092405
51
93
0
ARC
5
18D
100
AcDbEntity
8
1
62
256
6
ByLayer
370
13
48
1
60
0
100
AcDbCircle
39
0
10
99.105633
20
3.267163
30
0
40
0.075
210
0
220
0
230
1
100
AcDbArc
50
273
51
303.323645
0
ELLIPSE
5
18E
100
AcDbEntity
8
1
62
256
6
ByLayer
370
18
48
1
60
0
100
AcDbEllipse
10
101.658252
20
5.577121
30
0
11
0.0354942455239592
21
-0.677270550470552
31
0
210
0
220
0
230
1
40
0.995725
41
-1.90344470103223
42
-1.21869270683776
0
ELLIPSE
5
18F
100
AcDbEntity
8
1
62
256
6
ByLayer
370
18
48
1
60
0
100
AcDbEllipse
10
101.712762
20
5.579978
30
0
11
-0.0693451420218923
21
1.32318413354981
31
0
210
0
220
0
230
1
40
0.995725
41
0
42
6.28318530717959
0
ELLIPSE
5
190
100
AcDbEntity
8
1
62
256
6
ByLayer
370
18
48
1
60
0
100
AcDbEllipse
10
102.350708
20
5.222675
30
0
11
-0.0928160042491961
21
-0.183547697067589
31
0
210
0
220
0
230
1
40
0.49529
41
-2.73559040010671
42
-1.57323145715537
0
ELLIPSE
5
191
100
AcDbEntity
8
1
62
256
6
ByLayer
370
18
48
1
60
0
100
AcDbEllipse
10
101.726974
20
5.580722
30
0
11
0.0458619984556848
21
-0.875099061305433
31
0
210
0
220
0
230
1
40
0.995725
41
-2.6179938779915
42
-1.5707963267949
0
ELLIPSE
5
192
100
AcDbEntity
8
1
62
256
6
ByLayer
370
18
48
1
60
0
100
AcDbEllipse
10
101.658252
20
5.577121
30
0
11
-0.0354942455239603
21
0.677270550470552
31
0
210
0
220
0
230
1
40
0.995725
41
-3.04305800877153
42
-2.09439510239322
0
ELLIPSE
5
193
100
AcDbEntity
8
1
62
256
6
ByLayer
370
18
48
1
60
0
100
AcDbEllipse
10
101.726974
20
5.580722
30
0
11
0.0458619984556848
21
-0.875099061305433
31
0
210
0
220
0
230
1
40
0.995725
41
2.61799387799149
42
-2.6179938779915
0
ELLIPSE
5
194
100
AcDbEntity
8
1
62
256
6
ByLayer
370
18
48
1
60
0
100
AcDbEllipse
10
101.726974
20
5.580722
30
0
11
0.0458619984556848
21
-0.875099061305433
31
0
210
0
220
0
230
1
40
0.995725
41
-0.523598775598313
42
0.523598775598258
0
ELLIPSE
5
195
100
AcDbEntity
8
1
62
256
6
ByLayer
370
18
48
1
60
0
100
AcDbEllipse
10
101.658252
20
5.577121
30
0
11
0.0354942455239592
21
-0.677270550470552
31
0
210
0
220
0
230
1
40
0.995725
41
2.09439510239322
42
-3.14159265358977
0
ELLIPSE
5
196
100
AcDbEntity
8
1
62
256
6
ByLayer
370
18
48
1
60
0
100
AcDbEllipse
10
102.008034
20
6.266762
30
0
11
-0.182583136812146
21
0.0937395545243993
31
0
210
0
220
0
230
1
40
0.497416
41
2.95779077331566
42
-0.697449354237918
0
ELLIPSE
5
197
100
AcDbEntity
8
1
62
256
6
ByLayer
370
18
48
1
60
0
100
AcDbEllipse
10
101.308471
20
4.887479
30
0
11
-0.182583136812143
21
0.0937395545243916
31
0
210
0
220
0
230
1
40
0.497416
41
2.44414183573153
42
-2.95288588122192
0
ELLIPSE
5
198
100
AcDbEntity
8
1
62
256
6
ByLayer
370
18
48
1
60
0
100
AcDbEllipse
10
101.658252
20
5.577121
30
0
11
0.0354942455239592
21
-0.677270550470552
31
0
210
0
220
0
230
1
40
0.995725
41
1.04719755119659
42
2.0943951023932
0
ELLIPSE
5
199
100
AcDbEntity
8
1
62
256
6
ByLayer
370
18
48
1
60
0
100
AcDbEllipse
10
102.427987
20
5.617461
30
0
11
-0.0107759733904251
21
0.205617821205965
31
0
210
0
220
0
230
1
40
0.494235
41
-2.9194371863829
42
-0.513708864212065
0
ELLIPSE
5
19A
100
AcDbEntity
8
1
62
256
6
ByLayer
370
18
48
1
60
0
100
AcDbEllipse
10
101.658252
20
5.577121
30
0
11
0.0354942455239592
21
-0.677270550470552
31
0
210
0
220
0
230
1
40
0.995725
41
3.14159265358979
42
-2.32785514401905
0
ELLIPSE
5
19B
100
AcDbEntity
8
1
62
256
6
ByLayer
370
18
48
1
60
0
100
AcDbEllipse
10
102.309865
20
6.002006
30
0
11
-0.111493507176213
21
0.172840289282492
31
0
210
0
220
0
230
1
40
0.49529
41
0.410872514165564
42
1.57323145713739
0
ELLIPSE
5
19C
100
AcDbEntity
8
1
62
256
6
ByLayer
370
18
48
1
60
0
100
AcDbEllipse
10
101.726974
20
5.580722
30
0
11
0.0458619984556848
21
-0.875099061305433
31
0
210
0
220
0
230
1
40
0.995725
41
0.523598775598258
42
1.5707963267949
0
ELLIPSE
5
19D
100
AcDbEntity
8
1
62
256
6
ByLayer
370
18
48
1
60
0
100
AcDbEllipse
10
101.699095
20
4.79779
30
0
11
-0.204738742961854
21
-0.0107299028517334
31
0
210
0
220
0
230
1
40
0.498489
41
-1.5707963267949
42
-0.408437383825723
0
ELLIPSE
5
19E
100
AcDbEntity
8
1
62
256
6
ByLayer
370
18
48
1
60
0
100
AcDbEllipse
10
102.078205
20
4.927819
30
0
11
-0.171784475702869
21
-0.112311174146136
31
0
210
0
220
0
230
1
40
0.497416
41
0.58620748038105
42
-2.95779077331594
0
ELLIPSE
5
19F
100
AcDbEntity
8
1
62
256
6
ByLayer
370
18
48
1
60
0
100
AcDbEllipse
10
102.309865
20
6.002006
30
0
11
-0.111493507176824
21
0.172840289281823
31
0
210
0
220
0
230
1
40
0.49529
41
1.57323145712758
42
2.73559040010075
0
ELLIPSE
5
1A0
100
AcDbEntity
8
1
62
256
6
ByLayer
370
18
48
1
60
0
100
AcDbEllipse
10
101.658252
20
5.577121
30
0
11
0.0354942455239592
21
-0.677270550470552
31
0
210
0
220
0
230
1
40
0.995725
41
-0.78935802684515
42
-2.1043743654376E-14
0
ELLIPSE
5
1A1
100
AcDbEntity
8
1
62
256
6
ByLayer
370
18
48
1
60
0
100
AcDbEllipse
10
101.667016
20
5.57758
30
0
11
-0.0693451420218923
21
1.32318413354981
31
0
210
0
220
0
230
1
40
0.995725
41
9.22038546243867E-05
42
3.14158645645111
0
ELLIPSE
5
1A2
100
AcDbEntity
8
1
62
256
6
ByLayer
370
18
48
1
60
0
100
AcDbEllipse
10
101.726974
20
5.580722
30
0
11
-0.0497191584307907
21
0.948698058016845
31
0
210
0
220
0
230
1
40
0.995725
41
0
42
6.28318530717959
0
ELLIPSE
5
1A3
100
AcDbEntity
8
1
62
256
6
ByLayer
370
18
48
1
60
0
100
AcDbEllipse
10
101.2383
20
6.226422
30
0
11
-0.171784475702869
21
-0.112311174146137
31
0
210
0
220
0
230
1
40
0.497416
41
2.95288588122186
42
-2.55538359160663
0
ELLIPSE
5
1A4
100
AcDbEntity
8
1
62
256
6
ByLayer
370
18
48
1
60
0
100
AcDbEllipse
10
102.350708
20
5.222675
30
0
11
-0.0928160042462185
21
-0.183547697060934
31
0
210
0
220
0
230
1
40
0.49529
41
-1.57323145715249
42
-0.410872514168102
0
ELLIPSE
5
1A5
100
AcDbEntity
8
1
62
256
6
ByLayer
370
18
48
1
60
0
100
AcDbEllipse
10
101.726974
20
5.580722
30
0
11
0.0458619984556848
21
-0.875099061305433
31
0
210
0
220
0
230
1
40
0.995725
41
-1.5707963267949
42
-0.523598775598313
0
ELLIPSE
5
1A6
100
AcDbEntity
8
1
62
256
6
ByLayer
370
18
48
1
60
0
100
AcDbEllipse
10
101.617409
20
6.356451
30
0
11
-0.204738742961346
21
-0.010729902851616
31
0
210
0
220
0
230
1
40
0.498489
41
0.408437383826236
42
1.5707963267949
0
ELLIPSE
5
1A7
100
AcDbEntity
8
1
62
256
6
ByLayer
370
18
48
1
60
0
100
AcDbEllipse
10
101.726974
20
5.580722
30
0
11
0.0458619984556848
21
-0.875099061305433
31
0
210
0
220
0
230
1
40
0.995725
41
1.5707963267949
42
2.61799387799149
0
ELLIPSE
5
1A8
100
AcDbEntity
8
1
62
256
6
ByLayer
370
18
48
1
60
0
100
AcDbEllipse
10
102.960611
20
-1.728925
30
0
11
-0.7
21
7.07447338557654E-16
31
0
210
0
220
0
230
1
40
0.994522
41
3.14159193948383
42
-3.18953807421383E-16
0
ELLIPSE
5
1A9
100
AcDbEntity
8
1
62
256
6
ByLayer
370
18
48
1
60
0
100
AcDbEllipse
10
102.960611
20
-1.728925
30
0
11
-0.7
21
7.07447338557654E-16
31
0
210
0
220
0
230
1
40
0.994522
41
0
42
1.33596192677558
0
ELLIPSE
5
1AA
100
AcDbEntity
8
1
62
256
6
ByLayer
370
18
48
1
60
0
100
AcDbEllipse
10
102.960611
20
-1.728925
30
0
11
-0.7
21
7.07447338557654E-16
31
0
210
0
220
0
230
1
40
0.994522
41
2.51297973038323
42
-3.14159193125535
0
ELLIPSE
5
1AB
100
AcDbEntity
8
1
62
256
6
ByLayer
370
18
48
1
60
0
100
AcDbEllipse
10
102.960611
20
-1.760284
30
0
11
1
21
0
31
0
210
0
220
0
230
1
40
0.994522
41
0.319067769105135
42
3.1415922267719
0
ELLIPSE
5
1AC
100
AcDbEntity
8
1
62
256
6
ByLayer
370
18
48
1
60
0
100
AcDbEllipse
10
102.960611
20
-2.020898
30
0
11
-1.1
21
1.1117029605906E-15
31
0
210
0
220
0
230
1
40
0.994522
41
-0.504421845616982
42
-0.157177596925116
0
ELLIPSE
5
1AD
100
AcDbEntity
8
1
62
256
6
ByLayer
370
18
48
1
60
0
100
AcDbEllipse
10
102.960611
20
-2.109657
30
0
11
-1.1
21
1.1117029605906E-15
31
0
210
0
220
0
230
1
40
0.994522
41
-0.446008124491143
42
-0.221482698114073
0
ELLIPSE
5
1AE
100
AcDbEntity
8
1
62
256
6
ByLayer
370
13
48
1
60
0
100
AcDbEllipse
10
103.776494
20
2.218378
30
0
11
-0.0680367431158189
21
1.29821839518094
31
0
210
0
220
0
230
1
40
0.995725
41
-0.88366871662977
42
-0.855518971143652
0
ELLIPSE
5
1AF
100
AcDbEntity
8
1
62
256
6
ByLayer
370
13
48
1
60
0
100
AcDbEllipse
10
98.574151
20
5.166794
30
0
11
-0.148163665863161
21
-0.0233993187505451
31
0
210
0
220
0
230
1
40
0.009655
41
-3.04959407911374
42
-1.4787977523211
0
ELLIPSE
5
1B0
100
AcDbEntity
8
1
62
256
6
ByLayer
370
13
48
1
60
0
100
AcDbEllipse
10
105.428116
20
3.785814
30
0
11
0.0078503934364406
21
-0.14979443021319
31
0
210
0
220
0
230
1
40
0.995725
41
0.0959931088594398
42
1.38753675533577
0
ELLIPSE
5
1B1
100
AcDbEntity
8
1
62
256
6
ByLayer
370
13
48
1
60
0
100
AcDbEllipse
10
98.942504
20
3.153561
30
0
11
0.00523359562429355
21
-0.0998629534754566
31
0
210
0
220
0
230
1
40
0.995725
41
0.657926248777077
42
1.67551608191476
0
ELLIPSE
5
1B2
100
AcDbEntity
8
1
62
256
6
ByLayer
370
13
48
1
60
0
100
AcDbEllipse
10
104.829229
20
8.269485
30
0
11
-0.00653729335064164
21
0.149857478277354
31
0
210
0
220
0
230
1
40
0.092367
41
0.000809536045656119
42
1.57160586284012
0
ELLIPSE
5
1B3
100
AcDbEntity
8
1
62
256
6
ByLayer
370
13
48
1
60
0
100
AcDbEllipse
10
105.192858
20
8.124067
30
0
11
0.0157007868728809
21
-0.299588860426374
31
0
210
0
220
0
230
1
40
0.995725
41
1.67551608191452
42
3.07534344057169
0
ELLIPSE
5
1B4
100
AcDbEntity
8
1
62
256
6
ByLayer
370
13
48
1
60
0
100
AcDbEllipse
10
98.3584
20
11.635388
30
0
11
-0.457939617125705
21
8.73800842910253
31
0
210
0
220
0
230
1
40
0.995725
41
3.07534344057168
42
3.10312211148826
0
ELLIPSE
5
1B5
100
AcDbEntity
8
1
62
256
6
ByLayer
370
13
48
1
60
0
100
AcDbEllipse
10
98.618852
20
2.891652
30
0
11
0.00653729335064122
21
-0.149857478277354
31
0
210
0
220
0
230
1
40
0.092367
41
-1.56998679074968
42
-0.0232440763767441
0
ELLIPSE
5
1B6
100
AcDbEntity
8
1
62
256
6
ByLayer
370
13
48
1
60
0
100
AcDbEllipse
10
104.877164
20
5.750428
30
0
11
0.148731686424787
21
-0.0194649801756591
31
0
210
0
220
0
230
1
40
0.016833
41
-2.87064472766189
42
-1.66175841710548
0
ELLIPSE
5
1B7
100
AcDbEntity
8
1
62
256
6
ByLayer
370
13
48
1
60
0
100
AcDbEllipse
10
98.024577
20
7.375565
30
0
11
-0.148731686424785
21
0.019464980175674
31
0
210
0
220
0
230
1
40
0.016833
41
0.263130755735805
42
1.47983423648422
0
ELLIPSE
5
1B8
100
AcDbEntity
8
1
62
256
6
ByLayer
370
13
48
1
60
0
100
AcDbEllipse
10
98.79766
20
5.381533
30
0
11
-0.0743658432123926
21
0.009732490087837
31
0
210
0
220
0
230
1
40
0.016833
41
-1.6617584171057
42
-0.0909620903112785
0
ELLIPSE
5
1B9
100
AcDbEntity
8
1
62
256
6
ByLayer
370
13
48
1
60
0
100
AcDbEllipse
10
98.547007
20
2.888518
30
0
11
0.00653729335064122
21
-0.149857478277354
31
0
210
0
220
0
230
1
40
0.092367
41
-1.56998679074968
42
0.000809536045688171
0
ELLIPSE
5
1BA
100
AcDbEntity
8
1
62
256
6
ByLayer
370
13
48
1
60
0
100
AcDbEllipse
10
98.844139
20
7.498392
30
0
11
-0.0435852065162711
21
-0.158111345861664
31
0
210
0
220
0
230
1
40
0.080185
41
-3.11490714533286
42
-1.54411081852398
0
ELLIPSE
5
1BB
100
AcDbEntity
8
1
62
256
6
ByLayer
370
13
48
1
60
0
100
AcDbEllipse
10
105.19747
20
8.124309
30
0
11
0.0157007868728809
21
-0.299588860426374
31
0
210
0
220
0
230
1
40
0.995725
41
1.6755160819149
42
3.07534344057202
0
ELLIPSE
5
1BC
100
AcDbEntity
8
1
62
256
6
ByLayer
370
13
48
1
60
0
100
AcDbEllipse
10
105.69461
20
5.904495
30
0
11
0.148163665863162
21
0.0233993187505373
31
0
210
0
220
0
230
1
40
0.009655
41
0.0919985744766709
42
1.6627949012687
0
ELLIPSE
5
1BD
100
AcDbEntity
8
1
62
256
6
ByLayer
370
13
48
1
60
0
100
AcDbEllipse
10
99.177952
20
8.916889
30
0
11
-1.29314721120528
21
0.892905666894463
31
0
210
0
220
0
230
1
40
0.704848
41
1.51718378636614
42
1.88902464368182
0
ELLIPSE
5
1BE
100
AcDbEntity
8
1
62
256
6
ByLayer
370
13
48
1
60
0
100
AcDbEllipse
10
103.536029
20
9.145286
30
0
11
-0.0680367431158189
21
1.29821839518094
31
0
210
0
220
0
230
1
40
0.995725
41
-3.1415926535894
42
-2.2397617698087
0
ELLIPSE
5
1BF
100
AcDbEntity
8
1
62
256
6
ByLayer
370
13
48
1
60
0
100
AcDbEllipse
10
103.51758
20
9.144319
30
0
11
0.0811207321765507
21
-1.54787577886959
31
0
210
0
220
0
230
1
40
0.995725
41
0.676021157721302
42
0.901830883780711
0
ELLIPSE
5
1C0
100
AcDbEntity
8
1
62
256
6
ByLayer
370
13
48
1
60
0
100
AcDbEllipse
10
103.536029
20
9.145286
30
0
11
-0.0732703387401125
21
1.3980813486564
31
0
210
0
220
0
230
1
40
0.995725
41
-2.48366640481238
42
-2.2397617698087
0
ELLIPSE
5
1C1
100
AcDbEntity
8
1
62
256
6
ByLayer
370
13
48
1
60
0
100
AcDbEllipse
10
99.921277
20
2.016335
30
0
11
-0.0732703387401125
21
1.3980813486564
31
0
210
0
220
0
230
1
40
0.995725
41
0.657926248776661
42
0.901830883780339
0
ELLIPSE
5
1C2
100
AcDbEntity
8
1
62
256
6
ByLayer
370
13
48
1
60
0
100
AcDbEllipse
10
104.95288
20
8.274104
30
0
11
-0.00205858338350416
21
0.149985873449646
31
0
210
0
220
0
230
1
40
0.092302
41
0.00356790892017845
42
1.57436423571418
0
ELLIPSE
5
1C3
100
AcDbEntity
8
1
62
256
6
ByLayer
370
13
48
1
60
0
100
AcDbEllipse
10
103.65427
20
2.211972
30
0
11
0.0680367431158169
21
-1.29821839518095
31
0
210
0
220
0
230
1
40
0.995725
41
2.23976176980944
42
-3.14159265358943
0
ELLIPSE
5
1C4
100
AcDbEntity
8
1
62
256
6
ByLayer
370
13
48
1
60
0
100
AcDbEllipse
10
99.921277
20
2.016335
30
0
11
-0.0680367431158189
21
1.29821839518094
31
0
210
0
220
0
230
1
40
0.995725
41
0
42
0.901830883780323
0
ELLIPSE
5
1C5
100
AcDbEntity
8
1
62
256
6
ByLayer
370
13
48
1
60
0
100
AcDbEllipse
10
101.625551
20
7.54811
30
0
11
0.0039251967182202
21
-0.0748972151065931
31
0
210
0
220
0
230
1
40
0.092371
41
1.5707963267949
42
3.14159265358979
0
ELLIPSE
5
1C6
100
AcDbEntity
8
1
62
256
6
ByLayer
370
13
48
1
60
0
100
AcDbEllipse
10
104.351672
20
7.894457
30
0
11
-0.0740818329315805
21
-0.0116996593752725
31
0
210
0
220
0
230
1
40
0.009655
41
1.66279490126857
42
3.14137689881592
0
ELLIPSE
5
1C7
100
AcDbEntity
8
1
62
256
6
ByLayer
370
13
48
1
60
0
100
AcDbEllipse
10
101.735571
20
5.581173
30
0
11
0.0757589256077679
21
-1.44556641483747
31
0
210
0
220
0
230
1
40
0.995725
41
0
42
6.28318530717959
0
ELLIPSE
5
1C8
100
AcDbEntity
8
1
62
256
6
ByLayer
370
13
48
1
60
0
100
AcDbEllipse
10
97.975841
20
7.717888
30
0
11
-0.0436502645103649
21
-0.255492761883035
31
0
210
0
220
0
230
1
40
0.960623
41
-2.83535486662009
42
-1.53011605208662
0
ELLIPSE
5
1C9
100
AcDbEntity
8
1
62
256
6
ByLayer
370
13
48
1
60
0
100
AcDbEllipse
10
98.539695
20
2.99993
30
0
11
0.0209560818654708
21
-0.399865862514332
31
0
210
0
220
0
230
1
40
0.995725
41
0.43530736202697
42
0.901830883780172
0
ELLIPSE
5
1CA
100
AcDbEntity
8
1
62
256
6
ByLayer
370
13
48
1
60
0
100
AcDbEllipse
10
98.314589
20
7.815641
30
0
11
-0.492925138868106
21
0.303452289538128
31
0
210
0
220
0
230
1
40
0.479615
41
-1.50905674742438
42
-1.04253322570124
0
ELLIPSE
5
1CB
100
AcDbEntity
8
1
62
256
6
ByLayer
370
13
48
1
60
0
100
AcDbEllipse
10
99.105633
20
3.267163
30
0
11
0.0412025770551228
21
-0.0626685538688797
31
0
210
0
220
0
230
1
40
0.07982
41
-6.26840241825658E-05
42
1.52414298346511
0
ELLIPSE
5
1CC
100
AcDbEntity
8
1
62
256
6
ByLayer
370
13
48
1
60
0
100
AcDbEllipse
10
98.028118
20
7.367329
30
0
11
-0.043650264504132
21
-0.255492761884697
31
0
210
0
220
0
230
1
40
0.960623
41
-2.8353548666431
42
-1.53011605211228
0
ELLIPSE
5
1CD
100
AcDbEntity
8
1
62
256
6
ByLayer
370
13
48
1
60
0
100
AcDbEllipse
10
105.194899
20
8.27405
30
0
11
0.00212587133337144
21
0.149984934813714
31
0
210
0
220
0
230
1
40
0.092168
41
0.00614118188215097
42
1.57693750867728
0
ELLIPSE
5
1CE
100
AcDbEntity
8
1
62
256
6
ByLayer
370
13
48
1
60
0
100
AcDbEllipse
10
98.456771
20
4.636124
30
0
11
-0.0915879234251411
21
1.74760168582051
31
0
210
0
220
0
230
1
40
0.995725
41
3.10312211148824
42
3.13286600732981
0
ELLIPSE
5
1CF
100
AcDbEntity
8
1
62
256
6
ByLayer
370
13
48
1
60
0
100
AcDbEllipse
10
99.410077
20
5.299574
30
0
11
-0.0366351693700563
21
0.699040674328202
31
0
210
0
220
0
230
1
40
0.995725
41
1.38753675533552
42
1.67551608191457
0
ELLIPSE
5
1D0
100
AcDbEntity
8
1
62
256
6
ByLayer
370
13
48
1
60
0
100
AcDbEllipse
10
104.790787
20
8.248455
30
0
11
0.122557354636342
21
-0.0864852289384841
31
0
210
0
220
0
230
1
40
0.057286
41
-2.90972420640155
42
-1.64344076612772
0
ELLIPSE
5
1D1
100
AcDbEntity
8
1
62
256
6
ByLayer
370
13
48
1
60
0
100
AcDbEllipse
10
101.665933
20
5.577523
30
0
11
0.0699521520797022
21
-1.33476657543375
31
0
210
0
220
0
230
1
40
0.995725
41
2.87563155024229
42
-1.62293252536887
0
ELLIPSE
5
1D2
100
AcDbEntity
8
1
62
256
6
ByLayer
370
13
48
1
60
0
100
AcDbEllipse
10
101.665933
20
5.577523
30
0
11
0.0699521520797022
21
-1.33476657543375
31
0
210
0
220
0
230
1
40
0.995725
41
-1.62293252536887
42
-0.016989452914326
0
ELLIPSE
5
1D3
100
AcDbEntity
8
1
62
256
6
ByLayer
370
13
48
1
60
0
100
AcDbEllipse
10
99.077816
20
7.522202
30
0
11
0.0039251967182202
21
-0.0748972151065931
31
0
210
0
220
0
230
1
40
0.995725
41
-3.14157648440081
42
-1.7540558982547
0
ELLIPSE
5
1D4
100
AcDbEntity
8
1
62
256
6
ByLayer
370
13
48
1
60
0
100
AcDbEllipse
10
99.558588
20
8.936837
30
0
11
-0.0680367431158189
21
1.29821839518094
31
0
210
0
220
0
230
1
40
0.995725
41
2.62976479431566
42
3.14159265358942
0
ELLIPSE
5
1D5
100
AcDbEntity
8
1
62
256
6
ByLayer
370
13
48
1
60
0
100
AcDbEllipse
10
105.075845
20
-0.474976
30
0
11
0.465790010562131
21
-8.88780285931572
31
0
210
0
220
0
230
1
40
0.995725
41
3.07534344057168
42
3.10312211148826
0
ELLIPSE
5
1D6
100
AcDbEntity
8
1
62
256
6
ByLayer
370
13
48
1
60
0
100
AcDbEllipse
10
99.902828
20
2.015368
30
0
11
0.0811207321765507
21
-1.54787577886959
31
0
210
0
220
0
230
1
40
0.995725
41
-2.4655714958685
42
-2.2397617698091
0
ELLIPSE
5
1D7
100
AcDbEntity
8
1
62
256
6
ByLayer
370
13
48
1
60
0
100
AcDbEllipse
10
98.02919
20
7.375806
30
0
11
0.0078503934364406
21
-0.14979443021319
31
0
210
0
220
0
230
1
40
0.995725
41
-3.04559954473113
42
-1.75405589825479
0
ELLIPSE
5
1D8
100
AcDbEntity
8
1
62
256
6
ByLayer
370
13
48
1
60
0
100
AcDbEllipse
10
103.14244
20
2.185149
30
0
11
-1.47354186120461
21
-1.1535312281319
31
0
210
0
220
0
230
1
40
0.477356
41
2.83717558743514
42
2.88348749829777
0
ELLIPSE
5
1D9
100
AcDbEntity
8
1
62
256
6
ByLayer
370
13
48
1
60
0
100
AcDbEllipse
10
98.616669
20
2.941604
30
0
11
0.010467191248587
21
-0.199725906950914
31
0
210
0
220
0
230
1
40
0.995725
41
0.0114030181919433
42
0.90183088378055
0
ELLIPSE
5
1DA
100
AcDbEntity
8
1
62
256
6
ByLayer
370
13
48
1
60
0
100
AcDbEllipse
10
104.603942
20
3.662745
30
0
11
-0.0435852065163408
21
-0.158111345862635
31
0
210
0
220
0
230
1
40
0.080185
41
-1.54411081854468
42
0.0266855082569825
0
ELLIPSE
5
1DB
100
AcDbEntity
8
1
62
256
6
ByLayer
370
13
48
1
60
0
100
AcDbEllipse
10
104.024167
20
5.860838
30
0
11
0.0444855628064956
21
-0.848835104541389
31
0
210
0
220
0
230
1
40
0.995725
41
1.38753675533551
42
1.67551608191457
0
ELLIPSE
5
1DC
100
AcDbEntity
8
1
62
256
6
ByLayer
370
13
48
1
60
0
100
AcDbEllipse
10
104.87393
20
5.994343
30
0
11
0.148163665863162
21
0.0233993187505373
31
0
210
0
220
0
230
1
40
0.009655
41
1.66279490126842
42
2.86882079213602
0
ELLIPSE
5
1DD
100
AcDbEntity
8
1
62
256
6
ByLayer
370
13
48
1
60
0
100
AcDbEllipse
10
98.107706
20
3.013639
30
0
11
-0.148163665863161
21
-0.0233993187505451
31
0
210
0
220
0
230
1
40
0.009655
41
-1.47879775232107
42
0.091998574472972
0
ELLIPSE
5
1DE
100
AcDbEntity
8
1
62
256
6
ByLayer
370
13
48
1
60
0
100
AcDbEllipse
10
103.672219
20
9.152423
30
0
11
-1.19272915821753
21
-1.02318492691434
31
0
210
0
220
0
230
1
40
0.704848
41
1.25256800990784
42
1.62440886724579
0
ELLIPSE
5
1DF
100
AcDbEntity
8
1
62
256
6
ByLayer
370
13
48
1
60
0
100
AcDbEllipse
10
98.947116
20
3.153803
30
0
11
0.00523359562429355
21
-0.0998629534754566
31
0
210
0
220
0
230
1
40
0.995725
41
0.657926248776635
42
1.67551608191447
0
ELLIPSE
5
1E0
100
AcDbEntity
8
1
62
256
6
ByLayer
370
13
48
1
60
0
100
AcDbEllipse
10
98.259835
20
3.037312
30
0
11
0.0157007868728809
21
-0.299588860426374
31
0
210
0
220
0
230
1
40
0.995725
41
-1.46607657167565
42
-0.0662492130185384
0
ELLIPSE
5
1E1
100
AcDbEntity
8
1
62
256
6
ByLayer
370
13
48
1
60
0
100
AcDbEllipse
10
99.077816
20
7.522202
30
0
11
-0.0243032116522987
21
-0.0709531810659929
31
0
210
0
220
0
230
1
40
0.085751
41
1.60526761398392
42
-3.10712136640456
0
ELLIPSE
5
1E2
100
AcDbEntity
8
1
62
256
6
ByLayer
370
13
48
1
60
0
100
AcDbEllipse
10
98.241386
20
3.036345
30
0
11
-0.00785039343644074
21
0.149794430213188
31
0
210
0
220
0
230
1
40
0.995725
41
1.67551608191447
42
3.07534344057164
0
ELLIPSE
5
1E3
100
AcDbEntity
8
1
62
256
6
ByLayer
370
13
48
1
60
0
100
AcDbEllipse
10
105.423503
20
3.785573
30
0
11
0.0078503934364406
21
-0.14979443021319
31
0
210
0
220
0
230
1
40
0.995725
41
0.0959931088589542
42
1.38753675533539
0
ELLIPSE
5
1E4
100
AcDbEntity
8
1
62
256
6
ByLayer
370
13
48
1
60
0
100
AcDbEllipse
10
98.800038
20
5.202184
30
0
11
-0.0740818329315805
21
-0.0116996593752725
31
0
210
0
220
0
230
1
40
0.009655
41
0.0919985744797417
42
1.66279490126913
0
ELLIPSE
5
1E5
100
AcDbEntity
8
1
62
256
6
ByLayer
370
13
48
1
60
0
100
AcDbEllipse
10
105.062008
20
-0.475701
30
0
11
-0.457939617125705
21
8.73800842910253
31
0
210
0
220
0
230
1
40
0.995725
41
-0.0662492130181146
42
-0.0384705421015401
0
ELLIPSE
5
1E6
100
AcDbEntity
8
1
62
256
6
ByLayer
370
13
48
1
60
0
100
AcDbEllipse
10
105.423503
20
3.785573
30
0
11
-0.0222321776352785
21
0.148343285246058
31
0
210
0
220
0
230
1
40
0.091945
41
1.56190521945478
42
3.13270154625147
0
ELLIPSE
5
1E7
100
AcDbEntity
8
1
62
256
6
ByLayer
370
13
48
1
60
0
100
AcDbEllipse
10
104.977473
20
6.524288
30
0
11
0.0994383168615783
21
-1.89739611603369
31
0
210
0
220
0
230
1
40
0.995725
41
3.10312211148826
42
3.13286600732981
0
ELLIPSE
5
1E8
100
AcDbEntity
8
1
62
256
6
ByLayer
370
13
48
1
60
0
100
AcDbEllipse
10
97.753471
20
5.256642
30
0
11
-0.148163665863161
21
-0.0233993187505451
31
0
210
0
220
0
230
1
40
0.009655
41
-1.4787977523211
42
-0.00021575475608958
0
ELLIPSE
5
1E9
100
AcDbEntity
8
1
62
256
6
ByLayer
370
13
48
1
60
0
100
AcDbEllipse
10
104.049534
20
5.862167
30
0
11
-0.032709972651836
21
0.624143459221609
31
0
210
0
220
0
230
1
40
0.995725
41
-1.75405589825427
42
-1.46607657167523
0
ELLIPSE
5
1EA
100
AcDbEntity
8
1
62
256
6
ByLayer
370
13
48
1
60
0
100
AcDbEllipse
10
98.906722
20
7.557878
30
0
11
0.00523359562429297
21
-0.0998629534754455
31
0
210
0
220
0
230
1
40
0.995725
41
1.38753675533517
42
-3.04559954473015
0
ELLIPSE
5
1EB
100
AcDbEntity
8
1
62
256
6
ByLayer
370
13
48
1
60
0
100
AcDbEllipse
10
103.898717
20
2.224783
30
0
11
-0.0680367431158189
21
1.29821839518094
31
0
210
0
220
0
230
1
40
0.995725
41
-0.511827859273397
42
3.39986061150969E-13
0
ELLIPSE
5
1EC
100
AcDbEntity
8
1
62
256
6
ByLayer
370
13
48
1
60
0
100
AcDbEllipse
10
98.90211
20
7.557637
30
0
11
0.00523359562429297
21
-0.0998629534754455
31
0
210
0
220
0
230
1
40
0.995725
41
1.38753675533546
42
3.11837220864428
0
ELLIPSE
5
1ED
100
AcDbEntity
8
1
62
256
6
ByLayer
370
13
48
1
60
0
100
AcDbEllipse
10
104.657268
20
5.959437
30
0
11
0.0740818329315811
21
0.0116996593752686
31
0
210
0
220
0
230
1
40
0.009655
41
-1.47879775232142
42
-0.000215754787366706
0
ELLIPSE
5
1EE
100
AcDbEntity
8
1
62
256
6
ByLayer
370
13
48
1
60
0
100
AcDbEllipse
10
98.024577
20
7.375565
30
0
11
0.0222321776352907
21
-0.148343285246057
31
0
210
0
220
0
230
1
40
0.091945
41
-3.05448529856479
42
-1.57968743413501
0
ELLIPSE
5
1EF
100
AcDbEntity
8
1
62
256
6
ByLayer
370
13
48
1
60
0
100
AcDbEllipse
10
103.291582
20
9.132475
30
0
11
0.0680367431158169
21
-1.29821839518095
31
0
210
0
220
0
230
1
40
0.995725
41
0
42
0.511827859274121
0
ELLIPSE
5
1F0
100
AcDbEntity
8
1
62
256
6
ByLayer
370
13
48
1
60
0
100
AcDbEllipse
10
104.645963
20
8.147454
30
0
11
-0.458505441859835
21
-0.353314653387716
31
0
210
0
220
0
230
1
40
0.479615
41
-2.0990594278821
42
-1.63253590613193
0
ELLIPSE
5
1F1
100
AcDbEntity
8
1
62
256
6
ByLayer
370
13
48
1
60
0
100
AcDbEllipse
10
99.39624
20
5.298849
30
0
11
0.0444855628064956
21
-0.848835104541389
31
0
210
0
220
0
230
1
40
0.995725
41
-1.75405589825428
42
-1.46607657167522
0
ELLIPSE
5
1F2
100
AcDbEntity
8
1
62
256
6
ByLayer
370
13
48
1
60
0
100
AcDbEllipse
10
105.237018
20
3.430922
30
0
11
-0.0436502645025839
21
-0.255492761885123
31
0
210
0
220
0
230
1
40
0.960623
41
0.306237786940531
42
1.24144276496482
0
ELLIPSE
5
1F3
100
AcDbEntity
8
1
62
256
6
ByLayer
370
13
48
1
60
0
100
AcDbEllipse
10
104.836024
20
8.219775
30
0
11
0.010467191248587
21
-0.199725906950914
31
0
210
0
220
0
230
1
40
0.995725
41
3.13286600733052
42
-2.23976176980879
0
ELLIPSE
5
1F4
100
AcDbEntity
8
1
62
256
6
ByLayer
370
13
48
1
60
0
100
AcDbEllipse
10
101.831755
20
3.61351
30
0
11
0.0039251967182202
21
-0.0748972151065931
31
0
210
0
220
0
230
1
40
0.092371
41
0
42
1.5707963267949
0
ELLIPSE
5
1F5
100
AcDbEntity
8
1
62
256
6
ByLayer
370
13
48
1
60
0
100
AcDbEllipse
10
104.379489
20
3.639419
30
0
11
-0.0743658432123926
21
0.009732490087837
31
0
210
0
220
0
230
1
40
0.016833
41
-3.14153918952596
42
-1.66175841710453
0
ELLIPSE
5
1F6
100
AcDbEntity
8
1
62
256
6
ByLayer
370
13
48
1
60
0
100
AcDbEllipse
10
99.105633
20
3.267163
30
0
11
0.0039251967182202
21
-0.0748972151065931
31
0
210
0
220
0
230
1
40
0.995725
41
-1.4660765716757
42
-1.55852544903002E-05
0
ELLIPSE
5
1F7
100
AcDbEntity
8
1
62
256
6
ByLayer
370
13
48
1
60
0
100
AcDbEllipse
10
101.681877
20
5.578359
30
0
11
0.0736286858157404
21
-1.40491901818815
31
0
210
0
220
0
230
1
40
0.995725
41
-0.853733629912546
42
0
0
ELLIPSE
5
1F8
100
AcDbEntity
8
1
62
256
6
ByLayer
370
13
48
1
60
0
100
AcDbEllipse
10
101.681877
20
5.578359
30
0
11
0.0736286858157404
21
-1.40491901818815
31
0
210
0
220
0
230
1
40
0.995725
41
0
42
-2.28787081989087
0
ELLIPSE
5
1F9
100
AcDbEntity
8
1
62
256
6
ByLayer
370
13
48
1
60
0
100
AcDbEllipse
10
98.495201
20
2.887033
30
0
11
0.00205858338350387
21
-0.149985873449646
31
0
210
0
220
0
230
1
40
0.092302
41
-1.56722841787561
42
-0.0491492667750985
0
ELLIPSE
5
1FA
100
AcDbEntity
8
1
62
256
6
ByLayer
370
13
48
1
60
0
100
AcDbEllipse
10
97.9056
20
5.280315
30
0
11
0.0157007868728806
21
-0.299588860426368
31
0
210
0
220
0
230
1
40
0.995725
41
-1.7540558982548
42
-1.46607657167565
0
ELLIPSE
5
1FB
100
AcDbEntity
8
1
62
256
6
ByLayer
370
13
48
1
60
0
100
AcDbEllipse
10
99.077816
20
7.522202
30
0
11
0.0743658432123935
21
-0.00973249008782954
31
0
210
0
220
0
230
1
40
0.016833
41
1.47983423648334
42
3.05063056328133
0
ELLIPSE
5
1FC
100
AcDbEntity
8
1
62
256
6
ByLayer
370
13
48
1
60
0
100
AcDbEllipse
10
104.550583
20
3.603742
30
0
11
0.00523359562429297
21
-0.0998629534754455
31
0
210
0
220
0
230
1
40
0.995725
41
-1.75405589825376
42
0.0959931088602051
0
ELLIPSE
5
1FD
100
AcDbEntity
8
1
62
256
6
ByLayer
370
13
48
1
60
0
100
AcDbEllipse
10
104.351672
20
7.894457
30
0
11
-0.041202577055118
21
0.0626685538688828
31
0
210
0
220
0
230
1
40
0.07982
41
-1.61744967012469
42
-0.0466533433315707
0
ELLIPSE
5
1FE
100
AcDbEntity
8
1
62
256
6
ByLayer
370
13
48
1
60
0
100
AcDbEllipse
10
98.802312
20
8.897204
30
0
11
-1.60034889469937
21
0.985199527249991
31
0
210
0
220
0
230
1
40
0.479615
41
1.63253601340058
42
1.65246883528973
0
ELLIPSE
5
1FF
100
AcDbEntity
8
1
62
256
6
ByLayer
370
13
48
1
60
0
100
AcDbEllipse
10
104.351672
20
7.894457
30
0
11
0.0039251967182202
21
-0.0748972151065931
31
0
210
0
220
0
230
1
40
0.995725
41
3.1415848376501
42
-2.61421045510345
0
ELLIPSE
5
200
100
AcDbEntity
8
1
62
256
6
ByLayer
370
13
48
1
60
0
100
AcDbEllipse
10
104.901074
20
8.272619
30
0
11
-0.00653729335064164
21
0.149857478277354
31
0
210
0
220
0
230
1
40
0.092367
41
0.000809536046681799
42
1.57160586284012
0
ELLIPSE
5
201
100
AcDbEntity
8
1
62
256
6
ByLayer
370
13
48
1
60
0
100
AcDbEllipse
10
103.51808
20
2.204835
30
0
11
-1.06244664006132
21
-1.09843634170215
31
0
210
0
220
0
230
1
40
0.695792
41
2.89972207093008
42
-3.01162237895326
0
ELLIPSE
5
202
100
AcDbEntity
8
1
62
256
6
ByLayer
370
13
48
1
60
0
100
AcDbEllipse
10
105.69518
20
5.861452
30
0
11
0.148731686424787
21
-0.0194649801756591
31
0
210
0
220
0
230
1
40
0.016833
41
-1.66175841710548
42
-0.090962090310219
0
ELLIPSE
5
203
100
AcDbEntity
8
1
62
256
6
ByLayer
370
13
48
1
60
0
100
AcDbEllipse
10
105.080457
20
-0.474735
30
0
11
0.465790010562131
21
-8.88780285931572
31
0
210
0
220
0
230
1
40
0.995725
41
3.07534344057206
42
3.10312211148863
0
ELLIPSE
5
204
100
AcDbEntity
8
1
62
256
6
ByLayer
370
13
48
1
60
0
100
AcDbEllipse
10
104.963636
20
6.523563
30
0
11
-0.0915879234251411
21
1.74760168582051
31
0
210
0
220
0
230
1
40
0.995725
41
-0.038470542101555
42
-0.00872664625998702
0
ELLIPSE
5
205
100
AcDbEntity
8
1
62
256
6
ByLayer
370
13
48
1
60
0
100
AcDbEllipse
10
98.376849
20
11.636355
30
0
11
0.465790010562131
21
-8.88780285931572
31
0
210
0
220
0
230
1
40
0.995725
41
-0.0662492130184956
42
-0.0384705421019192
0
ELLIPSE
5
206
100
AcDbEntity
8
1
62
256
6
ByLayer
370
13
48
1
60
0
100
AcDbEllipse
10
105.551705
20
5.881305
30
0
11
0.0157007868728806
21
-0.299588860426368
31
0
210
0
220
0
230
1
40
0.995725
41
1.38753675533577
42
1.6755160819149
0
ELLIPSE
5
207
100
AcDbEntity
8
1
62
256
6
ByLayer
370
13
48
1
60
0
100
AcDbEllipse
10
98.570917
20
5.410709
30
0
11
-0.148731686424785
21
0.019464980175674
31
0
210
0
220
0
230
1
40
0.016833
41
1.47983423648441
42
3.05063056327887
0
ELLIPSE
5
208
100
AcDbEntity
8
1
62
256
6
ByLayer
370
13
48
1
60
0
100
AcDbEllipse
10
98.47522
20
4.637091
30
0
11
0.0994383168615783
21
-1.89739611603369
31
0
210
0
220
0
230
1
40
0.995725
41
-0.0384705421019219
42
-0.00872664626036668
0
ELLIPSE
5
209
100
AcDbEntity
8
1
62
256
6
ByLayer
370
13
48
1
60
0
100
AcDbEllipse
10
99.916664
20
2.016093
30
0
11
-0.0732703387401125
21
1.3980813486564
31
0
210
0
220
0
230
1
40
0.995725
41
0.657926248777022
42
0.901830883780702
0
ELLIPSE
5
20A
100
AcDbEntity
8
1
62
256
6
ByLayer
370
13
48
1
60
0
100
AcDbEllipse
10
104.659646
20
5.780088
30
0
11
0.0743658432123935
21
-0.00973249008782954
31
0
210
0
220
0
230
1
40
0.016833
41
5.34640079019429E-05
42
1.47983423648428
0
ELLIPSE
5
20B
100
AcDbEntity
8
1
62
256
6
ByLayer
370
13
48
1
60
0
100
AcDbEllipse
10
105.340375
20
8.147499
30
0
11
0.148163665863162
21
0.0233993187505373
31
0
210
0
220
0
230
1
40
0.009655
41
0.0919985744735914
42
1.66279490126847
0
ELLIPSE
5
20C
100
AcDbEntity
8
1
62
256
6
ByLayer
370
13
48
1
60
0
100
AcDbEllipse
10
98.844139
20
7.498392
30
0
11
-0.157303252981015
21
-0.0460731444161996
31
0
210
0
220
0
230
1
40
0.019548
41
-3.05924451049727
42
-1.4884481836537
0
ELLIPSE
5
20D
100
AcDbEntity
8
1
62
256
6
ByLayer
370
13
48
1
60
0
100
AcDbEllipse
10
105.533257
20
5.880338
30
0
11
-0.00785039343644039
21
0.149794430213182
31
0
210
0
220
0
230
1
40
0.995725
41
-1.75405589825442
42
-1.46607657167532
0
ELLIPSE
5
20E
100
AcDbEntity
8
1
62
256
6
ByLayer
370
13
48
1
60
0
100
AcDbEllipse
10
104.603942
20
3.662745
30
0
11
-0.15730325298157
21
-0.0460731444165678
31
0
210
0
220
0
230
1
40
0.019548
41
-1.4884481837318
42
-0.271753093938277
0
ELLIPSE
5
20F
100
AcDbEntity
8
1
62
256
6
ByLayer
370
13
48
1
60
0
100
AcDbEllipse
10
97.752901
20
5.299686
30
0
11
-0.148731686424785
21
0.019464980175674
31
0
210
0
220
0
230
1
40
0.016833
41
-0.0909620903105779
42
1.47983423648422
0
ELLIPSE
5
210
100
AcDbEntity
8
1
62
256
6
ByLayer
370
13
48
1
60
0
100
AcDbEllipse
10
105.547093
20
5.881064
30
0
11
0.0157007868728806
21
-0.299588860426368
31
0
210
0
220
0
230
1
40
0.995725
41
1.38753675533538
42
1.67551608191452
0
ELLIPSE
5
211
100
AcDbEntity
8
1
62
256
6
ByLayer
370
13
48
1
60
0
100
AcDbEllipse
10
104.047859
20
9.172109
30
0
11
-1.48859903025496
21
-1.14708299509141
31
0
210
0
220
0
230
1
40
0.479614
41
1.46274488851571
42
1.50905682331745
0
ELLIPSE
5
212
100
AcDbEntity
8
1
62
256
6
ByLayer
370
13
48
1
60
0
100
AcDbEllipse
10
105.429187
20
3.794291
30
0
11
-0.0436502645111358
21
-0.25549276188288
31
0
210
0
220
0
230
1
40
0.960623
41
0.306237786973005
42
1.61147660150652
0
ELLIPSE
5
213
100
AcDbEntity
8
1
62
256
6
ByLayer
370
13
48
1
60
0
100
AcDbEllipse
10
105.423503
20
3.785573
30
0
11
0.148731686424787
21
-0.0194649801756591
31
0
210
0
220
0
230
1
40
0.016833
41
-1.66175841710548
42
-0.0909620903111033
0
ELLIPSE
5
214
100
AcDbEntity
8
1
62
256
6
ByLayer
370
13
48
1
60
0
100
AcDbEllipse
10
98.621282
20
2.941846
30
0
11
0.010467191248587
21
-0.199725906950914
31
0
210
0
220
0
230
1
40
0.995725
41
-0.00872664626005397
42
0.901830883780279
0
ELLIPSE
5
215
100
AcDbEntity
8
1
62
256
6
ByLayer
370
13
48
1
60
0
100
AcDbEllipse
10
104.982085
20
6.52453
30
0
11
0.0994383168615783
21
-1.89739611603369
31
0
210
0
220
0
230
1
40
0.995725
41
3.10312211148862
42
3.13286600733019
0
ELLIPSE
5
216
100
AcDbEntity
8
1
62
256
6
ByLayer
370
13
48
1
60
0
100
AcDbEllipse
10
99.414689
20
5.299816
30
0
11
0.0366351693700552
21
-0.699040674328202
31
0
210
0
220
0
230
1
40
0.995725
41
-1.75405589825427
42
-1.46607657167522
0
ELLIPSE
5
217
100
AcDbEntity
8
1
62
256
6
ByLayer
370
13
48
1
60
0
100
AcDbEllipse
10
103.413805
20
9.138881
30
0
11
0.0680367431158169
21
-1.29821839518095
31
0
210
0
220
0
230
1
40
0.995725
41
0.855518971143614
42
0.883668716629745
0
ELLIPSE
5
218
100
AcDbEntity
8
1
62
256
6
ByLayer
370
13
48
1
60
0
100
AcDbEllipse
10
98.657294
20
2.912682
30
0
11
-0.122557354636341
21
0.0864852289384846
31
0
210
0
220
0
230
1
40
0.057286
41
1.49815188746179
42
3.06894821425673
0
ELLIPSE
5
219
100
AcDbEntity
8
1
62
256
6
ByLayer
370
13
48
1
60
0
100
AcDbEllipse
10
98.602833
20
2.940879
30
0
11
-0.00261679781214684
21
0.0499314767377279
31
0
210
0
220
0
230
1
40
0.995725
41
3.13286600733024
42
-2.23976176980926
0
ELLIPSE
5
21A
100
AcDbEntity
8
1
62
256
6
ByLayer
370
13
48
1
60
0
100
AcDbEllipse
10
98.253182
20
2.887087
30
0
11
-0.00212587133337213
21
-0.149984934813714
31
0
210
0
220
0
230
1
40
0.092168
41
-1.56465514491251
42
-0.0696346549933291
0
ELLIPSE
5
21B
100
AcDbEntity
8
1
62
256
6
ByLayer
370
13
48
1
60
0
100
AcDbEllipse
10
105.179022
20
8.123342
30
0
11
-0.00785039343644074
21
0.149794430213188
31
0
210
0
220
0
230
1
40
0.995725
41
-1.46607657167532
42
-0.0662492130181585
0
ELLIPSE
5
21C
100
AcDbEntity
8
1
62
256
6
ByLayer
370
13
48
1
60
0
100
AcDbEllipse
10
104.91761
20
8.16169
30
0
11
0.0209560818654708
21
-0.399865862514332
31
0
210
0
220
0
230
1
40
0.995725
41
-2.70628529156216
42
-2.2397617698089
0
ELLIPSE
5
21D
100
AcDbEntity
8
1
62
256
6
ByLayer
370
13
48
1
60
0
100
AcDbEllipse
10
97.887151
20
5.279349
30
0
11
-0.00785039343644039
21
0.149794430213182
31
0
210
0
220
0
230
1
40
0.995725
41
1.38753675533538
42
1.67551608191448
0
ELLIPSE
5
21E
100
AcDbEntity
8
1
62
256
6
ByLayer
370
13
48
1
60
0
100
AcDbEllipse
10
104.379489
20
3.639419
30
0
11
0.0039251967182202
21
-0.0748972151065931
31
0
210
0
220
0
230
1
40
0.995725
41
-0.380878809690169
42
1.96739045264128E-05
0
ELLIPSE
5
21F
100
AcDbEntity
8
1
62
256
6
ByLayer
370
13
48
1
60
0
100
AcDbEllipse
10
104.817575
20
8.218808
30
0
11
-0.00261679781214684
21
0.0499314767377279
31
0
210
0
220
0
230
1
40
0.995725
41
-0.0087266462592719
42
0.901830883780532
0
ELLIPSE
5
220
100
AcDbEntity
8
1
62
256
6
ByLayer
370
13
48
1
60
0
100
AcDbEllipse
10
104.379489
20
3.639419
30
0
11
0.0243032116522963
21
0.0709531810659937
31
0
210
0
220
0
230
1
40
0.085751
41
-3.10712136640007
42
-1.53632503960626
0
ELLIPSE
5
221
100
AcDbEntity
8
1
62
256
6
ByLayer
370
13
48
1
60
0
100
AcDbEllipse
10
104.042616
20
5.861804
30
0
11
0.0366351693700552
21
-0.699040674328202
31
0
210
0
220
0
230
1
40
0.995725
41
1.38753675533552
42
1.67551608191457
0
ELLIPSE
5
222
100
AcDbEntity
8
1
62
256
6
ByLayer
370
13
48
1
60
0
100
AcDbEllipse
10
99.421607
20
5.300179
30
0
11
-0.032709972651836
21
0.624143459221609
31
0
210
0
220
0
230
1
40
0.995725
41
1.38753675533552
42
1.67551608191459
0
ELLIPSE
5
223
100
AcDbEntity
8
1
62
256
6
ByLayer
370
13
48
1
60
0
100
AcDbEllipse
10
99.105633
20
3.267163
30
0
11
0.0740818329315811
21
0.0116996593752686
31
0
210
0
220
0
230
1
40
0.009655
41
-3.04959407911743
42
-1.4787977523201
0
ELLIPSE
5
224
100
AcDbEntity
8
1
62
256
6
ByLayer
370
13
48
1
60
0
100
AcDbEllipse
10
97.990686
20
3.404456
30
0
11
-0.0701174095589014
21
0.24953045073453
31
0
210
0
220
0
230
1
40
0.960623
41
1.53011605213382
42
1.90015045639926
0
ELLIPSE
5
225
100
AcDbEntity
8
1
62
256
6
ByLayer
370
13
48
1
60
0
100
AcDbEllipse
10
104.510189
20
8.007818
30
0
11
0.00523359562429355
21
-0.0998629534754566
31
0
210
0
220
0
230
1
40
0.995725
41
-2.48366640481246
42
-1.4660765716746
0
ELLIPSE
5
226
100
AcDbEntity
8
1
62
256
6
ByLayer
370
13
48
1
60
0
100
AcDbEllipse
10
105.294148
20
0
30
0
11
-1.40706526514684
21
8.28662362758786
31
0
210
0
220
0
230
1
40
0.085662
41
1.53899858956779
42
1.65740219241455
0
ELLIPSE
5
227
100
AcDbEntity
8
1
62
256
6
ByLayer
370
13
48
1
60
0
100
AcDbEllipse
10
105.317026
20
0.045135
30
0
11
-0.0106429372751027
21
0.505599776448176
31
0
210
0
220
0
230
1
40
0.102284
41
-0.119417334517999
42
0.168460411239007
0
ELLIPSE
5
228
100
AcDbEntity
8
1
62
256
6
ByLayer
370
13
48
1
60
0
100
AcDbEllipse
10
98.304551
20
3.433664
30
0
11
-0.0340183715579095
21
0.649109197590473
31
0
210
0
220
0
230
1
40
0.995725
41
1.42343902937248
42
2.2940143736744
0
ELLIPSE
5
229
100
AcDbEntity
8
1
62
256
6
ByLayer
370
13
48
1
60
0
100
AcDbEllipse
10
96.086892
20
2.616481
30
0
11
-3.9687966858411
21
-0.704906654744027
31
0
210
0
220
0
230
1
40
0.015321
41
-3.01817314120137
42
-2.85180693897052
0
ELLIPSE
5
22A
100
AcDbEntity
8
1
62
256
6
ByLayer
370
13
48
1
60
0
100
AcDbEllipse
10
97.706349
20
3.497881
30
0
11
0.497774923884431
21
-0.0471182040388785
31
0
210
0
220
0
230
1
40
0.013562
41
-2.15474624399707
42
-1.66230190308547
0
ELLIPSE
5
22B
100
AcDbEntity
8
1
62
256
6
ByLayer
370
13
48
1
60
0
100
AcDbEllipse
10
98.2288
20
8.228562
30
0
11
-0.261679781214688
21
4.99314767377287
31
0
210
0
220
0
230
1
40
0.995725
41
2.79252680319533
42
2.92987709869105
0
ELLIPSE
5
22C
100
AcDbEntity
8
1
62
256
6
ByLayer
370
13
48
1
60
0
100
AcDbEllipse
10
98.196056
20
3.427978
30
0
11
-1.01442627315502
21
0.817341028695561
31
0
210
0
220
0
230
1
40
0.775936
41
-3.07617439885072
42
-2.843723643139
0
ELLIPSE
5
22D
100
AcDbEntity
8
1
62
256
6
ByLayer
370
13
48
1
60
0
100
AcDbEllipse
10
102.823429
20
-1.625507
30
0
11
-1.1
21
1.1117029605906E-15
31
0
210
0
220
0
230
1
40
0.994522
41
-2.98421861329642
42
-0.145397260753055
0
ELLIPSE
5
22E
100
AcDbEntity
8
1
62
256
6
ByLayer
370
13
48
1
60
0
100
AcDbEllipse
10
97.87413
20
5.609951
30
0
11
-0.143594274823439
21
2.73994198532361
31
0
210
0
220
0
230
1
40
0.016833
41
0.313088593013803
42
0.896385686556434
0
ELLIPSE
5
22F
100
AcDbEntity
8
1
62
256
6
ByLayer
370
13
48
1
60
0
100
AcDbEllipse
10
105.143734
20
-4.356754
30
0
11
-0.0640925521654472
21
-0.515993973703178
31
0
210
0
220
0
230
1
40
0.112986
41
-1.64178081090658
42
-0.0709844841059566
0
ELLIPSE
5
230
100
AcDbEntity
8
1
62
256
6
ByLayer
370
13
48
1
60
0
100
AcDbEllipse
10
112.739776
20
1.6E-05
30
0
11
-89.4601025869171
21
0.0405812623506089
31
0
210
0
220
0
230
1
40
0.092638
41
-1.40203763257878
42
-1.38541506980135
0
ELLIPSE
5
231
100
AcDbEntity
8
1
62
256
6
ByLayer
370
13
48
1
60
0
100
AcDbEllipse
10
109.085942
20
0.411155
30
0
11
-4.02199392854632
21
-0.0175488137186318
31
0
210
0
220
0
230
1
40
0.989074
41
0.0472550746456699
42
0.151915399666185
0
ELLIPSE
5
232
100
AcDbEntity
8
1
62
256
6
ByLayer
370
13
48
1
60
0
100
AcDbEllipse
10
108.573734
20
0.91613
30
0
11
-3.89198187811256
21
-1.33287306628393
31
0
210
0
220
0
230
1
40
0.851941
41
-0.376576290663739
42
-0.22902422134324
0
ELLIPSE
5
233
100
AcDbEntity
8
1
62
256
6
ByLayer
370
13
48
1
60
0
100
AcDbEllipse
10
93.5
20
1.671162
30
0
11
-0.196367239587907
21
5.8635190648137
31
0
210
0
220
0
230
1
40
0.339444
41
-0.540738615032027
42
-0.470087582259632
0
ELLIPSE
5
234
100
AcDbEntity
8
1
62
256
6
ByLayer
370
13
48
1
60
0
100
AcDbEllipse
10
96.668959
20
3.590539
30
0
11
0.0523359562429359
21
-0.998629534754574
31
0
210
0
220
0
230
1
40
0.995725
41
1.42343902937252
42
1.67551608191456
0
ELLIPSE
5
235
100
AcDbEntity
8
1
62
256
6
ByLayer
370
13
48
1
60
0
100
AcDbEllipse
10
96.866487
20
3.452255
30
0
11
-0.293690420649016
21
-0.955900589401955
31
0
210
0
220
0
230
1
40
0.0868
41
-1.53907871771948
42
-0.299535242549005
0
ELLIPSE
5
236
100
AcDbEntity
8
1
62
256
6
ByLayer
370
13
48
1
60
0
100
AcDbEllipse
10
102.251323
20
4.391535
30
0
11
-0.732303155987376
21
-0.908883239146639
31
0
210
0
220
0
230
1
40
0.966608
41
0.713732916595057
42
1.21121301650712
0
ELLIPSE
5
237
100
AcDbEntity
8
1
62
256
6
ByLayer
370
13
48
1
60
0
100
AcDbEllipse
10
99.694695
20
3.426912
30
0
11
0.276595201761486
21
-0.960986521426041
31
0
210
0
220
0
230
1
40
0.090002
41
-1.25648776912571
42
-0.0208700618441181
0
ELLIPSE
5
238
100
AcDbEntity
8
1
62
256
6
ByLayer
370
13
48
1
60
0
100
AcDbEllipse
10
105.36692
20
-0.60757
30
0
11
-0.939987860628073
21
1.4980488811301
31
0
210
0
220
0
230
1
40
0.381386
41
-0.96183307216032
42
-0.792013464667098
0
ELLIPSE
5
239
100
AcDbEntity
8
1
62
256
6
ByLayer
370
13
48
1
60
0
100
AcDbEllipse
10
104.829478
20
-4.571811
30
0
11
-0.0954493795955891
21
-0.79441758773032
31
0
210
0
220
0
230
1
40
0.116962
41
0
42
6.28318530717959
0
ELLIPSE
5
23A
100
AcDbEntity
8
1
62
256
6
ByLayer
370
13
48
1
60
0
100
AcDbEllipse
10
98.052947
20
0
30
0
11
-0.438094304574284
21
8.28740063012253
31
0
210
0
220
0
230
1
40
0.092638
41
-0.136394501181252
42
-0.00209161465489197
0
ELLIPSE
5
23B
100
AcDbEntity
8
1
62
256
6
ByLayer
370
13
48
1
60
0
100
AcDbEllipse
10
102.823429
20
-1.625507
30
0
11
1
21
0
31
0
210
0
220
0
230
1
40
0.994522
41
0
42
-3.1415922267719
0
ELLIPSE
5
23C
100
AcDbEntity
8
1
62
256
6
ByLayer
370
13
48
1
60
0
100
AcDbEllipse
10
98.574365
20
3.447804
30
0
11
0.0601863496793763
21
-1.14842396496776
31
0
210
0
220
0
230
1
40
0.995725
41
-1.7181536242173
42
-1.48716126005399
0
ELLIPSE
5
23D
100
AcDbEntity
8
1
62
256
6
ByLayer
370
13
48
1
60
0
100
AcDbEllipse
10
101.333903
20
-2.046041
30
0
11
-4.0219939915226
21
-0.0175491058459543
31
0
210
0
220
0
230
1
40
0.989074
41
3.00708463589139
42
-2.98967732690835
0
ELLIPSE
5
23E
100
AcDbEntity
8
1
62
256
6
ByLayer
370
13
48
1
60
0
100
AcDbEllipse
10
105.434774
20
-0.312454
30
0
11
-0.0212858745495933
21
1.01119955287622
31
0
210
0
220
0
230
1
40
0.102284
41
0.0729886585315086
42
0.638181363491644
0
ELLIPSE
5
23F
100
AcDbEntity
8
1
62
256
6
ByLayer
370
13
48
1
60
0
100
AcDbEllipse
10
93.5
20
2.116863
30
0
11
-1.5
21
1.51595858262354E-15
31
0
210
0
220
0
230
1
40
0.748122
41
-3.10431751274747
42
-1.68941632709698
0
ELLIPSE
5
240
100
AcDbEntity
8
1
62
256
6
ByLayer
370
13
48
1
60
0
100
AcDbEllipse
10
386.461906
20
0
30
0
11
-431.524422770494
21
6.36778173235912
31
0
210
0
220
0
230
1
40
0.012292
41
0.833372174887628
42
0.85902103220557
0
ELLIPSE
5
241
100
AcDbEntity
8
1
62
256
6
ByLayer
370
13
48
1
60
0
100
AcDbEllipse
10
98.419993
20
4.758147
30
0
11
0.0601863496793763
21
-1.14842396496776
31
0
210
0
220
0
230
1
40
0.995725
41
-1.85185662295887
42
-1.46607657167526
0
ELLIPSE
5
242
100
AcDbEntity
8
1
62
256
6
ByLayer
370
13
48
1
60
0
100
AcDbEllipse
10
105.06728
20
3.888221
30
0
11
-0.018987281959138
21
1.00037110936086
31
0
210
0
220
0
230
1
40
0.104996
41
-3.13808641069029
42
-2.58327537769391
0
ELLIPSE
5
243
100
AcDbEntity
8
1
62
256
6
ByLayer
370
13
48
1
60
0
100
AcDbEllipse
10
103.061488
20
2.982004
30
0
11
-0.318392677340061
21
-0.395166624909041
31
0
210
0
220
0
230
1
40
0.966608
41
-2.26095467857165
42
-1.93037963479168
0
ELLIPSE
5
244
100
AcDbEntity
8
1
62
256
6
ByLayer
370
13
48
1
60
0
100
AcDbEllipse
10
99.169408
20
2.778029
30
0
11
-3.96879668295077
21
-0.704906654219765
31
0
210
0
220
0
230
1
40
0.015321
41
-3.01817314117709
42
-2.85180693886497
0
ELLIPSE
5
245
100
AcDbEntity
8
1
62
256
6
ByLayer
370
13
48
1
60
0
100
AcDbEllipse
10
101.251453
20
3.688242
30
0
11
0.0523359562429359
21
-0.998629534754574
31
0
210
0
220
0
230
1
40
0.092371
41
-1.04719755119669
42
-1.39422406227624E-13
0
ELLIPSE
5
246
100
AcDbEntity
8
1
62
256
6
ByLayer
370
13
48
1
60
0
100
AcDbEllipse
10
97.698524
20
3.749168
30
0
11
0.49387888621054
21
0.0779977291684576
31
0
210
0
220
0
230
1
40
0.009655
41
1.66279490126863
42
2.15342361859071
0
ELLIPSE
5
247
100
AcDbEntity
8
1
62
256
6
ByLayer
370
13
48
1
60
0
100
AcDbEllipse
10
105.948599
20
0
30
0
11
-1.00792315462961
21
-8.28666857107442
31
0
210
0
220
0
230
1
40
0.116466
41
-1.31215487044671
42
-0.0809014205194885
0
ELLIPSE
5
248
100
AcDbEntity
8
1
62
256
6
ByLayer
370
13
48
1
60
0
100
AcDbEllipse
10
98.321044
20
8.233396
30
0
11
0.314015737457616
21
-5.99177720852745
31
0
210
0
220
0
230
1
40
0.995725
41
-5.66687937501976E-06
42
0.226948274703345
0
ELLIPSE
5
249
100
AcDbEntity
8
1
62
256
6
ByLayer
370
13
48
1
60
0
100
AcDbEllipse
10
101.617805
20
-3.302165
30
0
11
-0.314015737457626
21
5.99177720852745
31
0
210
0
220
0
230
1
40
0.995725
41
0
42
0.226948274703346
0
ELLIPSE
5
24A
100
AcDbEntity
8
1
62
256
6
ByLayer
370
13
48
1
60
0
100
AcDbEllipse
10
81.030425
20
0
30
0
11
-89.4601923628756
21
0.0405841141452331
31
0
210
0
220
0
230
1
40
0.092638
41
-1.82960336211645
42
-1.76940684221176
0
ELLIPSE
5
24B
100
AcDbEntity
8
1
62
256
6
ByLayer
370
13
48
1
60
0
100
AcDbEllipse
10
96.510685
20
0.000302
30
0
11
-1.10663562077518
21
-8.28659456717595
31
0
210
0
220
0
230
1
40
0.0904
41
2.98979974724596
42
3.0031529535778
0
ELLIPSE
5
24C
100
AcDbEntity
8
1
62
256
6
ByLayer
370
13
48
1
60
0
100
AcDbEllipse
10
105.437766
20
2.940645
30
0
11
-0.0190690704096099
21
-0.501607022478527
31
0
210
0
220
0
230
1
40
0.195483
41
-0.331356155211539
42
-0.141942490768405
0
ELLIPSE
5
24D
100
AcDbEntity
8
1
62
256
6
ByLayer
370
13
48
1
60
0
100
AcDbEllipse
10
105.387119
20
2.937991
30
0
11
-0.0094936409809892
21
0.500185554713472
31
0
210
0
220
0
230
1
40
0.104996
41
1.92336842010059
42
-2.97843422390416
0
ELLIPSE
5
24E
100
AcDbEntity
8
1
62
256
6
ByLayer
370
13
48
1
60
0
100
AcDbEllipse
10
144.625708
20
-0.01434
30
0
11
-104.254497089826
21
0.0472568819688163
31
0
210
0
220
0
230
1
40
0.088199
41
-1.08827747148276
42
-1.06378766262888
0
ELLIPSE
5
24F
100
AcDbEntity
8
1
62
256
6
ByLayer
370
13
48
1
60
0
100
AcDbEllipse
10
98.350673
20
3.436081
30
0
11
0.0601863496793763
21
-1.14842396496776
31
0
210
0
220
0
230
1
40
0.995725
41
0.0653149256523021
42
1.01160192723488
0
ELLIPSE
5
250
100
AcDbEntity
8
1
62
256
6
ByLayer
370
13
48
1
60
0
100
AcDbEllipse
10
102.823429
20
-1.850243
30
0
11
1
21
0
31
0
210
0
220
0
230
1
40
0.994522
41
2.07138903342771
42
3.02829824635062
0
ELLIPSE
5
251
100
AcDbEntity
8
1
62
256
6
ByLayer
370
13
48
1
60
0
100
AcDbEllipse
10
99.172386
20
3.47232
30
0
11
0.026167978121468
21
-0.499314767377287
31
0
210
0
220
0
230
1
40
0.092371
41
-0.645790707579006
42
-0.395138986075515
0
ELLIPSE
5
252
100
AcDbEntity
8
1
62
256
6
ByLayer
370
13
48
1
60
0
100
AcDbEllipse
10
99.978972
20
2.820456
30
0
11
-0.318392676601382
21
-0.395166625631547
31
0
210
0
220
0
230
1
40
0.966608
41
-2.26095468057255
42
-1.67136891251267
0
ELLIPSE
5
253
100
AcDbEntity
8
1
62
256
6
ByLayer
370
13
48
1
60
0
100
AcDbEllipse
10
98.480116
20
3.442862
30
0
11
-0.732282644268962
21
-0.908895366009466
31
0
210
0
220
0
230
1
40
0.966606
41
1.81545766219548
42
1.84638394025105
0
ELLIPSE
5
254
100
AcDbEntity
8
1
62
256
6
ByLayer
370
13
48
1
60
0
100
AcDbEllipse
10
97.996225
20
8.216373
30
0
11
-4.73602557800089
21
4.1950111409688
31
0
210
0
220
0
230
1
40
0.895524
41
2.57547726551806
42
2.63010324699365
0
ELLIPSE
5
255
100
AcDbEntity
8
1
62
256
6
ByLayer
370
13
48
1
60
0
100
AcDbEllipse
10
97.557064
20
4.644886
30
0
11
0.49387888621054
21
0.0779977291684576
31
0
210
0
220
0
230
1
40
0.009655
41
1.80630216916201
42
2.15261456752558
0
ELLIPSE
5
256
100
AcDbEntity
8
1
62
256
6
ByLayer
370
13
48
1
60
0
100
AcDbEllipse
10
96.938773
20
3.60468
30
0
11
-0.0261679781214688
21
0.499314767377287
31
0
210
0
220
0
230
1
40
0.995725
41
-1.71815362421729
42
-1.46607657167523
0
ELLIPSE
5
257
100
AcDbEntity
8
1
62
256
6
ByLayer
370
13
48
1
60
0
100
AcDbEllipse
10
102.578343
20
-3.251825
30
0
11
-4.73602539484656
21
4.19501170461246
31
0
210
0
220
0
230
1
40
0.895524
41
-0.73843759549158
42
-0.511489320790709
0
ELLIPSE
5
258
100
AcDbEntity
8
1
62
256
6
ByLayer
370
13
48
1
60
0
100
AcDbEllipse
10
93.5
20
2.467382
30
0
11
-1.99984869298806
21
0.0305725056980307
31
0
210
0
220
0
230
1
40
0.804789
41
1.92464704955918
42
1.99107778284935
0
POINT
5
70
100
AcDbEntity
8
1
62
256
6
ByLayer
370
18
48
1
60
0
100
AcDbPoint
10
0
20
0
30
0
39
0
210
0
220
0
230
1
50
360
0
POINT
5
72
100
AcDbEntity
8
80
62
256
6
ByLayer
370
18
48
1
60
0
100
AcDbPoint
10
0
20
0
30
0
39
0
210
0
220
0
230
1
50
360
0
POINT
5
74
100
AcDbEntity
8
81
62
256
6
ByLayer
370
18
48
1
60
0
100
AcDbPoint
10
106
20
0
30
0
39
0
210
0
220
0
230
1
50
360
0
POINT
5
76
100
AcDbEntity
8
1
62
256
6
ByLayer
370
18
48
1
60
1
100
AcDbPoint
10
0
20
-12.5
30
0
39
0
210
0
220
0
230
1
50
360
0
POINT
5
77
100
AcDbEntity
8
1
62
256
6
ByLayer
370
18
48
1
60
1
100
AcDbPoint
10
106
20
-8.5
30
0
39
0
210
0
220
0
230
1
50
360
0
POINT
5
78
100
AcDbEntity
8
1
62
256
6
ByLayer
370
18
48
1
60
1
100
AcDbPoint
10
-50
20
-10
30
0
39
0
210
0
220
0
230
1
50
360
0
POINT
5
79
100
AcDbEntity
8
1
62
256
6
ByLayer
370
18
48
1
60
1
100
AcDbPoint
10
0
20
-12.5
30
0
39
0
210
0
220
0
230
1
50
360
0
POINT
5
7A
100
AcDbEntity
8
1
62
256
6
ByLayer
370
18
48
1
60
1
100
AcDbPoint
10
106
20
-8.5
30
0
39
0
210
0
220
0
230
1
50
360
0
POINT
5
7B
100
AcDbEntity
8
1
62
256
6
ByLayer
370
18
48
1
60
1
100
AcDbPoint
10
5.6851
20
-12.5
30
0
39
0
210
0
220
0
230
1
50
360
0
POINT
5
7C
100
AcDbEntity
8
1
62
256
6
ByLayer
370
18
48
1
60
1
100
AcDbPoint
10
18
20
-8.5
30
0
39
0
210
0
220
0
230
1
50
360
0
POINT
5
7D
100
AcDbEntity
8
1
62
256
6
ByLayer
370
18
48
1
60
1
100
AcDbPoint
10
106
20
-8.5
30
0
39
0
210
0
220
0
230
1
50
360
0
POINT
5
7E
100
AcDbEntity
8
1
62
256
6
ByLayer
370
18
48
1
60
1
100
AcDbPoint
10
105.5369
20
-4.25
30
0
39
0
210
0
220
0
230
1
50
360
0
SPLINE
5
259
100
AcDbEntity
8
SK1
62
256
6
ByLayer
370
13
48
1
60
0
100
AcDbSpline
70
4
71
3
72
22
73
18
40
0
40
0
40
0
40
0
40
0.125
40
0.125
40
0.25
40
0.25
40
0.375
40
0.375
40
0.5
40
0.5
40
0.625
40
0.625
40
0.75
40
0.75
40
0.875
40
0.875
40
1
40
1
40
1
40
1
41
1
10
-48.5162221138915
20
5.74653012019184
30
0
41
1
10
-48.4962717165676
20
5.70411509307604
30
0
41
1
10
-48.4744481286493
20
5.66251618587401
30
0
41
1
10
-48.4263162492782
20
5.58127228682318
30
0
41
1
10
-48.3999960015616
20
5.54166342595173
30
0
41
1
10
-48.3429956160127
20
5.46663893658175
30
0
41
1
10
-48.3122187583147
20
5.43100493137911
30
0
41
1
10
-48.2446974521964
20
5.36466015952055
30
0
41
1
10
-48.2080706079039
20
5.33415989359403
30
0
41
1
10
-48.1296033350615
20
5.2821107739268
30
0
41
1
10
-48.0869687859332
20
5.26011057414678
30
0
41
1
10
-47.9971089626655
20
5.22921407137201
30
0
41
1
10
-47.949775574322
20
5.22044155307054
30
0
41
1
10
-47.855657031502
20
5.21866533237153
30
0
41
1
10
-47.8075889282127
20
5.22577739428078
30
0
41
1
10
-47.7173764675165
20
5.2534559800321
30
0
41
1
10
-47.6738973715372
20
5.27420193786764
30
0
41
1
10
-47.6338131992802
20
5.29933610071174
30
0
0
SPLINE
5
25A
100
AcDbEntity
8
SK1
62
256
6
ByLayer
370
13
48
1
60
0
100
AcDbSpline
70
4
71
3
72
8
73
4
40
0
40
0
40
0
40
0
40
1
40
1
40
1
40
1
41
1
10
-48.5999588949608
20
5.92278394612708
30
0
41
1
10
-48.5718156453072
20
5.86412449774471
30
0
41
1
10
-48.5439002348911
20
5.80537447470007
30
0
41
1
10
-48.5162221138915
20
5.74653012019181
30
0
0
SPLINE
5
25B
100
AcDbEntity
8
SK1
62
256
6
ByLayer
370
13
48
1
60
0
100
AcDbSpline
70
4
71
3
72
8
73
4
40
0
40
0
40
0
40
0
40
1
40
1
40
1
40
1
41
1
10
-50.0000000000002
20
4.01071934601529
30
0
41
1
10
-49.7059271350494
20
4.67037658440432
30
0
41
1
10
-49.3664638363626
20
5.30424925205759
30
0
41
1
10
-49
20
5.92278394612708
30
0
0
SPLINE
5
25C
100
AcDbEntity
8
SK1
62
256
6
ByLayer
370
13
48
1
60
0
100
AcDbSpline
70
4
71
3
72
68
73
64
40
0
40
0
40
0
40
0
40
0.0312499999999998
40
0.0312499999999998
40
0.0468749999999998
40
0.0468749999999998
40
0.0624999999999998
40
0.0624999999999998
40
0.0781249999999998
40
0.0781249999999998
40
0.0937499999999998
40
0.0937499999999998
40
0.125
40
0.125
40
0.140625
40
0.140625
40
0.15625
40
0.15625
40
0.1875
40
0.1875
40
0.21875
40
0.21875
40
0.25
40
0.25
40
0.3125
40
0.3125
40
0.375
40
0.375
40
0.4375
40
0.4375
40
0.5
40
0.5
40
0.5625
40
0.5625
40
0.59375
40
0.59375
40
0.625
40
0.625
40
0.6875
40
0.6875
40
0.71875
40
0.71875
40
0.75
40
0.75
40
0.8125
40
0.8125
40
0.84375
40
0.84375
40
0.875
40
0.875
40
0.890625
40
0.890625
40
0.90625
40
0.90625
40
0.9375
40
0.9375
40
0.953125
40
0.953125
40
0.96875
40
0.96875
40
0.984375
40
0.984375
40
1
40
1
40
1
40
1
41
1
10
-6.50000000009538
20
5.92278394612703
30
0
41
1
10
-6.33878343355056
20
5.92278394613399
30
0
41
1
10
-6.18177941676487
20
5.90535374260386
30
0
41
1
10
-5.95204503292123
20
5.85499087581465
30
0
41
1
10
-5.8761579968681
20
5.83402806277388
30
0
41
1
10
-5.72754356412628
20
5.78422446173252
30
0
41
1
10
-5.65582534824318
20
5.75576074512492
30
0
41
1
10
-5.5170653408679
20
5.69224224719392
30
0
41
1
10
-5.45002594048032
20
5.65718422295336
30
0
41
1
10
-5.32028954749518
20
5.58076981305527
30
0
41
1
10
-5.25730725025161
20
5.53919396424817
30
0
41
1
10
-5.07669630807399
20
5.40685634203658
30
0
41
1
10
-4.9681282561728
20
5.30936798708666
30
0
41
1
10
-4.8192767602911
20
5.15120523690598
30
0
41
1
10
-4.77201588617262
20
5.09648081493683
30
0
41
1
10
-4.68177921539336
20
4.9832213429589
30
0
41
1
10
-4.63866449550829
20
4.92447114294598
30
0
41
1
10
-4.51640109599421
20
4.74450158059136
30
0
41
1
10
-4.44432384015295
20
4.61984157358023
30
0
41
1
10
-4.3147480218982
20
4.36237185724465
30
0
41
1
10
-4.25727829092136
20
4.2295529940624
30
0
41
1
10
-4.15405509944569
20
3.95653150259102
30
0
41
1
10
-4.10821090201088
20
3.81595238894863
30
0
41
1
10
-3.98576027296087
20
3.38645328653345
30
0
41
1
10
-3.92480666207163
20
3.09352822329708
30
0
41
1
10
-3.82836581410044
20
2.49649919182491
30
0
41
1
10
-3.79303861493628
20
2.19237736018979
30
0
41
1
10
-3.739423287942
20
1.57388526407485
30
0
41
1
10
-3.72119790414467
20
1.25848600939386
30
0
41
1
10
-3.69766051521367
20
0.629770229064434
30
0
41
1
10
-3.69220891195482
20
0.31511476611081
30
0
41
1
10
-3.69220488731611
20
-0.314775276856409
30
0
41
1
10
-3.69764996689457
20
-0.630009820582757
30
0
41
1
10
-3.71539847924072
20
-1.10331301986034
30
0
41
1
10
-3.72295349270632
20
-1.26118401980844
30
0
41
1
10
-3.74169072549643
20
-1.57392414251189
30
0
41
1
10
-3.7528840700742
20
-1.72918599788719
30
0
41
1
10
-3.79297220481504
20
-2.1915697431464
30
0
41
1
10
-3.82820342946889
20
-2.4953131474044
30
0
41
1
10
-3.90055237078329
20
-2.94346899435828
30
0
41
1
10
-3.92795659251124
20
-3.09160572968909
30
0
41
1
10
-3.99109368740423
20
-3.3851856142343
30
0
41
1
10
-4.02697995296091
20
-3.53115580772567
30
0
41
1
10
-4.14935035507858
20
-3.96000187325129
30
0
41
1
10
-4.24985848320401
20
-4.23374706529833
30
0
41
1
10
-4.44558557997195
20
-4.62219121978163
30
0
41
1
10
-4.51878364756294
20
-4.7483017754634
30
0
41
1
10
-4.68094106765255
20
-4.98640124005655
30
0
41
1
10
-4.77014266699652
20
-5.09906496371062
30
0
41
1
10
-4.91910444902362
20
-5.25724358473801
30
0
41
1
10
-4.97129672243656
20
-5.30816075956034
30
0
41
1
10
-5.0814760175939
20
-5.40605179737753
30
0
41
1
10
-5.13924762360989
20
-5.4527858644075
30
0
41
1
10
-5.3187446035916
20
-5.58401200378981
30
0
41
1
10
-5.44745950661906
20
-5.66043691659488
30
0
41
1
10
-5.6569551155672
20
-5.75624904896497
30
0
41
1
10
-5.72950757943619
20
-5.78492407002628
30
0
41
1
10
-5.87631309807827
20
-5.83403800943057
30
0
41
1
10
-5.95105322147066
20
-5.85471899891138
30
0
41
1
10
-6.10329778794605
20
-5.88820225496954
30
0
41
1
10
-6.18080136159367
20
-5.90100705049875
30
0
41
1
10
-6.3387507883601
20
-5.91831877134865
30
0
41
1
10
-6.41946190921112
20
-5.92278394613078
30
0
41
1
10
-6.50000000009538
20
-5.92278394612728
30
0
0
SPLINE
5
25D
100
AcDbEntity
8
SK1
62
256
6
ByLayer
370
13
48
1
60
0
100
AcDbSpline
70
4
71
3
72
8
73
4
40
0
40
0
40
0
40
0
40
1
40
1
40
1
40
1
41
1
10
-47.6338131992802
20
5.29933610071177
30
0
41
1
10
-47.2923786118706
20
5.51342740002906
30
0
41
1
10
-46.9475435606214
20
5.72068082700042
30
0
41
1
10
-46.6001472688719
20
5.92278394612708
30
0
0
SPLINE
5
25E
100
AcDbEntity
8
SK1
62
256
6
ByLayer
370
13
48
1
60
0
100
AcDbSpline
70
4
71
3
72
20
73
16
40
0
40
0
40
0
40
0
40
0.124999999999983
40
0.124999999999983
40
0.249999999999965
40
0.249999999999965
40
0.312499999999966
40
0.312499999999966
40
0.374999999999967
40
0.374999999999967
40
0.499999999999968
40
0.499999999999968
40
0.749999999999984
40
0.749999999999984
40
1
40
1
40
1
40
1
41
1
10
-47.6338131992802
20
-5.29933610071163
30
0
41
1
10
-47.6740667183048
20
-5.27409575158515
30
0
41
1
10
-47.7166308754023
20
-5.25371292058196
30
0
41
1
10
-47.8078158214512
20
-5.22567975846056
30
0
41
1
10
-47.8546474169343
20
-5.21874118138112
30
0
41
1
10
-47.9254506373334
20
-5.21993633261226
30
0
41
1
10
-47.9494314664153
20
-5.22231307742732
30
0
41
1
10
-47.9961515393413
20
-5.23075175663749
30
0
41
1
10
-48.0190048517889
20
-5.23677740400987
30
0
41
1
10
-48.0861850070452
20
-5.25977282447712
30
0
41
1
10
-48.1290406483722
20
-5.28179182815938
30
0
41
1
10
-48.2468933317732
20
-5.35980434663117
30
0
41
1
10
-48.3145537036651
20
-5.42911649968627
30
0
41
1
10
-48.4291855242436
20
-5.5801704437003
30
0
41
1
10
-48.4761884290776
20
-5.66141753825065
30
0
41
1
10
-48.5162221138928
20
-5.74653012019104
30
0
0
SPLINE
5
25F
100
AcDbEntity
8
1
62
256
6
ByLayer
370
18
48
1
60
0
100
AcDbSpline
70
4
71
3
72
16
73
12
40
0
40
0
40
0
40
0
40
0.124999999999998
40
0.124999999999998
40
0.249999999999995
40
0.249999999999995
40
0.499999999999997
40
0.499999999999997
40
0.749999999999998
40
0.749999999999998
40
1
40
1
40
1
40
1
41
1
10
102.483447129472
20
5.41775082737394
30
0
41
1
10
102.493571082151
20
5.41468746909055
30
0
41
1
10
102.504423251106
20
5.41429414451054
30
0
41
1
10
102.525070317653
20
5.41968713148168
30
0
41
1
10
102.534787357634
20
5.42541417721804
30
0
41
1
10
102.559648862547
20
5.44746023937003
30
0
41
1
10
102.571318582296
20
5.46832445990685
30
0
41
1
10
102.587849648684
20
5.51132610419899
30
0
41
1
10
102.592948475093
20
5.53407680081096
30
0
41
1
10
102.598812851634
20
5.57998891169342
30
0
41
1
10
102.599544123076
20
5.60325732867884
30
0
41
1
10
102.59833188187
20
5.62638826882048
30
0
0
SPLINE
5
260
100
AcDbEntity
8
1
62
256
6
ByLayer
370
18
48
1
60
0
100
AcDbSpline
70
4
71
3
72
8
73
4
40
0
40
0
40
0
40
0
40
1
40
1
40
1
40
1
41
1
10
102.462792964254
20
5.412744527153
30
0
41
1
10
102.469681011582
20
5.41441428167411
30
0
41
1
10
102.476565661311
20
5.41608302650005
30
0
41
1
10
102.483447129472
20
5.41775082737394
30
0
0
SPLINE
5
261
100
AcDbEntity
8
1
62
256
6
ByLayer
370
18
48
1
60
0
100
AcDbSpline
70
4
71
3
72
18
73
14
40
0
40
0
40
0
40
0
40
0.124999999999992
40
0.124999999999992
40
0.249999999999983
40
0.249999999999983
40
0.499999999999967
40
0.499999999999967
40
0.74999999999995
40
0.74999999999995
40
0.874999999999975
40
0.874999999999975
40
1
40
1
40
1
40
1
41
1
10
102.292024739809
20
5.07605192631198
30
0
41
1
10
102.285363178268
20
5.09074937575937
30
0
41
1
10
102.282424999179
20
5.10681935555891
30
0
41
1
10
102.280695619267
20
5.13997854744028
30
0
41
1
10
102.281998477567
20
5.15667752308619
30
0
41
1
10
102.290508660207
20
5.20719155701718
30
0
41
1
10
102.302024309262
20
5.24016609878902
30
0
41
1
10
102.333974537024
20
5.30333733723421
30
0
41
1
10
102.354265606288
20
5.33300118558367
30
0
41
1
10
102.390518075693
20
5.37072880214151
30
0
41
1
10
102.403594868198
20
5.38217303583005
30
0
41
1
10
102.431784490084
20
5.40122581029195
30
0
41
1
10
102.446755333192
20
5.40885679152942
30
0
41
1
10
102.462792964254
20
5.412744527153
30
0
0
SPLINE
5
262
100
AcDbEntity
8
1
62
256
6
ByLayer
370
18
48
1
60
0
100
AcDbSpline
70
4
71
3
72
8
73
4
40
0
40
0
40
0
40
0
40
1
40
1
40
1
40
1
41
1
10
101.870148798328
20
6.32904972390381
30
0
41
1
10
101.874645992082
20
6.33441604996017
30
0
41
1
10
101.879141307466
20
6.33977901739587
30
0
41
1
10
101.883634861093
20
6.34513884566584
30
0
0
SPLINE
5
263
100
AcDbEntity
8
1
62
256
6
ByLayer
370
18
48
1
60
0
100
AcDbSpline
70
4
71
3
72
8
73
4
40
0
40
0
40
0
40
0
40
1
40
1
40
1
40
1
41
1
10
101.962679939424
20
4.83686890155542
30
0
41
1
10
101.957650747341
20
4.84172966387001
30
0
41
1
10
101.95261947502
20
4.84659336399994
30
0
41
1
10
101.947585983548
20
4.85146020800852
30
0
0
SPLINE
5
264
100
AcDbEntity
8
1
62
256
6
ByLayer
370
18
48
1
60
0
100
AcDbSpline
70
4
71
3
72
16
73
12
40
0
40
0
40
0
40
0
40
0.249999999999968
40
0.249999999999968
40
0.499999999999936
40
0.499999999999936
40
0.749999999999904
40
0.749999999999904
40
0.874999999999952
40
0.874999999999952
40
1
40
1
40
1
40
1
41
1
10
101.25157760309
20
6.31574739988324
30
0
41
1
10
101.270906961077
20
6.32835113173724
30
0
41
1
10
101.291226673632
20
6.3393693275402
30
0
41
1
10
101.333435825813
20
6.35741655520897
30
0
41
1
10
101.355288725969
20
6.36448035709481
30
0
41
1
10
101.399725146558
20
6.37207511205202
30
0
41
1
10
101.422862810116
20
6.37271418237532
30
0
41
1
10
101.452817739471
20
6.36287786327944
30
0
41
1
10
101.461952562812
20
6.35760275942212
30
0
41
1
10
101.475395002906
20
6.34309911749938
30
0
41
1
10
101.47960854736
20
6.33395577944697
30
0
41
1
10
101.481204001549
20
6.32404833800214
30
0
0
SPLINE
5
265
100
AcDbEntity
8
1
62
256
6
ByLayer
370
18
48
1
60
0
100
AcDbSpline
70
4
71
3
72
8
73
4
40
0
40
0
40
0
40
0
40
1
40
1
40
1
40
1
41
1
10
101.000736250406
20
5.33612138159438
30
0
41
1
10
100.994357917151
20
5.33709587457005
30
0
41
1
10
100.987984616202
20
5.33806979964302
30
0
41
1
10
100.981616011941
20
5.33904319364595
30
0
0
SPLINE
5
266
100
AcDbEntity
8
1
62
256
6
ByLayer
370
18
48
1
60
0
100
AcDbSpline
70
4
71
3
72
16
73
12
40
0
40
0
40
0
40
0
40
0.124999999999948
40
0.124999999999948
40
0.249999999999896
40
0.249999999999896
40
0.499999999999931
40
0.499999999999931
40
0.749999999999965
40
0.749999999999965
40
1
40
1
40
1
40
1
41
1
10
101.883634861093
20
6.34513884566584
30
0
41
1
10
101.885259855622
20
6.35523211312949
30
0
41
1
10
101.889600062561
20
6.36487991334218
30
0
41
1
10
101.90353373555
20
6.3808837746314
30
0
41
1
10
101.912968944027
20
6.38709097163664
30
0
41
1
10
101.943665704484
20
6.39998016584829
30
0
41
1
10
101.967592791645
20
6.40183512351723
30
0
41
1
10
102.013789029387
20
6.39898473468247
30
0
41
1
10
102.036656090626
20
6.39425122192583
30
0
41
1
10
102.080940800415
20
6.3807502764266
30
0
41
1
10
102.102403694015
20
6.37192280341782
30
0
41
1
10
102.122935351789
20
6.36141332445368
30
0
0
SPLINE
5
267
100
AcDbEntity
8
1
62
256
6
ByLayer
370
18
48
1
60
0
100
AcDbSpline
70
4
71
3
72
18
73
14
40
0
40
0
40
0
40
0
40
0.124999999999975
40
0.124999999999975
40
0.24999999999995
40
0.24999999999995
40
0.499999999999996
40
0.499999999999996
40
0.750000000000041
40
0.750000000000041
40
0.87500000000002
40
0.87500000000002
40
1
40
1
40
1
40
1
41
1
10
101.947585983548
20
4.85146020800852
30
0
41
1
10
101.935883457559
20
4.86277528995666
30
0
41
1
10
101.921535899727
20
4.87139182790321
30
0
41
1
10
101.890525645368
20
4.88536589533811
30
0
41
1
10
101.873919287476
20
4.8905946316259
30
0
41
1
10
101.822840955812
20
4.90224707636028
30
0
41
1
10
101.787082246537
20
4.90474391404527
30
0
41
1
10
101.716703699046
20
4.90105120488954
30
0
41
1
10
101.682248196072
20
4.89488488864853
30
0
41
1
10
101.634923029025
20
4.87806472739368
30
0
41
1
10
101.619908482286
20
4.87117864134461
30
0
41
1
10
101.592805085108
20
4.85416176454731
30
0
41
1
10
101.5807440921
20
4.84416385138286
30
0
41
1
10
101.571791060701
20
4.83176563063628
30
0
0
SPLINE
5
268
100
AcDbEntity
8
1
62
256
6
ByLayer
370
18
48
1
60
0
100
AcDbSpline
70
4
71
3
72
16
73
12
40
0
40
0
40
0
40
0
40
0.125
40
0.125
40
0.25
40
0.25
40
0.5
40
0.5
40
0.75
40
0.75
40
1
40
1
40
1
40
1
41
1
10
101.560249079879
20
4.81577839389172
30
0
41
1
10
101.55969703494
20
4.80574135733335
30
0
41
1
10
101.556442245595
20
4.79615044144629
30
0
41
1
10
101.54446580643
20
4.78024915443532
30
0
41
1
10
101.535885646979
20
4.77408676865079
30
0
41
1
10
101.507274861748
20
4.76130689576831
30
0
41
1
10
101.48420571357
20
4.75949690077627
30
0
41
1
10
101.439222573673
20
4.76241086537513
30
0
41
1
10
101.416717311407
20
4.76716333921252
30
0
41
1
10
101.372903610852
20
4.7806889692597
30
0
41
1
10
101.351544572326
20
4.78952188508225
30
0
41
1
10
101.331012914551
20
4.80003136404639
30
0
0
SPLINE
5
269
100
AcDbEntity
8
1
62
256
6
ByLayer
370
18
48
1
60
0
100
AcDbSpline
70
4
71
3
72
8
73
4
40
0
40
0
40
0
40
0
40
1
40
1
40
1
40
1
41
1
10
101.149915119219
20
6.08476342822814
30
0
41
1
10
101.147710720967
20
6.09108730598683
30
0
41
1
10
101.145508702761
20
6.09740721666444
30
0
41
1
10
101.143308902548
20
6.103723419533
30
0
0
SPLINE
5
26A
100
AcDbEntity
8
1
62
256
6
ByLayer
370
18
48
1
60
0
100
AcDbSpline
70
4
71
3
72
18
73
14
40
0
40
0
40
0
40
0
40
0.125000000000002
40
0.125000000000002
40
0.250000000000003
40
0.250000000000003
40
0.500000000000002
40
0.500000000000002
40
0.750000000000001
40
0.750000000000001
40
0.875
40
0.875
40
1
40
1
40
1
40
1
41
1
10
102.441203608623
20
5.82469397294574
30
0
41
1
10
102.424842995981
20
5.82688461918247
30
0
41
1
10
102.409147537088
20
5.83291312134111
30
0
41
1
10
102.379105205466
20
5.84892792474267
30
0
41
1
10
102.364897690697
20
5.85895146132904
30
0
41
1
10
102.324918591965
20
5.89267620584565
30
0
41
1
10
102.301686692206
20
5.91999450563137
30
0
41
1
10
102.263292204699
20
5.97948998957199
30
0
41
1
10
102.248384212317
20
6.0110960835905
30
0
41
1
10
102.234638362841
20
6.06043674804843
30
0
41
1
10
102.231600970527
20
6.07689169338008
30
0
41
1
10
102.229844862477
20
6.1099780204184
30
0
41
1
10
102.231087844113
20
6.12637783827765
30
0
41
1
10
102.23617691022
20
6.14169199641452
30
0
0
SPLINE
5
26B
100
AcDbEntity
8
1
62
256
6
ByLayer
370
18
48
1
60
0
100
AcDbSpline
70
4
71
3
72
16
73
12
40
0
40
0
40
0
40
0
40
0.125000000000004
40
0.125000000000004
40
0.250000000000009
40
0.250000000000009
40
0.500000000000006
40
0.500000000000006
40
0.750000000000003
40
0.750000000000003
40
1
40
1
40
1
40
1
41
1
10
102.300575038425
20
5.05719382002454
30
0
41
1
10
102.309247291031
20
5.05123874451976
30
0
41
1
10
102.316187911715
20
5.0431510034382
30
0
41
1
10
102.324450619204
20
5.02395249965636
30
0
41
1
10
102.325711208227
20
5.01304591642321
30
0
41
1
10
102.323006583481
20
4.9808877494944
30
0
41
1
10
102.313275831394
20
4.95955641692197
30
0
41
1
10
102.288619792327
20
4.92137998752725
30
0
41
1
10
102.27337632169
20
4.90403211640125
30
0
41
1
10
102.239951216229
20
4.87249571502014
30
0
41
1
10
102.22169130677
20
4.85829533819108
30
0
41
1
10
102.202370663251
20
4.84569728861683
30
0
0
SPLINE
5
26C
100
AcDbEntity
8
1
62
256
6
ByLayer
370
18
48
1
60
0
100
AcDbSpline
70
4
71
3
72
16
73
12
40
0
40
0
40
0
40
0
40
0.125
40
0.125
40
0.25
40
0.25
40
0.5
40
0.5
40
0.75
40
0.75
40
1
40
1
40
1
40
1
41
1
10
101.143308902548
20
6.103723419533
30
0
41
1
10
101.135709599532
20
6.1097347259431
30
0
41
1
10
101.129854396441
20
6.11787935135027
30
0
41
1
10
101.123548922776
20
6.13718042941036
30
0
41
1
10
101.12314338278
20
6.14813182386422
30
0
41
1
10
101.127933982751
20
6.1803993121222
30
0
41
1
10
101.138522673821
20
6.2017756073715
30
0
41
1
10
101.164391810733
20
6.24001561253036
30
0
41
1
10
101.179997080343
20
6.25738244473709
30
0
41
1
10
101.213893195038
20
6.28894353066616
30
0
41
1
10
101.232256959571
20
6.30314935030901
30
0
41
1
10
101.25157760309
20
6.31574739988324
30
0
0
SPLINE
5
26D
100
AcDbEntity
8
1
62
256
6
ByLayer
370
18
48
1
60
0
100
AcDbSpline
70
4
71
3
72
8
73
4
40
0
40
0
40
0
40
0
40
1
40
1
40
1
40
1
41
1
10
101.201174780438
20
4.99957669396022
30
0
41
1
10
101.202702306936
20
5.00608823774442
30
0
41
1
10
101.204231651704
20
5.01260370086919
30
0
41
1
10
101.205762948808
20
5.01912335812557
30
0
0
SPLINE
5
26E
100
AcDbEntity
8
1
62
256
6
ByLayer
370
18
48
1
60
0
100
AcDbSpline
70
4
71
3
72
18
73
14
40
0
40
0
40
0
40
0
40
0.125000000000003
40
0.125000000000003
40
0.250000000000006
40
0.250000000000006
40
0.499999999999982
40
0.499999999999982
40
0.749999999999958
40
0.749999999999958
40
0.874999999999979
40
0.874999999999979
40
1
40
1
40
1
40
1
41
1
10
101.205762948808
20
5.01912335812557
30
0
41
1
10
101.209323110627
20
5.03428111867834
30
0
41
1
10
101.209277752551
20
5.05048000713018
30
0
41
1
10
101.205295548712
20
5.08341560671431
30
0
41
1
10
101.201279169782
20
5.10004555664881
30
0
41
1
10
101.18524876086
20
5.1492663520423
30
0
41
1
10
101.169331787344
20
5.18126524751548
30
0
41
1
10
101.13093100313
20
5.2406305336354
30
0
41
1
10
101.10854890504
20
5.26786451699419
30
0
41
1
10
101.070883435518
20
5.30164645544457
30
0
41
1
10
101.05764788955
20
5.31168990900244
30
0
41
1
10
101.029926681099
20
5.32777669352342
30
0
41
1
10
101.015566221607
20
5.33385563250462
30
0
41
1
10
101.000736250406
20
5.33612138159438
30
0
0
SPLINE
5
26F
100
AcDbEntity
8
1
62
256
6
ByLayer
370
18
48
1
60
0
100
AcDbSpline
70
4
71
3
72
16
73
12
40
0
40
0
40
0
40
0
40
0.25
40
0.25
40
0.5
40
0.5
40
0.75
40
0.75
40
0.875
40
0.875
40
1
40
1
40
1
40
1
41
1
10
102.59833188187
20
5.62638826882048
30
0
41
1
10
102.597119538844
20
5.64952115182862
30
0
41
1
10
102.593958973816
20
5.67259020640151
30
0
41
1
10
102.583327643853
20
5.71763473647701
30
0
41
1
10
102.575861656698
20
5.73976052796922
30
0
41
1
10
102.554960347256
20
5.78073071920846
30
0
41
1
10
102.541369133281
20
5.80010309126757
30
0
41
1
10
102.514175104566
20
5.81960449685351
30
0
41
1
10
102.503875899603
20
5.82429916626975
30
0
41
1
10
102.482740627901
20
5.82750693500367
30
0
41
1
10
102.472036610828
20
5.82598745294047
30
0
41
1
10
102.462267929032
20
5.82187404591161
30
0
0
SPLINE
5
270
100
AcDbEntity
8
1
62
256
6
ByLayer
370
18
48
1
60
0
100
AcDbSpline
70
4
71
3
72
8
73
4
40
0
40
0
40
0
40
0
40
1
40
1
40
1
40
1
41
1
10
102.242709160535
20
6.16134054559731
30
0
41
1
10
102.240532134877
20
6.15479496300449
30
0
41
1
10
102.238354724828
20
6.14824553621753
30
0
41
1
10
102.23617691022
20
6.14169199641452
30
0
0
SPLINE
5
271
100
AcDbEntity
8
1
62
256
6
ByLayer
370
18
48
1
60
0
100
AcDbSpline
70
4
71
3
72
16
73
12
40
0
40
0
40
0
40
0
40
0.249999999999975
40
0.249999999999975
40
0.49999999999995
40
0.49999999999995
40
0.749999999999925
40
0.749999999999925
40
0.874999999999963
40
0.874999999999963
40
1
40
1
40
1
40
1
41
1
10
100.85561638447
20
5.53505641967959
30
0
41
1
10
100.854404823994
20
5.55817437073938
30
0
41
1
10
100.855027010762
20
5.58140406324395
30
0
41
1
10
100.860423598557
20
5.62734397551293
30
0
41
1
10
100.865151534422
20
5.65003707156058
30
0
41
1
10
100.880472152544
20
5.69299667441643
30
0
41
1
10
100.891247553329
20
5.71380063067409
30
0
41
1
10
100.914121856902
20
5.73581837194331
30
0
41
1
10
100.923000686458
20
5.74148532233409
30
0
41
1
10
100.941692774571
20
5.74674013215991
30
0
41
1
10
100.951388280364
20
5.74628460452618
30
0
41
1
10
100.9604368115
20
5.7431664121836
30
0
0
SPLINE
5
272
100
AcDbEntity
8
1
62
256
6
ByLayer
370
18
48
1
60
0
100
AcDbSpline
70
4
71
3
72
8
73
4
40
0
40
0
40
0
40
0
40
1
40
1
40
1
40
1
41
1
10
100.9604368115
20
5.7431664121836
30
0
41
1
10
100.966668780501
20
5.74480017424889
30
0
41
1
10
100.972905364951
20
5.74643495541264
30
0
41
1
10
100.979146894775
20
5.7480708273871
30
0
0
SPLINE
5
273
100
AcDbEntity
8
1
62
256
6
ByLayer
370
18
48
1
60
0
100
AcDbSpline
70
4
71
3
72
18
73
14
40
0
40
0
40
0
40
0
40
0.124999999999998
40
0.124999999999998
40
0.249999999999995
40
0.249999999999995
40
0.49999999999999
40
0.49999999999999
40
0.749999999999985
40
0.749999999999985
40
0.874999999999993
40
0.874999999999993
40
1
40
1
40
1
40
1
41
1
10
100.979146894775
20
5.7480708273871
30
0
41
1
10
100.993658027927
20
5.75187411868129
30
0
41
1
10
101.007307905307
20
5.75942228241945
30
0
41
1
10
101.033201558049
20
5.7783243633003
30
0
41
1
10
101.045316810794
20
5.78970069760021
30
0
41
1
10
101.079220768672
20
5.82720909560123
30
0
41
1
10
101.098673257863
20
5.85669075384124
30
0
41
1
10
101.130651391921
20
5.91974876854866
30
0
41
1
10
101.143113200516
20
5.95316942352434
30
0
41
1
10
101.153917703365
20
6.00383151993435
30
0
41
1
10
101.156171421297
20
6.02078593841352
30
0
41
1
10
101.15668778516
20
6.05394903933203
30
0
41
1
10
101.155040464868
20
6.0700600690113
30
0
41
1
10
101.149915119219
20
6.08476342822814
30
0
0
SPLINE
5
274
100
AcDbEntity
8
1
62
256
6
ByLayer
370
18
48
1
60
0
100
AcDbSpline
70
4
71
3
72
16
73
12
40
0
40
0
40
0
40
0
40
0.250000000000001
40
0.250000000000001
40
0.500000000000001
40
0.500000000000001
40
0.750000000000002
40
0.750000000000002
40
0.875000000000001
40
0.875000000000001
40
1
40
1
40
1
40
1
41
1
10
102.202370663251
20
4.84569728861683
30
0
41
1
10
102.183041305264
20
4.83309355676283
30
0
41
1
10
102.162617768854
20
4.82206991978225
30
0
41
1
10
102.11993677777
20
4.80399796408435
30
0
41
1
10
102.097722366056
20
4.79691521618057
30
0
41
1
10
102.052072296356
20
4.78925685656858
30
0
41
1
10
102.028079181601
20
4.78857295394781
30
0
41
1
10
101.996020712267
20
4.79829903118471
30
0
41
1
10
101.986028128025
20
4.80352918169808
30
0
41
1
10
101.970639010575
20
4.81793080258359
30
0
41
1
10
101.965346515363
20
4.82701759522288
30
0
41
1
10
101.962679939424
20
4.83686890155542
30
0
0
SPLINE
5
275
100
AcDbEntity
8
1
62
256
6
ByLayer
370
18
48
1
60
0
100
AcDbSpline
70
4
71
3
72
16
73
12
40
0
40
0
40
0
40
0
40
0.250000000000011
40
0.250000000000011
40
0.500000000000022
40
0.500000000000022
40
0.750000000000033
40
0.750000000000033
40
0.875000000000017
40
0.875000000000017
40
1
40
1
40
1
40
1
41
1
10
101.331012914551
20
4.80003136404639
30
0
41
1
10
101.310471996088
20
4.81054558325218
30
0
41
1
10
101.290722558373
20
4.82275435936498
30
0
41
1
10
101.253674074535
20
4.85063467995062
30
0
41
1
10
101.236368354466
20
4.86625450110344
30
0
41
1
10
101.206645727442
20
4.9015875466747
30
0
41
1
10
101.193855739072
20
4.92173001646029
30
0
41
1
10
101.1857233433
20
4.95352895589596
30
0
41
1
10
101.185038469064
20
4.96444853347205
30
0
41
1
10
101.189314778406
20
4.98415597470202
30
0
41
1
10
101.194257264365
20
4.99281551241413
30
0
41
1
10
101.201174780438
20
4.99957669396025
30
0
0
SPLINE
5
276
100
AcDbEntity
8
1
62
256
6
ByLayer
370
18
48
1
60
0
100
AcDbSpline
70
4
71
3
72
8
73
4
40
0
40
0
40
0
40
0
40
1
40
1
40
1
40
1
41
1
10
101.481204001549
20
6.32404833800214
30
0
41
1
10
101.485583694472
20
6.3191535368789
30
0
41
1
10
101.489966901512
20
6.31425587308681
30
0
41
1
10
101.494353875481
20
6.30935514653157
30
0
0
SPLINE
5
277
100
AcDbEntity
8
1
62
256
6
ByLayer
370
18
48
1
60
0
100
AcDbSpline
70
4
71
3
72
16
73
12
40
0
40
0
40
0
40
0
40
0.124999999999998
40
0.124999999999998
40
0.249999999999996
40
0.249999999999996
40
0.499999999999998
40
0.499999999999998
40
0.749999999999999
40
0.749999999999999
40
1
40
1
40
1
40
1
41
1
10
100.981616011941
20
5.33904319364595
30
0
41
1
10
100.972928189191
20
5.33498934804501
30
0
41
1
10
100.963275487958
20
5.33351461540235
30
0
41
1
10
100.944014958216
20
5.33686311931231
30
0
41
1
10
100.934601734255
20
5.3416297223713
30
0
41
1
10
100.909738561383
20
5.3610626770822
30
0
41
1
10
100.896829134783
20
5.38060649600101
30
0
41
1
10
100.877108582876
20
5.42172867787667
30
0
41
1
10
100.870027690734
20
5.44383850338045
30
0
41
1
10
100.859874600256
20
5.48891287708273
30
0
41
1
10
100.856827398726
20
5.51194889114123
30
0
41
1
10
100.85561638447
20
5.53505641967959
30
0
0
SPLINE
5
278
100
AcDbEntity
8
1
62
256
6
ByLayer
370
18
48
1
60
0
100
AcDbSpline
70
4
71
3
72
18
73
14
40
0
40
0
40
0
40
0
40
0.124999999999978
40
0.124999999999978
40
0.249999999999955
40
0.249999999999955
40
0.500000000000001
40
0.500000000000001
40
0.750000000000046
40
0.750000000000046
40
0.875000000000023
40
0.875000000000023
40
1
40
1
40
1
40
1
41
1
10
101.494353875481
20
6.30935514653157
30
0
41
1
10
101.50455329216
20
6.29796128996256
30
0
41
1
10
101.51759620524
20
6.28927637848179
30
0
41
1
10
101.546337664042
20
6.27518340851009
30
0
41
1
10
101.5619945695
20
6.2699049135287
30
0
41
1
10
101.610784971437
20
6.25813256347814
30
0
41
1
10
101.645765187576
20
6.25559492669675
30
0
41
1
10
101.716144476628
20
6.25928767471603
30
0
41
1
10
101.751376787022
20
6.26549470170883
30
0
41
1
10
101.800991564719
20
6.28243485637327
30
0
41
1
10
101.816955545781
20
6.28937070016681
30
0
41
1
10
101.846327293232
20
6.30650645616456
30
0
41
1
10
101.859692578622
20
6.31657272439625
30
0
41
1
10
101.870148798328
20
6.32904972390381
30
0
0
SPLINE
5
279
100
AcDbEntity
8
1
62
256
6
ByLayer
370
18
48
1
60
0
100
AcDbSpline
70
4
71
3
72
8
73
4
40
0
40
0
40
0
40
0
40
1
40
1
40
1
40
1
41
1
10
102.292024739809
20
5.07605192631198
30
0
41
1
10
102.294875655565
20
5.06976193109989
30
0
41
1
10
102.297725739051
20
5.06347598408448
30
0
41
1
10
102.300575038425
20
5.05719382002454
30
0
0
SPLINE
5
27A
100
AcDbEntity
8
1
62
256
6
ByLayer
370
18
48
1
60
0
100
AcDbSpline
70
4
71
3
72
8
73
4
40
0
40
0
40
0
40
0
40
1
40
1
40
1
40
1
41
1
10
101.571791060701
20
4.83176563063628
30
0
41
1
10
101.56794038445
20
4.82643318712658
30
0
41
1
10
101.564093134347
20
4.82110418335304
30
0
41
1
10
101.560249079879
20
4.81577839389172
30
0
0
SPLINE
5
27B
100
AcDbEntity
8
1
62
256
6
ByLayer
370
18
48
1
60
0
100
AcDbSpline
70
4
71
3
72
8
73
4
40
0
40
0
40
0
40
0
40
1
40
1
40
1
40
1
41
1
10
102.462267929032
20
5.82187404591161
30
0
41
1
10
102.455249825611
20
5.82281340110589
30
0
41
1
10
102.448228459381
20
5.8237533625167
30
0
41
1
10
102.441203608623
20
5.82469397294574
30
0
0
SPLINE
5
27C
100
AcDbEntity
8
1
62
256
6
ByLayer
370
18
48
1
60
0
100
AcDbSpline
70
4
71
3
72
16
73
12
40
0
40
0
40
0
40
0
40
0.249999999999991
40
0.249999999999991
40
0.499999999999983
40
0.499999999999983
40
0.749999999999974
40
0.749999999999974
40
0.874999999999987
40
0.874999999999987
40
1
40
1
40
1
40
1
41
1
10
102.122935351789
20
6.36141332445368
30
0
41
1
10
102.143476270253
20
6.35089910524789
30
0
41
1
10
102.163121884113
20
6.33868488795744
30
0
41
1
10
102.199698529048
20
6.3107798393427
30
0
41
1
10
102.216642737559
20
6.29514107217193
30
0
41
1
10
102.245151715471
20
6.2597444219459
30
0
41
1
10
102.257086252645
20
6.23955711986284
30
0
41
1
10
102.263115108437
20
6.20764793856819
30
0
41
1
10
102.262942221773
20
6.19668340764815
30
0
41
1
10
102.256719235074
20
6.17687394538095
30
0
41
1
10
102.250697798358
20
6.16815786225573
30
0
41
1
10
102.242709160535
20
6.16134054559731
30
0
0
SPLINE
5
27D
100
AcDbEntity
8
1
62
256
6
ByLayer
370
18
48
1
60
0
100
AcDbSpline
70
4
71
3
72
23
73
19
40
0
40
0
40
0
40
0
40
0.0103052656074501
40
0.0421118813371839
40
0.105725112796651
40
0.232951575715586
40
0.360178038634522
40
0.47150119368859
40
0.487404501553457
40
0.51921111728319
40
0.551017733012924
40
0.614630964472392
40
0.741857427391327
40
0.869083890310262
40
0.932697121769729
40
0.964503737499463
40
0.996310353229197
40
1
40
1
40
1
40
1
41
1
10
105.125242133076
20
-4.10005576479875
30
0
41
1
10
105.132821813719
20
-4.08960488589867
30
0
41
1
10
105.161502157463
20
-4.04395239299836
30
0
41
1
10
105.2126422671
20
-3.90352245242801
30
0
41
1
10
105.231286154633
20
-3.58931669037321
30
0
41
1
10
105.301172626709
20
-3.13948359716355
30
0
41
1
10
105.370617309489
20
-2.62279421352494
30
0
41
1
10
105.416403367663
20
-2.26273612499165
30
0
41
1
10
105.447339392706
20
-2.04035810200935
30
0
41
1
10
105.44189759553
20
-1.93339456413384
30
0
41
1
10
105.39967886118
20
-1.75492574145574
30
0
41
1
10
105.358485687054
20
-1.44062305174182
30
0
41
1
10
105.281816731481
20
-0.993185951254702
30
0
41
1
10
105.215003487158
20
-0.543350197210799
30
0
41
1
10
105.158257493633
20
-0.232943410880267
30
0
41
1
10
105.139013729397
20
-0.0447482122136194
30
0
41
1
10
105.112190933382
20
0.0354057266665393
30
0
41
1
10
105.086830587707
20
0.0694912481693564
30
0
41
1
10
105.084078204352
20
0.0729486863088766
30
0
0
SPLINE
5
27E
100
AcDbEntity
8
1
62
256
6
ByLayer
370
18
48
1
60
0
100
AcDbSpline
70
4
71
1
72
4
73
2
40
0
40
0
40
1
40
1
41
1
10
105.925013445643
20
-2.81215219832177
30
0
41
1
10
105.964140219867
20
-2.51658292030507
30
0
0
SPLINE
5
27F
100
AcDbEntity
8
1
62
256
6
ByLayer
370
18
48
1
60
0
100
AcDbSpline
70
4
71
3
72
8
73
4
40
0
40
0
40
0
40
0
40
1
40
1
40
1
40
1
41
1
10
105.995438223035
20
-2.15716600551806
30
0
41
1
10
105.997982855601
20
-2.17611786636624
30
0
41
1
10
105.999759285501
20
-2.19512515610151
30
0
41
1
10
106.000010820439
20
-2.2142346507267
30
0
0
SPLINE
5
280
100
AcDbEntity
8
1
62
256
6
ByLayer
370
18
48
1
60
0
100
AcDbSpline
70
4
71
1
72
4
73
2
40
0
40
0
40
1
40
1
41
1
10
105.308432732011
20
0.481538987753567
30
0
41
1
10
105.053915060133
20
0.514863315224574
30
0
0
SPLINE
5
281
100
AcDbEntity
8
1
62
256
6
ByLayer
370
18
48
1
60
0
100
AcDbSpline
70
4
71
3
72
12
73
8
40
0
40
0
40
0
40
0
40
0.5
40
0.5
40
0.75
40
0.75
40
1
40
1
40
1
40
1
41
1
10
105.692294924854
20
-4.57020694703439
30
0
41
1
10
105.684567446933
20
-4.62731138763843
30
0
41
1
10
105.65961414707
20
-4.6819950910548
30
0
41
1
10
105.602930670673
20
-4.7475106756892
30
0
41
1
10
105.580761916702
20
-4.76654256297391
30
0
41
1
10
105.531913406049
20
-4.79760466590679
30
0
41
1
10
105.505217921109
20
-4.80935751944162
30
0
41
1
10
105.477552673187
20
-4.81806018193086
30
0
0
SPLINE
5
282
100
AcDbEntity
8
1
62
256
6
ByLayer
370
18
48
1
60
0
100
AcDbSpline
70
4
71
3
72
8
73
4
40
0
40
0
40
0
40
0
40
1
40
1
40
1
40
1
41
1
10
106.000010820439
20
-2.2142346507267
30
0
41
1
10
106.000262431238
20
-2.23334990896584
30
0
41
1
10
105.999107949101
20
-2.25240496560491
30
0
41
1
10
105.997172589599
20
-2.27142404282137
30
0
0
SPLINE
5
283
100
AcDbEntity
8
1
62
256
6
ByLayer
370
18
48
1
60
0
100
AcDbSpline
70
4
71
1
72
4
73
2
40
0
40
0
40
1
40
1
41
1
10
105.964140219867
20
-2.51658292030507
30
0
41
1
10
105.985164448342
20
-2.3577628756081
30
0
0
SPLINE
5
284
100
AcDbEntity
8
1
62
256
6
ByLayer
370
18
48
1
60
0
100
AcDbSpline
70
4
71
2
72
11
73
8
40
0
40
0
40
0
40
0.25
40
0.5
40
0.75
40
0.75
40
0.875
40
1
40
1
40
1
41
1
10
105.385143203166
20
0.257013191203072
30
0
41
1
10
105.373226690821
20
0.29834335040141
30
0
41
1
10
105.326587852856
20
0.37142364253998
30
0
41
1
10
105.260460033127
20
0.428568188091873
30
0
41
1
10
105.219650603025
20
0.446952659135007
30
0
41
1
10
105.200698000848
20
0.455490724112593
30
0
41
1
10
105.158169704409
20
0.467666213957273
30
0
41
1
10
105.135922552049
20
0.470579062346332
30
0
0
SPLINE
5
285
100
AcDbEntity
8
1
62
256
6
ByLayer
370
18
48
1
60
0
100
AcDbSpline
70
4
71
1
72
4
73
2
40
0
40
0
40
1
40
1
41
1
10
105.996601393082
20
-2.27136655067198
30
0
41
1
10
105.773297229703
20
-2.08612251474443
30
0
0
SPLINE
5
286
100
AcDbEntity
8
1
62
256
6
ByLayer
370
18
48
1
60
0
100
AcDbSpline
70
4
71
2
72
6
73
3
40
0
40
0
40
0
40
1
40
1
40
1
41
1
10
105.459720217166
20
-0.0124006492476951
30
0
41
1
10
105.455893040463
20
0.0116308214141156
30
0
41
1
10
105.449149559303
20
0.0350193047001142
30
0
0
SPLINE
5
287
100
AcDbEntity
8
1
62
256
6
ByLayer
370
18
48
1
60
0
100
AcDbSpline
70
4
71
2
72
6
73
3
40
0
40
0
40
0
40
1
40
1
40
1
41
1
10
105.00644690677
20
-4.53244884651386
30
0
41
1
10
105.030610749492
20
-4.52864263548341
30
0
41
1
10
105.054128063081
20
-4.52193609582091
30
0
0
SPLINE
5
288
100
AcDbEntity
8
1
62
256
6
ByLayer
370
18
48
1
60
0
100
AcDbSpline
70
4
71
1
72
4
73
2
40
0
40
0
40
1
40
1
41
1
10
105.477552673186
20
-4.81799675822992
30
0
41
1
10
105.277344753969
20
-4.45828037320032
30
0
0
SPLINE
5
289
100
AcDbEntity
8
1
62
256
6
ByLayer
370
18
48
1
60
0
100
AcDbSpline
70
4
71
1
72
4
73
2
40
0
40
0
40
1
40
1
41
1
10
105.557653383129
20
0.267973116610193
30
0
41
1
10
105.385143203166
20
0.257013191203072
30
0
0
SPLINE
5
28A
100
AcDbEntity
8
1
62
256
6
ByLayer
370
18
48
1
60
0
100
AcDbSpline
70
4
71
2
72
11
73
8
40
0
40
0
40
0
40
0.25
40
0.5
40
0.75
40
0.75
40
0.875
40
1
40
1
40
1
41
1
10
105.277344753969
20
-4.45828037320032
30
0
41
1
10
105.318902571241
20
-4.44642914075692
30
0
41
1
10
105.392385410059
20
-4.4000457952248
30
0
41
1
10
105.449844723743
20
-4.33428023061154
30
0
41
1
10
105.468330461591
20
-4.29369435883962
30
0
41
1
10
105.476915556618
20
-4.27484558099957
30
0
41
1
10
105.489158112464
20
-4.23255025901844
30
0
41
1
10
105.492087005636
20
-4.21042497888843
30
0
0
SPLINE
5
28B
100
AcDbEntity
8
1
62
256
6
ByLayer
370
18
48
1
60
0
100
AcDbSpline
70
4
71
1
72
4
73
2
40
0
40
0
40
1
40
1
41
1
10
105.492087005636
20
-4.21042497888809
30
0
41
1
10
105.692294924854
20
-4.57014136391788
30
0
0
SPLINE
5
28C
100
AcDbEntity
8
1
62
256
6
ByLayer
370
18
48
1
60
0
100
AcDbSpline
70
4
71
1
72
4
73
2
40
0
40
0
40
1
40
1
41
1
10
105.984092223568
20
-2.0880990837253
30
0
41
1
10
105.962234739775
20
-1.95085235567072
30
0
0
SPLINE
5
28D
100
AcDbEntity
8
1
62
256
6
ByLayer
370
18
48
1
60
0
100
AcDbSpline
70
4
71
1
72
4
73
2
40
0
40
0
40
1
40
1
41
1
10
105.995098784774
20
-2.15721108796925
30
0
41
1
10
105.984092223568
20
-2.0880990837253
30
0
0
SPLINE
5
28E
100
AcDbEntity
8
1
62
256
6
ByLayer
370
18
48
1
60
0
100
AcDbSpline
70
4
71
1
72
4
73
2
40
0
40
0
40
1
40
1
41
1
10
105.985164448342
20
-2.3577628756081
30
0
41
1
10
105.996601393082
20
-2.27136655067196
30
0
0
SPLINE
5
28F
100
AcDbEntity
8
1
62
256
6
ByLayer
370
18
48
1
60
0
100
AcDbSpline
70
4
71
1
72
4
73
2
40
0
40
0
40
1
40
1
41
1
10
105.77179462139
20
-1.97196705204294
30
0
41
1
10
105.995098784774
20
-2.15721108796922
30
0
0
SPLINE
5
290
100
AcDbEntity
8
1
62
256
6
ByLayer
370
18
48
1
60
0
100
AcDbSpline
70
4
71
3
72
10
73
6
40
0
40
0
40
0
40
0
40
0.380449177870859
40
0.380449177870859
40
1
40
1
40
1
40
1
41
1
10
105.13165265179
20
-4.91669213504716
30
0
41
1
10
105.175812660129
20
-4.90410141462687
30
0
41
1
10
105.219972676279
20
-4.89150927339466
30
0
41
1
10
105.336046037521
20
-4.8584097949863
30
0
41
1
10
105.407959389026
20
-4.8379025354821
30
0
41
1
10
105.479872727281
20
-4.81739868609185
30
0
0
SPLINE
5
291
100
AcDbEntity
8
1
62
256
6
ByLayer
370
18
48
1
60
0
100
AcDbSpline
70
4
71
1
72
4
73
2
40
0
40
0
40
1
40
1
41
1
10
105.919935962458
20
-1.68525139067759
30
0
41
1
10
105.675896767789
20
-0.152889234847407
30
0
0
SPLINE
5
292
100
AcDbEntity
8
1
62
256
6
ByLayer
370
18
48
1
60
0
100
AcDbSpline
70
4
71
1
72
4
73
2
40
0
40
0
40
1
40
1
41
1
10
105.135922552049
20
0.470579062346388
30
0
41
1
10
105.308432732011
20
0.481538987753567
30
0
0
SPLINE
5
293
100
AcDbEntity
8
1
62
256
6
ByLayer
370
18
48
1
60
0
100
AcDbSpline
70
4
71
3
72
25
73
21
40
0
40
0
40
0
40
0
40
0.0160773487422468
40
0.0457403769269987
40
0.0754034051117506
40
0.134729461481254
40
0.253381574220262
40
0.37203368695927
40
0.475854285605901
40
0.490685799698277
40
0.520348827883029
40
0.550011856067781
40
0.609337912437285
40
0.727990025176292
40
0.8466421379153
40
0.905968194284804
40
0.935631222469556
40
0.965294250654308
40
0.994957278839059
40
1
40
1
40
1
40
1
41
1
10
105.070171459268
20
-4.32705409192755
30
0
41
1
10
105.099278848304
20
-4.31635237912701
30
0
41
1
10
105.180218179063
20
-4.27726221558731
30
0
41
1
10
105.279024711435
20
-4.15601098553162
30
0
41
1
10
105.356039545382
20
-3.94452945702397
30
0
41
1
10
105.375520439242
20
-3.61621761271789
30
0
41
1
10
105.444588254884
20
-3.17165390491331
30
0
41
1
10
105.514296882131
20
-2.65300069483914
30
0
41
1
10
105.560041123604
20
-2.29327144966729
30
0
41
1
10
105.592733542344
20
-2.058267908142
30
0
41
1
10
105.585938764569
20
-1.92471028988936
30
0
41
1
10
105.542401658718
20
-1.7406683913436
30
0
41
1
10
105.501792335297
20
-1.43082046508704
30
0
41
1
10
105.424915946522
20
-0.982172792346972
30
0
41
1
10
105.357985653123
20
-0.531548978092388
30
0
41
1
10
105.301827278706
20
-0.224356532500934
30
0
41
1
10
105.281540675444
20
-0.0259628458855161
30
0
41
1
10
105.225094513616
20
0.142713909612638
30
0
41
1
10
105.121017194218
20
0.226598904966977
30
0
41
1
10
105.061342823339
20
0.258474667969608
30
0
41
1
10
105.052619644593
20
0.262845393194595
30
0
0
SPLINE
5
294
100
AcDbEntity
8
1
62
256
6
ByLayer
370
18
48
1
60
0
100
AcDbSpline
70
4
71
1
72
4
73
2
40
0
40
0
40
1
40
1
41
1
10
105.692294924854
20
-4.57014136391788
30
0
41
1
10
105.925013445643
20
-2.81215219832177
30
0
0
SPLINE
5
295
100
AcDbEntity
8
1
62
256
6
ByLayer
370
18
48
1
60
0
100
AcDbSpline
70
4
71
1
72
4
73
2
40
0
40
0
40
1
40
1
41
1
10
105.054128063081
20
-4.52193609582091
30
0
41
1
10
105.102053250535
20
-4.92507964256691
30
0
0
SPLINE
5
296
100
AcDbEntity
8
1
62
256
6
ByLayer
370
18
48
1
60
0
100
AcDbSpline
70
4
71
3
72
8
73
4
40
0
40
0
40
0
40
0
40
1
40
1
40
1
40
1
41
1
10
105.665326109925
20
-0.105469280899797
30
0
41
1
10
105.669821764031
20
-0.121061603095939
30
0
41
1
10
105.673345316653
20
-0.13686825441178
30
0
41
1
10
105.675896767789
20
-0.152889234847407
30
0
0
SPLINE
5
297
100
AcDbEntity
8
1
62
256
6
ByLayer
370
18
48
1
60
0
100
AcDbSpline
70
4
71
1
72
4
73
2
40
0
40
0
40
1
40
1
41
1
10
105.449149559303
20
0.0350193047001142
30
0
41
1
10
105.665326109925
20
-0.105469280899825
30
0
0
SPLINE
5
298
100
AcDbEntity
8
1
62
256
6
ByLayer
370
18
48
1
60
0
100
AcDbSpline
70
4
71
1
72
4
73
2
40
0
40
0
40
1
40
1
41
1
10
105.050162142807
20
-4.90017855689808
30
0
41
1
10
105.00644690677
20
-4.53244884651386
30
0
0
SPLINE
5
299
100
AcDbEntity
8
1
62
256
6
ByLayer
370
18
48
1
60
0
100
AcDbSpline
70
4
71
1
72
4
73
2
40
0
40
0
40
1
40
1
41
1
10
105.962234739775
20
-1.95085235567072
30
0
41
1
10
105.919935962458
20
-1.68525139067759
30
0
0
SPLINE
5
29A
100
AcDbEntity
8
1
62
256
6
ByLayer
370
18
48
1
60
0
100
AcDbSpline
70
4
71
2
72
6
73
3
40
0
40
0
40
0
40
1
40
1
40
1
41
1
10
105.773297229703
20
-2.08612251474443
30
0
41
1
10
105.780867388572
20
-2.02893644622623
30
0
41
1
10
105.77179462139
20
-1.97196705204294
30
0
0
SPLINE
5
29B
100
AcDbEntity
8
1
62
256
6
ByLayer
370
18
48
1
60
0
100
AcDbSpline
70
4
71
1
72
4
73
2
40
0
40
0
40
1
40
1
41
1
10
105.675896767789
20
-0.152889234847407
30
0
41
1
10
105.459720217166
20
-0.0124006492476951
30
0
0
SPLINE
5
29C
100
AcDbEntity
8
1
62
256
6
ByLayer
370
18
48
1
60
0
100
AcDbSpline
70
4
71
3
72
12
73
8
40
0
40
0
40
0
40
0
40
0.5
40
0.5
40
0.75
40
0.75
40
1
40
1
40
1
40
1
41
1
10
105.308432732011
20
0.481473404637058
30
0
41
1
10
105.36585195528
20
0.473788492799542
30
0
41
1
10
105.420827804244
20
0.448962871817713
30
0
41
1
10
105.486712301056
20
0.392597903446216
30
0
41
1
10
105.505850008502
20
0.370551574026592
30
0
41
1
10
105.537083791374
20
0.32197123863358
30
0
41
1
10
105.548901866655
20
0.295422475447253
30
0
41
1
10
105.557653383129
20
0.267909692909455
30
0
0
SPLINE
5
29D
100
AcDbEntity
8
1
62
256
6
ByLayer
370
13
48
1
60
0
100
AcDbSpline
70
4
71
3
72
22
73
18
40
0
40
0
40
0
40
0
40
0.249999999999904
40
0.249999999999904
40
0.374999999999904
40
0.374999999999904
40
0.499999999999903
40
0.499999999999903
40
0.624999999999903
40
0.624999999999903
40
0.749999999999903
40
0.749999999999903
40
0.812499999999903
40
0.812499999999903
40
0.874999999999903
40
0.874999999999903
40
1
40
1
40
1
40
1
41
1
10
105.525423845433
20
3.18524296068463
30
0
41
1
10
105.507117701504
20
3.17677756106241
30
0
41
1
10
105.486300855641
20
3.16816425047716
30
0
41
1
10
105.450175837901
20
3.15619437739531
30
0
41
1
10
105.437046374963
20
3.15232107297936
30
0
41
1
10
105.40944750586
20
3.14553444640131
30
0
41
1
10
105.394622072977
20
3.14256651061527
30
0
41
1
10
105.365618149217
20
3.13815828784018
30
0
41
1
10
105.351034165279
20
3.1366082065758
30
0
41
1
10
105.324074402551
20
3.1349606635456
30
0
41
1
10
105.311836888138
20
3.1350626621315
30
0
41
1
10
105.293969790233
20
3.13535853150466
30
0
41
1
10
105.287764462974
20
3.1353224836586
30
0
41
1
10
105.275133285639
20
3.13514496316503
30
0
41
1
10
105.268399941298
20
3.13485611098619
30
0
41
1
10
105.249660056851
20
3.13468892005534
30
0
41
1
10
105.237854280092
20
3.13490674068194
30
0
41
1
10
105.226280156744
20
3.13523551606286
30
0
0
SPLINE
5
29E
100
AcDbEntity
8
1
62
256
6
ByLayer
370
13
48
1
60
0
100
AcDbSpline
70
4
71
1
72
4
73
2
40
0
40
0
40
1
40
1
41
1
10
97.5122229941756
20
5.21783059723052
30
0
41
1
10
97.4171540513377
20
5.21516178978362
30
0
0
SPLINE
5
29F
100
AcDbEntity
8
1
62
256
6
ByLayer
370
13
48
1
60
0
100
AcDbSpline
70
4
71
3
72
16
73
12
40
0
40
0
40
0
40
0
40
0.500000000000008
40
0.500000000000008
40
0.750000000000004
40
0.750000000000004
40
0.812500000000007
40
0.812500000000007
40
0.87500000000001
40
0.87500000000001
40
1
40
1
40
1
40
1
41
1
10
101.632469133618
20
7.54847306870823
30
0
41
1
10
101.205786446125
20
7.52611157659825
30
0
41
1
10
100.77910381855
20
7.50374892582906
30
0
41
1
10
100.139079754289
20
7.47020732694432
30
0
41
1
10
99.9257382646592
20
7.4590294033132
30
0
41
1
10
99.6590617479226
20
7.44505031854865
30
0
41
1
10
99.6055941521743
20
7.44175008270935
30
0
41
1
10
99.4990051968849
20
7.44284319575394
30
0
41
1
10
99.4461683516145
20
7.4462430836052
30
0
41
1
10
99.2889788032537
20
7.46467908508023
30
0
41
1
10
99.1859386978668
20
7.48789922667217
30
0
41
1
10
99.084734185443
20
7.52256426421738
30
0
0
SPLINE
5
2A0
100
AcDbEntity
8
1
62
256
6
ByLayer
370
13
48
1
60
0
100
AcDbSpline
70
4
71
3
72
9
73
5
40
0
40
0
40
0
40
0
40
0.5
40
1
40
1
40
1
40
1
41
1
10
98.5033264644069
20
2.63730071706644
30
0
41
1
10
98.5251823530493
20
2.63760069311189
30
0
41
1
10
98.568873028266
20
2.63915859469111
30
0
41
1
10
98.6125415948048
20
2.64117957768988
30
0
41
1
10
98.6343786419101
20
2.64213218402279
30
0
0
SPLINE
5
2A1
100
AcDbEntity
8
1
62
256
6
ByLayer
370
13
48
1
60
0
100
AcDbSpline
70
4
71
3
72
16
73
12
40
0
40
0
40
0
40
0
40
0.499999999999984
40
0.499999999999984
40
0.749999999999984
40
0.749999999999984
40
0.812499999999984
40
0.812499999999984
40
0.874999999999984
40
0.874999999999984
40
1
40
1
40
1
40
1
41
1
10
101.621625637142
20
7.62300771108812
30
0
41
1
10
101.201566396863
20
7.60099333913777
30
0
41
1
10
100.781507212723
20
7.57897789599312
30
0
41
1
10
100.15141832705
20
7.5459568199359
30
0
41
1
10
99.9413886001179
20
7.5349528254724
30
0
41
1
10
99.6788516216312
20
7.52119079465371
30
0
41
1
10
99.6263683337306
20
7.51743826743618
30
0
41
1
10
99.5212457337986
20
7.51640593296878
30
0
41
1
10
99.4686127449701
20
7.51886380525735
30
0
41
1
10
99.3105003641366
20
7.53509099688364
30
0
41
1
10
99.2055644941388
20
7.55767517999701
30
0
41
1
10
99.1018949666721
20
7.59318454589237
30
0
0
SPLINE
5
2A2
100
AcDbEntity
8
1
62
256
6
ByLayer
370
13
48
1
60
0
100
AcDbSpline
70
4
71
2
72
6
73
3
40
0
40
0
40
0
40
1
40
1
40
1
41
1
10
97.4113108567275
20
5.32318450726348
30
0
41
0.997969722830446
10
97.4085485361364
20
5.30207764785419
30
0
41
0.999121851838217
10
97.4081709299506
20
5.2807915809972
30
0
0
SPLINE
5
2A3
100
AcDbEntity
8
1
62
256
6
ByLayer
370
13
48
1
60
0
100
AcDbSpline
70
4
71
1
72
4
73
2
40
0
40
0
40
1
40
1
41
1
10
104.981002252016
20
3.13765123969299
30
0
41
1
10
104.868704853913
20
2.96885937611987
30
0
0
SPLINE
5
2A4
100
AcDbEntity
8
1
62
256
6
ByLayer
370
13
48
1
60
0
100
AcDbSpline
70
4
71
3
72
20
73
16
40
0
40
0
40
0
40
0
40
0.24999999999997
40
0.24999999999997
40
0.374999999999975
40
0.374999999999975
40
0.49999999999998
40
0.49999999999998
40
0.624999999999985
40
0.624999999999985
40
0.74999999999999
40
0.74999999999999
40
0.874999999999995
40
0.874999999999995
40
1
40
1
40
1
40
1
41
1
10
105.590847388169
20
8.18679332925905
30
0
41
1
10
105.583222930615
20
8.2440139389077
30
0
41
1
10
105.562004347843
20
8.29783014708747
30
0
41
1
10
105.514114628274
20
8.36938176289232
30
0
41
1
10
105.495769934652
20
8.39102414121405
30
0
41
1
10
105.454891654275
20
8.43042482185172
30
0
41
1
10
105.431989322934
20
8.44817455740534
30
0
41
1
10
105.383770058356
20
8.47811162031425
30
0
41
1
10
105.358329613043
20
8.4905735250062
30
0
41
1
10
105.304402671869
20
8.50976000564171
30
0
41
1
10
105.276655324797
20
8.51649102299973
30
0
41
1
10
105.220777098548
20
8.5245392864328
30
0
41
1
10
105.192270620668
20
8.52440134008035
30
0
41
1
10
105.135357823826
20
8.52498704785702
30
0
41
1
10
105.106901705152
20
8.52514412286428
30
0
41
1
10
105.078445883758
20
8.52515690978839
30
0
0
SPLINE
5
2A5
100
AcDbEntity
8
1
62
256
6
ByLayer
370
13
48
1
60
0
100
AcDbSpline
70
4
71
3
72
9
73
5
40
0
40
0
40
0
40
0
40
0.5
40
1
40
1
40
1
40
1
41
1
10
104.953978870911
20
8.52431990796362
30
0
41
1
10
104.932122982268
20
8.52401993191819
30
0
41
1
10
104.888432307052
20
8.52246203033894
30
0
41
1
10
104.844763740513
20
8.52044104734017
30
0
41
1
10
104.822926693408
20
8.5194884410073
30
0
0
SPLINE
5
2A6
100
AcDbEntity
8
1
62
256
6
ByLayer
370
13
48
1
60
0
100
AcDbSpline
70
4
71
2
72
6
73
3
40
0
40
0
40
0
40
1
40
1
40
1
41
1
10
105.949964697186
20
5.88645165871841
30
0
41
0.997409491337352
10
105.949582255864
20
5.91529672556347
30
0
41
1
10
105.945082341142
20
5.94379002779954
30
0
0
SPLINE
5
2A7
100
AcDbEntity
8
1
62
256
6
ByLayer
370
13
48
1
60
0
100
AcDbSpline
70
4
71
3
72
10
73
6
40
0
40
0
40
0
40
0
40
0.38288139435285
40
0.38288139435285
40
1
40
1
40
1
40
1
41
1
10
104.41008841102
20
7.99155087155685
30
0
41
1
10
104.415353324982
20
7.99123760353939
30
0
41
1
10
104.426463740627
20
7.99078398432894
30
0
41
1
10
104.467971407492
20
7.98938459583323
30
0
41
1
10
104.505940281719
20
7.98832514671025
30
0
41
1
10
104.545215990761
20
7.98740994902116
30
0
0
SPLINE
5
2A8
100
AcDbEntity
8
1
62
256
6
ByLayer
370
13
48
1
60
0
100
AcDbSpline
70
4
71
3
72
8
73
4
40
0
40
0
40
0
40
0
40
1
40
1
40
1
40
1
41
1
10
105.078445883758
20
8.52515690978839
30
0
41
1
10
105.036956266233
20
8.52517555358662
30
0
41
1
10
104.995467318972
20
8.52486887714929
30
0
41
1
10
104.953978870911
20
8.52431990796362
30
0
0
SPLINE
5
2A9
100
AcDbEntity
8
1
62
256
6
ByLayer
370
13
48
1
60
0
100
AcDbSpline
70
4
71
3
72
8
73
4
40
0
40
0
40
0
40
0
40
1
40
1
40
1
40
1
41
1
10
105.104581324188
20
3.14233065757787
30
0
41
1
10
105.085654253565
20
3.14160384760999
30
0
41
1
10
105.068206145648
20
3.14169935321971
30
0
41
1
10
105.051037468023
20
3.14195022186681
30
0
0
SPLINE
5
2AA
100
AcDbEntity
8
1
62
256
6
ByLayer
370
13
48
1
60
0
100
AcDbSpline
70
4
71
3
72
10
73
6
40
0
40
0
40
0
40
0
40
0.5
40
0.5
40
1
40
1
40
1
40
1
41
1
10
104.440632653815
20
8.08340732337956
30
0
41
1
10
104.43695093912
20
8.08321437288842
30
0
41
1
10
104.446251834195
20
8.07230205512079
30
0
41
1
10
104.484894830674
20
8.03646631318782
30
0
41
1
10
104.514251107414
20
8.01167746307451
30
0
41
1
10
104.545215990761
20
7.98740994902116
30
0
0
SPLINE
5
2AB
100
AcDbEntity
8
1
62
256
6
ByLayer
370
13
48
1
60
0
100
AcDbSpline
70
4
71
2
72
6
73
3
40
0
40
0
40
0
40
1
40
1
40
1
41
1
10
105.949964697186
20
5.88645165871841
30
0
41
0.997409491337352
10
105.950347138509
20
5.85760659187472
30
0
41
1
10
105.946604190957
20
5.82900677329988
30
0
0
SPLINE
5
2AC
100
AcDbEntity
8
1
62
256
6
ByLayer
370
13
48
1
60
0
100
AcDbSpline
70
4
71
3
72
18
73
14
40
0
40
0
40
0
40
0
40
0.0312500000000004
40
0.0312500000000004
40
0.0625000000000009
40
0.0625000000000009
40
0.125000000000003
40
0.125000000000003
40
0.250000000000003
40
0.250000000000003
40
0.500000000000002
40
0.500000000000002
40
1
40
1
40
1
40
1
41
1
10
105.627597477412
20
3.38230220526936
30
0
41
1
10
105.627016586388
20
3.37364841966456
30
0
41
1
10
105.626146021382
20
3.36413141512835
30
0
41
1
10
105.623849589471
20
3.34485870560726
30
0
41
1
10
105.622463886435
20
3.33557630664055
30
0
41
1
10
105.618260221203
20
3.31166025116272
30
0
41
1
10
105.61536645098
20
3.29960448456165
30
0
41
1
10
105.607285222535
20
3.26982834384072
30
0
41
1
10
105.602350257781
20
3.25708443226517
30
0
41
1
10
105.588134420451
20
3.22474767110947
30
0
41
1
10
105.579555777048
20
3.21305054522259
30
0
41
1
10
105.554843195702
20
3.18722727465695
30
0
41
1
10
105.539836050101
20
3.1837910684535
30
0
41
1
10
105.525423845425
20
3.18524296067983
30
0
0
SPLINE
5
2AD
100
AcDbEntity
8
1
62
256
6
ByLayer
370
13
48
1
60
0
100
AcDbSpline
70
4
71
3
72
22
73
18
40
0
40
0
40
0
40
0
40
0.0624999999999896
40
0.0624999999999896
40
0.124999999999979
40
0.124999999999979
40
0.249999999999958
40
0.249999999999958
40
0.281249999999961
40
0.281249999999961
40
0.312499999999963
40
0.312499999999963
40
0.374999999999968
40
0.374999999999968
40
0.499999999999977
40
0.499999999999977
40
1
40
1
40
1
40
1
41
1
10
104.310747594047
20
7.95721096540888
30
0
41
1
10
104.262826996127
20
7.92570469940387
30
0
41
1
10
104.213035884512
20
7.89713014885129
30
0
41
1
10
104.109634434881
20
7.84596704244905
30
0
41
1
10
104.05572174897
20
7.82332913652209
30
0
41
1
10
103.893269145259
20
7.76652571225929
30
0
41
1
10
103.782611055841
20
7.74235122587231
30
0
41
1
10
103.641400808504
20
7.72891524198491
30
0
41
1
10
103.612961675939
20
7.72737343662499
30
0
41
1
10
103.556072400915
20
7.72435381231494
30
0
41
1
10
103.527620913325
20
7.72288381088373
30
0
41
1
10
103.44227125192
20
7.71844590239985
30
0
41
1
10
103.385377405091
20
7.71545330341971
30
0
41
1
10
103.214692657237
20
7.70648964940611
30
0
41
1
10
103.100902239253
20
7.70052506166718
30
0
41
1
10
102.531949215352
20
7.67071994209113
30
0
41
1
10
102.076787535855
20
7.64686173541392
30
0
41
1
10
101.621625637142
20
7.62300771108812
30
0
0
SPLINE
5
2AE
100
AcDbEntity
8
1
62
256
6
ByLayer
370
13
48
1
60
0
100
AcDbSpline
70
4
71
1
72
4
73
2
40
0
40
0
40
1
40
1
41
1
10
105.036358208222
20
3.03543521254446
30
0
41
1
10
105.104581324188
20
3.14233065757787
30
0
0
SPLINE
5
2AF
100
AcDbEntity
8
1
62
256
6
ByLayer
370
13
48
1
60
0
100
AcDbSpline
70
4
71
3
72
10
73
6
40
0
40
0
40
0
40
0
40
0.5
40
0.5
40
1
40
1
40
1
40
1
41
1
10
99.0074482818259
20
3.07772987134822
30
0
41
1
10
99.0037665671307
20
3.07753692085711
30
0
41
1
10
98.98726595078
20
3.08807191722124
30
0
41
1
10
98.9384449386267
20
3.12337425195523
30
0
41
1
10
98.9061566291974
20
3.14800944074642
30
0
41
1
10
98.8751917458497
20
3.17227695479983
30
0
0
SPLINE
5
2B0
100
AcDbEntity
8
1
62
256
6
ByLayer
370
13
48
1
60
0
100
AcDbSpline
70
4
71
3
72
10
73
6
40
0
40
0
40
0
40
0
40
0.5
40
0.5
40
1
40
1
40
1
40
1
41
1
10
99.0408485040222
20
3.16918228096628
30
0
41
1
10
99.0371650398813
20
3.1689892387906
30
0
41
1
10
99.0167728910099
20
3.16926200034689
30
0
41
1
10
98.9553685977472
20
3.17045598167482
30
0
41
1
10
98.9144674548918
20
3.1713617571107
30
0
41
1
10
98.8751917458497
20
3.17227695479983
30
0
0
SPLINE
5
2B1
100
AcDbEntity
8
1
62
256
6
ByLayer
370
13
48
1
60
0
100
AcDbSpline
70
4
71
2
72
6
73
3
40
0
40
0
40
0
40
1
40
1
40
1
41
1
10
97.5073406381313
20
5.27516896631164
30
0
41
0.997409491337352
10
97.5077230794537
20
5.24632389946657
30
0
41
1
10
97.5122229941756
20
5.21783059723052
30
0
0
SPLINE
5
2B2
100
AcDbEntity
8
1
62
256
6
ByLayer
370
13
48
1
60
0
100
AcDbSpline
70
4
71
3
72
10
73
6
40
0
40
0
40
0
40
0
40
0.182480743020973
40
0.182480743020973
40
1
40
1
40
1
40
1
41
1
10
97.7233573242016
20
8.13226171404543
30
0
41
1
10
97.7382039657799
20
8.13427367025693
30
0
41
1
10
97.7531558313412
20
8.13586413701591
30
0
41
1
10
97.8349096354252
20
8.14541800630309
30
0
41
1
10
97.9018613824618
20
8.15209825080385
30
0
41
1
10
97.9688680127621
20
8.15824575984223
30
0
0
SPLINE
5
2B3
100
AcDbEntity
8
1
62
256
6
ByLayer
370
13
48
1
60
0
100
AcDbSpline
70
4
71
3
72
8
73
4
40
0
40
0
40
0
40
0
40
1
40
1
40
1
40
1
41
1
10
98.1026923644564
20
8.00618636409953
30
0
41
1
10
98.1231609089735
20
8.00699395929107
30
0
41
1
10
98.1425893539587
20
8.00700223874929
30
0
41
1
10
98.1618212841512
20
8.00685950058738
30
0
0
SPLINE
5
2B4
100
AcDbEntity
8
1
62
256
6
ByLayer
370
13
48
1
60
0
100
AcDbSpline
70
4
71
3
72
22
73
18
40
0
40
0
40
0
40
0
40
0.0624999999999896
40
0.0624999999999896
40
0.124999999999979
40
0.124999999999979
40
0.249999999999958
40
0.249999999999958
40
0.281249999999961
40
0.281249999999961
40
0.312499999999963
40
0.312499999999963
40
0.374999999999968
40
0.374999999999968
40
0.499999999999977
40
0.499999999999977
40
1
40
1
40
1
40
1
41
1
10
99.1465577412708
20
3.20440965962118
30
0
41
1
10
99.1944783391912
20
3.23591592562616
30
0
41
1
10
99.2442694508053
20
3.26449047617876
30
0
41
1
10
99.3476709004373
20
3.31565358258104
30
0
41
1
10
99.401583586348
20
3.33829148850793
30
0
41
1
10
99.5640361900581
20
3.39509491277076
30
0
41
1
10
99.6746942794769
20
3.41926939915777
30
0
41
1
10
99.8159045268139
20
3.43270538304518
30
0
41
1
10
99.8443436593782
20
3.4342471884051
30
0
41
1
10
99.9012329344026
20
3.43726681271514
30
0
41
1
10
99.929684421993
20
3.43873681414632
30
0
41
1
10
100.015034083397
20
3.4431747226302
30
0
41
1
10
100.071927930226
20
3.44616732161035
30
0
41
1
10
100.242612678081
20
3.45513097562394
30
0
41
1
10
100.356403096064
20
3.46109556336287
30
0
41
1
10
100.925356119966
20
3.49090068293893
30
0
41
1
10
101.380517799462
20
3.51475888961613
30
0
41
1
10
101.835679698176
20
3.53861291394193
30
0
0
SPLINE
5
2B5
100
AcDbEntity
8
1
62
256
6
ByLayer
370
13
48
1
60
0
100
AcDbSpline
70
4
71
1
72
4
73
2
40
0
40
0
40
1
40
1
41
1
10
98.2318564918704
20
8.01115848232683
30
0
41
1
10
98.099707298541
20
8.16713944288969
30
0
0
SPLINE
5
2B6
100
AcDbEntity
8
1
62
256
6
ByLayer
370
13
48
1
60
0
100
AcDbSpline
70
4
71
2
72
6
73
3
40
0
40
0
40
0
40
1
40
1
40
1
41
1
10
97.5073406381313
20
5.27516896631164
30
0
41
0.997409491337351
10
97.5069581968089
20
5.30401403315537
30
0
41
1
10
97.5107011443608
20
5.33261385173017
30
0
0
SPLINE
5
2B7
100
AcDbEntity
8
1
62
256
6
ByLayer
370
13
48
1
60
0
100
AcDbSpline
70
4
71
3
72
24
73
20
40
0
40
0
40
0
40
0
40
0.124999999999882
40
0.124999999999882
40
0.249999999999763
40
0.249999999999763
40
0.374999999999645
40
0.374999999999645
40
0.499999999999527
40
0.499999999999527
40
0.562499999999503
40
0.562499999999503
40
0.593749999999528
40
0.593749999999528
40
0.624999999999553
40
0.624999999999553
40
0.749999999999725
40
0.749999999999725
40
1
40
1
40
1
40
1
41
1
10
97.6671208616327
20
7.96250214777717
30
0
41
1
10
97.6774595314099
20
7.96853771168063
30
0
41
1
10
97.6892760401871
20
7.97462546767341
30
0
41
1
10
97.7167712209259
20
7.98648991657603
30
0
41
1
10
97.7326447761208
20
7.99229847151793
30
0
41
1
10
97.7697269496688
20
8.00226342733561
30
0
41
1
10
97.7911033317058
20
8.00630037997905
30
0
41
1
10
97.8343344600824
20
8.01127238024884
30
0
41
1
10
97.8555242813713
20
8.01215884994309
30
0
41
1
10
97.884751803985
20
8.01181600812888
30
0
41
1
10
97.8946734712898
20
8.01183970560066
30
0
41
1
10
97.9100419188045
20
8.01218348182564
30
0
41
1
10
97.915346529314
20
8.01240969666418
30
0
41
1
10
97.9254974905161
20
8.01258075270778
30
0
41
1
10
97.9304530877752
20
8.0125926718068
30
0
41
1
10
97.9550799527173
20
8.012559478095
30
0
41
1
10
97.9741504036236
20
8.01214546102173
30
0
41
1
10
98.0300401099501
20
8.01009191284169
30
0
41
1
10
98.0658097996128
20
8.00782575103148
30
0
41
1
10
98.1026923644564
20
8.00618636409953
30
0
0
SPLINE
5
2B8
100
AcDbEntity
8
1
62
256
6
ByLayer
370
13
48
1
60
0
100
AcDbSpline
70
4
71
3
72
8
73
4
40
0
40
0
40
0
40
0
40
1
40
1
40
1
40
1
41
1
10
105.226280156744
20
3.13523551606286
30
0
41
1
10
105.183333442191
20
3.13645546352774
30
0
41
1
10
105.14513174316
20
3.13992815507336
30
0
41
1
10
105.104581324188
20
3.14233065757787
30
0
0
SPLINE
5
2B9
100
AcDbEntity
8
1
62
256
6
ByLayer
370
13
48
1
60
0
100
AcDbSpline
70
4
71
3
72
10
73
6
40
0
40
0
40
0
40
0
40
0.645666444758839
40
0.645666444758839
40
1
40
1
40
1
40
1
41
1
10
105.495979876816
20
3.13359315965573
30
0
41
1
10
105.466346939187
20
3.10100072837741
30
0
41
1
10
105.431440780806
20
3.07319581960488
30
0
41
1
10
105.371803347875
20
3.04013015677433
30
0
41
1
10
105.349413005435
20
3.03039275491932
30
0
41
1
10
105.326529516973
20
3.02256448792184
30
0
0
SPLINE
5
2BA
100
AcDbEntity
8
1
62
256
6
ByLayer
370
13
48
1
60
0
100
AcDbSpline
70
4
71
3
72
18
73
14
40
0
40
0
40
0
40
0
40
0.124999999999988
40
0.124999999999988
40
0.249999999999976
40
0.249999999999976
40
0.499999999999983
40
0.499999999999983
40
0.624999999999988
40
0.624999999999988
40
0.749999999999992
40
0.749999999999992
40
1
40
1
40
1
40
1
41
1
10
97.8664579471488
20
2.97482729577104
30
0
41
1
10
97.8709649718675
20
2.94100263345206
30
0
41
1
10
97.8802258312979
20
2.90813636697021
30
0
41
1
10
97.9070231995701
20
2.84666291852668
30
0
41
1
10
97.9247316450837
20
2.81720469987403
30
0
41
1
10
97.9874043044113
20
2.73822670316713
30
0
41
1
10
98.0424912112948
20
2.69613099523846
30
0
41
1
10
98.1352732173962
20
2.65673600220245
30
0
41
1
10
98.1682214124229
20
2.64766443309233
30
0
41
1
10
98.2341035544881
20
2.63683806937522
30
0
41
1
10
98.2678326672107
20
2.63722797557145
30
0
41
1
10
98.3687610597127
20
2.63605573550464
30
0
41
1
10
98.4360443137656
20
2.63641044931305
30
0
41
1
10
98.5033264644069
20
2.63730071706644
30
0
0
SPLINE
5
2BB
100
AcDbEntity
8
1
62
256
6
ByLayer
370
13
48
1
60
0
100
AcDbSpline
70
4
71
1
72
4
73
2
40
0
40
0
40
1
40
1
41
1
10
97.8664579471488
20
2.97482729577104
30
0
41
1
10
97.8364267680268
20
2.97398425037545
30
0
0
SPLINE
5
2BC
100
AcDbEntity
8
1
62
256
6
ByLayer
370
13
48
1
60
0
100
AcDbSpline
70
4
71
3
72
8
73
4
40
0
40
0
40
0
40
0
40
1
40
1
40
1
40
1
41
1
10
97.4092884957367
20
5.26913151031909
30
0
41
1
10
97.4108452443967
20
5.25426442969138
30
0
41
1
10
97.4130790330813
20
5.23694436476501
30
0
41
1
10
97.4171540513377
20
5.21516178978362
30
0
0
SPLINE
5
2BD
100
AcDbEntity
8
1
62
256
6
ByLayer
370
13
48
1
60
0
100
AcDbSpline
70
4
71
3
72
18
73
14
40
0
40
0
40
0
40
0
40
0.0553337967182219
40
0.0553337967182219
40
0.110667593436444
40
0.110667593436444
40
0.22133518687289
40
0.22133518687289
40
0.442670373745783
40
0.442670373745783
40
0.885340747491568
40
0.885340747491568
40
1
40
1
40
1
40
1
41
1
10
97.8364267680268
20
2.97398425037545
30
0
41
1
10
97.8379090437795
20
2.9654385907597
30
0
41
1
10
97.839769637598
20
2.95606472019284
30
0
41
1
10
97.844068036124
20
2.93713763108954
30
0
41
1
10
97.8464164230331
20
2.92805092748432
30
0
41
1
10
97.8530969686742
20
2.90470528932764
30
0
41
1
10
97.8572350572774
20
2.89301804683177
30
0
41
1
10
97.8683844701391
20
2.86424974131558
30
0
41
1
10
97.874624502133
20
2.85209148650327
30
0
41
1
10
97.892142575569
20
2.82141782913888
30
0
41
1
10
97.9018969068594
20
2.81068149374326
30
0
41
1
10
97.9133440887418
20
2.80098763192169
30
0
41
1
10
97.9156504704472
20
2.7992205902824
30
0
41
1
10
97.9179121132987
20
2.797661812912
30
0
0
SPLINE
5
2BE
100
AcDbEntity
8
1
62
256
6
ByLayer
370
13
48
1
60
0
100
AcDbSpline
70
4
71
3
72
16
73
12
40
0
40
0
40
0
40
0
40
0.499999999999992
40
0.499999999999992
40
0.749999999999979
40
0.749999999999979
40
0.812499999999989
40
0.812499999999989
40
0.874999999999998
40
0.874999999999998
40
1
40
1
40
1
40
1
41
1
10
101.835679698176
20
3.53861291394193
30
0
41
1
10
102.255738938455
20
3.56062728589228
30
0
41
1
10
102.675798122595
20
3.58264272903693
30
0
41
1
10
103.305887008267
20
3.61566380509416
30
0
41
1
10
103.5159167352
20
3.62666779955765
30
0
41
1
10
103.778453713687
20
3.64042983037635
30
0
41
1
10
103.830937001587
20
3.64418235759388
30
0
41
1
10
103.936059601519
20
3.64521469206127
30
0
41
1
10
103.988692590348
20
3.6427568197727
30
0
41
1
10
104.146804971181
20
3.62652962814644
30
0
41
1
10
104.251740841179
20
3.60394544503305
30
0
41
1
10
104.355410368646
20
3.56843607913768
30
0
0
SPLINE
5
2BF
100
AcDbEntity
8
1
62
256
6
ByLayer
370
13
48
1
60
0
100
AcDbSpline
70
4
71
1
72
4
73
2
40
0
40
0
40
1
40
1
41
1
10
97.9688680127622
20
8.15824575984223
30
0
41
1
10
98.1026923644564
20
8.00618636409953
30
0
0
SPLINE
5
2C0
100
AcDbEntity
8
1
62
256
6
ByLayer
370
13
48
1
60
0
100
AcDbSpline
70
4
71
3
72
9
73
5
40
0
40
0
40
0
40
0
40
0.5
40
1
40
1
40
1
40
1
41
1
10
97.9688680127621
20
8.15824575984223
30
0
41
1
10
97.9906355285947
20
8.16023198955008
30
0
41
1
10
98.0342497067791
20
8.16324954145824
30
0
41
1
10
98.0778903025885
20
8.16580423776921
30
0
41
1
10
98.099707298541
20
8.16713944288969
30
0
0
SPLINE
5
2C1
100
AcDbEntity
8
1
62
256
6
ByLayer
370
13
48
1
60
0
100
AcDbSpline
70
4
71
3
72
8
73
4
40
0
40
0
40
0
40
0
40
1
40
1
40
1
40
1
41
1
10
97.4092884957367
20
5.26913151031914
30
0
41
1
10
97.4088624402081
20
5.27320037645055
30
0
41
1
10
97.4084944286165
20
5.27707171791397
30
0
41
1
10
97.4081709299512
20
5.28079158099936
30
0
0
SPLINE
5
2C2
100
AcDbEntity
8
1
62
256
6
ByLayer
370
13
48
1
60
0
100
AcDbSpline
70
4
71
1
72
4
73
2
40
0
40
0
40
1
40
1
41
1
10
97.5107011443608
20
5.33261385173017
30
0
41
1
10
97.4113108567275
20
5.32318450726348
30
0
0
SPLINE
5
2C3
100
AcDbEntity
8
1
62
256
6
ByLayer
370
13
48
1
60
0
100
AcDbSpline
70
4
71
3
72
18
73
14
40
0
40
0
40
0
40
0
40
0.12500000000002
40
0.12500000000002
40
0.250000000000041
40
0.250000000000041
40
0.312500000000044
40
0.312500000000044
40
0.375000000000046
40
0.375000000000046
40
0.500000000000037
40
0.500000000000037
40
1
40
1
40
1
40
1
41
1
10
104.358590354789
20
7.89481979471614
30
0
41
1
10
104.26050857899
20
7.83033415278609
30
0
41
1
10
104.15688448989
20
7.77861043606833
30
0
41
1
10
103.938937863665
20
7.69979762470513
30
0
41
1
10
103.823678135624
20
7.67281928426226
30
0
41
1
10
103.651356565371
20
7.65345507383876
30
0
41
1
10
103.593620996014
20
7.65121341403633
30
0
41
1
10
103.478255633303
20
7.64521967729786
30
0
41
1
10
103.420574746813
20
7.64219717933614
30
0
41
1
10
103.247533401106
20
7.63311092571996
30
0
41
1
10
103.132171990356
20
7.62706075736514
30
0
41
1
10
102.555362638545
20
7.59684273055222
30
0
41
1
10
102.093915985955
20
7.57265647349638
30
0
41
1
10
101.632469133618
20
7.54847306870823
30
0
0
SPLINE
5
2C4
100
AcDbEntity
8
1
62
256
6
ByLayer
370
13
48
1
60
0
100
AcDbSpline
70
4
71
3
72
18
73
14
40
0
40
0
40
0
40
0
40
0.125000000000005
40
0.125000000000005
40
0.250000000000011
40
0.250000000000011
40
0.312500000000006
40
0.312500000000006
40
0.375000000000002
40
0.375000000000002
40
0.500000000000007
40
0.500000000000007
40
1
40
1
40
1
40
1
41
1
10
99.112551580044
20
3.26752597576734
30
0
41
1
10
99.210633355843
20
3.33201161769736
30
0
41
1
10
99.3142574449429
20
3.38373533441515
30
0
41
1
10
99.5322040711676
20
3.46254814577833
30
0
41
1
10
99.6474637992085
20
3.48952648622125
30
0
41
1
10
99.8197853694621
20
3.50889069664473
30
0
41
1
10
99.8775209388186
20
3.51113235644715
30
0
41
1
10
99.9928863015299
20
3.51712609318562
30
0
41
1
10
100.05056718802
20
3.52014859114732
30
0
41
1
10
100.223608533727
20
3.52923484476352
30
0
41
1
10
100.338969944477
20
3.53528501311834
30
0
41
1
10
100.915779296288
20
3.56550303993123
30
0
41
1
10
101.377225948878
20
3.5896892969871
30
0
41
1
10
101.838672801215
20
3.61387270177522
30
0
0
SPLINE
5
2C5
100
AcDbEntity
8
1
62
256
6
ByLayer
370
13
48
1
60
0
100
AcDbSpline
70
4
71
3
72
16
73
12
40
0
40
0
40
0
40
0
40
0.499999999999992
40
0.499999999999992
40
0.749999999999996
40
0.749999999999996
40
0.812499999999997
40
0.812499999999997
40
0.874999999999998
40
0.874999999999998
40
1
40
1
40
1
40
1
41
1
10
101.838672801215
20
3.61387270177522
30
0
41
1
10
102.265355488707
20
3.63623419388523
30
0
41
1
10
102.692038116283
20
3.6585968446544
30
0
41
1
10
103.332062180544
20
3.69213844353914
30
0
41
1
10
103.545403670174
20
3.70331636717026
30
0
41
1
10
103.81208018691
20
3.71729545193483
30
0
41
1
10
103.865547782658
20
3.72059568777414
30
0
41
1
10
103.972136737948
20
3.71950257472955
30
0
41
1
10
104.024973583218
20
3.71610268687829
30
0
41
1
10
104.182163131579
20
3.69766668540325
30
0
41
1
10
104.285203236966
20
3.67444654381129
30
0
41
1
10
104.38640774939
20
3.6397815062661
30
0
0
SPLINE
5
2C6
100
AcDbEntity
8
1
62
256
6
ByLayer
370
13
48
1
60
0
100
AcDbSpline
70
4
71
1
72
4
73
2
40
0
40
0
40
1
40
1
41
1
10
97.4092884957367
20
5.26913151031911
30
0
41
1
10
97.5073406381313
20
5.27516896631164
30
0
0
SPLINE
5
2C7
100
AcDbEntity
8
SK1
62
256
6
ByLayer
370
13
48
1
60
0
100
AcDbSpline
70
4
71
3
72
8
73
4
40
0
40
0
40
0
40
0
40
1
40
1
40
1
40
1
41
1
10
-49
20
-5.92278394612697
30
0
41
1
10
-49.3676500378717
20
-5.30224712602285
30
0
41
1
10
-49.707047214772
20
-4.66786404827869
30
0
41
1
10
-50
20
-4.01071934601507
30
0
0
SPLINE
5
2C8
100
AcDbEntity
8
SK1
62
256
6
ByLayer
370
13
48
1
60
0
100
AcDbSpline
70
4
71
3
72
8
73
4
40
0
40
0
40
0
40
0
40
1
40
1
40
1
40
1
41
1
10
-48.5162221138916
20
-5.74653012019172
30
0
41
1
10
-48.5438943240354
20
-5.8053619080776
30
0
41
1
10
-48.5718097134632
20
-5.8641121339023
30
0
41
1
10
-48.5999588949608
20
-5.92278394612697
30
0
0
SPLINE
5
2C9
100
AcDbEntity
8
SK1
62
256
6
ByLayer
370
13
48
1
60
0
100
AcDbSpline
70
4
71
3
72
8
73
4
40
0
40
0
40
0
40
0
40
1
40
1
40
1
40
1
41
1
10
-46.6001472688721
20
-5.92278394612745
30
0
41
1
10
-46.9478347132449
20
-5.72051144449824
30
0
41
1
10
-47.2929597564581
20
-5.51306300226608
30
0
41
1
10
-47.6338131992802
20
-5.29933610071166
30
0
0
SPLINE
5
2CA
100
AcDbEntity
8
1
62
256
6
ByLayer
370
13
48
1
60
0
100
AcDbSpline
70
4
71
3
72
30
73
26
40
0
40
0
40
0
40
0
40
0.0248654345162956
40
0.0248654345162956
40
0.106126648306607
40
0.106126648306607
40
0.146757255201762
40
0.146757255201762
40
0.187387862096917
40
0.187387862096917
40
0.268649075887225
40
0.268649075887225
40
0.349910289677534
40
0.349910289677534
40
0.431171503467843
40
0.431171503467843
40
0.512432717258151
40
0.512432717258151
40
0.674955144838767
40
0.674955144838767
40
0.756216358629075
40
0.756216358629075
40
0.837477572419383
40
0.837477572419383
40
1
40
1
40
1
40
1
41
1
10
82.5199306164888
20
-6.69727945855678
30
0
41
1
10
82.2912941866348
20
-6.75551818088263
30
0
41
1
10
82.0626546592104
20
-6.81219344698937
30
0
41
1
10
81.0866346410188
20
-7.04721002690076
30
0
41
1
10
80.3386449752981
20
-7.2094736556696
30
0
41
1
10
79.2094533212429
20
-7.42148089371244
30
0
41
1
10
78.8318413904464
20
-7.48695208447069
30
0
41
1
10
78.0730367288594
20
-7.60720415666492
30
0
41
1
10
77.6915758246465
20
-7.66198423757706
30
0
41
1
10
76.5436758182027
20
-7.81025882535664
30
0
41
1
10
75.7731410228934
20
-7.8882506549071
30
0
41
1
10
74.2209061023723
20
-8.01268587458893
30
0
41
1
10
73.4392701101698
20
-8.05920472461827
30
0
41
1
10
71.8654344367938
20
-8.12984147133869
30
0
41
1
10
71.0729726533182
20
-8.1538786016819
30
0
41
1
10
69.4776113017718
20
-8.18651331195338
30
0
41
1
10
68.6773744808031
20
-8.19507590738306
30
0
41
1
10
66.2683665169542
20
-8.20749889598233
30
0
41
1
10
64.651273865029
20
-8.19871466314819
30
0
41
1
10
62.2048651944133
20
-8.19015216169711
30
0
41
1
10
61.3856481889137
20
-8.18792953094245
30
0
41
1
10
59.748798420202
20
-8.18528276470491
30
0
41
1
10
58.9302568677692
20
-8.18478358017663
30
0
41
1
10
56.4745363130902
20
-8.1841102575348
30
0
41
1
10
54.8372599894322
20
-8.18469167238015
30
0
41
1
10
53.2
20
-8.18513343253304
30
0
0
SPLINE
5
2CB
100
AcDbEntity
8
1
62
256
6
ByLayer
370
13
48
1
60
0
100
AcDbSpline
70
4
71
3
72
8
73
4
40
0
40
0
40
0
40
0
40
1
40
1
40
1
40
1
41
1
10
93.2540706154505
20
0.618923244209213
30
0
41
1
10
93.5818690518846
20
0.528472750728042
30
0
41
1
10
93.9138279349484
20
0.474234938679672
30
0
41
1
10
94.2499679839062
20
0.457088828370218
30
0
0
SPLINE
5
2CC
100
AcDbEntity
8
1
62
256
6
ByLayer
370
13
48
1
60
0
100
AcDbSpline
70
4
71
3
72
10
73
6
40
0
40
0
40
0
40
0
40
0.252223861558241
40
0.252223861558241
40
1
40
1
40
1
40
1
41
1
10
97.2969369858375
20
4.83267704882215
30
0
41
1
10
97.3046256387378
20
4.83193001651995
30
0
41
1
10
97.3124450218779
20
4.83115159255672
30
0
41
1
10
97.3439367133834
20
4.82793859298735
30
0
41
1
10
97.3681929864551
20
4.82529699381499
30
0
41
1
10
97.3931418100494
20
4.82240533662994
30
0
0
SPLINE
5
2CD
100
AcDbEntity
8
1
62
256
6
ByLayer
370
13
48
1
60
0
100
AcDbSpline
70
4
71
3
72
8
73
4
40
0
40
0
40
0
40
0
40
1
40
1
40
1
40
1
41
1
10
105.043109203051
20
0.513599089701273
30
0
41
1
10
105.128643769406
20
0.534604733740764
30
0
41
1
10
105.213284922314
20
0.543862974324782
30
0
41
1
10
105.297862785416
20
0.543394878758363
30
0
0
SPLINE
5
2CE
100
AcDbEntity
8
1
62
256
6
ByLayer
370
13
48
1
60
0
100
AcDbSpline
70
4
71
3
72
14
73
10
40
0
40
0
40
0
40
0
40
0.25
40
0.25
40
0.5
40
0.5
40
0.75
40
0.75
40
1
40
1
40
1
40
1
41
1
10
104.945594428224
20
3.03067716688477
30
0
41
1
10
104.862481872505
20
3.02632142240896
30
0
41
1
10
104.780512852997
20
3.03103941952349
30
0
41
1
10
104.619683802073
20
3.05610342512429
30
0
41
1
10
104.544045194701
20
3.07581785203959
30
0
41
1
10
104.398231942066
20
3.12810502446112
30
0
41
1
10
104.328019592382
20
3.16094384244198
30
0
41
1
10
104.195924475243
20
3.23848387234398
30
0
41
1
10
104.13334543508
20
3.28344759397157
30
0
41
1
10
104.074507486924
20
3.33550575499802
30
0
0
SPLINE
5
2CF
100
AcDbEntity
8
1
62
256
6
ByLayer
370
13
48
1
60
0
100
AcDbSpline
70
4
71
3
72
24
73
20
40
0
40
0
40
0
40
0
40
0.249999999999999
40
0.249999999999999
40
0.499999999999999
40
0.499999999999999
40
0.624999999999999
40
0.624999999999999
40
0.656249999999999
40
0.656249999999999
40
0.687499999999999
40
0.687499999999999
40
0.749999999999999
40
0.749999999999999
40
0.874999999999999
40
0.874999999999999
40
0.9375
40
0.9375
40
1
40
1
40
1
40
1
41
1
10
8.89757529627758
20
-11.3239239582968
30
0
41
1
10
9.54344205911099
20
-11.1401723646974
30
0
41
1
10
10.1771361530805
20
-10.9310301396093
30
0
41
1
10
11.4200937226848
20
-10.4617865420096
30
0
41
1
10
12.0300321440804
20
-10.2013423765323
30
0
41
1
10
12.9224895906129
20
-9.77276631745741
30
0
41
1
10
13.2162886001339
20
-9.62357158724902
30
0
41
1
10
13.5788207938868
20
-9.42897240958158
30
0
41
1
10
13.6510911906008
20
-9.38964691866568
30
0
41
1
10
13.7951562996015
20
-9.31017843859834
30
0
41
1
10
13.8674022891021
20
-9.27081100211342
30
0
41
1
10
14.0864044010104
20
-9.15659978753786
30
0
41
1
10
14.2347515558902
20
-9.08449031430013
30
0
41
1
10
14.6868759538988
20
-8.88033442998471
30
0
41
1
10
14.9977042770574
20
-8.76040581202736
30
0
41
1
10
15.4787992459704
20
-8.60603795781782
30
0
41
1
10
15.6416473544915
20
-8.55884942655393
30
0
41
1
10
15.9725343936634
20
-8.47339316884285
30
0
41
1
10
16.1412342361545
20
-8.43500989806398
30
0
41
1
10
16.3106190170422
20
-8.40172380288735
30
0
0
SPLINE
5
2D0
100
AcDbEntity
8
1
62
256
6
ByLayer
370
13
48
1
60
0
100
AcDbSpline
70
4
71
3
72
10
73
6
40
0
40
0
40
0
40
0
40
0.670735811153588
40
0.670735811153588
40
1
40
1
40
1
40
1
41
1
10
98.6852648808872
20
8.1164767076464
30
0
41
1
10
98.6307073043639
20
8.10660455575976
30
0
41
1
10
98.5720620441849
20
8.09762720018318
30
0
41
1
10
98.4787216797059
20
8.08594240829237
30
0
41
1
10
98.4468254985485
20
8.08235785653233
30
0
41
1
10
98.4141582543092
20
8.07910614964462
30
0
0
SPLINE
5
2D1
100
AcDbEntity
8
1
62
256
6
ByLayer
370
13
48
1
60
0
100
AcDbSpline
70
4
71
3
72
12
73
8
40
0
40
0
40
0
40
0
40
0.25
40
0.25
40
0.5
40
0.5
40
1
40
1
40
1
40
1
41
1
10
93.8030443749252
20
3.73123691093144
30
0
41
1
10
93.8059610830774
20
3.73953614046246
30
0
41
1
10
93.8126631311831
20
3.74618302461309
30
0
41
1
10
93.8273027086092
20
3.75591663664514
30
0
41
1
10
93.8356714807766
20
3.75944171107582
30
0
41
1
10
93.8614672158168
20
3.76738242022807
30
0
41
1
10
93.8794656026639
20
3.76933247448593
30
0
41
1
10
93.897925591221
20
3.76937139322575
30
0
0
SPLINE
5
2D2
100
AcDbEntity
8
1
62
256
6
ByLayer
370
13
48
1
60
0
100
AcDbSpline
70
4
71
3
72
14
73
10
40
0
40
0
40
0
40
0
40
0.25
40
0.25
40
0.5
40
0.5
40
0.75
40
0.75
40
1
40
1
40
1
40
1
41
1
10
99.2046648815535
20
3.00352050627998
30
0
41
1
10
99.2318892168516
20
2.99620834851595
30
0
41
1
10
99.2556697493937
20
2.98783968215187
30
0
41
1
10
99.2964704358149
20
2.96902836357054
30
0
41
1
10
99.3133556189675
20
2.95854252517586
30
0
41
1
10
99.3383711142422
20
2.93673860038422
30
0
41
1
10
99.3468983234623
20
2.92514179735343
30
0
41
1
10
99.3555227791701
20
2.90143373205882
30
0
41
1
10
99.3556431885302
20
2.88954999609481
30
0
41
1
10
99.3519396425278
20
2.87763916350025
30
0
0
SPLINE
5
2D3
100
AcDbEntity
8
1
62
256
6
ByLayer
370
13
48
1
60
0
100
AcDbSpline
70
4
71
3
72
14
73
10
40
0
40
0
40
0
40
0
40
0.500000000000011
40
0.500000000000011
40
0.625000000000009
40
0.625000000000009
40
0.750000000000008
40
0.750000000000008
40
1
40
1
40
1
40
1
41
1
10
18
20
-8.27215307820441
30
0
41
1
10
17.6977379299995
20
-8.27213222213851
30
0
41
1
10
17.4031489102193
20
-8.28642067630719
30
0
41
1
10
17.0443019840759
20
-8.3170689597942
30
0
41
1
10
16.9727882503634
20
-8.32384410936601
30
0
41
1
10
16.8329980543559
20
-8.33816351035355
30
0
41
1
10
16.7644847981684
20
-8.34572397340503
30
0
41
1
10
16.5630087779725
20
-8.36911857305526
30
0
41
1
10
16.4340876491716
20
-8.38568849796721
30
0
41
1
10
16.3106190170422
20
-8.40172380288735
30
0
0
SPLINE
5
2D4
100
AcDbEntity
8
1
62
256
6
ByLayer
370
13
48
1
60
0
100
AcDbSpline
70
4
71
3
72
30
73
26
40
0
40
0
40
0
40
0
40
0.0368217297948426
40
0.177513462528764
40
0.337886274078487
40
0.517970676142234
40
0.534859965337147
40
0.552682389009024
40
0.571440639667589
40
0.591137244761096
40
0.61177454165102
40
0.633354647630484
40
0.655879425541181
40
0.679350445429898
40
0.703768942623011
40
0.729135772571018
40
0.755451362816114
40
0.782715662457608
40
0.810928089528548
40
0.840087476749259
40
0.870192016187523
40
0.901239203429152
40
0.933225781945276
40
0.966147688432739
40
1
40
1
40
1
40
1
41
1
10
17.0504734467525
20
-2.94361261337755
30
0
41
1
10
17.0580204795787
20
-2.96654355568478
30
0
41
1
10
17.0953218602593
20
-3.0778721856687
30
0
41
1
10
17.174486323377
20
-3.29650013825156
30
0
41
1
10
17.3077519102621
20
-3.61802831365239
30
0
41
1
10
17.4217330751436
20
-3.85937864404633
30
0
41
1
10
17.4934408536641
20
-4.00261384164466
30
0
41
1
10
17.5113935459084
20
-4.03821866711192
30
0
41
1
10
17.5304354368081
20
-4.07559706779855
30
0
41
1
10
17.5505980694265
20
-4.11471997633973
30
0
41
1
10
17.5719166775184
20
-4.15554803390452
30
0
41
1
10
17.5944223119996
20
-4.19803766567355
30
0
41
1
10
17.6181433162082
20
-4.24213871155314
30
0
41
1
10
17.6431040577739
20
-4.28779448626548
30
0
41
1
10
17.669324400699
20
-4.3349411406854
30
0
41
1
10
17.6968189196015
20
-4.38350723239122
30
0
41
1
10
17.7255961431692
20
-4.43341323325961
30
0
41
1
10
17.7556577535908
20
-4.48457112911629
30
0
41
1
10
17.7869977471725
20
-4.53688379417565
30
0
41
1
10
17.8196016400555
20
-4.59024533740046
30
0
41
1
10
17.853445389726
20
-4.64453777425479
30
0
41
1
10
17.8884953576643
20
-4.69964224559089
30
0
41
1
10
17.9247041629023
20
-4.75539356797321
30
0
41
1
10
17.9620225731332
20
-4.81175617669635
30
0
41
1
10
17.9872238097483
20
-4.84882935943114
30
0
41
1
10
18
20
-4.86762423220225
30
0
0
SPLINE
5
2D5
100
AcDbEntity
8
1
62
256
6
ByLayer
370
13
48
1
60
0
100
AcDbSpline
70
4
71
1
72
4
73
2
40
0
40
0
40
1
40
1
41
1
10
18.0000000000001
20
-7.76102182728545
30
0
41
1
10
18.0000000000001
20
-8.27215307820435
30
0
0
SPLINE
5
2D6
100
AcDbEntity
8
1
62
256
6
ByLayer
370
13
48
1
60
0
100
AcDbSpline
70
4
71
3
72
12
73
8
40
0
40
0
40
0
40
0
40
0.249999999999987
40
0.249999999999987
40
0.499999999999974
40
0.499999999999974
40
1
40
1
40
1
40
1
41
1
10
93.4797268524097
20
0.869581366950968
30
0
41
1
10
93.4148202106352
20
0.868353915263839
30
0
41
1
10
93.3491077562597
20
0.870448600829519
30
0
41
1
10
93.2191955617737
20
0.881276328411104
30
0
41
1
10
93.1549335753111
20
0.889961415757966
30
0
41
1
10
92.9642072722248
20
0.925602264186438
30
0
41
1
10
92.8397817267656
20
0.962052953785928
30
0
41
1
10
92.7182583479554
20
1.01167489267843
30
0
0
SPLINE
5
2D7
100
AcDbEntity
8
1
62
256
6
ByLayer
370
13
48
1
60
0
100
AcDbSpline
70
4
71
3
72
10
73
6
40
0
40
0
40
0
40
0
40
0.5
40
0.5
40
1
40
1
40
1
40
1
41
1
10
99.3227849928197
20
2.70499358055693
30
0
41
1
10
99.3536404067489
20
2.73672362483745
30
0
41
1
10
99.3871309965776
20
2.77597342562353
30
0
41
1
10
99.4521173243453
20
2.86774955593967
30
0
41
1
10
99.4827374818002
20
2.91883757978852
30
0
41
1
10
99.5098750768502
20
2.97627272697531
30
0
0
SPLINE
5
2D8
100
AcDbEntity
8
1
62
256
6
ByLayer
370
13
48
1
60
0
100
AcDbSpline
70
4
71
3
72
10
73
6
40
0
40
0
40
0
40
0
40
0.34870865574696
40
0.34870865574696
40
1
40
1
40
1
40
1
41
1
10
18.45
20
-7.75392285589345
30
0
41
1
10
18.45
20
-7.41782246932897
30
0
41
1
10
18.45
20
-7.08172208952908
30
0
41
1
10
18.45
20
-6.1178791579093
30
0
41
1
10
18.45
20
-5.49013662291975
30
0
41
1
10
18.45
20
-4.8623941115172
30
0
0
SPLINE
5
2D9
100
AcDbEntity
8
1
62
256
6
ByLayer
370
13
48
1
60
0
100
AcDbSpline
70
4
71
3
72
8
73
4
40
0
40
0
40
0
40
0
40
1
40
1
40
1
40
1
41
1
10
95.3767064528275
20
2.25657784818432
30
0
41
1
10
95.561348718738
20
2.55145928892963
30
0
41
1
10
95.7370556903518
20
2.84432541645424
30
0
41
1
10
95.9345350629729
20
3.11429577829472
30
0
0
SPLINE
5
2DA
100
AcDbEntity
8
1
62
256
6
ByLayer
370
13
48
1
60
0
100
AcDbSpline
70
4
71
3
72
8
73
4
40
0
40
0
40
0
40
0
40
1
40
1
40
1
40
1
41
1
10
18.45
20
-7.75392314783395
30
0
41
1
10
18.3033333167339
20
-7.75408176022992
30
0
41
1
10
18.1566666487188
20
-7.75425112987162
30
0
41
1
10
18.0100000000001
20
-7.75443169604162
30
0
0
SPLINE
5
2DB
100
AcDbEntity
8
1
62
256
6
ByLayer
370
13
48
1
60
0
100
AcDbSpline
70
4
71
3
72
10
73
6
40
0
40
0
40
0
40
0
40
0.5
40
0.5
40
1
40
1
40
1
40
1
41
1
10
102.877814459813
20
3.41237496790242
30
0
41
1
10
102.90885803874
20
3.43247543052837
30
0
41
1
10
102.94419329175
20
3.44965065815768
30
0
41
1
10
103.022703539324
20
3.47510977869115
30
0
41
1
10
103.06381280031
20
3.48278864495742
30
0
41
1
10
103.106686596608
20
3.48505884503828
30
0
0
SPLINE
5
2DC
100
AcDbEntity
8
1
62
256
6
ByLayer
370
13
48
1
60
0
100
AcDbSpline
70
4
71
3
72
34
73
30
40
0
40
0
40
0
40
0
40
0.0625000000000012
40
0.0625000000000012
40
0.125000000000002
40
0.125000000000002
40
0.249999999999997
40
0.249999999999997
40
0.312499999999999
40
0.312499999999999
40
0.375
40
0.375
40
0.437500000000001
40
0.437500000000001
40
0.500000000000002
40
0.500000000000002
40
0.624999999999997
40
0.624999999999997
40
0.687499999999998
40
0.687499999999998
40
0.749999999999998
40
0.749999999999998
40
0.812499999999999
40
0.812499999999999
40
0.874999999999999
40
0.874999999999999
40
0.9375
40
0.9375
40
1
40
1
40
1
40
1
41
1
10
96.0748953222122
20
0.673068671377166
30
0
41
1
10
96.1881676502521
20
0.66369581188988
30
0
41
1
10
96.3020257937079
20
0.656369277114152
30
0
41
1
10
96.5288681288584
20
0.646358634227767
30
0
41
1
10
96.6421402427097
20
0.643647941295114
30
0
41
1
10
96.9814681482472
20
0.643035159408385
30
0
41
1
10
97.2070401810793
20
0.652580364145933
30
0
41
1
10
97.5442041017839
20
0.685281350986173
30
0
41
1
10
97.6561361018651
20
0.699273011015691
30
0
41
1
10
97.8754943482744
20
0.733434117972479
30
0
41
1
10
97.9833946730377
20
0.753642346922021
30
0
41
1
10
98.195398771434
20
0.800734310920319
30
0
41
1
10
98.2995040213876
20
0.827615450143043
30
0
41
1
10
98.5035750104931
20
0.888656263410923
30
0
41
1
10
98.6041315828464
20
0.923068082395361
30
0
41
1
10
98.8929794333721
20
1.03610842355093
30
0
41
1
10
99.0693201137927
20
1.12439335314585
30
0
41
1
10
99.3070837473452
20
1.27812808376399
30
0
41
1
10
99.3820526434292
20
1.33323322485904
30
0
41
1
10
99.5182963404239
20
1.44771763117512
30
0
41
1
10
99.5801552771209
20
1.50741797436387
30
0
41
1
10
99.6913620651017
20
1.63172915618864
30
0
41
1
10
99.7407114301773
20
1.69633940067411
30
0
41
1
10
99.8264603322116
20
1.83064258790105
30
0
41
1
10
99.8625903502489
20
1.90014101361857
30
0
41
1
10
99.9198465504858
20
2.0400491261708
30
0
41
1
10
99.9413126335425
20
2.11095621313203
30
0
41
1
10
99.970330272413
20
2.25462195642621
30
0
41
1
10
99.9778785218109
20
2.32766268072015
30
0
41
1
10
99.9784351043857
20
2.40100890283947
30
0
0
SPLINE
5
2DD
100
AcDbEntity
8
1
62
256
6
ByLayer
370
13
48
1
60
0
100
AcDbSpline
70
4
71
3
72
12
73
8
40
0
40
0
40
0
40
0
40
0.25
40
0.25
40
0.5
40
0.5
40
1
40
1
40
1
40
1
41
1
10
53.2
20
-8.18513343253392
30
0
41
1
10
50.6833596764445
20
-8.19302725720209
30
0
41
1
10
48.166704493572
20
-8.2005163509472
30
0
41
1
10
43.1333662148073
20
-8.21481123739454
30
0
41
1
10
40.6166931293309
20
-8.22169579395285
30
0
41
1
10
33.0666795369286
20
-8.24292532552172
30
0
41
1
10
28.0333426548161
20
-8.25783710460729
30
0
41
1
10
23
20
-8.27228711215932
30
0
0
SPLINE
5
2DE
100
AcDbEntity
8
1
62
256
6
ByLayer
370
13
48
1
60
0
100
AcDbSpline
70
4
71
3
72
10
73
6
40
0
40
0
40
0
40
0
40
0.728994625435668
40
0.728994625435668
40
1
40
1
40
1
40
1
41
1
10
97.4562834419591
20
5.43859641048525
30
0
41
1
10
97.4083017588194
20
5.36781464227664
30
0
41
1
10
97.3710120689501
20
5.2939485120915
30
0
41
1
10
97.3327823798456
20
5.19127194812438
30
0
41
1
10
97.3236943728738
20
5.16319542480622
30
0
41
1
10
97.3159943974948
20
5.13534510135801
30
0
0
SPLINE
5
2DF
100
AcDbEntity
8
1
62
256
6
ByLayer
370
13
48
1
60
0
100
AcDbSpline
70
2053
71
3
72
68
73
64
40
0
40
0
40
0
40
0
40
0.0312499999999999
40
0.0312499999999999
40
0.0624999999999998
40
0.0624999999999998
40
0.0937499999999998
40
0.0937499999999998
40
0.125
40
0.125
40
0.15625
40
0.15625
40
0.1875
40
0.1875
40
0.21875
40
0.21875
40
0.249999999999999
40
0.249999999999999
40
0.281249999999999
40
0.281249999999999
40
0.312499999999999
40
0.312499999999999
40
0.343749999999999
40
0.343749999999999
40
0.374999999999999
40
0.374999999999999
40
0.406249999999999
40
0.406249999999999
40
0.437499999999999
40
0.437499999999999
40
0.468749999999999
40
0.468749999999999
40
0.499999999999999
40
0.499999999999999
40
0.531249999999999
40
0.531249999999999
40
0.562499999999999
40
0.562499999999999
40
0.593749999999999
40
0.593749999999999
40
0.624999999999999
40
0.624999999999999
40
0.65625
40
0.65625
40
0.6875
40
0.6875
40
0.75
40
0.75
40
0.78125
40
0.78125
40
0.8125
40
0.8125
40
0.84375
40
0.84375
40
0.875
40
0.875
40
0.90625
40
0.90625
40
0.9375
40
0.9375
40
0.96875
40
0.96875
40
1
40
1
40
1
40
1
41
1
10
102.82342898841
20
-0.160056099166638
30
0
41
1
10
102.897481527655
20
-0.160056099166638
30
0
41
1
10
102.970263824347
20
-0.167512722056756
30
0
41
1
10
103.113390564941
20
-0.196734085370366
30
0
41
1
10
103.184508355226
20
-0.218884016503864
30
0
41
1
10
103.319497676969
20
-0.276485752814324
30
0
41
1
10
103.383422186064
20
-0.31172155047031
30
0
41
1
10
103.504154923714
20
-0.395001237931297
30
0
41
1
10
103.560889741921
20
-0.44326954534904
30
0
41
1
10
103.662115059141
20
-0.548453747868678
30
0
41
1
10
103.707342349647
20
-0.605812925317139
30
0
41
1
10
103.786736304853
20
-0.730284206619416
30
0
41
1
10
103.819671035272
20
-0.795500650461435
30
0
41
1
10
103.872473766657
20
-0.930984085939144
30
0
41
1
10
103.892497096272
20
-1.00211972333449
30
0
41
1
10
103.918286868936
20
-1.14551858354136
30
0
41
1
10
103.924205403525
20
-1.21757102251001
30
0
41
1
10
103.922491406954
20
-1.36234271866996
30
0
41
1
10
103.914653497523
20
-1.4353832243167
30
0
41
1
10
103.886020679704
20
-1.57640823057784
30
0
41
1
10
103.865284855319
20
-1.6451164460623
30
0
41
1
10
103.810786972936
20
-1.77892469844622
30
0
41
1
10
103.777198808476
20
-1.84326548782988
30
0
41
1
10
103.699413910848
20
-1.96340801356339
30
0
41
1
10
103.655001537615
20
-2.01978551994574
30
0
41
1
10
103.554336402227
20
-2.12475095112325
30
0
41
1
10
103.4996232551
20
-2.17170481931879
30
0
41
1
10
103.381845742211
20
-2.25440844238463
30
0
41
1
10
103.318099324957
20
-2.29048945904609
30
0
41
1
10
103.184032817961
20
-2.34916901643334
30
0
41
1
10
103.114880290613
20
-2.37140828248735
30
0
41
1
10
102.972294611995
20
-2.40165159223042
30
0
41
1
10
102.89796300417
20
-2.40955306686885
30
0
41
1
10
102.751495751559
20
-2.40973291452804
30
0
41
1
10
102.678858345617
20
-2.40229999819434
30
0
41
1
10
102.534783620627
20
-2.37225339013097
30
0
41
1
10
102.464565275921
20
-2.3497549382717
30
0
41
1
10
102.331339939541
20
-2.2917893615118
30
0
41
1
10
102.267092329804
20
-2.25572133500435
30
0
41
1
10
102.148127379911
20
-2.1724757519502
30
0
41
1
10
102.093462385429
20
-2.12556766119752
30
0
41
1
10
101.993343397562
20
-2.02149635130184
30
0
41
1
10
101.948026801083
20
-1.9642116561275
30
0
41
1
10
101.869980594222
20
-1.84385725432213
30
0
41
1
10
101.836706978283
20
-1.78027671387304
30
0
41
1
10
101.75446677494
20
-1.57897604139231
30
0
41
1
10
101.725391784369
20
-1.43686231742325
30
0
41
1
10
101.722589235895
20
-1.21818902452199
30
0
41
1
10
101.728532671489
20
-1.14612498844355
30
0
41
1
10
101.754016160134
20
-1.00364962984639
30
0
41
1
10
101.77388657225
20
-0.932468435358061
30
0
41
1
10
101.82685080601
20
-0.796158868146392
30
0
41
1
10
101.859650950481
20
-0.731256349074215
30
0
41
1
10
101.937953458497
20
-0.608033876006886
30
0
41
1
10
101.983989624312
20
-0.549338043409989
30
0
41
1
10
102.085261264779
20
-0.443904076629508
30
0
41
1
10
102.140776965529
20
-0.396508241999584
30
0
41
1
10
102.261818301369
20
-0.312663998802236
30
0
41
1
10
102.326713277605
20
-0.276842106052044
30
0
41
1
10
102.460980148513
20
-0.219389324759675
30
0
41
1
10
102.531366199124
20
-0.197254751227689
30
0
41
1
10
102.676117637312
20
-0.167519953990705
30
0
41
1
10
102.749376449165
20
-0.160056099166638
30
0
41
1
10
102.82342898841
20
-0.160056099166638
30
0
0
SPLINE
5
2E0
100
AcDbEntity
8
1
62
256
6
ByLayer
370
13
48
1
60
0
100
AcDbSpline
70
4
71
3
72
8
73
4
40
0
40
0
40
0
40
0
40
1
40
1
40
1
40
1
41
1
10
99.2497713408305
20
2.66384130095872
30
0
41
1
10
99.2457247002999
20
2.6578493574649
30
0
41
1
10
99.2423334685608
20
2.65264084381613
30
0
41
1
10
99.2397514461474
20
2.64832443359259
30
0
0
SPLINE
5
2E1
100
AcDbEntity
8
1
62
256
6
ByLayer
370
13
48
1
60
0
100
AcDbSpline
70
4
71
3
72
12
73
8
40
0
40
0
40
0
40
0
40
0.186307396151399
40
0.186307396151399
40
0.593153698075699
40
0.593153698075699
40
1
40
1
40
1
40
1
41
1
10
99.2360681227578
20
2.63366373969629
30
0
41
1
10
99.2375948634521
20
2.63367351925331
30
0
41
1
10
99.2399915207294
20
2.63458004521195
30
0
41
1
10
99.2502806938517
20
2.64028099936507
30
0
41
1
10
99.2612533405247
20
2.64830553084059
30
0
41
1
10
99.2888516998086
20
2.67172516642836
30
0
41
1
10
99.3050516347282
20
2.68675755109476
30
0
41
1
10
99.3227849928202
20
2.70499358055767
30
0
0
SPLINE
5
2E2
100
AcDbEntity
8
1
62
256
6
ByLayer
370
13
48
1
60
0
100
AcDbSpline
70
4
71
3
72
10
73
6
40
0
40
0
40
0
40
0
40
0.279150652605729
40
0.279150652605729
40
1
40
1
40
1
40
1
41
1
10
86.5969981414102
20
3.4976296012598
30
0
41
1
10
87.1604578404608
20
3.28253295674864
30
0
41
1
10
87.72373323152
20
3.0625052144452
30
0
41
1
10
89.7423307662027
20
2.25971886207418
30
0
41
1
10
91.1989737612702
20
1.65422719047569
30
0
41
1
10
92.662686679783
20
1.0347850242502
30
0
0
SPLINE
5
2E3
100
AcDbEntity
8
1
62
256
6
ByLayer
370
13
48
1
60
0
100
AcDbSpline
70
4
71
3
72
8
73
4
40
0
40
0
40
0
40
0
40
1
40
1
40
1
40
1
41
1
10
92.6102479124565
20
0.957294500987842
30
0
41
1
10
92.6277266037656
20
0.983125029856154
30
0
41
1
10
92.6452062549338
20
1.00895516370758
30
0
41
1
10
92.6626866794505
20
1.03478502439091
30
0
0
SPLINE
5
2E4
100
AcDbEntity
8
1
62
256
6
ByLayer
370
13
48
1
60
0
100
AcDbSpline
70
4
71
3
72
8
73
4
40
0
40
0
40
0
40
0
40
1
40
1
40
1
40
1
41
1
10
0.0999999999999091
20
-3.49999999999997
30
0
41
1
10
0.0650753695799438
20
-3.37526917707149
30
0
41
1
10
0.0317144350461547
20
-3.24997900703946
30
0
41
1
10
-8.53E-14
20
-3.12409987036273
30
0
0
SPLINE
5
2E5
100
AcDbEntity
8
1
62
256
6
ByLayer
370
13
48
1
60
0
100
AcDbSpline
70
4
71
3
72
8
73
4
40
0
40
0
40
0
40
0
40
1
40
1
40
1
40
1
41
1
10
93.6775130271728
20
3.23116068229277
30
0
41
1
10
93.677697237876
20
3.23178062120155
30
0
41
1
10
93.6778993190792
20
3.23239751452724
30
0
41
1
10
93.6781187381663
20
3.23301145796208
30
0
0
SPLINE
5
2E6
100
AcDbEntity
8
1
62
256
6
ByLayer
370
13
48
1
60
0
100
AcDbSpline
70
4
71
3
72
8
73
4
40
0
40
0
40
0
40
0
40
1
40
1
40
1
40
1
41
1
10
97.5185610395498
20
5.56248495888542
30
0
41
1
10
97.5023165530204
20
5.51594908507272
30
0
41
1
10
97.4807471317258
20
5.47468483225981
30
0
41
1
10
97.4562834419591
20
5.43859641048525
30
0
0
SPLINE
5
2E7
100
AcDbEntity
8
1
62
256
6
ByLayer
370
13
48
1
60
0
100
AcDbSpline
70
4
71
3
72
16
73
12
40
0
40
0
40
0
40
0
40
0.197758303773003
40
0.197758303773003
40
0.298038515801377
40
0.298038515801377
40
0.398318727829752
40
0.398318727829752
40
0.598879151886501
40
0.598879151886501
40
1
40
1
40
1
40
1
41
1
10
7.42381585887327
20
-6.40492131606067
30
0
41
1
10
7.25114259174768
20
-6.64340377801193
30
0
41
1
10
7.09068394565131
20
-6.88910318152435
30
0
41
1
10
6.86786494961481
20
-7.27050063623975
30
0
41
1
10
6.79604802494296
20
-7.40105183509928
30
0
41
1
10
6.66064286649143
20
-7.66352623723148
30
0
41
1
10
6.59690640809592
20
-7.79572178458656
30
0
41
1
10
6.41710772859938
20
-8.19506658878345
30
0
41
1
10
6.31241833046411
20
-8.46495688469486
30
0
41
1
10
6.041191474816
20
-9.28476807701557
30
0
41
1
10
5.91684556346513
20
-9.84469595974821
30
0
41
1
10
5.84881854122139
20
-10.4172534199913
30
0
0
SPLINE
5
2E8
100
AcDbEntity
8
1
62
256
6
ByLayer
370
13
48
1
60
0
100
AcDbSpline
70
4
71
3
72
8
73
4
40
0
40
0
40
0
40
0
40
1
40
1
40
1
40
1
41
1
10
93.7860511193275
20
7.59167517242435
30
0
41
1
10
93.8616790076733
20
7.74247153106234
30
0
41
1
10
93.9352798044604
20
7.89427813360882
30
0
41
1
10
94.0070797505561
20
8.04698222814739
30
0
0
SPLINE
5
2E9
100
AcDbEntity
8
1
62
256
6
ByLayer
370
13
48
1
60
0
100
AcDbSpline
70
4
71
3
72
18
73
14
40
0
40
0
40
0
40
0
40
0.331571919759924
40
0.331571919759924
40
0.497357879639886
40
0.497357879639886
40
0.663143839519848
40
0.663143839519848
40
0.828929799399811
40
0.828929799399811
40
0.994715759279773
40
0.994715759279773
40
1
40
1
40
1
40
1
41
1
10
18.01
20
-4.8623941115172
30
0
41
1
10
18.01
20
-4.65107350067368
30
0
41
1
10
18.01
20
-4.42135617442605
30
0
41
1
10
18.01
20
-4.05882895382322
30
0
41
1
10
18.01
20
-3.93759156220304
30
0
41
1
10
18.01
20
-3.69434748508831
30
0
41
1
10
18.01
20
-3.57107857930126
30
0
41
1
10
18.01
20
-3.33104583162657
30
0
41
1
10
18.01
20
-3.21436097551413
30
0
41
1
10
18.01
20
-2.98758404450149
30
0
41
1
10
18.01
20
-2.87664585936014
30
0
41
1
10
18.01
20
-2.76993153501363
30
0
41
1
10
18.01
20
-2.76664126871398
30
0
41
1
10
18.0099999999999
20
-2.76335711151626
30
0
0
SPLINE
5
2EA
100
AcDbEntity
8
1
62
256
6
ByLayer
370
13
48
1
60
0
100
AcDbSpline
70
4
71
3
72
18
73
14
40
0
40
0
40
0
40
0
40
0.249999999999997
40
0.249999999999997
40
0.374999999999997
40
0.374999999999997
40
0.499999999999998
40
0.499999999999998
40
0.624999999999998
40
0.624999999999998
40
0.749999999999999
40
0.749999999999999
40
1
40
1
40
1
40
1
41
1
10
105.066642480297
20
0.373704311021896
30
0
41
1
10
105.067808381833
20
0.423954291764915
30
0
41
1
10
105.069730267086
20
0.470249851893897
30
0
41
1
10
105.073824208359
20
0.533358066538284
30
0
41
1
10
105.075400392991
20
0.553314556510344
30
0
41
1
10
105.07885581671
20
0.589453422757202
30
0
41
1
10
105.080747210271
20
0.605854786683523
30
0
41
1
10
105.084863481147
20
0.6352590040959
30
0
41
1
10
105.087112369854
20
0.648357696876502
30
0
41
1
10
105.09182676415
20
0.670219818327524
30
0
41
1
10
105.09429112352
20
0.679046120818015
30
0
41
1
10
105.102003948776
20
0.699244919145315
30
0
41
1
10
105.107612877153
20
0.704188621209255
30
0
41
1
10
105.11331785758
20
0.699847655684778
30
0
0
SPLINE
5
2EB
100
AcDbEntity
8
1
62
256
6
ByLayer
370
13
48
1
60
0
100
AcDbSpline
70
4
71
3
72
8
73
4
40
0
40
0
40
0
40
0
40
1
40
1
40
1
40
1
41
1
10
94.2935099056738
20
0.985516482277177
30
0
41
1
10
94.8687150608089
20
0.85700053821347
30
0
41
1
10
95.4516039390011
20
0.746276488020897
30
0
41
1
10
96.0518545080723
20
0.675753959830985
30
0
0
SPLINE
5
2EC
100
AcDbEntity
8
1
62
256
6
ByLayer
370
13
48
1
60
0
100
AcDbSpline
70
4
71
3
72
48
73
44
40
0
40
0
40
0
40
0
40
0.0312500000000007
40
0.0312500000000007
40
0.0625000000000013
40
0.0625000000000013
40
0.0781250000000017
40
0.0781250000000017
40
0.093750000000002
40
0.093750000000002
40
0.125000000000002
40
0.125000000000002
40
0.187500000000001
40
0.187500000000001
40
0.250000000000001
40
0.250000000000001
40
0.3125
40
0.3125
40
0.375
40
0.375
40
0.499999999999999
40
0.499999999999999
40
0.531249999999999
40
0.531249999999999
40
0.562499999999999
40
0.562499999999999
40
0.625
40
0.625
40
0.6875
40
0.6875
40
0.71875
40
0.71875
40
0.75
40
0.75
40
0.781250000000001
40
0.781250000000001
40
0.8125
40
0.8125
40
0.875
40
0.875
40
0.9375
40
0.9375
40
1
40
1
40
1
40
1
41
1
10
93.2540706154506
20
-8.11686008354633
30
0
41
1
10
92.8248776074927
20
-8.11113510332558
30
0
41
1
10
92.3961558830403
20
-8.10492800731629
30
0
41
1
10
91.5464400584711
20
-8.08627290293299
30
0
41
1
10
91.1254470704392
20
-8.07394864047316
30
0
41
1
10
90.5052349767389
20
-8.04385681278811
30
0
41
1
10
90.3004432361252
20
-8.03182433740594
30
0
41
1
10
89.8970197877366
20
-8.00041109383329
30
0
41
1
10
89.698631538055
20
-7.98061810729126
30
0
41
1
10
89.102626741613
20
-7.91758455977768
30
0
41
1
10
88.7054314772351
20
-7.87000234309156
30
0
41
1
10
87.5156664188991
20
-7.71133730295313
30
0
41
1
10
86.7243938174334
20
-7.58402328538435
30
0
41
1
10
85.1424808059799
20
-7.28878979860707
30
0
41
1
10
84.3517132737159
20
-7.12086576599557
30
0
41
1
10
82.7644261488368
20
-6.75292107121714
30
0
41
1
10
81.9673152582185
20
-6.55318323002754
30
0
41
1
10
80.3599243446163
20
-6.13911844329169
30
0
41
1
10
79.5526041686909
20
-5.92580768792371
30
0
41
1
10
77.1136334609454
20
-5.29030474939236
30
0
41
1
10
75.4662014049632
20
-4.87034948801875
30
0
41
1
10
73.3733126219888
20
-4.39922794362667
30
0
41
1
10
72.9530952706214
20
-4.3076218657211
30
0
41
1
10
72.1114467934406
20
-4.13092074589875
30
0
41
1
10
71.6897481758278
20
-4.04576365216175
30
0
41
1
10
70.4219328526424
20
-3.8010546917327
30
0
41
1
10
69.5730152583315
20
-3.65268244986243
30
0
41
1
10
67.8677353127787
20
-3.38897947970509
30
0
41
1
10
67.0116921834547
20
-3.27208582512907
30
0
41
1
10
65.7229960785537
20
-3.11852103126657
30
0
41
1
10
65.2923181616509
20
-3.07129326969712
30
0
41
1
10
64.430427800289
20
-2.98667301521081
30
0
41
1
10
63.9993283256085
20
-2.94942357051823
30
0
41
1
10
63.1368175805833
20
-2.88532898547231
30
0
41
1
10
62.705408400825
20
-2.85841328478591
30
0
41
1
10
61.8422904753645
20
-2.81469524789949
30
0
41
1
10
61.4105753923726
20
-2.7981088742273
30
0
41
1
10
60.115063044618
20
-2.7608287244669
30
0
41
1
10
59.25092312897
20
-2.75178882169436
30
0
41
1
10
57.5223415494304
20
-2.7440293964853
30
0
41
1
10
56.6578876253414
20
-2.74571722558346
30
0
41
1
10
54.9289669986088
20
-2.74952911009981
30
0
41
1
10
54.0644797696337
20
-2.75235327683254
30
0
41
1
10
53.1999999999998
20
-2.75492233199037
30
0
0
SPLINE
5
2ED
100
AcDbEntity
8
1
62
256
6
ByLayer
370
13
48
1
60
0
100
AcDbSpline
70
4
71
3
72
10
73
6
40
0
40
0
40
0
40
0
40
0.5
40
0.5
40
1
40
1
40
1
40
1
41
1
10
94.356213053523
20
3.75770256353675
30
0
41
1
10
94.3921608207896
20
3.76749263891705
30
0
41
1
10
94.4283990131934
20
3.77645934409651
30
0
41
1
10
94.5019030953661
20
3.79147917956465
30
0
41
1
10
94.5391776605391
20
3.79766353443461
30
0
41
1
10
94.5770200940942
20
3.80046998551248
30
0
0
SPLINE
5
2EE
100
AcDbEntity
8
1
62
256
6
ByLayer
370
13
48
1
60
0
100
AcDbSpline
70
4
71
3
72
14
73
10
40
0
40
0
40
0
40
0
40
0.25
40
0.25
40
0.5
40
0.5
40
0.75
40
0.75
40
1
40
1
40
1
40
1
41
1
10
93.6781187381663
20
3.23301145796208
30
0
41
1
10
93.6898688759667
20
3.26588881634473
30
0
41
1
10
93.7009160561685
20
3.3034961588119
30
0
41
1
10
93.7216804726269
20
3.38337032893432
30
0
41
1
10
93.7314948528774
20
3.42602617380851
30
0
41
1
10
93.7506930744457
20
3.51423150976746
30
0
41
1
10
93.7597978486659
20
3.55876431178805
30
0
41
1
10
93.779343279365
20
3.64795989244769
30
0
41
1
10
93.7889051942848
20
3.69100514981633
30
0
41
1
10
93.8030443749343
20
3.73123691092806
30
0
0
SPLINE
5
2EF
100
AcDbEntity
8
1
62
256
6
ByLayer
370
13
48
1
60
0
100
AcDbSpline
70
4
71
3
72
16
73
12
40
0
40
0
40
0
40
0
40
0.25
40
0.25
40
0.375
40
0.375
40
0.5
40
0.5
40
0.75
40
0.75
40
1
40
1
40
1
40
1
41
1
10
16.3024291000438
20
-3.28897756517645
30
0
41
1
10
16.4261423638104
20
-3.20449885891131
30
0
41
1
10
16.5557090455071
20
-3.12944832205074
30
0
41
1
10
16.7588917678598
20
-3.03127273760074
30
0
41
1
10
16.8283665830001
20
-3.00085560932618
30
0
41
1
10
16.9689623839295
20
-2.9455351964443
30
0
41
1
10
17.0399125302614
20
-2.92067129875653
30
0
41
1
10
17.25467577203
20
-2.85427745330301
30
0
41
1
10
17.4003914088682
20
-2.82090120037404
30
0
41
1
10
17.6969266193303
20
-2.77601280148639
30
0
41
1
10
17.8484627265651
20
-2.76455867974204
30
0
41
1
10
18
20
-2.76470824686001
30
0
0
SPLINE
5
2F0
100
AcDbEntity
8
1
62
256
6
ByLayer
370
13
48
1
60
0
100
AcDbSpline
70
4
71
3
72
16
73
12
40
0
40
0
40
0
40
0
40
0.249999999999999
40
0.249999999999999
40
0.374999999999999
40
0.374999999999999
40
0.5
40
0.5
40
0.75
40
0.75
40
1
40
1
40
1
40
1
41
1
10
5.8493237770154
20
-9.33182718803471
30
0
41
1
10
5.80210404816685
20
-9.43345683039672
30
0
41
1
10
5.7657640899692
20
-9.53362816683145
30
0
41
1
10
5.72862504618439
20
-9.68156814778476
30
0
41
1
10
5.71913341470636
20
-9.73070410117461
30
0
41
1
10
5.70649635133242
20
-9.82714074461921
30
0
41
1
10
5.70335297102886
20
-9.87421876029757
30
0
41
1
10
5.70340815546493
20
-10.0120842911381
30
0
41
1
10
5.71583520923744
20
-10.0995555894836
30
0
41
1
10
5.76462150537444
20
-10.2658133147477
30
0
41
1
10
5.80133776369732
20
-10.3448258717456
30
0
41
1
10
5.84881854122122
20
-10.4172534199914
30
0
0
SPLINE
5
2F1
100
AcDbEntity
8
1
62
256
6
ByLayer
370
13
48
1
60
0
100
AcDbSpline
70
4
71
3
72
14
73
10
40
0
40
0
40
0
40
0
40
0.125
40
0.125
40
0.25
40
0.25
40
0.5
40
0.5
40
1
40
1
40
1
40
1
41
1
10
53.2
20
-2.75492233198995
30
0
41
1
10
51.9416694406604
20
-2.75879068212438
30
0
41
1
10
50.6833387711107
20
-2.7624604754663
30
0
41
1
10
48.1666759067387
20
-2.76692322095604
30
0
41
1
10
46.9083436088171
20
-2.76751898867147
30
0
41
1
10
43.1333452639334
20
-2.76657134955343
30
0
41
1
10
40.616682539018
20
-2.7624522119217
30
0
41
1
10
33.0666837266495
20
-2.7589283810029
30
0
41
1
10
28.0333388581316
20
-2.76599587418326
30
0
41
1
10
23
20
-2.76679770144722
30
0
0
SPLINE
5
2F2
100
AcDbEntity
8
1
62
256
6
ByLayer
370
13
48
1
60
0
100
AcDbSpline
70
4
71
3
72
14
73
10
40
0
40
0
40
0
40
0
40
0.25
40
0.25
40
0.5
40
0.5
40
0.75
40
0.75
40
1
40
1
40
1
40
1
41
1
10
95.3767064528275
20
2.25657784818441
30
0
41
1
10
95.3575802714305
20
2.21916195995581
30
0
41
1
10
95.3341801826696
20
2.18369105435335
30
0
41
1
10
95.27523228603
20
2.12331969675199
30
0
41
1
10
95.2395870363671
20
2.09934763138972
30
0
41
1
10
95.1620407913244
20
2.08000996812464
30
0
41
1
10
95.1235236097459
20
2.08584795259969
30
0
41
1
10
95.056077453729
20
2.11394344735436
30
0
41
1
10
95.026396833491
20
2.13524511249594
30
0
41
1
10
94.9989580435591
20
2.15868320645268
30
0
0
SPLINE
5
2F3
100
AcDbEntity
8
1
62
256
6
ByLayer
370
13
48
1
60
0
100
AcDbSpline
70
4
71
3
72
8
73
4
40
0
40
0
40
0
40
0
40
1
40
1
40
1
40
1
41
1
10
97.7101084760162
20
8.19380903342125
30
0
41
1
10
97.7063170359747
20
8.20180477057858
30
0
41
1
10
97.7107775385449
20
8.20916956663669
30
0
41
1
10
97.7233107309802
20
8.21595120242827
30
0
0
SPLINE
5
2F4
100
AcDbEntity
8
1
62
256
6
ByLayer
370
13
48
1
60
0
100
AcDbSpline
70
4
71
3
72
8
73
4
40
0
40
0
40
0
40
0
40
1
40
1
40
1
40
1
41
1
10
23
20
8.28744362577788
30
0
41
1
10
21.3333333417787
20
8.28744294992251
30
0
41
1
10
19.666666668294
20
8.28744280786154
30
0
41
1
10
18
20
8.28744280786154
30
0
0
SPLINE
5
2F5
100
AcDbEntity
8
1
62
256
6
ByLayer
370
13
48
1
60
0
100
AcDbSpline
70
4
71
3
72
10
73
6
40
0
40
0
40
0
40
0
40
0.346008194351367
40
0.346008194351367
40
1
40
1
40
1
40
1
41
1
10
104.155253571799
20
3.39393929265881
30
0
41
1
10
104.147497915017
20
3.38363445516234
30
0
41
1
10
104.139757838201
20
3.373671809803
30
0
41
1
10
104.117385233179
20
3.3459336444725
30
0
41
1
10
104.102975713025
20
3.32937863218933
30
0
41
1
10
104.088592297482
20
3.31446400445182
30
0
0
SPLINE
5
2F6
100
AcDbEntity
8
1
62
256
6
ByLayer
370
13
48
1
60
0
100
AcDbSpline
70
4
71
3
72
14
73
10
40
0
40
0
40
0
40
0
40
0.0047482220866372
40
0.0047482220866372
40
0.336498814724425
40
0.336498814724425
40
0.668249407362213
40
0.668249407362213
40
1
40
1
40
1
40
1
41
1
10
18.4499774546451
20
-2.76360716134434
30
0
41
1
10
18.4499764511128
20
-2.766562977657
30
0
41
1
10
18.4499754509483
20
-2.76952375702541
30
0
41
1
10
18.4499048107522
20
-2.97969861717908
30
0
41
1
10
18.4498517301473
20
-3.21083893329575
30
0
41
1
10
18.4497856843125
20
-3.69054490487773
30
0
41
1
10
18.4497727388201
20
-3.93896720199933
30
0
41
1
10
18.449788707372
20
-4.42023770879075
30
0
41
1
10
18.449817616644
20
-4.65294209256135
30
0
41
1
10
18.4498655474988
20
-4.86239413368182
30
0
0
SPLINE
5
2F7
100
AcDbEntity
8
1
62
256
6
ByLayer
370
13
48
1
60
0
100
AcDbSpline
70
4
71
3
72
8
73
4
40
0
40
0
40
0
40
0
40
1
40
1
40
1
40
1
41
1
10
95.8734398995781
20
3.72418302097796
30
0
41
1
10
95.8748473930367
20
3.83625646343836
30
0
41
1
10
95.8649206783662
20
3.95060745913324
30
0
41
1
10
95.8396825201478
20
4.06028103020481
30
0
0
SPLINE
5
2F8
100
AcDbEntity
8
1
62
256
6
ByLayer
370
13
48
1
60
0
100
AcDbSpline
70
4
71
1
72
4
73
2
40
0
40
0
40
1
40
1
41
1
10
18.01
20
-7.76349525477184
30
0
41
1
10
18.01
20
-4.86761193813388
30
0
0
SPLINE
5
2F9
100
AcDbEntity
8
1
62
256
6
ByLayer
370
13
48
1
60
0
100
AcDbSpline
70
4
71
3
72
18
73
14
40
0
40
0
40
0
40
0
40
0.125
40
0.125
40
0.25
40
0.25
40
0.375
40
0.375
40
0.5
40
0.5
40
0.75
40
0.75
40
1
40
1
40
1
40
1
41
1
10
94.2680085568945
20
3.74269440017292
30
0
41
1
10
94.351122783111
20
3.70408332004595
30
0
41
1
10
94.4314268614017
20
3.6599987731251
30
0
41
1
10
94.5853587529407
20
3.56135717111775
30
0
41
1
10
94.6570421833324
20
3.50811956790716
30
0
41
1
10
94.7910614850016
20
3.39553353894246
30
0
41
1
10
94.8534145767183
20
3.33621857995851
30
0
41
1
10
94.9695246638842
20
3.21264909431187
30
0
41
1
10
95.0234984773367
20
3.14801639800896
30
0
41
1
10
95.1679184478866
20
2.95243928217275
30
0
41
1
10
95.242843262824
20
2.81779005833948
30
0
41
1
10
95.3468772280261
20
2.53683239834078
30
0
41
1
10
95.3741745331501
20
2.39689209621
30
0
41
1
10
95.3767064528278
20
2.25657784818469
30
0
0
SPLINE
5
2FA
100
AcDbEntity
8
1
62
256
6
ByLayer
370
13
48
1
60
0
100
AcDbSpline
70
4
71
3
72
32
73
28
40
0
40
0
40
0
40
0
40
0.125
40
0.125
40
0.1875
40
0.1875
40
0.25
40
0.25
40
0.375000000000001
40
0.375000000000001
40
0.437500000000001
40
0.437500000000001
40
0.500000000000001
40
0.500000000000001
40
0.625000000000001
40
0.625000000000001
40
0.687500000000001
40
0.687500000000001
40
0.750000000000001
40
0.750000000000001
40
0.812500000000001
40
0.812500000000001
40
0.875000000000001
40
0.875000000000001
40
0.9375
40
0.9375
40
1
40
1
40
1
40
1
41
1
10
8.89997970177706
20
-5.7803016081094
30
0
41
1
10
8.66433762335706
20
-5.83752580978418
30
0
41
1
10
8.43363414363634
20
-5.91255115077149
30
0
41
1
10
8.09436294554715
20
-6.04986994067744
30
0
41
1
10
7.98241442321302
20
-6.09981450506845
30
0
41
1
10
7.76083245351674
20
-6.20823067771977
30
0
41
1
10
7.65090181287539
20
-6.26693048925102
30
0
41
1
10
7.33208325609061
20
-6.4520798463102
30
0
41
1
10
7.13160360266752
20
-6.58850456369029
30
0
41
1
10
6.84995087851789
20
-6.81344085146549
30
0
41
1
10
6.75887506591246
20
-6.89221779461985
30
0
41
1
10
6.58556026152456
20
-7.05550796232947
30
0
41
1
10
6.50433000640308
20
-7.1390938308723
30
0
41
1
10
6.27653213313155
20
-7.3953728558887
30
0
41
1
10
6.14548809809278
20
-7.57344263786229
30
0
41
1
10
5.98271205458272
20
-7.85165119326172
30
0
41
1
10
5.93507291538299
20
-7.94481649244582
30
0
41
1
10
5.85400425627381
20
-8.12979240585102
30
0
41
1
10
5.82037132014199
20
-8.22194462877545
30
0
41
1
10
5.76740553007983
20
-8.40553417859726
30
0
41
1
10
5.74803108783618
20
-8.49726128442236
30
0
41
1
10
5.72511673933332
20
-8.6787399077335
30
0
41
1
10
5.72175109118416
20
-8.76676038264014
30
0
41
1
10
5.7311524575527
20
-8.93747423336032
30
0
41
1
10
5.7438442725684
20
-9.0201800466584
30
0
41
1
10
5.78488542221911
20
-9.18035046081528
30
0
41
1
10
5.81343748423583
20
-9.25811328693578
30
0
41
1
10
5.8493237770154
20
-9.33182718803471
30
0
0
SPLINE
5
2FB
100
AcDbEntity
8
1
62
256
6
ByLayer
370
13
48
1
60
0
100
AcDbSpline
70
4
71
3
72
22
73
18
40
0
40
0
40
0
40
0
40
0.224001812406264
40
0.224001812406264
40
0.336002718609396
40
0.336002718609396
40
0.448003624812528
40
0.448003624812528
40
0.672005437218792
40
0.672005437218792
40
0.784006343421928
40
0.784006343421928
40
0.896007249625064
40
0.896007249625064
40
0.952007702726636
40
0.952007702726636
40
1
40
1
40
1
40
1
41
1
10
93.5973989794672
20
2.97740411177827
30
0
41
1
10
93.2514610305037
20
3.06257087298027
30
0
41
1
10
92.8976125830324
20
3.11808657544049
30
0
41
1
10
92.3557803424586
20
3.16697706988833
30
0
41
1
10
92.1732718752831
20
3.17737529556373
30
0
41
1
10
91.804042097329
20
3.18659630061202
30
0
41
1
10
91.6164532130964
20
3.18535400606817
30
0
41
1
10
91.0559435009409
20
3.16412077047846
30
0
41
1
10
90.6836962459492
20
3.12720238800952
30
0
41
1
10
90.1270575074108
20
3.0358700990636
30
0
41
1
10
89.9412928369893
20
2.99915291988145
30
0
41
1
10
89.5809718140486
20
2.91465359779213
30
0
41
1
10
89.4051798348614
20
2.86675139618788
30
0
41
1
10
89.1493692981239
20
2.78522436348018
30
0
41
1
10
89.0650176754934
20
2.75626224187587
30
0
41
1
10
88.9136776726857
20
2.6999517716302
30
0
41
1
10
88.8458545471273
20
2.67296076395081
30
0
41
1
10
88.7802273712957
20
2.6448607556222
30
0
0
SPLINE
5
2FC
100
AcDbEntity
8
1
62
256
6
ByLayer
370
13
48
1
60
0
100
AcDbSpline
70
4
71
3
72
10
73
6
40
0
40
0
40
0
40
0
40
0.375097589584652
40
0.375097589584652
40
1
40
1
40
1
40
1
41
1
10
86.3668218398592
20
3.58460157528992
30
0
41
1
10
87.2963603836847
20
3.64141782142337
30
0
41
1
10
88.2257344640287
20
3.68421138762233
30
0
41
1
10
90.7041692956999
20
3.7595905970706
30
0
41
1
10
92.2536904898769
20
3.76635956864467
30
0
41
1
10
93.8030443749342
20
3.73123691092806
30
0
0
SPLINE
5
2FD
100
AcDbEntity
8
1
62
256
6
ByLayer
370
13
48
1
60
0
100
AcDbSpline
70
4
71
3
72
44
73
40
40
0
40
0
40
0
40
0
40
0.125
40
0.125
40
0.1875
40
0.1875
40
0.25
40
0.25
40
0.28125
40
0.28125
40
0.3125
40
0.3125
40
0.375
40
0.375
40
0.40625
40
0.40625
40
0.4375
40
0.4375
40
0.5
40
0.5
40
0.53125
40
0.53125
40
0.5625
40
0.5625
40
0.625
40
0.625
40
0.65625
40
0.65625
40
0.6875
40
0.6875
40
0.75
40
0.75
40
0.78125
40
0.78125
40
0.8125
40
0.8125
40
0.875
40
0.875
40
1
40
1
40
1
40
1
41
1
10
5.18510000000001
20
-3.50000000000006
30
0
41
1
10
5.52521019238111
20
-3.32928796311424
30
0
41
1
10
5.84595149222073
20
-3.12942470949952
30
0
41
1
10
6.29289155991833
20
-2.77819932328654
30
0
41
1
10
6.43651848151453
20
-2.65191001770859
30
0
41
1
10
6.70460764282723
20
-2.38552309436142
30
0
41
1
10
6.82983410254206
20
-2.24493297326907
30
0
41
1
10
7.00304403816705
20
-2.02177632154687
30
0
41
1
10
7.05833410437867
20
-1.94533857507983
30
0
41
1
10
7.16366128905401
20
-1.78805689791523
30
0
41
1
10
7.21383942192884
20
-1.70696266824842
30
0
41
1
10
7.35481683718365
20
-1.45820253071557
30
0
41
1
10
7.43506487022705
20
-1.28708885352262
30
0
41
1
10
7.53350330594589
20
-1.0219980464037
30
0
41
1
10
7.56264874208711
20
-0.932226542324571
30
0
41
1
10
7.61321669564089
20
-0.749718713773973
30
0
41
1
10
7.63470625237537
20
-0.656601732995824
30
0
41
1
10
7.68632916427939
20
-0.37516996068473
30
0
41
1
10
7.70335921451124
20
-0.187294394374277
30
0
41
1
10
7.70328342836422
20
0.0948938456773476
30
0
41
1
10
7.69897411669214
20
0.189019277602057
30
0
41
1
10
7.68169707743283
20
0.377396833468339
30
0
41
1
10
7.66865967736433
20
0.47200905662396
30
0
41
1
10
7.61673387961682
20
0.753534736844159
30
0
41
1
10
7.56571799232208
20
0.935639137858573
30
0
41
1
10
7.46688243213049
20
1.20120453822545
30
0
41
1
10
7.43020196534869
20
1.2884554703696
30
0
41
1
10
7.3495781770909
20
1.46048626707184
30
0
41
1
10
7.30546558781313
20
1.54552526404072
30
0
41
1
10
7.16449873353378
20
1.79352659501123
30
0
41
1
10
7.05873158758794
20
1.95035799142119
30
0
41
1
10
6.88448335661511
20
2.1743556018678
30
0
41
1
10
6.82378792949805
20
2.24713711115754
30
0
41
1
10
6.69738820316954
20
2.389087551838
30
0
41
1
10
6.63151328378652
20
2.45840336734551
30
0
41
1
10
6.42919864483707
20
2.65864536532581
30
0
41
1
10
6.28745512791258
20
2.78271409744625
30
0
41
1
10
5.84425844062619
20
3.13025954536869
30
0
41
1
10
5.52505182226653
20
3.3293674540717
30
0
41
1
10
5.18510000000001
20
3.50000000000003
30
0
0
SPLINE
5
2FE
100
AcDbEntity
8
1
62
256
6
ByLayer
370
13
48
1
60
0
100
AcDbSpline
70
4
71
3
72
12
73
8
40
0
40
0
40
0
40
0
40
0.5
40
0.5
40
0.75
40
0.75
40
1
40
1
40
1
40
1
41
1
10
91.7519403817676
20
1.28629513990805
30
0
41
1
10
91.8928461996696
20
1.24132001651125
30
0
41
1
10
92.0355706554597
20
1.19201849477804
30
0
41
1
10
92.2519991107289
20
1.10972977522769
30
0
41
1
10
92.3249918083347
20
1.08070711832281
30
0
41
1
10
92.4692183646675
20
1.02050520559675
30
0
41
1
10
92.5402639924005
20
0.989424328517515
30
0
41
1
10
92.6102479124565
20
0.957294500987842
30
0
0
SPLINE
5
2FF
100
AcDbEntity
8
1
62
256
6
ByLayer
370
13
48
1
60
0
100
AcDbSpline
70
4
71
3
72
10
73
6
40
0
40
0
40
0
40
0
40
0.5
40
0.5
40
1
40
1
40
1
40
1
41
1
10
91.7519403817677
20
1.28629513990799
30
0
41
1
10
91.9827130917006
20
1.13390423973058
30
0
41
1
10
92.2230889810835
20
1.00145394711495
30
0
41
1
10
92.7234522773981
20
0.778041997826591
30
0
41
1
10
92.9834120988423
20
0.687019814888004
30
0
41
1
10
93.2540706154498
20
0.618923244209356
30
0
0
SPLINE
5
300
100
AcDbEntity
8
1
62
256
6
ByLayer
370
13
48
1
60
0
100
AcDbSpline
70
4
71
3
72
12
73
8
40
0
40
0
40
0
40
0
40
0.25
40
0.25
40
0.5
40
0.5
40
1
40
1
40
1
40
1
41
1
10
94.5770200940942
20
3.80046998551222
30
0
41
1
10
94.6892125056762
20
3.8122252890561
30
0
41
1
10
94.7985154990174
20
3.82791607616665
30
0
41
1
10
95.0136814023244
20
3.86441592723691
30
0
41
1
10
95.1195152891344
20
3.88523743904884
30
0
41
1
10
95.4335539407206
20
3.95293651138212
30
0
41
1
10
95.6384475024651
20
4.00493937094578
30
0
41
1
10
95.8396825201615
20
4.06028103020586
30
0
0
SPLINE
5
301
100
AcDbEntity
8
1
62
256
6
ByLayer
370
13
48
1
60
0
100
AcDbSpline
70
4
71
3
72
10
73
6
40
0
40
0
40
0
40
0
40
0.5
40
0.5
40
1
40
1
40
1
40
1
41
1
10
101.197735375983
20
3.18474051799026
30
0
41
1
10
100.948341867425
20
3.17167035803914
30
0
41
1
10
100.698562246096
20
3.15857996277509
30
0
41
1
10
100.198487303367
20
3.13237214555156
30
0
41
1
10
99.948201747381
20
3.11925523537573
30
0
41
1
10
99.6979528559215
20
3.1061402467063
30
0
0
SPLINE
5
302
100
AcDbEntity
8
1
62
256
6
ByLayer
370
13
48
1
60
0
100
AcDbSpline
70
4
71
3
72
16
73
12
40
0
40
0
40
0
40
0
40
0.250000000000002
40
0.250000000000002
40
0.500000000000003
40
0.500000000000003
40
0.625000000000001
40
0.625000000000001
40
0.749999999999999
40
0.749999999999999
40
1
40
1
40
1
40
1
41
1
10
96.9428511763937
20
2.39591021936761
30
0
41
1
10
97.2379120072479
20
2.3321934283681
30
0
41
1
10
97.5249622919039
20
2.29082735956209
30
0
41
1
10
98.0818025299955
20
2.24275441564561
30
0
41
1
10
98.3516022625519
20
2.23614834619207
30
0
41
1
10
98.7407509339768
20
2.24631114539665
30
0
41
1
10
98.8673190914039
20
2.25304425847074
30
0
41
1
10
99.1123217722247
20
2.27185762980159
30
0
41
1
10
99.2309815667755
20
2.28394576853904
30
0
41
1
10
99.5744807296628
20
2.3262574451162
30
0
41
1
10
99.7871155063162
20
2.36265641610748
30
0
41
1
10
99.9784351043816
20
2.40100890283182
30
0
0
SPLINE
5
303
100
AcDbEntity
8
1
62
256
6
ByLayer
370
13
48
1
60
0
100
AcDbSpline
70
4
71
3
72
34
73
30
40
0
40
0
40
0
40
0
40
0.125
40
0.125
40
0.15625
40
0.15625
40
0.1875
40
0.1875
40
0.25
40
0.25
40
0.3125
40
0.3125
40
0.375
40
0.375
40
0.437500000000001
40
0.437500000000001
40
0.500000000000001
40
0.500000000000001
40
0.562500000000001
40
0.562500000000001
40
0.625000000000001
40
0.625000000000001
40
0.750000000000001
40
0.750000000000001
40
0.812500000000001
40
0.812500000000001
40
0.875000000000001
40
0.875000000000001
40
1
40
1
40
1
40
1
41
1
10
5.84881854122139
20
-10.4172534199913
30
0
41
1
10
5.77763692304308
20
-10.5556647565472
30
0
41
1
10
5.73614134072204
20
-10.6865578213313
30
0
41
1
10
5.72410742509476
20
-10.8402045488328
30
0
41
1
10
5.72376235216257
20
-10.8705133905293
30
0
41
1
10
5.72714569881165
20
-10.9292055942432
30
0
41
1
10
5.73084611584605
20
-10.9576889603862
30
0
41
1
10
5.74774150709123
20
-11.0406342475222
30
0
41
1
10
5.76670533418889
20
-11.0926003013776
30
0
41
1
10
5.81944916801027
20
-11.1900799437806
30
0
41
1
10
5.85353356715137
20
-11.235866661791
30
0
41
1
10
5.93510037533159
20
-11.3193693051611
30
0
41
1
10
5.98238863051935
20
-11.3570799313788
30
0
41
1
10
6.08937816819204
20
-11.4249014863794
30
0
41
1
10
6.14907413338105
20
-11.4550133558566
30
0
41
1
10
6.28089559725873
20
-11.5077835103922
30
0
41
1
10
6.35268134355019
20
-11.5302331282381
30
0
41
1
10
6.50510821889259
20
-11.566957576265
30
0
41
1
10
6.58611276725588
20
-11.5813665586229
30
0
41
1
10
6.75754025845072
20
-11.6026394724623
30
0
41
1
10
6.84813568118287
20
-11.6095380673559
30
0
41
1
10
7.13229297806271
20
-11.6192584321375
30
0
41
1
10
7.33353176016314
20
-11.6111977661973
30
0
41
1
10
7.65164080150925
20
-11.5800111314307
30
0
41
1
10
7.76085742747196
20
-11.5663246775601
30
0
41
1
10
7.98281705498792
20
-11.5328578387704
30
0
41
1
10
8.09488798014718
20
-11.5132039785129
30
0
41
1
10
8.43432219537561
20
-11.4459453618051
30
0
41
1
10
8.6648656318936
20
-11.3901575822715
30
0
41
1
10
8.90003121748018
20
-11.3232250997721
30
0
0
SPLINE
5
304
100
AcDbEntity
8
1
62
256
6
ByLayer
370
13
48
1
60
0
100
AcDbSpline
70
4
71
3
72
30
73
26
40
0
40
0
40
0
40
0
40
0.0379148988310748
40
0.0379148988310748
40
0.0816460397932982
40
0.0816460397932982
40
0.125377180755522
40
0.125377180755522
40
0.169108321717745
40
0.169108321717745
40
0.212839462679968
40
0.212839462679968
40
0.23470503316108
40
0.23470503316108
40
0.256570603642192
40
0.256570603642192
40
0.300301744604416
40
0.300301744604416
40
0.387764026528864
40
0.387764026528864
40
0.475226308453312
40
0.475226308453312
40
0.650150872302208
40
0.650150872302208
40
1
40
1
40
1
40
1
41
1
10
73.5128531962156
20
-4.42782515146678
30
0
41
1
10
72.8279917587367
20
-4.48224393545595
30
0
41
1
10
72.1417251010436
20
-4.52961804037298
30
0
41
1
10
70.6609291159955
20
-4.62015408770392
30
0
41
1
10
69.8659476051314
20
-4.66178472461647
30
0
41
1
10
68.2721957337507
20
-4.73337343078606
30
0
41
1
10
67.4734632958987
20
-4.76345744922068
30
0
41
1
10
65.8717107817499
20
-4.81067201262908
30
0
41
1
10
65.0679729993956
20
-4.82735840460384
30
0
41
1
10
63.4610628217031
20
-4.84822994471563
30
0
41
1
10
62.6575175651067
20
-4.85263458154563
30
0
41
1
10
61.4520682945996
20
-4.85752037008916
30
0
41
1
10
61.0502280269756
20
-4.85904975874809
30
0
41
1
10
60.2465191447349
20
-4.86174728543352
30
0
41
1
10
59.8446550265852
20
-4.86270722156965
30
0
41
1
10
58.6390470534272
20
-4.86475369476636
30
0
41
1
10
57.8352851915247
20
-4.86523394763759
30
0
41
1
10
55.423960807849
20
-4.86557366892731
30
0
41
1
10
53.8163581779497
20
-4.863997875173
30
0
41
1
10
50.6011918950671
20
-4.86227444957643
30
0
41
1
10
48.9936217681483
20
-4.8616602366107
30
0
41
1
10
44.1709375750559
20
-4.86124153195885
30
0
41
1
10
40.9558474619319
20
-4.86252613941144
30
0
41
1
10
31.3105115206318
20
-4.86359376031632
30
0
41
1
10
24.8802482085502
20
-4.86133410076653
30
0
41
1
10
18.45
20
-4.8623941115172
30
0
0
SPLINE
5
305
100
AcDbEntity
8
1
62
256
6
ByLayer
370
13
48
1
60
0
100
AcDbSpline
70
4
71
3
72
8
73
4
40
0
40
0
40
0
40
0
40
1
40
1
40
1
40
1
41
1
10
99.178783723468
20
3.01055039950524
30
0
41
1
10
99.1875909201234
20
3.00814539653996
30
0
41
1
10
99.1962147726546
20
3.00579011281823
30
0
41
1
10
99.2046648815535
20
3.00352050627998
30
0
0
SPLINE
5
306
100
AcDbEntity
8
1
62
256
6
ByLayer
370
13
48
1
60
0
100
AcDbSpline
70
4
71
3
72
8
73
4
40
0
40
0
40
0
40
0
40
1
40
1
40
1
40
1
41
1
10
93.8979274994368
20
3.76938857326775
30
0
41
1
10
94.0152109527222
20
4.82531472789478
30
0
41
1
10
94.1258916219238
20
5.87794233790373
30
0
41
1
10
94.2267808167423
20
6.92861876071575
30
0
0
SPLINE
5
307
100
AcDbEntity
8
1
62
256
6
ByLayer
370
13
48
1
60
0
100
AcDbSpline
70
4
71
3
72
8
73
4
40
0
40
0
40
0
40
0
40
1
40
1
40
1
40
1
41
1
10
0
20
3.1240998703627
30
0
41
1
10
0.031707839132622
20
3.24995282691322
30
0
41
1
10
0.0650682269089771
20
3.37524366753212
30
0
41
1
10
0.0999999999999943
20
3.49999999999994
30
0
0
SPLINE
5
308
100
AcDbEntity
8
1
62
256
6
ByLayer
370
13
48
1
60
0
100
AcDbSpline
70
4
71
3
72
10
73
6
40
0
40
0
40
0
40
0
40
0.5
40
0.5
40
1
40
1
40
1
40
1
41
1
10
94.9989580435591
20
2.15868320645268
30
0
41
1
10
94.8003031046756
20
2.3283733835367
30
0
41
1
10
94.5786442576582
20
2.47618276124214
30
0
41
1
10
94.1076386343872
20
2.74546538188383
30
0
41
1
10
93.8576256942794
20
2.86665286383476
30
0
41
1
10
93.5973989794671
20
2.97740411177796
30
0
0
SPLINE
5
309
100
AcDbEntity
8
1
62
256
6
ByLayer
370
13
48
1
60
0
100
AcDbSpline
70
4
71
3
72
8
73
4
40
0
40
0
40
0
40
0
40
1
40
1
40
1
40
1
41
1
10
93.597398979467
20
2.97740411177799
30
0
41
1
10
93.6258719077209
20
3.06163927874289
30
0
41
1
10
93.6522916727426
20
3.14628125522086
30
0
41
1
10
93.6775130271744
20
3.23116068229251
30
0
0
SPLINE
5
30A
100
AcDbEntity
8
1
62
256
6
ByLayer
370
13
48
1
60
0
100
AcDbSpline
70
4
71
3
72
10
73
6
40
0
40
0
40
0
40
0
40
0.5
40
0.5
40
1
40
1
40
1
40
1
41
1
10
93.8980120003457
20
3.76937157402077
30
0
41
1
10
93.9608378214654
20
3.76950197689033
30
0
41
1
10
94.0231234412735
20
3.76740048786482
30
0
41
1
10
94.1465963207698
20
3.7585703376219
30
0
41
1
10
94.2081093403626
20
3.75178254720566
30
0
41
1
10
94.2680085568931
20
3.74269440017037
30
0
0
SPLINE
5
30B
100
AcDbEntity
8
1
62
256
6
ByLayer
370
13
48
1
60
0
100
AcDbSpline
70
4
71
3
72
12
73
8
40
0
40
0
40
0
40
0
40
0.5
40
0.5
40
0.75
40
0.75
40
1
40
1
40
1
40
1
41
1
10
100.766999383691
20
3.30175183728576
30
0
41
1
10
100.862099126687
20
3.25862734315123
30
0
41
1
10
100.958221411303
20
3.22953060867303
30
0
41
1
10
101.104825069757
20
3.20279234950255
30
0
41
1
10
101.154271603411
20
3.19676142073746
30
0
41
1
10
101.253204274152
20
3.19049156200097
30
0
41
1
10
101.30311124949
20
3.19026303351075
30
0
41
1
10
101.351943403604
20
3.19282221826549
30
0
0
SPLINE
5
30C
100
AcDbEntity
8
1
62
256
6
ByLayer
370
13
48
1
60
0
100
AcDbSpline
70
4
71
3
72
8
73
4
40
0
40
0
40
0
40
0
40
1
40
1
40
1
40
1
41
1
10
92.662686679784
20
1.03478502425108
30
0
41
1
10
92.6809449606852
20
1.02705813400672
30
0
41
1
10
92.6992318280592
20
1.01945332730955
30
0
41
1
10
92.7174971397151
20
1.01198590830009
30
0
0
SPLINE
5
30D
100
AcDbEntity
8
1
62
256
6
ByLayer
370
13
48
1
60
0
100
AcDbSpline
70
4
71
3
72
10
73
6
40
0
40
0
40
0
40
0
40
0.5
40
0.5
40
1
40
1
40
1
40
1
41
1
10
104.003773060244
20
3.36517779980679
30
0
41
1
10
104.016447828142
20
3.35509990218236
30
0
41
1
10
104.027440049976
20
3.34725279339369
30
0
41
1
10
104.04418875395
20
3.33685554284836
30
0
41
1
10
104.050025128234
20
3.33422268977748
30
0
41
1
10
104.052924735405
20
3.3343746517501
30
0
0
SPLINE
5
30E
100
AcDbEntity
8
1
62
256
6
ByLayer
370
13
48
1
60
0
100
AcDbSpline
70
4
71
3
72
8
73
4
40
0
40
0
40
0
40
0
40
1
40
1
40
1
40
1
41
1
10
99.6979528559215
20
3.1061402467063
30
0
41
1
10
99.6947513156825
20
3.10597246109208
30
0
41
1
10
99.6915497708204
20
3.10580467523559
30
0
41
1
10
99.6883482213878
20
3.10563688913956
30
0
0
SPLINE
5
30F
100
AcDbEntity
8
1
62
256
6
ByLayer
370
13
48
1
60
0
100
AcDbSpline
70
4
71
1
72
4
73
2
40
0
40
0
40
1
40
1
41
1
10
18.45
20
-4.8623941115172
30
0
41
1
10
18
20
-4.8623941115172
30
0
0
SPLINE
5
310
100
AcDbEntity
8
1
62
256
6
ByLayer
370
13
48
1
60
0
100
AcDbSpline
70
4
71
3
72
8
73
4
40
0
40
0
40
0
40
0
40
1
40
1
40
1
40
1
41
1
10
94.2499679839062
20
0.457088828370218
30
0
41
1
10
94.9179851820469
20
0.42301405327737
30
0
41
1
10
95.5860198365198
20
0.389135693833765
30
0
41
1
10
96.2540706154506
20
0.355443175982714
30
0
0
SPLINE
5
311
100
AcDbEntity
8
1
62
256
6
ByLayer
370
13
48
1
60
0
100
AcDbSpline
70
4
71
3
72
18
73
14
40
0
40
0
40
0
40
0
40
0.25
40
0.25
40
0.375000000000003
40
0.375000000000003
40
0.500000000000006
40
0.500000000000006
40
0.750000000000006
40
0.750000000000006
40
0.875000000000003
40
0.875000000000003
40
1
40
1
40
1
40
1
41
1
10
18.0000000000001
20
-7.7676094983303
30
0
41
1
10
17.8407202523446
20
-7.76780643884928
30
0
41
1
10
17.6848210682503
20
-7.78326640586315
30
0
41
1
10
17.4556205036362
20
-7.82744273172028
30
0
41
1
10
17.379999443567
20
-7.84568588696609
30
0
41
1
10
17.230292011234
20
-7.88910121394269
30
0
41
1
10
17.1560714612468
20
-7.91437138946256
30
0
41
1
10
16.9405339063423
20
-7.99845000423429
30
0
41
1
10
16.804566033116
20
-8.06588634493824
30
0
41
1
10
16.6107002325688
20
-8.18190633487637
30
0
41
1
10
16.547539366454
20
-8.22324252256263
30
0
41
1
10
16.4256195219602
20
-8.30985737072803
30
0
41
1
10
16.3670415361086
20
-8.35497261749541
30
0
41
1
10
16.3106190170421
20
-8.40172380288737
30
0
0
SPLINE
5
312
100
AcDbEntity
8
1
62
256
6
ByLayer
370
13
48
1
60
0
100
AcDbSpline
70
4
71
3
72
8
73
4
40
0
40
0
40
0
40
0
40
1
40
1
40
1
40
1
41
1
10
94.3562130535248
20
3.75770256353294
30
0
41
1
10
94.3282906298675
20
3.74878975609803
30
0
41
1
10
94.2986011502986
20
3.74406640092209
30
0
41
1
10
94.2680085568936
20
3.74269440017028
30
0
0
SPLINE
5
313
100
AcDbEntity
8
1
62
256
6
ByLayer
370
13
48
1
60
0
100
AcDbSpline
70
4
71
3
72
40
73
36
40
0
40
0
40
0
40
0
40
0.135025668393929
40
0.135025668393929
40
0.168782085492412
40
0.168782085492412
40
0.202538502590895
40
0.202538502590895
40
0.27005133678786
40
0.27005133678786
40
0.337564170984825
40
0.337564170984825
40
0.405077005181791
40
0.405077005181791
40
0.472589839378756
40
0.472589839378756
40
0.540102673575721
40
0.540102673575721
40
0.573859090674203
40
0.573859090674203
40
0.607615507772685
40
0.607615507772685
40
0.67512834196965
40
0.67512834196965
40
0.742641176166614
40
0.742641176166614
40
0.776397593265096
40
0.776397593265096
40
0.810154010363578
40
0.810154010363578
40
0.877666844560544
40
0.877666844560544
40
0.945179678757509
40
0.945179678757509
40
1
40
1
40
1
40
1
41
1
10
91.7519403817677
20
1.28629513990799
30
0
41
1
10
90.2036033232438
20
1.97415211685012
30
0
41
1
10
88.6597399622494
20
2.64582509753873
30
0
41
1
10
86.7255186653341
20
3.44371463426597
30
0
41
1
10
86.3384462171034
20
3.60119097467018
30
0
41
1
10
85.563568166892
20
3.91135748549891
30
0
41
1
10
85.1756138350441
20
4.06410075254345
30
0
41
1
10
84.0135438480837
20
4.51301943117028
30
0
41
1
10
83.2401631007034
20
4.80023555186116
30
0
41
1
10
81.6941665661946
20
5.34721742998025
30
0
41
1
10
80.9215754907123
20
5.60703174497897
30
0
41
1
10
79.3754743424265
20
6.09618826629321
30
0
41
1
10
78.6017344587326
20
6.32601842675791
30
0
41
1
10
77.0515123324154
20
6.74831230405286
30
0
41
1
10
76.2773057176749
20
6.94043324930709
30
0
41
1
10
74.7196682143633
20
7.27594868811462
30
0
41
1
10
73.9356336368532
20
7.418784727092
30
0
41
1
10
72.746083798434
20
7.59734350206824
30
0
41
1
10
72.3472608377393
20
7.65091711031661
30
0
41
1
10
71.5448775675525
20
7.74758694780715
30
0
41
1
10
71.1410227225468
20
7.79073586317543
30
0
41
1
10
69.9253616756907
20
7.90647225422947
30
0
41
1
10
69.1093353778005
20
7.96553871955669
30
0
41
1
10
67.4713503474545
20
8.06144045444316
30
0
41
1
10
66.6494928898385
20
8.0978020668517
30
0
41
1
10
65.4085491596729
20
8.13769653055328
30
0
41
1
10
64.9935581689883
20
8.1486094776923
30
0
41
1
10
64.1606920966413
20
8.16660518481368
30
0
41
1
10
63.7425068698909
20
8.17369115317732
30
0
41
1
10
62.4872521993006
20
8.19052815570444
30
0
41
1
10
61.6486227213783
20
8.19594163629247
30
0
41
1
10
59.9673712832245
20
8.20179894022132
30
0
41
1
10
59.1247798530429
20
8.20231807348668
30
0
41
1
10
57.5948946532734
20
8.20258222234395
30
0
41
1
10
56.9082039114847
20
8.20243311558568
30
0
41
1
10
56.2207475268582
20
8.20232089817793
30
0
0
SPLINE
5
314
100
AcDbEntity
8
1
62
256
6
ByLayer
370
13
48
1
60
0
100
AcDbSpline
70
4
71
3
72
10
73
6
40
0
40
0
40
0
40
0
40
0.5
40
0.5
40
1
40
1
40
1
40
1
41
1
10
95.8396825201484
20
4.06028103020998
30
0
41
1
10
95.8456554650223
20
4.1313824901863
30
0
41
1
10
95.8434672036251
20
4.20271852767431
30
0
41
1
10
95.8169608433246
20
4.34127950650085
30
0
41
1
10
95.7918768080298
20
4.40976629787363
30
0
41
1
10
95.7547654352544
20
4.47138939220179
30
0
0
SPLINE
5
315
100
AcDbEntity
8
1
62
256
6
ByLayer
370
13
48
1
60
0
100
AcDbSpline
70
4
71
3
72
18
73
14
40
0
40
0
40
0
40
0
40
0.25
40
0.25
40
0.375
40
0.375
40
0.5
40
0.5
40
0.75
40
0.75
40
0.875
40
0.875
40
1
40
1
40
1
40
1
41
1
10
99.6740594012371
20
3.10488804380688
30
0
41
1
10
99.6687388514114
20
3.10460920562002
30
0
41
1
10
99.6700027956438
20
3.11486765777343
30
0
41
1
10
99.6852678913237
20
3.14328598865544
30
0
41
1
10
99.6926265458028
20
3.15479049743317
30
0
41
1
10
99.7125688050046
20
3.18028885701622
30
0
41
1
10
99.7254198857793
20
3.19453364191259
30
0
41
1
10
99.7715031473956
20
3.23700065065486
30
0
41
1
10
99.8136908414676
20
3.26569338977208
30
0
41
1
10
99.8869798068641
20
3.2968786586369
30
0
41
1
10
99.9134919206497
20
3.30555664090855
30
0
41
1
10
99.96763664342
20
3.31803817895283
30
0
41
1
10
99.9955019667846
20
3.3219930013025
30
0
41
1
10
100.024170311115
20
3.32351101191176
30
0
0
SPLINE
5
316
100
AcDbEntity
8
1
62
256
6
ByLayer
370
13
48
1
60
0
100
AcDbSpline
70
4
71
3
72
12
73
8
40
0
40
0
40
0
40
0
40
0.377297950843822
40
0.377297950843822
40
0.754595901687646
40
0.754595901687646
40
1
40
1
40
1
40
1
41
1
10
5.8493237770154
20
-9.33182718803471
30
0
41
1
10
5.8833764432411
20
-9.05839614706977
30
0
41
1
10
5.93185603012273
20
-8.78619803457477
30
0
41
1
10
6.05773186165138
20
-8.24405435900681
30
0
41
1
10
6.13534740502618
20
-7.97383122205335
30
0
41
1
10
6.2861215976163
20
-7.53555838934628
30
0
41
1
10
6.35143982044147
20
-7.36440352134602
30
0
41
1
10
6.42274647040827
20
-7.19486118503173
30
0
0
SPLINE
5
317
100
AcDbEntity
8
1
62
256
6
ByLayer
370
13
48
1
60
0
100
AcDbSpline
70
4
71
3
72
12
73
8
40
0
40
0
40
0
40
0
40
0.250000000000001
40
0.250000000000001
40
0.500000000000001
40
0.500000000000001
40
1
40
1
40
1
40
1
41
1
10
95.9345350629809
20
3.114295778301
30
0
41
1
10
95.9248592490906
20
3.15914844519298
30
0
41
1
10
95.916089265455
20
3.20671083206364
30
0
41
1
10
95.9008811010911
20
3.30407480354475
30
0
41
1
10
95.8943952653857
20
3.35397075626716
30
0
41
1
10
95.8784067672196
20
3.5072964355133
30
0
41
1
10
95.8720750351314
20
3.61550396751656
30
0
41
1
10
95.8734398995781
20
3.72418302097793
30
0
0
SPLINE
5
318
100
AcDbEntity
8
1
62
256
6
ByLayer
370
13
48
1
60
0
100
AcDbSpline
70
4
71
3
72
10
73
6
40
0
40
0
40
0
40
0
40
0.5
40
0.5
40
1
40
1
40
1
40
1
41
1
10
93.4797268524097
20
0.869581366950996
30
0
41
1
10
93.5975197861588
20
0.864040633495478
30
0
41
1
10
93.7144969141569
20
0.867822748796499
30
0
41
1
10
93.9468116145063
20
0.894010983635525
30
0
41
1
10
94.0601509970107
20
0.916238688572975
30
0
41
1
10
94.1698925270609
20
0.947045831378801
30
0
0
SPLINE
5
319
100
AcDbEntity
8
1
62
256
6
ByLayer
370
13
48
1
60
0
100
AcDbSpline
70
4
71
3
72
12
73
8
40
0
40
0
40
0
40
0
40
0.5
40
0.5
40
0.75
40
0.75
40
1
40
1
40
1
40
1
41
1
10
96.2540706154506
20
-8.2443498507169
30
0
41
1
10
95.7579064695757
20
-8.22104169573166
30
0
41
1
10
95.2589665817678
20
-8.1987895945627
30
0
41
1
10
94.5083098320744
20
-8.16722496977735
30
0
41
1
10
94.2577155766103
20
-8.15697668992954
30
0
41
1
10
93.7560912117316
20
-8.1368110116324
30
0
41
1
10
93.5050438040548
20
-8.12691521464231
30
0
41
1
10
93.2540706154506
20
-8.11686008354633
30
0
0
SPLINE
5
31A
100
AcDbEntity
8
1
62
256
6
ByLayer
370
13
48
1
60
0
100
AcDbSpline
70
4
71
3
72
25
73
21
40
0
40
0
40
0
40
0
40
0.0625
40
0.0625
40
0.125
40
0.125
40
0.250000000000001
40
0.250000000000001
40
0.312500000000002
40
0.312500000000002
40
0.343750000000002
40
0.343750000000002
40
0.375000000000001
40
0.500000000000001
40
0.500000000000001
40
0.625000000000001
40
0.625000000000001
40
0.750000000000001
40
0.750000000000001
40
1
40
1
40
1
40
1
41
1
10
16.3024291000438
20
-3.28897756517645
30
0
41
1
10
16.1367204577668
20
-3.31690110734252
30
0
41
1
10
15.971991442663
20
-3.34889065178135
30
0
41
1
10
15.6444961227026
20
-3.4210160891318
30
0
41
1
10
15.4812697570153
20
-3.46128083038329
30
0
41
1
10
14.9978820749956
20
-3.59352601448066
30
0
41
1
10
14.6862934834223
20
-3.69615775423668
30
0
41
1
10
14.2339365125145
20
-3.87048043520744
30
0
41
1
10
14.0856641705962
20
-3.93199603880203
30
0
41
1
10
13.8669792481607
20
-4.02931861514651
30
0
41
1
10
13.7948833642402
20
-4.06284303647686
30
0
41
1
10
13.6511372395879
20
-4.13049616918485
30
0
41
1
10
13.2905156008348
20
-4.2979254273445
30
0
41
1
10
12.9236619751178
20
-4.45690414078265
30
0
41
1
10
12.3288654913251
20
-4.70065171381177
30
0
41
1
10
12.0273116488302
20
-4.8172981110248
30
0
41
1
10
11.4180878632947
20
-5.03947726727409
30
0
41
1
10
11.1103411352589
20
-5.1450531389722
30
0
41
1
10
10.1778234249861
20
-5.44546297298118
30
0
41
1
10
9.54379870664306
20
-5.62402099736388
30
0
41
1
10
8.89745640719545
20
-5.78091423865919
30
0
0
SPLINE
5
31B
100
AcDbEntity
8
1
62
256
6
ByLayer
370
13
48
1
60
0
100
AcDbSpline
70
4
71
3
72
10
73
6
40
0
40
0
40
0
40
0
40
0.5
40
0.5
40
1
40
1
40
1
40
1
41
1
10
100.521618694176
20
3.3495812133601
30
0
41
1
10
100.564542188211
20
3.35183073836157
30
0
41
1
10
100.607090509904
20
3.34853283784602
30
0
41
1
10
100.691141215661
20
3.33157539218792
30
0
41
1
10
100.73044018849
20
3.31833018701985
30
0
41
1
10
100.766999383691
20
3.30175183728576
30
0
0
SPLINE
5
31C
100
AcDbEntity
8
1
62
256
6
ByLayer
370
13
48
1
60
0
100
AcDbSpline
70
4
71
3
72
12
73
8
40
0
40
0
40
0
40
0
40
0.249999999999988
40
0.249999999999988
40
0.499999999999976
40
0.499999999999976
40
1
40
1
40
1
40
1
41
1
10
102.371359804096
20
3.24624756797996
30
0
41
1
10
102.414562322679
20
3.24851171603831
30
0
41
1
10
102.458435392166
20
3.25365504841889
30
0
41
1
10
102.544912600706
20
3.26964182718564
30
0
41
1
10
102.587887982745
20
3.28051638330931
30
0
41
1
10
102.714679113844
20
3.32158265626776
30
0
41
1
10
102.796971319602
20
3.36002969797838
30
0
41
1
10
102.877814459813
20
3.41237496790242
30
0
0
SPLINE
5
31D
100
AcDbEntity
8
1
62
256
6
ByLayer
370
13
48
1
60
0
100
AcDbSpline
70
4
71
3
72
20
73
16
40
0
40
0
40
0
40
0
40
0.317736952401914
40
0.317736952401914
40
0.47660542860287
40
0.47660542860287
40
0.55603966670335
40
0.55603966670335
40
0.635473904803829
40
0.635473904803829
40
0.79434238100479
40
0.79434238100479
40
0.953210857205752
40
0.953210857205752
40
1
40
1
40
1
40
1
41
1
10
93.2540706154506
20
8.08757397639269
30
0
41
1
10
91.6457673473675
20
8.20858236813012
30
0
41
1
10
90.0443447881636
20
8.23388967201115
30
0
41
1
10
87.6392142435246
20
8.12923165603871
30
0
41
1
10
86.8370120718205
20
8.07059957330506
30
0
41
1
10
85.6314542372937
20
7.94715118547262
30
0
41
1
10
85.2293860835256
20
7.90008825807499
30
0
41
1
10
84.4266706119915
20
7.79449789547093
30
0
41
1
10
84.0257332639952
20
7.73594333167492
30
0
41
1
10
82.823809910434
20
7.54323299645489
30
0
41
1
10
82.023944072388
20
7.39167566457348
30
0
41
1
10
80.4211382048031
20
7.04837871313413
30
0
41
1
10
79.6182383683387
20
6.85652292958758
30
0
41
1
10
78.5721511741378
20
6.59003879621059
30
0
41
1
10
78.3336448695145
20
6.52820112779099
30
0
41
1
10
78.0948463411023
20
6.46535994484378
30
0
0
SPLINE
5
31E
100
AcDbEntity
8
1
62
256
6
ByLayer
370
13
48
1
60
0
100
AcDbSpline
70
4
71
3
72
10
73
6
40
0
40
0
40
0
40
0
40
0.5
40
0.5
40
1
40
1
40
1
40
1
41
1
10
105.069257606349
20
0.205712230439133
30
0
41
1
10
105.067761910544
20
0.234372670522333
30
0
41
1
10
105.066792303478
20
0.262763122144747
30
0
41
1
10
105.065916668304
20
0.318974491980953
30
0
41
1
10
105.066021990794
20
0.346961413238318
30
0
41
1
10
105.066642480297
20
0.373704311021896
30
0
0
SPLINE
5
31F
100
AcDbEntity
8
1
62
256
6
ByLayer
370
13
48
1
60
0
100
AcDbSpline
70
4
71
2
72
12
73
9
40
0
40
0
40
0
40
0.290745641051871
40
0.290745641051871
40
0.581491282103742
40
0.581491282103742
40
0.872236923155613
40
0.872236923155613
40
1
40
1
40
1
41
1
10
17.9999999999992
20
-4.86762423220225
30
0
41
1
10
16.1412232769002
20
-4.96020703750929
30
0
41
1
10
14.4651784167248
20
-5.59447253466274
30
0
41
1
10
12.6921681312199
20
-6.26543264850858
30
0
41
1
10
11.3628447067697
20
-7.43742064732348
30
0
41
1
10
10.046191085691
20
-8.5982384092903
30
0
41
1
10
9.34642189782969
20
-10.0889692606464
30
0
41
1
10
9.06102512790622
20
-10.696955118244
30
0
41
1
10
8.89772049280495
20
-11.3233669122726
30
0
0
SPLINE
5
320
100
AcDbEntity
8
1
62
256
6
ByLayer
370
13
48
1
60
0
100
AcDbSpline
70
4
71
3
72
8
73
4
40
0
40
0
40
0
40
0
40
1
40
1
40
1
40
1
41
1
10
93.6781187381663
20
3.23301145796208
30
0
41
1
10
91.5843453977212
20
3.28961612702312
30
0
41
1
10
89.4934896283474
20
3.27996352361089
30
0
41
1
10
87.4016848375262
20
3.20708672864765
30
0
0
SPLINE
5
321
100
AcDbEntity
8
1
62
256
6
ByLayer
370
13
48
1
60
0
100
AcDbSpline
70
4
71
3
72
8
73
4
40
0
40
0
40
0
40
0
40
1
40
1
40
1
40
1
41
1
10
96.5613904233225
20
2.54643929841751
30
0
41
1
10
96.6832868820956
20
2.47494530716733
30
0
41
1
10
96.8098886173098
20
2.42462276505992
30
0
41
1
10
96.9428511763937
20
2.39591021936761
30
0
0
SPLINE
5
322
100
AcDbEntity
8
1
62
256
6
ByLayer
370
13
48
1
60
0
100
AcDbSpline
70
4
71
3
72
8
73
4
40
0
40
0
40
0
40
0
40
1
40
1
40
1
40
1
41
1
10
99.6883482211829
20
3.10563689077301
30
0
41
1
10
99.6699522305387
20
3.07708311291887
30
0
41
1
10
99.6547030698187
20
3.0464714979274
30
0
41
1
10
99.6431529409467
20
3.01526891687592
30
0
0
SPLINE
5
323
100
AcDbEntity
8
1
62
256
6
ByLayer
370
13
48
1
60
0
100
AcDbSpline
70
4
71
3
72
12
73
8
40
0
40
0
40
0
40
0
40
0.25
40
0.25
40
0.500000000000001
40
0.500000000000001
40
1
40
1
40
1
40
1
41
1
10
92.6102479124565
20
0.957294500987842
30
0
41
1
10
92.6803230333335
20
0.925122802887785
30
0
41
1
10
92.7523435293889
20
0.899805625534157
30
0
41
1
10
92.9000494258482
20
0.861962228108979
30
0
41
1
10
92.9759748360792
20
0.849596942326741
30
0
41
1
10
93.1978498862368
20
0.831152840167448
30
0
41
1
10
93.3437222751923
20
0.84273136091673
30
0
41
1
10
93.4797268524097
20
0.869581366951024
30
0
0
SPLINE
5
324
100
AcDbEntity
8
1
62
256
6
ByLayer
370
13
48
1
60
0
100
AcDbSpline
70
4
71
3
72
14
73
10
40
0
40
0
40
0
40
0
40
0.25
40
0.25
40
0.5
40
0.5
40
0.75
40
0.75
40
1
40
1
40
1
40
1
41
1
10
103.60413497966
20
3.51112904648613
30
0
41
1
10
103.645962220832
20
3.5133211193095
30
0
41
1
10
103.687288632855
20
3.51024805495794
30
0
41
1
10
103.768984040026
20
3.49434176459582
30
0
41
1
10
103.807974916475
20
3.48163992412452
30
0
41
1
10
103.879809066649
20
3.44998744619403
30
0
41
1
10
103.911280152861
20
3.43170450570437
30
0
41
1
10
103.965409283825
20
3.39556226674856
30
0
41
1
10
103.986773640943
20
3.37869429247689
30
0
41
1
10
104.003773060244
20
3.36517779980679
30
0
0
SPLINE
5
325
100
AcDbEntity
8
1
62
256
6
ByLayer
370
13
48
1
60
0
100
AcDbSpline
70
4
71
3
72
10
73
6
40
0
40
0
40
0
40
0
40
0.5
40
0.5
40
1
40
1
40
1
40
1
41
1
10
95.9345350629803
20
3.11429577830435
30
0
41
1
10
96.0270652834803
20
2.99423245686083
30
0
41
1
10
96.1253224624546
20
2.88730167095554
30
0
41
1
10
96.3342257288221
20
2.69744333856991
30
0
41
1
10
96.4456735964422
20
2.6143088484578
30
0
41
1
10
96.5613904233221
20
2.54643929841686
30
0
0
SPLINE
5
326
100
AcDbEntity
8
1
62
256
6
ByLayer
370
13
48
1
60
0
100
AcDbSpline
70
4
71
3
72
8
73
4
40
0
40
0
40
0
40
0
40
1
40
1
40
1
40
1
41
1
10
23
20
-8.27228711215932
30
0
41
1
10
21.333332913721
20
-8.27230007278831
30
0
41
1
10
19.6666661568014
20
-8.272268078076
30
0
41
1
10
18.0000000000001
20
-8.27215307820441
30
0
0
SPLINE
5
327
100
AcDbEntity
8
1
62
256
6
ByLayer
370
13
48
1
60
0
100
AcDbSpline
70
4
71
3
72
24
73
20
40
0
40
0
40
0
40
0
40
0.290570559262908
40
0.290570559262908
40
0.435855838894362
40
0.435855838894362
40
0.50849847871009
40
0.50849847871009
40
0.581141118525818
40
0.581141118525818
40
0.726426398157277
40
0.726426398157277
40
0.799069037973006
40
0.799069037973006
40
0.871711677788735
40
0.871711677788735
40
0.944354317604465
40
0.944354317604465
40
1
40
1
40
1
40
1
41
1
10
93.7860511193322
20
7.5916751724221
30
0
41
1
10
92.3029074089113
20
7.73141353359091
30
0
41
1
10
90.8242511144832
20
7.793495291596
30
0
41
1
10
88.6037061496701
20
7.77282537535845
30
0
41
1
10
87.8631050076319
20
7.74691728522524
30
0
41
1
10
86.7503845357498
20
7.6792842443746
30
0
41
1
10
86.3791038921434
20
7.65192701367943
30
0
41
1
10
85.6376466954977
20
7.58771160156533
30
0
41
1
10
85.2672353293651
20
7.55085248392047
30
0
41
1
10
84.1566652480538
20
7.42587610192064
30
0
41
1
10
83.417197695891
20
7.32295193174838
30
0
41
1
10
82.3080099599819
20
7.13972269130647
30
0
41
1
10
81.9382661096332
20
7.07415621938273
30
0
41
1
10
81.1986020622848
20
6.936027918653
30
0
41
1
10
80.8287426126665
20
6.86357074425246
30
0
41
1
10
80.0881211855507
20
6.71144337105338
30
0
41
1
10
79.717347019603
20
6.63178893382701
30
0
41
1
10
79.0608326155213
20
6.48499859694419
30
0
41
1
10
78.7755857834863
20
6.41928980302825
30
0
41
1
10
78.4900693780477
20
6.35192397232208
30
0
0
SPLINE
5
328
100
AcDbEntity
8
1
62
256
6
ByLayer
370
13
48
1
60
0
100
AcDbSpline
70
4
71
3
72
8
73
4
40
0
40
0
40
0
40
0
40
1
40
1
40
1
40
1
41
1
10
93.7860511193267
20
7.59167517242267
30
0
41
1
10
93.9251128274302
20
7.36568684951513
30
0
41
1
10
94.0717977897729
20
7.14447688826584
30
0
41
1
10
94.2267654405375
20
6.92845863118117
30
0
0
SPLINE
5
329
100
AcDbEntity
8
1
62
256
6
ByLayer
370
13
48
1
60
0
100
AcDbSpline
70
4
71
3
72
8
73
4
40
0
40
0
40
0
40
0
40
1
40
1
40
1
40
1
41
1
10
104.708666163879
20
-0.836853819679249
30
0
41
1
10
104.77830042043
20
-1.22924538788539
30
0
41
1
10
104.792793396723
20
-1.61908267136414
30
0
41
1
10
104.757787533807
20
-2.00597522340266
30
0
0
SPLINE
5
32A
100
AcDbEntity
8
1
62
256
6
ByLayer
370
13
48
1
60
0
100
AcDbSpline
70
4
71
3
72
40
73
36
40
0
40
0
40
0
40
0
40
0.125000000000006
40
0.125000000000006
40
0.187500000000012
40
0.187500000000012
40
0.250000000000019
40
0.250000000000019
40
0.312500000000025
40
0.312500000000025
40
0.375000000000032
40
0.375000000000032
40
0.406250000000035
40
0.406250000000035
40
0.437500000000038
40
0.437500000000038
40
0.468750000000041
40
0.468750000000041
40
0.500000000000045
40
0.500000000000045
40
0.562500000000039
40
0.562500000000039
40
0.625000000000034
40
0.625000000000034
40
0.687500000000028
40
0.687500000000028
40
0.750000000000022
40
0.750000000000022
40
0.812500000000017
40
0.812500000000017
40
0.875000000000011
40
0.875000000000011
40
0.937500000000006
40
0.937500000000006
40
1
40
1
40
1
40
1
41
1
10
99.6431529409467
20
3.01526891687592
30
0
41
1
10
99.5985414512028
20
2.89475133304762
30
0
41
1
10
99.5372642337032
20
2.78830831394711
30
0
41
1
10
99.4274898698441
20
2.65085934711161
30
0
41
1
10
99.3882356308637
20
2.60912506510371
30
0
41
1
10
99.3043232254883
20
2.53288017049689
30
0
41
1
10
99.2594213082199
20
2.49821512533561
30
0
41
1
10
99.1644803365548
20
2.43665901792113
30
0
41
1
10
99.1147000201192
20
2.40982589388983
30
0
41
1
10
99.0080986925065
20
2.36374796602598
30
0
41
1
10
98.9506727154151
20
2.3443319791181
30
0
41
1
10
98.8580874177579
20
2.32256592374634
30
0
41
1
10
98.8258593724614
20
2.31647698311525
30
0
41
1
10
98.7590967891075
20
2.30714605149376
30
0
41
1
10
98.7253674610446
20
2.30400668027909
30
0
41
1
10
98.6572022695752
20
2.30072114995022
30
0
41
1
10
98.6223921639312
20
2.30059586494386
30
0
41
1
10
98.5540905315609
20
2.30325645826144
30
0
41
1
10
98.5207818078269
20
2.30598738193024
30
0
41
1
10
98.4225755888297
20
2.31787472770736
30
0
41
1
10
98.3590587026828
20
2.3308248658125
30
0
41
1
10
98.2380691345736
20
2.36471918040078
30
0
41
1
10
98.1800336229333
20
2.38573693637574
30
0
41
1
10
98.067435152074
20
2.43599942221363
30
0
41
1
10
98.0125314759957
20
2.4655111303255
30
0
41
1
10
97.908172338537
20
2.53225783958061
30
0
41
1
10
97.8586995514237
20
2.56940710788777
30
0
41
1
10
97.7651368262341
20
2.65188813706084
30
0
41
1
10
97.721043796357
20
2.69720286288793
30
0
41
1
10
97.6388831995253
20
2.79755893952867
30
0
41
1
10
97.6018885108147
20
2.85133913929502
30
0
41
1
10
97.5371258494706
20
2.96630067704498
30
0
41
1
10
97.5090190097926
20
3.02841365894997
30
0
41
1
10
97.4651600701725
20
3.15705875326623
30
0
41
1
10
97.4492522439162
20
3.22344484753756
30
0
41
1
10
97.4398758004164
20
3.29214830376853
30
0
0
SPLINE
5
32B
100
AcDbEntity
8
1
62
256
6
ByLayer
370
13
48
1
60
0
100
AcDbSpline
70
4
71
3
72
8
73
4
40
0
40
0
40
0
40
0
40
1
40
1
40
1
40
1
41
1
10
23
20
-2.76679770144722
30
0
41
1
10
21.3333329620483
20
-2.76689073390122
30
0
41
1
10
19.6666662206502
20
-2.76635324454
30
0
41
1
10
18
20
-2.76470824685998
30
0
0
SPLINE
5
32C
100
AcDbEntity
8
1
62
256
6
ByLayer
370
13
48
1
60
0
100
AcDbSpline
70
4
71
3
72
8
73
4
40
0
40
0
40
0
40
0
40
1
40
1
40
1
40
1
41
1
10
96.5403358885981
20
-8.25007846752567
30
0
41
1
10
96.4451022539407
20
-8.2481489089665
30
0
41
1
10
96.3496754224782
20
-8.24623544648358
30
0
41
1
10
96.2540706154506
20
-8.2443498507169
30
0
0
SPLINE
5
32D
100
AcDbEntity
8
1
62
256
6
ByLayer
370
13
48
1
60
0
100
AcDbSpline
70
4
71
3
72
8
73
4
40
0
40
0
40
0
40
0
40
1
40
1
40
1
40
1
41
1
10
104.561397000664
20
3.13052617952025
30
0
41
1
10
104.547009650779
20
3.11844754158793
30
0
41
1
10
104.533180909149
20
3.10637010738029
30
0
41
1
10
104.519946068183
20
3.09433001193071
30
0
0
SPLINE
5
32E
100
AcDbEntity
8
1
62
256
6
ByLayer
370
13
48
1
60
0
100
AcDbSpline
70
4
71
3
72
44
73
40
40
0
40
0
40
0
40
0
40
0.0245136037350605
40
0.0245136037350605
40
0.0606427295226511
40
0.0606427295226511
40
0.0967718553102416
40
0.0967718553102416
40
0.132900981097832
40
0.132900981097832
40
0.169030106885423
40
0.169030106885423
40
0.205159232673013
40
0.205159232673013
40
0.241288358460604
40
0.241288358460604
40
0.277417484248194
40
0.277417484248194
40
0.313546610035785
40
0.313546610035785
40
0.33161117292958
40
0.33161117292958
40
0.349675735823376
40
0.349675735823376
40
0.385804861610966
40
0.385804861610966
40
0.421933987398556
40
0.421933987398556
40
0.458063113186146
40
0.458063113186146
40
0.494192238973736
40
0.494192238973736
40
0.566450490548917
40
0.566450490548917
40
0.710966993699278
40
0.710966993699278
40
0.855483496849639
40
0.855483496849639
40
1
40
1
40
1
40
1
41
1
10
81.9744035045428
20
-6.55013288879232
30
0
41
1
10
81.4898597478567
20
-6.65713940714136
30
0
41
1
10
81.004786642264
20
-6.75726859567456
30
0
41
1
10
79.8011103460577
20
-6.98749169644793
30
0
41
1
10
79.0799041025667
20
-7.10999584322616
30
0
41
1
10
77.6309092657949
20
-7.31797901220531
30
0
41
1
10
76.9025504291205
20
-7.40128676335391
30
0
41
1
10
75.4353082846816
20
-7.53778714236429
30
0
41
1
10
74.6966281895275
20
-7.59064163912998
30
0
41
1
10
73.2094533601694
20
-7.6733017369711
30
0
41
1
10
72.4610535374067
20
-7.70366339002271
30
0
41
1
10
70.9547102618778
20
-7.74846458703729
30
0
41
1
10
70.1988113711607
20
-7.76244340043559
30
0
41
1
10
68.6822342943242
20
-7.77905332238407
30
0
41
1
10
67.92137523463
20
-7.78197737448164
30
0
41
1
10
66.3940318776621
20
-7.7825094933502
30
0
41
1
10
65.6275396209019
20
-7.77998997924297
30
0
41
1
10
64.0883199311393
20
-7.77254737136809
30
0
41
1
10
63.3147537195669
20
-7.76707649960426
30
0
41
1
10
62.1551309838115
20
-7.75927255977149
30
0
41
1
10
61.7685405824765
20
-7.75713485682547
30
0
41
1
10
60.9952716364949
20
-7.75671520151212
30
0
41
1
10
60.6085910986252
20
-7.75900877210987
30
0
41
1
10
59.4484869870709
20
-7.76117636259821
30
0
41
1
10
58.6749962313772
20
-7.75765529088739
30
0
41
1
10
57.1279520974727
20
-7.75396516972276
30
0
41
1
10
56.3543957802518
20
-7.75320716208273
30
0
41
1
10
54.8072524788284
20
-7.75282690347021
30
0
41
1
10
54.0336654732157
20
-7.75320526730991
30
0
41
1
10
52.4864977261423
20
-7.75419767246123
30
0
41
1
10
51.7129188478698
20
-7.75454315031422
30
0
41
1
10
49.392202494522
20
-7.7543186902308
30
0
41
1
10
47.8450893718612
20
-7.75335294563774
30
0
41
1
10
43.2037595759616
20
-7.75244866299087
30
0
41
1
10
40.109543201889
20
-7.75336323128246
30
0
41
1
10
33.9211045576859
20
-7.75445733268688
30
0
41
1
10
30.8268833239165
20
-7.75421125071694
30
0
41
1
10
24.63844210227
20
-7.75406494233161
30
0
41
1
10
21.544221393535
20
-7.75413793249896
30
0
41
1
10
18.45
20
-7.75392285589342
30
0
0
SPLINE
5
32F
100
AcDbEntity
8
1
62
256
6
ByLayer
370
13
48
1
60
0
100
AcDbSpline
70
4
71
3
72
8
73
4
40
0
40
0
40
0
40
0
40
1
40
1
40
1
40
1
41
1
10
94.0070797505562
20
8.04698222814775
30
0
41
1
10
93.7561480773853
20
8.0627401417301
30
0
41
1
10
93.5051550813498
20
8.07626926517037
30
0
41
1
10
93.2540706154506
20
8.08757397639269
30
0
0
SPLINE
5
330
100
AcDbEntity
8
1
62
256
6
ByLayer
370
13
48
1
60
0
100
AcDbSpline
70
4
71
1
72
4
73
2
40
0
40
0
40
1
40
1
41
1
10
105.495037457822
20
3.13257185030656
30
0
41
1
10
105.567782605399
20
3.19633754494549
30
0
0
SPLINE
5
331
100
AcDbEntity
8
1
62
256
6
ByLayer
370
13
48
1
60
0
100
AcDbSpline
70
4
71
1
72
4
73
2
40
0
40
0
40
1
40
1
41
1
10
97.915352568078
20
2.7952906805707
30
0
41
1
10
97.9943645401951
20
2.73947823956536
30
0
0
SPLINE
5
332
100
AcDbEntity
8
1
62
256
6
ByLayer
370
13
48
1
60
0
100
AcDbSpline
70
4
71
2
72
6
73
3
40
0
40
0
40
0
40
1
40
1
40
1
41
1
10
86.5934708256416
20
3.49898416742366
30
0
41
1
10
86.5163591873008
20
3.52820469824039
30
0
41
1
10
86.4392719544618
20
3.55969371703364
30
0
0
SPLINE
5
333
100
AcDbEntity
8
1
62
256
6
ByLayer
370
13
48
1
60
0
100
AcDbSpline
70
4
71
3
72
14
73
10
40
0
40
0
40
0
40
0
40
0.186308955791188
40
0.373548919129677
40
0.560555328369774
40
0.670214181523791
40
0.779831460866867
40
0.890361606666002
40
1
40
1
40
1
40
1
41
1
10
5.18509999999998
20
-12.5
30
0
41
1
10
6.02544098676046
20
-12.3816034942468
30
0
41
1
10
7.68603983052705
20
-12.0544942187722
30
0
41
1
10
10.1128494448714
20
-11.2799173605374
30
0
41
1
10
12.1309314952423
20
-10.4015043529777
30
0
41
1
10
13.7200828767658
20
-9.47051267379683
30
0
41
1
10
15.049218774887
20
-8.77485529756802
30
0
41
1
10
16.5064498004683
20
-8.38007835185729
30
0
41
1
10
17.4968302333379
20
-8.28823705334219
30
0
41
1
10
18
20
-8.28750000000002
30
0
0
SPLINE
5
334
100
AcDbEntity
8
1
62
256
6
ByLayer
370
13
48
1
60
0
100
AcDbSpline
70
4
71
3
72
15
73
11
40
0
40
0
40
0
40
0
40
0.11162786796854
40
0.224145721080563
40
0.335696020869962
40
0.447373898164715
40
0.559535801161396
40
0.706709998341246
40
0.853719077055569
40
1
40
1
40
1
40
1
41
1
10
18
20
8.28749999999997
30
0
41
1
10
17.4874184159596
20
8.28829230446991
30
0
41
1
10
16.4794904902148
20
8.38374415561162
30
0
41
1
10
14.9966888621159
20
8.79172746639199
30
0
41
1
10
13.6522255284367
20
9.51631432324498
30
0
41
1
10
12.3352680139935
20
10.2760340751864
30
0
41
1
10
10.80461069518
20
10.979922792372
30
0
41
1
10
9.07893414072984
20
11.6303033016619
30
0
41
1
10
7.15058665185046
20
12.1649059700371
30
0
41
1
10
5.84381743446767
20
12.4073114190821
30
0
41
1
10
5.18510000000001
20
12.5
30
0
0
SPLINE
5
335
100
AcDbEntity
8
1
62
256
6
ByLayer
370
18
48
1
60
0
100
AcDbSpline
70
4
71
3
72
8
73
4
40
0
40
0
40
0
40
0
40
1
40
1
40
1
40
1
41
1
10
101.918802260334
20
-1.75697707106957
30
0
41
1
10
101.933443193415
20
-1.71501479854089
30
0
41
1
10
101.951016220284
20
-1.67386025710999
30
0
41
1
10
101.970987669196
20
-1.63388826900501
30
0
0
LINE
5
7F
100
AcDbEntity
8
SK1
62
256
6
ByLayer
370
13
48
1
60
0
100
AcDbLine
10
-48.516222
20
9.893344
30
0
11
-48.516222
21
5.74653
31
0
39
0
210
0
220
0
230
1
0
LINE
5
81
100
AcDbEntity
8
SK1
62
256
6
ByLayer
370
13
48
1
60
0
100
AcDbLine
10
-48.516222
20
-5.74653
30
0
11
-48.516222
21
-9.893344
31
0
39
0
210
0
220
0
230
1
0
LINE
5
82
100
AcDbEntity
8
SK1
62
256
6
ByLayer
370
13
48
1
60
0
100
AcDbLine
10
-6.5
20
-5.922784
30
0
11
-46.600147
21
-5.922784
31
0
39
0
210
0
220
0
230
1
0
LINE
5
83
100
AcDbEntity
8
SK1
62
256
6
ByLayer
370
13
48
1
60
0
100
AcDbLine
10
-49
20
-9.99675
30
0
11
-49
21
-5.922784
31
0
39
0
210
0
220
0
230
1
0
LINE
5
84
100
AcDbEntity
8
SK1
62
256
6
ByLayer
370
13
48
1
60
0
100
AcDbLine
10
-49
20
5.922784
30
0
11
-49
21
9.99675
31
0
39
0
210
0
220
0
230
1
0
LINE
5
85
100
AcDbEntity
8
SK1
62
256
6
ByLayer
370
13
48
1
60
0
100
AcDbLine
10
-47.633813
20
9.640467
30
0
11
-47.633813
21
5.299336
31
0
39
0
210
0
220
0
230
1
0
LINE
5
86
100
AcDbEntity
8
SK1
62
256
6
ByLayer
370
13
48
1
60
0
100
AcDbLine
10
-47.633813
20
-5.299336
30
0
11
-47.633813
21
-9.640467
31
0
39
0
210
0
220
0
230
1
0
LINE
5
87
100
AcDbEntity
8
SK1
62
256
6
ByLayer
370
13
48
1
60
0
100
AcDbLine
10
-50
20
4.010719
30
0
11
-50
21
-4.010719
31
0
39
0
210
0
220
0
230
1
0
LINE
5
88
100
AcDbEntity
8
SK1
62
256
6
ByLayer
370
13
48
1
60
0
100
AcDbLine
10
-46.600147
20
9.99675
30
0
11
-46.600147
21
5.922784
31
0
39
0
210
0
220
0
230
1
0
LINE
5
89
100
AcDbEntity
8
SK1
62
256
6
ByLayer
370
13
48
1
60
0
100
AcDbLine
10
-46.600147
20
-5.922784
30
0
11
-46.600147
21
-9.99675
31
0
39
0
210
0
220
0
230
1
0
LINE
5
8A
100
AcDbEntity
8
SK1
62
256
6
ByLayer
370
13
48
1
60
0
100
AcDbLine
10
-0.15
20
-9.74675
30
0
11
-0.15
21
9.74675
31
0
39
0
210
0
220
0
230
1
0
LINE
5
8B
100
AcDbEntity
8
SK1
62
256
6
ByLayer
370
13
48
1
60
0
100
AcDbLine
10
-2
20
-9.99675
30
0
11
-2
21
9.99675
31
0
39
0
210
0
220
0
230
1
0
LINE
5
8C
100
AcDbEntity
8
SK1
62
256
6
ByLayer
370
13
48
1
60
0
100
AcDbLine
10
-1.375195
20
-9.74675
30
0
11
-1.375195
21
9.74675
31
0
39
0
210
0
220
0
230
1
0
LINE
5
8D
100
AcDbEntity
8
SK1
62
256
6
ByLayer
370
13
48
1
60
0
100
AcDbLine
10
-6.5
20
-5.922784
30
0
11
-6.5
21
5.922784
31
0
39
0
210
0
220
0
230
1
0
LINE
5
8E
100
AcDbEntity
8
SK1
62
256
6
ByLayer
370
13
48
1
60
0
100
AcDbLine
10
-1.544243
20
-9.784227
30
0
11
-1.544243
21
9.784227
31
0
39
0
210
0
220
0
230
1
0
LINE
5
8F
100
AcDbEntity
8
1
62
256
6
ByLayer
370
18
48
1
60
0
100
AcDbLine
10
102.483447
20
5.417751
30
0
11
102.419758
21
5.414413
31
0
39
0
210
0
220
0
230
1
0
LINE
5
90
100
AcDbEntity
8
1
62
256
6
ByLayer
370
18
48
1
60
0
100
AcDbLine
10
101.571791
20
4.831766
30
0
11
101.509073
21
4.828479
31
0
39
0
210
0
220
0
230
1
0
LINE
5
91
100
AcDbEntity
8
1
62
256
6
ByLayer
370
18
48
1
60
0
100
AcDbLine
10
101.431636
20
6.306068
30
0
11
101.417514
21
6.320711
31
0
39
0
210
0
220
0
230
1
0
LINE
5
92
100
AcDbEntity
8
1
62
256
6
ByLayer
370
18
48
1
60
0
100
AcDbLine
10
102.236885
20
5.053856
30
0
11
102.229307
21
5.072765
31
0
39
0
210
0
220
0
230
1
0
LINE
5
93
100
AcDbEntity
8
1
62
256
6
ByLayer
370
18
48
1
60
0
100
AcDbLine
10
102.441204
20
5.824694
30
0
11
102.378486
21
5.821407
31
0
39
0
210
0
220
0
230
1
0
LINE
5
94
100
AcDbEntity
8
1
62
256
6
ByLayer
370
18
48
1
60
0
100
AcDbLine
10
100.981616
20
5.339043
30
0
11
100.948525
21
5.337309
31
0
39
0
210
0
220
0
230
1
0
LINE
5
95
100
AcDbEntity
8
1
62
256
6
ByLayer
370
18
48
1
60
0
100
AcDbLine
10
102.173459
20
6.138405
30
0
11
102.17902
21
6.158003
31
0
39
0
210
0
220
0
230
1
0
LINE
5
96
100
AcDbEntity
8
1
62
256
6
ByLayer
370
18
48
1
60
0
100
AcDbLine
10
102.462793
20
5.412745
30
0
11
102.400075
21
5.409458
31
0
39
0
210
0
220
0
230
1
0
LINE
5
97
100
AcDbEntity
8
1
62
256
6
ByLayer
370
18
48
1
60
0
100
AcDbLine
10
102.236177
20
6.141692
30
0
11
102.173459
21
6.138405
31
0
39
0
210
0
220
0
230
1
0
LINE
5
98
100
AcDbEntity
8
1
62
256
6
ByLayer
370
18
48
1
60
0
100
AcDbLine
10
101.496559
20
4.812441
30
0
11
101.509073
21
4.828479
31
0
39
0
210
0
220
0
230
1
0
LINE
5
99
100
AcDbEntity
8
1
62
256
6
ByLayer
370
18
48
1
60
0
100
AcDbLine
10
102.242709
20
6.161341
30
0
11
102.17902
21
6.158003
31
0
39
0
210
0
220
0
230
1
0
LINE
5
9A
100
AcDbEntity
8
1
62
256
6
ByLayer
370
18
48
1
60
0
100
AcDbLine
10
102.462268
20
5.821874
30
0
11
102.398578
21
5.818536
31
0
39
0
210
0
220
0
230
1
0
LINE
5
9B
100
AcDbEntity
8
1
62
256
6
ByLayer
370
18
48
1
60
0
100
AcDbLine
10
101.481204
20
6.324048
30
0
11
101.417514
21
6.320711
31
0
39
0
210
0
220
0
230
1
0
LINE
5
9C
100
AcDbEntity
8
1
62
256
6
ByLayer
370
18
48
1
60
0
100
AcDbLine
10
102.292025
20
5.076052
30
0
11
102.229307
21
5.072765
31
0
39
0
210
0
220
0
230
1
0
LINE
5
9D
100
AcDbEntity
8
1
62
256
6
ByLayer
370
18
48
1
60
0
100
AcDbLine
10
102.400075
20
5.409458
30
0
11
102.419758
21
5.414413
31
0
39
0
210
0
220
0
230
1
0
LINE
5
9E
100
AcDbEntity
8
1
62
256
6
ByLayer
370
18
48
1
60
0
100
AcDbLine
10
102.300575
20
5.057194
30
0
11
102.236885
21
5.053856
31
0
39
0
210
0
220
0
230
1
0
LINE
5
9F
100
AcDbEntity
8
1
62
256
6
ByLayer
370
18
48
1
60
0
100
AcDbLine
10
101.494354
20
6.309355
30
0
11
101.431636
21
6.306068
31
0
39
0
210
0
220
0
230
1
0
LINE
5
A0
100
AcDbEntity
8
1
62
256
6
ByLayer
370
18
48
1
60
0
100
AcDbLine
10
101.560249
20
4.815778
30
0
11
101.496559
21
4.812441
31
0
39
0
210
0
220
0
230
1
0
LINE
5
A1
100
AcDbEntity
8
1
62
256
6
ByLayer
370
18
48
1
60
0
100
AcDbLine
10
102.398578
20
5.818536
30
0
11
102.378486
21
5.821407
31
0
39
0
210
0
220
0
230
1
0
LINE
5
A2
100
AcDbEntity
8
1
62
256
6
ByLayer
370
18
48
1
60
0
100
AcDbLine
10
100.960437
20
5.743166
30
0
11
100.927358
21
5.741433
31
0
39
0
210
0
220
0
230
1
0
LINE
5
A3
100
AcDbEntity
8
1
62
256
6
ByLayer
370
18
48
1
60
0
100
AcDbLine
10
105.45972
20
-0.012401
30
0
11
105.771795
21
-1.971967
31
0
39
0
210
0
220
0
230
1
0
LINE
5
A4
100
AcDbEntity
8
1
62
256
6
ByLayer
370
18
48
1
60
0
100
AcDbLine
10
105.277345
20
-4.45828
30
0
11
105.067734
21
-4.518056
31
0
39
0
210
0
220
0
230
1
0
LINE
5
A5
100
AcDbEntity
8
1
62
256
6
ByLayer
370
18
48
1
60
0
100
AcDbLine
10
105.071442
20
0.479022
30
0
11
105.135923
21
0.470579
31
0
39
0
210
0
220
0
230
1
0
LINE
5
A6
100
AcDbEntity
8
1
62
256
6
ByLayer
370
18
48
1
60
0
100
AcDbLine
10
105.665326
20
-0.105469
30
0
11
105.557653
21
0.267973
31
0
39
0
210
0
220
0
230
1
0
LINE
5
A7
100
AcDbEntity
8
1
62
256
6
ByLayer
370
18
48
1
60
0
100
AcDbLine
10
105.1316
20
-4.916654
30
0
11
105.477553
21
-4.817997
31
0
39
0
210
0
220
0
230
1
0
LINE
5
A8
100
AcDbEntity
8
1
62
256
6
ByLayer
370
18
48
1
60
0
100
AcDbLine
10
105.385143
20
0.257013
30
0
11
105.44915
21
0.035019
31
0
39
0
210
0
220
0
230
1
0
LINE
5
A9
100
AcDbEntity
8
1
62
256
6
ByLayer
370
18
48
1
60
0
100
AcDbLine
10
105.773297
20
-2.086123
30
0
11
105.492087
21
-4.210425
31
0
39
0
210
0
220
0
230
1
0
LINE
5
AA
100
AcDbEntity
8
1
62
256
6
ByLayer
370
13
48
1
60
0
100
AcDbLine
10
104.863327
20
5.749703
30
0
11
104.590106
21
3.66202
31
0
39
0
210
0
220
0
230
1
0
LINE
5
AB
100
AcDbEntity
8
1
62
256
6
ByLayer
370
13
48
1
60
0
100
AcDbLine
10
105.680773
20
5.90377
30
0
11
105.326538
21
8.146773
31
0
39
0
210
0
220
0
230
1
0
LINE
5
AC
100
AcDbEntity
8
1
62
256
6
ByLayer
370
13
48
1
60
0
100
AcDbLine
10
97.512223
20
5.217831
30
0
11
97.866458
21
2.974827
31
0
39
0
210
0
220
0
230
1
0
LINE
5
AD
100
AcDbEntity
8
1
62
256
6
ByLayer
370
13
48
1
60
0
100
AcDbLine
10
104.887237
20
8.271894
30
0
11
104.815392
21
8.26876
31
0
39
0
210
0
220
0
230
1
0
LINE
5
AE
100
AcDbEntity
8
1
62
256
6
ByLayer
370
13
48
1
60
0
100
AcDbLine
10
104.823292
20
8.419369
30
0
11
104.894525
21
8.422476
31
0
39
0
210
0
220
0
230
1
0
LINE
5
AF
100
AcDbEntity
8
1
62
256
6
ByLayer
370
13
48
1
60
0
100
AcDbLine
10
98.010741
20
7.374839
30
0
11
97.739064
21
5.29896
31
0
39
0
210
0
220
0
230
1
0
LINE
5
B0
100
AcDbEntity
8
1
62
256
6
ByLayer
370
13
48
1
60
0
100
AcDbLine
10
99.045461
20
3.169424
30
0
11
99.031875
21
3.255448
31
0
39
0
210
0
220
0
230
1
0
LINE
5
B1
100
AcDbEntity
8
1
62
256
6
ByLayer
370
13
48
1
60
0
100
AcDbLine
10
105.525424
20
3.185243
30
0
11
105.517873
21
3.211915
31
0
39
0
210
0
220
0
230
1
0
LINE
5
B2
100
AcDbEntity
8
1
62
256
6
ByLayer
370
13
48
1
60
0
100
AcDbLine
10
98.721667
20
5.190226
30
0
11
99.040849
21
3.169182
31
0
39
0
210
0
220
0
230
1
0
LINE
5
B3
100
AcDbEntity
8
1
62
256
6
ByLayer
370
13
48
1
60
0
100
AcDbLine
10
105.945082
20
5.94379
30
0
11
105.590847
21
8.186793
31
0
39
0
210
0
220
0
230
1
0
LINE
5
B4
100
AcDbEntity
8
1
62
256
6
ByLayer
370
13
48
1
60
0
100
AcDbLine
10
104.827292
20
8.419584
30
0
11
104.899137
21
8.422718
31
0
39
0
210
0
220
0
230
1
0
LINE
5
B5
100
AcDbEntity
8
1
62
256
6
ByLayer
370
13
48
1
60
0
100
AcDbLine
10
97.320099
20
5.137045
30
0
11
97.748328
21
3.347304
31
0
39
0
210
0
220
0
230
1
0
LINE
5
B6
100
AcDbEntity
8
1
62
256
6
ByLayer
370
13
48
1
60
0
100
AcDbLine
10
103.83068
20
3.523002
30
0
11
99.85324
21
3.314553
31
0
39
0
210
0
220
0
230
1
0
LINE
5
B7
100
AcDbEntity
8
1
62
256
6
ByLayer
370
13
48
1
60
0
100
AcDbLine
10
98.533171
20
2.887793
30
0
11
98.605016
21
2.890927
31
0
39
0
210
0
220
0
230
1
0
LINE
5
B8
100
AcDbEntity
8
1
62
256
6
ByLayer
370
13
48
1
60
0
100
AcDbLine
10
105.550352
20
3.488646
30
0
11
105.517873
21
3.211915
31
0
39
0
210
0
220
0
230
1
0
LINE
5
B9
100
AcDbEntity
8
1
62
256
6
ByLayer
370
13
48
1
60
0
100
AcDbLine
10
104.472511
20
3.389816
30
0
11
105.340758
21
3.51994
31
0
39
0
210
0
220
0
230
1
0
LINE
5
BA
100
AcDbEntity
8
1
62
256
6
ByLayer
370
13
48
1
60
0
100
AcDbLine
10
104.664186
20
5.959799
30
0
11
104.35859
21
7.89482
31
0
39
0
210
0
220
0
230
1
0
LINE
5
BB
100
AcDbEntity
8
1
62
256
6
ByLayer
370
13
48
1
60
0
100
AcDbLine
10
98.191839
20
8.172778
30
0
11
98.099707
21
8.167139
31
0
39
0
210
0
220
0
230
1
0
LINE
5
BC
100
AcDbEntity
8
1
62
256
6
ByLayer
370
13
48
1
60
0
100
AcDbLine
10
98.806956
20
5.202546
30
0
11
99.112552
21
3.267526
31
0
39
0
210
0
220
0
230
1
0
LINE
5
BD
100
AcDbEntity
8
1
62
256
6
ByLayer
370
13
48
1
60
0
100
AcDbLine
10
105.201552
20
8.424275
30
0
11
105.19694
21
8.424033
31
0
39
0
210
0
220
0
230
1
0
LINE
5
BE
100
AcDbEntity
8
1
62
256
6
ByLayer
370
13
48
1
60
0
100
AcDbLine
10
97.964802
20
2.990448
30
0
11
97.610567
21
5.233452
31
0
39
0
210
0
220
0
230
1
0
LINE
5
BF
100
AcDbEntity
8
1
62
256
6
ByLayer
370
13
48
1
60
0
100
AcDbLine
10
99.084734
20
7.522564
30
0
11
98.804578
21
5.381895
31
0
39
0
210
0
220
0
230
1
0
LINE
5
C0
100
AcDbEntity
8
1
62
256
6
ByLayer
370
13
48
1
60
0
100
AcDbLine
10
98.161821
20
8.00686
30
0
11
98.480198
21
8.054575
31
0
39
0
210
0
220
0
230
1
0
LINE
5
C1
100
AcDbEntity
8
1
62
256
6
ByLayer
370
13
48
1
60
0
100
AcDbLine
10
105.846738
20
5.928169
30
0
11
105.842126
21
5.927927
31
0
39
0
210
0
220
0
230
1
0
LINE
5
C2
100
AcDbEntity
8
1
62
256
6
ByLayer
370
13
48
1
60
0
100
AcDbLine
10
104.505121
20
8.38874
30
0
11
104.592275
21
8.393308
31
0
39
0
210
0
220
0
230
1
0
LINE
5
C3
100
AcDbEntity
8
1
62
256
6
ByLayer
370
13
48
1
60
0
100
AcDbLine
10
104.565323
20
3.504839
30
0
11
104.560711
21
3.504597
31
0
39
0
210
0
220
0
230
1
0
LINE
5
C4
100
AcDbEntity
8
1
62
256
6
ByLayer
370
13
48
1
60
0
100
AcDbLine
10
97.781114
20
7.398835
30
0
11
97.734311
21
7.712684
31
0
39
0
210
0
220
0
230
1
0
LINE
5
C5
100
AcDbEntity
8
1
62
256
6
ByLayer
370
13
48
1
60
0
100
AcDbLine
10
99.01206
20
3.077972
30
0
11
99.007448
21
3.07773
31
0
39
0
210
0
220
0
230
1
0
LINE
5
C6
100
AcDbEntity
8
1
62
256
6
ByLayer
370
13
48
1
60
0
100
AcDbLine
10
98.726595
20
2.646155
30
0
11
98.634379
21
2.642132
31
0
39
0
210
0
220
0
230
1
0
LINE
5
C7
100
AcDbEntity
8
1
62
256
6
ByLayer
370
13
48
1
60
0
100
AcDbLine
10
99.003772
20
7.532008
30
0
11
99.005447
21
7.544804
31
0
39
0
210
0
220
0
230
1
0
LINE
5
C8
100
AcDbEntity
8
1
62
256
6
ByLayer
370
13
48
1
60
0
100
AcDbLine
10
98.72628
20
5.190468
30
0
11
98.721667
21
5.190226
31
0
39
0
210
0
220
0
230
1
0
LINE
5
C9
100
AcDbEntity
8
1
62
256
6
ByLayer
370
13
48
1
60
0
100
AcDbLine
10
98.875192
20
3.172277
30
0
11
98.560314
21
5.166069
31
0
39
0
210
0
220
0
230
1
0
LINE
5
CA
100
AcDbEntity
8
1
62
256
6
ByLayer
370
13
48
1
60
0
100
AcDbLine
10
105.576203
20
3.766202
30
0
11
105.571591
21
3.765961
31
0
39
0
210
0
220
0
230
1
0
LINE
5
CB
100
AcDbEntity
8
1
62
256
6
ByLayer
370
13
48
1
60
0
100
AcDbLine
10
104.955384
20
8.42433
30
0
11
104.950772
21
8.424089
31
0
39
0
210
0
220
0
230
1
0
LINE
5
CC
100
AcDbEntity
8
1
62
256
6
ByLayer
370
13
48
1
60
0
100
AcDbLine
10
99.005447
20
7.544804
30
0
11
99.000835
21
7.544562
31
0
39
0
210
0
220
0
230
1
0
LINE
5
CD
100
AcDbEntity
8
1
62
256
6
ByLayer
370
13
48
1
60
0
100
AcDbLine
10
105.492503
20
8.171172
30
0
11
105.846738
21
5.928169
31
0
39
0
210
0
220
0
230
1
0
LINE
5
CE
100
AcDbEntity
8
1
62
256
6
ByLayer
370
13
48
1
60
0
100
AcDbLine
10
97.510701
20
5.332614
30
0
11
97.781114
21
7.398835
31
0
39
0
210
0
220
0
230
1
0
LINE
5
CF
100
AcDbEntity
8
1
62
256
6
ByLayer
370
13
48
1
60
0
100
AcDbLine
10
104.553596
20
3.503792
30
0
11
104.560711
21
3.504597
31
0
39
0
210
0
220
0
230
1
0
LINE
5
D0
100
AcDbEntity
8
1
62
256
6
ByLayer
370
13
48
1
60
0
100
AcDbLine
10
105.445614
20
3.637217
30
0
11
104.560711
21
3.504597
31
0
39
0
210
0
220
0
230
1
0
LINE
5
D1
100
AcDbEntity
8
1
62
256
6
ByLayer
370
13
48
1
60
0
100
AcDbLine
10
98.723616
20
5.391339
30
0
11
99.003772
21
7.532008
31
0
39
0
210
0
220
0
230
1
0
LINE
5
D2
100
AcDbEntity
8
1
62
256
6
ByLayer
370
13
48
1
60
0
100
AcDbLine
10
105.22628
20
3.135236
30
0
11
105.340758
21
3.51994
31
0
39
0
210
0
220
0
230
1
0
LINE
5
D3
100
AcDbEntity
8
1
62
256
6
ByLayer
370
13
48
1
60
0
100
AcDbLine
10
104.452664
20
3.622972
30
0
11
104.451858
21
3.616817
31
0
39
0
210
0
220
0
230
1
0
LINE
5
D4
100
AcDbEntity
8
1
62
256
6
ByLayer
370
13
48
1
60
0
100
AcDbLine
10
98.630013
20
2.742037
30
0
11
98.558168
21
2.738903
31
0
39
0
210
0
220
0
230
1
0
LINE
5
D5
100
AcDbEntity
8
1
62
256
6
ByLayer
370
13
48
1
60
0
100
AcDbLine
10
105.847879
20
5.842081
30
0
11
105.576203
21
3.766202
31
0
39
0
210
0
220
0
230
1
0
LINE
5
D6
100
AcDbEntity
8
1
62
256
6
ByLayer
370
13
48
1
60
0
100
AcDbLine
10
97.417154
20
5.215162
30
0
11
97.836427
21
2.973984
31
0
39
0
210
0
220
0
230
1
0
LINE
5
D7
100
AcDbEntity
8
1
62
256
6
ByLayer
370
13
48
1
60
0
100
AcDbLine
10
105.409667
20
3.784847
30
0
11
105.681344
21
5.860726
31
0
39
0
210
0
220
0
230
1
0
LINE
5
D8
100
AcDbEntity
8
1
62
256
6
ByLayer
370
13
48
1
60
0
100
AcDbLine
10
104.899137
20
8.422718
30
0
11
104.894525
21
8.422476
31
0
39
0
210
0
220
0
230
1
0
LINE
5
D9
100
AcDbEntity
8
1
62
256
6
ByLayer
370
13
48
1
60
0
100
AcDbLine
10
104.827292
20
8.419584
30
0
11
104.82268
21
8.419342
31
0
39
0
210
0
220
0
230
1
0
LINE
5
DA
100
AcDbEntity
8
1
62
256
6
ByLayer
370
13
48
1
60
0
100
AcDbLine
10
99.031875
20
3.255448
30
0
11
98.72628
21
5.190468
31
0
39
0
210
0
220
0
230
1
0
LINE
5
DB
100
AcDbEntity
8
1
62
256
6
ByLayer
370
13
48
1
60
0
100
AcDbLine
10
98.00708
20
7.524162
30
0
11
98.891982
21
7.656782
31
0
39
0
210
0
220
0
230
1
0
LINE
5
DC
100
AcDbEntity
8
1
62
256
6
ByLayer
370
13
48
1
60
0
100
AcDbLine
10
105.26939
20
3.174675
30
0
11
105.461559
21
3.538044
31
0
39
0
210
0
220
0
230
1
0
LINE
5
DD
100
AcDbEntity
8
1
62
256
6
ByLayer
370
13
48
1
60
0
100
AcDbLine
10
97.609426
20
5.319539
30
0
11
97.881103
21
7.395418
31
0
39
0
210
0
220
0
230
1
0
LINE
5
DE
100
AcDbEntity
8
1
62
256
6
ByLayer
370
13
48
1
60
0
100
AcDbLine
10
105.450226
20
3.637459
30
0
11
105.445614
21
3.637217
31
0
39
0
210
0
220
0
230
1
0
LINE
5
DF
100
AcDbEntity
8
1
62
256
6
ByLayer
370
13
48
1
60
0
100
AcDbLine
10
98.723616
20
5.391339
30
0
11
98.719004
21
5.391097
31
0
39
0
210
0
220
0
230
1
0
LINE
5
E0
100
AcDbEntity
8
1
62
256
6
ByLayer
370
13
48
1
60
0
100
AcDbLine
10
105.487891
20
8.17093
30
0
11
105.842126
21
5.927927
31
0
39
0
210
0
220
0
230
1
0
LINE
5
E1
100
AcDbEntity
8
1
62
256
6
ByLayer
370
13
48
1
60
0
100
AcDbLine
10
105.051037
20
3.14195
30
0
11
104.732661
21
3.094235
31
0
39
0
210
0
220
0
230
1
0
LINE
5
E2
100
AcDbEntity
8
1
62
256
6
ByLayer
370
13
48
1
60
0
100
AcDbLine
10
104.545216
20
7.98741
30
0
11
104.860093
21
5.993618
31
0
39
0
210
0
220
0
230
1
0
LINE
5
E3
100
AcDbEntity
8
1
62
256
6
ByLayer
370
13
48
1
60
0
100
AcDbLine
10
97.748328
20
3.347304
30
0
11
97.773643
21
3.309591
31
0
39
0
210
0
220
0
230
1
0
LINE
5
E4
100
AcDbEntity
8
1
62
256
6
ByLayer
370
13
48
1
60
0
100
AcDbLine
10
104.590106
20
3.66202
30
0
11
105.409667
21
3.784847
31
0
39
0
210
0
220
0
230
1
0
LINE
5
E5
100
AcDbEntity
8
1
62
256
6
ByLayer
370
13
48
1
60
0
100
AcDbLine
10
99.000835
20
7.544562
30
0
11
98.719004
21
5.391097
31
0
39
0
210
0
220
0
230
1
0
LINE
5
E6
100
AcDbEntity
8
1
62
256
6
ByLayer
370
13
48
1
60
0
100
AcDbLine
10
98.830302
20
7.497667
30
0
11
98.010741
21
7.374839
31
0
39
0
210
0
220
0
230
1
0
LINE
5
E7
100
AcDbEntity
8
1
62
256
6
ByLayer
370
13
48
1
60
0
100
AcDbLine
10
99.626625
20
7.638619
30
0
11
103.604066
21
7.847068
31
0
39
0
210
0
220
0
230
1
0
LINE
5
E8
100
AcDbEntity
8
1
62
256
6
ByLayer
370
13
48
1
60
0
100
AcDbLine
10
105.847879
20
5.842081
30
0
11
105.843267
21
5.84184
31
0
39
0
210
0
220
0
230
1
0
LINE
5
E9
100
AcDbEntity
8
1
62
256
6
ByLayer
370
13
48
1
60
0
100
AcDbLine
10
105.492503
20
8.171172
30
0
11
105.487891
21
8.17093
31
0
39
0
210
0
220
0
230
1
0
LINE
5
EA
100
AcDbEntity
8
1
62
256
6
ByLayer
370
13
48
1
60
0
100
AcDbLine
10
97.739635
20
5.255917
30
0
11
98.09387
21
3.012913
31
0
39
0
210
0
220
0
230
1
0
LINE
5
EB
100
AcDbEntity
8
1
62
256
6
ByLayer
370
13
48
1
60
0
100
AcDbLine
10
104.386408
20
3.639782
30
0
11
104.666564
21
5.780451
31
0
39
0
210
0
220
0
230
1
0
LINE
5
EC
100
AcDbEntity
8
1
62
256
6
ByLayer
370
13
48
1
60
0
100
AcDbLine
10
105.340758
20
3.51994
30
0
11
105.461559
21
3.538044
31
0
39
0
210
0
220
0
230
1
0
LINE
5
ED
100
AcDbEntity
8
1
62
256
6
ByLayer
370
13
48
1
60
0
100
AcDbLine
10
104.474745
20
8.366955
30
0
11
104.456287
21
8.367768
31
0
39
0
210
0
220
0
230
1
0
LINE
5
EE
100
AcDbEntity
8
1
62
256
6
ByLayer
370
13
48
1
60
0
100
AcDbLine
10
104.411845
20
7.992197
30
0
11
104.424366
21
7.912914
31
0
39
0
210
0
220
0
230
1
0
LINE
5
EF
100
AcDbEntity
8
1
62
256
6
ByLayer
370
13
48
1
60
0
100
AcDbLine
10
98.55708
20
5.409984
30
0
11
98.830302
21
7.497667
31
0
39
0
210
0
220
0
230
1
0
LINE
5
F0
100
AcDbEntity
8
1
62
256
6
ByLayer
370
13
48
1
60
0
100
AcDbLine
10
97.943469
20
7.974135
30
0
11
97.727677
21
7.941794
31
0
39
0
210
0
220
0
230
1
0
LINE
5
F1
100
AcDbEntity
8
1
62
256
6
ByLayer
370
13
48
1
60
0
100
AcDbLine
10
97.943469
20
7.974135
30
0
11
97.995747
21
7.623576
31
0
39
0
210
0
220
0
230
1
0
LINE
5
F2
100
AcDbEntity
8
1
62
256
6
ByLayer
370
13
48
1
60
0
100
AcDbLine
10
97.415444
20
5.354765
30
0
11
97.411311
21
5.323185
31
0
39
0
210
0
220
0
230
1
0
LINE
5
F3
100
AcDbEntity
8
1
62
256
6
ByLayer
370
13
48
1
60
0
100
AcDbLine
10
105.26939
20
3.174675
30
0
11
105.517873
21
3.211915
31
0
39
0
210
0
220
0
230
1
0
LINE
5
F4
100
AcDbEntity
8
1
62
256
6
ByLayer
370
13
48
1
60
0
100
AcDbLine
10
105.843267
20
5.84184
30
0
11
105.571591
21
3.765961
31
0
39
0
210
0
220
0
230
1
0
LINE
5
F5
100
AcDbEntity
8
1
62
256
6
ByLayer
370
13
48
1
60
0
100
AcDbLine
10
99.045461
20
3.169424
30
0
11
99.040849
21
3.169182
31
0
39
0
210
0
220
0
230
1
0
LINE
5
F6
100
AcDbEntity
8
1
62
256
6
ByLayer
370
13
48
1
60
0
100
AcDbLine
10
105.651561
20
3.680384
30
0
11
105.627597
21
3.382302
31
0
39
0
210
0
220
0
230
1
0
LINE
5
F7
100
AcDbEntity
8
1
62
256
6
ByLayer
370
13
48
1
60
0
100
AcDbLine
10
104.73071
20
8.515466
30
0
11
104.822927
21
8.519488
31
0
39
0
210
0
220
0
230
1
0
LINE
5
F8
100
AcDbEntity
8
1
62
256
6
ByLayer
370
13
48
1
60
0
100
AcDbLine
10
105.946604
20
5.829007
30
0
11
105.676191
21
3.762785
31
0
39
0
210
0
220
0
230
1
0
LINE
5
F9
100
AcDbEntity
8
1
62
256
6
ByLayer
370
13
48
1
60
0
100
AcDbLine
10
98.984794
20
7.771805
30
0
11
97.995747
21
7.623576
31
0
39
0
210
0
220
0
230
1
0
LINE
5
FA
100
AcDbEntity
8
1
62
256
6
ByLayer
370
13
48
1
60
0
100
AcDbLine
10
104.71328
20
3.074806
30
0
11
104.626127
21
3.070239
31
0
39
0
210
0
220
0
230
1
0
LINE
5
FB
100
AcDbEntity
8
1
62
256
6
ByLayer
370
13
48
1
60
0
100
AcDbLine
10
105.450226
20
3.637459
30
0
11
104.565323
21
3.504839
31
0
39
0
210
0
220
0
230
1
0
LINE
5
FC
100
AcDbEntity
8
1
62
256
6
ByLayer
370
13
48
1
60
0
100
AcDbLine
10
98.783781
20
2.826157
30
0
11
98.779169
21
2.825915
31
0
39
0
210
0
220
0
230
1
0
LINE
5
FD
100
AcDbEntity
8
SK1
62
256
6
ByLayer
370
13
48
1
60
0
100
AcDbLine
10
-48.599959
20
-5.922784
30
0
11
-49
21
-5.922784
31
0
39
0
210
0
220
0
230
1
0
LINE
5
FE
100
AcDbEntity
8
SK1
62
256
6
ByLayer
370
13
48
1
60
0
100
AcDbLine
10
-46.600147
20
5.922784
30
0
11
-6.5
21
5.922784
31
0
39
0
210
0
220
0
230
1
0
LINE
5
FF
100
AcDbEntity
8
SK1
62
256
6
ByLayer
370
13
48
1
60
0
100
AcDbLine
10
-50
20
-8.99675
30
0
11
-50
21
-4.010719
31
0
39
0
210
0
220
0
230
1
0
LINE
5
100
100
AcDbEntity
8
SK1
62
256
6
ByLayer
370
13
48
1
60
0
100
AcDbLine
10
-50
20
4.010719
30
0
11
-50
21
8.99675
31
0
39
0
210
0
220
0
230
1
0
LINE
5
101
100
AcDbEntity
8
SK1
62
256
6
ByLayer
370
13
48
1
60
0
100
AcDbLine
10
-49
20
5.922784
30
0
11
-48.599959
21
5.922784
31
0
39
0
210
0
220
0
230
1
0
LINE
5
102
100
AcDbEntity
8
SK1
62
256
6
ByLayer
370
13
48
1
60
0
100
AcDbLine
10
-48.599959
20
-9.99675
30
0
11
-48.599959
21
-5.922784
31
0
39
0
210
0
220
0
230
1
0
LINE
5
103
100
AcDbEntity
8
SK1
62
256
6
ByLayer
370
13
48
1
60
0
100
AcDbLine
10
-48.599959
20
5.922784
30
0
11
-48.599959
21
9.99675
31
0
39
0
210
0
220
0
230
1
0
LINE
5
104
100
AcDbEntity
8
1
62
256
6
ByLayer
370
13
48
1
60
0
100
AcDbLine
10
105.387834
20
2.467537
30
0
11
105.37826
21
2.467035
31
0
39
0
210
0
220
0
230
1
0
LINE
5
105
100
AcDbEntity
8
1
62
256
6
ByLayer
370
13
48
1
60
0
100
AcDbLine
10
105.324609
20
3.05054
30
0
11
105.139027
21
3.040815
31
0
39
0
210
0
220
0
230
1
0
LINE
5
106
100
AcDbEntity
8
1
62
256
6
ByLayer
370
13
48
1
60
0
100
AcDbLine
10
105.139027
20
3.040815
30
0
11
104.945594
21
3.030677
31
0
39
0
210
0
220
0
230
1
0
LINE
5
107
100
AcDbEntity
8
1
62
256
6
ByLayer
370
13
48
1
60
0
100
AcDbLine
10
105.112896
20
-0.208197
30
0
11
104.525582
21
0.370824
31
0
39
0
210
0
220
0
230
1
0
LINE
5
108
100
AcDbEntity
8
1
62
256
6
ByLayer
370
13
48
1
60
0
100
AcDbLine
10
101.604735
20
2.705384
30
0
11
104.744179
21
2.869916
31
0
39
0
210
0
220
0
230
1
0
LINE
5
109
100
AcDbEntity
8
1
62
256
6
ByLayer
370
13
48
1
60
0
100
AcDbLine
10
105.31262
20
0.547264
30
0
11
105.35606
21
0.498424
31
0
39
0
210
0
220
0
230
1
0
LINE
5
10A
100
AcDbEntity
8
1
62
256
6
ByLayer
370
13
48
1
60
0
100
AcDbLine
10
104.525582
20
0.370824
30
0
11
104.539923
21
0.14298
31
0
39
0
210
0
220
0
230
1
0
LINE
5
10B
100
AcDbEntity
8
1
62
256
6
ByLayer
370
13
48
1
60
0
100
AcDbLine
10
5.1851
20
-3.5
30
0
11
0.1
21
-3.5
31
0
39
0
210
0
220
0
230
1
0
LINE
5
10C
100
AcDbEntity
8
1
62
256
6
ByLayer
370
13
48
1
60
0
100
AcDbLine
10
97.74844
20
7.318984
30
0
11
97.518561
21
5.562485
31
0
39
0
210
0
220
0
230
1
0
LINE
5
10D
100
AcDbEntity
8
1
62
256
6
ByLayer
370
13
48
1
60
0
100
AcDbLine
10
104.744179
20
2.869916
30
0
11
104.536889
21
0.895978
31
0
39
0
210
0
220
0
230
1
0
LINE
5
10E
100
AcDbEntity
8
1
62
256
6
ByLayer
370
13
48
1
60
0
100
AcDbLine
10
102.877814
20
3.412375
30
0
11
102.815984
21
3.409135
31
0
39
0
210
0
220
0
230
1
0
LINE
5
10F
100
AcDbEntity
8
1
62
256
6
ByLayer
370
13
48
1
60
0
100
AcDbLine
10
105.290098
20
-5.046215
30
0
11
105.075668
21
-4.870935
31
0
39
0
210
0
220
0
230
1
0
LINE
5
110
100
AcDbEntity
8
1
62
256
6
ByLayer
370
13
48
1
60
0
100
AcDbLine
10
97.304654
20
5.019113
30
0
11
97.717869
21
8.176486
31
0
39
0
210
0
220
0
230
1
0
LINE
5
111
100
AcDbEntity
8
1
62
256
6
ByLayer
370
13
48
1
60
0
100
AcDbLine
10
105.405017
20
2.44461
30
0
11
105.406002
21
0.695894
31
0
39
0
210
0
220
0
230
1
0
LINE
5
112
100
AcDbEntity
8
1
62
256
6
ByLayer
370
13
48
1
60
0
100
AcDbLine
10
97.430494
20
3.682786
30
0
11
97.289034
21
4.578503
31
0
39
0
210
0
220
0
230
1
0
LINE
5
113
100
AcDbEntity
8
1
62
256
6
ByLayer
370
13
48
1
60
0
100
AcDbLine
10
105.34111
20
2.764335
30
0
11
105.324609
21
3.05054
31
0
39
0
210
0
220
0
230
1
0
LINE
5
114
100
AcDbEntity
8
1
62
256
6
ByLayer
370
13
48
1
60
0
100
AcDbLine
10
98.661196
20
7.932567
30
0
11
98.685265
21
8.116477
31
0
39
0
210
0
220
0
230
1
0
LINE
5
115
100
AcDbEntity
8
1
62
256
6
ByLayer
370
13
48
1
60
0
100
AcDbLine
10
99.674059
20
3.104888
30
0
11
99.688348
21
3.105637
31
0
39
0
210
0
220
0
230
1
0
LINE
5
116
100
AcDbEntity
8
1
62
256
6
ByLayer
370
13
48
1
60
0
100
AcDbLine
10
105.321896
20
-2.562118
30
0
11
104.757788
21
-2.005975
31
0
39
0
210
0
220
0
230
1
0
LINE
5
117
100
AcDbEntity
8
1
62
256
6
ByLayer
370
13
48
1
60
0
100
AcDbLine
10
95.87344
20
3.724183
30
0
11
96.774243
21
3.447421
31
0
39
0
210
0
220
0
230
1
0
LINE
5
118
100
AcDbEntity
8
1
62
256
6
ByLayer
370
13
48
1
60
0
100
AcDbLine
10
104.865978
20
-8.250078
30
0
11
96.540336
21
-8.250078
31
0
39
0
210
0
220
0
230
1
0
LINE
5
119
100
AcDbEntity
8
1
62
256
6
ByLayer
370
13
48
1
60
0
100
AcDbLine
10
105.321896
20
-2.562118
30
0
11
105.090127
21
-4.312934
31
0
39
0
210
0
220
0
230
1
0
LINE
5
11A
100
AcDbEntity
8
1
62
256
6
ByLayer
370
13
48
1
60
0
100
AcDbLine
10
105.369295
20
2.50326
30
0
11
105.387834
21
2.467537
31
0
39
0
210
0
220
0
230
1
0
LINE
5
11B
100
AcDbEntity
8
1
62
256
6
ByLayer
370
13
48
1
60
0
100
AcDbLine
10
53.2
20
8.2025
30
0
11
53.2
21
-2.754922
31
0
39
0
210
0
220
0
230
1
0
LINE
5
11C
100
AcDbEntity
8
1
62
256
6
ByLayer
370
13
48
1
60
0
100
AcDbLine
10
23
20
8.2875
30
0
11
23
21
-2.766798
31
0
39
0
210
0
220
0
230
1
0
LINE
5
11D
100
AcDbEntity
8
1
62
256
6
ByLayer
370
13
48
1
60
0
100
AcDbLine
10
97.651719
20
3.751076
30
0
11
97.652402
21
3.746751
31
0
39
0
210
0
220
0
230
1
0
LINE
5
11E
100
AcDbEntity
8
1
62
256
6
ByLayer
370
13
48
1
60
0
100
AcDbLine
10
100.024171
20
3.323511
30
0
11
100.521619
21
3.349581
31
0
39
0
210
0
220
0
230
1
0
LINE
5
11F
100
AcDbEntity
8
1
62
256
6
ByLayer
370
13
48
1
60
0
100
AcDbLine
10
96.254071
20
-8.24435
30
0
11
96.254071
21
0.355443
31
0
39
0
210
0
220
0
230
1
0
LINE
5
120
100
AcDbEntity
8
1
62
256
6
ByLayer
370
13
48
1
60
0
100
AcDbLine
10
99.643153
20
3.015269
30
0
11
99.524771
21
3.009065
31
0
39
0
210
0
220
0
230
1
0
LINE
5
121
100
AcDbEntity
8
1
62
256
6
ByLayer
370
13
48
1
60
0
100
AcDbLine
10
95.754765
20
4.471389
30
0
11
94.356213
21
6.732438
31
0
39
0
210
0
220
0
230
1
0
LINE
5
122
100
AcDbEntity
8
1
62
256
6
ByLayer
370
13
48
1
60
0
100
AcDbLine
10
0.1
20
3.5
30
0
11
5.1851
21
3.5
31
0
39
0
210
0
220
0
230
1
0
LINE
5
123
100
AcDbEntity
8
1
62
256
6
ByLayer
370
13
48
1
60
0
100
AcDbLine
10
0.1
20
-12.5
30
0
11
0.1
21
-3.5
31
0
39
0
210
0
220
0
230
1
0
LINE
5
124
100
AcDbEntity
8
1
62
256
6
ByLayer
370
13
48
1
60
0
100
AcDbLine
10
94.356213
20
3.757703
30
0
11
94.356213
21
6.732438
31
0
39
0
210
0
220
0
230
1
0
LINE
5
125
100
AcDbEntity
8
1
62
256
6
ByLayer
370
13
48
1
60
0
100
AcDbLine
10
101.303789
20
2.689612
30
0
11
101.604735
21
2.705384
31
0
39
0
210
0
220
0
230
1
0
LINE
5
126
100
AcDbEntity
8
1
62
256
6
ByLayer
370
13
48
1
60
0
100
AcDbLine
10
94.57702
20
3.80047
30
0
11
95.754765
21
4.471389
31
0
39
0
210
0
220
0
230
1
0
LINE
5
127
100
AcDbEntity
8
1
62
256
6
ByLayer
370
13
48
1
60
0
100
AcDbLine
10
23
20
-8.272287
30
0
11
23
21
-8.2875
31
0
39
0
210
0
220
0
230
1
0
LINE
5
128
100
AcDbEntity
8
1
62
256
6
ByLayer
370
13
48
1
60
0
100
AcDbLine
10
5.1851
20
-3.5
30
0
11
5.1851
21
-12.5
31
0
39
0
210
0
220
0
230
1
0
LINE
5
129
100
AcDbEntity
8
1
62
256
6
ByLayer
370
13
48
1
60
0
100
AcDbLine
10
104.744179
20
2.869916
30
0
11
105.086635
21
2.887863
31
0
39
0
210
0
220
0
230
1
0
LINE
5
12A
100
AcDbEntity
8
1
62
256
6
ByLayer
370
13
48
1
60
0
100
AcDbLine
10
18
20
8.2875
30
0
11
18
21
-2.764708
31
0
39
0
210
0
220
0
230
1
0
LINE
5
12B
100
AcDbEntity
8
1
62
256
6
ByLayer
370
13
48
1
60
0
100
AcDbLine
10
94.169893
20
0.947046
30
0
11
94.249968
21
0.457089
31
0
39
0
210
0
220
0
230
1
0
LINE
5
12C
100
AcDbEntity
8
1
62
256
6
ByLayer
370
13
48
1
60
0
100
AcDbLine
10
18
20
-8.272153
30
0
11
18
21
-8.2875
31
0
39
0
210
0
220
0
230
1
0
LINE
5
12D
100
AcDbEntity
8
1
62
256
6
ByLayer
370
13
48
1
60
0
100
AcDbLine
10
53.2
20
-8.185133
30
0
11
53.2
21
-8.2025
31
0
39
0
210
0
220
0
230
1
0
LINE
5
12E
100
AcDbEntity
8
1
62
256
6
ByLayer
370
13
48
1
60
0
100
AcDbLine
10
93.254071
20
-8.11686
30
0
11
93.254071
21
0.618923
31
0
39
0
210
0
220
0
230
1
0
LINE
5
12F
100
AcDbEntity
8
1
62
256
6
ByLayer
370
13
48
1
60
0
100
AcDbLine
10
96.254071
20
8.2875
30
0
11
96.254071
21
8.152885
31
0
39
0
210
0
220
0
230
1
0
LINE
5
130
100
AcDbEntity
8
1
62
256
6
ByLayer
370
13
48
1
60
0
100
AcDbLine
10
104.074507
20
3.335506
30
0
11
101.197735
21
3.184741
31
0
39
0
210
0
220
0
230
1
0
LINE
5
131
100
AcDbEntity
8
1
62
256
6
ByLayer
370
13
48
1
60
0
100
AcDbLine
10
105.112896
20
-0.208197
30
0
11
105.306949
21
-1.426689
31
0
39
0
210
0
220
0
230
1
0
LINE
5
132
100
AcDbEntity
8
1
62
256
6
ByLayer
370
13
48
1
60
0
100
AcDbLine
10
0
20
-3.1241
30
0
11
0
21
3.1241
31
0
39
0
210
0
220
0
230
1
0
LINE
5
133
100
AcDbEntity
8
1
62
256
6
ByLayer
370
13
48
1
60
0
100
AcDbLine
10
93.254071
20
8.2025
30
0
11
93.254071
21
8.087574
31
0
39
0
210
0
220
0
230
1
0
LINE
5
134
100
AcDbEntity
8
1
62
256
6
ByLayer
370
13
48
1
60
0
100
AcDbLine
10
103.106687
20
3.485059
30
0
11
103.604135
21
3.511129
31
0
39
0
210
0
220
0
230
1
0
LINE
5
135
100
AcDbEntity
8
1
62
256
6
ByLayer
370
13
48
1
60
0
100
AcDbLine
10
104.865978
20
-8.250078
30
0
11
105.290098
21
-5.046215
31
0
39
0
210
0
220
0
230
1
0
LINE
5
136
100
AcDbEntity
8
1
62
256
6
ByLayer
370
13
48
1
60
0
100
AcDbLine
10
5.1851
20
12.5
30
0
11
5.1851
21
3.5
31
0
39
0
210
0
220
0
230
1
0
LINE
5
137
100
AcDbEntity
8
1
62
256
6
ByLayer
370
13
48
1
60
0
100
AcDbLine
10
104.708666
20
-0.836854
30
0
11
105.306949
21
-1.426689
31
0
39
0
210
0
220
0
230
1
0
LINE
5
138
100
AcDbEntity
8
1
62
256
6
ByLayer
370
13
48
1
60
0
100
AcDbLine
10
0
20
-12.4
30
0
11
0
21
-3.1241
31
0
39
0
210
0
220
0
230
1
0
LINE
5
139
100
AcDbEntity
8
1
62
256
6
ByLayer
370
13
48
1
60
0
100
AcDbLine
10
99.969425
20
2.465616
30
0
11
100.287284
21
2.482274
31
0
39
0
210
0
220
0
230
1
0
LINE
5
13A
100
AcDbEntity
8
1
62
256
6
ByLayer
370
13
48
1
60
0
100
AcDbLine
10
99.53002
20
3.020572
30
0
11
99.204665
21
3.003521
31
0
39
0
210
0
220
0
230
1
0
LINE
5
13B
100
AcDbEntity
8
1
62
256
6
ByLayer
370
13
48
1
60
0
100
AcDbLine
10
104.536889
20
0.895978
30
0
11
105.066642
21
0.373704
31
0
39
0
210
0
220
0
230
1
0
LINE
5
13C
100
AcDbEntity
8
1
62
256
6
ByLayer
370
13
48
1
60
0
100
AcDbLine
10
105.35606
20
0.498424
30
0
11
105.354084
21
0.498683
31
0
39
0
210
0
220
0
230
1
0
LINE
5
13D
100
AcDbEntity
8
1
62
256
6
ByLayer
370
13
48
1
60
0
100
AcDbLine
10
0
20
12.4
30
0
11
0
21
3.1241
31
0
39
0
210
0
220
0
230
1
0
LINE
5
13E
100
AcDbEntity
8
1
62
256
6
ByLayer
370
13
48
1
60
0
100
AcDbLine
10
105.31262
20
0.547264
30
0
11
105.301845
21
0.548674
31
0
39
0
210
0
220
0
230
1
0
LINE
5
13F
100
AcDbEntity
8
1
62
256
6
ByLayer
370
13
48
1
60
0
100
AcDbLine
10
0.1
20
12.5
30
0
11
0.1
21
3.5
31
0
39
0
210
0
220
0
230
1
0
LINE
5
140
100
AcDbEntity
8
4
62
256
6
ByLayer
370
18
48
0.05
60
0
100
AcDbLine
10
106
20
0
30
0
11
0
21
0
31
0
39
0
210
0
220
0
230
1
0
LINE
5
142
100
AcDbEntity
8
SK4
62
256
6
ByLayer
370
13
48
0.05
60
0
100
AcDbLine
10
106
20
0
30
0
11
-50
21
0
31
0
39
0
210
0
220
0
230
1
0
LINE
5
144
100
AcDbEntity
8
1
62
256
6
ByLayer
370
13
48
1
60
0
100
AcDbLine
10
56.220623
20
8.2025
30
0
11
53.2
21
8.2025
31
0
39
0
210
0
220
0
230
1
0
LINE
5
145
100
AcDbEntity
8
SK1
62
256
6
ByLayer
370
13
48
1
60
0
100
AcDbLine
10
-47.633813
20
-9.640467
30
0
11
-46.600147
21
-9.99675
31
0
39
0
210
0
220
0
230
1
0
LINE
5
146
100
AcDbEntity
8
SK1
62
256
6
ByLayer
370
13
48
1
60
0
100
AcDbLine
10
-46.600147
20
9.99675
30
0
11
-47.633813
21
9.640467
31
0
39
0
210
0
220
0
230
1
0
LINE
5
147
100
AcDbEntity
8
SK1
62
256
6
ByLayer
370
13
48
1
60
0
100
AcDbLine
10
-48.516222
20
9.893344
30
0
11
-48.599959
21
9.99675
31
0
39
0
210
0
220
0
230
1
0
LINE
5
148
100
AcDbEntity
8
SK1
62
256
6
ByLayer
370
13
48
1
60
0
100
AcDbLine
10
-48.599959
20
-9.99675
30
0
11
-48.516222
21
-9.893344
31
0
39
0
210
0
220
0
230
1
0
LINE
5
149
100
AcDbEntity
8
SK1
62
256
6
ByLayer
370
13
48
1
60
0
100
AcDbLine
10
-48.599959
20
9.99675
30
0
11
-49
21
9.99675
31
0
39
0
210
0
220
0
230
1
0
LINE
5
14A
100
AcDbEntity
8
SK1
62
256
6
ByLayer
370
13
48
1
60
0
100
AcDbLine
10
-49
20
-9.99675
30
0
11
-48.599959
21
-9.99675
31
0
39
0
210
0
220
0
230
1
0
LINE
5
14B
100
AcDbEntity
8
SK1
62
256
6
ByLayer
370
13
48
1
60
0
100
AcDbLine
10
-50
20
-8.99675
30
0
11
-49
21
-9.99675
31
0
39
0
210
0
220
0
230
1
0
LINE
5
14C
100
AcDbEntity
8
SK1
62
256
6
ByLayer
370
13
48
1
60
0
100
AcDbLine
10
-49
20
9.99675
30
0
11
-50
21
8.99675
31
0
39
0
210
0
220
0
230
1
0
LINE
5
14D
100
AcDbEntity
8
SK1
62
256
6
ByLayer
370
13
48
1
60
0
100
AcDbLine
10
-0.15
20
9.74675
30
0
11
-1.375195
21
9.74675
31
0
39
0
210
0
220
0
230
1
0
LINE
5
14E
100
AcDbEntity
8
SK1
62
256
6
ByLayer
370
13
48
1
60
0
100
AcDbLine
10
-1.375195
20
-9.74675
30
0
11
-0.15
21
-9.74675
31
0
39
0
210
0
220
0
230
1
0
LINE
5
14F
100
AcDbEntity
8
SK1
62
256
6
ByLayer
370
13
48
1
60
0
100
AcDbLine
10
-1.544243
20
9.784227
30
0
11
-2
21
9.99675
31
0
39
0
210
0
220
0
230
1
0
LINE
5
150
100
AcDbEntity
8
SK1
62
256
6
ByLayer
370
13
48
1
60
0
100
AcDbLine
10
-2
20
-9.99675
30
0
11
-1.544243
21
-9.784227
31
0
39
0
210
0
220
0
230
1
0
LINE
5
151
100
AcDbEntity
8
SK1
62
256
6
ByLayer
370
13
48
1
60
0
100
AcDbLine
10
-2
20
9.99675
30
0
11
-46.600147
21
9.99675
31
0
39
0
210
0
220
0
230
1
0
LINE
5
152
100
AcDbEntity
8
SK1
62
256
6
ByLayer
370
13
48
1
60
0
100
AcDbLine
10
-46.600147
20
-9.99675
30
0
11
-2
21
-9.99675
31
0
39
0
210
0
220
0
230
1
0
LINE
5
153
100
AcDbEntity
8
1
62
256
6
ByLayer
370
13
48
1
60
0
100
AcDbLine
10
105.455141
20
3.308611
30
0
11
105.64731
21
3.67198
31
0
39
0
210
0
220
0
230
1
0
LINE
5
154
100
AcDbEntity
8
1
62
256
6
ByLayer
370
13
48
1
60
0
100
AcDbLine
10
104.731349
20
5.971137
30
0
11
104.425754
21
7.906157
31
0
39
0
210
0
220
0
230
1
0
LINE
5
155
100
AcDbEntity
8
1
62
256
6
ByLayer
370
13
48
1
60
0
100
AcDbLine
10
104.453855
20
3.629686
30
0
11
104.734011
21
5.770356
31
0
39
0
210
0
220
0
230
1
0
LINE
5
156
100
AcDbEntity
8
1
62
256
6
ByLayer
370
18
48
1
60
0
100
AcDbLine
10
101.622758
20
6.254391
30
0
11
101.68093
21
6.25744
31
0
39
0
210
0
220
0
230
1
0
LINE
5
157
100
AcDbEntity
8
1
62
256
6
ByLayer
370
18
48
1
60
0
100
AcDbLine
10
101.751918
20
4.902899
30
0
11
101.693747
21
4.89985
31
0
39
0
210
0
220
0
230
1
0
LINE
5
158
100
AcDbEntity
8
1
62
256
6
ByLayer
370
18
48
1
60
0
100
AcDbLine
10
101.736361
20
4.254396
30
0
11
101.782107
21
4.256793
31
0
39
0
210
0
220
0
230
1
0
LINE
5
159
100
AcDbEntity
8
1
62
256
6
ByLayer
370
18
48
1
60
0
100
AcDbLine
10
101.643417
20
6.903162
30
0
11
101.59767
21
6.900764
31
0
39
0
210
0
220
0
230
1
0
LINE
5
15A
100
AcDbEntity
8
1
62
256
6
ByLayer
370
13
48
1
60
0
100
AcDbLine
10
18
20
-8.2875
30
0
11
23
21
-8.2875
31
0
39
0
210
0
220
0
230
1
0
LINE
5
15B
100
AcDbEntity
8
1
62
256
6
ByLayer
370
13
48
1
60
0
100
AcDbLine
10
23
20
-8.2875
30
0
11
53.2
21
-8.2025
31
0
39
0
210
0
220
0
230
1
0
LINE
5
15C
100
AcDbEntity
8
1
62
256
6
ByLayer
370
13
48
1
60
0
100
AcDbLine
10
97.606302
20
8.2875
30
0
11
96.254071
21
8.2875
31
0
39
0
210
0
220
0
230
1
0
LINE
5
15D
100
AcDbEntity
8
1
62
256
6
ByLayer
370
13
48
1
60
0
100
AcDbLine
10
96.254071
20
8.2875
30
0
11
93.254071
21
8.2025
31
0
39
0
210
0
220
0
230
1
0
LINE
5
15E
100
AcDbEntity
8
1
62
256
6
ByLayer
370
13
48
1
60
0
100
AcDbLine
10
53.2
20
-8.2025
30
0
11
66.425149
21
-8.2025
31
0
39
0
210
0
220
0
230
1
0
LINE
5
15F
100
AcDbEntity
8
1
62
256
6
ByLayer
370
13
48
1
60
0
100
AcDbLine
10
93.254071
20
8.2025
30
0
11
90.202019
21
8.2025
31
0
39
0
210
0
220
0
230
1
0
LINE
5
160
100
AcDbEntity
8
1
62
256
6
ByLayer
370
13
48
1
60
0
100
AcDbLine
10
53.2
20
8.2025
30
0
11
23
21
8.2875
31
0
39
0
210
0
220
0
230
1
0
LINE
5
161
100
AcDbEntity
8
1
62
256
6
ByLayer
370
13
48
1
60
0
100
AcDbLine
10
0.1
20
-12.5
30
0
11
5.1851
21
-12.5
31
0
39
0
210
0
220
0
230
1
0
LINE
5
162
100
AcDbEntity
8
1
62
256
6
ByLayer
370
13
48
1
60
0
100
AcDbLine
10
0.1
20
12.5
30
0
11
0
21
12.4
31
0
39
0
210
0
220
0
230
1
0
LINE
5
163
100
AcDbEntity
8
1
62
256
6
ByLayer
370
13
48
1
60
0
100
AcDbLine
10
0
20
-12.4
30
0
11
0.1
21
-12.5
31
0
39
0
210
0
220
0
230
1
0
LINE
5
164
100
AcDbEntity
8
1
62
256
6
ByLayer
370
13
48
1
60
0
100
AcDbLine
10
5.1851
20
12.5
30
0
11
0.1
21
12.5
31
0
39
0
210
0
220
0
230
1
0
LINE
5
165
100
AcDbEntity
8
81
62
256
6
ByLayer
370
18
48
1
60
0
100
AcDbLine
10
106
20
0
30
0
11
113
21
0
31
0
39
0
210
0
220
0
230
1
0
LINE
5
166
100
AcDbEntity
8
80
62
256
6
ByLayer
370
18
48
1
60
0
100
AcDbLine
10
0
20
0
30
0
11
-7
21
0
31
0
39
0
210
0
220
0
230
1
0
LINE
5
167
100
AcDbEntity
8
SK2
62
256
6
ByLayer
370
13
48
1
60
0
100
AcDbLine
10
-70.725
20
-10
30
0
11
-70.725
21
40.986611
31
0
39
0
210
0
220
0
230
1
0
LINE
5
169
100
AcDbEntity
8
SK2
62
256
6
ByLayer
370
13
48
1
60
0
100
AcDbLine
10
-51.5875
20
-10
30
0
11
-73.9
21
-10
31
0
39
0
210
0
220
0
230
1
0
LINE
5
16A
100
AcDbEntity
8
SK2
62
256
6
ByLayer
370
13
48
1
60
0
100
AcDbLine
10
-51.5875
20
10
30
0
11
-73.9
21
10
31
0
39
0
210
0
220
0
230
1
0
LINE
5
16B
100
AcDbEntity
8
1
62
256
6
ByLayer
370
18
48
1
60
1
100
AcDbLine
10
-70.725
20
-10
30
0
11
-71.650575
21
-5.825003
31
0
39
0
210
0
220
0
230
1
0
LINE
5
16C
100
AcDbEntity
8
1
62
256
6
ByLayer
370
18
48
1
60
1
100
AcDbLine
10
-71.650575
20
-5.825003
30
0
11
-69.799425
21
-5.824997
31
0
39
0
210
0
220
0
230
1
0
LINE
5
16D
100
AcDbEntity
8
1
62
256
6
ByLayer
370
18
48
1
60
1
100
AcDbLine
10
-69.799425
20
-5.824997
30
0
11
-70.725
21
-10
31
0
39
0
210
0
220
0
230
1
0
LINE
5
16E
100
AcDbEntity
8
1
62
256
6
ByLayer
370
18
48
1
60
1
100
AcDbLine
10
-70.725
20
10
30
0
11
-69.799425
21
5.825003
31
0
39
0
210
0
220
0
230
1
0
LINE
5
16F
100
AcDbEntity
8
1
62
256
6
ByLayer
370
18
48
1
60
1
100
AcDbLine
10
-69.799425
20
5.825003
30
0
11
-71.650575
21
5.824997
31
0
39
0
210
0
220
0
230
1
0
LINE
5
170
100
AcDbEntity
8
1
62
256
6
ByLayer
370
18
48
1
60
1
100
AcDbLine
10
-71.650575
20
5.824997
30
0
11
-70.725
21
10
31
0
39
0
210
0
220
0
230
1
0
LINE
5
171
100
AcDbEntity
8
SK2
62
256
6
ByLayer
370
13
48
1
60
0
100
AcDbLine
10
-80.725
20
-23.75
30
0
11
-80.725
21
23.75
31
0
39
0
210
0
220
0
230
1
0
LINE
5
172
100
AcDbEntity
8
SK2
62
256
6
ByLayer
370
13
48
1
60
0
100
AcDbLine
10
-1.5875
20
12.5
30
0
11
-83.9
21
12.5
31
0
39
0
210
0
220
0
230
1
0
LINE
5
173
100
AcDbEntity
8
SK2
62
256
6
ByLayer
370
13
48
1
60
0
100
AcDbLine
10
-1.5875
20
-12.5
30
0
11
-83.9
21
-12.5
31
0
39
0
210
0
220
0
230
1
0
LINE
5
174
100
AcDbEntity
8
1
62
256
6
ByLayer
370
18
48
1
60
1
100
AcDbLine
10
-80.725
20
12.5
30
0
11
-81.650575
21
16.674997
31
0
39
0
210
0
220
0
230
1
0
LINE
5
175
100
AcDbEntity
8
1
62
256
6
ByLayer
370
18
48
1
60
1
100
AcDbLine
10
-81.650575
20
16.674997
30
0
11
-79.799425
21
16.675003
31
0
39
0
210
0
220
0
230
1
0
LINE
5
176
100
AcDbEntity
8
1
62
256
6
ByLayer
370
18
48
1
60
1
100
AcDbLine
10
-79.799425
20
16.675003
30
0
11
-80.725
21
12.5
31
0
39
0
210
0
220
0
230
1
0
LINE
5
177
100
AcDbEntity
8
1
62
256
6
ByLayer
370
18
48
1
60
1
100
AcDbLine
10
-80.725
20
-12.5
30
0
11
-79.799425
21
-16.674997
31
0
39
0
210
0
220
0
230
1
0
LINE
5
178
100
AcDbEntity
8
1
62
256
6
ByLayer
370
18
48
1
60
1
100
AcDbLine
10
-79.799425
20
-16.674997
30
0
11
-81.650575
21
-16.675003
31
0
39
0
210
0
220
0
230
1
0
LINE
5
179
100
AcDbEntity
8
1
62
256
6
ByLayer
370
18
48
1
60
1
100
AcDbLine
10
-81.650575
20
-16.675003
30
0
11
-80.725
21
-12.5
31
0
39
0
210
0
220
0
230
1
0
LINE
5
17A
100
AcDbEntity
8
2
62
256
6
ByLayer
370
13
48
1
60
0
100
AcDbLine
10
132.975
20
-8.5
30
0
11
132.975
21
38.361783
31
0
39
0
210
0
220
0
230
1
0
LINE
5
17C
100
AcDbEntity
8
2
62
256
6
ByLayer
370
13
48
1
60
0
100
AcDbLine
10
107.5875
20
-8.5
30
0
11
136.15
21
-8.5
31
0
39
0
210
0
220
0
230
1
0
LINE
5
17D
100
AcDbEntity
8
2
62
256
6
ByLayer
370
13
48
1
60
0
100
AcDbLine
10
107.5875
20
8.5
30
0
11
136.15
21
8.5
31
0
39
0
210
0
220
0
230
1
0
LINE
5
17E
100
AcDbEntity
8
1
62
256
6
ByLayer
370
18
48
1
60
1
100
AcDbLine
10
132.975
20
-8.5
30
0
11
132.049425
21
-4.325003
31
0
39
0
210
0
220
0
230
1
0
LINE
5
17F
100
AcDbEntity
8
1
62
256
6
ByLayer
370
18
48
1
60
1
100
AcDbLine
10
132.049425
20
-4.325003
30
0
11
133.900575
21
-4.324997
31
0
39
0
210
0
220
0
230
1
0
LINE
5
180
100
AcDbEntity
8
1
62
256
6
ByLayer
370
18
48
1
60
1
100
AcDbLine
10
133.900575
20
-4.324997
30
0
11
132.975
21
-8.5
31
0
39
0
210
0
220
0
230
1
0
LINE
5
181
100
AcDbEntity
8
1
62
256
6
ByLayer
370
18
48
1
60
1
100
AcDbLine
10
132.975
20
8.5
30
0
11
133.900575
21
4.325003
31
0
39
0
210
0
220
0
230
1
0
LINE
5
182
100
AcDbEntity
8
1
62
256
6
ByLayer
370
18
48
1
60
1
100
AcDbLine
10
133.900575
20
4.325003
30
0
11
132.049425
21
4.324997
31
0
39
0
210
0
220
0
230
1
0
LINE
5
183
100
AcDbEntity
8
1
62
256
6
ByLayer
370
18
48
1
60
1
100
AcDbLine
10
132.049425
20
4.324997
30
0
11
132.975
21
8.5
31
0
39
0
210
0
220
0
230
1
0
LINE
5
33A
100
AcDbEntity
8
1
62
256
6
ByLayer
370
18
48
1
60
1
100
AcDbLine
10
-70.725
20
-10
30
0
11
-71.650575
21
-5.825003
31
0
39
0
210
0
220
0
230
1
0
LINE
5
33B
100
AcDbEntity
8
1
62
256
6
ByLayer
370
18
48
1
60
1
100
AcDbLine
10
-71.650575
20
-5.825003
30
0
11
-69.799425
21
-5.824997
31
0
39
0
210
0
220
0
230
1
0
LINE
5
33C
100
AcDbEntity
8
1
62
256
6
ByLayer
370
18
48
1
60
1
100
AcDbLine
10
-69.799425
20
-5.824997
30
0
11
-70.725
21
-10
31
0
39
0
210
0
220
0
230
1
0
LINE
5
33E
100
AcDbEntity
8
1
62
256
6
ByLayer
370
18
48
1
60
1
100
AcDbLine
10
-70.725
20
10
30
0
11
-69.799425
21
5.825003
31
0
39
0
210
0
220
0
230
1
0
LINE
5
33F
100
AcDbEntity
8
1
62
256
6
ByLayer
370
18
48
1
60
1
100
AcDbLine
10
-69.799425
20
5.825003
30
0
11
-71.650575
21
5.824997
31
0
39
0
210
0
220
0
230
1
0
LINE
5
340
100
AcDbEntity
8
1
62
256
6
ByLayer
370
18
48
1
60
1
100
AcDbLine
10
-71.650575
20
5.824997
30
0
11
-70.725
21
10
31
0
39
0
210
0
220
0
230
1
0
LINE
5
344
100
AcDbEntity
8
1
62
256
6
ByLayer
370
18
48
1
60
1
100
AcDbLine
10
-80.725
20
12.5
30
0
11
-81.650575
21
16.674997
31
0
39
0
210
0
220
0
230
1
0
LINE
5
345
100
AcDbEntity
8
1
62
256
6
ByLayer
370
18
48
1
60
1
100
AcDbLine
10
-81.650575
20
16.674997
30
0
11
-79.799425
21
16.675003
31
0
39
0
210
0
220
0
230
1
0
LINE
5
346
100
AcDbEntity
8
1
62
256
6
ByLayer
370
18
48
1
60
1
100
AcDbLine
10
-79.799425
20
16.675003
30
0
11
-80.725
21
12.5
31
0
39
0
210
0
220
0
230
1
0
LINE
5
348
100
AcDbEntity
8
1
62
256
6
ByLayer
370
18
48
1
60
1
100
AcDbLine
10
-80.725
20
-12.5
30
0
11
-79.799425
21
-16.674997
31
0
39
0
210
0
220
0
230
1
0
LINE
5
349
100
AcDbEntity
8
1
62
256
6
ByLayer
370
18
48
1
60
1
100
AcDbLine
10
-79.799425
20
-16.674997
30
0
11
-81.650575
21
-16.675003
31
0
39
0
210
0
220
0
230
1
0
LINE
5
34A
100
AcDbEntity
8
1
62
256
6
ByLayer
370
18
48
1
60
1
100
AcDbLine
10
-81.650575
20
-16.675003
30
0
11
-80.725
21
-12.5
31
0
39
0
210
0
220
0
230
1
0
LINE
5
34E
100
AcDbEntity
8
1
62
256
6
ByLayer
370
18
48
1
60
1
100
AcDbLine
10
132.975
20
-8.5
30
0
11
132.049425
21
-4.325003
31
0
39
0
210
0
220
0
230
1
0
LINE
5
34F
100
AcDbEntity
8
1
62
256
6
ByLayer
370
18
48
1
60
1
100
AcDbLine
10
132.049425
20
-4.325003
30
0
11
133.900575
21
-4.324997
31
0
39
0
210
0
220
0
230
1
0
LINE
5
350
100
AcDbEntity
8
1
62
256
6
ByLayer
370
18
48
1
60
1
100
AcDbLine
10
133.900575
20
-4.324997
30
0
11
132.975
21
-8.5
31
0
39
0
210
0
220
0
230
1
0
LINE
5
352
100
AcDbEntity
8
1
62
256
6
ByLayer
370
18
48
1
60
1
100
AcDbLine
10
132.975
20
8.5
30
0
11
133.900575
21
4.325003
31
0
39
0
210
0
220
0
230
1
0
LINE
5
353
100
AcDbEntity
8
1
62
256
6
ByLayer
370
18
48
1
60
1
100
AcDbLine
10
133.900575
20
4.325003
30
0
11
132.049425
21
4.324997
31
0
39
0
210
0
220
0
230
1
0
LINE
5
354
100
AcDbEntity
8
1
62
256
6
ByLayer
370
18
48
1
60
1
100
AcDbLine
10
132.049425
20
4.324997
30
0
11
132.975
21
8.5
31
0
39
0
210
0
220
0
230
1
0
MTEXT
5
336
100
AcDbEntity
8
SK2
62
256
6
ByLayer
370
18
48
1
60
0
100
AcDbMText
10
-72.736672
20
24.600156
30
0
210
0
220
0
230
1
1
%%c
40
4.5
41
0
44
1.084337
50
90
71
7
72
5
7
iso_b_vert
0
MTEXT
5
339
100
AcDbEntity
8
SK2
62
256
6
ByLayer
370
18
48
1
60
0
100
AcDbMText
10
-72.736672
20
35.815
30
0
210
0
220
0
230
1
1
\W0.6740;20
40
4.5
41
0
44
1.084337
50
90
71
7
72
5
7
iso_b_vert
0
MTEXT
5
342
100
AcDbEntity
8
SK2
62
256
6
ByLayer
370
18
48
1
60
0
100
AcDbMText
10
-82.736672
20
-6.949399
30
0
210
0
220
0
230
1
1
%%c
40
4.5
41
0
44
1.084337
50
90
71
7
72
5
7
iso_b_vert
0
MTEXT
5
343
100
AcDbEntity
8
SK2
62
256
6
ByLayer
370
18
48
1
60
0
100
AcDbMText
10
-82.736672
20
4.265444
30
0
210
0
220
0
230
1
1
\W0.6740;25
40
4.5
41
0
44
1.084337
50
90
71
7
72
5
7
iso_b_vert
0
MTEXT
5
34C
100
AcDbEntity
8
2
62
256
6
ByLayer
370
18
48
1
60
0
100
AcDbMText
10
130.963328
20
23.100156
30
0
210
0
220
0
230
1
1
%%c
40
4.5
41
0
44
1.084337
50
90
71
7
72
5
7
iso_b_vert
0
MTEXT
5
34D
100
AcDbEntity
8
2
62
256
6
ByLayer
370
18
48
1
60
0
100
AcDbMText
10
130.963328
20
34.315
30
0
210
0
220
0
230
1
1
\W0.5321;17
40
4.5
41
0
44
1.084337
50
90
71
7
72
5
7
iso_b_vert
0
MTEXT
5
356
100
AcDbEntity
8
SK6
62
256
6
ByLayer
370
18
48
1
60
0
100
AcDbMText
10
9.308916
20
-94.592562
30
0
210
0
220
0
230
1
1
\W0.7503;DS20-D1700L20-05
40
3.5
41
0
44
1.084337
50
0
71
7
72
5
7
iso_b_vert
0
HATCH
5
33D
100
AcDbEntity
8
SK2
62
256
6
ByLayer
370
13
48
1
60
0
100
AcDbHatch
10
0
20
0
30
0
210
0
220
0
230
1
2
ANSI31
70
0
71
0
91
1
92
5
93
3
72
1
10
-70.725
20
-9.99999999999994
11
-71.650575216528
21
-5.82500339982755
72
1
10
-71.650575216528
20
-5.82500339982755
11
-69.799424783472
21
-5.82499660017231
72
1
10
-69.799424783472
20
-5.82499660017231
11
-70.725
21
-9.99999999999994
97
0
75
0
76
1
52
0
41
0.0062
77
0
78
1
53
45
43
0
44
0
45
-0.0139193969876572
46
0.0139193969876572
79
0
47
0
98
1
10
0
20
0
0
HATCH
5
341
100
AcDbEntity
8
SK2
62
256
6
ByLayer
370
13
48
1
60
0
100
AcDbHatch
10
0
20
0
30
0
210
0
220
0
230
1
2
ANSI31
70
0
71
0
91
1
92
5
93
3
72
1
10
-70.725
20
10.0000000000001
11
-69.799424783472
21
5.82500339982766
72
1
10
-69.799424783472
20
5.82500339982766
11
-71.650575216528
21
5.82499660017243
72
1
10
-71.650575216528
20
5.82499660017243
11
-70.725
21
10.0000000000001
97
0
75
0
76
1
52
0
41
0.0062
77
0
78
1
53
45
43
0
44
0
45
-0.0139193969876572
46
0.0139193969876572
79
0
47
0
98
1
10
0
20
0
0
HATCH
5
347
100
AcDbEntity
8
SK2
62
256
6
ByLayer
370
13
48
1
60
0
100
AcDbHatch
10
0
20
0
30
0
210
0
220
0
230
1
2
ANSI31
70
0
71
0
91
1
92
5
93
3
72
1
10
-80.725
20
12.5
11
-81.650575216528
21
16.6749966001724
72
1
10
-81.650575216528
20
16.6749966001724
11
-79.799424783472
21
16.6750033998276
72
1
10
-79.799424783472
20
16.6750033998276
11
-80.725
21
12.5
97
0
75
0
76
1
52
0
41
0.0062
77
0
78
1
53
45
43
0
44
0
45
-0.0139193969876572
46
0.0139193969876572
79
0
47
0
98
1
10
0
20
0
0
HATCH
5
34B
100
AcDbEntity
8
SK2
62
256
6
ByLayer
370
13
48
1
60
0
100
AcDbHatch
10
0
20
0
30
0
210
0
220
0
230
1
2
ANSI31
70
0
71
0
91
1
92
5
93
3
72
1
10
-80.725
20
-12.5
11
-79.799424783472
21
-16.6749966001724
72
1
10
-79.799424783472
20
-16.6749966001724
11
-81.650575216528
21
-16.6750033998276
72
1
10
-81.650575216528
20
-16.6750033998276
11
-80.725
21
-12.5
97
0
75
0
76
1
52
0
41
0.0062
77
0
78
1
53
45
43
0
44
0
45
-0.0139193969876572
46
0.0139193969876572
79
0
47
0
98
1
10
0
20
0
0
HATCH
5
351
100
AcDbEntity
8
2
62
256
6
ByLayer
370
13
48
1
60
0
100
AcDbHatch
10
0
20
0
30
0
210
0
220
0
230
1
2
ANSI31
70
0
71
0
91
1
92
5
93
3
72
1
10
132.975
20
-8.50000000000011
11
132.049424783472
21
-4.32500339982772
72
1
10
132.049424783472
20
-4.32500339982772
11
133.900575216528
21
-4.32499660017248
72
1
10
133.900575216528
20
-4.32499660017248
11
132.975
21
-8.50000000000011
97
0
75
0
76
1
52
0
41
0.0062
77
0
78
1
53
45
43
0
44
0
45
-0.0139193969876572
46
0.0139193969876572
79
0
47
0
98
1
10
0
20
0
0
HATCH
5
355
100
AcDbEntity
8
2
62
256
6
ByLayer
370
13
48
1
60
0
100
AcDbHatch
10
0
20
0
30
0
210
0
220
0
230
1
2
ANSI31
70
0
71
0
91
1
92
5
93
3
72
1
10
132.975
20
8.49999999999989
11
133.900575216528
21
4.32500339982749
72
1
10
133.900575216528
20
4.32500339982749
11
132.049424783472
21
4.32499660017226
72
1
10
132.049424783472
20
4.32499660017226
11
132.975
21
8.49999999999989
97
0
75
0
76
1
52
0
41
0.0062
77
0
78
1
53
45
43
0
44
0
45
-0.0139193969876572
46
0.0139193969876572
79
0
47
0
98
1
10
0
20
0
0
DIMENSION
5
359
100
AcDbEntity
8
2
62
256
6
ByLayer
370
18
48
1
60
0
100
AcDbDimension
2
_U0
10
106
20
-61.361824
30
0
11
53
21
-61.361824
31
0
70
32
71
1
72
1
41
1
210
0
220
0
230
1
3
Standard
100
AcDbAlignedDimension
13
0
23
-12.5
33
0
14
106
24
-8.5
34
0
50
0
100
AcDbRotatedDimension
1001
ACAD
1000
DSTYLE
1002
{
1070
   371
1070
    13
1070
   372
1070
    13
1070
   170
1070
     0
1070
   144
1040
1.0
1070
   277
1070
     2
1070
   284
1070
     8
1070
   278
1070
    46
1070
   146
1040
0.777778
1070
   345
1005
16
1070
   347
1005
16
1070
   346
1005
16
1070
   344
1005
0
1070
   343
1005
0
1070
   172
1070
     1
1070
    76
1070
     0
1070
    75
1070
     0
1070
   282
1070
     0
1070
   281
1070
     0
1070
    71
1070
     0
1070
    74
1070
     0
1070
   279
1070
     0
1070
   173
1070
     1
1070
   340
1005
337
1070
   271
1070
     1
1070
   272
1070
     2
1070
    77
1070
     1
1070
    73
1070
     1
1070
   171
1070
     3
1070
   274
1070
     4
1070
   177
1070
   150
1070
   176
1070
     9
1070
   178
1070
    43
1070
    78
1070
     8
1070
    48
1040
-0.1
1070
    41
1040
4.175
1070
   147
1040
2.25
1070
    42
1040
1.5875
1070
    44
1040
3.175
1070
   140
1040
4.5
1002
}
1001
ACAD_DSTYLE_DIM_LINETYPE
1070
   380
1005
16
1001
ACAD_DSTYLE_DIM_EXT1_LINETYPE
1070
   381
1005
16
1001
ACAD_DSTYLE_DIM_EXT2_LINETYPE
1070
   382
1005
16
0
DIMENSION
5
372
100
AcDbEntity
8
SK2
62
256
6
ByLayer
370
18
48
1
60
0
100
AcDbDimension
2
_U1
10
0
20
-61.361824
30
0
11
-25
21
-61.361824
31
0
70
32
71
1
72
1
41
1
210
0
220
0
230
1
3
Standard
100
AcDbAlignedDimension
13
-50
23
-10
33
0
14
0
24
-12.5
34
0
50
0
100
AcDbRotatedDimension
1001
ACAD
1000
DSTYLE
1002
{
1070
   371
1070
    13
1070
   372
1070
    13
1070
   170
1070
     0
1070
   144
1040
1.0
1070
   277
1070
     2
1070
   284
1070
     8
1070
   278
1070
    46
1070
   146
1040
0.777778
1070
   345
1005
16
1070
   347
1005
16
1070
   346
1005
16
1070
   344
1005
0
1070
   343
1005
0
1070
   172
1070
     1
1070
    76
1070
     0
1070
    75
1070
     0
1070
   282
1070
     0
1070
   281
1070
     0
1070
    71
1070
     0
1070
    74
1070
     0
1070
   279
1070
     0
1070
   173
1070
     1
1070
   340
1005
337
1070
   271
1070
     1
1070
   272
1070
     2
1070
    77
1070
     1
1070
    73
1070
     1
1070
   171
1070
     3
1070
   274
1070
     4
1070
   177
1070
   150
1070
   176
1070
     9
1070
   178
1070
    43
1070
    78
1070
     8
1070
    48
1040
-0.1
1070
    41
1040
4.175
1070
   147
1040
2.25
1070
    42
1040
1.5875
1070
    44
1040
3.175
1070
   140
1040
4.5
1002
}
1001
ACAD_DSTYLE_DIM_LINETYPE
1070
   380
1005
16
1001
ACAD_DSTYLE_DIM_EXT1_LINETYPE
1070
   381
1005
16
1001
ACAD_DSTYLE_DIM_EXT2_LINETYPE
1070
   382
1005
16
0
DIMENSION
5
38A
100
AcDbEntity
8
SK2
62
256
6
ByLayer
370
18
48
1
60
0
100
AcDbDimension
2
_U2
10
5.6851
20
-51.361824
30
0
11
55.84255
21
-51.361824
31
0
70
32
71
1
72
1
41
1
210
0
220
0
230
1
3
Standard
100
AcDbAlignedDimension
13
106
23
-8.5
33
0
14
5.6851
24
-12.5
34
0
50
0
100
AcDbRotatedDimension
1001
ACAD
1000
DSTYLE
1002
{
1070
   371
1070
    13
1070
   372
1070
    13
1070
   170
1070
     0
1070
   144
1040
1.0
1070
   277
1070
     2
1070
   284
1070
     8
1070
   278
1070
    46
1070
   146
1040
0.777778
1070
   345
1005
16
1070
   347
1005
16
1070
   346
1005
16
1070
   344
1005
0
1070
   343
1005
0
1070
   172
1070
     1
1070
    76
1070
     0
1070
    75
1070
     0
1070
   282
1070
     0
1070
   281
1070
     0
1070
    71
1070
     0
1070
    74
1070
     0
1070
   279
1070
     0
1070
   173
1070
     1
1070
   340
1005
337
1070
   271
1070
     1
1070
   272
1070
     2
1070
    77
1070
     1
1070
    73
1070
     1
1070
   171
1070
     3
1070
   274
1070
     4
1070
   177
1070
   150
1070
   176
1070
     9
1070
   178
1070
    43
1070
    78
1070
     8
1070
    48
1040
-0.1
1070
    41
1040
4.175
1070
   147
1040
2.25
1070
    42
1040
1.5875
1070
    44
1040
3.175
1070
   140
1040
4.5
1002
}
1001
ACAD_DSTYLE_DIM_LINETYPE
1070
   380
1005
16
1001
ACAD_DSTYLE_DIM_EXT1_LINETYPE
1070
   381
1005
16
1001
ACAD_DSTYLE_DIM_EXT2_LINETYPE
1070
   382
1005
16
0
DIMENSION
5
3A2
100
AcDbEntity
8
SK2
62
256
6
ByLayer
370
18
48
1
60
0
100
AcDbDimension
2
_U3
10
106
20
-41.361824
30
0
11
62
21
-41.361824
31
0
70
32
71
1
72
1
41
1
210
0
220
0
230
1
3
Standard
100
AcDbAlignedDimension
13
18
23
-8.5
33
0
14
106
24
-8.5
34
0
50
0
100
AcDbRotatedDimension
1001
ACAD
1000
DSTYLE
1002
{
1070
   371
1070
    13
1070
   372
1070
    13
1070
   170
1070
     0
1070
   144
1040
1.0
1070
   277
1070
     2
1070
   284
1070
     8
1070
   278
1070
    46
1070
   146
1040
0.777778
1070
   345
1005
16
1070
   347
1005
16
1070
   346
1005
16
1070
   344
1005
0
1070
   343
1005
0
1070
   172
1070
     1
1070
    76
1070
     0
1070
    75
1070
     0
1070
   282
1070
     0
1070
   281
1070
     0
1070
    71
1070
     0
1070
    74
1070
     0
1070
   279
1070
     0
1070
   173
1070
     1
1070
   340
1005
337
1070
   271
1070
     1
1070
   272
1070
     2
1070
    77
1070
     1
1070
    73
1070
     1
1070
   171
1070
     3
1070
   274
1070
     4
1070
   177
1070
   150
1070
   176
1070
     9
1070
   178
1070
    43
1070
    78
1070
     8
1070
    48
1040
-0.1
1070
    41
1040
4.175
1070
   147
1040
2.25
1070
    42
1040
1.5875
1070
    44
1040
3.175
1070
   140
1040
4.5
1002
}
1001
ACAD_DSTYLE_DIM_LINETYPE
1070
   380
1005
16
1001
ACAD_DSTYLE_DIM_EXT1_LINETYPE
1070
   381
1005
16
1001
ACAD_DSTYLE_DIM_EXT2_LINETYPE
1070
   382
1005
16
0
DIMENSION
5
3BA
100
AcDbEntity
8
2
62
256
6
ByLayer
370
18
48
1
60
0
100
AcDbDimension
2
_U4
10
106
20
-31.361824
30
0
11
128.350893
21
-31.361824
31
0
70
32
71
1
72
1
41
1
210
0
220
0
230
1
3
Standard
100
AcDbAlignedDimension
13
105.5369
23
-4.25
33
0
14
106
24
0
34
0
50
0
100
AcDbRotatedDimension
1001
ACAD
1000
DSTYLE
1002
{
1070
   371
1070
    13
1070
   372
1070
    13
1070
   170
1070
     0
1070
   144
1040
1.0
1070
   277
1070
     2
1070
   284
1070
     8
1070
   278
1070
    46
1070
   146
1040
0.777778
1070
   345
1005
16
1070
   347
1005
16
1070
   346
1005
16
1070
   344
1005
0
1070
   343
1005
0
1070
   172
1070
     1
1070
    76
1070
     0
1070
    75
1070
     0
1070
   282
1070
     0
1070
   281
1070
     0
1070
    71
1070
     0
1070
    74
1070
     0
1070
   279
1070
     0
1070
   173
1070
     1
1070
   340
1005
337
1070
   271
1070
     2
1070
   272
1070
     2
1070
    77
1070
     1
1070
    73
1070
     1
1070
   171
1070
     3
1070
   274
1070
     4
1070
   177
1070
   150
1070
   176
1070
     9
1070
   178
1070
    43
1070
    78
1070
     8
1070
    48
1040
-0.1
1070
    41
1040
4.175
1070
   147
1040
2.25
1070
    42
1040
1.5875
1070
    44
1040
3.175
1070
   140
1040
4.5
1002
}
1001
ACAD_DSTYLE_DIM_LINETYPE
1070
   380
1005
16
1001
ACAD_DSTYLE_DIM_EXT1_LINETYPE
1070
   381
1005
16
1001
ACAD_DSTYLE_DIM_EXT2_LINETYPE
1070
   382
1005
16
0
ENDSEC
0
SECTION
2
OBJECTS
0
DICTIONARY
5
444
330
0
100
AcDbDictionary
280
0
281
1
3
ACAD_GROUP
350
445
3
ACAD_MLINESTYLE
350
446
0
DICTIONARY
5
445
330
0
100
AcDbDictionary
280
0
281
1
0
DICTIONARY
5
446
330
0
100
AcDbDictionary
280
0
281
1
3
Standard
350
18
0
MLINESTYLE
5
18
330
446
100
AcDbMlineStyle
2
Standard
70
0
3

62
256
51
90
52
90
71
2
49
-0.5
62
256
6
ByLayer
49
0.5
62
256
6
ByLayer
0
RASTERVARIABLES
5
432
330

100
AcDbRasterVariables
90
0
70
1
71
1
72
1
0
ENDSEC
0
EOF
