0
SECTION
2
HEADER
9
$ACADVER
1
AC1015
9
$DWGCODEPAGE
3
ANSI_1252
9
$HANDSEED
5
18e
9
$ANGBASE
50
0
9
$ANGDIR
70
0
9
$ATTMODE
70
1
9
$AUNITS
70
0
9
$AUPREC
70
0
9
$CECOLOR
62
256
9
$CELTSCALE
40
1
9
$CELTYPE
6
ByLayer
9
$CELWEIGHT
370
18
9
$CLAYER
8
0
9
$CMLJUST
70
0
9
$CMLSCALE
40
1
9
$CMLSTYLE
2
Standard
9
$DIMSTYLE
2
Standard
9
$TEXTSIZE
40
0.2
9
$TEXTSTYLE
7
Standard
9
$LUNITS
70
2
9
$LUPREC
70
4
9
$EXTNAMES
290
1
9
$INSUNITS
70
4
9
$LTSCALE
40
1
9
$LWDISPLAY
290
1
9
$PDMODE
70
0
9
$PDSIZE
40
0
9
$PLINEGEN
70
0
0
ENDSEC
0
SECTION
2
CLASSES
0
CLASS
1
RASTERVARIABLES
2
AcDbRasterVariables
3
ISM
90
0
280
0
281
0
0
ENDSEC
0
SECTION
2
TABLES
0
TABLE
2
VPORT
5
184
100
AcDbSymbolTable
0
VPORT
5
1
100
AcDbSymbolTableRecord
100
AcDbViewportTableRecord
2
*Active
70
0
10
0
20
0
11
1
21
1
12
-1
22
1
13
0
23
0
14
0.5
24
0.5
15
10
25
10
16
0
26
0
36
1
17
0
27
0
37
0
0
ENDTAB
0
TABLE
2
LTYPE
5
185
100
AcDbSymbolTable
0
LTYPE
5
14
100
AcDbSymbolTableRecord
100
AcDbLinetypeTableRecord
70
0
2
ByBlock
3

72
65
73
0
40
0
0
LTYPE
5
15
100
AcDbSymbolTableRecord
100
AcDbLinetypeTableRecord
70
0
2
ByLayer
3

72
65
73
0
40
0
0
LTYPE
5
16
100
AcDbSymbolTableRecord
100
AcDbLinetypeTableRecord
70
0
2
CONTINUOUS
3
Solid line
72
65
73
0
40
0
0
LTYPE
5
6A
100
AcDbSymbolTableRecord
100
AcDbLinetypeTableRecord
70
0
2
CENTER
3
____ _ ____ _ ____ _ ____
72
65
73
4
40
47.5
49
22
74
0
49
-8.5
74
0
49
8.5
74
0
49
-8.5
74
0
0
LTYPE
5
6B
100
AcDbSymbolTableRecord
100
AcDbLinetypeTableRecord
70
0
2
DASHED
3
__ __ __ __ __ __ __ __ __
72
65
73
2
40
25.72
49
12.86
74
0
49
-12.86
74
0
0
ENDTAB
0
TABLE
2
LAYER
5
186
100
AcDbSymbolTable
0
LAYER
5
10
100
AcDbSymbolTableRecord
100
AcDbLayerTableRecord
2
0
70
0
62
7
6
CONTINUOUS
290
1
370
-3
390
0
0
LAYER
5
6D
100
AcDbSymbolTableRecord
100
AcDbLayerTableRecord
2
80
70
0
62
-6
6
CONTINUOUS
290
1
370
-3
390
0
0
LAYER
5
6F
100
AcDbSymbolTableRecord
100
AcDbLayerTableRecord
2
81
70
0
62
-3
6
CONTINUOUS
290
1
370
-3
390
0
0
LAYER
5
71
100
AcDbSymbolTableRecord
100
AcDbLayerTableRecord
2
1
70
0
62
4
6
CONTINUOUS
290
1
370
-3
390
0
0
LAYER
5
E3
100
AcDbSymbolTableRecord
100
AcDbLayerTableRecord
2
2
70
0
62
7
6
CONTINUOUS
290
1
370
-3
390
0
0
LAYER
5
16f
100
AcDbSymbolTableRecord
100
AcDbLayerTableRecord
2
SK1
70
0
62
4
6
CONTINUOUS
290
1
370
-3
390
0
0
LAYER
5
170
100
AcDbSymbolTableRecord
100
AcDbLayerTableRecord
2
SK6
70
0
62
5
6
CONTINUOUS
290
1
370
-3
390
0
0
LAYER
5
171
100
AcDbSymbolTableRecord
100
AcDbLayerTableRecord
2
SK2
70
0
62
7
6
CONTINUOUS
290
1
370
-3
390
0
0
ENDTAB
0
TABLE
2
STYLE
5
187
100
AcDbSymbolTable
0
STYLE
5
11
100
AcDbSymbolTableRecord
100
AcDbTextStyleTableRecord
2
Standard
3
txt
70
0
71
0
40
0
41
1
42
0
50
0
0
STYLE
5
DE
100
AcDbSymbolTableRecord
100
AcDbTextStyleTableRecord
2
iso_b_vert
3
simplex.shx
70
0
71
0
40
0
41
1
42
0
50
0
0
STYLE
5
DF
100
AcDbSymbolTableRecord
100
AcDbTextStyleTableRecord
2
DWGDirectTextStyle
3
simplex
70
0
71
0
40
0
41
1
42
0
50
0
0
ENDTAB
0
TABLE
2
DIMSTYLE
5
188
100
AcDbSymbolTable
100
AcDbDimStyleTable
0
DIMSTYLE
105
27
100
AcDbSymbolTableRecord
100
AcDbDimStyleTableRecord
2
Standard
70
0
3
<>
41
0.18
42
0.0625
44
0.18
140
0.18
147
0.09
73
0
74
0
77
1
271
2
275
0
278
52
280
0
340
11
0
ENDTAB
0
TABLE
2
VIEW
5
189
100
AcDbSymbolTable
0
ENDTAB
0
TABLE
2
UCS
5
18a
100
AcDbSymbolTable
0
ENDTAB
0
TABLE
2
APPID
5
18b
100
AcDbSymbolTable
0
APPID
5
12
100
AcDbSymbolTableRecord
100
AcDbRegAppTableRecord
2
ACAD
70
0
0
ENDTAB
0
TABLE
2
BLOCK_RECORD
5
18c
100
AcDbSymbolTable
0
BLOCK_RECORD
5
1F
100
AcDbSymbolTableRecord
100
AcDbBlockTableRecord
2
*Model_Space
340
0
70
0
0
BLOCK_RECORD
5
1B
100
AcDbSymbolTableRecord
100
AcDbBlockTableRecord
2
*Paper_Space
340
0
70
0
0
BLOCK_RECORD
5
23
100
AcDbSymbolTableRecord
100
AcDbBlockTableRecord
2
*Paper_Space0
340
0
70
0
0
BLOCK_RECORD
5
E1
100
AcDbSymbolTableRecord
100
AcDbBlockTableRecord
2
DimnDraft3D1
340
0
70
0
0
BLOCK_RECORD
5
EC
100
AcDbSymbolTableRecord
100
AcDbBlockTableRecord
2
DimnDraft3D2
340
0
70
0
0
BLOCK_RECORD
5
F6
100
AcDbSymbolTableRecord
100
AcDbBlockTableRecord
2
DimnDraft3D3
340
0
70
0
0
BLOCK_RECORD
5
101
100
AcDbSymbolTableRecord
100
AcDbBlockTableRecord
2
DimnDraft3D4
340
0
70
0
0
BLOCK_RECORD
5
10B
100
AcDbSymbolTableRecord
100
AcDbBlockTableRecord
2
DimnDraft3D5
340
0
70
0
0
ENDTAB
0
ENDSEC
0
SECTION
2
BLOCKS
0
BLOCK
5
20
100
AcDbEntity
8
0
100
AcDbBlockBegin
2
*Model_Space
70
0
10
0
20
0
30
0
3
*Model_Space
0
ENDBLK
5
21
100
AcDbEntity
8
0
100
AcDbBlockEnd
0
BLOCK
5
1C
100
AcDbEntity
8
0
100
AcDbBlockBegin
2
*Paper_Space
70
0
10
0
20
0
30
0
3
*Paper_Space
0
ENDBLK
5
1D
100
AcDbEntity
8
0
100
AcDbBlockEnd
0
BLOCK
5
24
100
AcDbEntity
8
0
100
AcDbBlockBegin
2
*Paper_Space0
70
0
10
0
20
0
30
0
3
*Paper_Space0
0
ENDBLK
5
25
100
AcDbEntity
8
0
100
AcDbBlockEnd
0
BLOCK
5
E9
100
AcDbEntity
8
0
100
AcDbBlockBegin
2
DimnDraft3D1
70
0
10
0
20
0
30
0
3
DimnDraft3D1
0
MTEXT
5
E2
100
AcDbEntity
8
2
62
256
6
ByLayer
370
18
48
1
60
0
100
AcDbMText
10
40.500391
20
-0.881898
30
0
210
0
220
0
230
1
1
\W0.5560;16
40
3.5
41
0
44
1.084337
50
90
71
7
72
5
7
iso_b_vert
0
LINE
5
E4
100
AcDbEntity
8
2
62
256
6
ByLayer
370
13
48
1
60
0
100
AcDbLine
10
15.461499
20
7.869624
30
0
11
43.375524
21
7.869624
31
0
39
0
210
0
220
0
230
1
0
LINE
5
E5
100
AcDbEntity
8
2
62
256
6
ByLayer
370
13
48
1
60
0
100
AcDbLine
10
16.724298
20
-8.077355
30
0
11
43.375524
21
-8.077355
31
0
39
0
210
0
220
0
230
1
0
LINE
5
E6
100
AcDbEntity
8
2
62
256
6
ByLayer
370
13
48
1
60
0
100
AcDbLine
10
41.375524
20
7.869624
30
0
11
41.375524
21
-8.077355
31
0
39
0
210
0
220
0
230
1
0
SOLID
5
E7
100
AcDbEntity
8
2
62
256
6
ByLayer
370
13
48
1
60
0
100
AcDbTrace
10
41.375524
20
7.869624
30
0
11
41.836308
21
4.369626
31
0
12
40.91474
22
4.369622
32
0
13
41.375524
23
7.869624
33
0
39
0
210
0
220
0
230
1
0
SOLID
5
E8
100
AcDbEntity
8
2
62
256
6
ByLayer
370
13
48
1
60
0
100
AcDbTrace
10
41.375524
20
-8.077355
30
0
11
40.91474
21
-4.577356
31
0
12
41.836308
22
-4.577353
32
0
13
41.375524
23
-8.077355
33
0
39
0
210
0
220
0
230
1
0
ENDBLK
5
EA
100
AcDbEntity
8
0
100
AcDbBlockEnd
0
BLOCK
5
F3
100
AcDbEntity
8
0
100
AcDbBlockBegin
2
DimnDraft3D2
70
0
10
0
20
0
30
0
3
DimnDraft3D2
0
MTEXT
5
ED
100
AcDbEntity
8
2
62
256
6
ByLayer
370
18
48
1
60
0
100
AcDbMText
10
7.220456
20
-29.777249
30
0
210
0
220
0
230
1
1
\W0.5560;16
40
3.5
41
0
44
1.084337
50
0
71
7
72
5
7
iso_b_vert
0
LINE
5
EE
100
AcDbEntity
8
2
62
256
6
ByLayer
370
13
48
1
60
0
100
AcDbLine
10
0
20
-9.457124
30
0
11
0
21
-32.652383
31
0
39
0
210
0
220
0
230
1
0
LINE
5
EF
100
AcDbEntity
8
2
62
256
6
ByLayer
370
13
48
1
60
0
100
AcDbLine
10
15.996979
20
-8.804674
30
0
11
15.996979
21
-32.652383
31
0
39
0
210
0
220
0
230
1
0
LINE
5
F0
100
AcDbEntity
8
2
62
256
6
ByLayer
370
13
48
1
60
0
100
AcDbLine
10
0
20
-30.652383
30
0
11
15.996979
21
-30.652383
31
0
39
0
210
0
220
0
230
1
0
SOLID
5
F1
100
AcDbEntity
8
2
62
256
6
ByLayer
370
13
48
1
60
0
100
AcDbTrace
10
0
20
-30.652383
30
0
11
3.499998
21
-30.191599
31
0
12
3.500002
22
-31.113166
32
0
13
0
23
-30.652383
33
0
39
0
210
0
220
0
230
1
0
SOLID
5
F2
100
AcDbEntity
8
2
62
256
6
ByLayer
370
13
48
1
60
0
100
AcDbTrace
10
15.996979
20
-30.652383
30
0
11
12.49698
21
-31.113166
31
0
12
12.496977
22
-30.191599
32
0
13
15.996979
23
-30.652383
33
0
39
0
210
0
220
0
230
1
0
ENDBLK
5
F4
100
AcDbEntity
8
0
100
AcDbBlockEnd
0
BLOCK
5
FE
100
AcDbEntity
8
0
100
AcDbBlockBegin
2
DimnDraft3D3
70
0
10
0
20
0
30
0
3
DimnDraft3D3
0
MTEXT
5
F7
100
AcDbEntity
8
SK2
62
256
6
ByLayer
370
18
48
1
60
0
100
AcDbMText
10
-118.50563
20
-0.883409
30
0
210
0
220
0
230
1
1
\W0.5560;16
40
3.5
41
0
44
1.084337
50
90
71
7
72
5
7
iso_b_vert
0
LINE
5
F9
100
AcDbEntity
8
SK2
62
256
6
ByLayer
370
13
48
1
60
0
100
AcDbLine
10
-110.5875
20
-8.080376
30
0
11
-119.630496
21
-8.080376
31
0
39
0
210
0
220
0
230
1
0
LINE
5
FA
100
AcDbEntity
8
SK2
62
256
6
ByLayer
370
13
48
1
60
0
100
AcDbLine
10
-110.5875
20
7.869624
30
0
11
-119.630496
21
7.869624
31
0
39
0
210
0
220
0
230
1
0
LINE
5
FB
100
AcDbEntity
8
SK2
62
256
6
ByLayer
370
13
48
1
60
0
100
AcDbLine
10
-117.630496
20
-8.080376
30
0
11
-117.630496
21
7.869624
31
0
39
0
210
0
220
0
230
1
0
SOLID
5
FC
100
AcDbEntity
8
SK2
62
256
6
ByLayer
370
13
48
1
60
0
100
AcDbTrace
10
-117.630496
20
-8.080376
30
0
11
-118.09128
21
-4.580378
31
0
12
-117.169712
22
-4.580374
32
0
13
-117.630496
23
-8.080376
33
0
39
0
210
0
220
0
230
1
0
SOLID
5
FD
100
AcDbEntity
8
SK2
62
256
6
ByLayer
370
13
48
1
60
0
100
AcDbTrace
10
-117.630496
20
7.869624
30
0
11
-117.169712
21
4.369626
31
0
12
-118.09128
22
4.369622
32
0
13
-117.630496
23
7.869624
33
0
39
0
210
0
220
0
230
1
0
ENDBLK
5
FF
100
AcDbEntity
8
0
100
AcDbBlockEnd
0
BLOCK
5
108
100
AcDbEntity
8
0
100
AcDbBlockBegin
2
DimnDraft3D4
70
0
10
0
20
0
30
0
3
DimnDraft3D4
0
MTEXT
5
102
100
AcDbEntity
8
SK2
62
256
6
ByLayer
370
18
48
1
60
0
100
AcDbMText
10
-48.587277
20
16.299311
30
0
210
0
220
0
230
1
1
\W0.6433;125
40
3.5
41
0
44
1.084337
50
0
71
7
72
5
7
iso_b_vert
0
LINE
5
103
100
AcDbEntity
8
SK2
62
256
6
ByLayer
370
13
48
1
60
0
100
AcDbLine
10
-109
20
9.457124
30
0
11
-109
21
17.424177
31
0
39
0
210
0
220
0
230
1
0
LINE
5
104
100
AcDbEntity
8
SK2
62
256
6
ByLayer
370
13
48
1
60
0
100
AcDbLine
10
15.996979
20
-5.629674
30
0
11
15.996979
21
17.424177
31
0
39
0
210
0
220
0
230
1
0
LINE
5
105
100
AcDbEntity
8
SK2
62
256
6
ByLayer
370
13
48
1
60
0
100
AcDbLine
10
-109
20
15.424177
30
0
11
15.996979
21
15.424177
31
0
39
0
210
0
220
0
230
1
0
SOLID
5
106
100
AcDbEntity
8
SK2
62
256
6
ByLayer
370
13
48
1
60
0
100
AcDbTrace
10
-109
20
15.424177
30
0
11
-105.500002
21
15.884961
31
0
12
-105.499998
22
14.963394
32
0
13
-109
23
15.424177
33
0
39
0
210
0
220
0
230
1
0
SOLID
5
107
100
AcDbEntity
8
SK2
62
256
6
ByLayer
370
13
48
1
60
0
100
AcDbTrace
10
15.996979
20
15.424177
30
0
11
12.49698
21
14.963394
31
0
12
12.496977
22
15.884961
32
0
13
15.996979
23
15.424177
33
0
39
0
210
0
220
0
230
1
0
ENDBLK
5
109
100
AcDbEntity
8
0
100
AcDbBlockEnd
0
BLOCK
5
112
100
AcDbEntity
8
0
100
AcDbBlockBegin
2
DimnDraft3D5
70
0
10
0
20
0
30
0
3
DimnDraft3D5
0
MTEXT
5
10C
100
AcDbEntity
8
2
62
256
6
ByLayer
370
18
48
1
60
0
100
AcDbMText
10
6.752428
20
-18.485824
30
0
210
0
220
0
230
1
1
\W0.6002;95%%d
40
3.5
41
0
44
1.084337
50
327.8470777932
71
7
72
5
7
iso_b_vert
0
LINE
5
10D
100
AcDbEntity
8
2
62
256
6
ByLayer
370
13
48
1
60
0
100
AcDbLine
10
5.526567
20
-7.236568
30
0
11
-0.483391
21
-6.710765
31
0
39
0
210
0
220
0
230
1
0
LINE
5
10E
100
AcDbEntity
8
2
62
256
6
ByLayer
370
13
48
1
60
0
100
AcDbLine
10
15.996979
20
-8.804674
30
0
11
15.996979
21
-24.695933
31
0
39
0
210
0
220
0
230
1
0
ARC
5
10F
100
AcDbEntity
8
2
62
256
6
ByLayer
370
13
48
1
60
0
100
AcDbCircle
39
0
10
15.996979
20
-8.152611
30
0
40
14.5433222401623
210
0
220
0
230
1
100
AcDbArc
50
175
51
270
0
SOLID
5
110
100
AcDbEntity
8
2
62
256
6
ByLayer
370
13
48
1
60
0
100
AcDbTrace
10
1.508998
20
-6.885077
30
0
11
1.873759
21
-10.396381
31
0
12
0.952537
22
-10.371147
32
0
13
1.508998
23
-6.885077
33
0
39
0
210
0
220
0
230
1
0
SOLID
5
111
100
AcDbEntity
8
2
62
256
6
ByLayer
370
13
48
1
60
0
100
AcDbTrace
10
15.996979
20
-22.695933
30
0
11
12.475679
21
-22.946446
31
0
12
12.530823
22
-22.02653
32
0
13
15.996979
23
-22.695933
33
0
39
0
210
0
220
0
230
1
0
ENDBLK
5
113
100
AcDbEntity
8
0
100
AcDbBlockEnd
0
ENDSEC
0
SECTION
2
ENTITIES
0
ARC
5
88
100
AcDbEntity
8
1
62
256
6
ByLayer
370
13
48
1
60
0
100
AcDbCircle
39
0
10
-14.503573
20
0.742396
30
0
40
0.793999999999985
210
0
220
0
230
-1
100
AcDbArc
50
95
51
175
0
ARC
5
89
100
AcDbEntity
8
1
62
256
6
ByLayer
370
13
48
1
60
0
100
AcDbCircle
39
0
10
-6.474801
20
1.444823
30
0
40
0.793999999999978
210
0
220
0
230
-1
100
AcDbArc
50
355
51
95
0
ARC
5
8A
100
AcDbEntity
8
1
62
256
6
ByLayer
370
13
48
1
60
0
100
AcDbCircle
39
0
10
-7.177228
20
-6.58395
30
0
40
0.793999999999985
210
0
220
0
230
-1
100
AcDbArc
50
275
51
355
0
ARC
5
8B
100
AcDbEntity
8
1
62
256
6
ByLayer
370
13
48
1
60
0
100
AcDbCircle
39
0
10
-15.206
20
-7.286376
30
0
40
0.793999999999978
210
0
220
0
230
-1
100
AcDbArc
50
175
51
275
0
ARC
5
8D
100
AcDbEntity
8
1
62
256
6
ByLayer
370
13
48
1
60
0
100
AcDbCircle
39
0
10
-7.636179
20
1.350497
30
0
40
1.64983640960441
210
0
220
0
230
-1
100
AcDbArc
50
95.25
51
158.217787
0
ARC
5
8E
100
AcDbEntity
8
1
62
256
6
ByLayer
370
13
48
1
60
0
100
AcDbCircle
39
0
10
-4.66792
20
-14.489331
30
0
40
8.10000000000014
210
0
220
0
230
-1
100
AcDbArc
50
52.300516
51
54.810232
0
ARC
5
8F
100
AcDbEntity
8
1
62
256
6
ByLayer
370
13
48
1
60
0
100
AcDbCircle
39
0
10
10.840401
20
-2.920777
30
0
40
1.6765
210
0
220
0
230
1
100
AcDbArc
50
14.840113
51
75.159887
0
ARC
5
90
100
AcDbEntity
8
1
62
256
6
ByLayer
370
13
48
1
60
0
100
AcDbCircle
39
0
10
10.840401
20
-2.920777
30
0
40
1.6765
210
0
220
0
230
1
100
AcDbArc
50
135
51
194.840113
0
ARC
5
91
100
AcDbEntity
8
1
62
256
6
ByLayer
370
13
48
1
60
0
100
AcDbCircle
39
0
10
-6.244206
20
1.675417
30
0
40
1.5
210
0
220
0
230
-1
100
AcDbArc
50
285.768136
51
120.035632
0
ARC
5
92
100
AcDbEntity
8
1
62
256
6
ByLayer
370
13
48
1
60
0
100
AcDbCircle
39
0
10
10.840401
20
-2.920777
30
0
40
1.6765
210
0
220
0
230
1
100
AcDbArc
50
255.159887
51
315
0
ARC
5
93
100
AcDbEntity
8
1
62
256
6
ByLayer
370
13
48
1
60
0
100
AcDbCircle
39
0
10
10.840401
20
-2.920777
30
0
40
1.6765
210
0
220
0
230
1
100
AcDbArc
50
194.840113
51
255.159887
0
ARC
5
95
100
AcDbEntity
8
1
62
256
6
ByLayer
370
13
48
1
60
0
100
AcDbCircle
39
0
10
4.66792
20
-14.489331
30
0
40
8.10000000000014
210
0
220
0
230
1
100
AcDbArc
50
85
51
125.189768
0
ARC
5
96
100
AcDbEntity
8
1
62
256
6
ByLayer
370
13
48
1
60
0
100
AcDbCircle
39
0
10
10.840401
20
-2.920777
30
0
40
1.2065
210
0
220
0
230
1
100
AcDbArc
50
221.044721
51
228.955279
0
ARC
5
97
100
AcDbEntity
8
1
62
256
6
ByLayer
370
13
48
1
60
0
100
AcDbCircle
39
0
10
10.840401
20
-2.920777
30
0
40
1.6765
210
0
220
0
230
1
100
AcDbArc
50
315
51
14.840113
0
ARC
5
98
100
AcDbEntity
8
1
62
256
6
ByLayer
370
13
48
1
60
0
100
AcDbCircle
39
0
10
-7.392904
20
1.372851
30
0
40
1.64983640960441
210
0
220
0
230
-1
100
AcDbArc
50
76.044442
51
95.25
0
ARC
5
99
100
AcDbEntity
8
1
62
256
6
ByLayer
370
13
48
1
60
0
100
AcDbCircle
39
0
10
10.840401
20
-2.920777
30
0
40
1.6765
210
0
220
0
230
1
100
AcDbArc
50
75.159887
51
135
0
ARC
5
9A
100
AcDbEntity
8
1
62
256
6
ByLayer
370
13
48
1
60
0
100
AcDbCircle
39
0
10
10.840401
20
-2.920777
30
0
40
1.2065
210
0
220
0
230
1
100
AcDbArc
50
41.044721
51
48.955279
0
ARC
5
9B
100
AcDbEntity
8
1
62
256
6
ByLayer
370
13
48
1
60
0
100
AcDbCircle
39
0
10
10.840401
20
-2.920777
30
0
40
1.2065
210
0
220
0
230
1
100
AcDbArc
50
164.920057
51
221.044721
0
ARC
5
9D
100
AcDbEntity
8
1
62
256
6
ByLayer
370
13
48
1
60
0
100
AcDbCircle
39
0
10
-10.840401
20
-2.920777
30
0
40
1.2065
210
0
220
0
230
-1
100
AcDbArc
50
254.920057
51
311.044721
0
ARC
5
9E
100
AcDbEntity
8
1
62
256
6
ByLayer
370
13
48
1
60
0
100
AcDbCircle
39
0
10
-10.840401
20
-2.920777
30
0
40
1.2065
210
0
220
0
230
-1
100
AcDbArc
50
195.079943
51
254.920057
0
ARC
5
9F
100
AcDbEntity
8
1
62
256
6
ByLayer
370
13
48
1
60
0
100
AcDbCircle
39
0
10
-10.840401
20
-2.920777
30
0
40
1.2065
210
0
220
0
230
-1
100
AcDbArc
50
138.955279
51
195.079943
0
ARC
5
A0
100
AcDbEntity
8
1
62
256
6
ByLayer
370
13
48
1
60
0
100
AcDbCircle
39
0
10
-10.840401
20
-2.920777
30
0
40
1.2065
210
0
220
0
230
-1
100
AcDbArc
50
74.920057
51
131.044721
0
ARC
5
A1
100
AcDbEntity
8
1
62
256
6
ByLayer
370
13
48
1
60
0
100
AcDbCircle
39
0
10
-10.840401
20
-2.920777
30
0
40
1.2065
210
0
220
0
230
-1
100
AcDbArc
50
15.079943
51
74.920057
0
ARC
5
A3
100
AcDbEntity
8
1
62
256
6
ByLayer
370
13
48
1
60
0
100
AcDbCircle
39
0
10
-4.66792
20
-14.489331
30
0
40
8.10000000000014
210
0
220
0
230
-1
100
AcDbArc
50
53.113019
51
95
0
ARC
5
AF
100
AcDbEntity
8
1
62
256
6
ByLayer
370
13
48
1
60
0
100
AcDbCircle
39
0
10
-10.348035
20
-1.093447
30
0
40
0.686
210
0
220
0
230
-1
100
AcDbArc
50
254.920057
51
299.839412
0
ARC
5
B0
100
AcDbEntity
8
1
62
256
6
ByLayer
370
13
48
1
60
0
100
AcDbCircle
39
0
10
-9.861411
20
-1.941787
30
0
40
0.292
210
0
220
0
230
-1
100
AcDbArc
50
330.160588
51
119.839412
0
ARC
5
B1
100
AcDbEntity
8
1
62
256
6
ByLayer
370
13
48
1
60
0
100
AcDbCircle
39
0
10
-9.013071
20
-2.428411
30
0
40
0.686
210
0
220
0
230
-1
100
AcDbArc
50
150.160588
51
195.079943
0
ARC
5
B2
100
AcDbEntity
8
1
62
256
6
ByLayer
370
13
48
1
60
0
100
AcDbCircle
39
0
10
-9.013071
20
-2.428411
30
0
40
0.686
210
0
220
0
230
-1
100
AcDbArc
50
195.079943
51
239.999298
0
ARC
5
B4
100
AcDbEntity
8
1
62
256
6
ByLayer
370
13
48
1
60
0
100
AcDbCircle
39
0
10
-9.502081
20
-3.275378
30
0
40
0.292
210
0
220
0
230
-1
100
AcDbArc
50
269.664065
51
59.999298
0
ARC
5
B5
100
AcDbEntity
8
1
62
256
6
ByLayer
370
13
48
1
60
0
100
AcDbCircle
39
0
10
10.840401
20
-2.920777
30
0
40
1.2065
210
0
220
0
230
1
100
AcDbArc
50
41.044721
51
48.955279
0
ARC
5
B6
100
AcDbEntity
8
1
62
256
6
ByLayer
370
13
48
1
60
0
100
AcDbCircle
39
0
10
-9.507816
20
-4.253361
30
0
40
0.686
210
0
220
0
230
-1
100
AcDbArc
50
89.664065
51
128.032029
0
ARC
5
B7
100
AcDbEntity
8
1
62
256
6
ByLayer
370
13
48
1
60
0
100
AcDbCircle
39
0
10
-12.172985
20
-1.588192
30
0
40
0.686
210
0
220
0
230
-1
100
AcDbArc
50
321.967971
51
0.335935
0
ARC
5
BA
100
AcDbEntity
8
1
62
256
6
ByLayer
370
13
48
1
60
0
100
AcDbCircle
39
0
10
-12.17872
20
-2.566175
30
0
40
0.292
210
0
220
0
230
-1
100
AcDbArc
50
89.664065
51
239.999298
0
ARC
5
BC
100
AcDbEntity
8
1
62
256
6
ByLayer
370
13
48
1
60
0
100
AcDbCircle
39
0
10
-9.507816
20
-4.253361
30
0
40
0.686
210
0
220
0
230
-1
100
AcDbArc
50
141.967971
51
180.335935
0
ARC
5
BD
100
AcDbEntity
8
1
62
256
6
ByLayer
370
13
48
1
60
0
100
AcDbCircle
39
0
10
-10.485799
20
-4.259096
30
0
40
0.292
210
0
220
0
230
-1
100
AcDbArc
50
210.000702
51
0.335935
0
ARC
5
BE
100
AcDbEntity
8
1
62
256
6
ByLayer
370
13
48
1
60
0
100
AcDbCircle
39
0
10
-11.332766
20
-4.748106
30
0
40
0.686
210
0
220
0
230
-1
100
AcDbArc
50
74.920057
51
119.839412
0
ARC
5
BF
100
AcDbEntity
8
1
62
256
6
ByLayer
370
13
48
1
60
0
100
AcDbCircle
39
0
10
-11.81939
20
-3.899766
30
0
40
0.292
210
0
220
0
230
-1
100
AcDbArc
50
150.160588
51
299.839412
0
ARC
5
C0
100
AcDbEntity
8
1
62
256
6
ByLayer
370
13
48
1
60
0
100
AcDbCircle
39
0
10
-12.66773
20
-3.413142
30
0
40
0.686
210
0
220
0
230
-1
100
AcDbArc
50
330.160588
51
15.079943
0
ARC
5
C1
100
AcDbEntity
8
1
62
256
6
ByLayer
370
13
48
1
60
0
100
AcDbCircle
39
0
10
-12.66773
20
-3.413142
30
0
40
0.686
210
0
220
0
230
-1
100
AcDbArc
50
15.079943
51
59.999298
0
ARC
5
C2
100
AcDbEntity
8
1
62
256
6
ByLayer
370
13
48
1
60
0
100
AcDbCircle
39
0
10
-12.172985
20
-1.588192
30
0
40
0.686
210
0
220
0
230
-1
100
AcDbArc
50
269.664065
51
308.032029
0
ARC
5
C3
100
AcDbEntity
8
1
62
256
6
ByLayer
370
13
48
1
60
0
100
AcDbCircle
39
0
10
-11.195002
20
-1.582458
30
0
40
0.292
210
0
220
0
230
-1
100
AcDbArc
50
30.000702
51
180.335935
0
ARC
5
C4
100
AcDbEntity
8
1
62
256
6
ByLayer
370
13
48
1
60
0
100
AcDbCircle
39
0
10
10.840401
20
-2.920777
30
0
40
1.2065
210
0
220
0
230
1
100
AcDbArc
50
221.044721
51
228.955279
0
ARC
5
C5
100
AcDbEntity
8
1
62
256
6
ByLayer
370
13
48
1
60
0
100
AcDbCircle
39
0
10
-11.332766
20
-4.748106
30
0
40
0.686
210
0
220
0
230
-1
100
AcDbArc
50
30.000702
51
74.920057
0
ARC
5
C6
100
AcDbEntity
8
1
62
256
6
ByLayer
370
13
48
1
60
0
100
AcDbCircle
39
0
10
-10.348035
20
-1.093447
30
0
40
0.686
210
0
220
0
230
-1
100
AcDbArc
50
210.000702
51
254.920057
0
CIRCLE
5
87
100
AcDbEntity
8
1
62
256
6
ByLayer
370
13
48
1
60
0
100
AcDbCircle
10
-10.840401
20
-2.920777
30
0
40
3.06293413074916
39
0
210
0
220
0
230
-1
0
CIRCLE
5
8C
100
AcDbEntity
8
1
62
256
6
ByLayer
370
13
48
1
60
0
100
AcDbCircle
10
10.840401
20
-2.920777
30
0
40
3.00605207334198
39
0
210
0
220
0
230
1
0
CIRCLE
5
94
100
AcDbEntity
8
1
62
256
6
ByLayer
370
13
48
1
60
0
100
AcDbCircle
10
10.840401
20
-2.920777
30
0
40
1.8
39
0
210
0
220
0
230
1
0
CIRCLE
5
9C
100
AcDbEntity
8
1
62
256
6
ByLayer
370
13
48
1
60
0
100
AcDbCircle
10
10.840401
20
-2.920777
30
0
40
2.625
39
0
210
0
220
0
230
1
0
CIRCLE
5
A2
100
AcDbEntity
8
1
62
256
6
ByLayer
370
13
48
1
60
0
100
AcDbCircle
10
10.840401
20
-2.920777
30
0
40
2.95049568210609
39
0
210
0
220
0
230
1
0
CIRCLE
5
A4
100
AcDbEntity
8
1
62
256
6
ByLayer
370
13
48
0.05
60
1
100
AcDbCircle
10
6.244206
20
14.06383
30
0
40
1.5
39
0
210
0
220
0
230
1
0
CIRCLE
5
A5
100
AcDbEntity
8
1
62
256
6
ByLayer
370
13
48
1
60
0
100
AcDbCircle
10
10.557558
20
-2.708645
30
0
40
1.45
39
0
210
0
220
0
230
1
0
CIRCLE
5
A6
100
AcDbEntity
8
1
62
256
6
ByLayer
370
13
48
1
60
0
100
AcDbCircle
10
10.557558
20
-2.708645
30
0
40
1.75
39
0
210
0
220
0
230
1
0
CIRCLE
5
A7
100
AcDbEntity
8
1
62
256
6
ByLayer
370
13
48
1
60
0
100
AcDbCircle
10
10.557558
20
-2.708645
30
0
40
1.75
39
0
210
0
220
0
230
1
0
CIRCLE
5
A8
100
AcDbEntity
8
1
62
256
6
ByLayer
370
13
48
1
60
0
100
AcDbCircle
10
10.557558
20
-2.708645
30
0
40
2.25
39
0
210
0
220
0
230
1
0
CIRCLE
5
A9
100
AcDbEntity
8
1
62
256
6
ByLayer
370
13
48
1
60
0
100
AcDbCircle
10
10.557558
20
-2.708645
30
0
40
2.25
39
0
210
0
220
0
230
1
0
CIRCLE
5
AA
100
AcDbEntity
8
1
62
256
6
ByLayer
370
13
48
1
60
0
100
AcDbCircle
10
10.557558
20
-2.708645
30
0
40
1.45
39
0
210
0
220
0
230
1
0
CIRCLE
5
AB
100
AcDbEntity
8
1
62
256
6
ByLayer
370
13
48
1
60
0
100
AcDbCircle
10
-10.840401
20
-2.920777
30
0
40
2.2
39
0
210
0
220
0
230
-1
0
CIRCLE
5
AC
100
AcDbEntity
8
1
62
256
6
ByLayer
370
13
48
1
60
0
100
AcDbCircle
10
10.840401
20
-2.920777
30
0
40
2.2
39
0
210
0
220
0
230
1
0
CIRCLE
5
AD
100
AcDbEntity
8
1
62
256
6
ByLayer
370
13
48
1
60
0
100
AcDbCircle
10
10.840401
20
-2.920777
30
0
40
2.625
39
0
210
0
220
0
230
1
0
CIRCLE
5
AE
100
AcDbEntity
8
1
62
256
6
ByLayer
370
13
48
1
60
0
100
AcDbCircle
10
10.840401
20
-2.920777
30
0
40
1.75
39
0
210
0
220
0
230
1
0
CIRCLE
5
B3
100
AcDbEntity
8
1
62
256
6
ByLayer
370
13
48
1
60
0
100
AcDbCircle
10
10.840401
20
-2.920777
30
0
40
1.75
39
0
210
0
220
0
230
1
0
CIRCLE
5
B8
100
AcDbEntity
8
1
62
256
6
ByLayer
370
13
48
1
60
0
100
AcDbCircle
10
10.840401
20
-2.920777
30
0
40
1.55
39
0
210
0
220
0
230
1
0
CIRCLE
5
B9
100
AcDbEntity
8
1
62
256
6
ByLayer
370
13
48
1
60
0
100
AcDbCircle
10
10.840401
20
-2.920777
30
0
40
1.81794919243113
39
0
210
0
220
0
230
1
0
CIRCLE
5
BB
100
AcDbEntity
8
1
62
256
6
ByLayer
370
13
48
1
60
0
100
AcDbCircle
10
10.840401
20
-2.920777
30
0
40
1.55
39
0
210
0
220
0
230
1
0
CIRCLE
5
C7
100
AcDbEntity
8
1
62
256
6
ByLayer
370
13
48
1
60
0
100
AcDbCircle
10
10.840401
20
-2.920777
30
0
40
1.35
39
0
210
0
220
0
230
1
0
ELLIPSE
5
C8
100
AcDbEntity
8
1
62
256
6
ByLayer
370
13
48
1
60
0
100
AcDbEllipse
10
4.667876
20
-14.489274
30
0
11
6.44145235718162
21
4.91091699783644
31
0
210
0
220
0
230
1
40
0.999996
41
1.56321011690566
42
1.57739103703745
0
POINT
5
6C
100
AcDbEntity
8
80
62
256
6
ByLayer
370
18
48
1
60
0
100
AcDbPoint
10
0
20
0
30
0
39
0
210
0
220
0
230
1
50
360
0
POINT
5
6E
100
AcDbEntity
8
81
62
256
6
ByLayer
370
18
48
1
60
0
100
AcDbPoint
10
16
20
-8.080376
30
0
39
0
210
0
220
0
230
1
50
360
0
SPLINE
5
C9
100
AcDbEntity
8
1
62
256
6
ByLayer
370
13
48
1
60
0
100
AcDbSpline
70
4
71
3
72
20
73
16
40
0
40
0
40
0
40
0
40
0.25000000000006
40
0.25000000000006
40
0.37500000000005
40
0.37500000000005
40
0.50000000000004
40
0.50000000000004
40
0.62500000000003
40
0.62500000000003
40
0.75000000000002
40
0.75000000000002
40
0.87500000000001
40
0.87500000000001
40
1
40
1
40
1
40
1
41
1
10
12.1770075225884
20
-2.27417990231875
30
0
41
1
10
12.2071626156208
20
-2.27400309580997
30
0
41
1
10
12.2370990703772
20
-2.27838922385066
30
0
41
1
10
12.2815238568831
20
-2.29242962838811
30
0
41
1
10
12.2961788402524
20
-2.2983802602263
30
0
41
1
10
12.3242241909875
20
-2.3125234591709
30
0
41
1
10
12.3377461523122
20
-2.32075176745787
30
0
41
1
10
12.3637039755344
20
-2.33967382634132
30
0
41
1
10
12.3762425535125
20
-2.35049674478606
30
0
41
1
10
12.3991282966403
20
-2.37394486181358
30
0
41
1
10
12.4095823374663
20
-2.38661556915748
30
0
41
1
10
12.4284325803282
20
-2.41391662653935
30
0
41
1
10
12.4368982768144
20
-2.42873108517568
30
0
41
1
10
12.4509754849916
20
-2.45929289821743
30
0
41
1
10
12.4566598552654
20
-2.47508336884774
30
0
41
1
10
12.4609796977733
20
-2.49138709031524
30
0
0
SPLINE
5
CA
100
AcDbEntity
8
1
62
256
6
ByLayer
370
13
48
1
60
0
100
AcDbSpline
70
4
71
3
72
18
73
14
40
0
40
0
40
0
40
0
40
0.125000000000017
40
0.125000000000017
40
0.250000000000034
40
0.250000000000034
40
0.375000000000051
40
0.375000000000051
40
0.500000000000068
40
0.500000000000068
40
0.750000000000034
40
0.750000000000034
40
1
40
1
40
1
40
1
41
1
10
11.2697900131732
20
-1.30019740571496
30
0
41
1
10
11.2860264075184
20
-1.30449940919367
30
0
41
1
10
11.3021424575618
20
-1.310307303669
30
0
41
1
10
11.3325716458581
20
-1.3243501304806
30
0
41
1
10
11.3470333059331
20
-1.33260105256062
30
0
41
1
10
11.3744728991233
20
-1.35152033874256
30
0
41
1
10
11.3873666505436
20
-1.3621700798653
30
0
41
1
10
11.4107281755009
20
-1.38499120977393
30
0
41
1
10
11.4213333359271
20
-1.39725290527013
30
0
41
1
10
11.4499850408294
20
-1.43651957572244
30
0
41
1
10
11.4640510201907
20
-1.46478923298848
30
0
41
1
10
11.4828112089986
20
-1.52415596398507
30
0
41
1
10
11.4871735779456
20
-1.55408778059649
30
0
41
1
10
11.4869972011696
20
-1.58416958089996
30
0
0
SPLINE
5
CB
100
AcDbEntity
8
1
62
256
6
ByLayer
370
13
48
1
60
0
100
AcDbSpline
70
4
71
3
72
16
73
12
40
0
40
0
40
0
40
0
40
0.250000000000005
40
0.250000000000005
40
0.374999999999993
40
0.374999999999993
40
0.499999999999981
40
0.499999999999981
40
0.74999999999999
40
0.74999999999999
40
1
40
1
40
1
40
1
41
1
10
11.6326462103242
20
-2.01083758469726
30
0
41
1
10
11.6074244120067
20
-1.97859232548388
30
0
41
1
10
11.5858242057598
20
-1.94509295069156
30
0
41
1
10
11.5581656274592
20
-1.89311435881615
30
0
41
1
10
11.5497432030875
20
-1.87549710649502
30
0
41
1
10
11.5344478878409
20
-1.83967744181971
30
0
41
1
10
11.5275778010982
20
-1.82145251429443
30
0
41
1
10
11.5095913554796
20
-1.76698402234114
30
0
41
1
10
11.500903043453
20
-1.7305754615526
30
0
41
1
10
11.489479616534
20
-1.65738472150401
30
0
41
1
10
11.4867837889911
20
-1.62056792473308
30
0
41
1
10
11.4869972011697
20
-1.58416958089997
30
0
0
SPLINE
5
CC
100
AcDbEntity
8
1
62
256
6
ByLayer
370
13
48
1
60
0
100
AcDbSpline
70
4
71
3
72
14
73
10
40
0
40
0
40
0
40
0
40
0.25
40
0.25
40
0.5
40
0.5
40
0.75
40
0.75
40
1
40
1
40
1
40
1
41
1
10
12.1770075225884
20
-2.27417990231875
30
0
41
1
10
12.140621433909
20
-2.27439324264241
30
0
41
1
10
12.1042750483584
20
-2.27173442138534
30
0
41
1
10
12.0315027061745
20
-2.26045237148457
30
0
41
1
10
11.9950431881038
20
-2.25182815275279
30
0
41
1
10
11.9219400770957
20
-2.22776422669201
30
0
41
1
10
11.8862901419507
20
-2.2126522221142
30
0
41
1
10
11.8167502336528
20
-2.17576435084105
30
0
41
1
10
11.7825917058593
20
-2.15375811035446
30
0
41
1
10
11.7503395187912
20
-2.12853089316426
30
0
0
SPLINE
5
CD
100
AcDbEntity
8
1
62
256
6
ByLayer
370
13
48
1
60
0
100
AcDbSpline
70
4
71
3
72
20
73
16
40
0
40
0
40
0
40
0
40
0.249999999999994
40
0.249999999999994
40
0.374999999999995
40
0.374999999999995
40
0.499999999999996
40
0.499999999999996
40
0.624999999999997
40
0.624999999999997
40
0.749999999999998
40
0.749999999999998
40
0.874999999999999
40
0.874999999999999
40
1
40
1
40
1
40
1
41
1
10
10.9421245901858
20
-1.43645444788985
30
0
41
1
10
10.9570786820477
20
-1.41055393349584
30
0
41
1
10
10.9758017885045
20
-1.3871024929474
30
0
41
1
10
11.0099843630919
20
-1.35602985433875
30
0
41
1
10
11.0223925228116
20
-1.34642256412055
30
0
41
1
10
11.0484823932726
20
-1.32939913245569
30
0
41
1
10
11.0622613211305
20
-1.32188663694051
30
0
41
1
10
11.0913708605835
20
-1.30900209026484
30
0
41
1
10
11.1068706576238
20
-1.30360133774991
30
0
41
1
10
11.1383497170975
20
-1.29554562377656
30
0
41
1
10
11.1544023468125
20
-1.29282746915355
30
0
41
1
10
11.1871481660659
20
-1.29010117960439
30
0
41
1
10
11.2040382664479
20
-1.29012103088513
30
0
41
1
10
11.2372731555994
20
-1.29305219668631
30
0
41
1
10
11.253651498629
20
-1.29592133651919
30
0
41
1
10
11.2697900131732
20
-1.30019740571496
30
0
0
SPLINE
5
CE
100
AcDbEntity
8
1
62
256
6
ByLayer
370
13
48
1
60
0
100
AcDbSpline
70
4
71
3
72
18
73
14
40
0
40
0
40
0
40
0
40
0.125000000000026
40
0.125000000000026
40
0.250000000000053
40
0.250000000000053
40
0.375000000000079
40
0.375000000000079
40
0.500000000000106
40
0.500000000000106
40
0.750000000000053
40
0.750000000000053
40
1
40
1
40
1
40
1
41
1
10
9.65493599116508
20
-1.73531207500488
30
0
41
1
10
9.66670059147143
20
-1.7235474746985
30
0
41
1
10
9.67968509066617
20
-1.71262523513332
30
0
41
1
10
9.70682943018701
20
-1.6935049861192
30
0
41
1
10
9.72107396158341
20
-1.68519056532644
30
0
41
1
10
9.75088199605509
20
-1.67101115746313
30
0
41
1
10
9.76641144660285
20
-1.6651991215583
30
0
41
1
10
9.79756031925882
20
-1.65639452218576
30
0
41
1
10
9.81332710069933
20
-1.65332685076819
30
0
41
1
10
9.86117349986428
20
-1.64802906479374
30
0
41
1
10
9.89242617172491
20
-1.64980044533557
30
0
41
1
10
9.95283426250806
20
-1.66275312507538
30
0
41
1
10
9.98082401886852
20
-1.67365561286325
30
0
41
1
10
10.0067018299188
20
-1.68849962313953
30
0
0
SPLINE
5
CF
100
AcDbEntity
8
1
62
256
6
ByLayer
370
13
48
1
60
0
100
AcDbSpline
70
4
71
3
72
28
73
24
40
0
40
0
40
0
40
0
40
0.124999999999995
40
0.124999999999995
40
0.187499999999992
40
0.187499999999992
40
0.24999999999999
40
0.24999999999999
40
0.374999999999985
40
0.374999999999985
40
0.437499999999983
40
0.437499999999983
40
0.49999999999998
40
0.49999999999998
40
0.624999999999975
40
0.624999999999975
40
0.687499999999991
40
0.687499999999991
40
0.750000000000006
40
0.750000000000006
40
0.875000000000003
40
0.875000000000003
40
1
40
1
40
1
40
1
41
1
10
10.9421245901858
20
-1.43645444788984
30
0
41
1
10
10.921004711076
20
-1.47303411704889
30
0
41
1
10
10.8965775771085
20
-1.50762576235427
30
0
41
1
10
10.8545981073143
20
-1.55653658382406
30
0
41
1
10
10.8397081945499
20
-1.57234104660945
30
0
41
1
10
10.8079621597388
20
-1.60290655023221
30
0
41
1
10
10.7910547264873
20
-1.61769196329398
30
0
41
1
10
10.7382856605442
20
-1.6594080646683
30
0
41
1
10
10.7000876820369
20
-1.68407966480711
30
0
41
1
10
10.637460819672
20
-1.71584318752673
30
0
41
1
10
10.6158561466765
20
-1.72544149021713
30
0
41
1
10
10.5721184926013
20
-1.74223954358538
30
0
41
1
10
10.5498508144813
20
-1.74950972364534
30
0
41
1
10
10.481840520118
20
-1.76790871202472
30
0
41
1
10
10.4343148128623
20
-1.77558263727069
30
0
41
1
10
10.3647686110635
20
-1.7796360914841
30
0
41
1
10
10.3417303259046
20
-1.77980139125864
30
0
41
1
10
10.295908364955
20
-1.77784810990478
30
0
41
1
10
10.2730526319074
20
-1.77570590087324
30
0
41
1
10
10.2064230634439
20
-1.76616961574465
30
0
41
1
10
10.1640164911845
20
-1.75571240328689
30
0
41
1
10
10.0824755959438
20
-1.72743155015278
30
0
41
1
10
10.0433668294161
20
-1.70953137224161
30
0
41
1
10
10.0067018299188
20
-1.68849962313958
30
0
0
SPLINE
5
D0
100
AcDbEntity
8
1
62
256
6
ByLayer
370
13
48
1
60
0
100
AcDbSpline
70
4
71
3
72
18
73
14
40
0
40
0
40
0
40
0
40
0.125000000000002
40
0.125000000000002
40
0.250000000000004
40
0.250000000000004
40
0.375000000000006
40
0.375000000000006
40
0.500000000000008
40
0.500000000000008
40
0.750000000000004
40
0.750000000000004
40
1
40
1
40
1
40
1
41
1
10
12.4609796977733
20
-2.49138709031524
30
0
41
1
10
12.465244625594
20
-2.50748355566961
30
0
41
1
10
12.4681625490342
20
-2.52419819217922
30
0
41
1
10
12.4710545236357
20
-2.55725549265164
30
0
41
1
10
12.4710884413993
20
-2.57375359128538
30
0
41
1
10
12.4683672497773
20
-2.60668680055648
30
0
41
1
10
12.465591898492
20
-2.62300901085092
30
0
41
1
10
12.4575552847618
20
-2.65435932219161
30
0
41
1
10
12.4522837762899
20
-2.669542116148
30
0
41
1
10
12.4327942581659
20
-2.71362898019808
30
0
41
1
10
12.4155578337315
20
-2.73974008663896
30
0
41
1
10
12.374022560191
20
-2.78543269029234
30
0
41
1
10
12.3505598461427
20
-2.80413498251634
30
0
41
1
10
12.3247226555985
20
-2.81905251330259
30
0
0
SPLINE
5
D1
100
AcDbEntity
8
1
62
256
6
ByLayer
370
13
48
1
60
0
100
AcDbSpline
70
4
71
3
72
28
73
24
40
0
40
0
40
0
40
0
40
0.124999999999999
40
0.124999999999999
40
0.187499999999999
40
0.187499999999999
40
0.249999999999999
40
0.249999999999999
40
0.375000000000005
40
0.375000000000005
40
0.43750000000001
40
0.43750000000001
40
0.500000000000016
40
0.500000000000016
40
0.625000000000021
40
0.625000000000021
40
0.687500000000016
40
0.687500000000016
40
0.750000000000012
40
0.750000000000012
40
0.875000000000006
40
0.875000000000006
40
1
40
1
40
1
40
1
41
1
10
12.0726774803489
20
-3.75447527356949
30
0
41
1
10
12.051660658608
20
-3.71783629719004
30
0
41
1
10
12.0340243485386
20
-3.67933659178128
30
0
41
1
10
12.012825847445
20
-3.61846650129227
30
0
41
1
10
12.00664179745
20
-3.59765188906527
30
0
41
1
10
11.9961637204918
20
-3.55484685756895
30
0
41
1
10
11.9918744003746
20
-3.53279982927926
30
0
41
1
10
11.9823174991524
20
-3.4662154998763
30
0
41
1
10
11.9801770004623
20
-3.42079312995721
30
0
41
1
10
11.9841780672535
20
-3.35068580514842
30
0
41
1
10
11.9867336238298
20
-3.32718349936041
30
0
41
1
10
11.9941840190334
20
-3.28092716443117
30
0
41
1
10
11.9990856362998
20
-3.25802128855138
30
0
41
1
10
12.0173467525535
20
-3.18997384471398
30
0
41
1
10
12.0345892870906
20
-3.14502635302974
30
0
41
1
10
12.0660255984169
20
-3.0828583309341
30
0
41
1
10
12.0774574497463
20
-3.06285576390996
30
0
41
1
10
12.1021679377002
20
-3.02421822707796
30
0
41
1
10
12.1155032059552
20
-3.00553282611888
30
0
41
1
10
12.1572242097345
20
-2.9527142888674
30
0
41
1
10
12.1875714821909
20
-2.92130228912193
30
0
41
1
10
12.2529912126607
20
-2.86500856558084
30
0
41
1
10
12.2881170060432
20
-2.84018739262548
30
0
41
1
10
12.3247226555985
20
-2.8190525133027
30
0
0
SPLINE
5
D2
100
AcDbEntity
8
1
62
256
6
ByLayer
370
13
48
1
60
0
100
AcDbSpline
70
4
71
3
72
20
73
16
40
0
40
0
40
0
40
0
40
0.249999999999992
40
0.249999999999992
40
0.374999999999994
40
0.374999999999994
40
0.499999999999995
40
0.499999999999995
40
0.624999999999996
40
0.624999999999996
40
0.749999999999997
40
0.749999999999997
40
0.874999999999999
40
0.874999999999999
40
1
40
1
40
1
40
1
41
1
10
12.0726774803487
20
-3.75447527356957
30
0
41
1
10
12.0875586012458
20
-3.78041778018493
30
0
41
1
10
12.098428580125
20
-3.80838862796274
30
0
41
1
10
12.1081209863361
20
-3.85355515035905
30
0
41
1
10
12.110193664071
20
-3.86911042033413
30
0
41
1
10
12.1118046433573
20
-3.90022124271065
30
0
41
1
10
12.1113774117455
20
-3.91590926099207
30
0
41
1
10
12.1078926739956
20
-3.94755153502742
30
0
41
1
10
12.1047749825767
20
-3.96366649236609
30
0
41
1
10
12.0959246254729
20
-3.99493143786911
30
0
41
1
10
12.0902097371241
20
-4.01017661198507
30
0
41
1
10
12.076114977596
20
-4.03985925245505
30
0
41
1
10
12.0676119778655
20
-4.05445291231334
30
0
41
1
10
12.0483799160668
20
-4.08171602504049
30
0
41
1
10
12.0376704601973
20
-4.09443568060941
30
0
41
1
10
12.0258650284835
20
-4.10624111232326
30
0
0
SPLINE
5
D3
100
AcDbEntity
8
1
62
256
6
ByLayer
370
13
48
1
60
0
100
AcDbSpline
70
4
71
3
72
18
73
14
40
0
40
0
40
0
40
0
40
0.124999999999986
40
0.124999999999986
40
0.249999999999971
40
0.249999999999971
40
0.374999999999957
40
0.374999999999957
40
0.499999999999942
40
0.499999999999942
40
0.749999999999971
40
0.749999999999971
40
1
40
1
40
1
40
1
41
1
10
10.4110110064754
20
-4.54135578161319
30
0
41
1
10
10.3947746121302
20
-4.53705377813449
30
0
41
1
10
10.3786585620868
20
-4.53124588365916
30
0
41
1
10
10.3482293737905
20
-4.51720305684757
30
0
41
1
10
10.3337677137155
20
-4.50895213476755
30
0
41
1
10
10.3063281205253
20
-4.49003284858561
30
0
41
1
10
10.2934343691049
20
-4.47938310746286
30
0
41
1
10
10.2700728441477
20
-4.45656197755423
30
0
41
1
10
10.2594676837215
20
-4.44430028205803
30
0
41
1
10
10.2308159788192
20
-4.40503361160571
30
0
41
1
10
10.2167499994579
20
-4.37676395433967
30
0
41
1
10
10.19798981065
20
-4.31739722334312
30
0
41
1
10
10.193627441703
20
-4.28746540673171
30
0
41
1
10
10.1938038184789
20
-4.25738360642824
30
0
0
SPLINE
5
D4
100
AcDbEntity
8
1
62
256
6
ByLayer
370
13
48
1
60
0
100
AcDbSpline
70
4
71
3
72
16
73
12
40
0
40
0
40
0
40
0
40
0.250000000000034
40
0.250000000000034
40
0.375000000000034
40
0.375000000000034
40
0.500000000000034
40
0.500000000000034
40
0.750000000000017
40
0.750000000000017
40
1
40
1
40
1
40
1
41
1
10
10.0481548093246
20
-3.83071560263083
30
0
41
1
10
10.0733766076422
20
-3.86296086184421
30
0
41
1
10
10.094976813889
20
-3.89646023663653
30
0
41
1
10
10.1226353921896
20
-3.94843882851194
30
0
41
1
10
10.1310578165614
20
-3.96605608083307
30
0
41
1
10
10.1463531318079
20
-4.00187574550838
30
0
41
1
10
10.1532232185506
20
-4.02010067303374
30
0
41
1
10
10.1712096641693
20
-4.07456916498702
30
0
41
1
10
10.1798979761958
20
-4.11097772577557
30
0
41
1
10
10.1913214031149
20
-4.18416846582415
30
0
41
1
10
10.1940172306577
20
-4.22098526259513
30
0
41
1
10
10.1938038184791
20
-4.25738360642823
30
0
0
SPLINE
5
D5
100
AcDbEntity
8
1
62
256
6
ByLayer
370
13
48
1
60
0
100
AcDbSpline
70
4
71
3
72
14
73
10
40
0
40
0
40
0
40
0
40
0.25
40
0.25
40
0.5
40
0.5
40
0.75
40
0.75
40
1
40
1
40
1
40
1
41
1
10
9.50379349706019
20
-3.56737328500939
30
0
41
1
10
9.54017958573961
20
-3.56715994468572
30
0
41
1
10
9.57652597129012
20
-3.56981876594278
30
0
41
1
10
9.64929831347411
20
-3.58110081584351
30
0
41
1
10
9.68575783154488
20
-3.5897250345753
30
0
41
1
10
9.75886094255289
20
-3.61378896063604
30
0
41
1
10
9.79451087769787
20
-3.62890096521385
30
0
41
1
10
9.86405078599579
20
-3.66578883648698
30
0
41
1
10
9.89820931378941
20
-3.68779507697358
30
0
41
1
10
9.93046150085748
20
-3.71302229416377
30
0
0
SPLINE
5
D6
100
AcDbEntity
8
1
62
256
6
ByLayer
370
13
48
1
60
0
100
AcDbSpline
70
4
71
3
72
20
73
16
40
0
40
0
40
0
40
0
40
0.24999999999999
40
0.24999999999999
40
0.374999999999991
40
0.374999999999991
40
0.499999999999993
40
0.499999999999993
40
0.624999999999995
40
0.624999999999995
40
0.749999999999997
40
0.749999999999997
40
0.874999999999998
40
0.874999999999998
40
1
40
1
40
1
40
1
41
1
10
9.5037934970602
20
-3.56737328500939
30
0
41
1
10
9.47363840402781
20
-3.56755009151819
30
0
41
1
10
9.4437019492714
20
-3.56316396347751
30
0
41
1
10
9.3992771627654
20
-3.54912355894008
30
0
41
1
10
9.38462217939615
20
-3.54317292710189
30
0
41
1
10
9.35657682866098
20
-3.5290297281573
30
0
41
1
10
9.34305486733631
20
-3.52080141987033
30
0
41
1
10
9.31709704411409
20
-3.50187936098689
30
0
41
1
10
9.304558466136
20
-3.49105644254214
30
0
41
1
10
9.2816727230081
20
-3.46760832551462
30
0
41
1
10
9.27121868218219
20
-3.45493761817072
30
0
41
1
10
9.25236843932028
20
-3.42763656078887
30
0
41
1
10
9.24390274283402
20
-3.4128221021525
30
0
41
1
10
9.22982553465685
20
-3.38226028911076
30
0
41
1
10
9.22414116438306
20
-3.36646981848045
30
0
41
1
10
9.21982132187509
20
-3.35016609701296
30
0
0
SPLINE
5
D7
100
AcDbEntity
8
1
62
256
6
ByLayer
370
13
48
1
60
0
100
AcDbSpline
70
4
71
3
72
18
73
14
40
0
40
0
40
0
40
0
40
0.125000000000026
40
0.125000000000026
40
0.250000000000053
40
0.250000000000053
40
0.375000000000079
40
0.375000000000079
40
0.500000000000106
40
0.500000000000106
40
0.750000000000053
40
0.750000000000053
40
1
40
1
40
1
40
1
41
1
10
12.0258650284835
20
-4.10624111232326
30
0
41
1
10
12.0141004281772
20
-4.11800571262964
30
0
41
1
10
12.0011159289824
20
-4.12892795219482
30
0
41
1
10
11.9739715894615
20
-4.14804820120893
30
0
41
1
10
11.9597270580651
20
-4.15636262200169
30
0
41
1
10
11.9299190235935
20
-4.17054202986501
30
0
41
1
10
11.9143895730457
20
-4.17635406576983
30
0
41
1
10
11.8832407003897
20
-4.18515866514238
30
0
41
1
10
11.8674739189493
20
-4.18822633655994
30
0
41
1
10
11.8196275197843
20
-4.1935241225344
30
0
41
1
10
11.7883748479237
20
-4.19175274199257
30
0
41
1
10
11.7279667571406
20
-4.17880006225276
30
0
41
1
10
11.6999770007801
20
-4.16789757446488
30
0
41
1
10
11.6740991897298
20
-4.15305356418861
30
0
0
SPLINE
5
D8
100
AcDbEntity
8
1
62
256
6
ByLayer
370
13
48
1
60
0
100
AcDbSpline
70
4
71
3
72
28
73
24
40
0
40
0
40
0
40
0
40
0.125000000000008
40
0.125000000000008
40
0.187500000000001
40
0.187500000000001
40
0.249999999999995
40
0.249999999999995
40
0.375000000000002
40
0.375000000000002
40
0.437500000000007
40
0.437500000000007
40
0.500000000000012
40
0.500000000000012
40
0.625000000000056
40
0.625000000000056
40
0.687500000000059
40
0.687500000000059
40
0.750000000000062
40
0.750000000000062
40
0.875000000000031
40
0.875000000000031
40
1
40
1
40
1
40
1
41
1
10
10.7386764294629
20
-4.40509873943824
30
0
41
1
10
10.7597963085727
20
-4.3685190702792
30
0
41
1
10
10.7842234425401
20
-4.33392742497382
30
0
41
1
10
10.8262029123344
20
-4.28501660350403
30
0
41
1
10
10.8410928250987
20
-4.26921214071864
30
0
41
1
10
10.8728388599098
20
-4.23864663709588
30
0
41
1
10
10.8897462931614
20
-4.22386122403413
30
0
41
1
10
10.9425153591045
20
-4.18214512265981
30
0
41
1
10
10.9807133376118
20
-4.15747352252101
30
0
41
1
10
11.0433401999767
20
-4.1257099998014
30
0
41
1
10
11.0649448729722
20
-4.11611169711099
30
0
41
1
10
11.1086825270474
20
-4.09931364374275
30
0
41
1
10
11.1309502051673
20
-4.0920434636828
30
0
41
1
10
11.1989604995307
20
-4.07364447530343
30
0
41
1
10
11.2464862067863
20
-4.06597055005746
30
0
41
1
10
11.3160324085851
20
-4.06191709584405
30
0
41
1
10
11.339070693744
20
-4.06175179606951
30
0
41
1
10
11.3848926546937
20
-4.06370507742337
30
0
41
1
10
11.4077483877412
20
-4.06584728645491
30
0
41
1
10
11.4743779562047
20
-4.07538357158349
30
0
41
1
10
11.5167845284641
20
-4.08584078404125
30
0
41
1
10
11.5983254237048
20
-4.11412163717537
30
0
41
1
10
11.6374341902325
20
-4.13202181508653
30
0
41
1
10
11.6740991897298
20
-4.15305356418856
30
0
0
SPLINE
5
D9
100
AcDbEntity
8
1
62
256
6
ByLayer
370
13
48
1
60
0
100
AcDbSpline
70
4
71
3
72
20
73
16
40
0
40
0
40
0
40
0
40
0.249999999999992
40
0.249999999999992
40
0.374999999999994
40
0.374999999999994
40
0.499999999999995
40
0.499999999999995
40
0.624999999999996
40
0.624999999999996
40
0.749999999999997
40
0.749999999999997
40
0.874999999999999
40
0.874999999999999
40
1
40
1
40
1
40
1
41
1
10
10.7386764294629
20
-4.40509873943823
30
0
41
1
10
10.723722337601
20
-4.43099925383225
30
0
41
1
10
10.7049992311441
20
-4.4544506943807
30
0
41
1
10
10.6708166565568
20
-4.48552333298937
30
0
41
1
10
10.6584084968371
20
-4.49513062320756
30
0
41
1
10
10.632318626376
20
-4.51215405487244
30
0
41
1
10
10.6185396985181
20
-4.51966655038763
30
0
41
1
10
10.5894301590651
20
-4.53255109706332
30
0
41
1
10
10.5739303620249
20
-4.53795184957824
30
0
41
1
10
10.5424513025511
20
-4.5460075635516
30
0
41
1
10
10.5263986728361
20
-4.54872571817461
30
0
41
1
10
10.4936528535827
20
-4.55145200772377
30
0
41
1
10
10.4767627532008
20
-4.55143215644304
30
0
41
1
10
10.4435278640491
20
-4.54850099064185
30
0
41
1
10
10.4271495210195
20
-4.54563185080897
30
0
41
1
10
10.4110110064754
20
-4.54135578161319
30
0
0
SPLINE
5
DA
100
AcDbEntity
8
1
62
256
6
ByLayer
370
13
48
1
60
0
100
AcDbSpline
70
4
71
3
72
18
73
14
40
0
40
0
40
0
40
0
40
0.125000000000003
40
0.125000000000003
40
0.250000000000006
40
0.250000000000006
40
0.375000000000008
40
0.375000000000008
40
0.500000000000011
40
0.500000000000011
40
0.750000000000006
40
0.750000000000006
40
1
40
1
40
1
40
1
41
1
10
9.21982132187509
20
-3.35016609701296
30
0
41
1
10
9.21555639405446
20
-3.33406963165859
30
0
41
1
10
9.21263847061428
20
-3.31735499514893
30
0
41
1
10
9.20974649601273
20
-3.2842976946765
30
0
41
1
10
9.20971257824912
20
-3.26779959604277
30
0
41
1
10
9.21243376987113
20
-3.23486638677167
30
0
41
1
10
9.21520912115642
20
-3.21854417647719
30
0
41
1
10
9.22324573488666
20
-3.1871938651365
30
0
41
1
10
9.22851724335851
20
-3.17201107118011
30
0
41
1
10
9.24800676148251
20
-3.12792420713004
30
0
41
1
10
9.26524318591693
20
-3.10181310068909
30
0
41
1
10
9.30677845945749
20
-3.05612049703572
30
0
41
1
10
9.3302411735058
20
-3.03741820481172
30
0
41
1
10
9.35607836405001
20
-3.02250067402549
30
0
0
SPLINE
5
DB
100
AcDbEntity
8
1
62
256
6
ByLayer
370
13
48
1
60
0
100
AcDbSpline
70
4
71
3
72
28
73
24
40
0
40
0
40
0
40
0
40
0.125000000000004
40
0.125000000000004
40
0.187500000000008
40
0.187500000000008
40
0.250000000000011
40
0.250000000000011
40
0.375000000000015
40
0.375000000000015
40
0.43750000000002
40
0.43750000000002
40
0.500000000000024
40
0.500000000000024
40
0.625000000000029
40
0.625000000000029
40
0.687500000000023
40
0.687500000000023
40
0.750000000000017
40
0.750000000000017
40
0.875000000000008
40
0.875000000000008
40
1
40
1
40
1
40
1
41
1
10
9.60812353929987
20
-2.08707791375855
30
0
41
1
10
9.62914036104081
20
-2.123716890138
30
0
41
1
10
9.64677667111015
20
-2.16221659554675
30
0
41
1
10
9.66797517220378
20
-2.22308668603575
30
0
41
1
10
9.67415922219884
20
-2.24390129826275
30
0
41
1
10
9.68463729915703
20
-2.28670632975906
30
0
41
1
10
9.68892661927423
20
-2.30875335804882
30
0
41
1
10
9.69848352049641
20
-2.37533768745178
30
0
41
1
10
9.70062401918651
20
-2.42076005737086
30
0
41
1
10
9.69662295239534
20
-2.49086738217965
30
0
41
1
10
9.69406739581898
20
-2.51436968796777
30
0
41
1
10
9.68661700061536
20
-2.56062602289699
30
0
41
1
10
9.681715383349
20
-2.58353189877679
30
0
41
1
10
9.66345426709536
20
-2.65157934261418
30
0
41
1
10
9.64621173255816
20
-2.6965268342985
30
0
41
1
10
9.61477542123185
20
-2.75869485639414
30
0
41
1
10
9.60334356990246
20
-2.77869742341827
30
0
41
1
10
9.5786330819486
20
-2.81733496025026
30
0
41
1
10
9.56529781369356
20
-2.83602036120942
30
0
41
1
10
9.52357680991419
20
-2.88883889846087
30
0
41
1
10
9.49322953745784
20
-2.92025089820633
30
0
41
1
10
9.42780980698798
20
-2.97654462174743
30
0
41
1
10
9.3926840136054
20
-3.00136579470278
30
0
41
1
10
9.35607836405006
20
-3.02250067402555
30
0
0
SPLINE
5
DC
100
AcDbEntity
8
1
62
256
6
ByLayer
370
13
48
1
60
0
100
AcDbSpline
70
4
71
3
72
20
73
16
40
0
40
0
40
0
40
0
40
0.249999999999992
40
0.249999999999992
40
0.374999999999994
40
0.374999999999994
40
0.499999999999995
40
0.499999999999995
40
0.624999999999996
40
0.624999999999996
40
0.749999999999997
40
0.749999999999997
40
0.874999999999999
40
0.874999999999999
40
1
40
1
40
1
40
1
41
1
10
9.60812353929987
20
-2.08707791375855
30
0
41
1
10
9.59324241840277
20
-2.06113540714319
30
0
41
1
10
9.58237243952365
20
-2.03316455936539
30
0
41
1
10
9.57268003331245
20
-1.98799803696907
30
0
41
1
10
9.57060735557747
20
-1.97244276699399
30
0
41
1
10
9.56899637629124
20
-1.94133194461748
30
0
41
1
10
9.569423607903
20
-1.92564392633606
30
0
41
1
10
9.57290834565308
20
-1.89400165230074
30
0
41
1
10
9.57602603707196
20
-1.87788669496202
30
0
41
1
10
9.58487639417571
20
-1.84662174945902
30
0
41
1
10
9.59059128252453
20
-1.83137657534307
30
0
41
1
10
9.60468604205262
20
-1.8016939348731
30
0
41
1
10
9.61318904178322
20
-1.78710027501478
30
0
41
1
10
9.63242110358172
20
-1.75983716228763
30
0
41
1
10
9.64313055945128
20
-1.74711750671872
30
0
41
1
10
9.65493599116508
20
-1.73531207500488
30
0
0
LINE
5
70
100
AcDbEntity
8
1
62
256
6
ByLayer
370
13
48
1
60
0
100
AcDbLine
10
15.996979
20
-7.217174
30
0
11
15.294552
21
0.811598
31
0
39
0
210
0
220
0
230
1
0
LINE
5
72
100
AcDbEntity
8
1
62
256
6
ByLayer
370
13
48
1
60
0
100
AcDbLine
10
7.108026
20
-7.374928
30
0
11
15.136798
21
-8.077355
31
0
39
0
210
0
220
0
230
1
0
LINE
5
73
100
AcDbEntity
8
1
62
256
6
ByLayer
370
13
48
1
60
0
100
AcDbLine
10
0
20
7.869624
30
0
11
0
21
-7.869624
31
0
39
0
210
0
220
0
230
1
0
LINE
5
74
100
AcDbEntity
8
SK1
62
256
6
ByLayer
370
13
48
1
60
0
100
AcDbLine
10
0
20
7.869624
30
0
11
-109
21
7.869624
31
0
39
0
210
0
220
0
230
1
0
LINE
5
76
100
AcDbEntity
8
SK1
62
256
6
ByLayer
370
13
48
1
60
0
100
AcDbLine
10
-109
20
-8.080376
30
0
11
-0.285392
21
-8.080376
31
0
39
0
210
0
220
0
230
1
0
LINE
5
77
100
AcDbEntity
8
1
62
256
6
ByLayer
370
13
48
1
60
0
100
AcDbLine
10
-109
20
7.869624
30
0
11
-109
21
-8.080376
31
0
39
0
210
0
220
0
230
1
0
LINE
5
78
100
AcDbEntity
8
1
62
256
6
ByLayer
370
13
48
1
60
0
100
AcDbLine
10
13.873999
20
7.869624
30
0
11
-109
21
7.869624
31
0
39
0
210
0
220
0
230
1
0
LINE
5
79
100
AcDbEntity
8
1
62
256
6
ByLayer
370
13
48
1
60
0
100
AcDbLine
10
7.787142
20
2.993412
30
0
11
7.543867
21
3.015766
31
0
39
0
210
0
220
0
230
1
0
LINE
5
7A
100
AcDbEntity
8
1
62
256
6
ByLayer
370
13
48
1
60
0
100
AcDbLine
10
5.373881
20
-6.420154
30
0
11
6.426623
21
-6.512257
31
0
39
0
210
0
220
0
230
1
0
LINE
5
7B
100
AcDbEntity
8
1
62
256
6
ByLayer
370
13
48
0.05
60
1
100
AcDbLine
10
14.433111
20
14.260306
30
0
11
13.873999
21
7.869624
31
0
39
0
210
0
220
0
230
1
0
LINE
5
7C
100
AcDbEntity
8
1
62
256
6
ByLayer
370
13
48
1
60
0
100
AcDbLine
10
13.873999
20
7.869624
30
0
11
0
21
7.869624
31
0
39
0
210
0
220
0
230
1
0
LINE
5
7D
100
AcDbEntity
8
1
62
256
6
ByLayer
370
13
48
1
60
0
100
AcDbLine
10
5.683822
20
1.375621
30
0
11
6.386249
21
-6.653151
31
0
39
0
210
0
220
0
230
1
0
LINE
5
7E
100
AcDbEntity
8
1
62
256
6
ByLayer
370
13
48
1
60
0
100
AcDbLine
10
14.572775
20
1.533375
30
0
11
6.544003
21
2.235801
31
0
39
0
210
0
220
0
230
1
0
LINE
5
7F
100
AcDbEntity
8
SK1
62
256
6
ByLayer
370
13
48
1
60
0
100
AcDbLine
10
-109
20
7.869624
30
0
11
-109
21
-8.010781
31
0
39
0
210
0
220
0
230
1
0
LINE
5
80
100
AcDbEntity
8
1
62
256
6
ByLayer
370
13
48
1
60
0
100
AcDbLine
10
6.426623
20
-6.512257
30
0
11
5.373881
21
-6.420154
31
0
39
0
210
0
220
0
230
1
0
LINE
5
81
100
AcDbEntity
8
1
62
256
6
ByLayer
370
13
48
1
60
0
100
AcDbLine
10
-0.194012
20
-8.010781
30
0
11
-109
21
-8.010781
31
0
39
0
210
0
220
0
230
1
0
LINE
5
82
100
AcDbEntity
8
1
62
256
6
ByLayer
370
13
48
1
60
0
100
AcDbLine
10
-109
20
-8.080376
30
0
11
-109
21
-8.010781
31
0
39
0
210
0
220
0
230
1
0
LINE
5
83
100
AcDbEntity
8
1
62
256
6
ByLayer
370
13
48
1
60
0
100
AcDbLine
10
0
20
-7.869624
30
0
11
0
21
7.869624
31
0
39
0
210
0
220
0
230
1
0
LINE
5
84
100
AcDbEntity
8
1
62
256
6
ByLayer
370
13
48
1
60
0
100
AcDbLine
10
13.873999
20
7.869624
30
0
11
14.433111
21
1.478942
31
0
39
0
210
0
220
0
230
1
0
LINE
5
85
100
AcDbEntity
8
80
62
256
6
ByLayer
370
18
48
1
60
0
100
AcDbLine
10
0
20
0
30
0
11
-7
21
-0.080366
31
0
39
0
210
0
220
0
230
1
0
LINE
5
86
100
AcDbEntity
8
81
62
256
6
ByLayer
370
18
48
1
60
0
100
AcDbLine
10
16
20
-8.080376
30
0
11
22.879115
21
-8.080376
31
0
39
0
210
0
220
0
230
1
0
MTEXT
5
DD
100
AcDbEntity
8
SK6
62
256
6
ByLayer
370
18
48
1
60
0
100
AcDbMText
10
-65.422348
20
-24.079988
30
0
210
0
220
0
230
1
1
\W0.7452;SCLCL 1616K 09-S
40
3.5
41
0
44
1.084337
50
0
71
7
72
5
7
iso_b_vert
0
DIMENSION
5
EB
100
AcDbEntity
8
2
62
256
6
ByLayer
370
13
48
1
60
0
100
AcDbDimension
2
DimnDraft3D1
10
41.375524
20
-8.077355
30
0
11
41.375524
21
-1.756898
31
0
70
32
71
5
72
1
41
1
210
0
220
0
230
1
3
Standard
100
AcDbAlignedDimension
13
15.461499
23
7.869624
33
0
14
16.724298
24
-8.077355
34
0
50
90
100
AcDbRotatedDimension
1001
ACAD
1000
DSTYLE
1002
{
1070
    74
1070
     0
1070
   279
1070
     0
1070
   172
1070
     1
1070
   173
1070
     1
1070
   340
1005
DE
1070
   271
1070
     0
1070
   272
1070
     2
1070
    77
1070
     1
1070
    73
1070
     0
1070
   171
1070
     3
1070
   274
1070
     4
1070
   177
1070
     2
1070
   176
1070
     2
1070
   178
1070
     2
1070
    78
1070
     8
1070
    48
1040
-0.005
1070
    41
1041
3.5
1070
   147
1041
1.75
1070
    42
1041
1.5875
1070
    44
1041
2.0
1070
   140
1041
3.5
1070
   343
1005
0
1070
   344
1005
0
1002
}
0
DIMENSION
5
F5
100
AcDbEntity
8
2
62
256
6
ByLayer
370
13
48
1
60
0
100
AcDbDimension
2
DimnDraft3D2
10
15.996979
20
-30.652383
30
0
11
6.345456
21
-30.652383
31
0
70
32
71
5
72
1
41
1
210
0
220
0
230
1
3
Standard
100
AcDbAlignedDimension
13
0
23
-9.457124
33
0
14
15.996979
24
-8.804674
34
0
50
0
100
AcDbRotatedDimension
1001
ACAD
1000
DSTYLE
1002
{
1070
   279
1070
     0
1070
   172
1070
     1
1070
   173
1070
     1
1070
   340
1005
DE
1070
   271
1070
     0
1070
   272
1070
     2
1070
    77
1070
     1
1070
    73
1070
     0
1070
   171
1070
     3
1070
   274
1070
     4
1070
   177
1070
     2
1070
   176
1070
     2
1070
   178
1070
     2
1070
    78
1070
     8
1070
    48
1040
-0.005
1070
    41
1041
3.5
1070
   147
1041
1.75
1070
    42
1041
1.5875
1070
    44
1041
2.0
1070
   140
1041
3.5
1070
   343
1005
0
1070
   344
1005
0
1002
}
0
DIMENSION
5
100
100
AcDbEntity
8
SK2
62
256
6
ByLayer
370
13
48
1
60
0
100
AcDbDimension
2
DimnDraft3D3
10
-117.630496
20
7.869624
30
0
11
-117.630496
21
-1.758409
31
0
70
32
71
5
72
1
41
1
210
0
220
0
230
1
3
Standard
100
AcDbAlignedDimension
13
-110.5875
23
-8.080376
33
0
14
-110.5875
24
7.869624
34
0
50
90
100
AcDbRotatedDimension
1001
ACAD
1000
DSTYLE
1002
{
1070
    74
1070
     0
1070
   279
1070
     0
1070
   172
1070
     1
1070
   173
1070
     1
1070
   340
1005
DE
1070
   271
1070
     0
1070
   272
1070
     2
1070
    77
1070
     1
1070
    73
1070
     0
1070
   171
1070
     3
1070
   274
1070
     4
1070
   177
1070
     2
1070
   176
1070
     2
1070
   178
1070
     2
1070
    78
1070
     8
1070
    48
1040
-0.005
1070
    41
1041
3.5
1070
   147
1041
1.75
1070
    42
1041
1.5875
1070
    44
1041
2.0
1070
   140
1041
3.5
1070
   343
1005
0
1070
   344
1005
0
1002
}
0
DIMENSION
5
10A
100
AcDbEntity
8
SK2
62
256
6
ByLayer
370
13
48
1
60
0
100
AcDbDimension
2
DimnDraft3D4
10
15.996979
20
15.424177
30
0
11
-49.462277
21
15.424177
31
0
70
32
71
5
72
1
41
1
210
0
220
0
230
1
3
Standard
100
AcDbAlignedDimension
13
-109
23
9.457124
33
0
14
15.996979
24
-5.629674
34
0
50
0
100
AcDbRotatedDimension
1001
ACAD
1000
DSTYLE
1002
{
1070
   279
1070
     0
1070
   172
1070
     1
1070
   173
1070
     1
1070
   340
1005
DE
1070
   271
1070
     0
1070
   272
1070
     2
1070
    77
1070
     1
1070
    73
1070
     0
1070
   171
1070
     3
1070
   274
1070
     4
1070
   177
1070
     2
1070
   176
1070
     2
1070
   178
1070
     2
1070
    78
1070
     8
1070
    48
1040
-0.005
1070
    41
1041
3.5
1070
   147
1041
1.75
1070
    42
1041
1.5875
1070
    44
1041
2.0
1070
   140
1041
3.5
1070
   343
1005
0
1070
   344
1005
0
1002
}
0
DIMENSION
5
114
100
AcDbEntity
8
2
62
256
6
ByLayer
370
13
48
1
60
0
100
AcDbDimension
2
DimnDraft3D5
10
15.996979
20
-8.217174
30
0
11
10.119934
21
-17.502227
31
0
70
34
71
5
72
1
41
1
210
0
220
0
230
1
3
Standard
100
AcDb2LineAngularDimension
13
7.108026
23
-7.374928
33
0
14
15.136798
24
-8.077355
34
0
15
15.996979
25
-7.217174
35
0
16
5.274517
26
-17.977937
36
0
40
0
0
ENDSEC
0
SECTION
2
OBJECTS
0
DICTIONARY
5
180
330
0
100
AcDbDictionary
280
0
281
1
3
ACAD_GROUP
350
181
3
ACAD_GROUP
350
182
3
ACAD_MLINESTYLE
350
183
0
DICTIONARY
5
181
330
0
100
AcDbDictionary
280
0
281
1
0
DICTIONARY
5
182
330
0
100
AcDbDictionary
280
0
281
1
3
<SCLCL_1616K09_S_A1>
350
11D
0
DICTIONARY
5
183
330
0
100
AcDbDictionary
280
0
281
1
3
Standard
350
18
0
GROUP
5
11D
330
182
100
AcDbGroup
300

70
0
71
1
340
6C
340
6E
340
70
340
72
340
73
340
74
340
76
340
77
340
78
340
79
340
7A
340
7B
340
7C
340
7D
340
7E
340
7F
340
80
340
81
340
82
340
83
340
84
340
85
340
86
340
87
340
88
340
89
340
8A
340
8B
340
8C
340
8D
340
8E
340
8F
340
90
340
91
340
92
340
93
340
94
340
95
340
96
340
97
340
98
340
99
340
9A
340
9B
340
9C
340
9D
340
9E
340
9F
340
A0
340
A1
340
A2
340
A3
340
A4
340
A5
340
A6
340
A7
340
A8
340
A9
340
AA
340
AB
340
AC
340
AD
340
AE
340
AF
340
B0
340
B1
340
B2
340
B3
340
B4
340
B5
340
B6
340
B7
340
B8
340
B9
340
BA
340
BB
340
BC
340
BD
340
BE
340
BF
340
C0
340
C1
340
C2
340
C3
340
C4
340
C5
340
C6
340
C7
340
C8
340
C9
340
CA
340
CB
340
CC
340
CD
340
CE
340
CF
340
D0
340
D1
340
D2
340
D3
340
D4
340
D5
340
D6
340
D7
340
D8
340
D9
340
DA
340
DB
340
DC
340
DD
340
EB
340
F5
340
100
340
10A
340
114
0
MLINESTYLE
5
18
330
183
100
AcDbMlineStyle
2
Standard
70
0
3

62
256
51
90
52
90
71
2
49
-0.5
62
256
6
ByLayer
49
0.5
62
256
6
ByLayer
0
RASTERVARIABLES
5
16e
330

100
AcDbRasterVariables
90
0
70
1
71
1
72
1
0
ENDSEC
0
EOF
