0
SECTION
2
HEADER
9
$ACADVER
1
AC1015
9
$DWGCODEPAGE
3
ANSI_1252
9
$HANDSEED
5
2a0
9
$ANGBASE
50
0
9
$ANGDIR
70
0
9
$ATTMODE
70
1
9
$AUNITS
70
0
9
$AUPREC
70
0
9
$CECOLOR
62
256
9
$CELTSCALE
40
1
9
$CELTYPE
6
ByLayer
9
$CELWEIGHT
370
18
9
$CLAYER
8
0
9
$CMLJUST
70
0
9
$CMLSCALE
40
1
9
$CMLSTYLE
2
Standard
9
$DIMSTYLE
2
Standard
9
$TEXTSIZE
40
0.2
9
$TEXTSTYLE
7
Standard
9
$LUNITS
70
2
9
$LUPREC
70
4
9
$EXTNAMES
290
1
9
$INSUNITS
70
4
9
$LTSCALE
40
1
9
$LWDISPLAY
290
1
9
$PDMODE
70
0
9
$PDSIZE
40
0
9
$PLINEGEN
70
0
0
ENDSEC
0
SECTION
2
CLASSES
0
CLASS
1
RASTERVARIABLES
2
AcDbRasterVariables
3
ISM
90
0
280
0
281
0
0
ENDSEC
0
SECTION
2
TABLES
0
TABLE
2
VPORT
5
296
100
AcDbSymbolTable
0
VPORT
5
1
100
AcDbSymbolTableRecord
100
AcDbViewportTableRecord
2
*Active
70
0
10
0
20
0
11
1
21
1
12
-1
22
1
13
0
23
0
14
0.5
24
0.5
15
10
25
10
16
0
26
0
36
1
17
0
27
0
37
0
0
ENDTAB
0
TABLE
2
LTYPE
5
297
100
AcDbSymbolTable
0
LTYPE
5
14
100
AcDbSymbolTableRecord
100
AcDbLinetypeTableRecord
70
0
2
ByBlock
3

72
65
73
0
40
0
0
LTYPE
5
15
100
AcDbSymbolTableRecord
100
AcDbLinetypeTableRecord
70
0
2
ByLayer
3

72
65
73
0
40
0
0
LTYPE
5
16
100
AcDbSymbolTableRecord
100
AcDbLinetypeTableRecord
70
0
2
CONTINUOUS
3
Solid line
72
65
73
0
40
0
0
LTYPE
5
6A
100
AcDbSymbolTableRecord
100
AcDbLinetypeTableRecord
70
0
2
CENTER
3
____ _ ____ _ ____ _ ____
72
65
73
4
40
47.5
49
22
74
0
49
-8.5
74
0
49
8.5
74
0
49
-8.5
74
0
0
LTYPE
5
6B
100
AcDbSymbolTableRecord
100
AcDbLinetypeTableRecord
70
0
2
DASHED
3
__ __ __ __ __ __ __ __ __
72
65
73
2
40
25.72
49
12.86
74
0
49
-12.86
74
0
0
ENDTAB
0
TABLE
2
LAYER
5
298
100
AcDbSymbolTable
0
LAYER
5
10
100
AcDbSymbolTableRecord
100
AcDbLayerTableRecord
2
0
70
0
62
7
6
CONTINUOUS
290
1
370
-3
390
0
0
LAYER
5
6D
100
AcDbSymbolTableRecord
100
AcDbLayerTableRecord
2
80
70
0
62
-6
6
CONTINUOUS
290
1
370
-3
390
0
0
LAYER
5
6F
100
AcDbSymbolTableRecord
100
AcDbLayerTableRecord
2
81
70
0
62
-3
6
CONTINUOUS
290
1
370
-3
390
0
0
LAYER
5
76
100
AcDbSymbolTableRecord
100
AcDbLayerTableRecord
2
1
70
0
62
4
6
CONTINUOUS
290
1
370
-3
390
0
0
LAYER
5
98
100
AcDbSymbolTableRecord
100
AcDbLayerTableRecord
2
4
70
0
62
-2
6
CENTER
290
1
370
-3
390
0
0
LAYER
5
1FF
100
AcDbSymbolTableRecord
100
AcDbLayerTableRecord
2
2
70
0
62
7
6
CONTINUOUS
290
1
370
-3
390
0
0
LAYER
5
282
100
AcDbSymbolTableRecord
100
AcDbLayerTableRecord
2
SK2
70
0
62
7
6
CONTINUOUS
290
1
370
-3
390
0
0
LAYER
5
283
100
AcDbSymbolTableRecord
100
AcDbLayerTableRecord
2
SK1
70
0
62
4
6
CONTINUOUS
290
1
370
-3
390
0
0
LAYER
5
284
100
AcDbSymbolTableRecord
100
AcDbLayerTableRecord
2
SK4
70
0
62
2
6
CENTER
290
1
370
-3
390
0
0
LAYER
5
285
100
AcDbSymbolTableRecord
100
AcDbLayerTableRecord
2
SK6
70
0
62
5
6
CONTINUOUS
290
1
370
-3
390
0
0
ENDTAB
0
TABLE
2
STYLE
5
299
100
AcDbSymbolTable
0
STYLE
5
11
100
AcDbSymbolTableRecord
100
AcDbTextStyleTableRecord
2
Standard
3
txt
70
0
71
0
40
0
41
1
42
0
50
0
0
STYLE
5
1E6
100
AcDbSymbolTableRecord
100
AcDbTextStyleTableRecord
2
iso_b_vert
3
simplex.shx
70
0
71
0
40
0
41
1
42
0
50
0
0
STYLE
5
1E7
100
AcDbSymbolTableRecord
100
AcDbTextStyleTableRecord
2
DWGDirectTextStyle
3
simplex
70
0
71
0
40
0
41
1
42
0
50
0
0
ENDTAB
0
TABLE
2
DIMSTYLE
5
29a
100
AcDbSymbolTable
100
AcDbDimStyleTable
0
DIMSTYLE
105
27
100
AcDbSymbolTableRecord
100
AcDbDimStyleTableRecord
2
Standard
70
0
3
<>
41
0.18
42
0.0625
44
0.18
140
0.18
147
0.09
73
0
74
0
77
1
271
2
275
0
278
52
280
0
340
11
0
ENDTAB
0
TABLE
2
VIEW
5
29b
100
AcDbSymbolTable
0
ENDTAB
0
TABLE
2
UCS
5
29c
100
AcDbSymbolTable
0
ENDTAB
0
TABLE
2
APPID
5
29d
100
AcDbSymbolTable
0
APPID
5
12
100
AcDbSymbolTableRecord
100
AcDbRegAppTableRecord
2
ACAD
70
0
0
ENDTAB
0
TABLE
2
BLOCK_RECORD
5
29e
100
AcDbSymbolTable
0
BLOCK_RECORD
5
1F
100
AcDbSymbolTableRecord
100
AcDbBlockTableRecord
2
*Model_Space
340
0
70
0
0
BLOCK_RECORD
5
1B
100
AcDbSymbolTableRecord
100
AcDbBlockTableRecord
2
*Paper_Space
340
0
70
0
0
BLOCK_RECORD
5
23
100
AcDbSymbolTableRecord
100
AcDbBlockTableRecord
2
*Paper_Space0
340
0
70
0
0
BLOCK_RECORD
5
1E9
100
AcDbSymbolTableRecord
100
AcDbBlockTableRecord
2
DimnDraft3D1
340
0
70
0
0
BLOCK_RECORD
5
1F3
100
AcDbSymbolTableRecord
100
AcDbBlockTableRecord
2
DimnDraft3D2
340
0
70
0
0
BLOCK_RECORD
5
1FD
100
AcDbSymbolTableRecord
100
AcDbBlockTableRecord
2
DimnDraft3D3
340
0
70
0
0
BLOCK_RECORD
5
208
100
AcDbSymbolTableRecord
100
AcDbBlockTableRecord
2
DimnDraft3D4
340
0
70
0
0
BLOCK_RECORD
5
213
100
AcDbSymbolTableRecord
100
AcDbBlockTableRecord
2
DimnDraft3D5
340
0
70
0
0
BLOCK_RECORD
5
21E
100
AcDbSymbolTableRecord
100
AcDbBlockTableRecord
2
DimnDraft3D6
340
0
70
0
0
ENDTAB
0
ENDSEC
0
SECTION
2
BLOCKS
0
BLOCK
5
20
100
AcDbEntity
8
0
100
AcDbBlockBegin
2
*Model_Space
70
0
10
0
20
0
30
0
3
*Model_Space
0
ENDBLK
5
21
100
AcDbEntity
8
0
100
AcDbBlockEnd
0
BLOCK
5
1C
100
AcDbEntity
8
0
100
AcDbBlockBegin
2
*Paper_Space
70
0
10
0
20
0
30
0
3
*Paper_Space
0
ENDBLK
5
1D
100
AcDbEntity
8
0
100
AcDbBlockEnd
0
BLOCK
5
24
100
AcDbEntity
8
0
100
AcDbBlockBegin
2
*Paper_Space0
70
0
10
0
20
0
30
0
3
*Paper_Space0
0
ENDBLK
5
25
100
AcDbEntity
8
0
100
AcDbBlockEnd
0
BLOCK
5
1F0
100
AcDbEntity
8
0
100
AcDbBlockBegin
2
DimnDraft3D1
70
0
10
0
20
0
30
0
3
DimnDraft3D1
0
MTEXT
5
1EA
100
AcDbEntity
8
SK2
62
256
6
ByLayer
370
18
48
1
60
0
100
AcDbMText
10
78.155234
20
47.475134
30
0
210
0
220
0
230
1
1
\W0.7208;88.1
40
3.5
41
0
44
1.084337
50
0
71
7
72
5
7
iso_b_vert
0
LINE
5
1EB
100
AcDbEntity
8
SK2
62
256
6
ByLayer
370
13
48
1
60
0
100
AcDbLine
10
36.9
20
21.5875
30
0
11
36.9
21
48.6
31
0
39
0
210
0
220
0
230
1
0
LINE
5
1EC
100
AcDbEntity
8
SK2
62
256
6
ByLayer
370
13
48
1
60
0
100
AcDbLine
10
125
20
1.5875
30
0
11
125
21
48.6
31
0
39
0
210
0
220
0
230
1
0
LINE
5
1ED
100
AcDbEntity
8
SK2
62
256
6
ByLayer
370
13
48
1
60
0
100
AcDbLine
10
36.9
20
46.6
30
0
11
125
21
46.6
31
0
39
0
210
0
220
0
230
1
0
SOLID
5
1EE
100
AcDbEntity
8
SK2
62
256
6
ByLayer
370
13
48
1
60
0
100
AcDbTrace
10
36.9
20
46.6
30
0
11
40.399998
21
47.060784
31
0
12
40.400002
22
46.139216
32
0
13
36.9
23
46.6
33
0
39
0
210
0
220
0
230
1
0
SOLID
5
1EF
100
AcDbEntity
8
SK2
62
256
6
ByLayer
370
13
48
1
60
0
100
AcDbTrace
10
125
20
46.6
30
0
11
121.500002
21
46.139216
31
0
12
121.499998
22
47.060784
32
0
13
125
23
46.6
33
0
39
0
210
0
220
0
230
1
0
ENDBLK
5
1F1
100
AcDbEntity
8
0
100
AcDbBlockEnd
0
BLOCK
5
1FA
100
AcDbEntity
8
0
100
AcDbBlockBegin
2
DimnDraft3D2
70
0
10
0
20
0
30
0
3
DimnDraft3D2
0
MTEXT
5
1F4
100
AcDbEntity
8
SK2
62
256
6
ByLayer
370
18
48
1
60
0
100
AcDbMText
10
145.013077
20
-13.232199
30
0
210
0
220
0
230
1
1
\W0.7346;20.0
40
3.5
41
0
44
1.084337
50
90
71
7
72
5
7
iso_b_vert
0
LINE
5
1F5
100
AcDbEntity
8
SK2
62
256
6
ByLayer
370
13
48
1
60
0
100
AcDbLine
10
126.5875
20
-20
30
0
11
147.888211
21
-20
31
0
39
0
210
0
220
0
230
1
0
LINE
5
1F6
100
AcDbEntity
8
SK2
62
256
6
ByLayer
370
13
48
1
60
0
100
AcDbLine
10
126.5875
20
0
30
0
11
147.888211
21
0
31
0
39
0
210
0
220
0
230
1
0
LINE
5
1F7
100
AcDbEntity
8
SK2
62
256
6
ByLayer
370
13
48
1
60
0
100
AcDbLine
10
145.888211
20
-20
30
0
11
145.888211
21
0
31
0
39
0
210
0
220
0
230
1
0
SOLID
5
1F8
100
AcDbEntity
8
SK2
62
256
6
ByLayer
370
13
48
1
60
0
100
AcDbTrace
10
145.888211
20
-20
30
0
11
145.427427
21
-16.500002
31
0
12
146.348994
22
-16.499998
32
0
13
145.888211
23
-20
33
0
39
0
210
0
220
0
230
1
0
SOLID
5
1F9
100
AcDbEntity
8
SK2
62
256
6
ByLayer
370
13
48
1
60
0
100
AcDbTrace
10
145.888211
20
0
30
0
11
146.348994
21
-3.499998
31
0
12
145.427427
22
-3.500002
32
0
13
145.888211
23
0
33
0
39
0
210
0
220
0
230
1
0
ENDBLK
5
1FB
100
AcDbEntity
8
0
100
AcDbBlockEnd
0
BLOCK
5
205
100
AcDbEntity
8
0
100
AcDbBlockBegin
2
DimnDraft3D3
70
0
10
0
20
0
30
0
3
DimnDraft3D3
0
MTEXT
5
1FE
100
AcDbEntity
8
2
62
256
6
ByLayer
370
18
48
1
60
0
100
AcDbMText
10
58.397501
20
57.475134
30
0
210
0
220
0
230
1
1
\W0.6864;125.0
40
3.5
41
0
44
1.084337
50
0
71
7
72
5
7
iso_b_vert
0
LINE
5
200
100
AcDbEntity
8
2
62
256
6
ByLayer
370
13
48
1
60
0
100
AcDbLine
10
0
20
41.5875
30
0
11
0
21
58.6
31
0
39
0
210
0
220
0
230
1
0
LINE
5
201
100
AcDbEntity
8
2
62
256
6
ByLayer
370
13
48
1
60
0
100
AcDbLine
10
125
20
1.5875
30
0
11
125
21
58.6
31
0
39
0
210
0
220
0
230
1
0
LINE
5
202
100
AcDbEntity
8
2
62
256
6
ByLayer
370
13
48
1
60
0
100
AcDbLine
10
0
20
56.6
30
0
11
125
21
56.6
31
0
39
0
210
0
220
0
230
1
0
SOLID
5
203
100
AcDbEntity
8
2
62
256
6
ByLayer
370
13
48
1
60
0
100
AcDbTrace
10
0
20
56.6
30
0
11
3.499998
21
57.060784
31
0
12
3.500002
22
56.139216
32
0
13
0
23
56.6
33
0
39
0
210
0
220
0
230
1
0
SOLID
5
204
100
AcDbEntity
8
2
62
256
6
ByLayer
370
13
48
1
60
0
100
AcDbTrace
10
125
20
56.6
30
0
11
121.500002
21
56.139216
31
0
12
121.499998
22
57.060784
32
0
13
125
23
56.6
33
0
39
0
210
0
220
0
230
1
0
ENDBLK
5
206
100
AcDbEntity
8
0
100
AcDbBlockEnd
0
BLOCK
5
210
100
AcDbEntity
8
0
100
AcDbBlockBegin
2
DimnDraft3D4
70
0
10
0
20
0
30
0
3
DimnDraft3D4
0
MTEXT
5
209
100
AcDbEntity
8
SK2
62
256
6
ByLayer
370
18
48
1
60
0
100
AcDbMText
10
-71.350134
20
3.159534
30
0
210
0
220
0
230
1
1
\W0.6740;80
40
3.5
41
0
44
1.084337
50
90
71
7
72
5
7
iso_b_vert
0
MTEXT
5
20A
100
AcDbEntity
8
SK2
62
256
6
ByLayer
370
18
48
1
60
0
100
AcDbMText
10
-71.350134
20
-3.813122
30
0
210
0
220
0
230
1
1
%%c
40
3.5
41
0
44
1.084337
50
90
71
7
72
5
7
iso_b_vert
0
LINE
5
20B
100
AcDbEntity
8
SK2
62
256
6
ByLayer
370
13
48
1
60
0
100
AcDbLine
10
-1.5875
20
40
30
0
11
-71.6
21
40
31
0
39
0
210
0
220
0
230
1
0
LINE
5
20C
100
AcDbEntity
8
SK2
62
256
6
ByLayer
370
13
48
1
60
0
100
AcDbLine
10
-1.5875
20
-40
30
0
11
-71.6
21
-40
31
0
39
0
210
0
220
0
230
1
0
LINE
5
20D
100
AcDbEntity
8
SK2
62
256
6
ByLayer
370
13
48
1
60
0
100
AcDbLine
10
-69.6
20
40
30
0
11
-69.6
21
-40
31
0
39
0
210
0
220
0
230
1
0
SOLID
5
20E
100
AcDbEntity
8
SK2
62
256
6
ByLayer
370
13
48
1
60
0
100
AcDbTrace
10
-69.6
20
40
30
0
11
-69.139216
21
36.500002
31
0
12
-70.060784
22
36.499998
32
0
13
-69.6
23
40
33
0
39
0
210
0
220
0
230
1
0
SOLID
5
20F
100
AcDbEntity
8
SK2
62
256
6
ByLayer
370
13
48
1
60
0
100
AcDbTrace
10
-69.6
20
-40
30
0
11
-70.060784
21
-36.500002
31
0
12
-69.139216
22
-36.499998
32
0
13
-69.6
23
-40
33
0
39
0
210
0
220
0
230
1
0
ENDBLK
5
211
100
AcDbEntity
8
0
100
AcDbBlockEnd
0
BLOCK
5
21B
100
AcDbEntity
8
0
100
AcDbBlockBegin
2
DimnDraft3D5
70
0
10
0
20
0
30
0
3
DimnDraft3D5
0
MTEXT
5
214
100
AcDbEntity
8
SK2
62
256
6
ByLayer
370
18
48
1
60
0
100
AcDbMText
10
154.138077
20
-17.024733
30
0
210
0
220
0
230
1
1
\W0.7361;40
40
3.5
41
0
44
1.084337
50
90
71
7
72
5
7
iso_b_vert
0
MTEXT
5
215
100
AcDbEntity
8
SK2
62
256
6
ByLayer
370
18
48
1
60
0
100
AcDbMText
10
154.138077
20
-23.997389
30
0
210
0
220
0
230
1
1
%%c
40
3.5
41
0
44
1.084337
50
90
71
7
72
5
7
iso_b_vert
0
LINE
5
216
100
AcDbEntity
8
SK2
62
256
6
ByLayer
370
13
48
1
60
0
100
AcDbLine
10
126.5875
20
0
30
0
11
157.888211
21
0
31
0
39
0
210
0
220
0
230
1
0
LINE
5
217
100
AcDbEntity
8
SK2
62
256
6
ByLayer
370
13
48
1
60
0
100
AcDbLine
10
126.5875
20
-40
30
0
11
157.888211
21
-40
31
0
39
0
210
0
220
0
230
1
0
LINE
5
218
100
AcDbEntity
8
SK2
62
256
6
ByLayer
370
13
48
1
60
0
100
AcDbLine
10
155.888211
20
0
30
0
11
155.888211
21
-40
31
0
39
0
210
0
220
0
230
1
0
SOLID
5
219
100
AcDbEntity
8
SK2
62
256
6
ByLayer
370
13
48
1
60
0
100
AcDbTrace
10
155.888211
20
0
30
0
11
156.348994
21
-3.499998
31
0
12
155.427427
22
-3.500002
32
0
13
155.888211
23
0
33
0
39
0
210
0
220
0
230
1
0
SOLID
5
21A
100
AcDbEntity
8
SK2
62
256
6
ByLayer
370
13
48
1
60
0
100
AcDbTrace
10
155.888211
20
-40
30
0
11
155.427427
21
-36.500002
31
0
12
156.348994
22
-36.499998
32
0
13
155.888211
23
-40
33
0
39
0
210
0
220
0
230
1
0
ENDBLK
5
21C
100
AcDbEntity
8
0
100
AcDbBlockEnd
0
BLOCK
5
226
100
AcDbEntity
8
0
100
AcDbBlockBegin
2
DimnDraft3D6
70
0
10
0
20
0
30
0
3
DimnDraft3D6
0
MTEXT
5
21F
100
AcDbEntity
8
SK2
62
256
6
ByLayer
370
18
48
1
60
0
100
AcDbMText
10
164.138077
20
-6.840466
30
0
210
0
220
0
230
1
1
\W0.6740;60
40
3.5
41
0
44
1.084337
50
90
71
7
72
5
7
iso_b_vert
0
MTEXT
5
220
100
AcDbEntity
8
SK2
62
256
6
ByLayer
370
18
48
1
60
0
100
AcDbMText
10
164.138077
20
-13.813122
30
0
210
0
220
0
230
1
1
%%c
40
3.5
41
0
44
1.084337
50
90
71
7
72
5
7
iso_b_vert
0
LINE
5
221
100
AcDbEntity
8
SK2
62
256
6
ByLayer
370
13
48
1
60
0
100
AcDbLine
10
126.5875
20
-40
30
0
11
167.888211
21
-40
31
0
39
0
210
0
220
0
230
1
0
LINE
5
222
100
AcDbEntity
8
SK2
62
256
6
ByLayer
370
13
48
1
60
0
100
AcDbLine
10
117.028516
20
20
30
0
11
167.888211
21
20
31
0
39
0
210
0
220
0
230
1
0
LINE
5
223
100
AcDbEntity
8
SK2
62
256
6
ByLayer
370
13
48
1
60
0
100
AcDbLine
10
165.888211
20
-40
30
0
11
165.888211
21
20
31
0
39
0
210
0
220
0
230
1
0
SOLID
5
224
100
AcDbEntity
8
SK2
62
256
6
ByLayer
370
13
48
1
60
0
100
AcDbTrace
10
165.888211
20
-40
30
0
11
165.427427
21
-36.500002
31
0
12
166.348994
22
-36.499998
32
0
13
165.888211
23
-40
33
0
39
0
210
0
220
0
230
1
0
SOLID
5
225
100
AcDbEntity
8
SK2
62
256
6
ByLayer
370
13
48
1
60
0
100
AcDbTrace
10
165.888211
20
20
30
0
11
166.348994
21
16.500002
31
0
12
165.427427
22
16.499998
32
0
13
165.888211
23
20
33
0
39
0
210
0
220
0
230
1
0
ENDBLK
5
227
100
AcDbEntity
8
0
100
AcDbBlockEnd
0
ENDSEC
0
SECTION
2
ENTITIES
0
ARC
5
124
100
AcDbEntity
8
1
62
256
6
ByLayer
370
18
48
1
60
0
100
AcDbCircle
39
0
10
134.9255
20
-25.499495
30
0
40
0.6
210
0
220
0
230
1
100
AcDbArc
50
0
51
90
0
ARC
5
125
100
AcDbEntity
8
1
62
256
6
ByLayer
370
18
48
1
60
0
100
AcDbCircle
39
0
10
134.9255
20
-34.299495
30
0
40
0.6
210
0
220
0
230
1
100
AcDbArc
50
270
51
0
0
ARC
5
126
100
AcDbEntity
8
1
62
256
6
ByLayer
370
18
48
1
60
0
100
AcDbCircle
39
0
10
-129.4255
20
-26.649495
30
0
40
0.25
210
0
220
0
230
-1
100
AcDbArc
50
180
51
270
0
ARC
5
127
100
AcDbEntity
8
1
62
256
6
ByLayer
370
18
48
1
60
0
100
AcDbCircle
39
0
10
134.9255
20
-14.500505
30
0
40
0.6
210
0
220
0
230
1
100
AcDbArc
50
270
51
0
0
ARC
5
128
100
AcDbEntity
8
1
62
256
6
ByLayer
370
18
48
1
60
0
100
AcDbCircle
39
0
10
134.9255
20
-5.700505
30
0
40
0.6
210
0
220
0
230
1
100
AcDbArc
50
0
51
90
0
ARC
5
129
100
AcDbEntity
8
1
62
256
6
ByLayer
370
18
48
1
60
0
100
AcDbCircle
39
0
10
-129.4255
20
-6.850505
30
0
40
0.25
210
0
220
0
230
-1
100
AcDbArc
50
180
51
270
0
ARC
5
12A
100
AcDbEntity
8
1
62
256
6
ByLayer
370
18
48
1
60
0
100
AcDbCircle
39
0
10
-129.4255
20
-33.149495
30
0
40
0.25
210
0
220
0
230
-1
100
AcDbArc
50
90
51
180
0
ARC
5
12B
100
AcDbEntity
8
1
62
256
6
ByLayer
370
18
48
1
60
0
100
AcDbCircle
39
0
10
134.9255
20
-5.700505
30
0
40
0.6
210
0
220
0
230
1
100
AcDbArc
50
0
51
90
0
ARC
5
12C
100
AcDbEntity
8
1
62
256
6
ByLayer
370
18
48
1
60
0
100
AcDbCircle
39
0
10
134.9255
20
-14.500505
30
0
40
0.6
210
0
220
0
230
1
100
AcDbArc
50
270
51
0
0
ARC
5
12D
100
AcDbEntity
8
1
62
256
6
ByLayer
370
18
48
1
60
0
100
AcDbCircle
39
0
10
-129.4255
20
-6.850505
30
0
40
0.25
210
0
220
0
230
-1
100
AcDbArc
50
180
51
270
0
ARC
5
12E
100
AcDbEntity
8
1
62
256
6
ByLayer
370
18
48
1
60
0
100
AcDbCircle
39
0
10
-129.4255
20
-13.350505
30
0
40
0.25
210
0
220
0
230
-1
100
AcDbArc
50
90
51
180
0
ARC
5
12F
100
AcDbEntity
8
1
62
256
6
ByLayer
370
18
48
1
60
0
100
AcDbCircle
39
0
10
-36.9
20
24
30
0
40
4
210
0
220
0
230
-1
100
AcDbArc
50
270
51
349.943226
0
ARC
5
130
100
AcDbEntity
8
1
62
256
6
ByLayer
370
18
48
1
60
0
100
AcDbCircle
39
0
10
-120.8
20
1
30
0
40
1
210
0
220
0
230
-1
100
AcDbArc
50
270
51
345
0
ARC
5
131
100
AcDbEntity
8
1
62
256
6
ByLayer
370
18
48
1
60
0
100
AcDbCircle
39
0
10
-129.4255
20
-13.350505
30
0
40
0.25
210
0
220
0
230
-1
100
AcDbArc
50
90
51
180
0
ELLIPSE
5
132
100
AcDbEntity
8
1
62
256
6
ByLayer
370
18
48
1
60
0
100
AcDbEllipse
10
30.763884
20
0
30
0
11
18.7348357595628
21
39.4834983054985
31
0
210
0
220
0
230
-1
40
0.341999
41
-2.98049364836084
42
-2.05364588642046
0
ELLIPSE
5
133
100
AcDbEntity
8
1
62
256
6
ByLayer
370
18
48
1
60
0
100
AcDbEllipse
10
-6.763884
20
0
30
0
11
18.7348357595642
21
39.4834983055009
31
0
210
0
220
0
230
-1
40
0.341999
41
0.161099005228947
42
1.08794676716929
0
ELLIPSE
5
134
100
AcDbEntity
8
1
62
256
6
ByLayer
370
18
48
1
60
0
100
AcDbEllipse
10
30.763884
20
0
30
0
11
18.7348357595635
21
-39.4834983054996
31
0
210
0
220
0
230
-1
40
0.341999
41
2.05364588642048
42
2.98049364836085
0
ELLIPSE
5
135
100
AcDbEntity
8
1
62
256
6
ByLayer
370
18
48
1
60
0
100
AcDbEllipse
10
-6.763884
20
0
30
0
11
18.7348357595635
21
-39.4834983054999
31
0
210
0
220
0
230
-1
40
0.341999
41
-1.08794676716931
42
-0.161099005228948
0
POINT
5
6C
100
AcDbEntity
8
80
62
256
6
ByLayer
370
18
48
1
60
0
100
AcDbPoint
10
0
20
0
30
0
39
0
210
0
220
0
230
1
50
360
0
POINT
5
6E
100
AcDbEntity
8
81
62
256
6
ByLayer
370
18
48
1
60
0
100
AcDbPoint
10
125
20
-20
30
0
39
0
210
0
220
0
230
1
50
360
0
POINT
5
70
100
AcDbEntity
8
SK2
62
256
6
ByLayer
370
18
48
1
60
1
100
AcDbPoint
10
0
20
40
30
0
39
0
210
0
220
0
230
1
50
360
0
POINT
5
72
100
AcDbEntity
8
SK2
62
256
6
ByLayer
370
18
48
1
60
1
100
AcDbPoint
10
0
20
-40
30
0
39
0
210
0
220
0
230
1
50
360
0
POINT
5
73
100
AcDbEntity
8
SK2
62
256
6
ByLayer
370
18
48
1
60
1
100
AcDbPoint
10
125
20
0
30
0
39
0
210
0
220
0
230
1
50
360
0
POINT
5
74
100
AcDbEntity
8
SK2
62
256
6
ByLayer
370
18
48
1
60
1
100
AcDbPoint
10
125
20
-40
30
0
39
0
210
0
220
0
230
1
50
360
0
SPLINE
5
136
100
AcDbEntity
8
SK1
62
256
6
ByLayer
370
18
48
1
60
0
100
AcDbSpline
70
4
71
2
72
6
73
3
40
0
40
0
40
0
40
1
40
1
40
1
41
1
10
-46.5
20
-26.3941258817702
30
0
41
1
10
-24.3500000023321
20
-26.9501984525041
30
0
41
1
10
-2.19999999999999
20
-27.5062670222795
30
0
0
SPLINE
5
137
100
AcDbEntity
8
SK1
62
256
6
ByLayer
370
18
48
1
60
0
100
AcDbSpline
70
4
71
2
72
6
73
3
40
0
40
0
40
0
40
1
40
1
40
1
41
1
10
-48
20
-25.5412125874315
30
0
41
1
10
-47.250000037579
20
-25.9741352572465
30
0
41
1
10
-46.5
20
-26.4070575758797
30
0
0
SPLINE
5
138
100
AcDbEntity
8
SK1
62
256
6
ByLayer
370
18
48
1
60
0
100
AcDbSpline
70
4
71
2
72
6
73
3
40
0
40
0
40
0
40
1
40
1
40
1
41
1
10
-0.394913799811292
20
27.3654111435046
30
0
41
1
10
-1.19497688887569
20
27.3453145479167
30
0
41
1
10
-1.99503997793928
20
27.3252179523302
30
0
0
SPLINE
5
139
100
AcDbEntity
8
SK1
62
256
6
ByLayer
370
18
48
1
60
0
100
AcDbSpline
70
4
71
3
72
13
73
9
40
0
40
0
40
0
40
0
40
0.239476651984634
40
0.368387280177918
40
0.500029253268035
40
0.631666356502868
40
0.760563560186419
40
1
40
1
40
1
40
1
41
1
10
-1.99503997793928
20
27.325218063952
30
0
41
1
10
-2.021109902029
20
27.3248162470299
30
0
41
1
10
-2.05883986745027
20
27.3309874079684
30
0
41
1
10
-2.10627655327161
20
27.3540268959373
30
0
41
1
10
-2.13886325113759
20
27.3791895462899
30
0
41
1
10
-2.16563551769426
20
27.4104653546573
30
0
41
1
10
-2.19103253553246
20
27.4566758426755
30
0
41
1
10
-2.19909167979046
20
27.4940420737146
30
0
41
1
10
-2.19999999999999
20
27.5200952679265
30
0
0
SPLINE
5
13A
100
AcDbEntity
8
SK1
62
256
6
ByLayer
370
18
48
1
60
0
100
AcDbSpline
70
4
71
2
72
6
73
3
40
0
40
0
40
0
40
1
40
1
40
1
41
1
10
-2.19999999999999
20
27.5062670250574
30
0
41
1
10
-24.3500000023322
20
26.9501984522265
30
0
41
1
10
-46.5
20
26.394125878702
30
0
0
SPLINE
5
13B
100
AcDbEntity
8
SK1
62
256
6
ByLayer
370
18
48
1
60
0
100
AcDbSpline
70
4
71
3
72
13
73
9
40
0
40
0
40
0
40
0
40
0.239436439566019
40
0.368333643169675
40
0.499970746376725
40
0.631612719497171
40
0.760523347771551
40
1
40
1
40
1
40
1
41
1
10
-2.19999999999999
20
-27.5200952670183
30
0
41
1
10
-2.19909167978656
20
-27.4940420728663
30
0
41
1
10
-2.19103253552856
20
-27.4566758419157
30
0
41
1
10
-2.16563551768928
20
-27.4104653540177
30
0
41
1
10
-2.13886325113097
20
-27.3791895457297
30
0
41
1
10
-2.10627655326442
20
-27.3540268954422
30
0
41
1
10
-2.05883986743973
20
-27.3309874075326
30
0
41
1
10
-2.02110990202351
20
-27.3248162466093
30
0
41
1
10
-1.99503997793928
20
-27.3252180635337
30
0
0
SPLINE
5
13C
100
AcDbEntity
8
SK1
62
256
6
ByLayer
370
18
48
1
60
0
100
AcDbSpline
70
4
71
2
72
6
73
3
40
0
40
0
40
0
40
1
40
1
40
1
41
1
10
-1.99503997793928
20
-27.3252179519089
30
0
41
1
10
-1.19497688887569
20
-27.3453145474448
30
0
41
1
10
-0.394913799811292
20
-27.3654111429822
30
0
0
SPLINE
5
13D
100
AcDbEntity
8
SK1
62
256
6
ByLayer
370
18
48
1
60
0
100
AcDbSpline
70
4
71
2
72
6
73
3
40
0
40
0
40
0
40
1
40
1
40
1
41
1
10
-46.5
20
26.4070579263675
30
0
41
1
10
-47.2500000375748
20
25.9741355971582
30
0
41
1
10
-48
20
25.5412129170634
30
0
0
SPLINE
5
13E
100
AcDbEntity
8
SK1
62
256
6
ByLayer
370
18
48
1
60
0
100
AcDbSpline
70
4
71
3
72
11
73
7
40
0
40
0
40
0
40
0
40
0.24261310168107
40
0.502578138232811
40
0.761110453143783
40
1
40
1
40
1
40
1
41
1
10
-0.199999999999989
20
27.5602883827064
30
0
41
1
10
-0.200957402010204
20
27.5346318858869
30
0
41
1
10
-0.211247854999527
20
27.4855973320618
30
0
41
1
10
-0.2551771917758
20
27.4196124694086
30
0
41
1
10
-0.321111966678046
20
27.3763890745824
30
0
41
1
10
-0.369683313452157
20
27.3663393835773
30
0
41
1
10
-0.394913799811292
20
27.3654111885197
30
0
0
SPLINE
5
13F
100
AcDbEntity
8
SK1
62
256
6
ByLayer
370
18
48
1
60
0
100
AcDbSpline
70
4
71
3
72
11
73
7
40
0
40
0
40
0
40
0
40
0.238889547238812
40
0.497421862300296
40
0.757386898684936
40
1
40
1
40
1
40
1
41
1
10
-0.394913799811292
20
-27.3654111878133
30
0
41
1
10
-0.369683313461081
20
-27.3663393828581
30
0
41
1
10
-0.321111966714682
20
-27.3763890738337
30
0
41
1
10
-0.255177191813431
20
-27.4196124685178
30
0
41
1
10
-0.211247855007002
20
-27.4855973310081
30
0
41
1
10
-0.200957402017764
20
-27.53463188473
30
0
41
1
10
-0.199999999999989
20
-27.560288381491
30
0
0
SPLINE
5
140
100
AcDbEntity
8
SK1
62
256
6
ByLayer
370
18
48
1
60
0
100
AcDbSpline
70
4
71
3
72
24
73
20
40
0
40
0
40
0
40
0
40
0.030474580034395
40
0.095225113651471
40
0.159975647268547
40
0.224726180885623
40
0.289476714502699
40
0.354227248119775
40
0.418977781736851
40
0.483728315353927
40
0.548478848971003
40
0.613229382588079
40
0.677979916205155
40
0.742730449822231
40
0.775105716630769
40
0.807480983439307
40
0.872231517056383
40
0.936982050673459
40
1
40
1
40
1
40
1
41
1
10
-0.199999999999989
20
-6.60073642225791
30
0
41
1
10
-0.199999999999989
20
-6.98586877490845
30
0
41
1
10
-0.199999999999989
20
-8.17373743975534
30
0
41
1
10
-0.199999999999989
20
-10.0887105645208
30
0
41
1
10
-0.199999999999989
20
-12.2804074050816
30
0
41
1
10
-0.199999999999989
20
-14.3395548985108
30
0
41
1
10
-0.199999999999989
20
-16.2657594817725
30
0
41
1
10
-0.199999999999989
20
-18.0586767356234
30
0
41
1
10
-0.199999999999989
20
-19.7156750003799
30
0
41
1
10
-0.199999999999989
20
-21.2347292916249
30
0
41
1
10
-0.199999999999989
20
-22.6117244568664
30
0
41
1
10
-0.199999999999989
20
-23.841306756072
30
0
41
1
10
-0.199999999999989
20
-24.9179672839076
30
0
41
1
10
-0.199999999999989
20
-25.6803759708555
30
0
41
1
10
-0.199999999999989
20
-26.2045217077892
30
0
41
1
10
-0.199999999999989
20
-26.6689899669145
30
0
41
1
10
-0.199999999999989
20
-27.1338844442824
30
0
41
1
10
-0.199999999999989
20
-27.4851850601581
30
0
41
1
10
-0.199999999999989
20
-27.5701883859405
30
0
41
1
10
-0.199999999999989
20
-27.5703324220006
30
0
0
SPLINE
5
141
100
AcDbEntity
8
SK1
62
256
6
ByLayer
370
18
48
1
60
0
100
AcDbSpline
70
4
71
3
72
24
73
20
40
0
40
0
40
0
40
0
40
0.063177530735722
40
0.127917039170434
40
0.192656547605146
40
0.225026301822502
40
0.257396056039858
40
0.322135564474571
40
0.386875072909283
40
0.451614581343995
40
0.516354089778707
40
0.58109359821342
40
0.645833106648132
40
0.710572615082844
40
0.775312123517556
40
0.840051631952268
40
0.904791140386981
40
0.969530648821693
40
1
40
1
40
1
40
1
41
1
10
-0.200000000000017
20
27.5703326745307
30
0
41
1
10
-0.199999999999989
20
27.5704149728178
30
0
41
1
10
-0.199999999999989
20
27.4854959449982
30
0
41
1
10
-0.199999999999989
20
27.1338841827934
30
0
41
1
10
-0.199999999999989
20
26.6689899581268
30
0
41
1
10
-0.199999999999989
20
26.2045196608322
30
0
41
1
10
-0.199999999999989
20
25.6803731913191
30
0
41
1
10
-0.199999999999989
20
24.9179668838468
30
0
41
1
10
-0.199999999999989
20
23.84130785595
30
0
41
1
10
-0.199999999999989
20
22.6117241100319
30
0
41
1
10
-0.199999999999989
20
21.2347288598704
30
0
41
1
10
-0.199999999999989
20
19.7156751809538
30
0
41
1
10
-0.199999999999989
20
18.0586771252393
30
0
41
1
10
-0.199999999999989
20
16.2657598132815
30
0
41
1
10
-0.199999999999989
20
14.3395548728955
30
0
41
1
10
-0.199999999999989
20
12.2804073781128
30
0
41
1
10
-0.199999999999989
20
10.0887104318722
30
0
41
1
10
-0.199999999999989
20
8.17373767117223
30
0
41
1
10
-0.199999999999989
20
6.98586973503126
30
0
41
1
10
-0.199999999999989
20
6.60073791650279
30
0
0
SPLINE
5
142
100
AcDbEntity
8
1
62
256
6
ByLayer
370
18
48
1
60
0
100
AcDbSpline
70
4
71
3
72
22
73
18
40
0
40
0
40
0
40
0
40
0.250000000000005
40
0.250000000000005
40
0.375000000000004
40
0.375000000000004
40
0.500000000000002
40
0.500000000000002
40
0.625
40
0.625
40
0.749999999999999
40
0.749999999999999
40
0.8125
40
0.8125
40
0.875000000000001
40
0.875000000000001
40
1
40
1
40
1
40
1
41
1
10
10.1056624327026
20
37.9445010117191
30
0
41
1
10
10.1212438126112
20
37.9636055836586
30
0
41
1
10
10.1398761201257
20
37.9822012953861
30
0
41
1
10
10.1739972864804
20
38.0091614379608
30
0
41
1
10
10.1864101449813
20
38.0179913785433
30
0
41
1
10
10.2138388425173
20
38.0352792465571
30
0
41
1
10
10.2289265953742
20
38.0437762110223
30
0
41
1
10
10.2621641170173
20
38.0600837295902
30
0
41
1
10
10.2802620066642
20
38.0678870466105
30
0
41
1
10
10.3205610269858
20
38.0825553532501
30
0
41
1
10
10.3426053074955
20
38.0893529851857
30
0
41
1
10
10.3789180567415
20
38.0982048271663
30
0
41
1
10
10.3915960688954
20
38.1009395753102
30
0
41
1
10
10.4183879309626
20
38.1058736681204
30
0
41
1
10
10.4324900730126
20
38.1080609020697
30
0
41
1
10
10.4758266843417
20
38.1134152144531
30
0
41
1
10
10.5070602691285
20
38.1154578595255
30
0
41
1
10
10.5386751345948
20
38.1154578595255
30
0
0
SPLINE
5
143
100
AcDbEntity
8
1
62
256
6
ByLayer
370
18
48
1
60
0
100
AcDbSpline
70
4
71
3
72
20
73
16
40
0
40
0
40
0
40
0
40
0.062499999999999
40
0.062499999999999
40
0.124999999999998
40
0.124999999999998
40
0.249999999999999
40
0.249999999999999
40
0.375000000000001
40
0.375000000000001
40
0.500000000000002
40
0.500000000000002
40
0.750000000000001
40
0.750000000000001
40
1
40
1
40
1
40
1
41
1
10
10.5386751345949
20
12.1330899674707
30
0
41
1
10
10.5228424579138
20
12.1330899674707
30
0
41
1
10
10.5073032170841
20
12.1346446934811
30
0
41
1
10
10.4767587503235
20
12.1405832169824
30
0
41
1
10
10.4616242888075
20
12.1450224152722
30
0
41
1
10
10.4179414896383
20
12.1619255694047
30
0
41
1
10
10.3914602024633
20
12.177616249759
30
0
41
1
10
10.3422528978047
20
12.215072219626
30
0
41
1
10
10.3204171364761
20
12.2361555816479
30
0
41
1
10
10.2803874449687
20
12.2814125122522
30
0
41
1
10
10.2621320027339
20
12.3057660949486
30
0
41
1
10
10.2123318812525
20
12.3811715645304
30
0
41
1
10
10.1856242795051
20
12.4342400380054
30
0
41
1
10
10.1400321601288
20
12.543705389465
30
0
41
1
10
10.1212495620848
20
12.6003080708704
30
0
41
1
10
10.1056624327025
20
12.6576002058704
30
0
0
SPLINE
5
144
100
AcDbEntity
8
1
62
256
6
ByLayer
370
18
48
1
60
0
100
AcDbSpline
70
4
71
3
72
22
73
18
40
0
40
0
40
0
40
0
40
0.24999999999999
40
0.24999999999999
40
0.374999999999988
40
0.374999999999988
40
0.499999999999986
40
0.499999999999986
40
0.624999999999984
40
0.624999999999984
40
0.749999999999982
40
0.749999999999982
40
0.812499999999986
40
0.812499999999986
40
0.874999999999989
40
0.874999999999989
40
1
40
1
40
1
40
1
41
1
10
13.8943375672973
20
12.6576002058704
30
0
41
1
10
13.8787561873887
20
12.6003292036663
30
0
41
1
10
13.8601238798742
20
12.5441499637056
30
0
41
1
10
13.8260027135195
20
12.462121615994
30
0
41
1
10
13.8135898550186
20
12.4351561290447
30
0
41
1
10
13.7861611574827
20
12.3821770722735
30
0
41
1
10
13.7710734046257
20
12.3560426999109
30
0
41
1
10
13.7378358829827
20
12.3057192432197
30
0
41
1
10
13.7197379933357
20
12.2815531796602
30
0
41
1
10
13.6794389730141
20
12.235994052996
30
0
41
1
10
13.6573946925045
20
12.2148091982092
30
0
41
1
10
13.6210819432585
20
12.1871605631486
30
0
41
1
10
13.6084039311046
20
12.1786070311294
30
0
41
1
10
13.5816120690374
20
12.1631598579218
30
0
41
1
10
13.5675099269873
20
12.1563040766934
30
0
41
1
10
13.5241733156583
20
12.1395106480538
30
0
41
1
10
13.4929397308715
20
12.1330899674706
30
0
41
1
10
13.4613248654052
20
12.1330899674706
30
0
0
SPLINE
5
145
100
AcDbEntity
8
1
62
256
6
ByLayer
370
18
48
1
60
0
100
AcDbSpline
70
4
71
3
72
20
73
16
40
0
40
0
40
0
40
0
40
0.0624999999999989
40
0.0624999999999989
40
0.124999999999998
40
0.124999999999998
40
0.250000000000001
40
0.250000000000001
40
0.375000000000005
40
0.375000000000005
40
0.500000000000008
40
0.500000000000008
40
0.750000000000004
40
0.750000000000004
40
1
40
1
40
1
40
1
41
1
10
13.4613248654051
20
38.1154578595254
30
0
41
1
10
13.4771575420862
20
38.1154578595254
30
0
41
1
10
13.4926967829159
20
38.1149630443688
30
0
41
1
10
13.5232412496765
20
38.1130718896044
30
0
41
1
10
13.5383757111925
20
38.1116578687672
30
0
41
1
10
13.5820585103617
20
38.1062685963607
30
0
41
1
10
13.6085397975367
20
38.101260466828
30
0
41
1
10
13.6577471021953
20
38.0892687952498
30
0
41
1
10
13.6795828635239
20
38.0825033540054
30
0
41
1
10
13.7196125550313
20
38.0679323293244
30
0
41
1
10
13.737867997266
20
38.0600685618956
30
0
41
1
10
13.7876681187474
20
38.0356330717497
30
0
41
1
10
13.8143757204948
20
38.0183244490835
30
0
41
1
10
13.8599678398712
20
37.9823481941392
30
0
41
1
10
13.8787504379151
20
37.9636126331776
30
0
41
1
10
13.8943375672974
20
37.9445010117191
30
0
0
SPLINE
5
146
100
AcDbEntity
8
1
62
256
6
ByLayer
370
18
48
1
60
0
100
AcDbSpline
70
4
71
3
72
96
73
92
40
0
40
0
40
0
40
0
40
9.6139363311E-06
40
9.6139363311E-06
40
0.0312593135008212
40
0.0312593135008212
40
0.0625090130653114
40
0.0625090130653114
40
0.0937587126298015
40
0.0937587126298015
40
0.109383562412047
40
0.109383562412047
40
0.117195987303169
40
0.117195987303169
40
0.125008412194292
40
0.125008412194292
40
0.156258111758782
40
0.156258111758782
40
0.187507811323272
40
0.218757510887762
40
0.218757510887762
40
0.250007210452252
40
0.250007210452252
40
0.257819635343374
40
0.257819635343374
40
0.265632060234497
40
0.265632060234497
40
0.281256910016742
40
0.281256910016742
40
0.312506609581231
40
0.312506609581231
40
0.343756309145721
40
0.37500600871021
40
0.37500600871021
40
0.390630858492455
40
0.390630858492455
40
0.398443283383578
40
0.398443283383578
40
0.4062557082747
40
0.4062557082747
40
0.43750540783919
40
0.43750540783919
40
0.46875510740368
40
0.500004806968169
40
0.500004806968169
40
0.531254506532659
40
0.531254506532659
40
0.539066931423781
40
0.539066931423781
40
0.546879356314903
40
0.546879356314903
40
0.562504206097148
40
0.562504206097148
40
0.593753905661638
40
0.593753905661638
40
0.625003605226127
40
0.625003605226127
40
0.656253304790617
40
0.656253304790617
40
0.671878154572861
40
0.671878154572861
40
0.679690579463984
40
0.679690579463984
40
0.687503004355106
40
0.687503004355106
40
0.718752703919596
40
0.718752703919596
40
0.750002403484085
40
0.781252103048574
40
0.781252103048574
40
0.812501802613064
40
0.812501802613064
40
0.820314227504186
40
0.820314227504186
40
0.828126652395308
40
0.828126652395308
40
0.843751502177553
40
0.843751502177553
40
0.875001201742043
40
0.875001201742043
40
0.906250901306532
40
0.906250901306532
40
0.937500600871021
40
0.937500600871021
40
0.953125450653266
40
0.953125450653266
40
0.960937875544388
40
0.960937875544388
40
0.968750300435511
40
0.968750300435511
40
1
40
1
40
1
40
1
41
1
10
30.0000000484197
20
39.999998634899
30
0
41
1
10
30.0000000129688
20
39.9999996343705
30
0
41
1
10
29.9999999775177
20
40.000000633842
30
0
41
1
10
29.9999957455599
20
40.000119945516
30
0
41
1
10
30.0013325322712
20
39.9624235329045
30
0
41
1
10
30.0066365686894
20
39.8129539209843
30
0
41
1
10
30.0106039099881
20
39.7011781342785
30
0
41
1
10
30.0211697681932
20
39.4038283664244
30
0
41
1
10
30.0277682281245
20
39.2182553339946
30
0
41
1
10
30.0396783552706
20
38.8838250418148
30
0
41
1
10
30.0439842110765
20
38.7629933509582
30
0
41
1
10
30.0509554496698
20
38.5675309662082
30
0
41
1
10
30.053364632683
20
38.500007036352
30
0
41
1
10
30.0583556716399
20
38.3601809877067
30
0
41
1
10
30.0609391610728
20
38.2878331471054
30
0
41
1
10
30.0742753764786
20
37.9145419305113
30
0
41
1
10
30.0862002614012
20
37.5812911648784
30
0
41
1
10
30.1125204393455
20
36.8475605295217
30
0
41
1
10
30.1413112773089
20
36.0465934222519
30
0
41
1
10
30.1750580781851
20
35.1127776380076
30
0
41
1
10
30.2113377589304
20
34.1122286853609
30
0
41
1
10
30.2307438730607
20
33.5785901087989
30
0
41
1
10
30.2566501650335
20
32.8689260074577
30
0
41
1
10
30.2619139869703
20
32.7248594593991
30
0
41
1
10
30.2726089449717
20
32.4324240899628
30
0
41
1
10
30.278044315939
20
32.2839397109229
30
0
41
1
10
30.2945757968112
20
31.8327709643195
30
0
41
1
10
30.3058644250215
20
31.5252664353355
30
0
41
1
10
30.3405303623205
20
30.5829138204073
30
0
41
1
10
30.3647065072875
20
29.9282549956206
30
0
41
1
10
30.415204687867
20
28.5671673855831
30
0
41
1
10
30.467848868898
20
27.154305571941
30
0
41
1
10
30.5248924094972
20
25.6382778933277
30
0
41
1
10
30.5693958459437
20
24.4620584867337
30
0
41
1
10
30.5845174493364
20
24.0634453954261
30
0
41
1
10
30.6076425779969
20
23.4555875589174
30
0
41
1
10
30.6154247645061
20
23.2513114520247
30
0
41
1
10
30.6311390524505
20
22.8394184886732
30
0
41
1
10
30.6390781772856
20
22.6316181380785
30
0
41
1
10
30.679070631318
20
21.5863867989105
30
0
41
1
10
30.7118676515449
20
20.7340906624551
30
0
41
1
10
30.7790905544845
20
18.9982034085842
30
0
41
1
10
30.8479424008401
20
17.2310177760042
30
0
41
1
10
30.9201497104602
20
15.4019805748255
30
0
41
1
10
30.9941106003337
20
13.5418690474473
30
0
41
1
10
31.0319676987753
20
12.5962772935693
30
0
41
1
10
31.0804509801814
20
11.3944407771403
30
0
41
1
10
31.0902058111359
20
11.1530797667458
30
0
41
1
10
31.109833804267
20
10.6683540500845
30
0
41
1
10
31.1197162938292
20
10.4247600133788
30
0
41
1
10
31.1494751825658
20
9.69264754418552
30
0
41
1
10
31.1694269707448
20
9.20368108593655
30
0
41
1
10
31.2296260332517
20
7.73415200180105
30
0
41
1
10
31.2702167380448
20
6.75096341740235
30
0
41
1
10
31.352353104108
20
4.77772430020403
30
0
41
1
10
31.3938987455526
20
3.78767353586929
30
0
41
1
10
31.477992730345
20
1.80073491759256
30
0
41
1
10
31.5205410351182
20
0.803847159140958
30
0
41
1
10
31.5851585697705
20
-0.696679989153267
30
0
41
1
10
31.606830339991
20
-1.1977225333988
30
0
41
1
10
31.6395430376724
20
-1.95060361826287
30
0
41
1
10
31.6504814495709
20
-2.20178358599088
30
0
41
1
10
31.6724277279832
20
-2.70458633154408
30
0
41
1
10
31.6834462381809
20
-2.95645165375026
30
0
41
1
10
31.7385814015445
20
-4.21384413911707
30
0
41
1
10
31.7826855496457
20
-5.21039059425473
30
0
41
1
10
31.8709096103529
20
-7.18527969522836
30
0
41
1
10
31.9591493871302
20
-9.14196303508936
30
0
41
1
10
32.0474421441192
20
-11.0626546417605
30
0
41
1
10
32.1357586124618
20
-12.9652577463007
30
0
41
1
10
32.1799287843241
20
-13.9075157446406
30
0
41
1
10
32.2351451553287
20
-15.0737817311002
30
0
41
1
10
32.2461885713459
20
-15.3064563081169
30
0
41
1
10
32.2682752337853
20
-15.7706386545029
30
0
41
1
10
32.279329119146
20
-16.0023687014822
30
0
41
1
10
32.3124094053299
20
-16.694113734482
30
0
41
1
10
32.3343196184987
20
-17.1499609110803
30
0
41
1
10
32.3996199539935
20
-18.5018158441611
30
0
41
1
10
32.4425808858953
20
-19.382159306016
30
0
41
1
10
32.527328444123
20
-21.101889912961
30
0
41
1
10
32.5691151163635
20
-21.9412757208679
30
0
41
1
10
32.6514488760289
20
-23.5792175516527
30
0
41
1
10
32.6919961058828
20
-24.377774183945
30
0
41
1
10
32.7518091024888
20
-25.5445671003339
30
0
41
1
10
32.7715784755845
20
-25.9283189747329
30
0
41
1
10
32.800967217936
20
-26.4960745493351
30
0
41
1
10
32.810719223214
20
-26.6840140015927
30
0
41
1
10
32.8301323191933
20
-27.0572462875135
30
0
41
1
10
32.8397990632603
20
-27.2426472023734
30
0
41
1
10
32.8878283110481
20
-28.1616226617417
30
0
41
1
10
32.9252003837815
20
-28.8696445807264
30
0
41
1
10
32.9614591886928
20
-29.5504906506896
30
0
0
SPLINE
5
147
100
AcDbEntity
8
1
62
256
6
ByLayer
370
18
48
1
60
0
100
AcDbSpline
70
4
71
3
72
36
73
32
40
0
40
0
40
0
40
0
40
0.0078124999999999
40
0.0078124999999999
40
0.0156249999999999
40
0.0312499999999998
40
0.0624999999999999
40
0.0624999999999999
40
0.125
40
0.125
40
0.250000000000001
40
0.250000000000001
40
0.281250000000001
40
0.281250000000001
40
0.312500000000001
40
0.312500000000001
40
0.375000000000001
40
0.375000000000001
40
0.500000000000001
40
0.500000000000001
40
0.625000000000001
40
0.625000000000001
40
0.687500000000001
40
0.687500000000001
40
0.718750000000001
40
0.718750000000001
40
0.750000000000001
40
0.750000000000001
40
0.875
40
0.875
40
1
40
1
40
1
40
1
41
1
10
36.9
20
-40
30
0
41
1
10
36.8860104345184
20
-40
30
0
41
1
10
36.8719469873213
20
-39.9997789219046
30
0
41
1
10
36.8438463612454
20
-39.9988915188304
30
0
41
1
10
36.8017087392182
20
-39.996894440047
30
0
41
1
10
36.7034906000477
20
-39.9875799071967
30
0
41
1
10
36.6195135319958
20
-39.9716394301311
30
0
41
1
10
36.4519279042125
20
-39.9291937808108
30
0
41
1
10
36.3406953774813
20
-39.8868164814275
30
0
41
1
10
36.0091806365768
20
-39.7175744776848
30
0
41
1
10
35.7910724048768
20
-39.5486982975705
30
0
41
1
10
35.5245018522137
20
-39.2665140331028
30
0
41
1
10
35.4714378832734
20
-39.2064474465109
30
0
41
1
10
35.3663005878526
20
-39.0795274100945
30
0
41
1
10
35.3142285932369
20
-39.0126862851961
30
0
41
1
10
35.1595773539048
20
-38.8021078161965
30
0
41
1
10
35.058562364395
20
-38.6483211845132
30
0
41
1
10
34.7623864484195
20
-38.1472480365188
30
0
41
1
10
34.5740788172616
20
-37.7603360560864
30
0
41
1
10
34.2192812842694
20
-36.8812235139377
30
0
41
1
10
34.0527765937441
20
-36.3890273602573
30
0
41
1
10
33.8225220014124
20
-35.5699427343398
30
0
41
1
10
33.7490274532844
20
-35.2834267313592
30
0
41
1
10
33.6441467333496
20
-34.8329719087444
30
0
41
1
10
33.6100806851939
20
-34.6793718807622
30
0
41
1
10
33.5438255845341
20
-34.3651796390187
30
0
41
1
10
33.5116366782664
20
-34.2045632918363
30
0
41
1
10
33.3562973765234
20
-33.3875147681824
30
0
41
1
10
33.2492868026311
20
-32.6865039033452
30
0
41
1
10
33.0743646948783
20
-31.1899766297123
30
0
41
1
10
33.0064055939159
20
-30.3944672635445
30
0
41
1
10
32.9614591886925
20
-29.5504906506842
30
0
0
SPLINE
5
148
100
AcDbEntity
8
1
62
256
6
ByLayer
370
18
48
1
60
0
100
AcDbSpline
70
4
71
3
72
22
73
18
40
0
40
0
40
0
40
0
40
0.250000000000004
40
0.250000000000004
40
0.375000000000002
40
0.375000000000002
40
0.5
40
0.5
40
0.624999999999998
40
0.624999999999998
40
0.749999999999996
40
0.749999999999996
40
0.812499999999996
40
0.812499999999996
40
0.874999999999995
40
0.874999999999995
40
1
40
1
40
1
40
1
41
1
10
13.8943375672973
20
-37.9445010117191
30
0
41
1
10
13.8787561873887
20
-37.9636055836586
30
0
41
1
10
13.8601238798742
20
-37.9822012953861
30
0
41
1
10
13.8260027135195
20
-38.0091614379608
30
0
41
1
10
13.8135898550186
20
-38.0179913785433
30
0
41
1
10
13.7861611574826
20
-38.0352792465571
30
0
41
1
10
13.7710734046257
20
-38.0437762110223
30
0
41
1
10
13.7378358829826
20
-38.0600837295902
30
0
41
1
10
13.7197379933357
20
-38.0678870466104
30
0
41
1
10
13.6794389730141
20
-38.0825553532501
30
0
41
1
10
13.6573946925045
20
-38.0893529851856
30
0
41
1
10
13.6210819432585
20
-38.0982048271663
30
0
41
1
10
13.6084039311046
20
-38.1009395753102
30
0
41
1
10
13.5816120690374
20
-38.1058736681204
30
0
41
1
10
13.5675099269873
20
-38.1080609020696
30
0
41
1
10
13.5241733156582
20
-38.1134152144531
30
0
41
1
10
13.4929397308715
20
-38.1154578595255
30
0
41
1
10
13.4613248654052
20
-38.1154578595255
30
0
0
SPLINE
5
149
100
AcDbEntity
8
1
62
256
6
ByLayer
370
18
48
1
60
0
100
AcDbSpline
70
4
71
3
72
20
73
16
40
0
40
0
40
0
40
0
40
0.0625000000000002
40
0.0625000000000002
40
0.125000000000001
40
0.125000000000001
40
0.250000000000004
40
0.250000000000004
40
0.375000000000008
40
0.375000000000008
40
0.500000000000011
40
0.500000000000011
40
0.750000000000006
40
0.750000000000006
40
1
40
1
40
1
40
1
41
1
10
13.4613248654051
20
-12.1330899674708
30
0
41
1
10
13.4771575420862
20
-12.1330899674708
30
0
41
1
10
13.4926967829159
20
-12.1346446934812
30
0
41
1
10
13.5232412496765
20
-12.1405832169825
30
0
41
1
10
13.5383757111924
20
-12.1450224152723
30
0
41
1
10
13.5820585103617
20
-12.1619255694048
30
0
41
1
10
13.6085397975366
20
-12.177616249759
30
0
41
1
10
13.6577471021953
20
-12.215072219626
30
0
41
1
10
13.6795828635238
20
-12.236155581648
30
0
41
1
10
13.7196125550312
20
-12.2814125122523
30
0
41
1
10
13.737867997266
20
-12.3057660949486
30
0
41
1
10
13.7876681187474
20
-12.3811715645304
30
0
41
1
10
13.8143757204948
20
-12.4342400380054
30
0
41
1
10
13.8599678398712
20
-12.5437053894649
30
0
41
1
10
13.8787504379151
20
-12.6003080708704
30
0
41
1
10
13.8943375672974
20
-12.6576002058703
30
0
0
SPLINE
5
14A
100
AcDbEntity
8
1
62
256
6
ByLayer
370
18
48
1
60
0
100
AcDbSpline
70
4
71
3
72
22
73
18
40
0
40
0
40
0
40
0
40
0.250000000000003
40
0.250000000000003
40
0.375000000000003
40
0.375000000000003
40
0.500000000000003
40
0.500000000000003
40
0.625000000000003
40
0.625000000000003
40
0.750000000000003
40
0.750000000000003
40
0.812500000000003
40
0.812500000000003
40
0.875000000000002
40
0.875000000000002
40
1
40
1
40
1
40
1
41
1
10
10.1056624327026
20
-12.6576002058704
30
0
41
1
10
10.1212438126112
20
-12.6003292036663
30
0
41
1
10
10.1398761201257
20
-12.5441499637055
30
0
41
1
10
10.1739972864804
20
-12.4621216159939
30
0
41
1
10
10.1864101449813
20
-12.4351561290446
30
0
41
1
10
10.2138388425173
20
-12.3821770722735
30
0
41
1
10
10.2289265953742
20
-12.3560426999108
30
0
41
1
10
10.2621641170173
20
-12.3057192432196
30
0
41
1
10
10.2802620066642
20
-12.2815531796601
30
0
41
1
10
10.3205610269858
20
-12.235994052996
30
0
41
1
10
10.3426053074955
20
-12.2148091982091
30
0
41
1
10
10.3789180567415
20
-12.1871605631486
30
0
41
1
10
10.3915960688954
20
-12.1786070311293
30
0
41
1
10
10.4183879309626
20
-12.1631598579217
30
0
41
1
10
10.4324900730126
20
-12.1563040766934
30
0
41
1
10
10.4758266843417
20
-12.1395106480537
30
0
41
1
10
10.5070602691285
20
-12.1330899674705
30
0
41
1
10
10.5386751345948
20
-12.1330899674705
30
0
0
SPLINE
5
14B
100
AcDbEntity
8
1
62
256
6
ByLayer
370
18
48
1
60
0
100
AcDbSpline
70
4
71
3
72
20
73
16
40
0
40
0
40
0
40
0
40
0.0625000000000016
40
0.0625000000000016
40
0.125000000000003
40
0.125000000000003
40
0.250000000000003
40
0.250000000000003
40
0.375000000000004
40
0.375000000000004
40
0.500000000000004
40
0.500000000000004
40
0.750000000000002
40
0.750000000000002
40
1
40
1
40
1
40
1
41
1
10
10.5386751345949
20
-38.1154578595255
30
0
41
1
10
10.5228424579138
20
-38.1154578595255
30
0
41
1
10
10.5073032170841
20
-38.1149630443689
30
0
41
1
10
10.4767587503235
20
-38.1130718896045
30
0
41
1
10
10.4616242888075
20
-38.1116578687672
30
0
41
1
10
10.4179414896383
20
-38.1062685963607
30
0
41
1
10
10.3914602024633
20
-38.101260466828
30
0
41
1
10
10.3422528978047
20
-38.0892687952498
30
0
41
1
10
10.3204171364761
20
-38.0825033540055
30
0
41
1
10
10.2803874449687
20
-38.0679323293245
30
0
41
1
10
10.2621320027339
20
-38.0600685618956
30
0
41
1
10
10.2123318812525
20
-38.0356330717498
30
0
41
1
10
10.1856242795051
20
-38.0183244490836
30
0
41
1
10
10.1400321601288
20
-37.9823481941392
30
0
41
1
10
10.1212495620848
20
-37.9636126331776
30
0
41
1
10
10.1056624327025
20
-37.9445010117191
30
0
0
SPLINE
5
14C
100
AcDbEntity
8
1
62
256
6
ByLayer
370
18
48
1
60
0
100
AcDbSpline
70
4
71
3
72
70
73
66
40
0
40
0
40
0
40
0
40
0.0624926379572596
40
0.0624926379572596
40
0.0937389569358894
40
0.0937389569358894
40
0.109362116425204
40
0.109362116425204
40
0.124985275914519
40
0.124985275914519
40
0.187477913871779
40
0.187477913871779
40
0.203101073361094
40
0.203101073361094
40
0.21872423285041
40
0.21872423285041
40
0.249970551829039
40
0.249970551829039
40
0.312463189786299
40
0.312463189786299
40
0.328086349275614
40
0.328086349275614
40
0.34370950876493
40
0.34370950876493
40
0.374955827743561
40
0.406202146722191
40
0.406202146722191
40
0.421825306211507
40
0.421825306211507
40
0.437448465700823
40
0.437448465700823
40
0.499941103658085
40
0.499941103658085
40
0.531187422636716
40
0.531187422636716
40
0.546810582126032
40
0.546810582126032
40
0.562433741615347
40
0.562433741615347
40
0.624926379572609
40
0.624926379572609
40
0.640549539061924
40
0.640549539061924
40
0.656172698551239
40
0.656172698551239
40
0.687419017529868
40
0.687419017529868
40
0.749911655487128
40
0.749911655487128
40
0.781157974465758
40
0.781157974465758
40
0.812404293444388
40
0.843650612423017
40
0.843650612423017
40
0.874896931401647
40
0.874896931401647
40
0.937389569358906
40
0.937389569358906
40
0.953012728848221
40
0.953012728848221
40
0.968635888337536
40
0.968635888337536
40
0.999882207316166
40
0.999882207316166
40
1
40
1
40
1
40
1
41
1
10
15.5343980606682
20
-40.0000001345478
30
0
41
1
10
15.5343916464253
20
-39.9999995803077
30
0
41
1
10
15.5109421728675
20
-39.9979739262415
30
0
41
1
10
15.4421461279155
20
-39.9921965163864
30
0
41
1
10
15.4135697249403
20
-39.9898140056304
30
0
41
1
10
15.3620614005086
20
-39.9855923272266
30
0
41
1
10
15.3433911736199
20
-39.9840725006216
30
0
41
1
10
15.3034118722302
20
-39.9808482741134
30
0
41
1
10
15.2821325429547
20
-39.9791462170227
30
0
41
1
10
15.1694288683957
20
-39.9702263442755
30
0
41
1
10
15.0592648879282
20
-39.9617811901187
30
0
41
1
10
14.8969251697534
20
-39.9501994014376
30
0
41
1
10
14.8632142388031
20
-39.9478317494597
30
0
41
1
10
14.7932697702556
20
-39.9430094284021
30
0
41
1
10
14.7569764406487
20
-39.9405510398899
30
0
41
1
10
14.6454660903378
20
-39.9331500681088
30
0
41
1
10
14.5672903744599
20
-39.9281581908769
30
0
41
1
10
14.3216121406976
20
-39.9132234012143
30
0
41
1
10
14.1430661539958
20
-39.9033188902991
30
0
41
1
10
13.9009550793605
20
-39.8917077068093
30
0
41
1
10
13.8516548869242
20
-39.8894283850624
30
0
41
1
10
13.7521912466428
20
-39.8850110873082
30
0
41
1
10
13.7019065809267
20
-39.8828672120928
30
0
41
1
10
13.5494203619871
20
-39.8766495305777
30
0
41
1
10
13.3417604652383
20
-39.8689300106492
30
0
41
1
10
13.125497505911
20
-39.862556004625
30
0
41
1
10
12.9600126440075
20
-39.8583577413287
30
0
41
1
10
12.9043021047652
20
-39.8570553845305
30
0
41
1
10
12.7917604455387
20
-39.8546582680116
30
0
41
1
10
12.7350823450236
20
-39.8535674022476
30
0
41
1
10
12.4518639078747
20
-39.8487067429953
30
0
41
1
10
12.2237937860861
20
-39.846673161578
30
0
41
1
10
11.8794752052265
20
-39.8465392050869
30
0
41
1
10
11.7643308795383
20
-39.8469805643933
30
0
41
1
10
11.5910366016117
20
-39.8483887617507
30
0
41
1
10
11.5333197773494
20
-39.8489820394797
30
0
41
1
10
11.4189393036326
20
-39.8503995842487
30
0
41
1
10
11.3621348246885
20
-39.8512249077039
30
0
41
1
10
11.0800142403574
20
-39.8559113851309
30
0
41
1
10
10.8603502444053
20
-39.8614526985361
30
0
41
1
10
10.5934206285722
20
-39.8702564617921
30
0
41
1
10
10.5404205872152
20
-39.8721109988091
30
0
41
1
10
10.4352090804321
20
-39.8759980387815
30
0
41
1
10
10.3831761324856
20
-39.8780244079773
30
0
41
1
10
10.2299176863167
20
-39.8842822085873
30
0
41
1
10
10.1310588926023
20
-39.8887092733996
30
0
41
1
10
9.84420309968812
20
-39.9025494648243
30
0
41
1
10
9.6658317535568
20
-39.9125247561385
30
0
41
1
10
9.41838460640855
20
-39.9277797496732
30
0
41
1
10
9.34052769749451
20
-39.9328351949078
30
0
41
1
10
9.19420704309567
20
-39.9427143094016
30
0
41
1
10
9.05712107308611
20
-39.9523717853386
30
0
41
1
10
8.93836225451753
20
-39.9613121229046
30
0
41
1
10
8.82896528081292
20
-39.9697547778554
30
0
41
1
10
8.77885609718018
20
-39.9737355812313
30
0
41
1
10
8.64594662117241
20
-39.9844922615469
30
0
41
1
10
8.57916269070023
20
-39.9901759225059
30
0
41
1
10
8.52267858421195
20
-39.9950330607534
30
0
41
1
10
8.51274395519854
20
-39.9958921164482
30
0
41
1
10
8.4956427047847
20
-39.9973755258689
30
0
41
1
10
8.4884620920873
20
-39.9980011010298
30
0
41
1
10
8.47128972128715
20
-39.9994999776234
30
0
41
1
10
8.46563816591456
20
-39.999996958888
30
0
41
1
10
8.46560448134651
20
-39.9999999135854
30
0
41
1
10
8.46560247778585
20
-40.0000000916425
30
0
41
1
10
8.46560445846844
20
-39.9999999107467
30
0
0
SPLINE
5
14D
100
AcDbEntity
8
SK1
62
256
6
ByLayer
370
18
48
1
60
0
100
AcDbSpline
70
4
71
3
72
36
73
32
40
0
40
0
40
0
40
0
40
0.0312500000000004
40
0.0312500000000004
40
0.0625000000000007
40
0.0625000000000007
40
0.0781250000000011
40
0.0781250000000011
40
0.0937500000000015
40
0.0937500000000015
40
0.109375000000002
40
0.109375000000002
40
0.125000000000002
40
0.125000000000002
40
0.187500000000003
40
0.187500000000003
40
0.250000000000003
40
0.250000000000003
40
0.312500000000004
40
0.312500000000004
40
0.375000000000004
40
0.375000000000004
40
0.437500000000005
40
0.437500000000005
40
0.500000000000005
40
0.500000000000005
40
0.625000000000004
40
0.625000000000004
40
0.750000000000003
40
0.750000000000003
40
1
40
1
40
1
40
1
41
1
10
-0.394913799811292
20
-5.88258567299198
30
0
41
1
10
-0.411179767739839
20
-5.89649691057784
30
0
41
1
10
-0.428385528731525
20
-5.9092465495807
30
0
41
1
10
-0.465498465923076
20
-5.93142083367187
30
0
41
1
10
-0.485435076069336
20
-5.94077911690979
30
0
41
1
10
-0.51661811336291
20
-5.95056031325876
30
0
41
1
10
-0.527276324395132
20
-5.95314074745059
30
0
41
1
10
-0.549206920263828
20
-5.95671995870117
30
0
41
1
10
-0.560415091038067
20
-5.95768466870928
30
0
41
1
10
-0.58250081474057
20
-5.95786749214818
30
0
41
1
10
-0.593492347068235
20
-5.95710769696265
30
0
41
1
10
-0.615375629113458
20
-5.95393340336648
30
0
41
1
10
-0.626367558761331
20
-5.95148389835953
30
0
41
1
10
-0.679561105282943
20
-5.93569979012776
30
0
41
1
10
-0.717294953002494
20
-5.91197663005141
30
0
41
1
10
-0.782992880043736
20
-5.85711793826459
30
0
41
1
10
-0.811889887189636
20
-5.82526724315804
30
0
41
1
10
-0.863632300216523
20
-5.75907701915671
30
0
41
1
10
-0.886653206455122
20
-5.72449384855281
30
0
41
1
10
-0.929268994496795
20
-5.65349793311392
30
0
41
1
10
-0.948821917963414
20
-5.61706391416041
30
0
41
1
10
-0.985490326811572
20
-5.54286169997812
30
0
41
1
10
-1.00262576586445
20
-5.50500475294345
30
0
41
1
10
-1.03481085007658
20
-5.42880990558524
30
0
41
1
10
-1.049879588408
20
-5.39043436268412
30
0
41
1
10
-1.0927183179077
20
-5.27463055419165
30
0
41
1
10
-1.11815612697546
20
-5.19653320994783
30
0
41
1
10
-1.16484869971202
20
-5.03900155537232
30
0
41
1
10
-1.18607375956299
20
-4.95956033007351
30
0
41
1
10
-1.24501875177998
20
-4.71955641770521
30
0
41
1
10
-1.27808207400781
20
-4.55733024919127
30
0
41
1
10
-1.30710678118655
20
-4.39331221032489
30
0
0
SPLINE
5
14E
100
AcDbEntity
8
SK1
62
256
6
ByLayer
370
18
48
1
60
0
100
AcDbSpline
70
4
71
3
72
26
73
22
40
0
40
0
40
0
40
0
40
0.25
40
0.25
40
0.499999999999999
40
0.499999999999999
40
0.624999999999999
40
0.624999999999999
40
0.749999999999999
40
0.749999999999999
40
0.812499999999999
40
0.812499999999999
40
0.874999999999998
40
0.874999999999998
40
0.906249999999998
40
0.906249999999998
40
0.937499999999999
40
0.937499999999999
40
0.968749999999999
40
0.968749999999999
40
1
40
1
40
1
40
1
41
1
10
-0.199999999999989
20
-6.5522771223242
30
0
41
1
10
-0.200337167165458
20
-6.48813612986294
30
0
41
1
10
-0.202001510499855
20
-6.42391230321709
30
0
41
1
10
-0.209070114923094
20
-6.2952839971141
30
0
41
1
10
-0.214382828797881
20
-6.23087903508431
30
0
41
1
10
-0.227377685183967
20
-6.13412972903654
30
0
41
1
10
-0.232547642906553
20
-6.10194739347943
30
0
41
1
10
-0.24562435876868
20
-6.03795723443596
30
0
41
1
10
-0.253472917847972
20
-6.00602750871005
30
0
41
1
10
-0.269245267236215
20
-5.95968016956084
30
0
41
1
10
-0.275173744753147
20
-5.94446441589318
30
0
41
1
10
-0.289582728448579
20
-5.91492711296701
30
0
41
1
10
-0.298086681857257
20
-5.90030478750055
30
0
41
1
10
-0.314848838487791
20
-5.88165454576188
30
0
41
1
10
-0.321040616956566
20
-5.87610899057319
30
0
41
1
10
-0.335228015879011
20
-5.86767232938709
30
0
41
1
10
-0.343317431356439
20
-5.86495514304283
30
0
41
1
10
-0.359534957572151
20
-5.86423711805915
30
0
41
1
10
-0.367571007865024
20
-5.86616228333779
30
0
41
1
10
-0.382101750029363
20
-5.87272803663097
30
0
41
1
10
-0.388790995722047
20
-5.8773492319288
30
0
41
1
10
-0.394913799811292
20
-5.88258567299096
30
0
0
SPLINE
5
14F
100
AcDbEntity
8
SK1
62
256
6
ByLayer
370
18
48
1
60
0
100
AcDbSpline
70
4
71
3
72
26
73
22
40
0
40
0
40
0
40
0
40
0.0312500000000004
40
0.0312500000000004
40
0.0625000000000007
40
0.0625000000000007
40
0.0937500000000011
40
0.0937500000000011
40
0.125000000000001
40
0.125000000000001
40
0.187500000000002
40
0.187500000000002
40
0.250000000000003
40
0.250000000000003
40
0.375000000000002
40
0.375000000000002
40
0.500000000000002
40
0.500000000000002
40
0.750000000000001
40
0.750000000000001
40
1
40
1
40
1
40
1
41
1
10
-0.394913799811292
20
5.88258733498486
30
0
41
1
10
-0.388797151417009
20
5.87735615537409
30
0
41
1
10
-0.382178785255292
20
5.87276841938103
30
0
41
1
10
-0.367546286948027
20
5.86614886022036
30
0
41
1
10
-0.359526893301506
20
5.86424432755425
30
0
41
1
10
-0.343383569558824
20
5.86494868021518
30
0
41
1
10
-0.335352808247933
20
5.86760693914616
30
0
41
1
10
-0.320994194999628
20
5.87613112177431
30
0
41
1
10
-0.314813212304813
20
5.88168816956644
30
0
41
1
10
-0.298019479410158
20
5.90039666885906
30
0
41
1
10
-0.289632513493331
20
5.91481530038885
30
0
41
1
10
-0.275047927333134
20
5.94473551098514
30
0
41
1
10
-0.269098119985245
20
5.96006824141057
30
0
41
1
10
-0.253300744549307
20
6.00662925270231
30
0
41
1
10
-0.245511863308593
20
6.03842225102412
30
0
41
1
10
-0.232418188951044
20
6.10267140648256
30
0
41
1
10
-0.227272492676377
20
6.13483454456409
30
0
41
1
10
-0.214352717274949
20
6.23126736367328
30
0
41
1
10
-0.209053161149114
20
6.2955371813469
30
0
41
1
10
-0.202001043985973
20
6.42397958322999
30
0
41
1
10
-0.20033707875217
20
6.48815453706811
30
0
41
1
10
-0.199999999999989
20
6.55227865789391
30
0
0
SPLINE
5
150
100
AcDbEntity
8
SK1
62
256
6
ByLayer
370
18
48
1
60
0
100
AcDbSpline
70
4
71
3
72
32
73
28
40
0
40
0
40
0
40
0
40
0.249999999999999
40
0.249999999999999
40
0.374999999999999
40
0.374999999999999
40
0.499999999999999
40
0.499999999999999
40
0.624999999999999
40
0.624999999999999
40
0.687499999999999
40
0.687499999999999
40
0.749999999999999
40
0.749999999999999
40
0.812499999999999
40
0.812499999999999
40
0.843749999999999
40
0.843749999999999
40
0.874999999999999
40
0.874999999999999
40
0.906249999999999
40
0.906249999999999
40
0.921874999999999
40
0.921874999999999
40
0.937499999999999
40
0.937499999999999
40
1
40
1
40
1
40
1
41
1
10
-1.30710678118655
20
4.39330887788611
30
0
41
1
10
-1.2780743714186
20
4.55737118832224
30
0
41
1
10
-1.24497216390387
20
4.7198378602867
30
0
41
1
10
-1.18580542268836
20
4.96060522060526
30
0
41
1
10
-1.16445181152812
20
5.0404563911583
30
0
41
1
10
-1.11752093416874
20
5.198557960106
30
0
41
1
10
-1.09200642706725
20
5.27670114460142
30
0
41
1
10
-1.03498549421172
20
5.43054889899611
30
0
41
1
10
-1.00357369005187
20
5.50628559579377
30
0
41
1
10
-0.948842305699031
20
5.61701592648751
30
0
41
1
10
-0.929311633153446
20
5.65344083322162
30
0
41
1
10
-0.886408174549814
20
5.72489104401427
30
0
41
1
10
-0.863044052761836
20
5.75990606707859
30
0
41
1
10
-0.81136689943969
20
5.8258612833736
30
0
41
1
10
-0.783079686795759
20
5.85708975359276
30
0
41
1
10
-0.733280688453021
20
5.89860840862806
30
0
41
1
10
-0.715743791280289
20
5.91124847506279
30
0
41
1
10
-0.677973782385635
20
5.93308968840066
30
0
41
1
10
-0.657745921602782
20
5.94220058775309
30
0
41
1
10
-0.615734996481478
20
5.95461437182678
30
0
41
1
10
-0.593240589266884
20
5.95798393410075
30
0
41
1
10
-0.560186449219628
20
5.95767132879206
30
0
41
1
10
-0.54924370449001
20
5.95672090529095
30
0
41
1
10
-0.527503554619585
20
5.95318620141711
30
0
41
1
10
-0.516622342716403
20
5.95056688400265
30
0
41
1
10
-0.46426944173902
20
5.93412751448795
30
0
41
1
10
-0.427415916991805
20
5.91038432473178
30
0
41
1
10
-0.394913799811292
20
5.88258733498486
30
0
0
SPLINE
5
151
100
AcDbEntity
8
SK1
62
256
6
ByLayer
370
18
48
1
60
0
100
AcDbSpline
70
4
71
3
72
28
73
24
40
0
40
0
40
0
40
0
40
0.125
40
0.125
40
0.25
40
0.25
40
0.3125
40
0.3125
40
0.34375
40
0.34375
40
0.375
40
0.375
40
0.5
40
0.5
40
0.625
40
0.625
40
0.6875
40
0.6875
40
0.75
40
0.75
40
0.875
40
0.875
40
1
40
1
40
1
40
1
41
1
10
-1.30710678118655
20
-4.39331221032492
30
0
41
1
10
-1.36954547363729
20
-4.04047241000961
30
0
41
1
10
-1.42791896221394
20
-3.68469473521455
30
0
41
1
10
-1.53342175503582
20
-2.96616199669307
30
0
41
1
10
-1.58051371000479
20
-2.60339474516391
30
0
41
1
10
-1.63969017396079
20
-2.05289759168917
30
0
41
1
10
-1.65749856469557
20
-1.86833789193395
30
0
41
1
10
-1.68090524760893
20
-1.58974420341141
30
0
41
1
10
-1.68815609252624
20
-1.4965870997257
30
0
41
1
10
-1.70147805604537
20
-1.30965819488989
30
0
41
1
10
-1.70755165689624
20
-1.21581541728389
30
0
41
1
10
-1.73465194668449
20
-0.747328919912889
30
0
41
1
10
-1.74568944185958
20
-0.373241829252151
30
0
41
1
10
-1.7456846982345
20
0.373499850699886
30
0
41
1
10
-1.73464739139644
20
0.746154674734555
30
0
41
1
10
-1.70248074969007
20
1.30410713450161
30
0
41
1
10
-1.68923323898761
20
1.48992312989222
30
0
41
1
10
-1.65815238798461
20
1.86123971402802
30
0
41
1
10
-1.64028452187063
20
2.04701796567377
30
0
41
1
10
-1.58095222331164
20
2.60000741581416
30
0
41
1
10
-1.53372925180184
20
2.96395482764061
30
0
41
1
10
-1.42802058606347
20
3.68410642628018
30
0
41
1
10
-1.36957095808998
20
4.04032346385458
30
0
41
1
10
-1.30710678118655
20
4.39330887788608
30
0
0
SPLINE
5
152
100
AcDbEntity
8
1
62
256
6
ByLayer
370
18
48
1
60
0
100
AcDbSpline
70
4
71
3
72
97
73
93
40
0
40
0
40
0
40
0
40
0.0312454612107987
40
0.0312454612107987
40
0.0390579978139376
40
0.0390579978139376
40
0.0468705344170765
40
0.0468705344170765
40
0.0624956076233538
40
0.0624956076233538
40
0.0937457540359088
40
0.124995900448464
40
0.124995900448464
40
0.140620973654741
40
0.140620973654741
40
0.14843351025788
40
0.14843351025788
40
0.156246046861018
40
0.156246046861018
40
0.187496193273573
40
0.187496193273573
40
0.218746339686128
40
0.218746339686128
40
0.249996486098682
40
0.249996486098682
40
0.26562155930496
40
0.26562155930496
40
0.273434095908098
40
0.273434095908098
40
0.281246632511237
40
0.281246632511237
40
0.312496778923792
40
0.312496778923792
40
0.343746925336346
40
0.343746925336346
40
0.374997071748901
40
0.374997071748901
40
0.390622144955179
40
0.390622144955179
40
0.406247218161456
40
0.406247218161456
40
0.437497364574011
40
0.437497364574011
40
0.468747510986565
40
0.468747510986565
40
0.49999765739912
40
0.49999765739912
40
0.507810194002259
40
0.507810194002259
40
0.515622730605398
40
0.515622730605398
40
0.531247803811675
40
0.531247803811675
40
0.56249795022423
40
0.56249795022423
40
0.593748096636785
40
0.593748096636785
40
0.62499824304934
40
0.62499824304934
40
0.632810779652479
40
0.632810779652479
40
0.640623316255618
40
0.640623316255618
40
0.656248389461895
40
0.656248389461895
40
0.68749853587445
40
0.718748682287005
40
0.718748682287005
40
0.74999882869956
40
0.74999882869956
40
0.781248975112115
40
0.781248975112115
40
0.81249912152467
40
0.843749267937225
40
0.843749267937225
40
0.859374341143503
40
0.859374341143503
40
0.867186877746641
40
0.867186877746641
40
0.87499941434978
40
0.87499941434978
40
0.906249560762335
40
0.906249560762335
40
0.93749970717489
40
0.93749970717489
40
0.968749853587445
40
0.968749853587445
40
0.984374926793723
40
0.984374926793723
40
0.992187463396861
40
0.992187463396861
40
1
40
1
40
1
40
1
41
1
10
114.673689389788
20
19.9999966204163
30
0
41
1
10
114.673661336951
20
20.0004153944171
30
0
41
1
10
114.676233471551
20
19.9620032790724
30
0
41
1
10
114.682810709119
20
19.8638884494806
30
0
41
1
10
114.684294804271
20
19.8417532846865
30
0
41
1
10
114.687585174232
20
19.7926901174414
30
0
41
1
10
114.689392981974
20
19.7657392461403
30
0
41
1
10
114.695300383446
20
19.6776977685582
30
0
41
1
10
114.699883668083
20
19.6094219669542
30
0
41
1
10
114.715548128758
20
19.3762651416682
30
0
41
1
10
114.741531012376
20
18.9899528824569
30
0
41
1
10
114.777704661541
20
18.4544715939069
30
0
41
1
10
114.808761079306
20
17.996249957784
30
0
41
1
10
114.819768710946
20
17.8340606973465
30
0
41
1
10
114.837287113125
20
17.5763917342088
30
0
41
1
10
114.843294483291
20
17.4881036476699
30
0
41
1
10
114.855649946693
20
17.3066838190703
30
0
41
1
10
114.862004796614
20
17.2134532003184
30
0
41
1
10
114.894488789563
20
16.737339716726
30
0
41
1
10
114.922826551629
20
16.323396864736
30
0
41
1
10
114.984179731819
20
15.4314153334877
30
0
41
1
10
115.017195277795
20
14.9533718210712
30
0
41
1
10
115.08800769976
20
13.9336413310761
30
0
41
1
10
115.125804198162
20
13.3919554424948
30
0
41
1
10
115.186259912993
20
12.5309238559812
30
0
41
1
10
115.207039695065
20
12.2358178510339
30
0
41
1
10
115.23918337464
20
11.7808081601216
30
0
41
1
10
115.250073561299
20
11.6268926475191
30
0
41
1
10
115.272116034402
20
11.3158721898508
30
0
41
1
10
115.283260485061
20
11.1588771436338
30
0
41
1
10
115.339599457505
20
10.3665547995072
30
0
41
1
10
115.386640225062
20
9.70923088106576
30
0
41
1
10
115.484740856771
20
8.34888195591213
30
0
41
1
10
115.535800611054
20
7.64585429708924
30
0
41
1
10
115.642119694748
20
6.19423783063201
30
0
41
1
10
115.697378513867
20
5.44565053526458
30
0
41
1
10
115.783633676094
20
4.28790822180099
30
0
41
1
10
115.812947453507
20
3.89617544714508
30
0
41
1
10
115.872747429352
20
3.10084917437717
30
0
41
1
10
115.903009133024
20
2.7002426378931
30
0
41
1
10
115.994892036855
20
1.4898395042014
30
0
41
1
10
116.057611440779
20
0.671444983664202
30
0
41
1
10
116.186120011784
20
-0.987748900347441
30
0
41
1
10
116.251908969589
20
-1.82854919111381
30
0
41
1
10
116.38676217459
20
-3.53256959098465
30
0
41
1
10
116.455825970171
20
-4.39578859262284
30
0
41
1
10
116.544377337421
20
-5.48916225018561
30
0
41
1
10
116.562198894239
20
-5.70855583117987
30
0
41
1
10
116.598069803442
20
-6.14879475164079
30
0
41
1
10
116.616113922495
20
-6.36957369519189
30
0
41
1
10
116.670322406876
20
-7.03078639904155
30
0
41
1
10
116.706651668724
20
-7.4711876129702
30
0
41
1
10
116.816233690571
20
-8.79118807048025
30
0
41
1
10
116.890080351433
20
-9.66958636673661
30
0
41
1
10
117.039489676956
20
-11.4232213055712
30
0
41
1
10
117.115052256121
20
-12.2984578857588
30
0
41
1
10
117.268037039851
20
-14.0457403863931
30
0
41
1
10
117.34545916226
20
-14.9177865196403
30
0
41
1
10
117.443497763434
20
-16.005786322783
30
0
41
1
10
117.463193010185
20
-16.2235515882711
30
0
41
1
10
117.502553323456
20
-16.6571256961008
30
0
41
1
10
117.522223557756
20
-16.8729942905311
30
0
41
1
10
117.581206335197
20
-17.5178720181208
30
0
41
1
10
117.620491067808
20
-17.9441544793675
30
0
41
1
10
117.738244467646
20
-19.2122606099317
30
0
41
1
10
117.894983684348
20
-20.8744663112538
30
0
41
1
10
118.051217064423
20
-22.480221409256
30
0
41
1
10
118.207144356034
20
-24.0574765432515
30
0
41
1
10
118.284955729972
20
-24.8318576324988
30
0
41
1
10
118.440140480988
20
-26.351160654378
30
0
41
1
10
118.516344793225
20
-27.0846428291071
30
0
41
1
10
118.665872589117
20
-28.5009613940553
30
0
41
1
10
118.812519325628
20
-29.866625341974
30
0
41
1
10
118.952916340999
20
-31.1319212236453
30
0
41
1
10
119.055569325401
20
-32.0427293874447
30
0
41
1
10
119.089344906223
20
-32.3399623410355
30
0
41
1
10
119.139294757627
20
-32.7761048328528
30
0
41
1
10
119.155825693398
20
-32.9198672154782
30
0
41
1
10
119.188639934783
20
-33.2041219009186
30
0
41
1
10
119.204928656137
20
-33.3446591832567
30
0
41
1
10
119.285325405202
20
-34.035637495298
30
0
41
1
10
119.346627991111
20
-34.5538720137442
30
0
41
1
10
119.462872652002
20
-35.5231996354379
30
0
41
1
10
119.517814627432
20
-35.9742883422096
30
0
41
1
10
119.620825955688
20
-36.8096554845454
30
0
41
1
10
119.668895629432
20
-37.1939357250933
30
0
41
1
10
119.735323923468
20
-37.7193235037476
30
0
41
1
10
119.75651918675
20
-37.8859349193373
30
0
41
1
10
119.786811699304
20
-38.122840732566
30
0
41
1
10
119.796670558007
20
-38.1997294294721
30
0
41
1
10
119.815812659575
20
-38.3486450233925
30
0
41
1
10
119.825090589195
20
-38.4206312703563
30
0
41
1
10
119.834074173711
20
-38.4901706298076
30
0
0
SPLINE
5
153
100
AcDbEntity
8
SK1
62
256
6
ByLayer
370
13
48
1
60
0
100
AcDbSpline
70
4
71
3
72
53
73
49
40
0
40
0
40
0
40
0
40
0.0274341179117346
40
0.0552320632771433
40
0.0830300086425519
40
0.0969289813252563
40
0.110827954007961
40
0.138625899373369
40
0.166423844738778
40
0.194221790104187
40
0.222019735469595
40
0.249817680835004
40
0.277615626200413
40
0.305413571565821
40
0.33321151693123
40
0.361009462296639
40
0.388807407662047
40
0.416605353027456
40
0.430504325710161
40
0.444403298392865
40
0.458302271075569
40
0.472201243758273
40
0.486100216440978
40
0.49304970278233
40
0.499999189123682
40
0.506948675465034
40
0.513898161806386
40
0.527797134489091
40
0.541696107171795
40
0.5555950798545
40
0.569494052537204
40
0.583393025219908
40
0.611190970585317
40
0.638988915950726
40
0.666786861316134
40
0.694584806681543
40
0.722382752046952
40
0.75018069741236
40
0.777978642777769
40
0.805776588143178
40
0.833574533508586
40
0.861372478873995
40
0.889170424239404
40
0.903069396922108
40
0.916968369604812
40
0.944766314970221
40
0.97256426033563
40
1
40
1
40
1
40
1
41
1
10
-1.99503997793931
20
27.3251992163755
30
0
41
1
10
-1.99503997793928
20
27.3262345265841
30
0
41
1
10
-1.99503997793931
20
27.2424006035018
30
0
41
1
10
-1.99503997793928
20
26.8920579638066
30
0
41
1
10
-1.99503997793928
20
26.4304294784276
30
0
41
1
10
-1.99503997793928
20
25.9687186091476
30
0
41
1
10
-1.99503997793928
20
25.4475793002845
30
0
41
1
10
-1.99503997793928
20
24.6899114886171
30
0
41
1
10
-1.99503997793928
20
23.619443795401
30
0
41
1
10
-1.99503997793928
20
22.396811187269
30
0
41
1
10
-1.99503997793928
20
21.0275777036138
30
0
41
1
10
-1.99503997793928
20
19.5171387431293
30
0
41
1
10
-1.99503997793928
20
17.8697605888624
30
0
41
1
10
-1.99503997793928
20
16.0876370834377
30
0
41
1
10
-1.99503997793928
20
14.1736586399812
30
0
41
1
10
-1.99503997793928
20
12.1286054195275
30
0
41
1
10
-1.99503997793928
20
9.95349522257501
30
0
41
1
10
-1.99503997793928
20
8.03329795823163
30
0
41
1
10
-1.99503997793928
20
6.43152354524264
30
0
41
1
10
-1.99503997793928
20
5.19920324116254
30
0
41
1
10
-1.99503997793928
20
3.93622738701504
30
0
41
1
10
-1.99503997793928
20
2.64495367748941
30
0
41
1
10
-1.99503997793928
20
1.54951551889729
30
0
41
1
10
-1.99503997793928
20
0.6647912077417
30
0
41
1
10
-1.99503997793928
20
-1.48582728E-08
30
0
41
1
10
-1.99503997793928
20
-0.664791253601607
30
0
41
1
10
-1.99503997793928
20
-1.549515656636
30
0
41
1
10
-1.99503997793928
20
-2.64495403942521
30
0
41
1
10
-1.99503997793928
20
-3.93622781621522
30
0
41
1
10
-1.99503997793928
20
-5.19920320851571
30
0
41
1
10
-1.99503997793928
20
-6.43152352997811
30
0
41
1
10
-1.99503997793928
20
-8.03329822829241
30
0
41
1
10
-1.99503997793928
20
-9.95349533700443
30
0
41
1
10
-1.99503997793928
20
-12.1286054335931
30
0
41
1
10
-1.99503997793928
20
-14.1736586478766
30
0
41
1
10
-1.99503997793928
20
-16.0876367400659
30
0
41
1
10
-1.99503997793928
20
-17.8697602043723
30
0
41
1
10
-1.99503997793928
20
-19.5171385903506
30
0
41
1
10
-1.99503997793928
20
-21.027578149028
30
0
41
1
10
-1.99503997793928
20
-22.3968114946305
30
0
41
1
10
-1.99503997793928
20
-23.6194427004969
30
0
41
1
10
-1.99503997793928
20
-24.6899119683388
30
0
41
1
10
-1.99503997793928
20
-25.4475821015686
30
0
41
1
10
-1.99503997793928
20
-25.9687206006143
30
0
41
1
10
-1.99503997793928
20
-26.4304294614745
30
0
41
1
10
-1.99503997793928
20
-26.8920582242086
30
0
41
1
10
-1.99503997793928
20
-27.2424073888226
30
0
41
1
10
-1.99503997793928
20
-27.3262392518023
30
0
41
1
10
-1.99503997793928
20
-27.3251990392754
30
0
0
SPLINE
5
154
100
AcDbEntity
8
SK1
62
256
6
ByLayer
370
18
48
1
60
0
100
AcDbSpline
70
4
71
3
72
53
73
49
40
0
40
0
40
0
40
0
40
0.0210146923527979
40
0.0491908046307757
40
0.0773669169087534
40
0.0914549730477422
40
0.105543029186731
40
0.133719141464709
40
0.161895253742687
40
0.190071366020664
40
0.218247478298642
40
0.24642359057662
40
0.274599702854598
40
0.302775815132575
40
0.330951927410553
40
0.359128039688531
40
0.387304151966508
40
0.415480264244486
40
0.429568320383475
40
0.443656376522464
40
0.457744432661453
40
0.471832488800441
40
0.48592054493943
40
0.492964573008925
40
0.500008601078419
40
0.507052629147914
40
0.514096657217408
40
0.528184713356397
40
0.542272769495386
40
0.556360825634375
40
0.570448881773364
40
0.584536937912353
40
0.61271305019033
40
0.640889162468308
40
0.669065274746286
40
0.697241387024263
40
0.725417499302241
40
0.753593611580219
40
0.781769723858197
40
0.809945836136174
40
0.838121948414152
40
0.86629806069213
40
0.894474172970107
40
0.908562229109096
40
0.922650285248085
40
0.950826397526063
40
0.979002509804041
40
1
40
1
40
1
40
1
41
1
10
-46.5
20
26.4007340646984
30
0
41
1
10
-46.5
20
26.3864861920061
30
0
41
1
10
-46.5
20
26.2996955578917
30
0
41
1
10
-46.5
20
25.9864884679325
30
0
41
1
10
-46.5
20
25.5370892350002
30
0
41
1
10
-46.5
20
25.0857116283692
30
0
41
1
10
-46.5
20
24.5758332694777
30
0
41
1
10
-46.5
20
23.8359097589668
30
0
41
1
10
-46.5
20
22.7886268297894
30
0
41
1
10
-46.5
20
21.5920242293512
30
0
41
1
10
-46.5
20
20.2518563243232
30
0
41
1
10
-46.5
20
18.773677001608
30
0
41
1
10
-46.5
20
17.1623226058105
30
0
41
1
10
-46.5
20
15.4206187950808
30
0
41
1
10
-46.5
20
13.5524250589533
30
0
41
1
10
-46.5
20
11.5601508338966
30
0
41
1
10
-46.5
20
9.44715323273309
30
0
41
1
10
-46.5
20
7.59259314167716
30
0
41
1
10
-46.5
20
6.04686117862462
30
0
41
1
10
-46.5
20
4.86698685362288
30
0
41
1
10
-46.5
20
3.66582628473356
30
0
41
1
10
-46.5
20
2.4492942236117
30
0
41
1
10
-46.5
20
1.43224163583807
30
0
41
1
10
-46.5
20
0.611404309556576
30
0
41
1
10
-46.5
20
2.92682472E-07
30
0
41
1
10
-46.5
20
-0.611403917686943
30
0
41
1
10
-46.5
20
-1.43224195164228
30
0
41
1
10
-46.5
20
-2.44929526971745
30
0
41
1
10
-46.5
20
-3.66582656723673
30
0
41
1
10
-46.5
20
-4.866986288764
30
0
41
1
10
-46.5
20
-6.04686128085439
30
0
41
1
10
-46.5
20
-7.59259349580967
30
0
41
1
10
-46.5
20
-9.44715327893681
30
0
41
1
10
-46.5
20
-11.5601507996435
30
0
41
1
10
-46.5
20
-13.5524250004931
30
0
41
1
10
-46.5
20
-15.4206184072864
30
0
41
1
10
-46.5
20
-17.1623222405147
30
0
41
1
10
-46.5
20
-18.7736769529143
30
0
41
1
10
-46.5
20
-20.2518568208893
30
0
41
1
10
-46.5
20
-21.5920243888973
30
0
41
1
10
-46.5
20
-22.7886257535111
30
0
41
1
10
-46.5
20
-23.8359105369953
30
0
41
1
10
-46.5
20
-24.5758361522005
30
0
41
1
10
-46.5
20
-25.0857134120403
30
0
41
1
10
-46.5
20
-25.5370891216558
30
0
41
1
10
-46.5
20
-25.9864887242638
30
0
41
1
10
-46.5
20
-26.2996258789242
30
0
41
1
10
-46.5
20
-26.3864253167797
30
0
41
1
10
-46.5
20
-26.4006989352422
30
0
0
SPLINE
5
155
100
AcDbEntity
8
SK1
62
256
6
ByLayer
370
18
48
1
60
0
100
AcDbSpline
70
4
71
3
72
53
73
49
40
0
40
0
40
0
40
0
40
0.0183316019665993
40
0.0466650253856611
40
0.0749984488047229
40
0.0891651605142537
40
0.103331872223785
40
0.131665295642846
40
0.159998719061908
40
0.18833214248097
40
0.216665565900032
40
0.244998989319093
40
0.273332412738155
40
0.301665836157217
40
0.329999259576279
40
0.35833268299534
40
0.386666106414402
40
0.414999529833464
40
0.429166241542995
40
0.443332953252526
40
0.457499664962057
40
0.471666376671588
40
0.485833088381118
40
0.492916444235884
40
0.499999800090649
40
0.507083155945415
40
0.51416651180018
40
0.528333223509711
40
0.542499935219242
40
0.556666646928773
40
0.570833358638304
40
0.585000070347835
40
0.613333493766896
40
0.641666917185958
40
0.67000034060502
40
0.698333764024082
40
0.726667187443143
40
0.755000610862205
40
0.783334034281267
40
0.811667457700329
40
0.84000088111939
40
0.868334304538452
40
0.896667727957514
40
0.910834439667045
40
0.925001151376576
40
0.953334574795637
40
0.981667998214699
40
1
40
1
40
1
40
1
41
1
10
-2.19999999999999
20
27.5061054615973
30
0
41
1
10
-2.19999999999999
20
27.4878480352028
30
0
41
1
10
-2.20000000000002
20
27.3966067928836
30
0
41
1
10
-2.19999999999999
20
27.0843206529938
30
0
41
1
10
-2.19999999999999
20
26.6200957584238
30
0
41
1
10
-2.19999999999999
20
26.156191020121
30
0
41
1
10
-2.19999999999999
20
25.6326608836802
30
0
41
1
10
-2.19999999999999
20
24.8712257553423
30
0
41
1
10
-2.19999999999999
20
23.7958356733944
30
0
41
1
10
-2.19999999999999
20
22.5676765989874
30
0
41
1
10
-2.19999999999999
20
21.1922721628705
30
0
41
1
10
-2.19999999999999
20
19.6749841148914
30
0
41
1
10
-2.19999999999999
20
18.0199577075533
30
0
41
1
10
-2.19999999999999
20
16.229252641869
30
0
41
1
10
-2.19999999999999
20
14.3055535850363
30
0
41
1
10
-2.19999999999999
20
12.2492947844102
30
0
41
1
10
-2.19999999999999
20
10.0609973779136
30
0
41
1
10
-2.19999999999999
20
8.12686459619209
30
0
41
1
10
-2.19999999999999
20
6.51319173456665
30
0
41
1
10
-2.19999999999999
20
5.26973655346097
30
0
41
1
10
-2.19999999999999
20
3.99363661217191
30
0
41
1
10
-2.19999999999999
20
2.68649440179473
30
0
41
1
10
-2.19999999999999
20
1.57441409623579
30
0
41
1
10
-2.19999999999999
20
0.676125852580327
30
0
41
1
10
-2.19999999999999
20
-8.01526596E-08
30
0
41
1
10
-2.19999999999999
20
-0.676125991375216
30
0
41
1
10
-2.19999999999999
20
-1.57441419616916
30
0
41
1
10
-2.19999999999999
20
-2.68649461847352
30
0
41
1
10
-2.19999999999999
20
-3.99363707251752
30
0
41
1
10
-2.19999999999999
20
-5.26973663380883
30
0
41
1
10
-2.19999999999999
20
-6.51319169435675
30
0
41
1
10
-2.19999999999999
20
-8.1268648484035
30
0
41
1
10
-2.19999999999999
20
-10.0609975068282
30
0
41
1
10
-2.19999999999999
20
-12.2492948087344
30
0
41
1
10
-2.19999999999999
20
-14.3055536070197
30
0
41
1
10
-2.19999999999999
20
-16.2292523079286
30
0
41
1
10
-2.19999999999999
20
-18.0199573189881
30
0
41
1
10
-2.19999999999999
20
-19.6749839400143
30
0
41
1
10
-2.19999999999999
20
-21.1922725974247
30
0
41
1
10
-2.19999999999999
20
-22.5676769377316
30
0
41
1
10
-2.19999999999999
20
-23.7958345745359
30
0
41
1
10
-2.19999999999999
20
-24.87122617173
30
0
41
1
10
-2.19999999999999
20
-25.6326636676739
30
0
41
1
10
-2.19999999999999
20
-26.1561930557051
30
0
41
1
10
-2.19999999999999
20
-26.6200957619357
30
0
41
1
10
-2.19999999999999
20
-27.0843209142601
30
0
41
1
10
-2.19999999999999
20
-27.3966084377365
30
0
41
1
10
-2.19999999999999
20
-27.4878494505301
30
0
41
1
10
-2.19999999999999
20
-27.5061065380814
30
0
0
SPLINE
5
156
100
AcDbEntity
8
SK1
62
256
6
ByLayer
370
13
48
1
60
0
100
AcDbSpline
70
4
71
3
72
25
73
21
40
0
40
0
40
0
40
0
40
0.0619253074183305
40
0.125616031560467
40
0.189306755702604
40
0.221152117773673
40
0.252997479844741
40
0.316688203986878
40
0.380378928129015
40
0.444069652271152
40
0.507760376413289
40
0.571451100555426
40
0.635141824697563
40
0.6988325488397
40
0.762523272981837
40
0.826213997123974
40
0.889904721266111
40
0.953595445408248
40
0.985440807479316
40
1
40
1
40
1
40
1
41
1
10
-0.39491379981132
20
27.3654103347358
30
0
41
1
10
-0.394913799811263
20
27.365184901892
30
0
41
1
10
-0.394913799811263
20
27.280758441159
30
0
41
1
10
-0.394913799811292
20
26.931711914563
30
0
41
1
10
-0.394913799811292
20
26.4695479228793
30
0
41
1
10
-0.394913799811292
20
26.0073845707252
30
0
41
1
10
-0.394913799811292
20
25.4857521565205
30
0
41
1
10
-0.394913799811292
20
24.7273073402748
30
0
41
1
10
-0.394913799811292
20
23.6558244102429
30
0
41
1
10
-0.394913799811292
20
22.4320519750209
30
0
41
1
10
-0.394913799811292
20
21.061545739767
30
0
41
1
10
-0.394913799811292
20
19.5496941631405
30
0
41
1
10
-0.394913799811292
20
17.9007385657829
30
0
41
1
10
-0.394913799811292
20
16.116845123771
30
0
41
1
10
-0.394913799811292
20
14.2008618153781
30
0
41
1
10
-0.394913799811292
20
12.153497457354
30
0
41
1
10
-0.394913799811292
20
9.97566741413243
30
0
41
1
10
-0.394913799811292
20
8.05259596592003
30
0
41
1
10
-0.394913799811292
20
6.66606769858657
30
0
41
1
10
-0.394913799811292
20
6.07052516538184
30
0
41
1
10
-0.394913799811292
20
5.88258733498486
30
0
0
SPLINE
5
157
100
AcDbEntity
8
SK1
62
256
6
ByLayer
370
13
48
1
60
0
100
AcDbSpline
70
4
71
3
72
25
73
21
40
0
40
0
40
0
40
0
40
0.0145587294273247
40
0.0464029848395823
40
0.110091495664097
40
0.173780006488613
40
0.237468517313128
40
0.301157028137643
40
0.364845538962158
40
0.428534049786673
40
0.492222560611189
40
0.555911071435704
40
0.619599582260219
40
0.683288093084734
40
0.746976603909249
40
0.778820859321507
40
0.810665114733765
40
0.87435362555828
40
0.938042136382795
40
1
40
1
40
1
40
1
41
1
10
-0.394913799811292
20
-5.88258567299198
30
0
41
1
10
-0.394913799811292
20
-6.07052405947678
30
0
41
1
10
-0.394913799811292
20
-6.66606717738506
30
0
41
1
10
-0.394913799811292
20
-8.05259623229938
30
0
41
1
10
-0.394913799811292
20
-9.97566753154939
30
0
41
1
10
-0.394913799811292
20
-12.1534974735354
30
0
41
1
10
-0.394913799811292
20
-14.2008618261791
30
0
41
1
10
-0.394913799811292
20
-16.1168447823444
30
0
41
1
10
-0.394913799811292
20
-17.9007381804523
30
0
41
1
10
-0.394913799811292
20
-19.549694005804
30
0
41
1
10
-0.394913799811292
20
-21.0615461829413
30
0
41
1
10
-0.394913799811292
20
-22.432052288855
30
0
41
1
10
-0.394913799811292
20
-23.6558233145232
30
0
41
1
10
-0.394913799811292
20
-24.7273078069339
30
0
41
1
10
-0.394913799811292
20
-25.4857549542384
30
0
41
1
10
-0.394913799811292
20
-26.0073865712911
30
0
41
1
10
-0.394913799811292
20
-26.4695479101472
30
0
41
1
10
-0.394913799811292
20
-26.9317121751432
30
0
41
1
10
-0.394913799811292
20
-27.280822383009
30
0
41
1
10
-0.394913799811292
20
-27.3652313508939
30
0
41
1
10
-0.394913799811292
20
-27.3654106730061
30
0
0
SPLINE
5
158
100
AcDbEntity
8
SK1
62
256
6
ByLayer
370
18
48
1
60
0
100
AcDbSpline
70
4
71
3
72
10
73
6
40
0
40
0
40
0
40
0
40
0.5
40
0.5
40
1
40
1
40
1
40
1
41
1
10
-0.199999999999989
20
6.60073791650279
30
0
41
1
10
-0.15651302559877
20
6.51552540369704
30
0
41
1
10
-0.120155698367512
20
6.42786812739112
30
0
41
1
10
-0.054887232979155
20
6.24971292299793
30
0
41
1
10
-0.0261571401700849
20
6.15915954546858
30
0
41
1
10
1.1255E-11
20
6.06752110354569
30
0
0
SPLINE
5
159
100
AcDbEntity
8
SK1
62
256
6
ByLayer
370
18
48
1
60
0
100
AcDbSpline
70
4
71
3
72
10
73
6
40
0
40
0
40
0
40
0
40
0.5
40
0.5
40
1
40
1
40
1
40
1
41
1
10
0
20
-6.06751938797547
30
0
41
1
10
-0.0261571546478763
20
-6.15915785661466
30
0
41
1
10
-0.0548872560104314
20
-6.24971126591987
30
0
41
1
10
-0.12015572325987
20
-6.42786654391557
30
0
41
1
10
-0.156513044074785
20
-6.5155238619196
30
0
41
1
10
-0.19999999999601
20
-6.60073642225885
30
0
0
SPLINE
5
15A
100
AcDbEntity
8
SK1
62
256
6
ByLayer
370
18
48
1
60
0
100
AcDbSpline
70
4
71
3
72
53
73
49
40
0
40
0
40
0
40
0
40
0.0236541056899854
40
0.0516750682347156
40
0.0796960307794459
40
0.093706512051811
40
0.107716993324176
40
0.135737955868906
40
0.163758918413637
40
0.191779880958367
40
0.219800843503097
40
0.247821806047827
40
0.275842768592558
40
0.303863731137288
40
0.331884693682018
40
0.359905656226749
40
0.387926618771479
40
0.415947581316209
40
0.429958062588574
40
0.443968543860939
40
0.457979025133304
40
0.471989506405669
40
0.485999987678035
40
0.493005228314217
40
0.5000104689504
40
0.507015709586582
40
0.514020950222765
40
0.52803143149513
40
0.542041912767495
40
0.55605239403986
40
0.570062875312225
40
0.584073356584591
40
0.612094319129321
40
0.640115281674051
40
0.668136244218781
40
0.696157206763512
40
0.724178169308242
40
0.752199131852972
40
0.780220094397702
40
0.808241056942432
40
0.836262019487163
40
0.864282982031893
40
0.892303944576623
40
0.906314425848989
40
0.920324907121354
40
0.948345869666084
40
0.976366832210814
40
1
40
1
40
1
40
1
41
1
10
-48
20
-25.5393764306126
30
0
41
1
10
-48
20
-25.5303937477311
30
0
41
1
10
-48
20
-25.4480086989515
30
0
41
1
10
-48
20
-25.1322425192967
30
0
41
1
10
-48
20
-24.694378987226
30
0
41
1
10
-48
20
-24.2527507958702
30
0
41
1
10
-48
20
-23.753496542719
30
0
41
1
10
-48
20
-23.0303097721662
30
0
41
1
10
-48
20
-22.004895488713
30
0
41
1
10
-48
20
-20.832848719972
30
0
41
1
10
-48
20
-19.5200996220053
30
0
41
1
10
-48
20
-18.0723511216477
30
0
41
1
10
-48
20
-16.4949784354156
30
0
41
1
10
-48
20
-14.7914034442658
30
0
41
1
10
-48
20
-12.9663998685649
30
0
41
1
10
-48
20
-11.0239134221955
30
0
41
1
10
-48
20
-8.96950823728534
30
0
41
1
10
-48
20
-7.17686577390947
30
0
41
1
10
-48
20
-5.68399982568388
30
0
41
1
10
-48
20
-4.5535978156087
30
0
41
1
10
-48
20
-3.41075035191335
30
0
41
1
10
-48
20
-2.26472549180249
30
0
41
1
10
-48
20
-1.32161475247156
30
0
41
1
10
-48
20
-0.561042317499243
30
0
41
1
10
-48
20
5.827932625E-07
30
0
41
1
10
-48
20
0.561043122290016
30
0
41
1
10
-48
20
1.32161426869376
30
0
41
1
10
-48
20
2.26472380030225
30
0
41
1
10
-48
20
3.41075020779311
30
0
41
1
10
-48
20
4.55359888251638
30
0
41
1
10
-48
20
5.6839996126188
30
0
41
1
10
-48
20
7.17686534047002
30
0
41
1
10
-48
20
8.96950825544064
30
0
41
1
10
-48
20
11.0239135020289
30
0
41
1
10
-48
20
12.9663999896201
30
0
41
1
10
-48
20
14.7914038739653
30
0
41
1
10
-48
20
16.4949787826048
30
0
41
1
10
-48
20
18.0723510721555
30
0
41
1
10
-48
20
19.5200990771864
30
0
41
1
10
-48
20
20.8328486998638
30
0
41
1
10
-48
20
22.0048965474211
30
0
41
1
10
-48
20
23.0303087127374
30
0
41
1
10
-48
20
23.7534935831729
30
0
41
1
10
-48
20
24.2527492082177
30
0
41
1
10
-48
20
24.6943791914987
30
0
41
1
10
-48
20
25.1322422668055
30
0
41
1
10
-48
20
25.4479257964078
30
0
41
1
10
-48
20
25.5303271345793
30
0
41
1
10
-48
20
25.539352569037
30
0
0
SPLINE
5
15B
100
AcDbEntity
8
SK1
62
256
6
ByLayer
370
18
48
1
60
0
100
AcDbSpline
70
4
71
3
72
8
73
4
40
0
40
0
40
0
40
0
40
1
40
1
40
1
40
1
41
0.980125716641436
10
-0.200000000000027
20
6.55227865789369
30
0
41
0.980125716641436
10
-0.200000000000056
20
6.57917552517262
30
0
41
0.980125716641436
10
-0.200000000000085
20
6.60604818560182
30
0
41
0.980125716641436
10
-0.200000000000114
20
6.63289665789375
30
0
0
SPLINE
5
15C
100
AcDbEntity
8
SK1
62
256
6
ByLayer
370
18
48
1
60
0
100
AcDbSpline
70
4
71
3
72
8
73
4
40
0
40
0
40
0
40
0
40
1
40
1
40
1
40
1
41
0.980125716641436
10
-0.200000000000027
20
-6.5697881223347
30
0
41
0.980125716641436
10
-0.200000000000027
20
-6.56395226266179
30
0
41
0.980125716641436
10
-0.200000000000027
20
-6.55811526272198
30
0
41
0.980125716641436
10
-0.200000000000027
20
-6.55227712232421
30
0
0
SPLINE
5
15D
100
AcDbEntity
8
1
62
256
6
ByLayer
370
18
48
1
60
0
100
AcDbSpline
70
4
71
3
72
18
73
14
40
0
40
0
40
0
40
0
40
0.124999999999999
40
0.124999999999999
40
0.187499999999999
40
0.187499999999999
40
0.249999999999999
40
0.249999999999999
40
0.499999999999999
40
0.499999999999999
40
0.75
40
0.75
40
1
40
1
40
1
40
1
41
1
10
120.8
20
-40
30
0
41
1
10
120.748537593743
20
-40
30
0
41
1
10
120.697052018357
20
-39.9920500106883
30
0
41
1
10
120.620586140771
20
-39.9682118361542
30
0
41
1
10
120.595217833979
20
-39.958279604156
30
0
41
1
10
120.544835329198
20
-39.9344361977308
30
0
41
1
10
120.519816581324
20
-39.9205196573998
30
0
41
1
10
120.396157562808
20
-39.8411494168288
30
0
41
1
10
120.301575325203
20
-39.7463078995864
30
0
41
1
10
120.128709341309
20
-39.4946688883634
30
0
41
1
10
120.050357066727
20
-39.3378738960571
30
0
41
1
10
119.919408175779
20
-38.9616102248128
30
0
41
1
10
119.866627449136
20
-38.7421562283284
30
0
41
1
10
119.83407417371
20
-38.4901706298054
30
0
0
SPLINE
5
15E
100
AcDbEntity
8
1
62
256
6
ByLayer
370
18
48
1
60
0
100
AcDbSpline
70
4
71
3
72
29
73
25
40
0
40
0
40
0
40
0
40
0.249999999999985
40
0.249999999999985
40
0.499999999999969
40
0.624999999999966
40
0.624999999999966
40
0.749999999999962
40
0.749999999999962
40
0.812499999999962
40
0.812499999999962
40
0.843749999999962
40
0.843749999999962
40
0.859374999999964
40
0.859374999999964
40
0.874999999999966
40
0.874999999999966
40
0.890624999999969
40
0.890624999999969
40
0.906249999999971
40
0.906249999999971
40
0.937499999999963
40
0.937499999999963
40
1
40
1
40
1
40
1
41
1
10
125.3245
20
-22.3743632971519
30
0
41
1
10
125.3245
20
-22.3194064105515
30
0
41
1
10
125.324032399932
20
-22.2644963145765
30
0
41
1
10
125.321844723872
20
-22.1548254136162
30
0
41
1
10
125.319316428687
20
-22.0726751218279
30
0
41
1
10
125.314310421224
20
-21.9908802734126
30
0
41
1
10
125.309978969288
20
-21.9365071281193
30
0
41
1
10
125.307406823544
20
-21.9093996053931
30
0
41
1
10
125.301580753402
20
-21.8694840950615
30
0
41
1
10
125.299363093008
20
-21.8562555152021
30
0
41
1
10
125.294437082563
20
-21.8370685365972
30
0
41
1
10
125.29259372161
20
-21.8308249345891
30
0
41
1
10
125.288543171497
20
-21.8224385863293
30
0
41
1
10
125.286963273436
20
-21.8197740482077
30
0
41
1
10
125.282840776615
20
-21.816222765812
30
0
41
1
10
125.280153150168
20
-21.8157990354524
30
0
41
1
10
125.275457159849
20
-21.8184796529837
30
0
41
1
10
125.273463656978
20
-21.8210448559297
30
0
41
1
10
125.270073900227
20
-21.826430386463
30
0
41
1
10
125.268601361044
20
-21.8294023405487
30
0
41
1
10
125.264535543431
20
-21.8385750160025
30
0
41
1
10
125.262285393521
20
-21.8450450665837
30
0
41
1
10
125.256068674689
20
-21.8646952642623
30
0
41
1
10
125.252660481925
20
-21.878186159965
30
0
41
1
10
125.2495
20
-21.8917458747711
30
0
0
SPLINE
5
15F
100
AcDbEntity
8
1
62
256
6
ByLayer
370
18
48
1
60
0
100
AcDbSpline
70
4
71
3
72
12
73
8
40
0
40
0
40
0
40
0
40
0.500000000000005
40
0.500000000000005
40
0.750000000000003
40
0.750000000000003
40
1
40
1
40
1
40
1
41
1
10
125.2495
20
-24.5717458978618
30
0
41
1
10
125.273449874967
20
-24.4158065123889
30
0
41
1
10
125.291067937376
20
-24.259789627078
30
0
41
1
10
125.310080956516
20
-24.0255811011775
30
0
41
1
10
125.315133100644
20
-23.9474823744195
30
0
41
1
10
125.322320194146
20
-23.7912324466206
30
0
41
1
10
125.3245
20
-23.7132381575283
30
0
41
1
10
125.3245
20
-23.6355155582365
30
0
0
SPLINE
5
160
100
AcDbEntity
8
1
62
256
6
ByLayer
370
18
48
1
60
0
100
AcDbSpline
70
4
71
3
72
8
73
4
40
0
40
0
40
0
40
0
40
1
40
1
40
1
40
1
41
1
10
125.2495
20
-24.5717458978619
30
0
41
1
10
125.086430061288
20
-25.633506181259
30
0
41
1
10
124.869706220596
20
-26.6806088261541
30
0
41
1
10
124.6055
20
-27.7147398224983
30
0
0
SPLINE
5
161
100
AcDbEntity
8
1
62
256
6
ByLayer
370
18
48
1
60
0
100
AcDbSpline
70
4
71
3
72
28
73
24
40
0
40
0
40
0
40
0
40
0.249999999999991
40
0.249999999999991
40
0.499999999999982
40
0.499999999999982
40
0.62499999999997
40
0.62499999999997
40
0.749999999999958
40
0.749999999999958
40
0.812499999999955
40
0.812499999999955
40
0.843749999999963
40
0.843749999999963
40
0.87499999999997
40
0.87499999999997
40
0.906249999999978
40
0.906249999999978
40
0.937499999999985
40
0.937499999999985
40
0.968749999999993
40
0.968749999999993
40
1
40
1
40
1
40
1
41
1
10
124.6055
20
-27.7147398224983
30
0
41
1
10
124.588576985242
20
-27.780978286048
30
0
41
1
10
124.573778640626
20
-27.8469679361494
30
0
41
1
10
124.548417493048
20
-27.9784405235404
30
0
41
1
10
124.537797636014
20
-28.0439284447332
30
0
41
1
10
124.526574325012
20
-28.1416448640678
30
0
41
1
10
124.523621888495
20
-28.1741963552597
30
0
41
1
10
124.520256070083
20
-28.2387663711834
30
0
41
1
10
124.51977379898
20
-28.270450062886
30
0
41
1
10
124.522833074229
20
-28.316149061355
30
0
41
1
10
124.524493209776
20
-28.3311487893485
30
0
41
1
10
124.528800694706
20
-28.3525397666482
30
0
41
1
10
124.53053112703
20
-28.3594094946838
30
0
41
1
10
124.53487591584
20
-28.3723716083384
30
0
41
1
10
124.53751759955
20
-28.3785400595508
30
0
41
1
10
124.544135407032
20
-28.3891873548664
30
0
41
1
10
124.548160280846
20
-28.3937178346547
30
0
41
1
10
124.557970832039
20
-28.3993434501822
30
0
41
1
10
124.563796586259
20
-28.4002822552638
30
0
41
1
10
124.576048721416
20
-28.397708888386
30
0
41
1
10
124.582429655099
20
-28.3942878530468
30
0
41
1
10
124.594489804997
20
-28.3851889123082
30
0
41
1
10
124.600109447799
20
-28.3796698412631
30
0
41
1
10
124.6055
20
-28.3736110174262
30
0
0
SPLINE
5
162
100
AcDbEntity
8
1
62
256
6
ByLayer
370
18
48
1
60
0
100
AcDbSpline
70
4
71
3
72
8
73
4
40
0
40
0
40
0
40
0
40
1
40
1
40
1
40
1
41
1
10
124.6055
20
-28.3736110174262
30
0
41
1
10
124.822529300301
20
-28.1296763983235
30
0
41
1
10
125.037366545293
20
-27.8831983032509
30
0
41
1
10
125.2495
20
-27.6335829581344
30
0
0
SPLINE
5
163
100
AcDbEntity
8
1
62
256
6
ByLayer
370
18
48
1
60
0
100
AcDbSpline
70
4
71
3
72
18
73
14
40
0
40
0
40
0
40
0
40
0.249999999999974
40
0.249999999999974
40
0.499999999999947
40
0.499999999999947
40
0.62499999999996
40
0.62499999999996
40
0.749999999999974
40
0.749999999999974
40
0.874999999999987
40
0.874999999999987
40
1
40
1
40
1
40
1
41
1
10
125.3245
20
-27.7421428531871
30
0
41
1
10
125.3245
20
-27.7245176993836
30
0
41
1
10
125.32391229198
20
-27.707171748502
30
0
41
1
10
125.32075290832
20
-27.6734413846414
30
0
41
1
10
125.31823321225
20
-27.6567428508801
30
0
41
1
10
125.311139893003
20
-27.6345466094669
30
0
41
1
10
125.30817714617
20
-27.6275421986267
30
0
41
1
10
125.300230880857
20
-27.6160961548195
30
0
41
1
10
125.295135545578
20
-27.6116545852139
30
0
41
1
10
125.282451033099
20
-27.6091667968877
30
0
41
1
10
125.275264485858
20
-27.611435898954
30
0
41
1
10
125.261672465469
20
-27.6203894104482
30
0
41
1
10
125.255362671196
20
-27.6266844107274
30
0
41
1
10
125.2495
20
-27.6335829581344
30
0
0
SPLINE
5
164
100
AcDbEntity
8
1
62
256
6
ByLayer
370
18
48
1
60
0
100
AcDbSpline
70
4
71
3
72
12
73
8
40
0
40
0
40
0
40
0
40
0.499999999999988
40
0.499999999999988
40
0.749999999999994
40
0.749999999999994
40
1
40
1
40
1
40
1
41
1
10
125.2495
20
-28.6144050421733
30
0
41
1
10
125.27125461873
20
-28.5414192630683
30
0
41
1
10
125.288718680672
20
-28.4683926299574
30
0
41
1
10
125.308511489959
20
-28.3587664318824
30
0
41
1
10
125.313971523825
20
-28.3223883770077
30
0
41
1
10
125.321917021225
20
-28.250524051501
30
0
41
1
10
125.3245
20
-28.2149528282925
30
0
41
1
10
125.3245
20
-28.1800854813313
30
0
0
SPLINE
5
165
100
AcDbEntity
8
1
62
256
6
ByLayer
370
18
48
1
60
0
100
AcDbSpline
70
4
71
3
72
8
73
4
40
0
40
0
40
0
40
0
40
1
40
1
40
1
40
1
41
1
10
125.2495
20
-28.6144050421733
30
0
41
1
10
125.052909503293
20
-29.273957422509
30
0
41
1
10
124.837557523584
20
-29.925268829173
30
0
41
1
10
124.6055
20
-30.5692423325785
30
0
0
SPLINE
5
166
100
AcDbEntity
8
1
62
256
6
ByLayer
370
18
48
1
60
0
100
AcDbSpline
70
4
71
3
72
26
73
22
40
0
40
0
40
0
40
0
40
0.250000000000004
40
0.250000000000004
40
0.500000000000008
40
0.500000000000008
40
0.625000000000003
40
0.625000000000003
40
0.687500000000001
40
0.687500000000001
40
0.749999999999998
40
0.749999999999998
40
0.812499999999996
40
0.812499999999996
40
0.84374999999999
40
0.84374999999999
40
0.874999999999984
40
0.874999999999984
40
0.937499999999992
40
0.937499999999992
40
1
40
1
40
1
40
1
41
1
10
124.6055
20
-30.5692423325785
30
0
41
1
10
124.587643156855
20
-30.6187961400233
30
0
41
1
10
124.572015153518
20
-30.6685126312754
30
0
41
1
10
124.545768365898
20
-30.7666601579881
30
0
41
1
10
124.534984812796
20
-30.8153022796541
30
0
41
1
10
124.524406680009
20
-30.8872728105717
30
0
41
1
10
124.521852859371
20
-30.9110436505431
30
0
41
1
10
124.520418804176
20
-30.9452806611476
30
0
41
1
10
124.520340103259
20
-30.9564850710971
30
0
41
1
10
124.521316572032
20
-30.9783092712763
30
0
41
1
10
124.522379144929
20
-30.9889959860532
30
0
41
1
10
124.526211670088
20
-31.0087892667801
30
0
41
1
10
124.528987116134
20
-31.0180751916217
30
0
41
1
10
124.535310298849
20
-31.02971899791
30
0
41
1
10
124.537755477579
20
-31.0331628737239
30
0
41
1
10
124.543557893523
20
-31.0388720525554
30
0
41
1
10
124.546935275676
20
-31.0411137199879
30
0
41
1
10
124.558257275307
20
-31.0451424463261
30
0
41
1
10
124.567713171199
20
-31.0439723663318
30
0
41
1
10
124.586740793639
20
-31.0351534278307
30
0
41
1
10
124.596375598404
20
-31.0278428099313
30
0
41
1
10
124.605500000001
20
-31.0193324895505
30
0
0
SPLINE
5
167
100
AcDbEntity
8
1
62
256
6
ByLayer
370
18
48
1
60
0
100
AcDbSpline
70
4
71
3
72
8
73
4
40
0
40
0
40
0
40
0
40
1
40
1
40
1
40
1
41
1
10
124.6055
20
-31.0193324895491
30
0
41
1
10
124.820739969169
20
-30.8185783823277
30
0
41
1
10
125.035436607666
20
-30.6170527580398
30
0
41
1
10
125.2495
20
-30.4146279387559
30
0
0
SPLINE
5
168
100
AcDbEntity
8
1
62
256
6
ByLayer
370
18
48
1
60
0
100
AcDbSpline
70
4
71
3
72
20
73
16
40
0
40
0
40
0
40
0
40
0.25000000000003
40
0.25000000000003
40
0.375000000000025
40
0.375000000000025
40
0.50000000000002
40
0.50000000000002
40
0.625000000000015
40
0.625000000000015
40
0.75000000000001
40
0.75000000000001
40
0.875000000000005
40
0.875000000000005
40
1
40
1
40
1
40
1
41
1
10
125.32450000001
20
-30.4758747057858
30
0
41
1
10
125.324500000011
20
-30.4622480685126
30
0
41
1
10
125.323720006666
20
-30.4489518311855
30
0
41
1
10
125.32056082149
20
-30.4305545407479
30
0
41
1
10
125.319177438201
20
-30.4247046537611
30
0
41
1
10
125.315460180535
20
-30.4138219207665
30
0
41
1
10
125.313094294282
20
-30.4087403605803
30
0
41
1
10
125.307107301193
20
-30.4003169334066
30
0
41
1
10
125.30339385025
20
-30.39688473922
30
0
41
1
10
125.294518318095
20
-30.3929059165864
30
0
41
1
10
125.289273781814
20
-30.3923980908058
30
0
41
1
10
125.278148020212
20
-30.3946418601522
30
0
41
1
10
125.272240259158
20
-30.3973541368364
30
0
41
1
10
125.26073610745
20
-30.4047199434934
30
0
41
1
10
125.254995241478
20
-30.4094314721799
30
0
41
1
10
125.2495
20
-30.4146279387547
30
0
0
SPLINE
5
169
100
AcDbEntity
8
1
62
256
6
ByLayer
370
18
48
1
60
0
100
AcDbSpline
70
4
71
3
72
12
73
8
40
0
40
0
40
0
40
0
40
0.499999999999973
40
0.499999999999973
40
0.749999999999987
40
0.749999999999987
40
1
40
1
40
1
40
1
41
1
10
125.2495
20
-31.0912167009135
30
0
41
1
10
125.270749376286
20
-31.0375053187212
30
0
41
1
10
125.288114006892
20
-30.9840923527971
30
0
41
1
10
125.308033340519
20
-30.9044186364489
30
0
41
1
10
125.313647104952
20
-30.8778062422475
30
0
41
1
10
125.321857566803
20
-30.825404233073
30
0
41
1
10
125.3245
20
-30.799843273403
30
0
41
1
10
125.3245
20
-30.775463961686
30
0
0
SPLINE
5
16A
100
AcDbEntity
8
1
62
256
6
ByLayer
370
18
48
1
60
0
100
AcDbSpline
70
4
71
3
72
8
73
4
40
0
40
0
40
0
40
0
40
1
40
1
40
1
40
1
41
1
10
125.2495
20
-31.0912167009136
30
0
41
1
10
125.044943589855
20
-31.6082675252432
30
0
41
1
10
124.829910422179
20
-32.1194546037458
30
0
41
1
10
124.6055
20
-32.6253933182574
30
0
0
SPLINE
5
16B
100
AcDbEntity
8
1
62
256
6
ByLayer
370
18
48
1
60
0
100
AcDbSpline
70
4
71
3
72
24
73
20
40
0
40
0
40
0
40
0
40
0.250000000000015
40
0.250000000000015
40
0.500000000000029
40
0.500000000000029
40
0.625000000000027
40
0.625000000000027
40
0.687500000000022
40
0.687500000000022
40
0.750000000000018
40
0.750000000000018
40
0.812500000000013
40
0.812500000000013
40
0.875000000000009
40
0.875000000000009
40
0.937500000000004
40
0.937500000000004
40
1
40
1
40
1
40
1
41
1
10
124.6055
20
-32.6253933182574
30
0
41
1
10
124.587105291382
20
-32.6668646329223
30
0
41
1
10
124.571091296136
20
-32.7081105915474
30
0
41
1
10
124.54408524399
20
-32.7901074712468
30
0
41
1
10
124.532951748391
20
-32.8312335257821
30
0
41
1
10
124.523038409465
20
-32.8895338130816
30
0
41
1
10
124.520831971449
20
-32.9086042462075
30
0
41
1
10
124.520383997625
20
-32.9355470514791
30
0
41
1
10
124.520719822513
20
-32.944158775789
30
0
41
1
10
124.522734725193
20
-32.9603661394203
30
0
41
1
10
124.524438115292
20
-32.9680544303653
30
0
41
1
10
124.529778126137
20
-32.9813298323849
30
0
41
1
10
124.533454559674
20
-32.987003316287
30
0
41
1
10
124.543404949431
20
-32.9947235523583
30
0
41
1
10
124.549750260256
20
-32.9966617979703
30
0
41
1
10
124.564259028938
20
-32.9956830047328
30
0
41
1
10
124.572454592052
20
-32.9927821279149
30
0
41
1
10
124.588892883095
20
-32.9837225694705
30
0
41
1
10
124.59733722664
20
-32.9775187338988
30
0
41
1
10
124.6055
20
-32.9705056015301
30
0
0
SPLINE
5
16C
100
AcDbEntity
8
1
62
256
6
ByLayer
370
18
48
1
60
0
100
AcDbSpline
70
4
71
3
72
8
73
4
40
0
40
0
40
0
40
0
40
1
40
1
40
1
40
1
41
1
10
124.6055
20
-32.9705056015292
30
0
41
1
10
124.820331960648
20
-32.7859304687195
30
0
41
1
10
125.035005737834
20
-32.6011103791873
30
0
41
1
10
125.2495
20
-32.4160122997165
30
0
0
SPLINE
5
16D
100
AcDbEntity
8
1
62
256
6
ByLayer
370
18
48
1
60
0
100
AcDbSpline
70
4
71
3
72
16
73
12
40
0
40
0
40
0
40
0
40
0.249999999999986
40
0.249999999999986
40
0.499999999999972
40
0.499999999999972
40
0.624999999999977
40
0.624999999999977
40
0.749999999999982
40
0.749999999999982
40
1
40
1
40
1
40
1
41
1
10
125.324500000002
20
-32.4517920695657
30
0
41
1
10
125.324500000002
20
-32.4403673839731
30
0
41
1
10
125.323574330635
20
-32.429625754431
30
0
41
1
10
125.318509386911
20
-32.4105343684028
30
0
41
1
10
125.314345247719
20
-32.4023667097377
30
0
41
1
10
125.304383043625
20
-32.3952686195637
30
0
41
1
10
125.300413994865
20
-32.3938031093933
30
0
41
1
10
125.291511208776
20
-32.3931584348768
30
0
41
1
10
125.286527021205
20
-32.3939796046378
30
0
41
1
10
125.271023676201
20
-32.3994427929495
30
0
41
1
10
125.260027379858
20
-32.406927684706
30
0
41
1
10
125.2495
20
-32.4160122997159
30
0
0
SPLINE
5
16E
100
AcDbEntity
8
1
62
256
6
ByLayer
370
18
48
1
60
0
100
AcDbSpline
70
4
71
3
72
12
73
8
40
0
40
0
40
0
40
0
40
0.5
40
0.5
40
0.75
40
0.75
40
1
40
1
40
1
40
1
41
1
10
125.2495
20
-32.9353083296313
30
0
41
1
10
125.270400739195
20
-32.8914091058621
30
0
41
1
10
125.287982247592
20
-32.8472681461818
30
0
41
1
10
125.307957251677
20
-32.782864662175
30
0
41
1
10
125.313571379324
20
-32.7616176300329
30
0
41
1
10
125.3218661042
20
-32.7197509393174
30
0
41
1
10
125.3245
20
-32.6996254052808
30
0
41
1
10
125.3245
20
-32.6809876861899
30
0
0
SPLINE
5
16F
100
AcDbEntity
8
1
62
256
6
ByLayer
370
18
48
1
60
0
100
AcDbSpline
70
4
71
3
72
8
73
4
40
0
40
0
40
0
40
0
40
1
40
1
40
1
40
1
41
1
10
125.2495
20
-32.9353083296313
30
0
41
1
10
125.04140572646
20
-33.3723826835177
30
0
41
1
10
124.826510348702
20
-33.8049585330932
30
0
41
1
10
124.6055
20
-34.2334897125276
30
0
0
SPLINE
5
170
100
AcDbEntity
8
1
62
256
6
ByLayer
370
18
48
1
60
0
100
AcDbSpline
70
4
71
3
72
20
73
16
40
0
40
0
40
0
40
0
40
0.249999999999998
40
0.249999999999998
40
0.499999999999996
40
0.499999999999996
40
0.624999999999982
40
0.624999999999982
40
0.749999999999968
40
0.749999999999968
40
0.812499999999962
40
0.812499999999962
40
0.874999999999955
40
0.874999999999955
40
1
40
1
40
1
40
1
41
1
10
124.6055
20
-34.2334897125276
30
0
41
1
10
124.58665178262
20
-34.2700357334337
30
0
41
1
10
124.570003929807
20
-34.3067132975129
30
0
41
1
10
124.54235401958
20
-34.3786299644915
30
0
41
1
10
124.531260620271
20
-34.4137052273499
30
0
41
1
10
124.521945970035
20
-34.463435638372
30
0
41
1
10
124.520163421698
20
-34.4791290996216
30
0
41
1
10
124.520937540741
20
-34.5076437025055
30
0
41
1
10
124.523531889678
20
-34.520413368311
30
0
41
1
10
124.533361056321
20
-34.5329477804308
30
0
41
1
10
124.53766255767
20
-34.5359341976593
30
0
41
1
10
124.548184540343
20
-34.538597526839
30
0
41
1
10
124.554395521324
20
-34.5382783252421
30
0
41
1
10
124.574973031665
20
-34.5324844686063
30
0
41
1
10
124.590454765483
20
-34.5225299905646
30
0
41
1
10
124.6055
20
-34.5100772776503
30
0
0
SPLINE
5
171
100
AcDbEntity
8
1
62
256
6
ByLayer
370
18
48
1
60
0
100
AcDbSpline
70
4
71
3
72
8
73
4
40
0
40
0
40
0
40
0
40
1
40
1
40
1
40
1
41
1
10
124.6055
20
-34.5100772776499
30
0
41
1
10
124.820203979195
20
-34.3323700434185
30
0
41
1
10
125.034872069188
20
-34.1546049768551
30
0
41
1
10
125.2495
20
-33.9767752987127
30
0
0
SPLINE
5
172
100
AcDbEntity
8
1
62
256
6
ByLayer
370
18
48
1
60
0
100
AcDbSpline
70
4
71
3
72
16
73
12
40
0
40
0
40
0
40
0
40
0.249999999999891
40
0.249999999999891
40
0.499999999999781
40
0.499999999999781
40
0.624999999999831
40
0.624999999999831
40
0.74999999999988
40
0.74999999999988
40
1
40
1
40
1
40
1
41
1
10
125.3245
20
-33.9946525728947
30
0
41
1
10
125.3245
20
-33.984793931125
30
0
41
1
10
125.323364700352
20
-33.9757224015114
30
0
41
1
10
125.317618439847
20
-33.9610733983107
30
0
41
1
10
125.312832257615
20
-33.9554349467433
30
0
41
1
10
125.302386234609
20
-33.9521189582846
30
0
41
1
10
125.298459762373
20
-33.9518627336725
30
0
41
1
10
125.289703529877
20
-33.9530805456519
30
0
41
1
10
125.284909287438
20
-33.9545789497624
30
0
41
1
10
125.270258456793
20
-33.9611060017641
30
0
41
1
10
125.25972922897
20
-33.9682998850581
30
0
41
1
10
125.2495
20
-33.9767752987124
30
0
0
SPLINE
5
173
100
AcDbEntity
8
1
62
256
6
ByLayer
370
18
48
1
60
0
100
AcDbSpline
70
4
71
3
72
12
73
8
40
0
40
0
40
0
40
0
40
0.499999999999952
40
0.499999999999952
40
0.749999999999976
40
0.749999999999976
40
1
40
1
40
1
40
1
41
1
10
125.2495
20
-34.3919878841886
30
0
41
1
10
125.27010032095
20
-34.354338633359
30
0
41
1
10
125.287778739477
20
-34.3163913811338
30
0
41
1
10
125.307880398042
20
-34.2617098394659
30
0
41
1
10
125.313525962551
20
-34.2438253173233
30
0
41
1
10
125.321860478618
20
-34.2090213858312
30
0
41
1
10
125.3245
20
-34.1924069066608
30
0
41
1
10
125.3245
20
-34.1775976034379
30
0
0
SPLINE
5
174
100
AcDbEntity
8
1
62
256
6
ByLayer
370
18
48
1
60
0
100
AcDbSpline
70
4
71
3
72
8
73
4
40
0
40
0
40
0
40
0
40
1
40
1
40
1
40
1
41
1
10
125.2495
20
-34.3919878841886
30
0
41
1
10
125.039439331602
20
-34.7758958248992
30
0
41
1
10
124.824618246661
20
-35.1562223165521
30
0
41
1
10
124.6055
20
-35.5333158840139
30
0
0
SPLINE
5
175
100
AcDbEntity
8
1
62
256
6
ByLayer
370
18
48
1
60
0
100
AcDbSpline
70
4
71
3
72
26
73
22
40
0
40
0
40
0
40
0
40
0.124999999999988
40
0.124999999999988
40
0.249999999999976
40
0.249999999999976
40
0.374999999999964
40
0.374999999999964
40
0.499999999999952
40
0.499999999999952
40
0.62499999999994
40
0.62499999999994
40
0.68749999999994
40
0.68749999999994
40
0.749999999999941
40
0.749999999999941
40
0.812499999999942
40
0.812499999999942
40
0.874999999999943
40
0.874999999999943
40
1
40
1
40
1
40
1
41
1
10
124.6055
20
-35.5333158840139
30
0
41
1
10
124.595891848487
20
-35.5498511209733
30
0
41
1
10
124.586867923903
20
-35.5663315893324
30
0
41
1
10
124.570018960149
20
-35.5991763737715
30
0
41
1
10
124.562162348524
20
-35.6156164989991
30
0
41
1
10
124.54808217205
20
-35.6477765695351
30
0
41
1
10
124.541826548599
20
-35.663540203776
30
0
41
1
10
124.531248218515
20
-35.694288246005
30
0
41
1
10
124.526880540947
20
-35.7094347697568
30
0
41
1
10
124.521184962534
20
-35.7376553641793
30
0
41
1
10
124.519788361478
20
-35.750886664679
30
0
41
1
10
124.521376195424
20
-35.7677676580937
30
0
41
1
10
124.522519045604
20
-35.7728014149721
30
0
41
1
10
124.526402372343
20
-35.7813297714474
30
0
41
1
10
124.529173651342
20
-35.7847936570812
30
0
41
1
10
124.536453758024
20
-35.789331006793
30
0
41
1
10
124.541055609124
20
-35.7904205302319
30
0
41
1
10
124.551571459623
20
-35.7899479027122
30
0
41
1
10
124.557659690864
20
-35.7883850305746
30
0
41
1
10
124.576989835237
20
-35.7803707613263
30
0
41
1
10
124.591355988743
20
-35.770701760591
30
0
41
1
10
124.6055
20
-35.7591455874819
30
0
0
SPLINE
5
176
100
AcDbEntity
8
1
62
256
6
ByLayer
370
18
48
1
60
0
100
AcDbSpline
70
4
71
3
72
8
73
4
40
0
40
0
40
0
40
0
40
1
40
1
40
1
40
1
41
1
10
124.6055
20
-35.7591455874816
30
0
41
1
10
124.820168300833
20
-35.5837537555398
30
0
41
1
10
125.034835023948
20
-35.4083593488628
30
0
41
1
10
125.2495
20
-35.2329620912908
30
0
0
SPLINE
5
177
100
AcDbEntity
8
1
62
256
6
ByLayer
370
18
48
1
60
0
100
AcDbSpline
70
4
71
3
72
14
73
10
40
0
40
0
40
0
40
0
40
0.25
40
0.25
40
0.5
40
0.5
40
0.75
40
0.75
40
1
40
1
40
1
40
1
41
1
10
125.3245
20
-35.2365834598287
30
0
41
1
10
125.3245
20
-35.2280574715485
30
0
41
1
10
125.323226579452
20
-35.2206332405457
30
0
41
1
10
125.31687672309
20
-35.2094874469187
30
0
41
1
10
125.311677177387
20
-35.2060071462588
30
0
41
1
10
125.297631713328
20
-35.2051536604223
30
0
41
1
10
125.28871910896
20
-35.2077937103421
30
0
41
1
10
125.269715629015
20
-35.217628287636
30
0
41
1
10
125.259536321132
20
-35.2247616701736
30
0
41
1
10
125.2495
20
-35.2329620912906
30
0
0
SPLINE
5
178
100
AcDbEntity
8
1
62
256
6
ByLayer
370
18
48
1
60
0
100
AcDbSpline
70
4
71
3
72
14
73
10
40
0
40
0
40
0
40
0
40
0.25
40
0.25
40
0.5
40
0.5
40
0.75
40
0.75
40
1
40
1
40
1
40
1
41
1
10
125.2495
20
-35.5703702247133
30
0
41
1
10
125.259689218242
20
-35.5537244060086
30
0
41
1
10
125.269141071217
20
-35.5371479955474
30
0
41
1
10
125.286488561992
20
-35.5041362228495
30
0
41
1
10
125.294346422854
20
-35.4877581462692
30
0
41
1
10
125.307827214093
20
-35.4560122948548
30
0
41
1
10
125.313524884287
20
-35.4405314920263
30
0
41
1
10
125.321919534253
20
-35.4107737469565
30
0
41
1
10
125.3245
20
-35.397025683911
30
0
41
1
10
125.3245
20
-35.3850933995448
30
0
0
SPLINE
5
179
100
AcDbEntity
8
1
62
256
6
ByLayer
370
18
48
1
60
0
100
AcDbSpline
70
4
71
3
72
8
73
4
40
0
40
0
40
0
40
0
40
1
40
1
40
1
40
1
41
1
10
125.2495
20
-35.5703702247133
30
0
41
1
10
125.038207131738
20
-35.91555301452
30
0
41
1
10
124.823431123556
20
-36.2578238253877
30
0
41
1
10
124.6055
20
-36.5974568928041
30
0
0
SPLINE
5
17A
100
AcDbEntity
8
1
62
256
6
ByLayer
370
18
48
1
60
0
100
AcDbSpline
70
4
71
3
72
24
73
20
40
0
40
0
40
0
40
0
40
0.249999999999999
40
0.249999999999999
40
0.374999999999998
40
0.374999999999998
40
0.499999999999997
40
0.499999999999997
40
0.624999999999996
40
0.624999999999996
40
0.749999999999994
40
0.749999999999994
40
0.812499999999996
40
0.812499999999996
40
0.874999999999997
40
0.874999999999997
40
0.937499999999999
40
0.937499999999999
40
1
40
1
40
1
40
1
41
1
10
124.6055
20
-36.5974568928041
30
0
41
1
10
124.585930635048
20
-36.627954617671
30
0
41
1
10
124.568404377661
20
-36.6584924379041
30
0
41
1
10
124.546981041172
20
-36.7021612457542
30
0
41
1
10
124.540636798332
20
-36.7163852039587
30
0
41
1
10
124.530004961665
20
-36.7439749121277
30
0
41
1
10
124.525755068741
20
-36.7572748958537
30
0
41
1
10
124.520602301041
20
-36.7813697613153
30
0
41
1
10
124.519658004616
20
-36.7924512939753
30
0
41
1
10
124.523058586786
20
-36.8094781184495
30
0
41
1
10
124.527571821705
20
-36.8154965617002
30
0
41
1
10
124.539293203759
20
-36.8179133314042
30
0
41
1
10
124.543873715488
20
-36.8176420951081
30
0
41
1
10
124.55432599517
20
-36.8150413247482
30
0
41
1
10
124.56020425055
20
-36.8126777169457
30
0
41
1
10
124.572428193163
20
-36.8063867311992
30
0
41
1
10
124.578926831088
20
-36.8023930464153
30
0
41
1
10
124.592111319828
20
-36.7932881819859
30
0
41
1
10
124.598776586911
20
-36.7882045166474
30
0
41
1
10
124.6055
20
-36.7826993267328
30
0
0
SPLINE
5
17B
100
AcDbEntity
8
1
62
256
6
ByLayer
370
18
48
1
60
0
100
AcDbSpline
70
4
71
3
72
8
73
4
40
0
40
0
40
0
40
0
40
1
40
1
40
1
40
1
41
1
10
124.6055
20
-36.7826993267326
30
0
41
1
10
124.820173237194
20
-36.6069229874504
30
0
41
1
10
125.034840117021
20
-36.4311362953957
30
0
41
1
10
125.2495
20
-36.255338212375
30
0
0
SPLINE
5
17C
100
AcDbEntity
8
1
62
256
6
ByLayer
370
18
48
1
60
0
100
AcDbSpline
70
4
71
3
72
14
73
10
40
0
40
0
40
0
40
0
40
0.25
40
0.25
40
0.5
40
0.5
40
0.75
40
0.75
40
1
40
1
40
1
40
1
41
1
10
125.3245
20
-36.2467427634162
30
0
41
1
10
125.3245
20
-36.2394710002288
30
0
41
1
10
125.32305055261
20
-36.2333911075695
30
0
41
1
10
125.316255949266
20
-36.2254590605736
30
0
41
1
10
125.31080187969
20
-36.2237332697389
30
0
41
1
10
125.296702547042
20
-36.225613605279
30
0
41
1
10
125.287942439373
20
-36.2292077635721
30
0
41
1
10
125.269327473126
20
-36.2400317807445
30
0
41
1
10
125.259405815922
20
-36.2472257349727
30
0
41
1
10
125.2495
20
-36.2553382123749
30
0
0
SPLINE
5
17D
100
AcDbEntity
8
1
62
256
6
ByLayer
370
18
48
1
60
0
100
AcDbSpline
70
4
71
3
72
14
73
10
40
0
40
0
40
0
40
0
40
0.25
40
0.25
40
0.5
40
0.5
40
0.75
40
0.75
40
1
40
1
40
1
40
1
41
1
10
125.2495
20
-36.5300799335829
30
0
41
1
10
125.259575518723
20
-36.5151033727451
30
0
41
1
10
125.26893994717
20
-36.5002821377311
30
0
41
1
10
125.286161317257
20
-36.4709631921384
30
0
41
1
10
125.294078365003
20
-36.4563504489578
30
0
41
1
10
125.307745770548
20
-36.4280858342373
30
0
41
1
10
125.313467963412
20
-36.4145414908671
30
0
41
1
10
125.321870739995
20
-36.3890624272171
30
0
41
1
10
125.324500000008
20
-36.3772185365104
30
0
41
1
10
125.324500000009
20
-36.3675876053921
30
0
0
SPLINE
5
17E
100
AcDbEntity
8
1
62
256
6
ByLayer
370
18
48
1
60
0
100
AcDbSpline
70
4
71
3
72
8
73
4
40
0
40
0
40
0
40
0
40
1
40
1
40
1
40
1
41
1
10
125.2495
20
-36.5300799335829
30
0
41
1
10
125.037374649206
20
-36.845389577551
30
0
41
1
10
124.822628100131
20
-37.1583021627902
30
0
41
1
10
124.6055
20
-37.4690368442115
30
0
0
SPLINE
5
17F
100
AcDbEntity
8
1
62
256
6
ByLayer
370
18
48
1
60
0
100
AcDbSpline
70
4
71
3
72
22
73
18
40
0
40
0
40
0
40
0
40
0.250000000000012
40
0.250000000000012
40
0.500000000000024
40
0.500000000000024
40
0.625000000000041
40
0.625000000000041
40
0.687500000000055
40
0.687500000000055
40
0.750000000000069
40
0.750000000000069
40
0.875000000000044
40
0.875000000000044
40
0.937500000000022
40
0.937500000000022
40
1
40
1
40
1
40
1
41
1
10
124.6055
20
-37.4690368442115
30
0
41
1
10
124.585591553727
20
-37.4975280653221
30
0
41
1
10
124.56769567603
20
-37.52586355086
30
0
41
1
10
124.53866727079
20
-37.5791828628332
30
0
41
1
10
124.527054952205
20
-37.6049237622155
30
0
41
1
10
124.520158147362
20
-37.6357460390406
30
0
41
1
10
124.519699948156
20
-37.6445659272814
30
0
41
1
10
124.523212287993
20
-37.6538000958584
30
0
41
1
10
124.525072332122
20
-37.6561404219928
30
0
41
1
10
124.53027554466
20
-37.6590961389691
30
0
41
1
10
124.533673850252
20
-37.6596962012999
30
0
41
1
10
124.545626844133
20
-37.6587096977065
30
0
41
1
10
124.556327295088
20
-37.654265132238
30
0
41
1
10
124.573923678963
20
-37.6437607679609
30
0
41
1
10
124.580143203835
20
-37.6395811173997
30
0
41
1
10
124.592686016535
20
-37.630425455486
30
0
41
1
10
124.599053312079
20
-37.6254275627389
30
0
41
1
10
124.6055
20
-37.6200829661947
30
0
0
SPLINE
5
180
100
AcDbEntity
8
1
62
256
6
ByLayer
370
18
48
1
60
0
100
AcDbSpline
70
4
71
3
72
8
73
4
40
0
40
0
40
0
40
0
40
1
40
1
40
1
40
1
41
1
10
124.6055
20
-37.6200829661946
30
0
41
1
10
124.820200946825
20
-37.4420861479081
30
0
41
1
10
125.034868684835
20
-37.2640359061465
30
0
41
1
10
125.2495
20
-37.085927154319
30
0
0
SPLINE
5
181
100
AcDbEntity
8
1
62
256
6
ByLayer
370
18
48
1
60
0
100
AcDbSpline
70
4
71
3
72
14
73
10
40
0
40
0
40
0
40
0
40
0.25
40
0.25
40
0.5
40
0.5
40
0.75
40
0.75
40
1
40
1
40
1
40
1
41
1
10
125.3245
20
-37.0663360248446
30
0
41
1
10
125.3245
20
-37.0602063448816
30
0
41
1
10
125.322879088429
20
-37.0554417118856
30
0
41
1
10
125.315723768599
20
-37.050394459048
30
0
41
1
10
125.31012433525
20
-37.0501458087765
30
0
41
1
10
125.2959401497
20
-37.0543147310199
30
0
41
1
10
125.287363709046
20
-37.0586844662361
30
0
41
1
10
125.269011155193
20
-37.0704653043413
30
0
41
1
10
125.259309512901
20
-37.0777868692096
30
0
41
1
10
125.2495
20
-37.0859271543189
30
0
0
SPLINE
5
182
100
AcDbEntity
8
1
62
256
6
ByLayer
370
18
48
1
60
0
100
AcDbSpline
70
4
71
3
72
12
73
8
40
0
40
0
40
0
40
0
40
0.5000000000001
40
0.5000000000001
40
0.75000000000005
40
0.75000000000005
40
1
40
1
40
1
40
1
41
1
10
125.2495
20
-37.3075317791604
30
0
41
1
10
125.269569104578
20
-37.2800446718394
30
0
41
1
10
125.287037981678
20
-37.2533892277971
30
0
41
1
10
125.307741596853
20
-37.2153783121061
30
0
41
1
10
125.313491339926
20
-37.2034216639816
30
0
41
1
10
125.321898093649
20
-37.1814239866426
30
0
41
1
10
125.324500000003
20
-37.1714323312696
30
0
41
1
10
125.324500000003
20
-37.1637626739604
30
0
0
SPLINE
5
183
100
AcDbEntity
8
1
62
256
6
ByLayer
370
18
48
1
60
0
100
AcDbSpline
70
4
71
3
72
8
73
4
40
0
40
0
40
0
40
0
40
1
40
1
40
1
40
1
41
1
10
125.2495
20
-37.3075317791604
30
0
41
1
10
125.036782319601
20
-37.5988748078191
30
0
41
1
10
124.822056039247
20
-37.8882313992869
30
0
41
1
10
124.6055
20
-38.1757784213043
30
0
0
SPLINE
5
184
100
AcDbEntity
8
1
62
256
6
ByLayer
370
18
48
1
60
0
100
AcDbSpline
70
4
71
3
72
22
73
18
40
0
40
0
40
0
40
0
40
0.250000000000053
40
0.250000000000053
40
0.375000000000042
40
0.375000000000042
40
0.500000000000031
40
0.500000000000031
40
0.62500000000002
40
0.62500000000002
40
0.750000000000009
40
0.750000000000009
40
0.812500000000006
40
0.812500000000006
40
0.875000000000004
40
0.875000000000004
40
1
40
1
40
1
40
1
41
1
10
124.6055
20
-38.1757784213042
30
0
41
1
10
124.585273555258
20
-38.2026354601184
30
0
41
1
10
124.566956451892
20
-38.2292229400243
30
0
41
1
10
124.544833531636
20
-38.2660678844065
30
0
41
1
10
124.538266574183
20
-38.2779981266209
30
0
41
1
10
124.527742828944
20
-38.3000981082553
30
0
41
1
10
124.523823971669
20
-38.3101313539303
30
0
41
1
10
124.519863891674
20
-38.3272662268364
30
0
41
1
10
124.519984207007
20
-38.3340533284695
30
0
41
1
10
124.525780981227
20
-38.3417522150087
30
0
41
1
10
124.531601008418
20
-38.3425395578433
30
0
41
1
10
124.54372645532
20
-38.3388915542783
30
0
41
1
10
124.548412658276
20
-38.3368666430987
30
0
41
1
10
124.558472329125
20
-38.3315512620657
30
0
41
1
10
124.563846554174
20
-38.3282779831857
30
0
41
1
10
124.580853219547
20
-38.3168828358453
30
0
41
1
10
124.593068792019
20
-38.3073886497742
30
0
41
1
10
124.6055
20
-38.2968754376165
30
0
0
SPLINE
5
185
100
AcDbEntity
8
1
62
256
6
ByLayer
370
18
48
1
60
0
100
AcDbSpline
70
4
71
3
72
8
73
4
40
0
40
0
40
0
40
0
40
1
40
1
40
1
40
1
41
1
10
124.6055
20
-38.2968754376164
30
0
41
1
10
124.820244754008
20
-38.11526338816
30
0
41
1
10
125.034913814811
20
-37.9335319303368
30
0
41
1
10
125.2495
20
-37.7516701480928
30
0
0
SPLINE
5
186
100
AcDbEntity
8
1
62
256
6
ByLayer
370
18
48
1
60
0
100
AcDbSpline
70
4
71
3
72
14
73
10
40
0
40
0
40
0
40
0
40
0.25
40
0.25
40
0.5
40
0.5
40
0.75
40
0.75
40
1
40
1
40
1
40
1
41
1
10
125.3245
20
-37.7218227111436
30
0
41
1
10
125.3245
20
-37.7167636827918
30
0
41
1
10
125.322749381051
20
-37.7133264469951
30
0
41
1
10
125.315245830478
20
-37.7108983856197
30
0
41
1
10
125.309604124007
20
-37.7119307814348
30
0
41
1
10
125.295315870072
20
-37.7181361744954
30
0
41
1
10
125.286939122699
20
-37.7231633913709
30
0
41
1
10
125.268758907568
20
-37.7359097762675
30
0
41
1
10
125.259245573468
20
-37.7434107750192
30
0
41
1
10
125.2495
20
-37.7516701480928
30
0
0
SPLINE
5
187
100
AcDbEntity
8
1
62
256
6
ByLayer
370
18
48
1
60
0
100
AcDbSpline
70
4
71
3
72
14
73
10
40
0
40
0
40
0
40
0
40
0.25
40
0.25
40
0.5
40
0.5
40
0.75
40
0.75
40
1
40
1
40
1
40
1
41
1
10
125.2495
20
-37.9264544727241
30
0
41
1
10
125.25944527166
20
-37.9137839384981
30
0
41
1
10
125.268857873782
20
-37.9012296925005
30
0
41
1
10
125.286063126254
20
-37.8769739480124
30
0
41
1
10
125.293918864435
20
-37.865200408821
30
0
41
1
10
125.307730134248
20
-37.8425488566719
30
0
41
1
10
125.313549981919
20
-37.8318834523871
30
0
41
1
10
125.321938888577
20
-37.8129323227158
30
0
41
1
10
125.324500000001
20
-37.8045938255255
30
0
41
1
10
125.324500000001
20
-37.7986396737449
30
0
0
SPLINE
5
188
100
AcDbEntity
8
1
62
256
6
ByLayer
370
18
48
1
60
0
100
AcDbSpline
70
4
71
3
72
8
73
4
40
0
40
0
40
0
40
0
40
1
40
1
40
1
40
1
41
1
10
125.2495
20
-37.9264544727241
30
0
41
1
10
125.036344592726
20
-38.1980199940686
30
0
41
1
10
124.821632798019
20
-38.46793539229
30
0
41
1
10
124.6055
20
-38.7363442052146
30
0
0
SPLINE
5
189
100
AcDbEntity
8
1
62
256
6
ByLayer
370
18
48
1
60
0
100
AcDbSpline
70
4
71
3
72
24
73
20
40
0
40
0
40
0
40
0
40
0.249999999999989
40
0.249999999999989
40
0.374999999999981
40
0.374999999999981
40
0.499999999999973
40
0.499999999999973
40
0.624999999999965
40
0.624999999999965
40
0.687499999999971
40
0.687499999999971
40
0.749999999999977
40
0.749999999999977
40
0.812499999999983
40
0.812499999999983
40
0.874999999999988
40
0.874999999999988
40
1
40
1
40
1
40
1
41
1
10
124.6055
20
-38.7363442052146
30
0
41
1
10
124.584933659893
20
-38.7618849236291
30
0
41
1
10
124.566264229825
20
-38.7868862910127
30
0
41
1
10
124.543766769786
20
-38.8209469214415
30
0
41
1
10
124.537092163987
20
-38.8318990550104
30
0
41
1
10
124.526746101153
20
-38.8513838063828
30
0
41
1
10
124.522951087146
20
-38.8601468439844
30
0
41
1
10
124.519744344447
20
-38.8737149412441
30
0
41
1
10
124.520396419323
20
-38.8785001258787
30
0
41
1
10
124.525477759379
20
-38.8812221123845
30
0
41
1
10
124.527888375931
20
-38.8813989058138
30
0
41
1
10
124.533838386635
20
-38.8802752371658
30
0
41
1
10
124.537384868344
20
-38.8789999511004
30
0
41
1
10
124.545559270928
20
-38.8751024509132
30
0
41
1
10
124.550188285926
20
-38.8724678743436
30
0
41
1
10
124.559992242756
20
-38.866232942027
30
0
41
1
10
124.565218656667
20
-38.8626093330226
30
0
41
1
10
124.581754020229
20
-38.8504066896326
30
0
41
1
10
124.593447968638
20
-38.84085839684
30
0
41
1
10
124.6055
20
-38.8304003628102
30
0
0
SPLINE
5
18A
100
AcDbEntity
8
1
62
256
6
ByLayer
370
18
48
1
60
0
100
AcDbSpline
70
4
71
3
72
8
73
4
40
0
40
0
40
0
40
0
40
1
40
1
40
1
40
1
41
1
10
124.6055
20
-38.8304003628101
30
0
41
1
10
124.820302546545
20
-38.6440075237985
30
0
41
1
10
125.034973355329
20
-38.4574120577276
30
0
41
1
10
125.2495
20
-38.2705960321683
30
0
0
SPLINE
5
18B
100
AcDbEntity
8
1
62
256
6
ByLayer
370
18
48
1
60
0
100
AcDbSpline
70
4
71
3
72
14
73
10
40
0
40
0
40
0
40
0
40
0.25
40
0.25
40
0.5
40
0.5
40
0.75
40
0.75
40
1
40
1
40
1
40
1
41
1
10
125.3245
20
-38.2309126238238
30
0
41
1
10
125.3245
20
-38.2269178971008
30
0
41
1
10
125.322626132983
20
-38.2247594643015
30
0
41
1
10
125.314843542028
20
-38.2248115931792
30
0
41
1
10
125.309162894578
20
-38.226981040974
30
0
41
1
10
125.294854222523
20
-38.2350325359302
30
0
41
1
10
125.286589612437
20
-38.2407014516844
30
0
41
1
10
125.26861271811
20
-38.254375599661
30
0
41
1
10
125.259209704467
20
-38.2621405398417
30
0
41
1
10
125.2495
20
-38.2705960321683
30
0
0
SPLINE
5
18C
100
AcDbEntity
8
1
62
256
6
ByLayer
370
18
48
1
60
0
100
AcDbSpline
70
4
71
3
72
12
73
8
40
0
40
0
40
0
40
0
40
0.500000000000033
40
0.500000000000033
40
0.750000000000017
40
0.750000000000017
40
1
40
1
40
1
40
1
41
1
10
125.2495
20
-38.4028498781752
30
0
41
1
10
125.269213771312
20
-38.3793119136173
30
0
41
1
10
125.287076122895
20
-38.3563670284796
30
0
41
1
10
125.307711737403
20
-38.3260475722174
30
0
41
1
10
125.313626340585
20
-38.3165008078665
30
0
41
1
10
125.322002481336
20
-38.3002470594535
30
0
41
1
10
125.3245
20
-38.293440494456
30
0
41
1
10
125.3245
20
-38.2890240128755
30
0
0
SPLINE
5
18D
100
AcDbEntity
8
1
62
256
6
ByLayer
370
18
48
1
60
0
100
AcDbSpline
70
4
71
3
72
8
73
4
40
0
40
0
40
0
40
0
40
1
40
1
40
1
40
1
41
1
10
125.2495
20
-38.4028498781752
30
0
41
1
10
125.036011628907
20
-38.6577519784764
30
0
41
1
10
124.821310496289
20
-38.9112851613349
30
0
41
1
10
124.6055
20
-39.163566138175
30
0
0
SPLINE
5
18E
100
AcDbEntity
8
1
62
256
6
ByLayer
370
18
48
1
60
0
100
AcDbSpline
70
4
71
3
72
22
73
18
40
0
40
0
40
0
40
0
40
0.249999999999987
40
0.249999999999987
40
0.374999999999983
40
0.374999999999983
40
0.499999999999979
40
0.499999999999979
40
0.624999999999974
40
0.624999999999974
40
0.68749999999998
40
0.68749999999998
40
0.749999999999986
40
0.749999999999986
40
0.874999999999993
40
0.874999999999993
40
1
40
1
40
1
40
1
41
1
10
124.6055
20
-39.163566138175
30
0
41
1
10
124.58461800242
20
-39.1879770488517
30
0
41
1
10
124.565507179619
20
-39.2117045234637
30
0
41
1
10
124.542689990122
20
-39.2431162129388
30
0
41
1
10
124.5359677808
20
-39.2530413976178
30
0
41
1
10
124.525788698556
20
-39.2700761212654
30
0
41
1
10
124.522209442212
20
-39.2774045374631
30
0
41
1
10
124.519750506565
20
-39.2875719003495
30
0
41
1
10
124.520917187491
20
-39.290403795087
30
0
41
1
10
124.526613240173
20
-39.2903641595357
30
0
41
1
10
124.529188583589
20
-39.2896418406777
30
0
41
1
10
124.535367825739
20
-39.2869190401382
30
0
41
1
10
124.53899628437
20
-39.2849212703509
30
0
41
1
10
124.551354752463
20
-39.2771657902722
30
0
41
1
10
124.561088840106
20
-39.2699596696235
30
0
41
1
10
124.58248539173
20
-39.2527621693601
30
0
41
1
10
124.593773139625
20
-39.2430755822269
30
0
41
1
10
124.6055
20
-39.232584456276
30
0
0
SPLINE
5
18F
100
AcDbEntity
8
1
62
256
6
ByLayer
370
18
48
1
60
0
100
AcDbSpline
70
4
71
3
72
8
73
4
40
0
40
0
40
0
40
0
40
1
40
1
40
1
40
1
41
1
10
124.6055
20
-39.232584456276
30
0
41
1
10
124.820374683942
20
-39.0403524947096
30
0
41
1
10
125.035047370323
20
-38.8478202535533
30
0
41
1
10
125.2495
20
-38.654960886978
30
0
0
SPLINE
5
190
100
AcDbEntity
8
1
62
256
6
ByLayer
370
18
48
1
60
0
100
AcDbSpline
70
4
71
3
72
14
73
10
40
0
40
0
40
0
40
0
40
0.249999999999994
40
0.249999999999994
40
0.499999999999996
40
0.499999999999996
40
0.749999999999998
40
0.749999999999998
40
1
40
1
40
1
40
1
41
1
10
125.3245
20
-38.6056268367875
30
0
41
1
10
125.3245
20
-38.6027236160964
30
0
41
1
10
125.322517994515
20
-38.6018009379686
30
0
41
1
10
125.314553010295
20
-38.6042057169859
30
0
41
1
10
125.308714308758
20
-38.6074938193305
30
0
41
1
10
125.294527150197
20
-38.6172106493222
30
0
41
1
10
125.286278550289
20
-38.6235597234354
30
0
41
1
10
125.268517881695
20
-38.6381579323393
30
0
41
1
10
125.259182938242
20
-38.646252925044
30
0
41
1
10
125.2495
20
-38.654960886978
30
0
0
SPLINE
5
191
100
AcDbEntity
8
1
62
256
6
ByLayer
370
18
48
1
60
0
100
AcDbSpline
70
4
71
3
72
12
73
8
40
0
40
0
40
0
40
0
40
0.500000000000068
40
0.500000000000068
40
0.750000000000034
40
0.750000000000034
40
1
40
1
40
1
40
1
41
1
10
125.2495
20
-38.7475864397169
30
0
41
1
10
125.269096039341
20
-38.7255245029813
30
0
41
1
10
125.287055571439
20
-38.7041980616753
30
0
41
1
10
125.307771252659
20
-38.6769230565226
30
0
41
1
10
125.313708424421
20
-38.6685026888432
30
0
41
1
10
125.322055283879
20
-38.6547549787377
30
0
41
1
10
125.3245
20
-38.6493424979474
30
0
41
1
10
125.3245
20
-38.6463193271822
30
0
0
SPLINE
5
192
100
AcDbEntity
8
1
62
256
6
ByLayer
370
18
48
1
60
0
100
AcDbSpline
70
4
71
3
72
8
73
4
40
0
40
0
40
0
40
0
40
1
40
1
40
1
40
1
41
1
10
125.2495
20
-38.7475864397169
30
0
41
1
10
125.03575253422
20
-38.9882311427327
30
0
41
1
10
124.821059437748
20
-39.2277459581948
30
0
41
1
10
124.6055
20
-39.4662256251216
30
0
0
SPLINE
5
193
100
AcDbEntity
8
1
62
256
6
ByLayer
370
18
48
1
60
0
100
AcDbSpline
70
4
71
3
72
20
73
16
40
0
40
0
40
0
40
0
40
0.249999999999941
40
0.249999999999941
40
0.374999999999951
40
0.374999999999951
40
0.499999999999961
40
0.499999999999961
40
0.624999999999971
40
0.624999999999971
40
0.74999999999998
40
0.74999999999998
40
0.87499999999999
40
0.87499999999999
40
1
40
1
40
1
40
1
41
1
10
124.6055
20
-39.4662256251216
30
0
41
1
10
124.584252717749
20
-39.489732110605
30
0
41
1
10
124.564759178412
20
-39.5122456023379
30
0
41
1
10
124.541538810157
20
-39.541245591061
30
0
41
1
10
124.534819153131
20
-39.5501143780702
30
0
41
1
10
124.524848890269
20
-39.5647104400402
30
0
41
1
10
124.52154227505
20
-39.5705386140865
30
0
41
1
10
124.519879790056
20
-39.5773439817586
30
0
41
1
10
124.521526851207
20
-39.5782810305198
30
0
41
1
10
124.529927354216
20
-39.5747851907472
30
0
41
1
10
124.536474905501
20
-39.5704541370685
30
0
41
1
10
124.552728930923
20
-39.5580671841504
30
0
41
1
10
124.562321241512
20
-39.5501066098876
30
0
41
1
10
124.583076711062
20
-39.5320647148509
30
0
41
1
10
124.594055349581
20
-39.5221514838591
30
0
41
1
10
124.6055
20
-39.5115512430934
30
0
0
SPLINE
5
194
100
AcDbEntity
8
1
62
256
6
ByLayer
370
18
48
1
60
0
100
AcDbSpline
70
4
71
3
72
8
73
4
40
0
40
0
40
0
40
0
40
1
40
1
40
1
40
1
41
1
10
124.6055
20
-39.5115512430934
30
0
41
1
10
124.820462678659
20
-39.31244894935
30
0
41
1
10
125.035137860735
20
-39.1129342405493
30
0
41
1
10
125.2495
20
-38.9129704705177
30
0
0
SPLINE
5
195
100
AcDbEntity
8
1
62
256
6
ByLayer
370
18
48
1
60
0
100
AcDbSpline
70
4
71
3
72
14
73
10
40
0
40
0
40
0
40
0
40
0.25
40
0.25
40
0.5
40
0.5
40
0.75
40
0.75
40
1
40
1
40
1
40
1
41
1
10
125.3245
20
-38.8539790198801
30
0
41
1
10
125.3245
20
-38.8521857499259
30
0
41
1
10
125.322387809429
20
-38.8524939229067
30
0
41
1
10
125.31432502053
20
-38.8571560020603
30
0
41
1
10
125.308413901572
20
-38.8614855289318
30
0
41
1
10
125.294315803534
20
-38.8728206174963
30
0
41
1
10
125.286083471685
20
-38.8798545103129
30
0
41
1
10
125.268476646095
20
-38.8954524968059
30
0
41
1
10
125.25918196488
20
-38.9039388280576
30
0
41
1
10
125.2495
20
-38.9129704705177
30
0
0
SPLINE
5
196
100
AcDbEntity
8
1
62
256
6
ByLayer
370
18
48
1
60
0
100
AcDbSpline
70
4
71
3
72
14
73
10
40
0
40
0
40
0
40
0
40
0.25
40
0.25
40
0.5
40
0.5
40
0.75
40
0.75
40
1
40
1
40
1
40
1
41
1
10
125.2495
20
-38.9678441313361
30
0
41
1
10
125.259249604116
20
-38.9574402745057
30
0
41
1
10
125.268519251578
20
-38.9473921852377
30
0
41
1
10
125.285911691607
20
-38.9281390396628
30
0
41
1
10
125.293983863503
20
-38.918985371031
30
0
41
1
10
125.307857926255
20
-38.9026525202924
30
0
41
1
10
125.313812257457
20
-38.8952874257051
30
0
41
1
10
125.322116596227
20
-38.883899953024
30
0
41
1
10
125.3245
20
-38.8798131548509
30
0
41
1
10
125.3245
20
-38.8780838423543
30
0
0
SPLINE
5
197
100
AcDbEntity
8
1
62
256
6
ByLayer
370
18
48
1
60
0
100
AcDbSpline
70
4
71
3
72
8
73
4
40
0
40
0
40
0
40
0
40
1
40
1
40
1
40
1
41
1
10
125.2495
20
-38.9678441313361
30
0
41
1
10
125.035547222369
20
-39.1961543314658
30
0
41
1
10
124.820860303431
20
-39.4235405354009
30
0
41
1
10
124.6055
20
-39.6500792121576
30
0
0
SPLINE
5
198
100
AcDbEntity
8
1
62
256
6
ByLayer
370
18
48
1
60
0
100
AcDbSpline
70
4
71
3
72
16
73
12
40
0
40
0
40
0
40
0
40
0.244870256116804
40
0.244870256116804
40
0.489740512233608
40
0.489740512233608
40
0.734610768350412
40
0.734610768350412
40
0.979481024467216
40
0.979481024467216
40
1
40
1
40
1
40
1
41
1
10
124.6055
20
-39.6500792121576
30
0
41
1
10
124.594645499765
20
-39.6614971201053
30
0
41
1
10
124.584309331155
20
-39.6724989869336
30
0
41
1
10
124.56505550703
20
-39.6932971537009
30
0
41
1
10
124.555990486058
20
-39.7032556166844
30
0
41
1
10
124.54029226655
20
-39.7209485260459
30
0
41
1
10
124.533596073865
20
-39.7287511946129
30
0
41
1
10
124.523858984405
20
-39.7408897657919
30
0
41
1
10
124.520927423352
20
-39.7451121254574
30
0
41
1
10
124.52051236312
20
-39.7469103574359
30
0
41
1
10
124.520498569531
20
-39.7470311500924
30
0
41
1
10
124.520502839793
20
-39.747133853093
30
0
0
SPLINE
5
199
100
AcDbEntity
8
1
62
256
6
ByLayer
370
18
48
1
60
0
100
AcDbSpline
70
4
71
3
72
14
73
10
40
0
40
0
40
0
40
0
40
0.137563763822141
40
0.137563763822141
40
0.425042509214761
40
0.425042509214761
40
0.71252125460738
40
0.71252125460738
40
1
40
1
40
1
40
1
41
1
10
124.522014959552
20
-39.7472840728838
30
0
41
1
10
124.523080566016
20
-39.7468148993609
30
0
41
1
10
124.524695456823
20
-39.7457814913063
30
0
41
1
10
124.531247893089
20
-39.7409318597074
30
0
41
1
10
124.537981591735
20
-39.7352591146847
30
0
41
1
10
124.554046439389
20
-39.721005839838
30
0
41
1
10
124.563557694582
20
-39.7122726293566
30
0
41
1
10
124.583646628483
20
-39.6934639928731
30
0
41
1
10
124.594317921063
20
-39.6833078186817
30
0
41
1
10
124.6055
20
-39.67254327625
30
0
0
SPLINE
5
19A
100
AcDbEntity
8
1
62
256
6
ByLayer
370
18
48
1
60
0
100
AcDbSpline
70
4
71
3
72
8
73
4
40
0
40
0
40
0
40
0
40
1
40
1
40
1
40
1
41
1
10
124.6055
20
-39.67254327625
30
0
41
1
10
124.820569637573
20
-39.4655042942751
30
0
41
1
10
125.035247896482
20
-39.2579256967411
30
0
41
1
10
125.2495
20
-39.0497595350354
30
0
0
SPLINE
5
19B
100
AcDbEntity
8
1
62
256
6
ByLayer
370
18
48
1
60
0
100
AcDbSpline
70
4
71
3
72
14
73
10
40
0
40
0
40
0
40
0
40
0.25
40
0.25
40
0.5
40
0.5
40
0.75
40
0.75
40
1
40
1
40
1
40
1
41
1
10
125.3245
20
-38.9809298975149
30
0
41
1
10
125.3245
20
-38.9802749397073
30
0
41
1
10
125.322268657052
20
-38.9818256856907
30
0
41
1
10
125.314108956146
20
-38.9887118861319
30
0
41
1
10
125.308141619218
20
-38.9940733211361
30
0
41
1
10
125.294092745741
20
-39.0070547541498
30
0
41
1
10
125.285840184445
20
-39.0148307852947
30
0
41
1
10
125.268427871024
20
-39.0314404543229
30
0
41
1
10
125.259184127082
20
-39.040350490592
30
0
41
1
10
125.2495
20
-39.0497595350354
30
0
0
SPLINE
5
19C
100
AcDbEntity
8
1
62
256
6
ByLayer
370
18
48
1
60
0
100
AcDbSpline
70
4
71
3
72
14
73
10
40
0
40
0
40
0
40
0
40
0.25
40
0.25
40
0.5
40
0.5
40
0.75
40
0.75
40
1
40
1
40
1
40
1
41
1
10
125.2495
20
-39.0679370847155
30
0
41
1
10
125.259211278108
20
-39.0580695895895
30
0
41
1
10
125.268463174683
20
-39.0486275483862
30
0
41
1
10
125.285857479136
20
-39.0307635373025
30
0
41
1
10
125.294025317656
20
-39.0223134800282
30
0
41
1
10
125.307974433677
20
-39.0077038595556
30
0
41
1
10
125.313940209129
20
-39.0013494349122
30
0
41
1
10
125.322186827721
20
-38.9922305495165
30
0
41
1
10
125.3245
20
-38.9894242585628
30
0
41
1
10
125.3245
20
-38.988914520495
30
0
0
SPLINE
5
19D
100
AcDbEntity
8
1
62
256
6
ByLayer
370
18
48
1
60
0
100
AcDbSpline
70
4
71
3
72
8
73
4
40
0
40
0
40
0
40
0
40
1
40
1
40
1
40
1
41
1
10
125.2495
20
-39.0679370847155
30
0
41
1
10
125.035382142102
20
-39.2854992733109
30
0
41
1
10
124.820700052471
20
-39.5023166855204
30
0
41
1
10
124.6055
20
-39.7184503955052
30
0
0
SPLINE
5
19E
100
AcDbEntity
8
1
62
256
6
ByLayer
370
18
48
1
60
0
100
AcDbSpline
70
4
71
3
72
18
73
14
40
0
40
0
40
0
40
0
40
0.249968095386793
40
0.249968095386793
40
0.499936190773586
40
0.499936190773586
40
0.749904286160378
40
0.749904286160378
40
0.874888333853775
40
0.874888333853775
40
0.999872381547171
40
0.999872381547171
40
1
40
1
40
1
40
1
41
1
10
124.6055
20
-39.7184503955052
30
0
41
1
10
124.594473615081
20
-39.7295246190149
30
0
41
1
10
124.583803369287
20
-39.7402505448278
30
0
41
1
10
124.564083431371
20
-39.760087248044
30
0
41
1
10
124.555014921523
20
-39.7692168101359
30
0
41
1
10
124.538999468337
20
-39.7853486325378
30
0
41
1
10
124.53232660182
20
-39.7920748098037
30
0
41
1
10
124.525334326431
20
-39.7991246202075
30
0
41
1
10
124.523536304035
20
-39.8009378239266
30
0
41
1
10
124.521100737935
20
-39.8033940774064
30
0
41
1
10
124.520483021234
20
-39.8040171245136
30
0
41
1
10
124.520499697022
20
-39.8040003055787
30
0
41
1
10
124.520500401171
20
-39.8039995953854
30
0
41
1
10
124.520501105317
20
-39.8039988851893
30
0
0
SPLINE
5
19F
100
AcDbEntity
8
1
62
256
6
ByLayer
370
18
48
1
60
0
100
AcDbSpline
70
4
71
3
72
14
73
10
40
0
40
0
40
0
40
0
40
0.249137036240056
40
0.249137036240056
40
0.499424690826704
40
0.499424690826704
40
0.749712345413352
40
0.749712345413352
40
1
40
1
40
1
40
1
41
1
10
124.520501007097
20
-0.196001015765006
30
0
41
1
10
124.520559199638
20
-0.196059711154277
30
0
41
1
10
124.523178205305
20
-0.198701555517601
30
0
41
1
10
124.532509978376
20
-0.208110035847994
30
0
41
1
10
124.539284482808
20
-0.214938534661144
30
0
41
1
10
124.555149357874
20
-0.230918519048174
30
0
41
1
10
124.564434787015
20
-0.24026634273676
30
0
41
1
10
124.584091600717
20
-0.260039233459537
30
0
41
1
10
124.59453851892
20
-0.270540566413047
30
0
41
1
10
124.6055
20
-0.281549604494813
30
0
0
SPLINE
5
1A0
100
AcDbEntity
8
1
62
256
6
ByLayer
370
18
48
1
60
0
100
AcDbSpline
70
4
71
3
72
8
73
4
40
0
40
0
40
0
40
0
40
1
40
1
40
1
40
1
41
1
10
124.6055
20
-0.281549604494813
30
0
41
1
10
124.820700052471
20
-0.497683314479588
30
0
41
1
10
125.035382142102
20
-0.714500726689124
30
0
41
1
10
125.2495
20
-0.932062915284519
30
0
0
SPLINE
5
1A1
100
AcDbEntity
8
1
62
256
6
ByLayer
370
18
48
1
60
0
100
AcDbSpline
70
4
71
3
72
14
73
10
40
0
40
0
40
0
40
0
40
0.25
40
0.25
40
0.5
40
0.5
40
0.75
40
0.75
40
1
40
1
40
1
40
1
41
1
10
125.3245
20
-1.01108547950497
30
0
41
1
10
125.3245
20
-1.01057525449681
30
0
41
1
10
125.322179475846
20
-1.00776118412765
30
0
41
1
10
125.313940423871
20
-0.998650939515272
30
0
41
1
10
125.307976181869
20
-0.992297871611271
30
0
41
1
10
125.294003407622
20
-0.977663672424313
30
0
41
1
10
125.285821046889
20
-0.969198935294713
30
0
41
1
10
125.268451733647
20
-0.951360813296418
30
0
41
1
10
125.259208205955
20
-0.941927288838912
30
0
41
1
10
125.2495
20
-0.932062915284547
30
0
0
SPLINE
5
1A2
100
AcDbEntity
8
1
62
256
6
ByLayer
370
18
48
1
60
0
100
AcDbSpline
70
4
71
3
72
14
73
10
40
0
40
0
40
0
40
0
40
0.250000000000001
40
0.250000000000001
40
0.500000000000001
40
0.500000000000001
40
0.75
40
0.75
40
1
40
1
40
1
40
1
41
1
10
125.249500000001
20
-0.950240464965304
30
0
41
1
10
125.259250762044
20
-0.959714251569295
30
0
41
1
10
125.268531564471
20
-0.968659248406368
30
0
41
1
10
125.285956831417
20
-0.985279685463297
30
0
41
1
10
125.294181236189
20
-0.993027881642035
30
0
41
1
10
125.308177764175
20
-1.00595920084851
30
0
41
1
10
125.314130113209
20
-1.0113066626555
30
0
41
1
10
125.322274316532
20
-1.01817839446846
30
0
41
1
10
125.3245
20
-1.0197244328572
30
0
41
1
10
125.3245
20
-1.01907010248513
30
0
0
SPLINE
5
1A3
100
AcDbEntity
8
1
62
256
6
ByLayer
370
18
48
1
60
0
100
AcDbSpline
70
4
71
3
72
8
73
4
40
0
40
0
40
0
40
0
40
1
40
1
40
1
40
1
41
1
10
125.2495
20
-0.950240464964594
30
0
41
1
10
125.035247896482
20
-0.742074303258931
30
0
41
1
10
124.820569637573
20
-0.534495705724908
30
0
41
1
10
124.6055
20
-0.327456723749975
30
0
0
SPLINE
5
1A4
100
AcDbEntity
8
1
62
256
6
ByLayer
370
18
48
1
60
0
100
AcDbSpline
70
4
71
3
72
12
73
8
40
0
40
0
40
0
40
0
40
0.567291002797821
40
0.567291002797821
40
0.850936504196732
40
0.850936504196732
40
1
40
1
40
1
40
1
41
1
10
124.6055
20
-0.327456723749975
30
0
41
1
10
124.582995531699
20
-0.305792567621154
30
0
41
1
10
124.561880388332
20
-0.285932579056237
30
0
41
1
10
124.537703837473
20
-0.264500657402095
30
0
41
1
10
124.531044068949
20
-0.2588999175629
30
0
41
1
10
124.524328360078
20
-0.253956468839078
30
0
41
1
10
124.522644752756
20
-0.25291700094175
30
0
41
1
10
124.52163204422
20
-0.252562292793186
30
0
0
SPLINE
5
1A5
100
AcDbEntity
8
1
62
256
6
ByLayer
370
18
48
1
60
0
100
AcDbSpline
70
4
71
3
72
16
73
12
40
0
40
0
40
0
40
0
40
0.019738684653287
40
0.019738684653287
40
0.264804013489965
40
0.264804013489965
40
0.509869342326643
40
0.509869342326643
40
0.754934671163322
40
0.754934671163322
40
1
40
1
40
1
40
1
41
1
10
124.520502875857
20
-0.252927852402593
30
0
41
1
10
124.520505348206
20
-0.253032656368248
30
0
41
1
10
124.520524302163
20
-0.253153919706278
30
0
41
1
10
124.521001668514
20
-0.255002563563352
30
0
41
1
10
124.523988903455
20
-0.2592805706484
30
0
41
1
10
124.533694886272
20
-0.27136341259046
30
0
41
1
10
124.540469432587
20
-0.279254535385178
30
0
41
1
10
124.556128818467
20
-0.296896840092984
30
0
41
1
10
124.565209562342
20
-0.306871103134768
30
0
41
1
10
124.584481683939
20
-0.327685313877709
30
0
41
1
10
124.594730817489
20
-0.338592626074188
30
0
41
1
10
124.6055
20
-0.349920787842365
30
0
0
SPLINE
5
1A6
100
AcDbEntity
8
1
62
256
6
ByLayer
370
18
48
1
60
0
100
AcDbSpline
70
4
71
3
72
8
73
4
40
0
40
0
40
0
40
0
40
1
40
1
40
1
40
1
41
1
10
124.6055
20
-0.349920787842365
30
0
41
1
10
124.820860303431
20
-0.576459464599139
30
0
41
1
10
125.035547222369
20
-0.803845668534166
30
0
41
1
10
125.2495
20
-1.03215586866389
30
0
0
SPLINE
5
1A7
100
AcDbEntity
8
1
62
256
6
ByLayer
370
18
48
1
60
0
100
AcDbSpline
70
4
71
3
72
14
73
10
40
0
40
0
40
0
40
0
40
0.25
40
0.25
40
0.5
40
0.5
40
0.75
40
0.75
40
1
40
1
40
1
40
1
41
1
10
125.3245
20
-1.1219161576457
30
0
41
1
10
125.3245
20
-1.12018260446538
30
0
41
1
10
125.322101363894
20
-1.11607763030918
30
0
41
1
10
125.313803229543
20
-1.10470172814561
30
0
41
1
10
125.307850216532
20
-1.09733772615451
30
0
41
1
10
125.293951093776
20
-1.08097673120278
30
0
41
1
10
125.285833579189
20
-1.07177363639201
30
0
41
1
10
125.268493944553
20
-1.05258066019641
30
0
41
1
10
125.259242453395
20
-1.04255209492013
30
0
41
1
10
125.2495
20
-1.03215586866386
30
0
0
SPLINE
5
1A8
100
AcDbEntity
8
1
62
256
6
ByLayer
370
18
48
1
60
0
100
AcDbSpline
70
4
71
3
72
14
73
10
40
0
40
0
40
0
40
0
40
0.25
40
0.25
40
0.5
40
0.5
40
0.75
40
0.75
40
1
40
1
40
1
40
1
41
1
10
125.2495
20
-1.08702952948229
30
0
41
1
10
125.259218158141
20
-1.096094934158
30
0
41
1
10
125.268664569286
20
-1.10471642734098
30
0
41
1
10
125.286149535274
20
-1.12020153815564
30
0
41
1
10
125.294375221403
20
-1.12722949628122
30
0
41
1
10
125.308474637326
20
-1.13856094263713
30
0
41
1
10
125.314381647126
20
-1.14288015329416
30
0
41
1
10
125.322377751326
20
-1.14749682873591
30
0
41
1
10
125.3245
20
-1.14779507399589
30
0
41
1
10
125.3245
20
-1.14602098011986
30
0
0
SPLINE
5
1A9
100
AcDbEntity
8
1
62
256
6
ByLayer
370
18
48
1
60
0
100
AcDbSpline
70
4
71
3
72
8
73
4
40
0
40
0
40
0
40
0
40
1
40
1
40
1
40
1
41
1
10
125.2495
20
-1.08702952948229
30
0
41
1
10
125.035137860735
20
-0.887065759450735
30
0
41
1
10
124.820462678659
20
-0.687551050650029
30
0
41
1
10
124.6055
20
-0.488448756906593
30
0
0
SPLINE
5
1AA
100
AcDbEntity
8
1
62
256
6
ByLayer
370
18
48
1
60
0
100
AcDbSpline
70
4
71
3
72
22
73
18
40
0
40
0
40
0
40
0
40
0.250000000000108
40
0.250000000000108
40
0.312500000000111
40
0.312500000000111
40
0.375000000000113
40
0.375000000000113
40
0.500000000000091
40
0.500000000000091
40
0.625000000000068
40
0.625000000000068
40
0.750000000000045
40
0.750000000000045
40
0.875000000000023
40
0.875000000000023
40
1
40
1
40
1
40
1
41
1
10
124.6055
20
-0.488448756906593
30
0
41
1
10
124.582537997433
20
-0.467180937727164
30
0
41
1
10
124.560753547666
20
-0.44803458799251
30
0
41
1
10
124.54040488847
20
-0.432544329412082
30
0
41
1
10
124.536759223766
20
-0.42993309458069
30
0
41
1
10
124.530414457453
20
-0.425799590963067
30
0
41
1
10
124.527719044753
20
-0.424287663917113
30
0
41
1
10
124.521544858164
20
-0.421743191890244
30
0
41
1
10
124.519876109205
20
-0.422699188906648
30
0
41
1
10
124.521565633523
20
-0.42949807534248
30
0
41
1
10
124.5248695786
20
-0.43532408616278
30
0
41
1
10
124.534864493797
20
-0.44994773138572
30
0
41
1
10
124.541609733461
20
-0.458845147842965
30
0
41
1
10
124.557055124618
20
-0.478130603772996
30
0
41
1
10
124.565941228382
20
-0.488752716745097
30
0
41
1
10
124.584848961551
20
-0.510689682847442
30
0
41
1
10
124.594911439579
20
-0.522059942939165
30
0
41
1
10
124.6055
20
-0.533774374878448
30
0
0
SPLINE
5
1AB
100
AcDbEntity
8
1
62
256
6
ByLayer
370
18
48
1
60
0
100
AcDbSpline
70
4
71
3
72
8
73
4
40
0
40
0
40
0
40
0
40
1
40
1
40
1
40
1
41
1
10
124.6055
20
-0.533774374878448
30
0
41
1
10
124.821059437748
20
-0.772254041805184
30
0
41
1
10
125.03575253422
20
-1.01176885726724
30
0
41
1
10
125.2495
20
-1.25241356028306
30
0
0
SPLINE
5
1AC
100
AcDbEntity
8
1
62
256
6
ByLayer
370
18
48
1
60
0
100
AcDbSpline
70
4
71
3
72
14
73
10
40
0
40
0
40
0
40
0
40
0.25
40
0.25
40
0.5
40
0.5
40
0.75
40
0.75
40
1
40
1
40
1
40
1
41
1
10
125.3245
20
-1.35368067281772
30
0
41
1
10
125.3245
20
-1.35064632353169
30
0
41
1
10
125.322034011465
20
-1.34520618469676
30
0
41
1
10
125.313694135752
20
-1.33147759302224
30
0
41
1
10
125.307759088246
20
-1.32305974565779
30
0
41
1
10
125.293931735253
20
-1.30485652623452
30
0
41
1
10
125.285875277587
20
-1.29484843188845
30
0
41
1
10
125.268553746702
20
-1.2741416453384
30
0
41
1
10
125.259286714282
20
-1.26343180063139
30
0
41
1
10
125.2495
20
-1.25241356028303
30
0
0
SPLINE
5
1AD
100
AcDbEntity
8
1
62
256
6
ByLayer
370
18
48
1
60
0
100
AcDbSpline
70
4
71
3
72
14
73
10
40
0
40
0
40
0
40
0
40
0.25
40
0.25
40
0.5
40
0.5
40
0.75
40
0.75
40
1
40
1
40
1
40
1
41
1
10
125.2495
20
-1.34503911302195
30
0
41
1
10
125.259215998502
20
-1.35377680637401
30
0
41
1
10
125.268726165071
20
-1.36201767886831
30
0
41
1
10
125.286346638797
20
-1.37649175679061
30
0
41
1
10
125.294625799941
20
-1.38286210272039
30
0
41
1
10
125.308773781988
20
-1.39254166930871
30
0
41
1
10
125.314644882502
20
-1.39582935059116
30
0
41
1
10
125.322485000347
20
-1.39818171566068
30
0
41
1
10
125.3245
20
-1.39724077038065
30
0
41
1
10
125.3245
20
-1.39437316321246
30
0
0
SPLINE
5
1AE
100
AcDbEntity
8
1
62
256
6
ByLayer
370
18
48
1
60
0
100
AcDbSpline
70
4
71
3
72
8
73
4
40
0
40
0
40
0
40
0
40
1
40
1
40
1
40
1
41
1
10
125.2495
20
-1.34503911302198
30
0
41
1
10
125.035047370323
20
-1.15217974644668
30
0
41
1
10
124.820374683942
20
-0.959647505290434
30
0
41
1
10
124.6055
20
-0.767415543723985
30
0
0
SPLINE
5
1AF
100
AcDbEntity
8
1
62
256
6
ByLayer
370
18
48
1
60
0
100
AcDbSpline
70
4
71
3
72
22
73
18
40
0
40
0
40
0
40
0
40
0.125
40
0.125
40
0.25
40
0.25
40
0.375
40
0.375
40
0.5
40
0.5
40
0.625
40
0.625
40
0.75
40
0.75
40
0.875
40
0.875
40
1
40
1
40
1
40
1
41
1
10
124.6055
20
-0.767415543723985
30
0
41
1
10
124.593739100244
20
-0.756893965339628
30
0
41
1
10
124.582242551691
20
-0.747036296522651
30
0
41
1
10
124.561004489412
20
-0.729978983145656
30
0
41
1
10
124.551171313917
20
-0.722710109001184
30
0
41
1
10
124.534859454679
20
-0.712491783975054
30
0
41
1
10
124.528448239208
20
-0.709634749293741
30
0
41
1
10
124.520922723968
20
-0.709610210634878
30
0
41
1
10
124.519748598788
20
-0.712445616376613
30
0
41
1
10
124.522224174389
20
-0.722630840565017
30
0
41
1
10
124.52578250787
20
-0.729916468110247
30
0
41
1
10
124.536008302682
20
-0.74702345644036
30
0
41
1
10
124.542700715944
20
-0.756899624561385
30
0
41
1
10
124.55792775034
20
-0.777860046283877
30
0
41
1
10
124.566628668
20
-0.789171469742342
30
0
41
1
10
124.585192455251
20
-0.812347617858677
30
0
41
1
10
124.595079721552
20
-0.82425262842338
30
0
41
1
10
124.6055
20
-0.836433861824958
30
0
0
SPLINE
5
1B0
100
AcDbEntity
8
1
62
256
6
ByLayer
370
18
48
1
60
0
100
AcDbSpline
70
4
71
3
72
8
73
4
40
0
40
0
40
0
40
0
40
1
40
1
40
1
40
1
41
1
10
124.6055
20
-0.836433861824958
30
0
41
1
10
124.821310496289
20
-1.08871483866508
30
0
41
1
10
125.036011628907
20
-1.34224802152355
30
0
41
1
10
125.2495
20
-1.59715012182477
30
0
0
SPLINE
5
1B1
100
AcDbEntity
8
1
62
256
6
ByLayer
370
18
48
1
60
0
100
AcDbSpline
70
4
71
3
72
14
73
10
40
0
40
0
40
0
40
0
40
0.25
40
0.25
40
0.5
40
0.5
40
0.75
40
0.75
40
1
40
1
40
1
40
1
41
1
10
125.3245
20
-1.71097598712427
30
0
41
1
10
125.3245
20
-1.70650812647864
30
0
41
1
10
125.321992346342
20
-1.69971889523492
30
0
41
1
10
125.313542185526
20
-1.68335043093671
30
0
41
1
10
125.307671738472
20
-1.67388648234299
30
0
41
1
10
125.293819783589
20
-1.6535485515586
30
0
41
1
10
125.285784157645
20
-1.64260921942039
30
0
41
1
10
125.268585224204
20
-1.62034333924458
30
0
41
1
10
125.259332829839
20
-1.60889038179835
30
0
41
1
10
125.2495
20
-1.59715012182477
30
0
0
SPLINE
5
1B2
100
AcDbEntity
8
1
62
256
6
ByLayer
370
18
48
1
60
0
100
AcDbSpline
70
4
71
3
72
14
73
10
40
0
40
0
40
0
40
0
40
0.25
40
0.25
40
0.5
40
0.5
40
0.75
40
0.75
40
1
40
1
40
1
40
1
41
1
10
125.2495
20
-1.72940396783167
30
0
41
1
10
125.259229511983
20
-1.73787670911832
30
0
41
1
10
125.268802577543
20
-1.74577345526663
30
0
41
1
10
125.286601863368
20
-1.75930317595535
30
0
41
1
10
125.29495424747
20
-1.76502748625236
30
0
41
1
10
125.309141149508
20
-1.77300296428425
30
0
41
1
10
125.314957231867
20
-1.77520555880383
30
0
41
1
10
125.322603033857
20
-1.77522379552559
30
0
41
1
10
125.3245
20
-1.77303483965008
30
0
41
1
10
125.3245
20
-1.76908737617623
30
0
0
SPLINE
5
1B3
100
AcDbEntity
8
1
62
256
6
ByLayer
370
18
48
1
60
0
100
AcDbSpline
70
4
71
3
72
8
73
4
40
0
40
0
40
0
40
0
40
1
40
1
40
1
40
1
41
1
10
125.2495
20
-1.72940396783167
30
0
41
1
10
125.034973355329
20
-1.54258794227243
30
0
41
1
10
124.820302546545
20
-1.35599247620152
30
0
41
1
10
124.6055
20
-1.16959963718986
30
0
0
SPLINE
5
1B4
100
AcDbEntity
8
1
62
256
6
ByLayer
370
18
48
1
60
0
100
AcDbSpline
70
4
71
3
72
22
73
18
40
0
40
0
40
0
40
0
40
0.124999999999953
40
0.124999999999953
40
0.249999999999906
40
0.249999999999906
40
0.312499999999904
40
0.312499999999904
40
0.374999999999901
40
0.374999999999901
40
0.499999999999921
40
0.499999999999921
40
0.624999999999941
40
0.624999999999941
40
0.74999999999996
40
0.74999999999996
40
1
40
1
40
1
40
1
41
1
10
124.6055
20
-1.16959963718986
30
0
41
1
10
124.593380808039
20
-1.15908332519746
30
0
41
1
10
124.581502968404
20
-1.14940064868099
30
0
41
1
10
124.559693945803
20
-1.13332106467172
30
0
41
1
10
124.549522162378
20
-1.12677113330543
30
0
41
1
10
124.537271537993
20
-1.12095413341933
30
0
41
1
10
124.533636580047
20
-1.11966215288152
30
0
41
1
10
124.527722419873
20
-1.11859581683234
30
0
41
1
10
124.525390108167
20
-1.11878945174516
30
0
41
1
10
124.520318726839
20
-1.12161496885463
30
0
41
1
10
124.51974863245
20
-1.12643900030358
30
0
41
1
10
124.523039271001
20
-1.14008655101569
30
0
41
1
10
124.526840175741
20
-1.1488242725022
30
0
41
1
10
124.537301085598
20
-1.16846258784827
30
0
41
1
10
124.54386990924
20
-1.17922376163219
30
0
41
1
10
124.56664699131
20
-1.21366356432154
30
0
41
1
10
124.58502283321
20
-1.2382258180271
30
0
41
1
10
124.6055
20
-1.26365579478539
30
0
0
SPLINE
5
1B5
100
AcDbEntity
8
1
62
256
6
ByLayer
370
18
48
1
60
0
100
AcDbSpline
70
4
71
3
72
8
73
4
40
0
40
0
40
0
40
0
40
1
40
1
40
1
40
1
41
1
10
124.6055
20
-1.26365579478537
30
0
41
1
10
124.821632798019
20
-1.53206460770997
30
0
41
1
10
125.036344592726
20
-1.8019800059314
30
0
41
1
10
125.2495
20
-2.07354552727588
30
0
0
SPLINE
5
1B6
100
AcDbEntity
8
1
62
256
6
ByLayer
370
18
48
1
60
0
100
AcDbSpline
70
4
71
3
72
14
73
10
40
0
40
0
40
0
40
0
40
0.25
40
0.25
40
0.5
40
0.5
40
0.75
40
0.75
40
1
40
1
40
1
40
1
41
1
10
125.3245
20
-2.20136032625422
30
0
41
1
10
125.3245
20
-2.19533223973005
30
0
41
1
10
125.321958595129
20
-2.18709615879749
30
0
41
1
10
125.31345050483
20
-2.1679080101475
30
0
41
1
10
125.30764570247
20
-2.15730249059086
30
0
41
1
10
125.293816071692
20
-2.13464132005848
30
0
41
1
10
125.285845445367
20
-2.12270817319055
30
0
41
1
10
125.268672225887
20
-2.09851984007338
30
0
41
1
10
125.259398489399
20
-2.08615645968624
30
0
41
1
10
125.2495
20
-2.07354552727588
30
0
0
SPLINE
5
1B7
100
AcDbEntity
8
1
62
256
6
ByLayer
370
18
48
1
60
0
100
AcDbSpline
70
4
71
3
72
14
73
10
40
0
40
0
40
0
40
0
40
0.25
40
0.25
40
0.5
40
0.5
40
0.75
40
0.75
40
1
40
1
40
1
40
1
41
1
10
125.2495
20
-2.24832985190719
30
0
41
1
10
125.259247241143
20
-2.25659063833481
30
0
41
1
10
125.268784239155
20
-2.26410888193004
30
0
41
1
10
125.286942676012
20
-2.27683820058007
30
0
41
1
10
125.295401197738
20
-2.28190615933227
30
0
41
1
10
125.309600369956
20
-2.28806228179886
30
0
41
1
10
125.315332644849
20
-2.28909083847134
30
0
41
1
10
125.322732668698
20
-2.28666148015725
30
0
41
1
10
125.3245
20
-2.28320393071888
30
0
41
1
10
125.3245
20
-2.27817728885643
30
0
0
SPLINE
5
1B8
100
AcDbEntity
8
1
62
256
6
ByLayer
370
18
48
1
60
0
100
AcDbSpline
70
4
71
3
72
8
73
4
40
0
40
0
40
0
40
0
40
1
40
1
40
1
40
1
41
1
10
125.2495
20
-2.24832985190716
30
0
41
1
10
125.034913814811
20
-2.06646806966322
30
0
41
1
10
124.820244754008
20
-1.88473661184
30
0
41
1
10
124.6055
20
-1.70312456238361
30
0
0
SPLINE
5
1B9
100
AcDbEntity
8
1
62
256
6
ByLayer
370
18
48
1
60
0
100
AcDbSpline
70
4
71
3
72
22
73
18
40
0
40
0
40
0
40
0
40
0.125000000000034
40
0.125000000000034
40
0.250000000000069
40
0.250000000000069
40
0.312500000000064
40
0.312500000000064
40
0.375000000000059
40
0.375000000000059
40
0.500000000000056
40
0.500000000000056
40
0.625000000000052
40
0.625000000000052
40
0.750000000000049
40
0.750000000000049
40
1
40
1
40
1
40
1
41
1
10
124.6055
20
-1.70312456238358
30
0
41
1
10
124.592993500049
20
-1.69254767496153
30
0
41
1
10
124.580706276432
20
-1.68301153379426
30
0
41
1
10
124.558138730979
20
-1.66790477841437
30
0
41
1
10
124.547727595054
20
-1.66228308319683
30
0
41
1
10
124.535443493164
20
-1.65863143013161
30
0
41
1
10
124.531968282765
20
-1.65822292191819
30
0
41
1
10
124.526382198925
20
-1.65901826330349
30
0
41
1
10
124.52422997549
20
-1.66024832755178
30
0
41
1
10
124.519946272536
20
-1.66612097656778
30
0
41
1
10
124.519899733555
20
-1.67298647669151
30
0
41
1
10
124.523871617955
20
-1.68997509786038
30
0
41
1
10
124.52788622281
20
-1.70023871069495
30
0
41
1
10
124.538430599233
20
-1.72230957848404
30
0
41
1
10
124.544991563262
20
-1.73421850236633
30
0
41
1
10
124.567418182231
20
-1.771498444245
30
0
41
1
10
124.585340647127
20
-1.79745362567655
30
0
41
1
10
124.6055
20
-1.82422157869573
30
0
0
SPLINE
5
1BA
100
AcDbEntity
8
1
62
256
6
ByLayer
370
18
48
1
60
0
100
AcDbSpline
70
4
71
3
72
8
73
4
40
0
40
0
40
0
40
0
40
1
40
1
40
1
40
1
41
1
10
124.6055
20
-1.82422157869573
30
0
41
1
10
124.822056039247
20
-2.11176860071311
30
0
41
1
10
125.036782319601
20
-2.4011251921809
30
0
41
1
10
125.2495
20
-2.69246822083963
30
0
0
SPLINE
5
1BB
100
AcDbEntity
8
1
62
256
6
ByLayer
370
18
48
1
60
0
100
AcDbSpline
70
4
71
3
72
12
73
8
40
0
40
0
40
0
40
0
40
0.249999999999963
40
0.249999999999963
40
0.499999999999926
40
0.499999999999926
40
1
40
1
40
1
40
1
41
1
10
125.324500000001
20
-2.83623732603817
30
0
41
1
10
125.324500000001
20
-2.82846260411412
30
0
41
1
10
125.321911983203
20
-2.81860110329822
30
0
41
1
10
125.313432961461
20
-2.79643689266834
30
0
41
1
10
125.307648294225
20
-2.78443663538252
30
0
41
1
10
125.28692603742
20
-2.7464330532691
30
0
41
1
10
125.26945325247
20
-2.71979665444852
30
0
41
1
10
125.2495
20
-2.69246822083963
30
0
0
SPLINE
5
1BC
100
AcDbEntity
8
1
62
256
6
ByLayer
370
18
48
1
60
0
100
AcDbSpline
70
4
71
3
72
14
73
10
40
0
40
0
40
0
40
0
40
0.25
40
0.25
40
0.5
40
0.5
40
0.75
40
0.75
40
1
40
1
40
1
40
1
41
1
10
125.2495
20
-2.91407284568109
30
0
41
1
10
125.259305222304
20
-2.92220957029934
30
0
41
1
10
125.268941650508
20
-2.9294876433629
30
0
41
1
10
125.287372796518
20
-2.94132379517831
30
0
41
1
10
125.295964745964
20
-2.94569699081251
30
0
41
1
10
125.310152692604
20
-2.94985801637449
30
0
41
1
10
125.315769240382
20
-2.94958566514666
30
0
41
1
10
125.322871011082
20
-2.94455172210994
30
0
41
1
10
125.3245
20
-2.93978928308186
30
0
41
1
10
125.3245
20
-2.93366397515541
30
0
0
SPLINE
5
1BD
100
AcDbEntity
8
1
62
256
6
ByLayer
370
18
48
1
60
0
100
AcDbSpline
70
4
71
3
72
8
73
4
40
0
40
0
40
0
40
0
40
1
40
1
40
1
40
1
41
1
10
125.2495
20
-2.91407284568103
30
0
41
1
10
125.034868684835
20
-2.73596409385345
30
0
41
1
10
124.820200946825
20
-2.5579138520919
30
0
41
1
10
124.6055
20
-2.37991703380541
30
0
0
SPLINE
5
1BE
100
AcDbEntity
8
1
62
256
6
ByLayer
370
18
48
1
60
0
100
AcDbSpline
70
4
71
3
72
22
73
18
40
0
40
0
40
0
40
0
40
0.125000000000005
40
0.125000000000005
40
0.25000000000001
40
0.25000000000001
40
0.312500000000013
40
0.312500000000013
40
0.375000000000016
40
0.375000000000016
40
0.50000000000002
40
0.50000000000002
40
0.625000000000025
40
0.625000000000025
40
0.750000000000029
40
0.750000000000029
40
1
40
1
40
1
40
1
41
1
10
124.6055
20
-2.37991703380541
30
0
41
1
10
124.592533498862
20
-2.36916721653194
30
0
41
1
10
124.579753193094
20
-2.35971355326839
30
0
41
1
10
124.556254451705
20
-2.34569708384697
30
0
41
1
10
124.545490827475
20
-2.34123125653838
30
0
41
1
10
124.533489226953
20
-2.34031323257975
30
0
41
1
10
124.530205563054
20
-2.34092334510459
30
0
41
1
10
124.525017733385
20
-2.3439113541651
30
0
41
1
10
124.523156119715
20
-2.34630254808698
30
0
41
1
10
124.519717166478
20
-2.35548074114391
30
0
41
1
10
124.520181417857
20
-2.36441665555426
30
0
41
1
10
124.524792588522
20
-2.3849061180631
30
0
41
1
10
124.528964218601
20
-2.39668472663107
30
0
41
1
10
124.539577226902
20
-2.42137535716904
30
0
41
1
10
124.546127538049
20
-2.4345487294795
30
0
41
1
10
124.568108475269
20
-2.47483586728913
30
0
41
1
10
124.585654455034
20
-2.50256195350747
30
0
41
1
10
124.6055
20
-2.53096315578847
30
0
0
SPLINE
5
1BF
100
AcDbEntity
8
1
62
256
6
ByLayer
370
18
48
1
60
0
100
AcDbSpline
70
4
71
3
72
8
73
4
40
0
40
0
40
0
40
0
40
1
40
1
40
1
40
1
41
1
10
124.6055
20
-2.53096315578847
30
0
41
1
10
124.822628100131
20
-2.84169783720975
30
0
41
1
10
125.037374649206
20
-3.15461042244897
30
0
41
1
10
125.2495
20
-3.46992006641705
30
0
0
SPLINE
5
1C0
100
AcDbEntity
8
1
62
256
6
ByLayer
370
18
48
1
60
0
100
AcDbSpline
70
4
71
3
72
12
73
8
40
0
40
0
40
0
40
0
40
0.250000000000001
40
0.250000000000001
40
0.500000000000002
40
0.500000000000002
40
1
40
1
40
1
40
1
41
1
10
125.324500000009
20
-3.63241239460777
30
0
41
1
10
125.324500000008
20
-3.62277784236181
30
0
41
1
10
125.321873699401
20
-3.61094168405211
30
0
41
1
10
125.313449392423
20
-3.58540706915736
30
0
41
1
10
125.307670540604
20
-3.57173837863681
30
0
41
1
10
125.287041271642
20
-3.52913756934606
30
0
41
1
10
125.269646391906
20
-3.49986628281909
30
0
41
1
10
125.2495
20
-3.46992006641705
30
0
0
SPLINE
5
1C1
100
AcDbEntity
8
1
62
256
6
ByLayer
370
18
48
1
60
0
100
AcDbSpline
70
4
71
3
72
14
73
10
40
0
40
0
40
0
40
0
40
0.25
40
0.25
40
0.5
40
0.5
40
0.75
40
0.75
40
1
40
1
40
1
40
1
41
1
10
125.2495
20
-3.74466178762515
30
0
41
1
10
125.259398868046
20
-3.75276857498738
30
0
41
1
10
125.269223229739
20
-3.75990388965181
30
0
41
1
10
125.287974418792
20
-3.77081453251438
30
0
41
1
10
125.296731434281
20
-3.77439893525465
30
0
41
1
10
125.310852246407
20
-3.77626471043021
30
0
41
1
10
125.316292465155
20
-3.77450088945574
30
0
41
1
10
125.323020110113
20
-3.76664184996954
30
0
41
1
10
125.3245
20
-3.76051940075749
30
0
41
1
10
125.3245
20
-3.75325723658406
30
0
0
SPLINE
5
1C2
100
AcDbEntity
8
1
62
256
6
ByLayer
370
18
48
1
60
0
100
AcDbSpline
70
4
71
3
72
8
73
4
40
0
40
0
40
0
40
0
40
1
40
1
40
1
40
1
41
1
10
125.2495
20
-3.74466178762501
30
0
41
1
10
125.034840117021
20
-3.56886370460427
30
0
41
1
10
124.820173237194
20
-3.39307701254961
30
0
41
1
10
124.6055
20
-3.21730067326737
30
0
0
SPLINE
5
1C3
100
AcDbEntity
8
1
62
256
6
ByLayer
370
18
48
1
60
0
100
AcDbSpline
70
4
71
3
72
22
73
18
40
0
40
0
40
0
40
0
40
0.125000000000047
40
0.125000000000047
40
0.187500000000041
40
0.187500000000041
40
0.250000000000035
40
0.250000000000035
40
0.312500000000029
40
0.312500000000029
40
0.375000000000023
40
0.375000000000023
40
0.500000000000018
40
0.500000000000018
40
0.750000000000009
40
0.750000000000009
40
1
40
1
40
1
40
1
41
1
10
124.6055
20
-3.21730067326737
30
0
41
1
10
124.591974522899
20
-3.20622589336995
30
0
41
1
10
124.578572891949
20
-3.19676481084934
30
0
41
1
10
124.560072832448
20
-3.18726009684883
30
0
41
1
10
124.554246459773
20
-3.18492939086517
30
0
41
1
10
124.543782254935
20
-3.18234479782211
30
0
41
1
10
124.539080357025
20
-3.18210140050357
30
0
41
1
10
124.531404308881
20
-3.18374350198246
30
0
41
1
10
124.52830691468
20
-3.18562307429298
30
0
41
1
10
124.523684963868
20
-3.19121015244122
30
0
41
1
10
124.522185737906
20
-3.1948345170598
30
0
41
1
10
124.519647436547
20
-3.20771903537098
30
0
41
1
10
124.52060442944
20
-3.21869869439158
30
0
41
1
10
124.528430006134
20
-3.25511521286103
30
0
41
1
10
124.540081448102
20
-3.28385256587262
30
0
41
1
10
124.568801388406
20
-3.34223729256308
30
0
41
1
10
124.585973014626
20
-3.37211142845291
30
0
41
1
10
124.6055
20
-3.4025431071959
30
0
0
SPLINE
5
1C4
100
AcDbEntity
8
1
62
256
6
ByLayer
370
18
48
1
60
0
100
AcDbSpline
70
4
71
3
72
8
73
4
40
0
40
0
40
0
40
0
40
1
40
1
40
1
40
1
41
1
10
124.6055
20
-3.4025431071959
30
0
41
1
10
124.823431123556
20
-3.7421761746123
30
0
41
1
10
125.038207131738
20
-4.08444698548001
30
0
41
1
10
125.2495
20
-4.42962977528671
30
0
0
SPLINE
5
1C5
100
AcDbEntity
8
1
62
256
6
ByLayer
370
18
48
1
60
0
100
AcDbSpline
70
4
71
3
72
12
73
8
40
0
40
0
40
0
40
0
40
0.250000000000002
40
0.250000000000002
40
0.500000000000004
40
0.500000000000004
40
1
40
1
40
1
40
1
41
1
10
125.324500000003
20
-4.61490660045786
30
0
41
1
10
125.324500000003
20
-4.60292127351275
30
0
41
1
10
125.321814823682
20
-4.58878082427037
30
0
41
1
10
125.313432917887
20
-4.55921851612496
30
0
41
1
10
125.307644159211
20
-4.54350338052166
30
0
41
1
10
125.287203970073
20
-4.49553169163852
30
0
41
1
10
125.269842865355
20
-4.46286330121436
30
0
41
1
10
125.2495
20
-4.42962977528674
30
0
0
SPLINE
5
1C6
100
AcDbEntity
8
1
62
256
6
ByLayer
370
18
48
1
60
0
100
AcDbSpline
70
4
71
3
72
14
73
10
40
0
40
0
40
0
40
0
40
0.25
40
0.25
40
0.5
40
0.5
40
0.75
40
0.75
40
1
40
1
40
1
40
1
41
1
10
125.2495
20
-4.76703790870923
30
0
41
1
10
125.259575474705
20
-4.77527032120798
30
0
41
1
10
125.26966349178
20
-4.78234230644367
30
0
41
1
10
125.288734068695
20
-4.79221645095976
30
0
41
1
10
125.297672368402
20
-4.7948639761652
30
0
41
1
10
125.31177716259
20
-4.79396646968775
30
0
41
1
10
125.316905532375
20
-4.7904626403018
30
0
41
1
10
125.323198953868
20
-4.77941459438063
30
0
41
1
10
125.324500000001
20
-4.77187219161399
30
0
41
1
10
125.324500000001
20
-4.76341654017224
30
0
0
SPLINE
5
1C7
100
AcDbEntity
8
1
62
256
6
ByLayer
370
18
48
1
60
0
100
AcDbSpline
70
4
71
3
72
8
73
4
40
0
40
0
40
0
40
0
40
1
40
1
40
1
40
1
41
1
10
125.2495
20
-4.7670379087092
30
0
41
1
10
125.034835023948
20
-4.59164065113723
30
0
41
1
10
124.820168300833
20
-4.41624624446021
30
0
41
1
10
124.6055
20
-4.24085441251839
30
0
0
SPLINE
5
1C8
100
AcDbEntity
8
1
62
256
6
ByLayer
370
18
48
1
60
0
100
AcDbSpline
70
4
71
3
72
20
73
16
40
0
40
0
40
0
40
0
40
0.125000000000022
40
0.125000000000022
40
0.187500000000034
40
0.187500000000034
40
0.250000000000046
40
0.250000000000046
40
0.375000000000038
40
0.375000000000038
40
0.50000000000003
40
0.50000000000003
40
0.750000000000015
40
0.750000000000015
40
1
40
1
40
1
40
1
41
1
10
124.6055
20
-4.24085441251839
30
0
41
1
10
124.591241209992
20
-4.22920446098325
30
0
41
1
10
124.576882009736
20
-4.21954682704163
30
0
41
1
10
124.557418433899
20
-4.21153422974302
30
0
41
1
10
124.55141786387
20
-4.21000803232826
30
0
41
1
10
124.540736957698
20
-4.20960398648845
30
0
41
1
10
124.536294750605
20
-4.21072159672295
30
0
41
1
10
124.525397558399
20
-4.21765576059315
30
0
41
1
10
124.521806464736
20
-4.22702473862989
30
0
41
1
10
124.519817784919
20
-4.24945567898786
30
0
41
1
10
124.521200723363
20
-4.26249594912241
30
0
41
1
10
124.529841545333
20
-4.30508818498072
30
0
41
1
10
124.541334881166
20
-4.33689603639493
30
0
41
1
10
124.569508859252
20
-4.40107774702398
30
0
41
1
10
124.586315553106
20
-4.43366846517003
30
0
41
1
10
124.6055
20
-4.46668411598603
30
0
0
SPLINE
5
1C9
100
AcDbEntity
8
1
62
256
6
ByLayer
370
18
48
1
60
0
100
AcDbSpline
70
4
71
3
72
8
73
4
40
0
40
0
40
0
40
0
40
1
40
1
40
1
40
1
41
1
10
124.6055
20
-4.46668411598603
30
0
41
1
10
124.824618246661
20
-4.84377768344785
30
0
41
1
10
125.039439331602
20
-5.22410417510079
30
0
41
1
10
125.2495
20
-5.60801211581133
30
0
0
SPLINE
5
1CA
100
AcDbEntity
8
1
62
256
6
ByLayer
370
18
48
1
60
0
100
AcDbSpline
70
4
71
3
72
12
73
8
40
0
40
0
40
0
40
0
40
0.250000000000024
40
0.250000000000024
40
0.500000000000047
40
0.500000000000047
40
1
40
1
40
1
40
1
41
1
10
125.324500000007
20
-5.82240239656687
30
0
41
1
10
125.324500000006
20
-5.80756214893353
30
0
41
1
10
125.321810105843
20
-5.7907340466262
30
0
41
1
10
125.313502648554
20
-5.75611184842782
30
0
41
1
10
125.307829005166
20
-5.73811529827475
30
0
41
1
10
125.287476650065
20
-5.68285803975331
30
0
41
1
10
125.270072992638
20
-5.64561142128011
30
0
41
1
10
125.2495
20
-5.60801211581133
30
0
0
SPLINE
5
1CB
100
AcDbEntity
8
1
62
256
6
ByLayer
370
18
48
1
60
0
100
AcDbSpline
70
4
71
3
72
14
73
10
40
0
40
0
40
0
40
0
40
0.25
40
0.25
40
0.5
40
0.5
40
0.75
40
0.75
40
1
40
1
40
1
40
1
41
1
10
125.2495
20
-6.0232247012876
30
0
41
1
10
125.259733022903
20
-6.03170325839986
30
0
41
1
10
125.270234663605
20
-6.03889603001764
30
0
41
1
10
125.289965723692
20
-6.04766100193962
30
0
41
1
10
125.299095384783
20
-6.04897478664611
30
0
41
1
10
125.31290217886
20
-6.04449282508926
30
0
41
1
10
125.317639435507
20
-6.03889855284908
30
0
41
1
10
125.323378773838
20
-6.02421608918107
30
0
41
1
10
125.324500000004
20
-6.01513635543935
30
0
41
1
10
125.324500000004
20
-6.00534742710843
30
0
0
SPLINE
5
1CC
100
AcDbEntity
8
1
62
256
6
ByLayer
370
18
48
1
60
0
100
AcDbSpline
70
4
71
3
72
8
73
4
40
0
40
0
40
0
40
0
40
1
40
1
40
1
40
1
41
1
10
125.2495
20
-6.02322470128726
30
0
41
1
10
125.034872069188
20
-5.84539502314485
30
0
41
1
10
124.820203979195
20
-5.66762995658149
30
0
41
1
10
124.6055
20
-5.48992272235014
30
0
0
SPLINE
5
1CD
100
AcDbEntity
8
1
62
256
6
ByLayer
370
18
48
1
60
0
100
AcDbSpline
70
4
71
3
72
22
73
18
40
0
40
0
40
0
40
0
40
0.0624999999999921
40
0.0624999999999921
40
0.124999999999984
40
0.124999999999984
40
0.187499999999976
40
0.187499999999976
40
0.249999999999968
40
0.249999999999968
40
0.374999999999977
40
0.374999999999977
40
0.499999999999986
40
0.499999999999986
40
0.749999999999993
40
0.749999999999993
40
1
40
1
40
1
40
1
41
1
10
124.6055
20
-5.48992272234958
30
0
41
1
10
124.597953135099
20
-5.48367629648573
30
0
41
1
10
124.590330974831
20
-5.47807175433636
30
0
41
1
10
124.575215001469
20
-5.46892415796287
30
0
41
1
10
124.567808263291
20
-5.46545862905103
30
0
41
1
10
124.554107443175
20
-5.46168188433288
30
0
41
1
10
124.547904073598
20
-5.46140749764177
30
0
41
1
10
124.537369962298
20
-5.46420950924065
30
0
41
1
10
124.533213831342
20
-5.46717479223398
30
0
41
1
10
124.52342445853
20
-5.47985805877997
30
0
41
1
10
124.520891479662
20
-5.49279216277364
30
0
41
1
10
124.520192653502
20
-5.52108425732175
30
0
41
1
10
124.521965579882
20
-5.53668337620067
30
0
41
1
10
124.53125227634
20
-5.5862215159508
30
0
41
1
10
124.542520094208
20
-5.62186337238353
30
0
41
1
10
124.570215633343
20
-5.69377511237684
30
0
41
1
10
124.586679720459
20
-5.73001843703989
30
0
41
1
10
124.6055
20
-5.76651028747239
30
0
0
SPLINE
5
1CE
100
AcDbEntity
8
1
62
256
6
ByLayer
370
18
48
1
60
0
100
AcDbSpline
70
4
71
3
72
8
73
4
40
0
40
0
40
0
40
0
40
1
40
1
40
1
40
1
41
1
10
124.6055
20
-5.76651028747239
30
0
41
1
10
124.826510348702
20
-6.19504146690679
30
0
41
1
10
125.04140572646
20
-6.62761731648234
30
0
41
1
10
125.2495
20
-7.06469167036869
30
0
0
SPLINE
5
1CF
100
AcDbEntity
8
1
62
256
6
ByLayer
370
18
48
1
60
0
100
AcDbSpline
70
4
71
3
72
12
73
8
40
0
40
0
40
0
40
0
40
0.250000000000019
40
0.250000000000019
40
0.500000000000037
40
0.500000000000037
40
1
40
1
40
1
40
1
41
1
10
125.3245
20
-7.31901231381005
30
0
41
1
10
125.3245
20
-7.30029285472926
30
0
41
1
10
125.321855324873
20
-7.28020508525393
30
0
41
1
10
125.313599942066
20
-7.23851612762743
30
0
41
1
10
125.30788129739
20
-7.21685256265994
30
0
41
1
10
125.287783443018
20
-7.15216763497369
30
0
41
1
10
125.270417001908
20
-7.10862505180458
30
0
41
1
10
125.2495
20
-7.06469167036872
30
0
0
SPLINE
5
1D0
100
AcDbEntity
8
1
62
256
6
ByLayer
370
18
48
1
60
0
100
AcDbSpline
70
4
71
3
72
14
73
10
40
0
40
0
40
0
40
0
40
0.25
40
0.25
40
0.5
40
0.5
40
0.75
40
0.75
40
1
40
1
40
1
40
1
41
1
10
125.2495
20
-7.5839877002837
30
0
41
1
10
125.260085369069
20
-7.59312235715231
30
0
41
1
10
125.27112172787
20
-7.60063493484276
30
0
41
1
10
125.291967553371
20
-7.60789362227416
30
0
41
1
10
125.301175936096
20
-7.6070625694073
30
0
41
1
10
125.31440749166
20
-7.59754220650015
30
0
41
1
10
125.318609915423
20
-7.58919811294229
30
0
41
1
10
125.323586945423
20
-7.57021273993414
30
0
41
1
10
125.3245
20
-7.55954728212959
30
0
41
1
10
125.3245
20
-7.54820793043265
30
0
0
SPLINE
5
1D1
100
AcDbEntity
8
1
62
256
6
ByLayer
370
18
48
1
60
0
100
AcDbSpline
70
4
71
3
72
8
73
4
40
0
40
0
40
0
40
0
40
1
40
1
40
1
40
1
41
1
10
125.2495
20
-7.58398770028353
30
0
41
1
10
125.035005737834
20
-7.39888962081267
30
0
41
1
10
124.820331960648
20
-7.21406953128047
30
0
41
1
10
124.6055
20
-7.02949439847077
30
0
0
SPLINE
5
1D2
100
AcDbEntity
8
1
62
256
6
ByLayer
370
18
48
1
60
0
100
AcDbSpline
70
4
71
3
72
24
73
20
40
0
40
0
40
0
40
0
40
0.0624999999999931
40
0.0624999999999931
40
0.124999999999986
40
0.124999999999986
40
0.187499999999979
40
0.187499999999979
40
0.249999999999973
40
0.249999999999973
40
0.374999999999978
40
0.374999999999978
40
0.499999999999983
40
0.499999999999983
40
0.624999999999988
40
0.624999999999988
40
0.749999999999994
40
0.749999999999994
40
1
40
1
40
1
40
1
41
1
10
124.6055
20
-7.02949439847077
30
0
41
1
10
124.597228437567
20
-7.02238779882842
30
0
41
1
10
124.588914419841
20
-7.01627191098419
30
0
41
1
10
124.57215708379
20
-7.00707158536062
30
0
41
1
10
124.563911018039
20
-7.00421565543681
30
0
41
1
10
124.549332527511
20
-7.00339207312686
30
0
41
1
10
124.543058514406
20
-7.00543017129647
30
0
41
1
10
124.533175608736
20
-7.01333566681129
30
0
41
1
10
124.529511798149
20
-7.01914223983158
30
0
41
1
10
124.521618643724
20
-7.03936041312346
30
0
41
1
10
124.520184061725
20
-7.05660503785063
30
0
41
1
10
124.520919902298
20
-7.09226515213609
30
0
41
1
10
124.523123853493
20
-7.11112622214668
30
0
41
1
10
124.529813307373
20
-7.15014571447614
30
0
41
1
10
124.534358710199
20
-7.17036939319297
30
0
41
1
10
124.544946601497
20
-7.21070613525103
30
0
41
1
10
124.551022507126
20
-7.23098391487918
30
0
41
1
10
124.571175868445
20
-7.29208885350263
30
0
41
1
10
124.58712561472
20
-7.33318118653585
30
0
41
1
10
124.6055
20
-7.37460668174256
30
0
0
SPLINE
5
1D3
100
AcDbEntity
8
1
62
256
6
ByLayer
370
18
48
1
60
0
100
AcDbSpline
70
4
71
3
72
8
73
4
40
0
40
0
40
0
40
0
40
1
40
1
40
1
40
1
41
1
10
124.6055
20
-7.37460668174256
30
0
41
1
10
124.829910422179
20
-7.88054539625421
30
0
41
1
10
125.044943589855
20
-8.39173247475679
30
0
41
1
10
125.2495
20
-8.90878329908639
30
0
0
SPLINE
5
1D4
100
AcDbEntity
8
1
62
256
6
ByLayer
370
18
48
1
60
0
100
AcDbSpline
70
4
71
3
72
12
73
8
40
0
40
0
40
0
40
0
40
0.249999999999995
40
0.249999999999995
40
0.499999999999991
40
0.499999999999991
40
1
40
1
40
1
40
1
41
1
10
125.3245
20
-9.224536038314
30
0
41
1
10
125.3245
20
-9.20009088014407
30
0
41
1
10
125.321817981306
20
-9.17424905411576
30
0
41
1
10
125.313562475329
20
-9.12174911576847
30
0
41
1
10
125.307981564277
20
-9.09535780370655
30
0
41
1
10
125.288101027238
20
-9.0158888047448
30
0
41
1
10
125.270762412543
20
-8.96252763261603
30
0
41
1
10
125.2495
20
-8.90878329908645
30
0
0
SPLINE
5
1D5
100
AcDbEntity
8
1
62
256
6
ByLayer
370
18
48
1
60
0
100
AcDbSpline
70
4
71
3
72
18
73
14
40
0
40
0
40
0
40
0
40
0.125000000000014
40
0.125000000000014
40
0.250000000000027
40
0.250000000000027
40
0.375000000000041
40
0.375000000000041
40
0.500000000000055
40
0.500000000000055
40
0.750000000000027
40
0.750000000000027
40
1
40
1
40
1
40
1
41
1
10
125.2495
20
-9.58537206124484
30
0
41
1
10
125.25500497881
20
-9.59057773573551
30
0
41
1
10
125.260747198982
20
-9.59528971594918
30
0
41
1
10
125.272271983717
20
-9.6026636082224
30
0
41
1
10
125.278205664728
20
-9.60537822741389
30
0
41
1
10
125.2893124648
20
-9.60760117462311
30
0
41
1
10
125.294555762787
20
-9.60708740259798
30
0
41
1
10
125.303434328157
20
-9.603086920534
30
0
41
1
10
125.307128635141
20
-9.59965955582135
30
0
41
1
10
125.316095454751
20
-9.58702407788164
30
0
41
1
10
125.319554238696
20
-9.57540489102351
30
0
41
1
10
125.323742183535
20
-9.55081974535406
30
0
41
1
10
125.3245
20
-9.53770334273659
30
0
41
1
10
125.3245
20
-9.52412529420823
30
0
0
SPLINE
5
1D6
100
AcDbEntity
8
1
62
256
6
ByLayer
370
18
48
1
60
0
100
AcDbSpline
70
4
71
3
72
8
73
4
40
0
40
0
40
0
40
0
40
1
40
1
40
1
40
1
41
1
10
125.2495
20
-9.58537206124407
30
0
41
1
10
125.035436607666
20
-9.38294724196027
30
0
41
1
10
124.820739969169
20
-9.18142161767227
30
0
41
1
10
124.6055
20
-8.98066751045093
30
0
0
SPLINE
5
1D7
100
AcDbEntity
8
1
62
256
6
ByLayer
370
18
48
1
60
0
100
AcDbSpline
70
4
71
3
72
24
73
20
40
0
40
0
40
0
40
0
40
0.0625000000000345
40
0.0625000000000345
40
0.0937500000000293
40
0.0937500000000293
40
0.125000000000024
40
0.125000000000024
40
0.187500000000014
40
0.187500000000014
40
0.250000000000003
40
0.250000000000003
40
0.375000000000002
40
0.375000000000002
40
0.500000000000001
40
0.500000000000001
40
0.750000000000001
40
0.750000000000001
40
1
40
1
40
1
40
1
41
1
10
124.605500000001
20
-8.98066751044925
30
0
41
1
10
124.596351499941
20
-8.97213471345577
30
0
41
1
10
124.586687669786
20
-8.96480009330071
30
0
41
1
10
124.572333089937
20
-8.95817999376192
30
0
41
1
10
124.567554778791
20
-8.9567276831695
30
0
41
1
10
124.558641496353
20
-8.95574914661802
30
0
41
1
10
124.554365500145
20
-8.95622454538119
30
0
41
1
10
124.543093981622
20
-8.9602895123133
30
0
41
1
10
124.537346922296
20
-8.9664886065913
30
0
41
1
10
124.5289338815
20
-8.98206552386992
30
0
41
1
10
124.526157472394
20
-8.99141756852066
30
0
41
1
10
124.520450088133
20
-9.02111521994658
30
0
41
1
10
124.519936430234
20
-9.04363315479256
30
0
41
1
10
124.521890124223
20
-9.0894085002887
30
0
41
1
10
124.524441710891
20
-9.11305067434029
30
0
41
1
10
124.53512134905
20
-9.18545388269581
30
0
41
1
10
124.545959817937
20
-9.2341366525265
30
0
41
1
10
124.572183989675
20
-9.33203670365049
30
0
41
1
10
124.58766472211
20
-9.38126370484918
30
0
41
1
10
124.6055
20
-9.43075766742146
30
0
0
SPLINE
5
1D8
100
AcDbEntity
8
1
62
256
6
ByLayer
370
18
48
1
60
0
100
AcDbSpline
70
4
71
3
72
8
73
4
40
0
40
0
40
0
40
0
40
1
40
1
40
1
40
1
41
1
10
124.6055
20
-9.43075766742146
30
0
41
1
10
124.837557523584
20
-10.074731170827
30
0
41
1
10
125.052909503293
20
-10.726042577491
30
0
41
1
10
125.2495
20
-11.3855949578267
30
0
0
SPLINE
5
1D9
100
AcDbEntity
8
1
62
256
6
ByLayer
370
18
48
1
60
0
100
AcDbSpline
70
4
71
3
72
12
73
8
40
0
40
0
40
0
40
0
40
0.250000000000001
40
0.250000000000001
40
0.500000000000002
40
0.500000000000002
40
1
40
1
40
1
40
1
41
1
10
125.3245
20
-11.8199145186687
30
0
41
1
10
125.3245
20
-11.7850608491585
30
0
41
1
10
125.321916951756
20
-11.7494540828888
30
0
41
1
10
125.313952554405
20
-11.6774613391594
30
0
41
1
10
125.308463266611
20
-11.640940966742
30
0
41
1
10
125.288693751875
20
-11.5315205474896
30
0
41
1
10
125.271251087085
20
-11.4585688884196
30
0
41
1
10
125.2495
20
-11.3855949578267
30
0
0
SPLINE
5
1DA
100
AcDbEntity
8
1
62
256
6
ByLayer
370
18
48
1
60
0
100
AcDbSpline
70
4
71
3
72
18
73
14
40
0
40
0
40
0
40
0
40
0.125000000000022
40
0.125000000000022
40
0.250000000000044
40
0.250000000000044
40
0.375000000000065
40
0.375000000000065
40
0.500000000000087
40
0.500000000000087
40
0.750000000000044
40
0.750000000000044
40
1
40
1
40
1
40
1
41
1
10
125.249499999998
20
-12.3664170418684
30
0
41
1
10
125.255413958302
20
-12.3733759383096
30
0
41
1
10
125.261770458563
20
-12.3796902762717
30
0
41
1
10
125.275305680587
20
-12.3885759455223
30
0
41
1
10
125.282553982376
20
-12.3908227117573
30
0
41
1
10
125.295087758634
20
-12.3883450444848
30
0
41
1
10
125.300230069096
20
-12.3839005229339
30
0
41
1
10
125.308159051547
20
-12.3724883462638
30
0
41
1
10
125.31112797194
20
-12.3654829204077
30
0
41
1
10
125.318222409956
20
-12.3433064410314
30
0
41
1
10
125.32074518818
20
-12.3266219733115
30
0
41
1
10
125.323912195392
20
-12.2928482998616
30
0
41
1
10
125.3245
20
-12.2754893040698
30
0
41
1
10
125.3245
20
-12.2578571468129
30
0
0
SPLINE
5
1DB
100
AcDbEntity
8
1
62
256
6
ByLayer
370
18
48
1
60
0
100
AcDbSpline
70
4
71
3
72
8
73
4
40
0
40
0
40
0
40
0
40
1
40
1
40
1
40
1
41
1
10
125.2495
20
-12.3664170418656
30
0
41
1
10
125.037366545293
20
-12.1168016967491
30
0
41
1
10
124.822529300301
20
-11.8703236016765
30
0
41
1
10
124.6055
20
-11.6263889825738
30
0
0
SPLINE
5
1DC
100
AcDbEntity
8
1
62
256
6
ByLayer
370
18
48
1
60
0
100
AcDbSpline
70
4
71
3
72
28
73
24
40
0
40
0
40
0
40
0
40
0.0312500000000009
40
0.0312500000000009
40
0.0625000000000019
40
0.0625000000000019
40
0.093750000000003
40
0.093750000000003
40
0.125000000000004
40
0.125000000000004
40
0.156250000000005
40
0.156250000000005
40
0.187500000000006
40
0.187500000000006
40
0.250000000000008
40
0.250000000000008
40
0.375000000000009
40
0.375000000000009
40
0.50000000000001
40
0.50000000000001
40
0.750000000000005
40
0.750000000000005
40
1
40
1
40
1
40
1
41
1
10
124.6055
20
-11.6263889825733
30
0
41
1
10
124.600004737356
20
-11.6202124672452
30
0
41
1
10
124.594211799427
20
-11.6145599958008
30
0
41
1
10
124.582136331548
20
-11.6055341940093
30
0
41
1
10
124.57576477563
20
-11.6021487506621
30
0
41
1
10
124.563317296278
20
-11.5997050240735
30
0
41
1
10
124.557514772273
20
-11.6008035164606
30
0
41
1
10
124.547823371798
20
-11.6065996511627
30
0
41
1
10
124.543809077888
20
-11.6112237386538
30
0
41
1
10
124.537237166688
20
-11.6220360446773
30
0
41
1
10
124.534613239458
20
-11.628288722881
30
0
41
1
10
124.530308572924
20
-11.6413924526942
30
0
41
1
10
124.528603869242
20
-11.6483044981493
30
0
41
1
10
124.524370352316
20
-11.6697534445501
30
0
41
1
10
124.52272221291
20
-11.684992317945
30
0
41
1
10
124.519763477303
20
-11.7307954450406
30
0
41
1
10
124.520294258414
20
-11.7621364789291
30
0
41
1
10
124.523619220996
20
-11.8255803937683
30
0
41
1
10
124.526514159926
20
-11.8577144462018
30
0
41
1
10
124.537644146478
20
-11.9549646568478
30
0
41
1
10
124.548337322641
20
-12.0211219470012
30
0
41
1
10
124.573783904193
20
-12.1530812106463
30
0
41
1
10
124.588606152319
20
-12.2191358769627
30
0
41
1
10
124.6055
20
-12.2852601775017
30
0
0
SPLINE
5
1DD
100
AcDbEntity
8
1
62
256
6
ByLayer
370
18
48
1
60
0
100
AcDbSpline
70
4
71
3
72
8
73
4
40
0
40
0
40
0
40
0
40
1
40
1
40
1
40
1
41
1
10
124.6055
20
-12.2852601775017
30
0
41
1
10
124.869706220596
20
-13.3193911738459
30
0
41
1
10
125.086430061288
20
-14.366493818741
30
0
41
1
10
125.2495
20
-15.4282541021381
30
0
0
SPLINE
5
1DE
100
AcDbEntity
8
1
62
256
6
ByLayer
370
18
48
1
60
0
100
AcDbSpline
70
4
71
3
72
12
73
8
40
0
40
0
40
0
40
0
40
0.250000000000002
40
0.250000000000002
40
0.500000000000004
40
0.500000000000004
40
1
40
1
40
1
40
1
41
1
10
125.3245
20
-16.3644844417635
30
0
41
1
10
125.3245
20
-16.2867467550405
30
0
41
1
10
125.322321213052
20
-16.2088663958683
30
0
41
1
10
125.315157628452
20
-16.0529744504622
30
0
41
1
10
125.310118654055
20
-15.9749574446004
30
0
41
1
10
125.29112293735
20
-15.7407402906228
30
0
41
1
10
125.273453541426
20
-15.5842173601941
30
0
41
1
10
125.2495
20
-15.4282541021382
30
0
0
SPLINE
5
1DF
100
AcDbEntity
8
1
62
256
6
ByLayer
370
18
48
1
60
0
100
AcDbSpline
70
4
71
3
72
30
73
26
40
0
40
0
40
0
40
0
40
0.06250000000005
40
0.06250000000005
40
0.0937500000000749
40
0.0937500000000749
40
0.109375000000066
40
0.109375000000066
40
0.125000000000057
40
0.125000000000057
40
0.140625000000048
40
0.140625000000048
40
0.15625000000004
40
0.15625000000004
40
0.187500000000034
40
0.187500000000034
40
0.250000000000017
40
0.250000000000017
40
0.375000000000013
40
0.375000000000013
40
0.500000000000009
40
0.500000000000009
40
0.750000000000004
40
0.750000000000004
40
1
40
1
40
1
40
1
41
1
10
125.2495
20
-18.1082541252259
30
0
41
1
10
125.252585251602
20
-18.121491072255
30
0
41
1
10
125.255899597279
20
-18.1346182257024
30
0
41
1
10
125.261905380729
20
-18.1538213010455
30
0
41
1
10
125.264083682185
20
-18.1601808999313
30
0
41
1
10
125.267983901483
20
-18.1692840260992
30
0
41
1
10
125.269379755249
20
-18.1722238214332
30
0
41
1
10
125.272581160924
20
-18.1776997586859
30
0
41
1
10
125.27439750269
20
-18.1803170350196
30
0
41
1
10
125.27884813873
20
-18.1838021896581
30
0
41
1
10
125.281541189178
20
-18.1841882859118
30
0
41
1
10
125.285946402378
20
-18.1815140432865
30
0
41
1
10
125.287666132916
20
-18.1789999362856
30
0
41
1
10
125.291963767712
20
-18.170987311344
30
0
41
1
10
125.293902185556
20
-18.1647090817133
30
0
41
1
10
125.298993106347
20
-18.145683248254
30
0
41
1
10
125.301268828837
20
-18.1323851258872
30
0
41
1
10
125.307234219055
20
-18.0922682042206
30
0
41
1
10
125.30983512522
20
-18.0650470224747
30
0
41
1
10
125.314214938181
20
-18.0105564627222
30
0
41
1
10
125.315900690146
20
-17.9832123559603
30
0
41
1
10
125.320121868679
20
-17.901029450456
30
0
41
1
10
125.321822727285
20
-17.84602940069
30
0
41
1
10
125.324029349182
20
-17.7359017215395
30
0
41
1
10
125.324500000004
20
-17.6807849115826
30
0
41
1
10
125.324500000004
20
-17.6256367028834
30
0
0
SPLINE
5
1E0
100
AcDbEntity
8
1
62
256
6
ByLayer
370
18
48
1
60
0
100
AcDbSpline
70
4
71
3
72
10
73
6
40
0
40
0
40
0
40
0
40
0.5
40
0.5
40
1
40
1
40
1
40
1
41
1
10
125.2495
20
-18.1082541252259
30
0
41
1
10
125.172800078505
20
-17.7791811908825
30
0
41
1
10
125.078711071859
20
-17.4580038122888
30
0
41
1
10
124.862125005522
20
-16.828547799607
30
0
41
1
10
124.739622539874
20
-16.5202716201066
30
0
41
1
10
124.605500000001
20
-16.2172715631313
30
0
0
SPLINE
5
1E1
100
AcDbEntity
8
1
62
256
6
ByLayer
370
18
48
1
60
0
100
AcDbSpline
70
4
71
3
72
34
73
30
40
0
40
0
40
0
40
0
40
0.0156249999999852
40
0.0156249999999852
40
0.0234374999999836
40
0.0234374999999836
40
0.0312499999999819
40
0.0312499999999819
40
0.0390624999999801
40
0.0390624999999801
40
0.0468749999999785
40
0.0468749999999785
40
0.0624999999999788
40
0.0624999999999788
40
0.0937499999999806
40
0.0937499999999806
40
0.124999999999982
40
0.124999999999982
40
0.187499999999985
40
0.187499999999985
40
0.249999999999987
40
0.249999999999987
40
0.374999999999991
40
0.374999999999991
40
0.499999999999995
40
0.499999999999995
40
0.749999999999998
40
0.749999999999998
40
1
40
1
40
1
40
1
41
1
10
124.6055
20
-16.2172715631317
30
0
41
1
10
124.600770565557
20
-16.2065871628279
30
0
41
1
10
124.595549054338
20
-16.1960610500277
30
0
41
1
10
124.585900390277
20
-16.1825249284919
30
0
41
1
10
124.582318343786
20
-16.1783447337081
30
0
41
1
10
124.574314046877
20
-16.1726276704237
30
0
41
1
10
124.56971601516
20
-16.1713777210138
30
0
41
1
10
124.561718660099
20
-16.1738690460981
30
0
41
1
10
124.558300967182
20
-16.177267191226
30
0
41
1
10
124.552786193003
20
-16.1852864462017
30
0
41
1
10
124.550603107456
20
-16.1898810173062
30
0
41
1
10
124.544820911684
20
-16.2044489589587
30
0
41
1
10
124.542027970043
20
-16.2151900689565
30
0
41
1
10
124.534988669662
20
-16.2479339123721
30
0
41
1
10
124.532125846609
20
-16.2704042107767
30
0
41
1
10
124.527546360837
20
-16.315408998946
30
0
41
1
10
124.525936675823
20
-16.3380722765089
30
0
41
1
10
124.522187937599
20
-16.4063294679923
30
0
41
1
10
124.521123714516
20
-16.4521895103412
30
0
41
1
10
124.520277547574
20
-16.5442641224425
30
0
41
1
10
124.520544772605
20
-16.5904897220064
30
0
41
1
10
124.522565645691
20
-16.7295405936357
30
0
41
1
10
124.525520224338
20
-16.8228069402557
30
0
41
1
10
124.532835222886
20
-17.0093013332646
30
0
41
1
10
124.537238897876
20
-17.1026177608744
30
0
41
1
10
124.551541689553
20
-17.3827458203285
30
0
41
1
10
124.562501630545
20
-17.5697353900862
30
0
41
1
10
124.584379308983
20
-17.9441185583179
30
0
41
1
10
124.595352138883
20
-18.1315419630805
30
0
41
1
10
124.6055
20
-18.3190664579138
30
0
0
SPLINE
5
1E2
100
AcDbEntity
8
1
62
256
6
ByLayer
370
18
48
1
60
0
100
AcDbSpline
70
4
71
3
72
8
73
4
40
0
40
0
40
0
40
0
40
1
40
1
40
1
40
1
41
1
10
124.6055
20
-18.3190664579138
30
0
41
1
10
124.666142318209
20
-19.4396888193046
30
0
41
1
10
124.666142318209
20
-20.5603111806954
30
0
41
1
10
124.6055
20
-21.6809335420862
30
0
0
SPLINE
5
1E3
100
AcDbEntity
8
1
62
256
6
ByLayer
370
18
48
1
60
0
100
AcDbSpline
70
4
71
3
72
34
73
30
40
0
40
0
40
0
40
0
40
0.250000000000002
40
0.250000000000002
40
0.500000000000004
40
0.500000000000004
40
0.625000000000007
40
0.625000000000007
40
0.75000000000001
40
0.75000000000001
40
0.81250000000001
40
0.81250000000001
40
0.875000000000009
40
0.875000000000009
40
0.906250000000008
40
0.906250000000008
40
0.937500000000008
40
0.937500000000008
40
0.953125000000006
40
0.953125000000006
40
0.960937500000004
40
0.960937500000004
40
0.968750000000001
40
0.968750000000001
40
0.976562499999999
40
0.976562499999999
40
0.984374999999997
40
0.984374999999997
40
1
40
1
40
1
40
1
41
1
10
124.6055
20
-21.6809335420862
30
0
41
1
10
124.595346533292
20
-21.8685616238323
30
0
41
1
10
124.584370807237
20
-22.0560262287003
30
0
41
1
10
124.562481488741
20
-22.4306099884018
30
0
41
1
10
124.551513851723
20
-22.6177298429046
30
0
41
1
10
124.537202736881
20
-22.8981254329413
30
0
41
1
10
124.532796830085
20
-22.9915431542798
30
0
41
1
10
124.525483149715
20
-23.1782739904489
30
0
41
1
10
124.522535167938
20
-23.2715458172698
30
0
41
1
10
124.520533676288
20
-23.4107891039485
30
0
41
1
10
124.520274752555
20
-23.4571062118807
30
0
41
1
10
124.52115465809
20
-23.5494477281148
30
0
41
1
10
124.522240748443
20
-23.5954810364496
30
0
41
1
10
124.52608172868
20
-23.6641151207613
30
0
41
1
10
124.527736744004
20
-23.6869313967427
30
0
41
1
10
124.532408665708
20
-23.731855367698
30
0
41
1
10
124.535313860698
20
-23.7540525787312
30
0
41
1
10
124.542369992768
20
-23.7861374829192
30
0
41
1
10
124.545178365623
20
-23.7967125716027
30
0
41
1
10
124.551015675626
20
-23.8110070008824
30
0
41
1
10
124.553273328892
20
-23.8155950558175
30
0
41
1
10
124.55884924938
20
-23.8233213778425
30
0
41
1
10
124.562256999408
20
-23.826512381662
30
0
41
1
10
124.570382070726
20
-23.8285817210438
30
0
41
1
10
124.574817602389
20
-23.8271291906222
30
0
41
1
10
124.582709235835
20
-23.8212455239893
30
0
41
1
10
124.586129694689
20
-23.8171872080594
30
0
41
1
10
124.595657580156
20
-23.8037159283196
30
0
41
1
10
124.600811615614
20
-23.7933200998169
30
0
41
1
10
124.6055
20
-23.7827284368683
30
0
0
SPLINE
5
1E4
100
AcDbEntity
8
1
62
256
6
ByLayer
370
18
48
1
60
0
100
AcDbSpline
70
4
71
3
72
10
73
6
40
0
40
0
40
0
40
0
40
0.5
40
0.5
40
1
40
1
40
1
40
1
41
1
10
124.605500000001
20
-23.7827284368687
30
0
41
1
10
124.739622539874
20
-23.479728379893
30
0
41
1
10
124.862125005522
20
-23.1714522003921
30
0
41
1
10
125.07871107186
20
-22.5419961877094
30
0
41
1
10
125.172800078506
20
-22.2208188091153
30
0
41
1
10
125.249500000001
20
-21.8917458747714
30
0
0
LINE
5
75
100
AcDbEntity
8
1
62
256
6
ByLayer
370
18
48
1
60
0
100
AcDbLine
10
129.6755
20
-34.899495
30
0
11
134.9255
21
-34.899495
31
0
39
0
210
0
220
0
230
1
0
LINE
5
77
100
AcDbEntity
8
1
62
256
6
ByLayer
370
18
48
1
60
0
100
AcDbLine
10
129.4255
20
-26.899495
30
0
11
125.324484
21
-26.899495
31
0
39
0
210
0
220
0
230
1
0
LINE
5
78
100
AcDbEntity
8
1
62
256
6
ByLayer
370
18
48
1
60
0
100
AcDbLine
10
125.324484
20
-32.899495
30
0
11
129.4255
21
-32.899495
31
0
39
0
210
0
220
0
230
1
0
LINE
5
79
100
AcDbEntity
8
1
62
256
6
ByLayer
370
18
48
1
60
0
100
AcDbLine
10
134.9255
20
-24.899495
30
0
11
129.6755
21
-24.899495
31
0
39
0
210
0
220
0
230
1
0
LINE
5
7A
100
AcDbEntity
8
1
62
256
6
ByLayer
370
18
48
1
60
0
100
AcDbLine
10
134.9255
20
-5.100505
30
0
11
129.6755
21
-5.100505
31
0
39
0
210
0
220
0
230
1
0
LINE
5
7B
100
AcDbEntity
8
1
62
256
6
ByLayer
370
18
48
1
60
0
100
AcDbLine
10
0
20
-39.7
30
0
11
0.3
21
-40
31
0
39
0
210
0
220
0
230
1
0
LINE
5
7C
100
AcDbEntity
8
1
62
256
6
ByLayer
370
18
48
1
60
0
100
AcDbLine
10
0.3
20
40
30
0
11
0
21
39.7
31
0
39
0
210
0
220
0
230
1
0
LINE
5
7D
100
AcDbEntity
8
1
62
256
6
ByLayer
370
18
48
1
60
0
100
AcDbLine
10
30.000057
20
40
30
0
11
0.3
21
40
31
0
39
0
210
0
220
0
230
1
0
LINE
5
7E
100
AcDbEntity
8
1
62
256
6
ByLayer
370
18
48
1
60
0
100
AcDbLine
10
0.3
20
-40
30
0
11
8.476041
21
-40
31
0
39
0
210
0
220
0
230
1
0
LINE
5
7F
100
AcDbEntity
8
1
62
256
6
ByLayer
370
18
48
1
60
0
100
AcDbLine
10
15.534397
20
-40
30
0
11
36.9
21
-40
31
0
39
0
210
0
220
0
230
1
0
LINE
5
80
100
AcDbEntity
8
1
62
256
6
ByLayer
370
18
48
1
60
0
100
AcDbLine
10
32.961459
20
23.301504
30
0
11
30
21
40
31
0
39
0
210
0
220
0
230
1
0
LINE
5
81
100
AcDbEntity
8
1
62
256
6
ByLayer
370
18
48
1
60
0
100
AcDbLine
10
125.324484
20
-13.100505
30
0
11
129.4255
21
-13.100505
31
0
39
0
210
0
220
0
230
1
0
LINE
5
82
100
AcDbEntity
8
1
62
256
6
ByLayer
370
18
48
1
60
0
100
AcDbLine
10
129.4255
20
-7.100505
30
0
11
125.324484
21
-7.100505
31
0
39
0
210
0
220
0
230
1
0
LINE
5
83
100
AcDbEntity
8
1
62
256
6
ByLayer
370
18
48
1
60
0
100
AcDbLine
10
129.6755
20
-15.100505
30
0
11
134.9255
21
-15.100505
31
0
39
0
210
0
220
0
230
1
0
LINE
5
84
100
AcDbEntity
8
1
62
256
6
ByLayer
370
18
48
1
60
0
100
AcDbLine
10
134.9255
20
-5.100505
30
0
11
129.6755
21
-5.100505
31
0
39
0
210
0
220
0
230
1
0
LINE
5
85
100
AcDbEntity
8
1
62
256
6
ByLayer
370
18
48
1
60
0
100
AcDbLine
10
129.6755
20
-15.100505
30
0
11
134.9255
21
-15.100505
31
0
39
0
210
0
220
0
230
1
0
LINE
5
86
100
AcDbEntity
8
1
62
256
6
ByLayer
370
18
48
1
60
0
100
AcDbLine
10
119.834074
20
0.741181
30
0
11
114.673689
21
20
31
0
39
0
210
0
220
0
230
1
0
LINE
5
87
100
AcDbEntity
8
1
62
256
6
ByLayer
370
18
48
1
60
0
100
AcDbLine
10
36.9
20
-40
30
0
11
120.8
21
-40
31
0
39
0
210
0
220
0
230
1
0
LINE
5
88
100
AcDbEntity
8
1
62
256
6
ByLayer
370
18
48
1
60
0
100
AcDbLine
10
114.674196
20
20
30
0
11
36.9
21
20
31
0
39
0
210
0
220
0
230
1
0
LINE
5
89
100
AcDbEntity
8
SK1
62
256
6
ByLayer
370
18
48
1
60
0
100
AcDbLine
10
-0.2
20
-27.570333
30
0
11
0
21
-27.570333
31
0
39
0
210
0
220
0
230
1
0
LINE
5
8B
100
AcDbEntity
8
1
62
256
6
ByLayer
370
18
48
1
60
0
100
AcDbLine
10
120.8
20
-40
30
0
11
124.3245
21
-40
31
0
39
0
210
0
220
0
230
1
0
LINE
5
8C
100
AcDbEntity
8
1
62
256
6
ByLayer
370
18
48
1
60
0
100
AcDbLine
10
124.3245
20
0
30
0
11
120.8
21
0
31
0
39
0
210
0
220
0
230
1
0
LINE
5
8D
100
AcDbEntity
8
1
62
256
6
ByLayer
370
18
48
1
60
0
100
AcDbLine
10
124.3245
20
-40
30
0
11
124.521897
21
-39.802603
31
0
39
0
210
0
220
0
230
1
0
LINE
5
8E
100
AcDbEntity
8
1
62
256
6
ByLayer
370
18
48
1
60
0
100
AcDbLine
10
124.521897
20
-0.197397
30
0
11
124.3245
21
0
31
0
39
0
210
0
220
0
230
1
0
LINE
5
8F
100
AcDbEntity
8
SK1
62
256
6
ByLayer
370
18
48
1
60
0
100
AcDbLine
10
0
20
27.570333
30
0
11
-0.2
21
27.570333
31
0
39
0
210
0
220
0
230
1
0
LINE
5
90
100
AcDbEntity
8
1
62
256
6
ByLayer
370
18
48
1
60
0
100
AcDbLine
10
129.4255
20
-7.100505
30
0
11
125.324484
21
-7.100505
31
0
39
0
210
0
220
0
230
1
0
LINE
5
91
100
AcDbEntity
8
1
62
256
6
ByLayer
370
18
48
1
60
0
100
AcDbLine
10
125.324484
20
-13.100505
30
0
11
129.4255
21
-13.100505
31
0
39
0
210
0
220
0
230
1
0
LINE
5
92
100
AcDbEntity
8
1
62
256
6
ByLayer
370
13
48
1
60
0
100
AcDbLine
10
125.324383
20
-7.714005
30
0
11
129.4255
21
-7.714005
31
0
39
0
210
0
220
0
230
1
0
LINE
5
93
100
AcDbEntity
8
1
62
256
6
ByLayer
370
13
48
1
60
0
100
AcDbLine
10
125.324383
20
-12.487005
30
0
11
129.4255
21
-12.487005
31
0
39
0
210
0
220
0
230
1
0
LINE
5
94
100
AcDbEntity
8
1
62
256
6
ByLayer
370
18
48
1
60
0
100
AcDbLine
10
129.4255
20
-10.328505
30
0
11
129.4255
21
-13.100505
31
0
39
0
210
0
220
0
230
1
0
LINE
5
95
100
AcDbEntity
8
80
62
256
6
ByLayer
370
18
48
1
60
0
100
AcDbLine
10
0
20
0
30
0
11
-5
21
0
31
0
39
0
210
0
220
0
230
1
0
LINE
5
96
100
AcDbEntity
8
81
62
256
6
ByLayer
370
18
48
1
60
0
100
AcDbLine
10
125
20
-20
30
0
11
130
21
-20
31
0
39
0
210
0
220
0
230
1
0
LINE
5
97
100
AcDbEntity
8
4
62
256
6
ByLayer
370
18
48
0.05
60
0
100
AcDbLine
10
0
20
0
30
0
11
125
21
0
31
0
39
0
210
0
220
0
230
1
0
LINE
5
99
100
AcDbEntity
8
SK4
62
256
6
ByLayer
370
18
48
0.05
60
0
100
AcDbLine
10
-53
20
0
30
0
11
130
21
0
31
0
39
0
210
0
220
0
230
1
0
LINE
5
9B
100
AcDbEntity
8
1
62
256
6
ByLayer
370
18
48
1
60
0
100
AcDbLine
10
125.3245
20
-1.146021
30
0
11
125.3245
21
-1.353685
31
0
39
0
210
0
220
0
230
1
0
LINE
5
9C
100
AcDbEntity
8
1
62
256
6
ByLayer
370
18
48
1
60
0
100
AcDbLine
10
125.3245
20
-38.646315
30
0
11
125.3245
21
-38.853979
31
0
39
0
210
0
220
0
230
1
0
LINE
5
9D
100
AcDbEntity
8
1
62
256
6
ByLayer
370
18
48
1
60
0
100
AcDbLine
10
125.3245
20
-38.877899
30
0
11
125.3245
21
-38.98093
31
0
39
0
210
0
220
0
230
1
0
LINE
5
9E
100
AcDbEntity
8
1
62
256
6
ByLayer
370
18
48
1
60
0
100
AcDbLine
10
125.3245
20
-1.01907
30
0
11
125.3245
21
-1.122101
31
0
39
0
210
0
220
0
230
1
0
LINE
5
9F
100
AcDbEntity
8
1
62
256
6
ByLayer
370
18
48
1
60
0
100
AcDbLine
10
125.3245
20
-7.548208
30
0
11
125.3245
21
-9.22492
31
0
39
0
210
0
220
0
230
1
0
LINE
5
A0
100
AcDbEntity
8
1
62
256
6
ByLayer
370
18
48
1
60
0
100
AcDbLine
10
125.3245
20
-30.77508
30
0
11
125.3245
21
-32.451792
31
0
39
0
210
0
220
0
230
1
0
LINE
5
A1
100
AcDbEntity
8
1
62
256
6
ByLayer
370
18
48
1
60
0
100
AcDbLine
10
125.3245
20
-9.524125
30
0
11
125.3245
21
-11.819979
31
0
39
0
210
0
220
0
230
1
0
LINE
5
A2
100
AcDbEntity
8
1
62
256
6
ByLayer
370
18
48
1
60
0
100
AcDbLine
10
125.3245
20
-28.180021
30
0
11
125.3245
21
-30.475875
31
0
39
0
210
0
220
0
230
1
0
LINE
5
A3
100
AcDbEntity
8
1
62
256
6
ByLayer
370
18
48
1
60
0
100
AcDbLine
10
125.3245
20
-17.625637
30
0
11
125.3245
21
-22.374363
31
0
39
0
210
0
220
0
230
1
0
LINE
5
A4
100
AcDbEntity
8
1
62
256
6
ByLayer
370
18
48
1
60
0
100
AcDbLine
10
125.3245
20
-12.257857
30
0
11
125.3245
21
-16.36458
31
0
39
0
210
0
220
0
230
1
0
LINE
5
A5
100
AcDbEntity
8
1
62
256
6
ByLayer
370
18
48
1
60
0
100
AcDbLine
10
125.3245
20
-23.63542
30
0
11
125.3245
21
-27.742143
31
0
39
0
210
0
220
0
230
1
0
LINE
5
A6
100
AcDbEntity
8
1
62
256
6
ByLayer
370
13
48
1
60
0
100
AcDbLine
10
32.961459
20
23.301504
30
0
11
32.961459
21
-29.550491
31
0
39
0
210
0
220
0
230
1
0
LINE
5
A7
100
AcDbEntity
8
1
62
256
6
ByLayer
370
18
48
1
60
0
100
AcDbLine
10
10.538675
20
38.115458
30
0
11
13.461325
21
38.115458
31
0
39
0
210
0
220
0
230
1
0
LINE
5
A8
100
AcDbEntity
8
1
62
256
6
ByLayer
370
18
48
1
60
0
100
AcDbLine
10
13.461325
20
12.13309
30
0
11
10.538675
21
12.13309
31
0
39
0
210
0
220
0
230
1
0
LINE
5
A9
100
AcDbEntity
8
1
62
256
6
ByLayer
370
18
48
1
60
0
100
AcDbLine
10
0.3
20
-40
30
0
11
0.3
21
40
31
0
39
0
210
0
220
0
230
1
0
LINE
5
AA
100
AcDbEntity
8
1
62
256
6
ByLayer
370
18
48
1
60
0
100
AcDbLine
10
13.461325
20
-38.115458
30
0
11
10.538675
21
-38.115458
31
0
39
0
210
0
220
0
230
1
0
LINE
5
AB
100
AcDbEntity
8
1
62
256
6
ByLayer
370
18
48
1
60
0
100
AcDbLine
10
10.538675
20
-12.13309
30
0
11
13.461325
21
-12.13309
31
0
39
0
210
0
220
0
230
1
0
LINE
5
AC
100
AcDbEntity
8
1
62
256
6
ByLayer
370
13
48
1
60
0
100
AcDbLine
10
13.894338
20
37.944501
30
0
11
13.894338
21
12.6576
31
0
39
0
210
0
220
0
230
1
0
LINE
5
AD
100
AcDbEntity
8
1
62
256
6
ByLayer
370
13
48
1
60
0
100
AcDbLine
10
13.461325
20
38.115458
30
0
11
13.461325
21
12.13309
31
0
39
0
210
0
220
0
230
1
0
LINE
5
AE
100
AcDbEntity
8
1
62
256
6
ByLayer
370
13
48
1
60
0
100
AcDbLine
10
10.538675
20
-12.13309
30
0
11
10.538675
21
-38.115458
31
0
39
0
210
0
220
0
230
1
0
LINE
5
AF
100
AcDbEntity
8
1
62
256
6
ByLayer
370
13
48
1
60
0
100
AcDbLine
10
10.105662
20
-12.6576
30
0
11
10.105662
21
-37.944501
31
0
39
0
210
0
220
0
230
1
0
LINE
5
B0
100
AcDbEntity
8
1
62
256
6
ByLayer
370
13
48
1
60
0
100
AcDbLine
10
13.894338
20
-12.6576
30
0
11
13.894338
21
-37.944501
31
0
39
0
210
0
220
0
230
1
0
LINE
5
B1
100
AcDbEntity
8
1
62
256
6
ByLayer
370
13
48
1
60
0
100
AcDbLine
10
13.461325
20
-12.13309
30
0
11
13.461325
21
-38.115458
31
0
39
0
210
0
220
0
230
1
0
LINE
5
B2
100
AcDbEntity
8
1
62
256
6
ByLayer
370
13
48
1
60
0
100
AcDbLine
10
10.538675
20
38.115458
30
0
11
10.538675
21
12.13309
31
0
39
0
210
0
220
0
230
1
0
LINE
5
B3
100
AcDbEntity
8
1
62
256
6
ByLayer
370
13
48
1
60
0
100
AcDbLine
10
10.105662
20
37.944501
30
0
11
10.105662
21
12.6576
31
0
39
0
210
0
220
0
230
1
0
LINE
5
B4
100
AcDbEntity
8
1
62
256
6
ByLayer
370
13
48
1
60
0
100
AcDbLine
10
36.9
20
20
30
0
11
36.9
21
-40
31
0
39
0
210
0
220
0
230
1
0
LINE
5
B5
100
AcDbEntity
8
SK1
62
256
6
ByLayer
370
13
48
1
60
0
100
AcDbLine
10
-1.307107
20
4.393309
30
0
11
-1.307107
21
-4.393312
31
0
39
0
210
0
220
0
230
1
0
LINE
5
B6
100
AcDbEntity
8
SK1
62
256
6
ByLayer
370
18
48
1
60
0
100
AcDbLine
10
-0.2
20
-6.552277
30
0
11
-0.2
21
-6.600736
31
0
39
0
210
0
220
0
230
1
0
LINE
5
B7
100
AcDbEntity
8
1
62
256
6
ByLayer
370
13
48
1
60
0
100
AcDbLine
10
119.834074
20
0.741181
30
0
11
119.834074
21
-38.490171
31
0
39
0
210
0
220
0
230
1
0
LINE
5
B8
100
AcDbEntity
8
1
62
256
6
ByLayer
370
18
48
1
60
0
100
AcDbLine
10
0
20
-39.7
30
0
11
0
21
39.7
31
0
39
0
210
0
220
0
230
1
0
LINE
5
B9
100
AcDbEntity
8
SK1
62
256
6
ByLayer
370
18
48
1
60
0
100
AcDbLine
10
-0.2
20
6.600738
30
0
11
-0.2
21
6.552279
31
0
39
0
210
0
220
0
230
1
0
LINE
5
BA
100
AcDbEntity
8
1
62
256
6
ByLayer
370
13
48
1
60
0
100
AcDbLine
10
120.8
20
0
30
0
11
120.8
21
-40
31
0
39
0
210
0
220
0
230
1
0
LINE
5
BB
100
AcDbEntity
8
1
62
256
6
ByLayer
370
18
48
1
60
0
100
AcDbLine
10
124.3245
20
0
30
0
11
124.3245
21
-40
31
0
39
0
210
0
220
0
230
1
0
LINE
5
BC
100
AcDbEntity
8
1
62
256
6
ByLayer
370
18
48
1
60
0
100
AcDbLine
10
125.3245
20
-22.374363
30
0
11
125.3245
21
-23.635516
31
0
39
0
210
0
220
0
230
1
0
LINE
5
BD
100
AcDbEntity
8
1
62
256
6
ByLayer
370
18
48
1
60
0
100
AcDbLine
10
125.3245
20
-27.742143
30
0
11
125.3245
21
-28.180085
31
0
39
0
210
0
220
0
230
1
0
LINE
5
BE
100
AcDbEntity
8
1
62
256
6
ByLayer
370
18
48
1
60
0
100
AcDbLine
10
125.3245
20
-30.475875
30
0
11
125.3245
21
-30.775464
31
0
39
0
210
0
220
0
230
1
0
LINE
5
BF
100
AcDbEntity
8
1
62
256
6
ByLayer
370
18
48
1
60
0
100
AcDbLine
10
125.3245
20
-32.451792
30
0
11
125.3245
21
-32.680988
31
0
39
0
210
0
220
0
230
1
0
LINE
5
C0
100
AcDbEntity
8
1
62
256
6
ByLayer
370
18
48
1
60
0
100
AcDbLine
10
125.3245
20
-33.994653
30
0
11
125.3245
21
-34.177598
31
0
39
0
210
0
220
0
230
1
0
LINE
5
C1
100
AcDbEntity
8
1
62
256
6
ByLayer
370
18
48
1
60
0
100
AcDbLine
10
125.3245
20
-35.236583
30
0
11
125.3245
21
-35.385093
31
0
39
0
210
0
220
0
230
1
0
LINE
5
C2
100
AcDbEntity
8
1
62
256
6
ByLayer
370
18
48
1
60
0
100
AcDbLine
10
125.3245
20
-36.246743
30
0
11
125.3245
21
-36.367588
31
0
39
0
210
0
220
0
230
1
0
LINE
5
C3
100
AcDbEntity
8
1
62
256
6
ByLayer
370
18
48
1
60
0
100
AcDbLine
10
125.3245
20
-37.066336
30
0
11
125.3245
21
-37.163763
31
0
39
0
210
0
220
0
230
1
0
LINE
5
C4
100
AcDbEntity
8
1
62
256
6
ByLayer
370
18
48
1
60
0
100
AcDbLine
10
125.3245
20
-37.721823
30
0
11
125.3245
21
-37.79864
31
0
39
0
210
0
220
0
230
1
0
LINE
5
C5
100
AcDbEntity
8
1
62
256
6
ByLayer
370
18
48
1
60
0
100
AcDbLine
10
125.3245
20
-38.230913
30
0
11
125.3245
21
-38.289024
31
0
39
0
210
0
220
0
230
1
0
LINE
5
C6
100
AcDbEntity
8
1
62
256
6
ByLayer
370
18
48
1
60
0
100
AcDbLine
10
125.3245
20
-38.605627
30
0
11
125.3245
21
-38.646319
31
0
39
0
210
0
220
0
230
1
0
LINE
5
C7
100
AcDbEntity
8
1
62
256
6
ByLayer
370
18
48
1
60
0
100
AcDbLine
10
125.3245
20
-38.853979
30
0
11
125.3245
21
-38.878084
31
0
39
0
210
0
220
0
230
1
0
LINE
5
C8
100
AcDbEntity
8
1
62
256
6
ByLayer
370
18
48
1
60
0
100
AcDbLine
10
125.3245
20
-38.98093
30
0
11
125.3245
21
-38.988915
31
0
39
0
210
0
220
0
230
1
0
LINE
5
C9
100
AcDbEntity
8
1
62
256
6
ByLayer
370
18
48
1
60
0
100
AcDbLine
10
125.3245
20
-1.011085
30
0
11
125.3245
21
-1.01907
31
0
39
0
210
0
220
0
230
1
0
LINE
5
CA
100
AcDbEntity
8
1
62
256
6
ByLayer
370
18
48
1
60
0
100
AcDbLine
10
125.3245
20
-1.121916
30
0
11
125.3245
21
-1.146021
31
0
39
0
210
0
220
0
230
1
0
LINE
5
CB
100
AcDbEntity
8
1
62
256
6
ByLayer
370
18
48
1
60
0
100
AcDbLine
10
125.3245
20
-1.353681
30
0
11
125.3245
21
-1.394373
31
0
39
0
210
0
220
0
230
1
0
LINE
5
CC
100
AcDbEntity
8
1
62
256
6
ByLayer
370
18
48
1
60
0
100
AcDbLine
10
125.3245
20
-1.710976
30
0
11
125.3245
21
-1.769087
31
0
39
0
210
0
220
0
230
1
0
LINE
5
CD
100
AcDbEntity
8
1
62
256
6
ByLayer
370
18
48
1
60
0
100
AcDbLine
10
125.3245
20
-2.20136
30
0
11
125.3245
21
-2.278177
31
0
39
0
210
0
220
0
230
1
0
LINE
5
CE
100
AcDbEntity
8
1
62
256
6
ByLayer
370
18
48
1
60
0
100
AcDbLine
10
125.3245
20
-2.836237
30
0
11
125.3245
21
-2.933664
31
0
39
0
210
0
220
0
230
1
0
LINE
5
CF
100
AcDbEntity
8
1
62
256
6
ByLayer
370
18
48
1
60
0
100
AcDbLine
10
125.3245
20
-3.632412
30
0
11
125.3245
21
-3.753257
31
0
39
0
210
0
220
0
230
1
0
LINE
5
D0
100
AcDbEntity
8
1
62
256
6
ByLayer
370
18
48
1
60
0
100
AcDbLine
10
125.3245
20
-4.614907
30
0
11
125.3245
21
-4.763417
31
0
39
0
210
0
220
0
230
1
0
LINE
5
D1
100
AcDbEntity
8
1
62
256
6
ByLayer
370
18
48
1
60
0
100
AcDbLine
10
125.3245
20
-5.822402
30
0
11
125.3245
21
-6.005347
31
0
39
0
210
0
220
0
230
1
0
LINE
5
D2
100
AcDbEntity
8
1
62
256
6
ByLayer
370
18
48
1
60
0
100
AcDbLine
10
125.3245
20
-7.319012
30
0
11
125.3245
21
-7.548208
31
0
39
0
210
0
220
0
230
1
0
LINE
5
D3
100
AcDbEntity
8
1
62
256
6
ByLayer
370
18
48
1
60
0
100
AcDbLine
10
125.3245
20
-9.224536
30
0
11
125.3245
21
-9.524125
31
0
39
0
210
0
220
0
230
1
0
LINE
5
D4
100
AcDbEntity
8
1
62
256
6
ByLayer
370
18
48
1
60
0
100
AcDbLine
10
125.3245
20
-11.819915
30
0
11
125.3245
21
-12.257857
31
0
39
0
210
0
220
0
230
1
0
LINE
5
D5
100
AcDbEntity
8
1
62
256
6
ByLayer
370
18
48
1
60
0
100
AcDbLine
10
125.3245
20
-16.364484
30
0
11
125.3245
21
-17.625637
31
0
39
0
210
0
220
0
230
1
0
LINE
5
D6
100
AcDbEntity
8
1
62
256
6
ByLayer
370
13
48
1
60
0
100
AcDbLine
10
124.6055
20
-16.217272
30
0
11
124.6055
21
-18.319168
31
0
39
0
210
0
220
0
230
1
0
LINE
5
D7
100
AcDbEntity
8
1
62
256
6
ByLayer
370
13
48
1
60
0
100
AcDbLine
10
124.6055
20
-21.680832
30
0
11
124.6055
21
-23.782728
31
0
39
0
210
0
220
0
230
1
0
LINE
5
D8
100
AcDbEntity
8
1
62
256
6
ByLayer
370
13
48
1
60
0
100
AcDbLine
10
125.2495
20
-21.891746
30
0
11
125.2495
21
-18.108254
31
0
39
0
210
0
220
0
230
1
0
LINE
5
D9
100
AcDbEntity
8
1
62
256
6
ByLayer
370
13
48
1
60
0
100
AcDbLine
10
124.6055
20
-11.626389
30
0
11
124.6055
21
-12.285287
31
0
39
0
210
0
220
0
230
1
0
LINE
5
DA
100
AcDbEntity
8
1
62
256
6
ByLayer
370
13
48
1
60
0
100
AcDbLine
10
124.6055
20
-27.714713
30
0
11
124.6055
21
-28.373611
31
0
39
0
210
0
220
0
230
1
0
LINE
5
DB
100
AcDbEntity
8
1
62
256
6
ByLayer
370
13
48
1
60
0
100
AcDbLine
10
125.2495
20
-27.633583
30
0
11
125.2495
21
-24.571562
31
0
39
0
210
0
220
0
230
1
0
LINE
5
DC
100
AcDbEntity
8
1
62
256
6
ByLayer
370
13
48
1
60
0
100
AcDbLine
10
125.2495
20
-15.428438
30
0
11
125.2495
21
-12.366417
31
0
39
0
210
0
220
0
230
1
0
LINE
5
DD
100
AcDbEntity
8
1
62
256
6
ByLayer
370
13
48
1
60
0
100
AcDbLine
10
124.6055
20
-8.980668
30
0
11
124.6055
21
-9.431083
31
0
39
0
210
0
220
0
230
1
0
LINE
5
DE
100
AcDbEntity
8
1
62
256
6
ByLayer
370
13
48
1
60
0
100
AcDbLine
10
124.6055
20
-30.568917
30
0
11
124.6055
21
-31.019332
31
0
39
0
210
0
220
0
230
1
0
LINE
5
DF
100
AcDbEntity
8
1
62
256
6
ByLayer
370
13
48
1
60
0
100
AcDbLine
10
125.2495
20
-30.414628
30
0
11
125.2495
21
-28.614199
31
0
39
0
210
0
220
0
230
1
0
LINE
5
E0
100
AcDbEntity
8
1
62
256
6
ByLayer
370
13
48
1
60
0
100
AcDbLine
10
125.2495
20
-11.385801
30
0
11
125.2495
21
-9.585372
31
0
39
0
210
0
220
0
230
1
0
LINE
5
E1
100
AcDbEntity
8
1
62
256
6
ByLayer
370
13
48
1
60
0
100
AcDbLine
10
124.6055
20
-7.029494
30
0
11
124.6055
21
-7.374834
31
0
39
0
210
0
220
0
230
1
0
LINE
5
E2
100
AcDbEntity
8
1
62
256
6
ByLayer
370
13
48
1
60
0
100
AcDbLine
10
124.6055
20
-32.625166
30
0
11
124.6055
21
-32.970506
31
0
39
0
210
0
220
0
230
1
0
LINE
5
E3
100
AcDbEntity
8
1
62
256
6
ByLayer
370
13
48
1
60
0
100
AcDbLine
10
125.2495
20
-32.416012
30
0
11
125.2495
21
-31.090991
31
0
39
0
210
0
220
0
230
1
0
LINE
5
E4
100
AcDbEntity
8
1
62
256
6
ByLayer
370
13
48
1
60
0
100
AcDbLine
10
125.2495
20
-8.909009
30
0
11
125.2495
21
-7.583988
31
0
39
0
210
0
220
0
230
1
0
LINE
5
E5
100
AcDbEntity
8
1
62
256
6
ByLayer
370
13
48
1
60
0
100
AcDbLine
10
124.6055
20
-5.489923
30
0
11
124.6055
21
-5.766521
31
0
39
0
210
0
220
0
230
1
0
LINE
5
E6
100
AcDbEntity
8
1
62
256
6
ByLayer
370
13
48
1
60
0
100
AcDbLine
10
124.6055
20
-34.233479
30
0
11
124.6055
21
-34.510077
31
0
39
0
210
0
220
0
230
1
0
LINE
5
E7
100
AcDbEntity
8
1
62
256
6
ByLayer
370
13
48
1
60
0
100
AcDbLine
10
125.2495
20
-33.976775
30
0
11
125.2495
21
-32.935311
31
0
39
0
210
0
220
0
230
1
0
LINE
5
E8
100
AcDbEntity
8
1
62
256
6
ByLayer
370
13
48
1
60
0
100
AcDbLine
10
125.2495
20
-7.064689
30
0
11
125.2495
21
-6.023225
31
0
39
0
210
0
220
0
230
1
0
LINE
5
E9
100
AcDbEntity
8
1
62
256
6
ByLayer
370
13
48
1
60
0
100
AcDbLine
10
124.6055
20
-4.240854
30
0
11
124.6055
21
-4.466693
31
0
39
0
210
0
220
0
230
1
0
LINE
5
EA
100
AcDbEntity
8
1
62
256
6
ByLayer
370
13
48
1
60
0
100
AcDbLine
10
124.6055
20
-35.533307
30
0
11
124.6055
21
-35.759146
31
0
39
0
210
0
220
0
230
1
0
LINE
5
EB
100
AcDbEntity
8
1
62
256
6
ByLayer
370
13
48
1
60
0
100
AcDbLine
10
125.2495
20
-5.608026
30
0
11
125.2495
21
-4.767038
31
0
39
0
210
0
220
0
230
1
0
LINE
5
EC
100
AcDbEntity
8
1
62
256
6
ByLayer
370
13
48
1
60
0
100
AcDbLine
10
125.2495
20
-35.232962
30
0
11
125.2495
21
-34.391974
31
0
39
0
210
0
220
0
230
1
0
LINE
5
ED
100
AcDbEntity
8
1
62
256
6
ByLayer
370
13
48
1
60
0
100
AcDbLine
10
124.6055
20
-3.217301
30
0
11
124.6055
21
-3.402554
31
0
39
0
210
0
220
0
230
1
0
LINE
5
EE
100
AcDbEntity
8
1
62
256
6
ByLayer
370
13
48
1
60
0
100
AcDbLine
10
124.6055
20
-36.597446
30
0
11
124.6055
21
-36.782699
31
0
39
0
210
0
220
0
230
1
0
LINE
5
EF
100
AcDbEntity
8
1
62
256
6
ByLayer
370
13
48
1
60
0
100
AcDbLine
10
125.2495
20
-4.429653
30
0
11
125.2495
21
-3.744662
31
0
39
0
210
0
220
0
230
1
0
LINE
5
F0
100
AcDbEntity
8
1
62
256
6
ByLayer
370
13
48
1
60
0
100
AcDbLine
10
125.2495
20
-36.255338
30
0
11
125.2495
21
-35.570347
31
0
39
0
210
0
220
0
230
1
0
LINE
5
F1
100
AcDbEntity
8
1
62
256
6
ByLayer
370
18
48
1
60
0
100
AcDbLine
10
125.3245
20
-32.681014
30
0
11
125.3245
21
-33.994653
31
0
39
0
210
0
220
0
230
1
0
LINE
5
F2
100
AcDbEntity
8
1
62
256
6
ByLayer
370
18
48
1
60
0
100
AcDbLine
10
125.3245
20
-6.005347
30
0
11
125.3245
21
-7.318986
31
0
39
0
210
0
220
0
230
1
0
LINE
5
F3
100
AcDbEntity
8
1
62
256
6
ByLayer
370
13
48
1
60
0
100
AcDbLine
10
124.6055
20
-2.379917
30
0
11
124.6055
21
-2.531008
31
0
39
0
210
0
220
0
230
1
0
LINE
5
F4
100
AcDbEntity
8
1
62
256
6
ByLayer
370
13
48
1
60
0
100
AcDbLine
10
124.6055
20
-37.468992
30
0
11
124.6055
21
-37.620083
31
0
39
0
210
0
220
0
230
1
0
LINE
5
F5
100
AcDbEntity
8
1
62
256
6
ByLayer
370
13
48
1
60
0
100
AcDbLine
10
125.2495
20
-3.469951
30
0
11
125.2495
21
-2.914073
31
0
39
0
210
0
220
0
230
1
0
LINE
5
F6
100
AcDbEntity
8
1
62
256
6
ByLayer
370
13
48
1
60
0
100
AcDbLine
10
125.2495
20
-37.085927
30
0
11
125.2495
21
-36.530049
31
0
39
0
210
0
220
0
230
1
0
LINE
5
F7
100
AcDbEntity
8
1
62
256
6
ByLayer
370
18
48
1
60
0
100
AcDbLine
10
125.3245
20
-34.177621
30
0
11
125.3245
21
-35.236583
31
0
39
0
210
0
220
0
230
1
0
LINE
5
F8
100
AcDbEntity
8
1
62
256
6
ByLayer
370
18
48
1
60
0
100
AcDbLine
10
125.3245
20
-4.763417
30
0
11
125.3245
21
-5.822379
31
0
39
0
210
0
220
0
230
1
0
LINE
5
F9
100
AcDbEntity
8
1
62
256
6
ByLayer
370
13
48
1
60
0
100
AcDbLine
10
124.6055
20
-1.703125
30
0
11
124.6055
21
-1.824315
31
0
39
0
210
0
220
0
230
1
0
LINE
5
FA
100
AcDbEntity
8
1
62
256
6
ByLayer
370
13
48
1
60
0
100
AcDbLine
10
124.6055
20
-38.175685
30
0
11
124.6055
21
-38.296875
31
0
39
0
210
0
220
0
230
1
0
LINE
5
FB
100
AcDbEntity
8
1
62
256
6
ByLayer
370
13
48
1
60
0
100
AcDbLine
10
125.2495
20
-2.69254
30
0
11
125.2495
21
-2.24833
31
0
39
0
210
0
220
0
230
1
0
LINE
5
FC
100
AcDbEntity
8
1
62
256
6
ByLayer
370
13
48
1
60
0
100
AcDbLine
10
125.2495
20
-37.75167
30
0
11
125.2495
21
-37.30746
31
0
39
0
210
0
220
0
230
1
0
LINE
5
FD
100
AcDbEntity
8
1
62
256
6
ByLayer
370
18
48
1
60
0
100
AcDbLine
10
125.3245
20
-3.753257
30
0
11
125.3245
21
-4.614928
31
0
39
0
210
0
220
0
230
1
0
LINE
5
FE
100
AcDbEntity
8
1
62
256
6
ByLayer
370
18
48
1
60
0
100
AcDbLine
10
125.3245
20
-35.385072
30
0
11
125.3245
21
-36.246743
31
0
39
0
210
0
220
0
230
1
0
LINE
5
FF
100
AcDbEntity
8
1
62
256
6
ByLayer
370
13
48
1
60
0
100
AcDbLine
10
124.6055
20
-1.1696
30
0
11
124.6055
21
-1.263733
31
0
39
0
210
0
220
0
230
1
0
LINE
5
100
100
AcDbEntity
8
1
62
256
6
ByLayer
370
13
48
1
60
0
100
AcDbLine
10
124.6055
20
-38.736267
30
0
11
124.6055
21
-38.8304
31
0
39
0
210
0
220
0
230
1
0
LINE
5
101
100
AcDbEntity
8
1
62
256
6
ByLayer
370
13
48
1
60
0
100
AcDbLine
10
125.2495
20
-38.270596
30
0
11
125.2495
21
-37.926445
31
0
39
0
210
0
220
0
230
1
0
LINE
5
102
100
AcDbEntity
8
1
62
256
6
ByLayer
370
13
48
1
60
0
100
AcDbLine
10
125.2495
20
-2.073555
30
0
11
125.2495
21
-1.729404
31
0
39
0
210
0
220
0
230
1
0
LINE
5
103
100
AcDbEntity
8
1
62
256
6
ByLayer
370
18
48
1
60
0
100
AcDbLine
10
125.3245
20
-2.933664
30
0
11
125.3245
21
-3.632443
31
0
39
0
210
0
220
0
230
1
0
LINE
5
104
100
AcDbEntity
8
1
62
256
6
ByLayer
370
18
48
1
60
0
100
AcDbLine
10
125.3245
20
-36.367557
30
0
11
125.3245
21
-37.066336
31
0
39
0
210
0
220
0
230
1
0
LINE
5
105
100
AcDbEntity
8
1
62
256
6
ByLayer
370
13
48
1
60
0
100
AcDbLine
10
124.6055
20
-0.767416
30
0
11
124.6055
21
-0.836572
31
0
39
0
210
0
220
0
230
1
0
LINE
5
106
100
AcDbEntity
8
1
62
256
6
ByLayer
370
13
48
1
60
0
100
AcDbLine
10
124.6055
20
-39.163428
30
0
11
124.6055
21
-39.232584
31
0
39
0
210
0
220
0
230
1
0
LINE
5
107
100
AcDbEntity
8
1
62
256
6
ByLayer
370
13
48
1
60
0
100
AcDbLine
10
125.2495
20
-1.597302
30
0
11
125.2495
21
-1.345039
31
0
39
0
210
0
220
0
230
1
0
LINE
5
108
100
AcDbEntity
8
1
62
256
6
ByLayer
370
13
48
1
60
0
100
AcDbLine
10
125.2495
20
-38.654961
30
0
11
125.2495
21
-38.402698
31
0
39
0
210
0
220
0
230
1
0
LINE
5
109
100
AcDbEntity
8
1
62
256
6
ByLayer
370
18
48
1
60
0
100
AcDbLine
10
125.3245
20
-37.163684
30
0
11
125.3245
21
-37.721823
31
0
39
0
210
0
220
0
230
1
0
LINE
5
10A
100
AcDbEntity
8
1
62
256
6
ByLayer
370
18
48
1
60
0
100
AcDbLine
10
125.3245
20
-1.769087
30
0
11
125.3245
21
-2.201419
31
0
39
0
210
0
220
0
230
1
0
LINE
5
10B
100
AcDbEntity
8
1
62
256
6
ByLayer
370
13
48
1
60
0
100
AcDbLine
10
124.6055
20
-0.488449
30
0
11
124.6055
21
-0.533892
31
0
39
0
210
0
220
0
230
1
0
LINE
5
10C
100
AcDbEntity
8
1
62
256
6
ByLayer
370
13
48
1
60
0
100
AcDbLine
10
124.6055
20
-39.466108
30
0
11
124.6055
21
-39.511551
31
0
39
0
210
0
220
0
230
1
0
LINE
5
10D
100
AcDbEntity
8
1
62
256
6
ByLayer
370
13
48
1
60
0
100
AcDbLine
10
125.2495
20
-1.252544
30
0
11
125.2495
21
-1.08703
31
0
39
0
210
0
220
0
230
1
0
LINE
5
10E
100
AcDbEntity
8
1
62
256
6
ByLayer
370
13
48
1
60
0
100
AcDbLine
10
125.2495
20
-38.91297
30
0
11
125.2495
21
-38.747456
31
0
39
0
210
0
220
0
230
1
0
LINE
5
10F
100
AcDbEntity
8
1
62
256
6
ByLayer
370
18
48
1
60
0
100
AcDbLine
10
125.3245
20
-2.278177
30
0
11
125.3245
21
-2.836316
31
0
39
0
210
0
220
0
230
1
0
LINE
5
110
100
AcDbEntity
8
1
62
256
6
ByLayer
370
18
48
1
60
0
100
AcDbLine
10
125.3245
20
-38.289015
30
0
11
125.3245
21
-38.605627
31
0
39
0
210
0
220
0
230
1
0
LINE
5
111
100
AcDbEntity
8
1
62
256
6
ByLayer
370
13
48
1
60
0
100
AcDbLine
10
124.6055
20
-39.649908
30
0
11
124.6055
21
-39.672543
31
0
39
0
210
0
220
0
230
1
0
LINE
5
112
100
AcDbEntity
8
1
62
256
6
ByLayer
370
13
48
1
60
0
100
AcDbLine
10
124.6055
20
-0.327457
30
0
11
124.6055
21
-0.350092
31
0
39
0
210
0
220
0
230
1
0
LINE
5
113
100
AcDbEntity
8
1
62
256
6
ByLayer
370
13
48
1
60
0
100
AcDbLine
10
125.2495
20
-39.04976
30
0
11
125.2495
21
-38.967827
31
0
39
0
210
0
220
0
230
1
0
LINE
5
114
100
AcDbEntity
8
1
62
256
6
ByLayer
370
13
48
1
60
0
100
AcDbLine
10
125.2495
20
-1.032173
30
0
11
125.2495
21
-0.95024
31
0
39
0
210
0
220
0
230
1
0
LINE
5
115
100
AcDbEntity
8
1
62
256
6
ByLayer
370
18
48
1
60
0
100
AcDbLine
10
125.3245
20
-37.798581
30
0
11
125.3245
21
-38.230913
31
0
39
0
210
0
220
0
230
1
0
LINE
5
116
100
AcDbEntity
8
1
62
256
6
ByLayer
370
18
48
1
60
0
100
AcDbLine
10
125.3245
20
-1.394373
30
0
11
125.3245
21
-1.710985
31
0
39
0
210
0
220
0
230
1
0
LINE
5
117
100
AcDbEntity
8
1
62
256
6
ByLayer
370
13
48
1
60
0
100
AcDbLine
10
134.9255
20
-24.899495
30
0
11
134.9255
21
-34.899495
31
0
39
0
210
0
220
0
230
1
0
LINE
5
118
100
AcDbEntity
8
1
62
256
6
ByLayer
370
18
48
1
60
0
100
AcDbLine
10
129.6755
20
-34.899495
30
0
11
129.6755
21
-24.899495
31
0
39
0
210
0
220
0
230
1
0
LINE
5
119
100
AcDbEntity
8
1
62
256
6
ByLayer
370
13
48
1
60
0
100
AcDbLine
10
129.4255
20
-26.899495
30
0
11
129.4255
21
-32.899495
31
0
39
0
210
0
220
0
230
1
0
LINE
5
11A
100
AcDbEntity
8
1
62
256
6
ByLayer
370
18
48
1
60
0
100
AcDbLine
10
135.5255
20
-34.299495
30
0
11
135.5255
21
-25.499495
31
0
39
0
210
0
220
0
230
1
0
LINE
5
11B
100
AcDbEntity
8
1
62
256
6
ByLayer
370
13
48
1
60
0
100
AcDbLine
10
134.9255
20
-5.100505
30
0
11
134.9255
21
-15.100505
31
0
39
0
210
0
220
0
230
1
0
LINE
5
11C
100
AcDbEntity
8
1
62
256
6
ByLayer
370
18
48
1
60
0
100
AcDbLine
10
129.6755
20
-5.100505
30
0
11
129.6755
21
-15.100505
31
0
39
0
210
0
220
0
230
1
0
LINE
5
11D
100
AcDbEntity
8
1
62
256
6
ByLayer
370
18
48
1
60
0
100
AcDbLine
10
135.5255
20
-5.700505
30
0
11
135.5255
21
-14.500505
31
0
39
0
210
0
220
0
230
1
0
LINE
5
11E
100
AcDbEntity
8
1
62
256
6
ByLayer
370
13
48
1
60
0
100
AcDbLine
10
129.4255
20
-7.100505
30
0
11
129.4255
21
-13.100505
31
0
39
0
210
0
220
0
230
1
0
LINE
5
11F
100
AcDbEntity
8
1
62
256
6
ByLayer
370
13
48
1
60
0
100
AcDbLine
10
134.9255
20
-5.100505
30
0
11
134.9255
21
-15.100505
31
0
39
0
210
0
220
0
230
1
0
LINE
5
120
100
AcDbEntity
8
1
62
256
6
ByLayer
370
18
48
1
60
0
100
AcDbLine
10
135.5255
20
-5.700505
30
0
11
135.5255
21
-14.500505
31
0
39
0
210
0
220
0
230
1
0
LINE
5
121
100
AcDbEntity
8
1
62
256
6
ByLayer
370
13
48
1
60
0
100
AcDbLine
10
129.4255
20
-7.100505
30
0
11
129.4255
21
-13.100505
31
0
39
0
210
0
220
0
230
1
0
LINE
5
122
100
AcDbEntity
8
1
62
256
6
ByLayer
370
18
48
1
60
0
100
AcDbLine
10
129.6755
20
-5.100505
30
0
11
129.6755
21
-15.100505
31
0
39
0
210
0
220
0
230
1
0
LINE
5
123
100
AcDbEntity
8
1
62
256
6
ByLayer
370
18
48
1
60
0
100
AcDbLine
10
135.5255
20
-29.899495
30
0
11
135.5255
21
-25.499495
31
0
39
0
210
0
220
0
230
1
0
MTEXT
5
1E5
100
AcDbEntity
8
SK6
62
256
6
ByLayer
370
18
48
1
60
0
100
AcDbMText
10
0.875
20
-50.874866
30
0
210
0
220
0
230
1
1
\W0.7136;C8-570-2C 60 125-40L
40
3.5
41
0
44
1.084337
50
0
71
7
72
5
7
iso_b_vert
0
DIMENSION
5
1F2
100
AcDbEntity
8
SK2
62
256
6
ByLayer
370
13
48
1
60
0
100
AcDbDimension
2
DimnDraft3D1
10
125
20
46.6
30
0
11
77.280234
21
46.6
31
0
70
32
71
5
72
1
41
1
210
0
220
0
230
1
3
Standard
100
AcDbAlignedDimension
13
36.9
23
21.5875
33
0
14
125
24
1.5875
34
0
50
0
100
AcDbRotatedDimension
1001
ACAD
1000
DSTYLE
1002
{
1070
   279
1070
     0
1070
   172
1070
     1
1070
   173
1070
     1
1070
   340
1005
1E6
1070
   271
1070
     2
1070
   272
1070
     2
1070
    77
1070
     1
1070
    73
1070
     0
1070
   171
1070
     3
1070
   274
1070
     4
1070
   177
1070
     2
1070
   176
1070
     2
1070
   178
1070
     2
1070
    78
1070
     8
1070
    48
1040
-0.005
1070
    41
1041
3.5
1070
   147
1041
1.75
1070
    42
1041
1.5875
1070
    44
1041
2.0
1070
   140
1041
3.5
1070
   343
1005
0
1070
   344
1005
0
1002
}
0
DIMENSION
5
1FC
100
AcDbEntity
8
SK2
62
256
6
ByLayer
370
13
48
1
60
0
100
AcDbDimension
2
DimnDraft3D2
10
145.888211
20
0
30
0
11
145.888211
21
-14.107199
31
0
70
32
71
5
72
1
41
1
210
0
220
0
230
1
3
Standard
100
AcDbAlignedDimension
13
126.5875
23
-20
33
0
14
126.5875
24
0
34
0
50
90
100
AcDbRotatedDimension
1001
ACAD
1000
DSTYLE
1002
{
1070
    74
1070
     0
1070
   279
1070
     0
1070
   172
1070
     1
1070
   173
1070
     1
1070
   340
1005
1E6
1070
   271
1070
     2
1070
   272
1070
     2
1070
    77
1070
     1
1070
    73
1070
     0
1070
   171
1070
     3
1070
   274
1070
     4
1070
   177
1070
     2
1070
   176
1070
     2
1070
   178
1070
     2
1070
    78
1070
     8
1070
    48
1040
-0.005
1070
    41
1041
3.5
1070
   147
1041
1.75
1070
    42
1041
1.5875
1070
    44
1041
2.0
1070
   140
1041
3.5
1070
   343
1005
0
1070
   344
1005
0
1002
}
0
DIMENSION
5
207
100
AcDbEntity
8
2
62
256
6
ByLayer
370
13
48
1
60
0
100
AcDbDimension
2
DimnDraft3D3
10
125
20
56.6
30
0
11
57.522501
21
56.6
31
0
70
32
71
5
72
1
41
1
210
0
220
0
230
1
3
Standard
100
AcDbAlignedDimension
13
0
23
41.5875
33
0
14
125
24
1.5875
34
0
50
0
100
AcDbRotatedDimension
1001
ACAD
1000
DSTYLE
1002
{
1070
   279
1070
     0
1070
   172
1070
     1
1070
   173
1070
     1
1070
   340
1005
1E6
1070
   271
1070
     2
1070
   272
1070
     2
1070
    77
1070
     1
1070
    73
1070
     0
1070
   171
1070
     3
1070
   274
1070
     4
1070
   177
1070
     2
1070
   176
1070
     2
1070
   178
1070
     2
1070
    78
1070
     8
1070
    48
1040
-0.005
1070
    41
1041
3.5
1070
   147
1041
1.75
1070
    42
1041
1.5875
1070
    44
1041
2.0
1070
   140
1041
3.5
1070
   343
1005
0
1070
   344
1005
0
1002
}
0
DIMENSION
5
212
100
AcDbEntity
8
SK2
62
256
6
ByLayer
370
13
48
1
60
0
100
AcDbDimension
2
DimnDraft3D4
10
-71.6
20
-40
30
0
11
-72.225
21
2.284534
31
0
70
33
71
5
72
1
41
1
210
0
220
0
230
1
3
Standard
100
AcDbAlignedDimension
13
-1.5875
23
40
33
0
14
-1.5875
24
-40
34
0
1001
ACAD
1000
DSTYLE
1002
{
1070
   279
1070
     0
1070
    74
1070
     0
1070
   173
1070
     1
1070
   340
1005
1E6
1070
   271
1070
     2
1070
   272
1070
     2
1070
    77
1070
     1
1070
    73
1070
     0
1070
   171
1070
     3
1070
   274
1070
     4
1070
   177
1070
     2
1070
   176
1070
     2
1070
   178
1070
     2
1070
    78
1070
     8
1070
    48
1040
-0.005
1070
    41
1041
3.5
1070
   147
1041
1.75
1070
    42
1041
1.5875
1070
    44
1041
2.0
1070
   140
1041
3.5
1070
   343
1005
0
1070
   344
1005
0
1002
}
0
DIMENSION
5
21D
100
AcDbEntity
8
SK2
62
256
6
ByLayer
370
13
48
1
60
0
100
AcDbDimension
2
DimnDraft3D5
10
157.888211
20
-40
30
0
11
153.263211
21
-17.899733
31
0
70
33
71
5
72
1
41
1
210
0
220
0
230
1
3
Standard
100
AcDbAlignedDimension
13
126.5875
23
0
33
0
14
126.5875
24
-40
34
0
1001
ACAD
1000
DSTYLE
1002
{
1070
   279
1070
     0
1070
    74
1070
     0
1070
   173
1070
     1
1070
   340
1005
1E6
1070
   271
1070
     2
1070
   272
1070
     2
1070
    77
1070
     1
1070
    73
1070
     0
1070
   171
1070
     3
1070
   274
1070
     4
1070
   177
1070
     2
1070
   176
1070
     2
1070
   178
1070
     2
1070
    78
1070
     8
1070
    48
1040
-0.005
1070
    41
1041
3.5
1070
   147
1041
1.75
1070
    42
1041
1.5875
1070
    44
1041
2.0
1070
   140
1041
3.5
1070
   343
1005
0
1070
   344
1005
0
1002
}
0
DIMENSION
5
228
100
AcDbEntity
8
SK2
62
256
6
ByLayer
370
13
48
1
60
0
100
AcDbDimension
2
DimnDraft3D6
10
167.888211
20
20
30
0
11
163.263211
21
-7.715466
31
0
70
33
71
5
72
1
41
1
210
0
220
0
230
1
3
Standard
100
AcDbAlignedDimension
13
126.5875
23
-40
33
0
14
117.028516
24
20
34
0
1001
ACAD
1000
DSTYLE
1002
{
1070
   279
1070
     0
1070
    74
1070
     0
1070
   173
1070
     1
1070
   340
1005
1E6
1070
   271
1070
     2
1070
   272
1070
     2
1070
    77
1070
     1
1070
    73
1070
     0
1070
   171
1070
     3
1070
   274
1070
     4
1070
   177
1070
     2
1070
   176
1070
     2
1070
   178
1070
     2
1070
    78
1070
     8
1070
    48
1040
-0.005
1070
    41
1041
3.5
1070
   147
1041
1.75
1070
    42
1041
1.5875
1070
    44
1041
2.0
1070
   140
1041
3.5
1070
   343
1005
0
1070
   344
1005
0
1002
}
0
ENDSEC
0
SECTION
2
OBJECTS
0
DICTIONARY
5
293
330
0
100
AcDbDictionary
280
0
281
1
3
ACAD_GROUP
350
294
3
ACAD_MLINESTYLE
350
295
0
DICTIONARY
5
294
330
0
100
AcDbDictionary
280
0
281
1
0
DICTIONARY
5
295
330
0
100
AcDbDictionary
280
0
281
1
3
Standard
350
18
0
MLINESTYLE
5
18
330
295
100
AcDbMlineStyle
2
Standard
70
0
3

62
256
51
90
52
90
71
2
49
-0.5
62
256
6
ByLayer
49
0.5
62
256
6
ByLayer
0
RASTERVARIABLES
5
281
330

100
AcDbRasterVariables
90
0
70
1
71
1
72
1
0
ENDSEC
0
EOF
