0
SECTION
2
HEADER
9
$ACADVER
1
AC1015
9
$DWGCODEPAGE
3
ANSI_1252
9
$HANDSEED
5
3ac
9
$ANGBASE
50
0
9
$ANGDIR
70
0
9
$ATTMODE
70
1
9
$AUNITS
70
0
9
$AUPREC
70
0
9
$CECOLOR
62
256
9
$CELTSCALE
40
1
9
$CELTYPE
6
ByLayer
9
$CELWEIGHT
370
18
9
$CLAYER
8
0
9
$CMLJUST
70
0
9
$CMLSCALE
40
1
9
$CMLSTYLE
2
Standard
9
$DIMSTYLE
2
Standard
9
$TEXTSIZE
40
0.2
9
$TEXTSTYLE
7
Standard
9
$LUNITS
70
2
9
$LUPREC
70
4
9
$EXTNAMES
290
1
9
$INSUNITS
70
4
9
$LTSCALE
40
1
9
$LWDISPLAY
290
1
9
$PDMODE
70
0
9
$PDSIZE
40
0
9
$PLINEGEN
70
0
0
ENDSEC
0
SECTION
2
CLASSES
0
CLASS
1
RASTERVARIABLES
2
AcDbRasterVariables
3
ISM
90
0
280
0
281
0
0
ENDSEC
0
SECTION
2
TABLES
0
TABLE
2
VPORT
5
3a2
100
AcDbSymbolTable
0
VPORT
5
1
100
AcDbSymbolTableRecord
100
AcDbViewportTableRecord
2
*Active
70
0
10
0
20
0
11
1
21
1
12
-1
22
1
13
0
23
0
14
0.5
24
0.5
15
10
25
10
16
0
26
0
36
1
17
0
27
0
37
0
0
ENDTAB
0
TABLE
2
LTYPE
5
3a3
100
AcDbSymbolTable
0
LTYPE
5
14
100
AcDbSymbolTableRecord
100
AcDbLinetypeTableRecord
70
0
2
ByBlock
3

72
65
73
0
40
0
0
LTYPE
5
15
100
AcDbSymbolTableRecord
100
AcDbLinetypeTableRecord
70
0
2
ByLayer
3

72
65
73
0
40
0
0
LTYPE
5
16
100
AcDbSymbolTableRecord
100
AcDbLinetypeTableRecord
70
0
2
CONTINUOUS
3
Solid line
72
65
73
0
40
0
0
LTYPE
5
6A
100
AcDbSymbolTableRecord
100
AcDbLinetypeTableRecord
70
0
2
CENTER
3
____ _ ____ _ ____ _ ____
72
65
73
4
40
47.5
49
22
74
0
49
-8.5
74
0
49
8.5
74
0
49
-8.5
74
0
0
LTYPE
5
6B
100
AcDbSymbolTableRecord
100
AcDbLinetypeTableRecord
70
0
2
DASHED
3
__ __ __ __ __ __ __ __ __
72
65
73
2
40
25.72
49
12.86
74
0
49
-12.86
74
0
0
ENDTAB
0
TABLE
2
LAYER
5
3a4
100
AcDbSymbolTable
0
LAYER
5
10
100
AcDbSymbolTableRecord
100
AcDbLayerTableRecord
2
0
70
0
62
7
6
CONTINUOUS
290
1
370
-3
390
0
0
LAYER
5
6D
100
AcDbSymbolTableRecord
100
AcDbLayerTableRecord
2
81
70
0
62
-3
6
CONTINUOUS
290
1
370
-3
390
0
0
LAYER
5
6F
100
AcDbSymbolTableRecord
100
AcDbLayerTableRecord
2
80
70
0
62
-6
6
CONTINUOUS
290
1
370
-3
390
0
0
LAYER
5
71
100
AcDbSymbolTableRecord
100
AcDbLayerTableRecord
2
2
70
0
62
7
6
CONTINUOUS
290
1
370
-3
390
0
0
LAYER
5
76
100
AcDbSymbolTableRecord
100
AcDbLayerTableRecord
2
1
70
0
62
4
6
CONTINUOUS
290
1
370
-3
390
0
0
LAYER
5
85
100
AcDbSymbolTableRecord
100
AcDbLayerTableRecord
2
4
70
0
62
-2
6
CENTER
290
1
370
-3
390
0
0
LAYER
5
38e
100
AcDbSymbolTableRecord
100
AcDbLayerTableRecord
2
SK1
70
0
62
4
6
CONTINUOUS
290
1
370
-3
390
0
0
LAYER
5
38f
100
AcDbSymbolTableRecord
100
AcDbLayerTableRecord
2
SK4
70
0
62
2
6
CENTER
290
1
370
-3
390
0
0
LAYER
5
390
100
AcDbSymbolTableRecord
100
AcDbLayerTableRecord
2
SK6
70
0
62
5
6
CONTINUOUS
290
1
370
-3
390
0
0
LAYER
5
391
100
AcDbSymbolTableRecord
100
AcDbLayerTableRecord
2
SK2
70
0
62
7
6
CONTINUOUS
290
1
370
-3
390
0
0
ENDTAB
0
TABLE
2
STYLE
5
3a5
100
AcDbSymbolTable
0
STYLE
5
11
100
AcDbSymbolTableRecord
100
AcDbTextStyleTableRecord
2
Standard
3
txt
70
0
71
0
40
0
41
1
42
0
50
0
0
STYLE
5
2F2
100
AcDbSymbolTableRecord
100
AcDbTextStyleTableRecord
2
iso_b_vert
3
simplex.shx
70
0
71
0
40
0
41
1
42
0
50
0
0
STYLE
5
2F3
100
AcDbSymbolTableRecord
100
AcDbTextStyleTableRecord
2
DWGDirectTextStyle
3
simplex
70
0
71
0
40
0
41
1
42
0
50
0
0
ENDTAB
0
TABLE
2
DIMSTYLE
5
3a6
100
AcDbSymbolTable
100
AcDbDimStyleTable
0
DIMSTYLE
105
27
100
AcDbSymbolTableRecord
100
AcDbDimStyleTableRecord
2
Standard
70
0
3
<>
41
0.18
42
0.0625
44
0.18
140
0.18
147
0.09
73
0
74
0
77
1
271
2
275
0
278
52
280
0
340
11
0
ENDTAB
0
TABLE
2
VIEW
5
3a7
100
AcDbSymbolTable
0
ENDTAB
0
TABLE
2
UCS
5
3a8
100
AcDbSymbolTable
0
ENDTAB
0
TABLE
2
APPID
5
3a9
100
AcDbSymbolTable
0
APPID
5
12
100
AcDbSymbolTableRecord
100
AcDbRegAppTableRecord
2
ACAD
70
0
0
ENDTAB
0
TABLE
2
BLOCK_RECORD
5
3aa
100
AcDbSymbolTable
0
BLOCK_RECORD
5
1F
100
AcDbSymbolTableRecord
100
AcDbBlockTableRecord
2
*Model_Space
340
0
70
0
0
BLOCK_RECORD
5
1B
100
AcDbSymbolTableRecord
100
AcDbBlockTableRecord
2
*Paper_Space
340
0
70
0
0
BLOCK_RECORD
5
23
100
AcDbSymbolTableRecord
100
AcDbBlockTableRecord
2
*Paper_Space0
340
0
70
0
0
BLOCK_RECORD
5
2F5
100
AcDbSymbolTableRecord
100
AcDbBlockTableRecord
2
DimnDraft3D1
340
0
70
0
0
BLOCK_RECORD
5
303
100
AcDbSymbolTableRecord
100
AcDbBlockTableRecord
2
_CLOSED
340
0
70
0
0
BLOCK_RECORD
5
30A
100
AcDbSymbolTableRecord
100
AcDbBlockTableRecord
2
DimnDraft3D2
340
0
70
0
0
BLOCK_RECORD
5
319
100
AcDbSymbolTableRecord
100
AcDbBlockTableRecord
2
DimnDraft3D3
340
0
70
0
0
BLOCK_RECORD
5
327
100
AcDbSymbolTableRecord
100
AcDbBlockTableRecord
2
DimnDraft3D4
340
0
70
0
0
ENDTAB
0
ENDSEC
0
SECTION
2
BLOCKS
0
BLOCK
5
20
100
AcDbEntity
8
0
100
AcDbBlockBegin
2
*Model_Space
70
0
10
0
20
0
30
0
3
*Model_Space
0
ENDBLK
5
21
100
AcDbEntity
8
0
100
AcDbBlockEnd
0
BLOCK
5
1C
100
AcDbEntity
8
0
100
AcDbBlockBegin
2
*Paper_Space
70
0
10
0
20
0
30
0
3
*Paper_Space
0
ENDBLK
5
1D
100
AcDbEntity
8
0
100
AcDbBlockEnd
0
BLOCK
5
24
100
AcDbEntity
8
0
100
AcDbBlockBegin
2
*Paper_Space0
70
0
10
0
20
0
30
0
3
*Paper_Space0
0
ENDBLK
5
25
100
AcDbEntity
8
0
100
AcDbBlockEnd
0
BLOCK
5
300
100
AcDbEntity
8
0
100
AcDbBlockBegin
2
DimnDraft3D1
70
0
10
0
20
0
30
0
3
DimnDraft3D1
0
MTEXT
5
2F6
100
AcDbEntity
8
2
62
256
6
ByLayer
370
18
48
1
60
0
100
AcDbMText
10
35.976281
20
-3.474671
30
0
210
0
220
0
230
1
1
\W1.0809;%%c32
40
3.5
41
0
44
1.084337
50
90
71
7
72
5
7
iso_b_vert
0
LINE
5
2F7
100
AcDbEntity
8
2
62
256
6
ByLayer
370
13
48
1
60
0
100
AcDbLine
10
26.5875
20
-16
30
0
11
40.026281
21
-16
31
0
39
0
210
0
220
0
230
1
0
LINE
5
2F8
100
AcDbEntity
8
2
62
256
6
ByLayer
370
13
48
1
60
0
100
AcDbLine
10
26.5875
20
16
30
0
11
40.026281
21
16
31
0
39
0
210
0
220
0
230
1
0
LINE
5
2F9
100
AcDbEntity
8
2
62
256
6
ByLayer
370
13
48
1
60
0
100
AcDbLine
10
36.851281
20
-16
30
0
11
36.851281
21
16
31
0
39
0
210
0
220
0
230
1
0
LINE
5
2FA
100
AcDbEntity
8
2
62
256
6
ByLayer
370
13
48
1
60
0
100
AcDbLine
10
36.851281
20
-16
30
0
11
36.433284
21
-12.825002
31
0
39
0
210
0
220
0
230
1
0
LINE
5
2FB
100
AcDbEntity
8
2
62
256
6
ByLayer
370
13
48
1
60
0
100
AcDbLine
10
36.851281
20
-16
30
0
11
37.269278
21
-12.824998
31
0
39
0
210
0
220
0
230
1
0
LINE
5
2FC
100
AcDbEntity
8
2
62
256
6
ByLayer
370
13
48
1
60
0
100
AcDbLine
10
36.433284
20
-12.825002
30
0
11
37.269278
21
-12.824998
31
0
39
0
210
0
220
0
230
1
0
LINE
5
2FD
100
AcDbEntity
8
2
62
256
6
ByLayer
370
13
48
1
60
0
100
AcDbLine
10
36.851281
20
16
30
0
11
37.269278
21
12.825002
31
0
39
0
210
0
220
0
230
1
0
LINE
5
2FE
100
AcDbEntity
8
2
62
256
6
ByLayer
370
13
48
1
60
0
100
AcDbLine
10
36.851281
20
16
30
0
11
36.433284
21
12.824998
31
0
39
0
210
0
220
0
230
1
0
LINE
5
2FF
100
AcDbEntity
8
2
62
256
6
ByLayer
370
13
48
1
60
0
100
AcDbLine
10
37.269278
20
12.825002
30
0
11
36.433284
21
12.824998
31
0
39
0
210
0
220
0
230
1
0
ENDBLK
5
301
100
AcDbEntity
8
0
100
AcDbBlockEnd
0
BLOCK
5
304
100
AcDbEntity
8
0
100
AcDbBlockBegin
2
_CLOSED
70
0
10
0
20
0
30
0
3
_CLOSED
0
LINE
5
306
100
AcDbEntity
8
0
62
256
6
ByLayer
370
-2
48
1
60
0
100
AcDbLine
10
-1
20
0.166667
30
0
11
0
21
0
31
0
39
0
210
0
220
0
230
1
0
LINE
5
307
100
AcDbEntity
8
0
62
256
6
ByLayer
370
-2
48
1
60
0
100
AcDbLine
10
0
20
0
30
0
11
-1
21
-0.166667
31
0
39
0
210
0
220
0
230
1
0
LINE
5
308
100
AcDbEntity
8
0
62
256
6
ByLayer
370
-2
48
1
60
0
100
AcDbLine
10
-1
20
0.166667
30
0
11
-1
21
-0.166667
31
0
39
0
210
0
220
0
230
1
0
LINE
5
309
100
AcDbEntity
8
0
62
256
6
ByLayer
370
-2
48
1
60
0
100
AcDbLine
10
0
20
0
30
0
11
-1
21
0
31
0
39
0
210
0
220
0
230
1
0
ENDBLK
5
305
100
AcDbEntity
8
0
100
AcDbBlockEnd
0
BLOCK
5
316
100
AcDbEntity
8
0
100
AcDbBlockBegin
2
DimnDraft3D2
70
0
10
0
20
0
30
0
3
DimnDraft3D2
0
MTEXT
5
30B
100
AcDbEntity
8
SK2
62
256
6
ByLayer
370
18
48
1
60
0
100
AcDbMText
10
-47.725
20
-6.021382
30
0
210
0
220
0
230
1
1
\W1.0573;%%c24.2
40
3.5
41
0
44
1.084337
50
90
71
7
72
5
7
iso_b_vert
0
LINE
5
30D
100
AcDbEntity
8
SK2
62
256
6
ByLayer
370
13
48
1
60
0
100
AcDbLine
10
-1.5875
20
12.1
30
0
11
-50.025
21
12.1
31
0
39
0
210
0
220
0
230
1
0
LINE
5
30E
100
AcDbEntity
8
SK2
62
256
6
ByLayer
370
13
48
1
60
0
100
AcDbLine
10
-1.5875
20
-12.1
30
0
11
-50.025
21
-12.1
31
0
39
0
210
0
220
0
230
1
0
LINE
5
30F
100
AcDbEntity
8
SK2
62
256
6
ByLayer
370
13
48
1
60
0
100
AcDbLine
10
-46.85
20
12.1
30
0
11
-46.85
21
-12.1
31
0
39
0
210
0
220
0
230
1
0
LINE
5
310
100
AcDbEntity
8
SK2
62
256
6
ByLayer
370
13
48
1
60
0
100
AcDbLine
10
-46.85
20
12.1
30
0
11
-46.432003
21
8.925002
31
0
39
0
210
0
220
0
230
1
0
LINE
5
311
100
AcDbEntity
8
SK2
62
256
6
ByLayer
370
13
48
1
60
0
100
AcDbLine
10
-46.85
20
12.1
30
0
11
-47.267997
21
8.924998
31
0
39
0
210
0
220
0
230
1
0
LINE
5
312
100
AcDbEntity
8
SK2
62
256
6
ByLayer
370
13
48
1
60
0
100
AcDbLine
10
-46.432003
20
8.925002
30
0
11
-47.267997
21
8.924998
31
0
39
0
210
0
220
0
230
1
0
LINE
5
313
100
AcDbEntity
8
SK2
62
256
6
ByLayer
370
13
48
1
60
0
100
AcDbLine
10
-46.85
20
-12.1
30
0
11
-47.267997
21
-8.925002
31
0
39
0
210
0
220
0
230
1
0
LINE
5
314
100
AcDbEntity
8
SK2
62
256
6
ByLayer
370
13
48
1
60
0
100
AcDbLine
10
-46.85
20
-12.1
30
0
11
-46.432003
21
-8.924998
31
0
39
0
210
0
220
0
230
1
0
LINE
5
315
100
AcDbEntity
8
SK2
62
256
6
ByLayer
370
13
48
1
60
0
100
AcDbLine
10
-47.267997
20
-8.925002
30
0
11
-46.432003
21
-8.924998
31
0
39
0
210
0
220
0
230
1
0
ENDBLK
5
317
100
AcDbEntity
8
0
100
AcDbBlockEnd
0
BLOCK
5
324
100
AcDbEntity
8
0
100
AcDbBlockBegin
2
DimnDraft3D3
70
0
10
0
20
0
30
0
3
DimnDraft3D3
0
MTEXT
5
31A
100
AcDbEntity
8
2
62
256
6
ByLayer
370
18
48
1
60
0
100
AcDbMText
10
11.076974
20
35.375
30
0
210
0
220
0
230
1
1
\W0.8247;25
40
3.5
41
0
44
1.084337
50
0
71
7
72
5
7
iso_b_vert
0
LINE
5
31B
100
AcDbEntity
8
2
62
256
6
ByLayer
370
13
48
1
60
0
100
AcDbLine
10
0
20
13.6875
30
0
11
0
21
37.675
31
0
39
0
210
0
220
0
230
1
0
LINE
5
31C
100
AcDbEntity
8
2
62
256
6
ByLayer
370
13
48
1
60
0
100
AcDbLine
10
25
20
17.5875
30
0
11
25
21
37.675
31
0
39
0
210
0
220
0
230
1
0
LINE
5
31D
100
AcDbEntity
8
2
62
256
6
ByLayer
370
13
48
1
60
0
100
AcDbLine
10
0
20
34.5
30
0
11
25
21
34.5
31
0
39
0
210
0
220
0
230
1
0
LINE
5
31E
100
AcDbEntity
8
2
62
256
6
ByLayer
370
13
48
1
60
0
100
AcDbLine
10
0
20
34.5
30
0
11
3.174998
21
34.917997
31
0
39
0
210
0
220
0
230
1
0
LINE
5
31F
100
AcDbEntity
8
2
62
256
6
ByLayer
370
13
48
1
60
0
100
AcDbLine
10
0
20
34.5
30
0
11
3.175002
21
34.082003
31
0
39
0
210
0
220
0
230
1
0
LINE
5
320
100
AcDbEntity
8
2
62
256
6
ByLayer
370
13
48
1
60
0
100
AcDbLine
10
3.174998
20
34.917997
30
0
11
3.175002
21
34.082003
31
0
39
0
210
0
220
0
230
1
0
LINE
5
321
100
AcDbEntity
8
2
62
256
6
ByLayer
370
13
48
1
60
0
100
AcDbLine
10
25
20
34.5
30
0
11
21.825002
21
34.082003
31
0
39
0
210
0
220
0
230
1
0
LINE
5
322
100
AcDbEntity
8
2
62
256
6
ByLayer
370
13
48
1
60
0
100
AcDbLine
10
25
20
34.5
30
0
11
21.824998
21
34.917997
31
0
39
0
210
0
220
0
230
1
0
LINE
5
323
100
AcDbEntity
8
2
62
256
6
ByLayer
370
13
48
1
60
0
100
AcDbLine
10
21.825002
20
34.082003
30
0
11
21.824998
21
34.917997
31
0
39
0
210
0
220
0
230
1
0
ENDBLK
5
325
100
AcDbEntity
8
0
100
AcDbBlockEnd
0
BLOCK
5
332
100
AcDbEntity
8
0
100
AcDbBlockBegin
2
DimnDraft3D4
70
0
10
0
20
0
30
0
3
DimnDraft3D4
0
MTEXT
5
328
100
AcDbEntity
8
SK2
62
256
6
ByLayer
370
18
48
1
60
0
100
AcDbMText
10
37.25
20
25.375
30
0
210
0
220
0
230
1
1
\W0.8447;5.8
40
3.5
41
0
44
1.084337
50
0
71
7
72
5
7
iso_b_vert
0
LINE
5
329
100
AcDbEntity
8
SK2
62
256
6
ByLayer
370
13
48
1
60
0
100
AcDbLine
10
19.2
20
17.5875
30
0
11
19.2
21
27.675
31
0
39
0
210
0
220
0
230
1
0
LINE
5
32A
100
AcDbEntity
8
SK2
62
256
6
ByLayer
370
13
48
1
60
0
100
AcDbLine
10
25
20
17.5875
30
0
11
25
21
27.675
31
0
39
0
210
0
220
0
230
1
0
LINE
5
32B
100
AcDbEntity
8
SK2
62
256
6
ByLayer
370
13
48
1
60
0
100
AcDbLine
10
42.7625
20
24.5
30
0
11
10.45
21
24.5
31
0
39
0
210
0
220
0
230
1
0
LINE
5
32C
100
AcDbEntity
8
SK2
62
256
6
ByLayer
370
13
48
1
60
0
100
AcDbLine
10
19.2
20
24.5
30
0
11
16.025002
21
24.082003
31
0
39
0
210
0
220
0
230
1
0
LINE
5
32D
100
AcDbEntity
8
SK2
62
256
6
ByLayer
370
13
48
1
60
0
100
AcDbLine
10
19.2
20
24.5
30
0
11
16.024998
21
24.917997
31
0
39
0
210
0
220
0
230
1
0
LINE
5
32E
100
AcDbEntity
8
SK2
62
256
6
ByLayer
370
13
48
1
60
0
100
AcDbLine
10
16.025002
20
24.082003
30
0
11
16.024998
21
24.917997
31
0
39
0
210
0
220
0
230
1
0
LINE
5
32F
100
AcDbEntity
8
SK2
62
256
6
ByLayer
370
13
48
1
60
0
100
AcDbLine
10
25
20
24.5
30
0
11
28.174998
21
24.917997
31
0
39
0
210
0
220
0
230
1
0
LINE
5
330
100
AcDbEntity
8
SK2
62
256
6
ByLayer
370
13
48
1
60
0
100
AcDbLine
10
25
20
24.5
30
0
11
28.175002
21
24.082003
31
0
39
0
210
0
220
0
230
1
0
LINE
5
331
100
AcDbEntity
8
SK2
62
256
6
ByLayer
370
13
48
1
60
0
100
AcDbLine
10
28.174998
20
24.917997
30
0
11
28.175002
21
24.082003
31
0
39
0
210
0
220
0
230
1
0
ENDBLK
5
333
100
AcDbEntity
8
0
100
AcDbBlockEnd
0
ENDSEC
0
SECTION
2
ENTITIES
0
ARC
5
100
100
AcDbEntity
8
1
62
256
6
ByLayer
370
18
48
1
60
0
100
AcDbCircle
39
0
10
-10.6
20
13.1
30
0
40
0.999999999999998
210
0
220
0
230
-1
100
AcDbArc
50
228.90159
51
270
0
ARC
5
101
100
AcDbEntity
8
1
62
256
6
ByLayer
370
18
48
1
60
0
100
AcDbCircle
39
0
10
-10.6
20
-13.1
30
0
40
0.999999999999998
210
0
220
0
230
-1
100
AcDbArc
50
90
51
131.09841
0
ARC
5
102
100
AcDbEntity
8
SK1
62
256
6
ByLayer
370
18
48
1
60
0
100
AcDbCircle
39
0
10
0.4
20
9.291761
30
0
40
0.4
210
0
220
0
230
-1
100
AcDbArc
50
180
51
267.8
0
ARC
5
103
100
AcDbEntity
8
SK1
62
256
6
ByLayer
370
18
48
1
60
0
100
AcDbCircle
39
0
10
0.4
20
-9.291761
30
0
40
0.4
210
0
220
0
230
-1
100
AcDbArc
50
92.2
51
180
0
ARC
5
104
100
AcDbEntity
8
SK1
62
256
6
ByLayer
370
18
48
1
60
0
100
AcDbCircle
39
0
10
20
20
5.7
30
0
40
0.5
210
0
220
0
230
-1
100
AcDbArc
50
180
51
270
0
ARC
5
105
100
AcDbEntity
8
SK1
62
256
6
ByLayer
370
18
48
1
60
0
100
AcDbCircle
39
0
10
20
20
-5.7
30
0
40
0.5
210
0
220
0
230
-1
100
AcDbArc
50
90
51
180
0
ELLIPSE
5
106
100
AcDbEntity
8
1
62
256
6
ByLayer
370
18
48
1
60
0
100
AcDbEllipse
10
20.958136
20
-0.006031
30
0
11
0.517455220941227
21
15.3716436465939
31
0
210
0
220
0
230
-1
40
0.173087
41
2.73527406789866
42
2.7744244359872
0
ELLIPSE
5
107
100
AcDbEntity
8
1
62
256
6
ByLayer
370
18
48
1
60
0
100
AcDbEllipse
10
18.869008
20
12.558739
30
0
11
7.78263319618242
21
-1.85219343851525
31
0
210
0
220
0
230
1
40
0.661413
41
-1.61101687564694
42
-1.57442717714054
0
ELLIPSE
5
108
100
AcDbEntity
8
1
62
256
6
ByLayer
370
18
48
1
60
0
100
AcDbEllipse
10
22.543996
20
-7.148368
30
0
11
0.32511257691197
21
8.11372189579801
31
0
210
0
220
0
230
-1
40
0.369356
41
-2.59194437098731
42
-2.26566691432404
0
ELLIPSE
5
109
100
AcDbEntity
8
1
62
256
6
ByLayer
370
18
48
1
60
0
100
AcDbEllipse
10
23.794219
20
9.556224
30
0
11
-0.072002255838981
21
-0.494788515584282
31
0
210
0
220
0
230
1
40
0.100435
41
2.19432140112037
42
2.22547571493422
0
ELLIPSE
5
10A
100
AcDbEntity
8
1
62
256
6
ByLayer
370
18
48
1
60
0
100
AcDbEllipse
10
22.988998
20
-0.024093
30
0
11
2.03279673679717
21
15.3456974449679
31
0
210
0
220
0
230
-1
40
0.11641
41
-0.697406393691122
42
-0.660656047993264
0
ELLIPSE
5
10B
100
AcDbEntity
8
1
62
256
6
ByLayer
370
18
48
1
60
0
100
AcDbEllipse
10
22.590963
20
-12.539762
30
0
11
0.164463993217292
21
1.02013745725031
31
0
210
0
220
0
230
-1
40
0.952231
41
1.14209485517482
42
1.45032064670107
0
ELLIPSE
5
10C
100
AcDbEntity
8
1
62
256
6
ByLayer
370
18
48
1
60
0
100
AcDbEllipse
10
22.415077
20
-12.724484
30
0
11
0.724216423212356
21
-0.689572746234588
31
0
210
0
220
0
230
1
40
0.967774
41
0.7445563253982
42
3.00385219375603
0
ELLIPSE
5
10D
100
AcDbEntity
8
1
62
256
6
ByLayer
370
18
48
1
60
0
100
AcDbEllipse
10
22.366865
20
-11.730516
30
0
11
2.39986809947421
21
0.0369809314761383
31
0
210
0
220
0
230
1
40
0.913534
41
1.57890590339607
42
-2.91868829373165
0
ELLIPSE
5
10E
100
AcDbEntity
8
1
62
256
6
ByLayer
370
18
48
1
60
0
100
AcDbEllipse
10
20.958136
20
-0.02413
30
0
11
2.03602875472267
21
15.3700954754262
31
0
210
0
220
0
230
-1
40
0.11641
41
-0.674747609839062
42
-0.635597242403788
0
ELLIPSE
5
10F
100
AcDbEntity
8
1
62
256
6
ByLayer
370
18
48
1
60
0
100
AcDbEllipse
10
13.355688
20
0.050635
30
0
11
16.9232687516299
21
-8.72549772565043
31
0
210
0
220
0
230
-1
40
0.754346
41
0.877458393066878
42
0.881683312517977
0
ELLIPSE
5
110
100
AcDbEntity
8
1
62
256
6
ByLayer
370
18
48
1
60
0
100
AcDbEllipse
10
22.378145
20
1.680567
30
0
11
-2.99531010453221
21
0.167682371426566
31
0
210
0
220
0
230
1
40
0.830806
41
0.681601589523035
42
1.37488782203255
0
ELLIPSE
5
111
100
AcDbEntity
8
1
62
256
6
ByLayer
370
18
48
1
60
0
100
AcDbEllipse
10
18.169581
20
7.460721
30
0
11
0.583396031057825
21
-0.471326925759581
31
0
210
0
220
0
230
1
40
0.449373
41
-3.08738341519365
42
-1.64688081424442
0
ELLIPSE
5
112
100
AcDbEntity
8
1
62
256
6
ByLayer
370
18
48
1
60
0
100
AcDbEllipse
10
273.733845
20
-8.632512
30
0
11
306.832442165107
21
-10.0970977273876
31
0
210
0
220
0
230
-1
40
0.087858
41
2.54811083291677
42
2.55575969212173
0
ELLIPSE
5
113
100
AcDbEntity
8
1
62
256
6
ByLayer
370
18
48
1
60
0
100
AcDbEllipse
10
22.378145
20
-12.462517
30
0
11
-2.9985400361765
21
0.0935823244349095
31
0
210
0
220
0
230
1
40
0.074019
41
-1.32610134360959
42
-0.670916949892352
0
ELLIPSE
5
114
100
AcDbEntity
8
1
62
256
6
ByLayer
370
18
48
1
60
0
100
AcDbEllipse
10
22.378145
20
14.179837
30
0
11
-0.417575567006176
21
-2.97079629827416
31
0
210
0
220
0
230
1
40
0.105837
41
0.347603624000688
42
0.767055387374538
0
ELLIPSE
5
115
100
AcDbEntity
8
1
62
256
6
ByLayer
370
18
48
1
60
0
100
AcDbEllipse
10
17.114936
20
12.972324
30
0
11
0.199514497466844
21
1.23397486412829
31
0
210
0
220
0
230
1
40
0.206586
41
-1.85921693666635
42
-1.74259770689143
0
ELLIPSE
5
116
100
AcDbEntity
8
1
62
256
6
ByLayer
370
18
48
1
60
0
100
AcDbEllipse
10
18.48008
20
6.297485
30
0
11
-0.180005639597445
21
-1.23697128896066
31
0
210
0
220
0
230
1
40
0.100435
41
0.930870929994333
42
1.47726042984008
0
ELLIPSE
5
117
100
AcDbEntity
8
1
62
256
6
ByLayer
370
18
48
1
60
0
100
AcDbEllipse
10
18.297761
20
13.128252
30
0
11
0.75356503952526
21
0.344477617066657
31
0
210
0
220
0
230
-1
40
0.875941
41
-2.16338412292007
42
-1.73436002514613
0
ELLIPSE
5
118
100
AcDbEntity
8
1
62
256
6
ByLayer
370
18
48
1
60
0
100
AcDbEllipse
10
273.735382
20
9.526234
30
0
11
306.833738567634
21
11.141768906864
31
0
210
0
220
0
230
-1
40
0.087497
41
-2.55547506073551
42
-2.5493094995655
0
ELLIPSE
5
119
100
AcDbEntity
8
1
62
256
6
ByLayer
370
18
48
1
60
0
100
AcDbEllipse
10
9.364694
20
5.7E-05
30
0
11
86.058400705534
21
-14.4054145924355
31
0
210
0
220
0
230
-1
40
0.055445
41
1.46772746953707
42
1.47967744547427
0
ELLIPSE
5
11A
100
AcDbEntity
8
1
62
256
6
ByLayer
370
18
48
1
60
0
100
AcDbEllipse
10
12.285512
20
7.863837
30
0
11
-0.321658247044066
21
-1.20790561390715
31
0
210
0
220
0
230
1
40
0.030158
41
-2.15063827109614
42
-0.934960095524149
0
ELLIPSE
5
11B
100
AcDbEntity
8
1
62
256
6
ByLayer
370
18
48
1
60
0
100
AcDbEllipse
10
19.745292
20
-6.356884
30
0
11
1.5885145127732
21
1.71062927614461
31
0
210
0
220
0
230
-1
40
0.165966
41
-1.79917102203058
42
-1.71404445461018
0
ELLIPSE
5
11C
100
AcDbEntity
8
1
62
256
6
ByLayer
370
18
48
1
60
0
100
AcDbEllipse
10
22.988998
20
-0.006021
30
0
11
0.51663376502666
21
15.3472426851017
31
0
210
0
220
0
230
-1
40
0.173087
41
2.76033290667089
42
2.79708325382276
0
ELLIPSE
5
11D
100
AcDbEntity
8
1
62
256
6
ByLayer
370
18
48
1
60
0
100
AcDbEllipse
10
22.415077
20
-12.724484
30
0
11
-1
21
1.01063905508236E-15
31
0
210
0
220
0
230
1
40
0.185186
41
2.20416916567108
42
2.96705972839036
0
ELLIPSE
5
11E
100
AcDbEntity
8
1
62
256
6
ByLayer
370
18
48
1
60
0
100
AcDbEllipse
10
22.541336
20
4.595643
30
0
11
0.339120224354741
21
7.29223234494036
31
0
210
0
220
0
230
-1
40
0.410862
41
-2.51433790972922
42
-2.2293949346293
0
ELLIPSE
5
11F
100
AcDbEntity
8
1
62
256
6
ByLayer
370
18
48
1
60
0
100
AcDbEllipse
10
56.14548
20
0.919021
30
0
11
85.9057938842169
21
-13.4052516453323
31
0
210
0
220
0
230
-1
40
0.076854
41
-1.97259800441636
42
-1.96907067405273
0
ELLIPSE
5
120
100
AcDbEntity
8
1
62
256
6
ByLayer
370
18
48
1
60
0
100
AcDbEllipse
10
273.735512
20
-34.537578
30
0
11
306.826209735925
21
-40.2268701675998
31
0
210
0
220
0
230
-1
40
0.059098
41
-2.56640027639265
42
-2.55875144213956
0
ELLIPSE
5
121
100
AcDbEntity
8
1
62
256
6
ByLayer
370
18
48
1
60
0
100
AcDbEllipse
10
22.415077
20
-1.997064
30
0
11
-1
21
1.01063905508236E-15
31
0
210
0
220
0
230
1
40
0.946322
41
2.20416916567108
42
2.96705972839036
0
ELLIPSE
5
122
100
AcDbEntity
8
1
62
256
6
ByLayer
370
18
48
1
60
0
100
AcDbEllipse
10
22.36736
20
0.643711
30
0
11
-2.45721395349791
21
0.025559695221788
31
0
210
0
220
0
230
1
40
0.798084
41
-1.54543091113922
42
0.218839191516266
0
ELLIPSE
5
123
100
AcDbEntity
8
1
62
256
6
ByLayer
370
18
48
1
60
0
100
AcDbEllipse
10
56.153285
20
-0.077328
30
0
11
85.9235072511121
21
1.22645292471739
31
0
210
0
220
0
230
-1
40
0.173037
41
1.95959055169011
42
1.96311745830013
0
ELLIPSE
5
124
100
AcDbEntity
8
1
62
256
6
ByLayer
370
18
48
1
60
0
100
AcDbEllipse
10
13.841441
20
13.012224
30
0
11
8.99404224731201
21
-2.14049738902917
31
0
210
0
220
0
230
1
40
0.661413
41
-1.66210160320334
42
-1.61101687564697
0
ELLIPSE
5
125
100
AcDbEntity
8
1
62
256
6
ByLayer
370
18
48
1
60
0
100
AcDbEllipse
10
22.366139
20
12.277158
30
0
11
-2.30873037094827
21
0.0145677846260264
31
0
210
0
220
0
230
1
40
0.115818
41
1.22863333917788
42
1.54102187708761
0
ELLIPSE
5
126
100
AcDbEntity
8
1
62
256
6
ByLayer
370
18
48
1
60
0
100
AcDbEllipse
10
9.364753
20
2.1E-05
30
0
11
86.0603017658098
21
-2.89703460331558
31
0
210
0
220
0
230
-1
40
0.173087
41
1.47118196299673
42
1.483131986397
0
ELLIPSE
5
127
100
AcDbEntity
8
1
62
256
6
ByLayer
370
18
48
1
60
0
100
AcDbEllipse
10
18.169581
20
13.13646
30
0
11
-0.0479257148881868
21
-0.748467184218825
31
0
210
0
220
0
230
1
40
0.826757
41
-1.99914296370481
42
-0.673667229874099
0
ELLIPSE
5
128
100
AcDbEntity
8
1
62
256
6
ByLayer
370
18
48
1
60
0
100
AcDbEllipse
10
18.205332
20
7.610942
30
0
11
0.701592706499088
21
-0.166972459671515
31
0
210
0
220
0
230
1
40
0.661413
41
2.67941114581364
42
-2.39414479628372
0
ELLIPSE
5
129
100
AcDbEntity
8
1
62
256
6
ByLayer
370
18
48
1
60
0
100
AcDbEllipse
10
20.461526
20
-4.931715
30
0
11
6.45613759063712
21
11.3989293648852
31
0
210
0
220
0
230
-1
40
0.028595
41
-1.71084939120292
42
-1.64393118970924
0
ELLIPSE
5
12A
100
AcDbEntity
8
1
62
256
6
ByLayer
370
18
48
1
60
0
100
AcDbEllipse
10
18.285032
20
7.127188
30
0
11
-0.608392702607045
21
-0.210592319729484
31
0
210
0
220
0
230
1
40
0.397919
41
-1.05906915051046
42
-0.973882274234006
0
ELLIPSE
5
12B
100
AcDbEntity
8
1
62
256
6
ByLayer
370
18
48
1
60
0
100
AcDbEllipse
10
35.517423
20
12.332978
30
0
11
20.8133339954132
21
0.0838368951751159
31
0
210
0
220
0
230
-1
40
0.016761
41
2.19049313668593
42
2.25919793697949
0
ELLIPSE
5
12C
100
AcDbEntity
8
1
62
256
6
ByLayer
370
18
48
1
60
0
100
AcDbEllipse
10
22.951958
20
5.728535
30
0
11
9.5810860479456
21
-98.2274475681867
31
0
210
0
220
0
230
-1
40
0.007668
41
1.6325654558335
42
1.64038407961423
0
ELLIPSE
5
12D
100
AcDbEntity
8
1
62
256
6
ByLayer
370
18
48
1
60
0
100
AcDbEllipse
10
12.285512
20
13.753166
30
0
11
0.199514497466844
21
1.23397486412829
31
0
210
0
220
0
230
1
40
0.206586
41
-2.37756479977921
42
-2.01044939551467
0
ELLIPSE
5
12E
100
AcDbEntity
8
1
62
256
6
ByLayer
370
18
48
1
60
0
100
AcDbEllipse
10
34.00314
20
-0.203707
30
0
11
20.5044301524326
21
-1.48327115260345
31
0
210
0
220
0
230
-1
40
0.116591
41
-2.18512889086662
42
-2.08461183325864
0
ELLIPSE
5
12F
100
AcDbEntity
8
1
62
256
6
ByLayer
370
18
48
1
60
0
100
AcDbEllipse
10
34.609284
20
-12.684376
30
0
11
20.6245849559986
21
-1.60014346604992
31
0
210
0
220
0
230
-1
40
0.132595
41
-2.21976033490214
42
-2.11708250210029
0
ELLIPSE
5
130
100
AcDbEntity
8
1
62
256
6
ByLayer
370
18
48
1
60
0
100
AcDbEllipse
10
17.114936
20
6.577789
30
0
11
-0.321658247044066
21
-1.20790561390715
31
0
210
0
220
0
230
1
40
0.030158
41
-2.41848995971933
42
-0.934960095524101
0
ELLIPSE
5
131
100
AcDbEntity
8
1
62
256
6
ByLayer
370
18
48
1
60
0
100
AcDbEllipse
10
18.869008
20
20.456836
30
0
11
6.0569946846223
21
5.22616641434778
31
0
210
0
220
0
230
1
40
0.964024
41
-2.46097309672682
42
-2.42438339822162
0
ELLIPSE
5
132
100
AcDbEntity
8
1
62
256
6
ByLayer
370
18
48
1
60
0
100
AcDbEllipse
10
18.564785
20
6.819552
30
0
11
-0.0635538446061421
21
-0.747302421269849
31
0
210
0
220
0
230
1
40
0.744094
41
0.744217031038322
42
0.833028333621457
0
ELLIPSE
5
133
100
AcDbEntity
8
1
62
256
6
ByLayer
370
18
48
1
60
0
100
AcDbEllipse
10
13.841441
20
-8.800363
30
0
11
9.08881506414383
21
-1.69350693788545
31
0
210
0
220
0
230
1
40
0.318314
41
1.82638752038127
42
1.87747224793722
0
ELLIPSE
5
134
100
AcDbEntity
8
1
62
256
6
ByLayer
370
18
48
1
60
0
100
AcDbEllipse
10
13.356559
20
-0.161002
30
0
11
17.3501406101579
21
13.9578230248113
31
0
210
0
220
0
230
-1
40
0.383399
41
1.54759046085584
42
1.55181570227223
0
ELLIPSE
5
135
100
AcDbEntity
8
1
62
256
6
ByLayer
370
18
48
1
60
0
100
AcDbEllipse
10
22.590963
20
-1.05311
30
0
11
0.977863096643593
21
-0.210486272027046
31
0
210
0
220
0
230
-1
40
0.571337
41
-0.383353460422103
42
-0.0751276688769894
0
ELLIPSE
5
136
100
AcDbEntity
8
1
62
256
6
ByLayer
370
18
48
1
60
0
100
AcDbEllipse
10
23.859085
20
-5.374397
30
0
11
-0.393232052325288
21
0.0732704102913264
31
0
210
0
220
0
230
1
40
0.318314
41
1.65185459518142
42
2.39248517043211
0
ELLIPSE
5
137
100
AcDbEntity
8
1
62
256
6
ByLayer
370
18
48
1
60
0
100
AcDbEllipse
10
22.415077
20
-1.997064
30
0
11
-1
21
1.01063905508236E-15
31
0
210
0
220
0
230
1
40
0.946322
41
0.27821888760922
42
0.5883576375198
0
ELLIPSE
5
138
100
AcDbEntity
8
1
62
256
6
ByLayer
370
18
48
1
60
0
100
AcDbEllipse
10
22.378145
20
-12.462517
30
0
11
-0.0544075384007519
21
-2.99950659605295
31
0
210
0
220
0
230
1
40
0.17332
41
-2.91356143823027
42
-1.77791411757007
0
ELLIPSE
5
139
100
AcDbEntity
8
1
62
256
6
ByLayer
370
18
48
1
60
0
100
AcDbEllipse
10
22.988999
20
-0.030773
30
0
11
2.56892997065524
21
15.3468657269607
31
0
210
0
220
0
230
-1
40
0.055444
41
1.7014778766673
42
1.73822823786898
0
ELLIPSE
5
13A
100
AcDbEntity
8
1
62
256
6
ByLayer
370
18
48
1
60
0
100
AcDbEllipse
10
18.482634
20
6.806603
30
0
11
-0.115091515340321
21
0.730179475011917
31
0
210
0
220
0
230
1
40
0.755109
41
1.02856990955048
42
1.63063366026197
0
ELLIPSE
5
13B
100
AcDbEntity
8
1
62
256
6
ByLayer
370
18
48
1
60
0
100
AcDbEllipse
10
9.364769
20
5E-06
30
0
11
86.0514464612993
21
-11.3989450199292
31
0
210
0
220
0
230
-1
40
0.11641
41
-1.50437777589695
42
-1.49242774068596
0
ELLIPSE
5
13C
100
AcDbEntity
8
1
62
256
6
ByLayer
370
18
48
1
60
0
100
AcDbEllipse
10
18.205332
20
13.095025
30
0
11
-0.546028983624624
21
-0.471131061535249
31
0
210
0
220
0
230
1
40
0.964024
41
-1.31213772885603
42
-0.102508363793489
0
ELLIPSE
5
13D
100
AcDbEntity
8
1
62
256
6
ByLayer
370
18
48
1
60
0
100
AcDbEllipse
10
56.167602
20
0.857234
30
0
11
85.9371329321583
21
-12.4986396019815
31
0
210
0
220
0
230
-1
40
0.095324
41
1.94333525608458
42
1.94686138657093
0
ELLIPSE
5
13E
100
AcDbEntity
8
1
62
256
6
ByLayer
370
18
48
1
60
0
100
AcDbEllipse
10
22.378145
20
1.680567
30
0
11
-0.479999973747287
21
-2.96135104727599
31
0
210
0
220
0
230
1
40
0.069885
41
-1.87684665318815
42
-0.718463392827855
0
ELLIPSE
5
13F
100
AcDbEntity
8
1
62
256
6
ByLayer
370
18
48
1
60
0
100
AcDbEllipse
10
22.952116
20
5.931138
30
0
11
9.59753211185802
21
212.772345679796
31
0
210
0
220
0
230
-1
40
0.00241
41
-1.66547871206894
42
-1.65766054101405
0
ELLIPSE
5
140
100
AcDbEntity
8
1
62
256
6
ByLayer
370
18
48
1
60
0
100
AcDbEllipse
10
20.731357
20
5.155754
30
0
11
1.05615495142993
21
-0.133865813360389
31
0
210
0
220
0
230
-1
40
0.565117
41
-0.0659467681750568
42
-3.01043290061013
0
ELLIPSE
5
141
100
AcDbEntity
8
1
62
256
6
ByLayer
370
18
48
1
60
0
100
AcDbEllipse
10
20.958136
20
-0.030821
30
0
11
2.57301477741552
21
15.3712687343209
31
0
210
0
220
0
230
-1
40
0.055444
41
1.67641907342848
42
1.71556945079787
0
ELLIPSE
5
142
100
AcDbEntity
8
1
62
256
6
ByLayer
370
18
48
1
60
0
100
AcDbEllipse
10
12.285512
20
-6.109313
30
0
11
-0.126321162286691
21
-1.24360080570833
31
0
210
0
220
0
230
1
40
0.239667
41
-3.14159018866371
42
-1.99211071811631
0
ELLIPSE
5
143
100
AcDbEntity
8
1
62
256
6
ByLayer
370
18
48
1
60
0
100
AcDbEllipse
10
18.670866
20
11.726176
30
0
11
8.99404224731202
21
-2.14049738902919
31
0
210
0
220
0
230
1
40
0.661413
41
-1.61101687564697
42
-1.43648395044754
0
ELLIPSE
5
144
100
AcDbEntity
8
1
62
256
6
ByLayer
370
18
48
1
60
0
100
AcDbEllipse
10
18.297761
20
7.619379
30
0
11
0.808236643524462
21
-0.12184416757444
31
0
210
0
220
0
230
-1
40
0.61756
41
-2.63708332118935
42
-2.20805922342439
0
ELLIPSE
5
145
100
AcDbEntity
8
1
62
256
6
ByLayer
370
18
48
1
60
0
100
AcDbEllipse
10
22.415077
20
-1.997064
30
0
11
0.983080130812557
21
-0.183176025728193
31
0
210
0
220
0
230
1
40
0.318314
41
0.0592416527371212
42
2.74068890319893
0
ELLIPSE
5
146
100
AcDbEntity
8
1
62
256
6
ByLayer
370
18
48
1
60
0
100
AcDbEllipse
10
18.564785
20
6.819552
30
0
11
0.583396031057825
21
-0.471326925759581
31
0
210
0
220
0
230
1
40
0.449373
41
-2.64482887038362
42
-1.85339967580246
0
ELLIPSE
5
147
100
AcDbEntity
8
1
62
256
6
ByLayer
370
18
48
1
60
0
100
AcDbEllipse
10
18.564785
20
6.819552
30
0
11
0.583396031057825
21
-0.471326925759581
31
0
210
0
220
0
230
1
40
0.449373
41
-1.15685176101274
42
-0.586413605812937
0
ELLIPSE
5
148
100
AcDbEntity
8
1
62
256
6
ByLayer
370
18
48
1
60
0
100
AcDbEllipse
10
273.736596
20
-44.113603
30
0
11
306.833132748703
21
-51.2405141574841
31
0
210
0
220
0
230
-1
40
0.028144
41
2.54630449217042
42
2.55395331020116
0
ELLIPSE
5
149
100
AcDbEntity
8
1
62
256
6
ByLayer
370
18
48
1
60
0
100
AcDbEllipse
10
9.364768
20
8E-06
30
0
11
86.0599140725422
21
3.19617071363011
31
0
210
0
220
0
230
-1
40
0.172375
41
-1.48255688273274
42
-1.47060684761812
0
ELLIPSE
5
14A
100
AcDbEntity
8
1
62
256
6
ByLayer
370
18
48
1
60
0
100
AcDbEllipse
10
22.295513
20
-3.178151
30
0
11
-0.688156091568787
21
0.128223218009734
31
0
210
0
220
0
230
1
40
0.318314
41
-2.31967394351672
42
-0.611924167140323
0
ELLIPSE
5
14B
100
AcDbEntity
8
1
62
256
6
ByLayer
370
18
48
1
60
0
100
AcDbEllipse
10
21.758816
20
13.794012
30
0
11
-0.921272208563619
21
-0.794902773662813
31
0
210
0
220
0
230
1
40
0.964024
41
-0.172046675174738
42
0
0
ELLIPSE
5
14C
100
AcDbEntity
8
1
62
256
6
ByLayer
370
18
48
1
60
0
100
AcDbEllipse
10
21.758816
20
13.794012
30
0
11
-0.921272208563619
21
-0.794902773662813
31
0
210
0
220
0
230
1
40
0.964024
41
0
42
0.580168836927668
0
ELLIPSE
5
14D
100
AcDbEntity
8
1
62
256
6
ByLayer
370
18
48
1
60
0
100
AcDbEllipse
10
21.758816
20
13.794012
30
0
11
-0.921272208563619
21
-0.794902773662813
31
0
210
0
220
0
230
1
40
0.964024
41
2.5614336942359
42
-2.96953685130875
0
ELLIPSE
5
14E
100
AcDbEntity
8
1
62
256
6
ByLayer
370
18
48
1
60
0
100
AcDbEllipse
10
22.417409
20
14.198551
30
0
11
0.100637809057915
21
-0.171345986457863
31
0
210
0
220
0
230
-1
40
0.513732
41
3.13303646981938
42
-2.34279865631828
0
ELLIPSE
5
14F
100
AcDbEntity
8
1
62
256
6
ByLayer
370
18
48
1
60
0
100
AcDbEllipse
10
21.096998
20
13.393208
30
0
11
0.100637809057911
21
-0.171345986457867
31
0
210
0
220
0
230
-1
40
0.513732
41
1.65017170688683
42
3.13306684601697
0
ELLIPSE
5
150
100
AcDbEntity
8
1
62
256
6
ByLayer
370
18
48
1
60
0
100
AcDbEllipse
10
22.141476
20
14.47131
30
0
11
0.176407905069766
21
-0.0929851530013812
31
0
210
0
220
0
230
-1
40
0.510133
41
1.58720935410095
42
2.32934482093933
0
ELLIPSE
5
151
100
AcDbEntity
8
1
62
256
6
ByLayer
370
18
48
1
60
0
100
AcDbEllipse
10
21.096998
20
14.150972
30
0
11
0.102679256990859
21
0.177483158070643
31
0
210
0
220
0
230
-1
40
0.482501
41
-2.54847822606741
42
-0.0149533536195927
0
ELLIPSE
5
152
100
AcDbEntity
8
1
62
256
6
ByLayer
370
18
48
1
60
0
100
AcDbEllipse
10
21.757204
20
13.79588
30
0
11
-0.513481724388858
21
-0.443048257776334
31
0
210
0
220
0
230
1
40
0.964024
41
1.82162334288907
42
2.28970455997859
0
ELLIPSE
5
153
100
AcDbEntity
8
1
62
256
6
ByLayer
370
18
48
1
60
0
100
AcDbEllipse
10
21.757204
20
13.79588
30
0
11
0.513481724388857
21
0.443048257776335
31
0
210
0
220
0
230
1
40
0.964024
41
2.4477654245071
42
-3.14055543456139
0
ELLIPSE
5
154
100
AcDbEntity
8
1
62
256
6
ByLayer
370
18
48
1
60
0
100
AcDbEllipse
10
21.757204
20
13.79588
30
0
11
-0.513481724388858
21
-0.443048257776334
31
0
210
0
220
0
230
1
40
0.964024
41
2.89462356468536
42
-2.7882223314759
0
ELLIPSE
5
155
100
AcDbEntity
8
1
62
256
6
ByLayer
370
18
48
1
60
0
100
AcDbEllipse
10
21.757204
20
13.79588
30
0
11
-0.513481724388858
21
-0.443048257776334
31
0
210
0
220
0
230
1
40
0.964024
41
0.443052233645061
42
0.994581294804145
0
ELLIPSE
5
156
100
AcDbEntity
8
1
62
256
6
ByLayer
370
18
48
1
60
0
100
AcDbEllipse
10
21.757204
20
13.79588
30
0
11
-0.908549202693349
21
-0.783924962152169
31
0
210
0
220
0
230
1
40
0.964024
41
6.30491536525056E-05
42
0.710161021757862
0
ELLIPSE
5
157
100
AcDbEntity
8
1
62
256
6
ByLayer
370
18
48
1
60
0
100
AcDbEllipse
10
21.757204
20
13.79588
30
0
11
-0.908549202693349
21
-0.783924962152169
31
0
210
0
220
0
230
1
40
0.964024
41
2.41879464082838
42
3.14155761692472
0
ELLIPSE
5
158
100
AcDbEntity
8
1
62
256
6
ByLayer
370
18
48
1
60
0
100
AcDbEllipse
10
21.757204
20
14.553643
30
0
11
0.202716209761103
21
0.0096495471106706
31
0
210
0
220
0
230
-1
40
0.492533
41
-3.11816694059031
42
-1.13182918176951
0
ELLIPSE
5
159
100
AcDbEntity
8
1
62
256
6
ByLayer
370
18
48
1
60
0
100
AcDbEllipse
10
22.295513
20
-13.249835
30
0
11
-0.506951496248647
21
0.482700922364209
31
0
210
0
220
0
230
1
40
0.967774
41
0.777267548172203
42
0.981372252709245
0
ELLIPSE
5
15A
100
AcDbEntity
8
1
62
256
6
ByLayer
370
18
48
1
60
0
100
AcDbEllipse
10
22.295513
20
-13.249835
30
0
11
-0.506951496248647
21
0.482700922364209
31
0
210
0
220
0
230
1
40
0.967774
41
0.744477622499725
42
0.777267548172203
0
ELLIPSE
5
15B
100
AcDbEntity
8
1
62
256
6
ByLayer
370
18
48
1
60
0
100
AcDbEllipse
10
21.726624
20
7.82103
30
0
11
1.26300022500669
21
-0.300582164240783
31
0
210
0
220
0
230
1
40
0.661413
41
-2.98549446191778
42
-2.74565337300585
0
ELLIPSE
5
15C
100
AcDbEntity
8
1
62
256
6
ByLayer
370
18
48
1
60
0
100
AcDbEllipse
10
21.726624
20
7.82103
30
0
11
1.26300022500669
21
-0.300582164240783
31
0
210
0
220
0
230
1
40
0.661413
41
-0.396037099075873
42
-0.170530166259851
0
ELLIPSE
5
15D
100
AcDbEntity
8
1
62
256
6
ByLayer
370
18
48
1
60
0
100
AcDbEllipse
10
21.66099
20
7.545247
30
0
11
1.16739497942737
21
-0.277829015777288
31
0
210
0
220
0
230
1
40
0.661413
41
0
42
0.845873528434716
0
ELLIPSE
5
15E
100
AcDbEntity
8
1
62
256
6
ByLayer
370
18
48
1
60
0
100
AcDbEllipse
10
21.66099
20
7.545247
30
0
11
1.16739497942737
21
-0.277829015777288
31
0
210
0
220
0
230
1
40
0.661413
41
2.29581687192627
42
0
0
ELLIPSE
5
15F
100
AcDbEntity
8
1
62
256
6
ByLayer
370
18
48
1
60
0
100
AcDbEllipse
10
21.757204
20
7.949521
30
0
11
-0.659772729206367
21
0.157019698750131
31
0
210
0
220
0
230
1
40
0.661413
41
0.40459364958601
42
1.20332654319377
0
ELLIPSE
5
160
100
AcDbEntity
8
1
62
256
6
ByLayer
370
18
48
1
60
0
100
AcDbEllipse
10
21.757204
20
7.949521
30
0
11
0.659772729206367
21
-0.157019698750131
31
0
210
0
220
0
230
1
40
0.661413
41
-0.891068559199424
42
-0.295621517001339
0
ELLIPSE
5
161
100
AcDbEntity
8
1
62
256
6
ByLayer
370
18
48
1
60
0
100
AcDbEllipse
10
21.096998
20
7.775821
30
0
11
0.120617168159752
21
-0.122412829573707
31
0
210
0
220
0
230
-1
40
0.471267
41
0.263969673107011
42
1.71137689941763
0
ELLIPSE
5
162
100
AcDbEntity
8
1
62
256
6
ByLayer
370
18
48
1
60
0
100
AcDbEllipse
10
21.726624
20
13.831321
30
0
11
-0.982955955484938
21
-0.84812545970706
31
0
210
0
220
0
230
1
40
0.964024
41
-0.730062665808049
42
0
0
ELLIPSE
5
163
100
AcDbEntity
8
1
62
256
6
ByLayer
370
18
48
1
60
0
100
AcDbEllipse
10
21.726624
20
13.831321
30
0
11
-0.982955955484938
21
-0.84812545970706
31
0
210
0
220
0
230
1
40
0.964024
41
0
42
0.202195772226853
0
ELLIPSE
5
164
100
AcDbEntity
8
1
62
256
6
ByLayer
370
18
48
1
60
0
100
AcDbEllipse
10
21.726624
20
13.831321
30
0
11
-0.982955955484938
21
-0.84812545970706
31
0
210
0
220
0
230
1
40
0.964024
41
2.93940632630492
42
-1.89658442411549
0
ELLIPSE
5
165
100
AcDbEntity
8
1
62
256
6
ByLayer
370
18
48
1
60
0
100
AcDbEllipse
10
21.726624
20
13.831321
30
0
11
-0.982955955484938
21
-0.84812545970706
31
0
210
0
220
0
230
1
40
0.964024
41
-1.24509725511912
42
-0.73006345162879
0
ELLIPSE
5
166
100
AcDbEntity
8
1
62
256
6
ByLayer
370
18
48
1
60
0
100
AcDbEllipse
10
21.634303
20
13.938318
30
0
11
1.01110353206602
21
0.872412078241963
31
0
210
0
220
0
230
1
40
0.964024
41
0
42
6.28318530717959
0
ELLIPSE
5
167
100
AcDbEntity
8
1
62
256
6
ByLayer
370
18
48
1
60
0
100
AcDbEllipse
10
21.634303
20
7.433111
30
0
11
-1.29916704952912
21
0.309189528019052
31
0
210
0
220
0
230
1
40
0.661413
41
0
42
6.28318530717959
0
ELLIPSE
5
168
100
AcDbEntity
8
1
62
256
6
ByLayer
370
18
48
1
60
0
100
AcDbEllipse
10
22.141476
20
14.47131
30
0
11
0.176407905070068
21
-0.0929851530017485
31
0
210
0
220
0
230
-1
40
0.510133
41
0.262813407043978
42
1.58720935409898
0
ELLIPSE
5
169
100
AcDbEntity
8
1
62
256
6
ByLayer
370
18
48
1
60
0
100
AcDbEllipse
10
21.372932
20
14.443616
30
0
11
0.175217142187026
21
0.107748259020661
31
0
210
0
220
0
230
-1
40
0.479452
41
0.254018979191442
42
1.57841492624748
0
ELLIPSE
5
16A
100
AcDbEntity
8
1
62
256
6
ByLayer
370
18
48
1
60
0
100
AcDbEllipse
10
20.98866
20
13.768186
30
0
11
0.00241158189567553
21
0.201583742161976
31
0
210
0
220
0
230
-1
40
0.49914
41
0.222437377699737
42
1.54683332475601
0
ELLIPSE
5
16B
100
AcDbEntity
8
1
62
256
6
ByLayer
370
18
48
1
60
0
100
AcDbEllipse
10
21.372932
20
14.443616
30
0
11
0.175217142186878
21
0.107748259020703
31
0
210
0
220
0
230
-1
40
0.479452
41
1.57841492624869
42
2.90281087330512
0
ELLIPSE
5
16C
100
AcDbEntity
8
1
62
256
6
ByLayer
370
18
48
1
60
0
100
AcDbEllipse
10
20.98866
20
13.768186
30
0
11
0.00241158189555605
21
0.201583742161976
31
0
210
0
220
0
230
-1
40
0.49914
41
1.5468333247572
42
2.87122927181345
0
ELLIPSE
5
16D
100
AcDbEntity
8
1
62
256
6
ByLayer
370
18
48
1
60
0
100
AcDbEllipse
10
21.757204
20
13.79588
30
0
11
-0.513481724388858
21
-0.443048257776334
31
0
210
0
220
0
230
1
40
0.964024
41
-1.74102478027929
42
-0.693827229082699
0
ELLIPSE
5
16E
100
AcDbEntity
8
1
62
256
6
ByLayer
370
18
48
1
60
0
100
AcDbEllipse
10
21.757204
20
13.79588
30
0
11
-0.513481724388858
21
-0.443048257776334
31
0
210
0
220
0
230
1
40
0.964024
41
-2.7882223314759
42
-1.74102478027929
0
ELLIPSE
5
16F
100
AcDbEntity
8
1
62
256
6
ByLayer
370
18
48
1
60
0
100
AcDbEllipse
10
21.63565
20
13.936757
30
0
11
0.663468055266818
21
0.572461203611622
31
0
210
0
220
0
230
1
40
0.964024
41
2.97136420010538
42
-2.2646235558776
0
ELLIPSE
5
170
100
AcDbEntity
8
1
62
256
6
ByLayer
370
18
48
1
60
0
100
AcDbEllipse
10
21.63565
20
13.936757
30
0
11
0.663468055266818
21
0.572461203611622
31
0
210
0
220
0
230
1
40
0.964024
41
1.9241666489088
42
2.97136420010538
0
ELLIPSE
5
171
100
AcDbEntity
8
1
62
256
6
ByLayer
370
18
48
1
60
0
100
AcDbEllipse
10
21.63565
20
13.936757
30
0
11
0.663468055266818
21
0.572461203611622
31
0
210
0
220
0
230
1
40
0.964024
41
0.876969097712196
42
1.9241666489088
0
ELLIPSE
5
172
100
AcDbEntity
8
1
62
256
6
ByLayer
370
18
48
1
60
0
100
AcDbEllipse
10
21.63565
20
13.936757
30
0
11
0.663468055266818
21
0.572461203611622
31
0
210
0
220
0
230
1
40
0.964024
41
-1.217426004681
42
-0.1702284534844
0
ELLIPSE
5
173
100
AcDbEntity
8
1
62
256
6
ByLayer
370
18
48
1
60
0
100
AcDbEllipse
10
21.63565
20
13.936757
30
0
11
0.663468055266818
21
0.572461203611622
31
0
210
0
220
0
230
1
40
0.964024
41
-2.2646235558776
42
-1.217426004681
0
ELLIPSE
5
174
100
AcDbEntity
8
1
62
256
6
ByLayer
370
18
48
1
60
0
100
AcDbEllipse
10
21.63565
20
13.936757
30
0
11
0.663468055266818
21
0.572461203611622
31
0
210
0
220
0
230
1
40
0.964024
41
-0.1702284534844
42
0.876969097712196
0
ELLIPSE
5
175
100
AcDbEntity
8
1
62
256
6
ByLayer
370
18
48
1
60
0
100
AcDbEllipse
10
21.63565
20
13.936757
30
0
11
-0.681411902020012
21
-0.587943721614127
31
0
210
0
220
0
230
1
40
0.964024
41
0
42
6.28318530717959
0
ELLIPSE
5
176
100
AcDbEntity
8
1
62
256
6
ByLayer
370
18
48
1
60
0
100
AcDbEllipse
10
21.66099
20
13.907389
30
0
11
-0.908549202693349
21
-0.783924962152169
31
0
210
0
220
0
230
1
40
0.964024
41
0
42
6.28318530717959
0
ELLIPSE
5
177
100
AcDbEntity
8
1
62
256
6
ByLayer
370
18
48
1
60
0
100
AcDbEllipse
10
22.141476
20
7.44541
30
0
11
0.182223322565428
21
0.0315114812151938
31
0
210
0
220
0
230
-1
40
0.406982
41
-3.10402215372827
42
-1.77962620667157
0
ELLIPSE
5
178
100
AcDbEntity
8
1
62
256
6
ByLayer
370
18
48
1
60
0
100
AcDbEllipse
10
21.372932
20
7.545813
30
0
11
0.180211487415272
21
-0.0854277290936447
31
0
210
0
220
0
230
-1
40
0.349929
41
-1.45608779655486
42
-0.131691849501744
0
ELLIPSE
5
179
100
AcDbEntity
8
1
62
256
6
ByLayer
370
18
48
1
60
0
100
AcDbEllipse
10
21.757204
20
7.429623
30
0
11
0.202530075369168
21
-0.0298099680331828
31
0
210
0
220
0
230
-1
40
0.332118
41
-0.0488600866913104
42
3.09276294309611
0
ELLIPSE
5
17A
100
AcDbEntity
8
1
62
256
6
ByLayer
370
18
48
1
60
0
100
AcDbEllipse
10
21.757204
20
7.949521
30
0
11
0.659772729206367
21
-0.157019698750131
31
0
210
0
220
0
230
1
40
0.661413
41
-1.93826611039603
42
-0.891068559199424
0
ELLIPSE
5
17B
100
AcDbEntity
8
1
62
256
6
ByLayer
370
18
48
1
60
0
100
AcDbEllipse
10
22.141476
20
7.44541
30
0
11
0.182223322565614
21
0.031511481215327
31
0
210
0
220
0
230
-1
40
0.406982
41
-1.77962620667
42
-0.455230259614791
0
ELLIPSE
5
17C
100
AcDbEntity
8
1
62
256
6
ByLayer
370
18
48
1
60
0
100
AcDbEllipse
10
21.372932
20
7.545813
30
0
11
0.180211487414698
21
-0.0854277290937537
31
0
210
0
220
0
230
-1
40
0.349929
41
-2.78048374361561
42
-1.45608779656039
0
ELLIPSE
5
17D
100
AcDbEntity
8
1
62
256
6
ByLayer
370
18
48
1
60
0
100
AcDbEllipse
10
21.63565
20
7.438771
30
0
11
-0.852490183726835
21
0.202884638771365
31
0
210
0
220
0
230
1
40
0.661413
41
0.679727767595468
42
1.72692531879208
0
ELLIPSE
5
17E
100
AcDbEntity
8
1
62
256
6
ByLayer
370
18
48
1
60
0
100
AcDbEllipse
10
21.63565
20
7.438771
30
0
11
-0.852490183726835
21
0.202884638771365
31
0
210
0
220
0
230
1
40
0.661413
41
-0.367469783601121
42
0.679727767595468
0
ELLIPSE
5
17F
100
AcDbEntity
8
1
62
256
6
ByLayer
370
18
48
1
60
0
100
AcDbEllipse
10
21.63565
20
7.438771
30
0
11
-0.852490183726835
21
0.202884638771365
31
0
210
0
220
0
230
1
40
0.661413
41
-1.41466733479772
42
-0.367469783601121
0
ELLIPSE
5
180
100
AcDbEntity
8
1
62
256
6
ByLayer
370
18
48
1
60
0
100
AcDbEllipse
10
21.63565
20
7.438771
30
0
11
-0.852490183726835
21
0.202884638771365
31
0
210
0
220
0
230
1
40
0.661413
41
2.77412286998867
42
-2.46186488599432
0
ELLIPSE
5
181
100
AcDbEntity
8
1
62
256
6
ByLayer
370
18
48
1
60
0
100
AcDbEllipse
10
21.63565
20
7.438771
30
0
11
-0.852490183726835
21
0.202884638771365
31
0
210
0
220
0
230
1
40
0.661413
41
1.72692531879208
42
2.77412286998867
0
ELLIPSE
5
182
100
AcDbEntity
8
1
62
256
6
ByLayer
370
18
48
1
60
0
100
AcDbEllipse
10
21.63565
20
7.438771
30
0
11
-0.852490183726835
21
0.202884638771365
31
0
210
0
220
0
230
1
40
0.661413
41
-2.46186488599432
42
-1.41466733479772
0
ELLIPSE
5
183
100
AcDbEntity
8
1
62
256
6
ByLayer
370
18
48
1
60
0
100
AcDbEllipse
10
21.63565
20
7.438771
30
0
11
0.875546234570526
21
-0.208371761832966
31
0
210
0
220
0
230
1
40
0.661413
41
0
42
6.28318530717959
0
POINT
5
6C
100
AcDbEntity
8
81
62
256
6
ByLayer
370
18
48
1
60
0
100
AcDbPoint
10
25
20
16
30
0
39
0
210
0
220
0
230
1
50
360
0
POINT
5
6E
100
AcDbEntity
8
80
62
256
6
ByLayer
370
18
48
1
60
0
100
AcDbPoint
10
0
20
0
30
0
39
0
210
0
220
0
230
1
50
360
0
POINT
5
70
100
AcDbEntity
8
2
62
256
6
ByLayer
370
18
48
1
60
0
100
AcDbPoint
10
21.590891
20
13.988632
30
0
39
0
210
0
220
0
230
1
50
360
0
SPLINE
5
184
100
AcDbEntity
8
1
62
256
6
ByLayer
370
18
48
1
60
0
100
AcDbSpline
70
4
71
1
72
4
73
2
40
0
40
0
40
1
40
1
41
1
10
11.6626505283879
20
12.6993478141366
30
0
41
1
10
11.2573543320028
20
12.3464183639465
30
0
0
SPLINE
5
185
100
AcDbEntity
8
1
62
256
6
ByLayer
370
18
48
1
60
0
100
AcDbSpline
70
4
71
1
72
4
73
2
40
0
40
0
40
1
40
1
41
1
10
11.2573543320028
20
-12.3464183639465
30
0
41
1
10
11.6466695435574
20
-12.6855653192638
30
0
0
SPLINE
5
186
100
AcDbEntity
8
1
62
256
6
ByLayer
370
18
48
1
60
0
100
AcDbSpline
70
4
71
2
72
6
73
3
40
0
40
0
40
0
40
1
40
1
40
1
41
1
10
24.3973536471004
20
-9.80320259904641
30
0
41
1
10
24.6083398481238
20
-9.17158566768188
30
0
41
1
10
24.8227166488952
20
-8.5427561394159
30
0
0
SPLINE
5
187
100
AcDbEntity
8
1
62
256
6
ByLayer
370
18
48
1
60
0
100
AcDbSpline
70
4
71
1
72
4
73
2
40
0
40
0
40
1
40
1
41
1
10
24.8226654140436
20
-8.54289676282463
30
0
41
1
10
24.9768359263872
20
-8.09610805951718
30
0
0
SPLINE
5
188
100
AcDbEntity
8
1
62
256
6
ByLayer
370
18
48
1
60
0
100
AcDbSpline
70
4
71
1
72
4
73
2
40
0
40
0
40
1
40
1
41
1
10
22.7652613229124
20
12.0199779773763
30
0
41
1
10
22.7811266516553
20
12.0202019859257
30
0
0
SPLINE
5
189
100
AcDbEntity
8
1
62
256
6
ByLayer
370
18
48
1
60
0
100
AcDbSpline
70
4
71
1
72
4
73
2
40
0
40
0
40
1
40
1
41
1
10
24.9773262056411
20
7.88768957736539
30
0
41
1
10
24.8231196984787
20
8.34128920347675
30
0
0
SPLINE
5
18A
100
AcDbEntity
8
1
62
256
6
ByLayer
370
18
48
1
60
0
100
AcDbSpline
70
4
71
2
72
6
73
3
40
0
40
0
40
0
40
1
40
1
40
1
41
1
10
24.8232119935305
20
8.34103508603985
30
0
41
1
10
24.6087482822039
20
8.9811600735398
30
0
41
1
10
24.3976919280574
20
9.62397772503064
30
0
0
SPLINE
5
18B
100
AcDbEntity
8
1
62
256
6
ByLayer
370
18
48
1
60
0
100
AcDbSpline
70
4
71
2
72
6
73
3
40
0
40
0
40
0
40
1
40
1
40
1
41
1
10
19.2993530580946
20
9.23438722732857
30
0
41
1
10
19.0582097324126
20
9.0458906542035
30
0
41
1
10
18.8130572443987
20
8.87323908063925
30
0
0
SPLINE
5
18C
100
AcDbEntity
8
1
62
256
6
ByLayer
370
18
48
1
60
0
100
AcDbSpline
70
4
71
1
72
4
73
2
40
0
40
0
40
1
40
1
41
1
10
20.1594097400877
20
10.2518910659833
30
0
41
1
10
19.2749279971591
20
9.21571559949754
30
0
0
SPLINE
5
18D
100
AcDbEntity
8
1
62
256
6
ByLayer
370
18
48
1
60
0
100
AcDbSpline
70
4
71
2
72
6
73
3
40
0
40
0
40
0
40
1
40
1
40
1
41
1
10
24.4505608053524
20
-5.31967032449793
30
0
41
1
10
24.4271698315928
20
-5.20840920790653
30
0
41
1
10
24.4040095596853
20
-5.09751623284475
30
0
0
SPLINE
5
18E
100
AcDbEntity
8
1
62
256
6
ByLayer
370
18
48
1
60
0
100
AcDbSpline
70
4
71
2
72
6
73
3
40
0
40
0
40
0
40
1
40
1
40
1
41
1
10
24.9411751720817
20
-7.44546792004502
30
0
41
1
10
24.8725172137028
20
-7.2100400959506
30
0
41
1
10
24.7895198901662
20
-6.89794178984721
30
0
0
SPLINE
5
18F
100
AcDbEntity
8
1
62
256
6
ByLayer
370
18
48
1
60
0
100
AcDbSpline
70
4
71
2
72
6
73
3
40
0
40
0
40
0
40
1
40
1
40
1
41
1
10
24.4039128215029
20
5.20337789582899
30
0
41
1
10
24.4758342514639
20
5.54673604272057
30
0
41
1
10
24.5499980175452
20
5.89375161669491
30
0
0
SPLINE
5
190
100
AcDbEntity
8
1
62
256
6
ByLayer
370
18
48
1
60
0
100
AcDbSpline
70
4
71
3
72
36
73
32
40
0
40
0
40
0
40
0
40
0.0625
40
0.0625
40
0.125
40
0.125
40
0.1875
40
0.1875
40
0.25
40
0.25
40
0.3125
40
0.3125
40
0.375
40
0.375
40
0.4375
40
0.4375
40
0.5
40
0.5
40
0.5625
40
0.5625
40
0.625
40
0.625
40
0.6875
40
0.6875
40
0.75
40
0.75
40
0.8125
40
0.8125
40
0.875
40
0.875
40
1
40
1
40
1
40
1
41
1
10
21.4302691520127
20
-14.3852700040694
30
0
41
1
10
21.4190515152956
20
-14.4081101007834
30
0
41
1
10
21.4140066610598
20
-14.430719639276
30
0
41
1
10
21.4165205936037
20
-14.4754382360403
30
0
41
1
10
21.424229311449
20
-14.497399875341
30
0
41
1
10
21.4518191429983
20
-14.5389867898267
30
0
41
1
10
21.4716879076999
20
-14.5588508670974
30
0
41
1
10
21.5242026756449
20
-14.5967684153063
30
0
41
1
10
21.5560037257806
20
-14.6142058070404
30
0
41
1
10
21.6301899276123
20
-14.6462769867346
30
0
41
1
10
21.6731260868544
20
-14.6610579674363
30
0
41
1
10
21.767679277149
20
-14.6871449455419
30
0
41
1
10
21.8189000074636
20
-14.6984173016147
30
0
41
1
10
21.9291571873104
20
-14.7176844677442
30
0
41
1
10
21.9886930752981
20
-14.7256897372669
30
0
41
1
10
22.1107036111419
20
-14.7378549706347
30
0
41
1
10
22.1736882124806
20
-14.742134670935
30
0
41
1
10
22.3037063751121
20
-14.7471341102241
30
0
41
1
10
22.3698298505463
20
-14.7477854834134
30
0
41
1
10
22.5006659400403
20
-14.7454948631421
30
0
41
1
10
22.5663991258951
20
-14.7425401569924
30
0
41
1
10
22.6954156415667
20
-14.7329863382381
30
0
41
1
10
22.7575980222732
20
-14.7264969755966
30
0
41
1
10
22.8774329408876
20
-14.7100441479622
30
0
41
1
10
22.9356106544734
20
-14.6999395454827
30
0
41
1
10
23.0428577511152
20
-14.676733218249
30
0
41
1
10
23.0923491477569
20
-14.6636177909918
30
0
41
1
10
23.1830189490447
20
-14.6341096744218
30
0
41
1
10
23.2238808635642
20
-14.6177389069489
30
0
41
1
10
23.3286243748925
20
-14.5654418683741
30
0
41
1
10
23.3770978436155
20
-14.5251201079694
30
0
41
1
10
23.399884658037
20
-14.4816803976176
30
0
0
SPLINE
5
191
100
AcDbEntity
8
1
62
256
6
ByLayer
370
18
48
1
60
0
100
AcDbSpline
70
4
71
3
72
8
73
4
40
0
40
0
40
0
40
0
40
1
40
1
40
1
40
1
41
1
10
18.89470893468
20
6.23778822969149
30
0
41
1
10
18.899821444707
20
6.24041087916487
30
0
41
1
10
18.9049151215415
20
6.24306857679608
30
0
41
1
10
18.9099891643796
20
6.24576080067425
30
0
0
SPLINE
5
192
100
AcDbEntity
8
1
62
256
6
ByLayer
370
18
48
1
60
0
100
AcDbSpline
70
4
71
3
72
8
73
4
40
0
40
0
40
0
40
0
40
1
40
1
40
1
40
1
41
1
10
24.3711852350395
20
-5.3995643505684
30
0
41
1
10
24.3711852350395
20
-5.40722290027907
30
0
41
1
10
24.3697875267902
20
-5.4149081988264
30
0
41
1
10
24.3669918917689
20
-5.42263642384629
30
0
0
SPLINE
5
193
100
AcDbEntity
8
1
62
256
6
ByLayer
370
18
48
1
60
0
100
AcDbSpline
70
4
71
3
72
34
73
30
40
0
40
0
40
0
40
0
40
0.0624999999999993
40
0.0624999999999993
40
0.124999999999999
40
0.124999999999999
40
0.187499999999998
40
0.187499999999998
40
0.249999999999997
40
0.249999999999997
40
0.375000000000001
40
0.375000000000001
40
0.500000000000004
40
0.500000000000004
40
0.562500000000004
40
0.562500000000004
40
0.625000000000003
40
0.625000000000003
40
0.687500000000003
40
0.687500000000003
40
0.750000000000002
40
0.750000000000002
40
0.812500000000002
40
0.812500000000002
40
0.875000000000001
40
0.875000000000001
40
0.937500000000001
40
0.937500000000001
40
1
40
1
40
1
40
1
41
1
10
20.815366708261
20
-5.01680844682249
30
0
41
1
10
20.7955947877569
20
-4.98045932984971
30
0
41
1
10
20.771971594598
20
-4.94531053041121
30
0
41
1
10
20.7192111961476
20
-4.88057898101661
30
0
41
1
10
20.6899042477814
20
-4.85060329903956
30
0
41
1
10
20.6253672267453
20
-4.79552114106804
30
0
41
1
10
20.5902336060078
20
-4.77061314615804
30
0
41
1
10
20.5167774221999
20
-4.72767703680776
30
0
41
1
10
20.4781457250265
20
-4.70936708470404
30
0
41
1
10
20.3563861050674
20
-4.66420571360962
30
0
41
1
10
20.2711438259211
20
-4.64835963382365
30
0
41
1
10
20.0961179134127
20
-4.64619035292142
30
0
41
1
10
20.01041028361
20
-4.65990224903425
30
0
41
1
10
19.8870592036228
20
-4.70205534151006
30
0
41
1
10
19.8477999603551
20
-4.71940791111717
30
0
41
1
10
19.7728863544643
20
-4.76049845935211
30
0
41
1
10
19.7369289367467
20
-4.78449264523843
30
0
41
1
10
19.6703875761172
20
-4.8380001111646
30
0
41
1
10
19.6400147718351
20
-4.86724126222825
30
0
41
1
10
19.5849579238178
20
-4.93057685469404
30
0
41
1
10
19.5600718953453
20
-4.96506365650564
30
0
41
1
10
19.517728863632
20
-5.03688142187491
30
0
41
1
10
19.5001649300697
20
-5.07418405883314
30
0
41
1
10
19.472203063547
20
-5.15153433828013
30
0
41
1
10
19.4617995604346
20
-5.19194863712005
30
0
41
1
10
19.4491269414912
20
-5.2725679133307
30
0
41
1
10
19.446694290714
20
-5.3130357074304
30
0
41
1
10
19.4496800367686
20
-5.39428571984877
30
0
41
1
10
19.4552173174391
20
-5.43518484307415
30
0
41
1
10
19.4645312689899
20
-5.47461137512343
30
0
0
SPLINE
5
194
100
AcDbEntity
8
1
62
256
6
ByLayer
370
18
48
1
60
0
100
AcDbSpline
70
4
71
3
72
8
73
4
40
0
40
0
40
0
40
0
40
1
40
1
40
1
40
1
41
1
10
24.2294059824663
20
-8.62318199684941
30
0
41
1
10
24.2560962088926
20
-8.66870745261815
30
0
41
1
10
24.2827904701724
20
-8.715447590824
30
0
41
1
10
24.3094877201526
20
-8.76310284824396
30
0
0
SPLINE
5
195
100
AcDbEntity
8
1
62
256
6
ByLayer
370
18
48
1
60
0
100
AcDbSpline
70
4
71
3
72
10
73
6
40
0
40
0
40
0
40
0
40
0.5
40
0.5
40
1
40
1
40
1
40
1
41
1
10
19.6646993713993
20
-5.58051272082093
30
0
41
1
10
19.6199685849754
20
-5.56487236804435
30
0
41
1
10
19.5795099270313
20
-5.54872436416954
30
0
41
1
10
19.5114696414303
20
-5.51386710580158
30
0
41
1
10
19.484258766607
20
-5.49547757136784
30
0
41
1
10
19.464531268992
20
-5.47461137512289
30
0
0
SPLINE
5
196
100
AcDbEntity
8
1
62
256
6
ByLayer
370
18
48
1
60
0
100
AcDbSpline
70
4
71
3
72
8
73
4
40
0
40
0
40
0
40
0
40
1
40
1
40
1
40
1
41
1
10
17.026314502058
20
-0.948077783491556
30
0
41
1
10
16.8172741602288
20
-0.94606985898335
30
0
41
1
10
16.6084986602373
20
-0.934329406927503
30
0
41
1
10
16.4
20
-0.91241116361968
30
0
0
SPLINE
5
197
100
AcDbEntity
8
1
62
256
6
ByLayer
370
18
48
1
60
0
100
AcDbSpline
70
4
71
3
72
8
73
4
40
0
40
0
40
0
40
0
40
1
40
1
40
1
40
1
41
1
10
17.026314502058
20
12.5833162132049
30
0
41
1
10
16.8172741602289
20
12.5844407029335
30
0
41
1
10
16.6084986602373
20
12.5910239854578
30
0
41
1
10
16.4
20
12.6032540847759
30
0
0
SPLINE
5
198
100
AcDbEntity
8
1
62
256
6
ByLayer
370
18
48
1
60
0
100
AcDbSpline
70
4
71
3
72
32
73
28
40
0
40
0
40
0
40
0
40
0.125000000000001
40
0.125000000000001
40
0.187500000000001
40
0.187500000000001
40
0.25
40
0.25
40
0.3125
40
0.3125
40
0.375
40
0.375
40
0.4375
40
0.4375
40
0.499999999999999
40
0.499999999999999
40
0.562499999999999
40
0.562499999999999
40
0.624999999999999
40
0.624999999999999
40
0.749999999999999
40
0.749999999999999
40
0.875
40
0.875
40
0.9375
40
0.9375
40
1
40
1
40
1
40
1
41
1
10
21.8805698213239
20
-11.836469713553
30
0
41
1
10
21.9414689225134
20
-11.76830572887
30
0
41
1
10
22.0095304274739
20
-11.7089607341573
30
0
41
1
10
22.1225170355024
20
-11.6332414546127
30
0
41
1
10
22.1623372900777
20
-11.6101238576523
30
0
41
1
10
22.2436718896938
20
-11.5699094848326
30
0
41
1
10
22.2853172931177
20
-11.5526717948372
30
0
41
1
10
22.3705801473055
20
-11.5240403376187
30
0
41
1
10
22.4141969439655
20
-11.5126445927999
30
0
41
1
10
22.5035411540772
20
-11.4961529973492
30
0
41
1
10
22.5486565968625
20
-11.4912217613169
30
0
41
1
10
22.6378136787707
20
-11.488096745637
30
0
41
1
10
22.6821534371045
20
-11.4898446971951
30
0
41
1
10
22.7703545259419
20
-11.5000274094039
30
0
41
1
10
22.8144855490961
20
-11.5085826331885
30
0
41
1
10
22.8994114365751
20
-11.5318248054409
30
0
41
1
10
22.9405311228693
20
-11.5465067965355
30
0
41
1
10
23.0202753394145
20
-11.5817446406986
30
0
41
1
10
23.059156281616
20
-11.6024811689744
30
0
41
1
10
23.1697563597488
20
-11.6720156677979
30
0
41
1
10
23.2359235438705
20
-11.7279936298761
30
0
41
1
10
23.3540689453155
20
-11.8577526798869
30
0
41
1
10
23.4040735494851
20
-11.9292963934892
30
0
41
1
10
23.4665658952164
20
-12.0464991116306
30
0
41
1
10
23.4853302822543
20
-12.0874350359799
30
0
41
1
10
23.5177731898174
20
-12.1711623441063
30
0
41
1
10
23.5315520925352
20
-12.2140929334906
30
0
41
1
10
23.5428287711155
20
-12.2581363994369
30
0
0
SPLINE
5
199
100
AcDbEntity
8
1
62
256
6
ByLayer
370
18
48
1
60
0
100
AcDbSpline
70
4
71
3
72
16
73
12
40
0
40
0
40
0
40
0
40
0.125000000000001
40
0.125000000000001
40
0.250000000000001
40
0.250000000000001
40
0.500000000000001
40
0.500000000000001
40
0.75
40
0.75
40
1
40
1
40
1
40
1
41
1
10
2.19999999999999
20
-6.81248853210045
30
0
41
1
10
2.18088891185283
20
-6.81248853210045
30
0
41
1
10
2.16201780603979
20
-6.80829864379717
30
0
41
1
10
2.12825819301281
20
-6.79412855322335
30
0
41
1
10
2.11309782862554
20
-6.78418939865395
30
0
41
1
10
2.07370093595904
20
-6.7505006079011
30
0
41
1
10
2.05451617127511
20
-6.72264113825187
30
0
41
1
10
2.02569734508626
20
-6.66488544188232
30
0
41
1
10
2.01577536745003
20
-6.63404807241025
30
0
41
1
10
2.0029802175697
20
-6.57216708582919
30
0
41
1
10
2
20
-6.54086250819924
30
0
41
1
10
2
20
-6.50922422412992
30
0
0
SPLINE
5
19A
100
AcDbEntity
8
1
62
256
6
ByLayer
370
18
48
1
60
0
100
AcDbSpline
70
4
71
3
72
10
73
6
40
0
40
0
40
0
40
0
40
0.5
40
0.5
40
1
40
1
40
1
40
1
41
1
10
20.7012519831102
20
-14.0042770928481
30
0
41
1
10
20.8281187940591
20
-14.041278818242
30
0
41
1
10
20.9609791747229
20
-14.0725539439169
30
0
41
1
10
21.2385910620056
20
-14.1247683142954
30
0
41
1
10
21.3837994482265
20
-14.1457572182304
30
0
41
1
10
21.5343749987048
20
-14.1615462105974
30
0
0
SPLINE
5
19B
100
AcDbEntity
8
1
62
256
6
ByLayer
370
18
48
1
60
0
100
AcDbSpline
70
4
71
3
72
8
73
4
40
0
40
0
40
0
40
0
40
1
40
1
40
1
40
1
41
1
10
21.6087376940345
20
-0.874921424662517
30
0
41
1
10
21.6130260551438
20
-0.821971241397506
30
0
41
1
10
21.6294770552117
20
-0.773022955263116
30
0
41
1
10
21.6584378948677
20
-0.727711848059641
30
0
0
SPLINE
5
19C
100
AcDbEntity
8
1
62
256
6
ByLayer
370
18
48
1
60
0
100
AcDbSpline
70
4
71
3
72
34
73
30
40
0
40
0
40
0
40
0
40
0.0624999999999997
40
0.0624999999999997
40
0.124999999999999
40
0.124999999999999
40
0.187499999999999
40
0.187499999999999
40
0.249999999999999
40
0.249999999999999
40
0.374999999999999
40
0.374999999999999
40
0.5
40
0.5
40
0.5625
40
0.5625
40
0.625
40
0.625
40
0.6875
40
0.6875
40
0.75
40
0.75
40
0.8125
40
0.8125
40
0.875
40
0.875
40
0.9375
40
0.9375
40
1
40
1
40
1
40
1
41
1
10
20.815366708261
20
10.2878051864008
30
0
41
1
10
20.7955976462112
20
10.3165961284759
30
0
41
1
10
20.7719783690008
20
10.3443492005231
30
0
41
1
10
20.7192273043092
20
10.395363291742
30
0
41
1
10
20.6899258461634
20
10.4189358965391
30
0
41
1
10
20.6254016081114
20
10.4622318101105
30
0
41
1
10
20.590274418952
20
10.4818001346295
30
0
41
1
10
20.5168321840612
20
10.5155949255519
30
0
41
1
10
20.4782079880531
20
10.5300425899768
30
0
41
1
10
20.3564728085904
20
10.5659185308186
30
0
41
1
10
20.2712424981575
20
10.578909940049
30
0
41
1
10
20.0962469715442
20
10.5825113603447
30
0
41
1
10
20.010549731138
20
10.5730506981986
30
0
41
1
10
19.8872034875973
20
10.5422294103258
30
0
41
1
10
19.8479454926061
20
10.5293951296167
30
0
41
1
10
19.7730332605292
20
10.4987075096707
30
0
41
1
10
19.7370768913914
20
10.4806607730456
30
0
41
1
10
19.6705282574462
20
10.440101870557
30
0
41
1
10
19.6401512671007
20
10.4178001924095
30
0
41
1
10
19.5850841403742
20
10.3691613360759
30
0
41
1
10
19.5601916746528
20
10.3425183058917
30
0
41
1
10
19.5178295273006
20
10.2866484683275
30
0
41
1
10
19.5002553514827
20
10.25745077537
30
0
41
1
10
19.4722703756548
20
10.1964989282712
30
0
41
1
10
19.4618530974097
20
10.1644479193851
30
0
41
1
10
19.4491504493875
20
10.10007523007
30
0
41
1
10
19.4467020124816
20
10.0675523538994
30
0
41
1
10
19.4496530022652
20
10.0018228627586
30
0
41
1
10
19.4551483522585
20
9.96852832658902
30
0
41
1
10
19.4645312689919
20
9.93596845288809
30
0
0
SPLINE
5
19D
100
AcDbEntity
8
1
62
256
6
ByLayer
370
18
48
1
60
0
100
AcDbSpline
70
4
71
3
72
8
73
4
40
0
40
0
40
0
40
0
40
1
40
1
40
1
40
1
41
1
10
11.6115225656981
20
-12.6304762502087
30
0
41
1
10
11.60663135822
20
-12.6649460017195
30
0
41
1
10
11.6441962061432
20
-12.6914357129353
30
0
41
1
10
11.7283247019223
20
-12.7156067283402
30
0
0
SPLINE
5
19E
100
AcDbEntity
8
1
62
256
6
ByLayer
370
18
48
1
60
0
100
AcDbSpline
70
4
71
3
72
8
73
4
40
0
40
0
40
0
40
0
40
1
40
1
40
1
40
1
41
1
10
17.5746718381257
20
9.08040781423591
30
0
41
1
10
17.524823253697
20
9.08237580596864
30
0
41
1
10
17.4747557890872
20
9.08693563545182
30
0
41
1
10
17.4244713310919
20
9.09406496047006
30
0
0
SPLINE
5
19F
100
AcDbEntity
8
1
62
256
6
ByLayer
370
18
48
1
60
0
100
AcDbSpline
70
4
71
3
72
28
73
24
40
0
40
0
40
0
40
0
40
0.143613267672368
40
0.143613267672368
40
0.287226535344736
40
0.287226535344736
40
0.35903316918092
40
0.35903316918092
40
0.430839803017104
40
0.430839803017104
40
0.502646436853288
40
0.502646436853288
40
0.574453070689472
40
0.574453070689472
40
0.718066338361843
40
0.718066338361843
40
0.789872972198032
40
0.789872972198032
40
0.86167960603422
40
0.86167960603422
40
0.933486239870409
40
0.933486239870409
40
1
40
1
40
1
40
1
41
1
10
19.6695210203921
20
9.6708205069217
30
0
41
1
10
19.6296129099039
20
9.71022794904127
30
0
41
1
10
19.5974446164703
20
9.7551647295187
30
0
41
1
10
19.5543415757663
20
9.84764268133239
30
0
41
1
10
19.5428960072127
20
9.89622335606171
30
0
41
1
10
19.5424198480984
20
9.96602135800157
30
0
41
1
10
19.5450255266292
20
9.98924281919022
30
0
41
1
10
19.5556069623573
20
10.0335979561206
30
0
41
1
10
19.5635135105308
20
10.0547868501764
30
0
41
1
10
19.5845264174147
20
10.0952127572813
30
0
41
1
10
19.5978009759979
20
10.1145690500096
30
0
41
1
10
19.6285150266614
20
10.149700701746
30
0
41
1
10
19.6460189632126
20
10.1656878765112
30
0
41
1
10
19.7049354267501
20
10.2090411203448
30
0
41
1
10
19.7536640959792
20
10.2318072954849
30
0
41
1
10
19.8330185642143
20
10.2533675100981
30
0
41
1
10
19.8604904916758
20
10.2585716997949
30
0
41
1
10
19.9174714015628
20
10.2651568744912
30
0
41
1
10
19.9472222048134
20
10.2665029691168
30
0
41
1
10
20.0065365902581
20
10.2653151323326
30
0
41
1
10
20.036326547533
20
10.2628359523536
30
0
41
1
10
20.0939794631198
20
10.2545394340871
30
0
41
1
10
20.1219807369789
20
10.2489130019862
30
0
41
1
10
20.1492127500559
20
10.2419067826486
30
0
0
SPLINE
5
1A0
100
AcDbEntity
8
1
62
256
6
ByLayer
370
18
48
1
60
0
100
AcDbSpline
70
4
71
3
72
32
73
28
40
0
40
0
40
0
40
0
40
0.0689016706187673
40
0.0689016706187673
40
0.137803341237535
40
0.137803341237535
40
0.206705011856302
40
0.206705011856302
40
0.275606682475069
40
0.275606682475069
40
0.413410023712604
40
0.413410023712604
40
0.551213364950139
40
0.551213364950139
40
0.620115035568909
40
0.620115035568909
40
0.689016706187679
40
0.689016706187679
40
0.757918376806449
40
0.757918376806449
40
0.826820047425219
40
0.826820047425219
40
0.895721718043989
40
0.895721718043989
40
0.964623388662759
40
0.964623388662759
40
1
40
1
40
1
40
1
41
1
10
20.815366708261
20
-15.1169959841797
30
0
41
1
10
20.7955946362996
20
-15.1102173700624
30
0
41
1
10
20.7719712356477
20
-15.1035757078016
30
0
41
1
10
20.7192103426277
20
-15.0912468215676
30
0
41
1
10
20.6899031033482
20
-15.0854867430609
30
0
41
1
10
20.6253654049667
20
-15.0748814439576
30
0
41
1
10
20.5902314434565
20
-15.0700749518118
30
0
41
1
10
20.5167745205289
20
-15.0618514326842
30
0
41
1
10
20.4781424258849
20
-15.0583797261255
30
0
41
1
10
20.3563815108647
20
-15.0500537366904
30
0
41
1
10
20.2711385976338
20
-15.0475283507892
30
0
41
1
10
20.0961110750541
20
-15.0489772886702
30
0
41
1
10
20.0104028952517
20
-15.0529149202075
30
0
41
1
10
19.8870515590732
20
-15.0633109992118
30
0
41
1
10
19.8477922496952
20
-15.0674461177782
30
0
41
1
10
19.7728785710943
20
-15.0769446457556
30
0
41
1
10
19.7369210982379
20
-15.0823645561229
30
0
41
1
10
19.6703801230803
20
-15.0941439504789
30
0
41
1
10
19.640007540661
20
-15.1004456377683
30
0
41
1
10
19.58495123744
20
-15.1137629008726
30
0
41
1
10
19.5600655505152
20
-15.1208563834232
30
0
41
1
10
19.5177235317932
20
-15.1352497479091
30
0
41
1
10
19.5001601410206
20
-15.1425482840044
30
0
41
1
10
19.4721994992405
20
-15.1572764894046
30
0
41
1
10
19.4617967263482
20
-15.1647695780199
30
0
41
1
10
19.4522083304332
20
-15.1757553290134
30
0
41
1
10
19.449984528844
20
-15.1794346457031
30
0
41
1
10
19.4487927730919
20
-15.1830654921582
30
0
0
SPLINE
5
1A1
100
AcDbEntity
8
1
62
256
6
ByLayer
370
18
48
1
60
0
100
AcDbSpline
70
4
71
3
72
8
73
4
40
0
40
0
40
0
40
0
40
1
40
1
40
1
40
1
41
1
10
19.4516634879425
20
-15.201074829943
30
0
41
1
10
19.4544722353285
20
-15.2052227112019
30
0
41
1
10
19.4587830548317
20
-15.209264280863
30
0
41
1
10
19.4645312689897
20
-15.2131345143864
30
0
0
SPLINE
5
1A2
100
AcDbEntity
8
1
62
256
6
ByLayer
370
18
48
1
60
0
100
AcDbSpline
70
4
71
3
72
8
73
4
40
0
40
0
40
0
40
0
40
1
40
1
40
1
40
1
41
1
10
19.0363100025223
20
-14.0253053279089
30
0
41
1
10
18.9814964010766
20
-14.0259975563508
30
0
41
1
10
18.9274355785545
20
-14.0205295051464
30
0
41
1
10
18.8740947001456
20
-14.0091698741854
30
0
0
SPLINE
5
1A3
100
AcDbEntity
8
1
62
256
6
ByLayer
370
18
48
1
60
0
100
AcDbSpline
70
4
71
3
72
12
73
8
40
0
40
0
40
0
40
0
40
0.525522863158298
40
0.525522863158298
40
0.788284294737449
40
0.788284294737449
40
1
40
1
40
1
40
1
41
1
10
12.4312715593579
20
13.1906580616493
30
0
41
1
10
12.3277707028425
20
13.1061514984521
30
0
41
1
10
12.2278692862639
20
13.0262571905046
30
0
41
1
10
12.0843751839202
20
12.9151739671903
30
0
41
1
10
12.0374309407896
20
12.8794892343376
30
0
41
1
10
11.9577412743681
20
12.8202121725906
30
0
41
1
10
11.9237641418284
20
12.7954230459687
30
0
41
1
10
11.8915442246859
20
12.7724371454093
30
0
0
SPLINE
5
1A4
100
AcDbEntity
8
1
62
256
6
ByLayer
370
18
48
1
60
0
100
AcDbSpline
70
4
71
3
72
8
73
4
40
0
40
0
40
0
40
0
40
1
40
1
40
1
40
1
41
1
10
21.0767455445771
20
12.5958967226489
30
0
41
1
10
21.2244506256254
20
12.5511172350945
30
0
41
1
10
21.3770131138325
20
12.5141008615021
30
0
41
1
10
21.5343749987049
20
12.4851563330617
30
0
0
SPLINE
5
1A5
100
AcDbEntity
8
1
62
256
6
ByLayer
370
18
48
1
60
0
100
AcDbSpline
70
4
71
3
72
8
73
4
40
0
40
0
40
0
40
0
40
1
40
1
40
1
40
1
41
1
10
24.2841620991728
20
1.27212157997837
30
0
41
1
10
24.2925964751631
20
1.28866339850865
30
0
41
1
10
24.3010383875
20
1.30520492270233
30
0
41
1
10
24.3094877201525
20
1.32174615312758
30
0
0
SPLINE
5
1A6
100
AcDbEntity
8
1
62
256
6
ByLayer
370
18
48
1
60
0
100
AcDbSpline
70
4
71
2
72
6
73
3
40
0
40
0
40
0
40
1
40
1
40
1
41
0.500001919130675
10
21.5343749987047
20
-1.79322409392531
30
0
41
0.499998080869325
10
21.5715352498695
20
-1.33427551967168
30
0
41
0.500001919130675
10
21.6087376940345
20
-0.874921424662538
30
0
0
SPLINE
5
1A7
100
AcDbEntity
8
1
62
256
6
ByLayer
370
18
48
1
60
0
100
AcDbSpline
70
4
71
3
72
8
73
4
40
0
40
0
40
0
40
0
40
1
40
1
40
1
40
1
41
1
10
17.5746718381257
20
15.0939935595255
30
0
41
1
10
17.524823253697
20
15.0855739715558
30
0
41
1
10
17.4747557890872
20
15.0808824808783
30
0
41
1
10
17.424471331092
20
15.0798869504688
30
0
0
SPLINE
5
1A8
100
AcDbEntity
8
1
62
256
6
ByLayer
370
18
48
1
60
0
100
AcDbSpline
70
4
71
3
72
8
73
4
40
0
40
0
40
0
40
0
40
1
40
1
40
1
40
1
41
1
10
17.4244713310926
20
12.5811743240207
30
0
41
1
10
17.4752521136991
20
12.5809011372558
30
0
41
1
10
17.5253062344398
20
12.5813157616045
30
0
41
1
10
17.5746718381263
20
12.5823820916559
30
0
0
SPLINE
5
1A9
100
AcDbEntity
8
1
62
256
6
ByLayer
370
18
48
1
60
0
100
AcDbSpline
70
4
71
3
72
16
73
12
40
0
40
0
40
0
40
0
40
0.125000000000006
40
0.125000000000006
40
0.250000000000012
40
0.250000000000012
40
0.500000000000008
40
0.500000000000008
40
0.750000000000004
40
0.750000000000004
40
1
40
1
40
1
40
1
41
1
10
8.30000000000001
20
6.81248853210045
30
0
41
1
10
8.31907309481551
20
6.81248853210045
30
0
41
1
10
8.33792263291355
20
6.80831255382992
30
0
41
1
10
8.37164342852412
20
6.79418088410412
30
0
41
1
10
8.38678583896552
20
6.78426991393994
30
0
41
1
10
8.42615821964142
20
6.75065870126397
30
0
41
1
10
8.44534040524542
20
6.72285786718786
30
0
41
1
10
8.47417118866878
20
6.66521894689924
30
0
41
1
10
8.48410770971691
20
6.63447007849018
30
0
41
1
10
8.49697864169968
20
6.57250776548346
30
0
41
1
10
8.5
20
6.5410676958314
30
0
41
1
10
8.5
20
6.50922422412992
30
0
0
SPLINE
5
1AA
100
AcDbEntity
8
1
62
256
6
ByLayer
370
18
48
1
60
0
100
AcDbSpline
70
4
71
3
72
8
73
4
40
0
40
0
40
0
40
0
40
1
40
1
40
1
40
1
41
1
10
12.7566195145104
20
-4.97018616865961
30
0
41
1
10
12.6474747015614
20
-4.92302943644012
30
0
41
1
10
12.5391361708741
20
-4.88904776371501
30
0
41
1
10
12.4312715593578
20
-4.87043818832438
30
0
0
SPLINE
5
1AB
100
AcDbEntity
8
1
62
256
6
ByLayer
370
18
48
1
60
0
100
AcDbSpline
70
4
71
3
72
8
73
4
40
0
40
0
40
0
40
0
40
1
40
1
40
1
40
1
41
1
10
17.4244713310926
20
-13.7133829042558
30
0
41
1
10
17.4752521136991
20
-13.7135921168779
30
0
41
1
10
17.5253062344398
20
-13.7191927242191
30
0
41
1
10
17.5746718381263
20
-13.7299017146815
30
0
0
SPLINE
5
1AC
100
AcDbEntity
8
1
62
256
6
ByLayer
370
18
48
1
60
0
100
AcDbSpline
70
4
71
3
72
8
73
4
40
0
40
0
40
0
40
0
40
1
40
1
40
1
40
1
41
1
10
18.8740947001463
20
9.02812729953004
30
0
41
1
10
18.9237483830029
20
9.02609252801324
30
0
41
1
10
18.9735883544529
20
9.0214748446144
30
0
41
1
10
19.023612516931
20
9.01430333230803
30
0
0
SPLINE
5
1AD
100
AcDbEntity
8
1
62
256
6
ByLayer
370
18
48
1
60
0
100
AcDbSpline
70
4
71
3
72
36
73
32
40
0
40
0
40
0
40
0
40
0.0718222837726501
40
0.0718222837726501
40
0.1436445675453
40
0.1436445675453
40
0.21546685131795
40
0.21546685131795
40
0.2872891350906
40
0.2872891350906
40
0.35911141886325
40
0.35911141886325
40
0.4309337026359
40
0.4309337026359
40
0.502755986408551
40
0.502755986408551
40
0.538667128294875
40
0.538667128294875
40
0.5745782701812
40
0.5745782701812
40
0.64640055395385
40
0.64640055395385
40
0.7182228377265
40
0.7182228377265
40
0.79004512149915
40
0.79004512149915
40
0.861867405271799
40
0.861867405271799
40
0.933689689044449
40
0.933689689044449
40
1
40
1
40
1
40
1
41
1
10
23.0069436533283
20
-12.8737501356458
30
0
41
1
10
23.025102617445
20
-12.9265724634169
30
0
41
1
10
23.0359558198535
20
-12.9821263052377
30
0
41
1
10
23.0407170134495
20
-13.1006051565096
30
0
41
1
10
23.034427682465
20
-13.159795339219
30
0
41
1
10
23.006137414654
20
-13.2776229910774
30
0
41
1
10
22.9849163097849
20
-13.3333635975103
30
0
41
1
10
22.9310575616103
20
-13.4394722434145
30
0
41
1
10
22.8983538482324
20
-13.4895888884672
30
0
41
1
10
22.8247153590508
20
-13.5811127361663
30
0
41
1
10
22.7832918934927
20
-13.6232826078779
30
0
41
1
10
22.6912702046057
20
-13.6992272617486
30
0
41
1
10
22.6420547399051
20
-13.7319001178435
30
0
41
1
10
22.5366805276515
20
-13.7860925411553
30
0
41
1
10
22.4794674891049
20
-13.807804236632
30
0
41
1
10
22.3921089727781
20
-13.8287458136511
30
0
41
1
10
22.3627085108108
20
-13.8338565536991
30
0
41
1
10
22.3033261482985
20
-13.8401772284417
30
0
41
1
10
22.2731003330452
20
-13.8413619529887
30
0
41
1
10
22.1842176279033
20
-13.8387401711918
30
0
41
1
10
22.1266189746063
20
-13.8289586469792
30
0
41
1
10
22.0159603229357
20
-13.7940171072943
30
0
41
1
10
21.9649797968138
20
-13.7696031113601
30
0
41
1
10
21.87036770124
20
-13.7084316474854
30
0
41
1
10
21.8279124203747
20
-13.6723523964298
30
0
41
1
10
21.7521748548089
20
-13.5914544381854
30
0
41
1
10
21.7187271877237
20
-13.5463170658952
30
0
41
1
10
21.6617117679339
20
-13.4502633108207
30
0
41
1
10
21.6375983941287
20
-13.3985906583056
30
0
41
1
10
21.6000493860333
20
-13.2931280523907
30
0
41
1
10
21.5861719465905
20
-13.2407124070484
30
0
41
1
10
21.576542570282
20
-13.1859938885606
30
0
0
SPLINE
5
1AE
100
AcDbEntity
8
1
62
256
6
ByLayer
370
18
48
1
60
0
100
AcDbSpline
70
4
71
3
72
24
73
20
40
0
40
0
40
0
40
0
40
0.250000000000001
40
0.250000000000001
40
0.375000000000001
40
0.375000000000001
40
0.500000000000001
40
0.500000000000001
40
0.625000000000001
40
0.625000000000001
40
0.687500000000001
40
0.687500000000001
40
0.750000000000001
40
0.750000000000001
40
0.875
40
0.875
40
0.9375
40
0.9375
40
1
40
1
40
1
40
1
41
1
10
11.7283247019226
20
-7.16741498881129
30
0
41
1
10
11.8234341570553
20
-7.7791019153907
30
0
41
1
10
11.9694837994771
20
-8.37882369107658
30
0
41
1
10
12.2575402466545
20
-9.26220343337616
30
0
41
1
10
12.3654496425683
20
-9.55479423817138
30
0
41
1
10
12.602034072457
20
-10.1292400817758
30
0
41
1
10
12.7306280315875
20
-10.4112916434269
30
0
41
1
10
13.0094734639354
20
-10.964522937329
30
0
41
1
10
13.1596107925508
20
-11.235759968891
30
0
41
1
10
13.4049936759851
20
-11.6324869432784
30
0
41
1
10
13.490192686224
20
-11.7630201389119
30
0
41
1
10
13.6689155594308
20
-12.0199075473884
30
0
41
1
10
13.76254871816
20
-12.1463714979736
30
0
41
1
10
14.0563176094343
20
-12.5137735809398
30
0
41
1
10
14.2694932458445
20
-12.7443956764739
30
0
41
1
10
14.6346229874152
20
-13.0528607513682
30
0
41
1
10
14.7650362886565
20
-13.1497848792849
30
0
41
1
10
15.038023302398
20
-13.3222526419083
30
0
41
1
10
15.1810721398335
20
-13.3982930900166
30
0
41
1
10
15.3311142908356
20
-13.4634590484245
30
0
0
SPLINE
5
1AF
100
AcDbEntity
8
1
62
256
6
ByLayer
370
18
48
1
60
0
100
AcDbSpline
70
4
71
3
72
8
73
4
40
0
40
0
40
0
40
0
40
1
40
1
40
1
40
1
41
1
10
23.7783941122456
20
9.8726372544196
30
0
41
1
10
23.8118033860339
20
9.86787233619236
30
0
41
1
10
23.8448385299893
20
9.86093446588157
30
0
41
1
10
23.8774809915426
20
9.85176668404995
30
0
0
SPLINE
5
1B0
100
AcDbEntity
8
1
62
256
6
ByLayer
370
18
48
1
60
0
100
AcDbSpline
70
4
71
3
72
8
73
4
40
0
40
0
40
0
40
0
40
1
40
1
40
1
40
1
41
1
10
17.026314502058
20
-13.7117418527463
30
0
41
1
10
16.8172741602287
20
-13.7108799114609
30
0
41
1
10
16.6084986602371
20
-13.7058485365793
30
0
41
1
10
16.3999999999998
20
-13.6963943636982
30
0
0
SPLINE
5
1B1
100
AcDbEntity
8
1
62
256
6
ByLayer
370
18
48
1
60
0
100
AcDbSpline
70
4
71
3
72
10
73
6
40
0
40
0
40
0
40
0
40
0.5
40
0.5
40
1
40
1
40
1
40
1
41
1
10
24.075742909124
20
-11.3069432826315
30
0
41
1
10
24.075742909124
20
-11.3838510921716
30
0
41
1
10
24.0798400235076
20
-11.4622833225921
30
0
41
1
10
24.0995428663729
20
-11.6221590925842
30
0
41
1
10
24.1149991899842
20
-11.7021460797435
30
0
41
1
10
24.1374404240004
20
-11.7814013379962
30
0
0
SPLINE
5
1B2
100
AcDbEntity
8
1
62
256
6
ByLayer
370
18
48
1
60
0
100
AcDbSpline
70
4
71
3
72
36
73
32
40
0
40
0
40
0
40
0
40
0.031249999999999
40
0.031249999999999
40
0.062499999999998
40
0.062499999999998
40
0.125
40
0.125
40
0.187500000000001
40
0.187500000000001
40
0.250000000000003
40
0.250000000000003
40
0.375000000000003
40
0.375000000000003
40
0.500000000000002
40
0.500000000000002
40
0.562500000000002
40
0.562500000000002
40
0.625000000000002
40
0.625000000000002
40
0.687500000000001
40
0.687500000000001
40
0.750000000000001
40
0.750000000000001
40
0.812500000000001
40
0.812500000000001
40
0.875000000000001
40
0.875000000000001
40
0.9375
40
0.9375
40
1
40
1
40
1
40
1
41
1
10
19.6941668050885
20
5.36652820274111
30
0
41
1
10
19.7025035216489
20
5.38898925767037
30
0
41
1
10
19.7139825443667
20
5.41075599740932
30
0
41
1
10
19.742283668787
20
5.45307179907957
30
0
41
1
10
19.7593189729442
20
5.4738005687735
30
0
41
1
10
19.8153207431229
20
5.53215164392768
30
0
41
1
10
19.859689820451
20
5.56694015266623
30
0
41
1
10
19.9549062891696
20
5.62911795460198
30
0
41
1
10
20.0051548874669
20
5.65618441934231
30
0
41
1
10
20.1092535085101
20
5.7046463102109
30
0
41
1
10
20.1634508509073
20
5.72608555805544
30
0
41
1
10
20.3272586804184
20
5.78199293139875
30
0
41
1
10
20.4386101876826
20
5.80874612051807
30
0
41
1
10
20.6653323074794
20
5.84335459804075
30
0
41
1
10
20.7814761339094
20
5.8509976928936
30
0
41
1
10
20.9528271942206
20
5.84349852416125
30
0
41
1
10
21.009692068196
20
5.83783917020088
30
0
41
1
10
21.1228119934149
20
5.81871731782527
30
0
41
1
10
21.179394842674
20
5.80509484228972
30
0
41
1
10
21.2881165112
20
5.76895430420024
30
0
41
1
10
21.3406151807103
20
5.74642321465683
30
0
41
1
10
21.4410204302429
20
5.69072291192242
30
0
41
1
10
21.4883646244141
20
5.65765944864992
30
0
41
1
10
21.573108505446
20
5.58354439328224
30
0
41
1
10
21.6111172863685
20
5.54217822555248
30
0
41
1
10
21.6777451308463
20
5.45123293380755
30
0
41
1
10
21.7049632238252
20
5.4036338639998
30
0
41
1
10
21.7484968102835
20
5.30566456766084
30
0
41
1
10
21.7648254516316
20
5.25477412252584
30
0
41
1
10
21.785734571657
20
5.15626444077512
30
0
41
1
10
21.7906549761131
20
5.10812986724113
30
0
41
1
10
21.7902009621041
20
5.06151063893921
30
0
0
SPLINE
5
1B3
100
AcDbEntity
8
1
62
256
6
ByLayer
370
18
48
1
60
0
100
AcDbSpline
70
4
71
3
72
10
73
6
40
0
40
0
40
0
40
0
40
0.5
40
0.5
40
1
40
1
40
1
40
1
41
1
10
21.6584378948677
20
-12.2245081977205
30
0
41
1
10
21.6810585068151
20
-12.1531331516855
30
0
41
1
10
21.7115157057482
20
-12.083944576758
30
0
41
1
10
21.7867208531685
20
-11.9529496595449
30
0
41
1
10
21.8306332447403
20
-11.8923634127189
30
0
41
1
10
21.8805698213239
20
-11.836469713553
30
0
0
SPLINE
5
1B4
100
AcDbEntity
8
1
62
256
6
ByLayer
370
18
48
1
60
0
100
AcDbSpline
70
4
71
3
72
20
73
16
40
0
40
0
40
0
40
0
40
0.250000000000003
40
0.250000000000003
40
0.375000000000002
40
0.375000000000002
40
0.500000000000002
40
0.500000000000002
40
0.625000000000001
40
0.625000000000001
40
0.750000000000001
40
0.750000000000001
40
0.875
40
0.875
40
1
40
1
40
1
40
1
41
1
10
24.3711852350395
20
-1.9627651675473
30
0
41
1
10
24.3711852350395
20
-2.00778156161942
30
0
41
1
10
24.3578544235708
20
-2.0517139514445
30
0
41
1
10
24.3174129421099
20
-2.10928288333403
30
0
41
1
10
24.3005581033459
20
-2.1272682406732
30
0
41
1
10
24.2592372430005
20
-2.16052256274404
30
0
41
1
10
24.2353124186225
20
-2.17530211280106
30
0
41
1
10
24.181582774241
20
-2.2006193047558
30
0
41
1
10
24.1514216308447
20
-2.21131043575892
30
0
41
1
10
24.0853770973667
20
-2.22784128067599
30
0
41
1
10
24.0503835898911
20
-2.23350435040302
30
0
41
1
10
23.976487511151
20
-2.23966990107658
30
0
41
1
10
23.9371682454717
20
-2.24009612730566
30
0
41
1
10
23.8584358693102
20
-2.23562697815493
30
0
41
1
10
23.8186331166863
20
-2.23081310170417
30
0
41
1
10
23.7783941122453
20
-2.22342177101976
30
0
0
SPLINE
5
1B5
100
AcDbEntity
8
1
62
256
6
ByLayer
370
18
48
1
60
0
100
AcDbSpline
70
4
71
3
72
10
73
6
40
0
40
0
40
0
40
0
40
0.5
40
0.5
40
1
40
1
40
1
40
1
41
1
10
21.6584378948677
20
-0.727711848059641
30
0
41
1
10
21.6811240925324
20
-0.692217824176566
30
0
41
1
10
21.711270914901
20
-0.657596584156835
30
0
41
1
10
21.786203393703
20
-0.589916183526469
30
0
41
1
10
21.8307579344589
20
-0.557236506457485
30
0
41
1
10
21.8805698213239
20
-0.526711260837004
30
0
0
SPLINE
5
1B6
100
AcDbEntity
8
1
62
256
6
ByLayer
370
18
48
1
60
0
100
AcDbSpline
70
4
71
3
72
24
73
20
40
0
40
0
40
0
40
0
40
0.25
40
0.25
40
0.375
40
0.375
40
0.5
40
0.5
40
0.625
40
0.625
40
0.6875
40
0.6875
40
0.75
40
0.75
40
0.875
40
0.875
40
0.9375
40
0.9375
40
1
40
1
40
1
40
1
41
1
10
11.7283247019226
20
12.7333991209604
30
0
41
1
10
11.8234341570553
20
12.7741586335017
30
0
41
1
10
11.9694837994771
20
12.8050837019147
30
0
41
1
10
12.2575402466545
20
12.8381537354569
30
0
41
1
10
12.3654496425683
20
12.8469676445928
30
0
41
1
10
12.602034072457
20
12.8600402157855
30
0
41
1
10
12.7306280315875
20
12.8643310795038
30
0
41
1
10
13.0094734639354
20
12.8681922222436
30
0
41
1
10
13.1596107925508
20
12.8677873808177
30
0
41
1
10
13.4049936759851
20
12.862782258417
30
0
41
1
10
13.490192686224
20
12.8603717746833
30
0
41
1
10
13.6689155594308
20
12.8537362789078
30
0
41
1
10
13.76254871816
20
12.8495027929572
30
0
41
1
10
14.0563176094343
20
12.8334816431027
30
0
41
1
10
14.2694932458445
20
12.8185001777786
30
0
41
1
10
14.6346229874152
20
12.7847694678926
30
0
41
1
10
14.7650362886566
20
12.7714863282492
30
0
41
1
10
15.038023302398
20
12.7408450487413
30
0
41
1
10
15.1810721398335
20
12.7234519147614
30
0
41
1
10
15.3311142908357
20
12.7038478164613
30
0
0
SPLINE
5
1B7
100
AcDbEntity
8
1
62
256
6
ByLayer
370
18
48
1
60
0
100
AcDbSpline
70
4
71
3
72
8
73
4
40
0
40
0
40
0
40
0
40
1
40
1
40
1
40
1
41
1
10
24.3094877201526
20
-8.76310284824396
30
0
41
1
10
24.3505731136414
20
-8.83644130087004
30
0
41
1
10
24.3711852350395
20
-8.91353563035938
30
0
41
1
10
24.3711852350395
20
-8.99431476528284
30
0
0
SPLINE
5
1B8
100
AcDbEntity
8
1
62
256
6
ByLayer
370
18
48
1
60
0
100
AcDbSpline
70
4
71
3
72
12
73
8
40
0
40
0
40
0
40
0
40
0.499999999999997
40
0.499999999999997
40
0.749999999999999
40
0.749999999999999
40
1
40
1
40
1
40
1
41
1
10
17.8737512475761
20
7.20904270958877
30
0
41
1
10
17.8547496396565
20
7.13355748251783
30
0
41
1
10
17.8495716295359
20
7.04553873348161
30
0
41
1
10
17.8649180282247
20
6.90858233047393
30
0
41
1
10
17.8739972154207
20
6.86128478379118
30
0
41
1
10
17.9003005384453
20
6.76774722693025
30
0
41
1
10
17.9174040870836
20
6.72151577607997
30
0
41
1
10
17.9391386957984
20
6.67618607569108
30
0
0
SPLINE
5
1B9
100
AcDbEntity
8
1
62
256
6
ByLayer
370
18
48
1
60
0
100
AcDbSpline
70
4
71
3
72
8
73
4
40
0
40
0
40
0
40
0
40
1
40
1
40
1
40
1
41
1
10
19.0363100025223
20
-1.23408043926227
30
0
41
1
10
18.9814964010767
20
-1.23435612837574
30
0
41
1
10
18.9274355785545
20
-1.22925457520555
30
0
41
1
10
18.8740947001456
20
-1.21901032501449
30
0
0
SPLINE
5
1BA
100
AcDbEntity
8
1
62
256
6
ByLayer
370
18
48
1
60
0
100
AcDbSpline
70
4
71
3
72
8
73
4
40
0
40
0
40
0
40
0
40
1
40
1
40
1
40
1
41
1
10
24.2841620991728
20
-12.2715833181959
30
0
41
1
10
24.2925964751631
20
-12.2984062036209
30
0
41
1
10
24.3010383874999
20
-12.3252265703722
30
0
41
1
10
24.3094877201525
20
-12.3520444502645
30
0
0
SPLINE
5
1BB
100
AcDbEntity
8
1
62
256
6
ByLayer
370
18
48
1
60
0
100
AcDbSpline
70
4
71
3
72
10
73
6
40
0
40
0
40
0
40
0
40
0.5
40
0.5
40
1
40
1
40
1
40
1
41
1
10
17.9509636875994
20
7.10896716546696
30
0
41
1
10
17.959671514419
20
7.14035686717341
30
0
41
1
10
17.9680213140007
20
7.17039838665292
30
0
41
1
10
17.9859483169859
20
7.22799643572785
30
0
41
1
10
17.9955292325704
20
7.25557759551322
30
0
41
1
10
18.0059458492038
20
7.28121683606204
30
0
0
SPLINE
5
1BC
100
AcDbEntity
8
1
62
256
6
ByLayer
370
18
48
1
60
0
100
AcDbSpline
70
4
71
3
72
8
73
4
40
0
40
0
40
0
40
0
40
1
40
1
40
1
40
1
41
1
10
24.2841620991728
20
-12.2715833181959
30
0
41
1
10
24.2322329516738
20
-12.1064389642809
30
0
41
1
10
24.1832159003689
20
-11.9430656741853
30
0
41
1
10
24.1374404240077
20
-11.7814013379956
30
0
0
SPLINE
5
1BD
100
AcDbEntity
8
1
62
256
6
ByLayer
370
18
48
1
60
0
100
AcDbSpline
70
4
71
3
72
20
73
16
40
0
40
0
40
0
40
0
40
0.250000000000005
40
0.250000000000005
40
0.312500000000006
40
0.312500000000006
40
0.375000000000006
40
0.375000000000006
40
0.500000000000005
40
0.500000000000005
40
0.625000000000004
40
0.625000000000004
40
0.750000000000003
40
0.750000000000003
40
1
40
1
40
1
40
1
41
1
10
16.4
20
9.23858348171629
30
0
41
1
10
16.0622567442827
20
9.28598700872655
30
0
41
1
10
15.7271249618068
20
9.31781718285978
30
0
41
1
10
15.3139795921961
20
9.32319970191242
30
0
41
1
10
15.2316394131221
20
9.32255339985826
30
0
41
1
10
15.0675890978495
20
9.31750357554637
30
0
41
1
10
14.9855928538722
20
9.31307291567879
30
0
41
1
10
14.7428943817813
20
9.29402624596818
30
0
41
1
10
14.5860358187857
20
9.27370650006799
30
0
41
1
10
14.2809542112436
20
9.21974432514418
30
0
41
1
10
14.1327037050991
20
9.18614426325479
30
0
41
1
10
13.8427631808228
20
9.10882276651569
30
0
41
1
10
13.7007404917008
20
9.06502422288364
30
0
41
1
10
13.2838371927579
20
8.92409933994117
30
0
41
1
10
13.0181583286898
20
8.81818911489535
30
0
41
1
10
12.7566195145104
20
8.70823894610729
30
0
0
SPLINE
5
1BE
100
AcDbEntity
8
1
62
256
6
ByLayer
370
18
48
1
60
0
100
AcDbSpline
70
4
71
3
72
8
73
4
40
0
40
0
40
0
40
0
40
1
40
1
40
1
40
1
41
1
10
12.7566195145104
20
-13.5009366222485
30
0
41
1
10
12.6474747015614
20
-13.4093721149204
30
0
41
1
10
12.5391361708741
20
-13.3189131724219
30
0
41
1
10
12.4312715593578
20
-13.2302632399061
30
0
0
SPLINE
5
1BF
100
AcDbEntity
8
1
62
256
6
ByLayer
370
18
48
1
60
0
100
AcDbSpline
70
4
71
3
72
8
73
4
40
0
40
0
40
0
40
0
40
1
40
1
40
1
40
1
41
1
10
21.6087376940345
20
-12.5048921500292
30
0
41
1
10
21.6130260551438
20
-12.409376172132
30
0
41
1
10
21.6294770552117
20
-12.3158886284741
30
0
41
1
10
21.6584378948677
20
-12.2245081977205
30
0
0
SPLINE
5
1C0
100
AcDbEntity
8
1
62
256
6
ByLayer
370
18
48
1
60
0
100
AcDbSpline
70
4
71
3
72
20
73
16
40
0
40
0
40
0
40
0
40
0.250000000000002
40
0.250000000000002
40
0.312500000000002
40
0.312500000000002
40
0.375000000000002
40
0.375000000000002
40
0.500000000000002
40
0.500000000000002
40
0.625000000000002
40
0.625000000000002
40
0.750000000000002
40
0.750000000000002
40
1
40
1
40
1
40
1
41
1
10
16.4
20
-6.06243256284657
30
0
41
1
10
16.0622567442827
20
-6.00765482511591
30
0
41
1
10
15.7271249618068
20
-5.94598214365388
30
0
41
1
10
15.3139795921961
20
-5.85365873976241
30
0
41
1
10
15.2316394131221
20
-5.83443130419451
30
0
41
1
10
15.0675890978495
20
-5.79431296199411
30
0
41
1
10
14.9855928538722
20
-5.77334326613862
30
0
41
1
10
14.7428943817813
20
-5.70842054178507
30
0
41
1
10
14.5860358187857
20
-5.66260553521403
30
0
41
1
10
14.2809542112436
20
-5.5665476760652
30
0
41
1
10
14.132703705099
20
-5.51631890437068
30
0
41
1
10
13.8427631808228
20
-5.41249748296778
30
0
41
1
10
13.7007404917008
20
-5.35879129754022
30
0
41
1
10
13.2838371927579
20
-5.19519212305465
30
0
41
1
10
13.0181583286898
20
-5.08318572852892
30
0
41
1
10
12.7566195145104
20
-4.97018616865955
30
0
0
SPLINE
5
1C1
100
AcDbEntity
8
1
62
256
6
ByLayer
370
18
48
1
60
0
100
AcDbSpline
70
4
71
3
72
8
73
4
40
0
40
0
40
0
40
0
40
1
40
1
40
1
40
1
41
1
10
18.8740947001463
20
-1.21901032500938
30
0
41
1
10
18.4407449311984
20
-1.13578440924343
30
0
41
1
10
18.0075976658544
20
-1.05188029095149
30
0
41
1
10
17.5746718381256
20
-0.96723455845077
30
0
0
SPLINE
5
1C2
100
AcDbEntity
8
1
62
256
6
ByLayer
370
18
48
1
60
0
100
AcDbSpline
70
4
71
3
72
10
73
6
40
0
40
0
40
0
40
0
40
0.954862379962939
40
0.954862379962939
40
1
40
1
40
1
40
1
41
1
10
24.1100221426171
20
-8.41222362230542
30
0
41
1
10
24.1007927894066
20
-8.42453985524872
30
0
41
1
10
24.0922311953013
20
-8.42997115473753
30
0
41
1
10
24.0856411672232
20
-8.42902573375844
30
0
41
1
10
24.0853490483958
20
-8.42896847221948
30
0
41
1
10
24.0850624288212
20
-8.42889673308727
30
0
0
SPLINE
5
1C3
100
AcDbEntity
8
1
62
256
6
ByLayer
370
18
48
1
60
0
100
AcDbSpline
70
4
71
3
72
8
73
4
40
0
40
0
40
0
40
0
40
1
40
1
40
1
40
1
41
1
10
18.8740947001463
20
-14.0091698741795
30
0
41
1
10
18.4407449311984
20
-13.91688242787
30
0
41
1
10
18.0075976658544
20
-13.8238172796515
30
0
41
1
10
17.5746718381256
20
-13.7299017146861
30
0
0
SPLINE
5
1C4
100
AcDbEntity
8
1
62
256
6
ByLayer
370
18
48
1
60
0
100
AcDbSpline
70
4
71
3
72
8
73
4
40
0
40
0
40
0
40
0
40
1
40
1
40
1
40
1
41
1
10
17.6156938140213
20
12.6802312954568
30
0
41
1
10
17.640432967966
20
12.6445004943224
30
0
41
1
10
17.6678312223615
20
12.611529325446
30
0
41
1
10
17.6981567026717
20
12.5813286048884
30
0
0
SPLINE
5
1C5
100
AcDbEntity
8
1
62
256
6
ByLayer
370
18
48
1
60
0
100
AcDbSpline
70
4
71
3
72
8
73
4
40
0
40
0
40
0
40
0
40
1
40
1
40
1
40
1
41
1
10
12.7566195145104
20
13.4605235424178
30
0
41
1
10
12.6474747015614
20
13.3689310040888
30
0
41
1
10
12.5391361708741
20
13.2787275512819
30
0
41
1
10
12.4312715593578
20
13.1906580616492
30
0
0
SPLINE
5
1C6
100
AcDbEntity
8
1
62
256
6
ByLayer
370
18
48
1
60
0
100
AcDbSpline
70
4
71
3
72
10
73
6
40
0
40
0
40
0
40
0
40
0.5
40
0.5
40
1
40
1
40
1
40
1
41
1
10
15.3311142908357
20
12.7038478164613
30
0
41
1
10
15.4945793391981
20
12.6824899189949
30
0
41
1
10
15.6658121777282
20
12.6629938008107
30
0
41
1
10
16.0233459475014
20
12.628936338223
30
0
41
1
10
16.210843831309
20
12.6143495936253
30
0
41
1
10
16.4
20
12.6032540847759
30
0
0
SPLINE
5
1C7
100
AcDbEntity
8
1
62
256
6
ByLayer
370
18
48
1
60
0
100
AcDbSpline
70
4
71
3
72
10
73
6
40
0
40
0
40
0
40
0
40
0.5
40
0.5
40
1
40
1
40
1
40
1
41
1
10
19.6646993713993
20
9.6666254695815
30
0
41
1
10
19.6199685849754
20
9.70155019214431
30
0
41
1
10
19.5795099270313
20
9.74210634869428
30
0
41
1
10
19.5114696414303
20
9.8329596368703
30
0
41
1
10
19.484258766607
20
9.8825011714388
30
0
41
1
10
19.464531268992
20
9.93596845288812
30
0
0
SPLINE
5
1C8
100
AcDbEntity
8
1
62
256
6
ByLayer
370
18
48
1
60
0
100
AcDbSpline
70
4
71
3
72
8
73
4
40
0
40
0
40
0
40
0
40
1
40
1
40
1
40
1
41
1
10
19.0363100025223
20
12.61120676908
30
0
41
1
10
18.9814964010767
20
12.6116180426639
30
0
41
1
10
18.9274355785546
20
12.6112438715741
30
0
41
1
10
18.8740947001456
20
12.6101185154398
30
0
0
SPLINE
5
1C9
100
AcDbEntity
8
1
62
256
6
ByLayer
370
18
48
1
60
0
100
AcDbSpline
70
4
71
3
72
14
73
10
40
0
40
0
40
0
40
0
40
0.323532509476901
40
0.323532509476901
40
0.647065018953802
40
0.647065018953802
40
0.970597528430704
40
0.970597528430704
40
1
40
1
40
1
40
1
41
1
10
24.3711852350396
20
-11.965083404598
30
0
41
1
10
24.3711852350396
20
-11.9839304638762
30
0
41
1
10
24.3678480209032
20
-12.0035662651639
30
0
41
1
10
24.3544814192576
20
-12.0426892734032
30
0
41
1
10
24.344497075298
20
-12.062339785696
30
0
41
1
10
24.3174866437367
20
-12.1018306813958
30
0
41
1
10
24.3001754451768
20
-12.1219015288103
30
0
41
1
10
24.2778622096797
20
-12.1429561929254
30
0
41
1
10
24.275977374156
20
-12.144704942088
30
0
41
1
10
24.2740664329562
20
-12.1464483778146
30
0
0
SPLINE
5
1CA
100
AcDbEntity
8
1
62
256
6
ByLayer
370
18
48
1
60
0
100
AcDbSpline
70
4
71
3
72
10
73
6
40
0
40
0
40
0
40
0
40
0.5
40
0.5
40
1
40
1
40
1
40
1
41
1
10
19.464531268992
20
-5.47461137512289
30
0
41
1
10
19.3933449676034
20
-5.64258483839265
30
0
41
1
10
19.3258696494325
20
-5.81038366078187
30
0
41
1
10
19.2040480983962
20
-6.14710158271237
30
0
41
1
10
19.1489920475898
20
-6.31583372915358
30
0
41
1
10
19.1091252685425
20
-6.48736683242782
30
0
0
SPLINE
5
1CB
100
AcDbEntity
8
1
62
256
6
ByLayer
370
18
48
1
60
0
100
AcDbSpline
70
4
71
3
72
8
73
4
40
0
40
0
40
0
40
0
40
1
40
1
40
1
40
1
41
1
10
20.8153667082605
20
-5.01680844682306
30
0
41
1
10
21.8032167939277
20
-5.17566568613447
30
0
41
1
10
22.7908768230317
20
-5.33440446983099
30
0
41
1
10
23.7783941122454
20
-5.49266683459373
30
0
0
SPLINE
5
1CC
100
AcDbEntity
8
1
62
256
6
ByLayer
370
18
48
1
60
0
100
AcDbSpline
70
4
71
3
72
8
73
4
40
0
40
0
40
0
40
0
40
1
40
1
40
1
40
1
41
1
10
11.6115225656981
20
-5.53099483381271
30
0
41
1
10
11.60663135822
20
-6.08165552262943
30
0
41
1
10
11.6441962061432
20
-6.62635100154287
30
0
41
1
10
11.7283247019223
20
-7.16741498880998
30
0
0
SPLINE
5
1CD
100
AcDbEntity
8
1
62
256
6
ByLayer
370
18
48
1
60
0
100
AcDbSpline
70
4
71
3
72
20
73
16
40
0
40
0
40
0
40
0
40
0.250000000000001
40
0.250000000000001
40
0.375000000000001
40
0.375000000000001
40
0.500000000000001
40
0.500000000000001
40
0.625
40
0.625
40
0.75
40
0.75
40
0.875
40
0.875
40
1
40
1
40
1
40
1
41
1
10
24.3711852350395
20
-13.6767608622587
30
0
41
1
10
24.3711852350395
20
-13.7577521977992
30
0
41
1
10
24.3582024526753
20
-13.83744284128
30
0
41
1
10
24.3174478735311
20
-13.9518647431619
30
0
41
1
10
24.3001903022074
20
-13.9890695014416
30
0
41
1
10
24.259500255588
20
-14.0582796969533
30
0
41
1
10
24.2359303242243
20
-14.090750148729
30
0
41
1
10
24.1816797740557
20
-14.1509843133258
30
0
41
1
10
24.1512797525397
20
-14.1782638774106
30
0
41
1
10
24.0861950110593
20
-14.2248966257256
30
0
41
1
10
24.0508745571359
20
-14.2447493110139
30
0
41
1
10
23.9763483865718
20
-14.2759742268596
30
0
41
1
10
23.9379992996022
20
-14.2870775761596
30
0
41
1
10
23.859193813255
20
-14.3005346561746
30
0
41
1
10
23.8186151653139
20
-14.3027915025895
30
0
41
1
10
23.7783941122453
20
-14.3005168901615
30
0
0
SPLINE
5
1CE
100
AcDbEntity
8
1
62
256
6
ByLayer
370
18
48
1
60
0
100
AcDbSpline
70
4
71
3
72
8
73
4
40
0
40
0
40
0
40
0
40
1
40
1
40
1
40
1
41
1
10
24.1100221426203
20
-8.41222362230576
30
0
41
1
10
24.0985474085207
20
-8.41085516534704
30
0
41
1
10
24.0870762289522
20
-8.40906663478179
30
0
41
1
10
24.0756623638952
20
-8.40688017203956
30
0
0
SPLINE
5
1CF
100
AcDbEntity
8
1
62
256
6
ByLayer
370
18
48
1
60
0
100
AcDbSpline
70
4
71
3
72
8
73
4
40
0
40
0
40
0
40
0
40
1
40
1
40
1
40
1
41
1
10
20.8153667082605
20
10.2878051864004
30
0
41
1
10
21.8032167939277
20
10.1519345579691
30
0
41
1
10
22.7908768230317
20
10.0134795594887
30
0
41
1
10
23.7783941122454
20
9.87263725441821
30
0
0
SPLINE
5
1D0
100
AcDbEntity
8
1
62
256
6
ByLayer
370
18
48
1
60
0
100
AcDbSpline
70
4
71
3
72
8
73
4
40
0
40
0
40
0
40
0
40
1
40
1
40
1
40
1
41
1
10
20.7012519831102
20
-14.0042770928482
30
0
41
1
10
20.1462713312366
20
-14.0112871934648
30
0
41
1
10
19.5912906710249
20
-14.0182966039124
30
0
41
1
10
19.036310002523
20
-14.0253053279028
30
0
0
SPLINE
5
1D1
100
AcDbEntity
8
1
62
256
6
ByLayer
370
18
48
1
60
0
100
AcDbSpline
70
4
71
3
72
10
73
6
40
0
40
0
40
0
40
0
40
0.5
40
0.5
40
1
40
1
40
1
40
1
41
1
10
24.1100221426134
20
4.90265290811595
30
0
41
1
10
24.1008790573721
20
4.84832480321811
30
0
41
1
10
24.0921294953276
20
4.7948276953851
30
0
41
1
10
24.0796369492369
20
4.69517504322482
30
0
41
1
10
24.075742909124
20
4.64794709900701
30
0
41
1
10
24.075742909124
20
4.60433203251586
30
0
0
SPLINE
5
1D2
100
AcDbEntity
8
1
62
256
6
ByLayer
370
18
48
1
60
0
100
AcDbSpline
70
4
71
3
72
8
73
4
40
0
40
0
40
0
40
0
40
1
40
1
40
1
40
1
41
1
10
19.036310002523
20
-6.54692165268747
30
0
41
1
10
19.0320820598314
20
-6.55037392785715
30
0
41
1
10
19.0278494624024
20
-6.55380996982888
30
0
41
1
10
19.023612516931
20
-6.55722941965871
30
0
0
SPLINE
5
1D3
100
AcDbEntity
8
1
62
256
6
ByLayer
370
18
48
1
60
0
100
AcDbSpline
70
4
71
3
72
20
73
16
40
0
40
0
40
0
40
0
40
0.250000000000005
40
0.250000000000005
40
0.312500000000005
40
0.312500000000005
40
0.375000000000005
40
0.375000000000005
40
0.500000000000004
40
0.500000000000004
40
0.625000000000003
40
0.625000000000003
40
0.750000000000002
40
0.750000000000002
40
1
40
1
40
1
40
1
41
1
10
16.4
20
-15.092339943461
30
0
41
1
10
16.0622567442827
20
-15.0861116698294
30
0
41
1
10
15.7271249618068
20
-15.0576810593199
30
0
41
1
10
15.313979592196
20
-14.9730926130906
30
0
41
1
10
15.2316394131221
20
-14.9537187850488
30
0
41
1
10
15.0675890978495
20
-14.9096146030237
30
0
41
1
10
14.9855928538721
20
-14.8847805090961
30
0
41
1
10
14.7428943817813
20
-14.8025943908133
30
0
41
1
10
14.5860358187857
20
-14.7377569405004
30
0
41
1
10
14.2809542112436
20
-14.5905210768988
30
0
41
1
10
14.132703705099
20
-14.508178508793
30
0
41
1
10
13.8427631808227
20
-14.3301521368726
30
0
41
1
10
13.7007404917008
20
-14.2342810546255
30
0
41
1
10
13.2838371927579
20
-13.9347758101196
30
0
41
1
10
13.0181583286898
20
-13.7203485395029
30
0
41
1
10
12.7566195145104
20
-13.5009366222485
30
0
0
SPLINE
5
1D4
100
AcDbEntity
8
1
62
256
6
ByLayer
370
18
48
1
60
0
100
AcDbSpline
70
4
71
3
72
20
73
16
40
0
40
0
40
0
40
0
40
0.250000000000001
40
0.250000000000001
40
0.375000000000001
40
0.375000000000001
40
0.500000000000001
40
0.500000000000001
40
0.625000000000001
40
0.625000000000001
40
0.750000000000001
40
0.750000000000001
40
0.875
40
0.875
40
1
40
1
40
1
40
1
41
1
10
12.4312715593578
20
-13.2302632399062
30
0
41
1
10
12.3277707028425
20
-13.1451997161384
30
0
41
1
10
12.2278692862639
20
-13.0644607007402
30
0
41
1
10
12.0843751839202
20
-12.9515828748089
30
0
41
1
10
12.0374309407896
20
-12.915205705738
30
0
41
1
10
11.9491680121673
20
-12.848009586226
30
0
41
1
10
11.9074719353292
20
-12.8168877737573
30
0
41
1
10
11.8296240416879
20
-12.7601208250365
30
0
41
1
10
11.7934701935779
20
-12.7344962071702
30
0
41
1
10
11.7307238215971
20
-12.6915300515494
30
0
41
1
10
11.7036519175164
20
-12.6738315446105
30
0
41
1
10
11.6589072508701
20
-12.6464608617825
30
0
41
1
10
11.6414317267531
20
-12.6369472671543
30
0
41
1
10
11.6181873323511
20
-12.6271361410284
30
0
41
1
10
11.6120701587644
20
-12.6266172037443
30
0
41
1
10
11.6115225656981
20
-12.6304762502087
30
0
0
SPLINE
5
1D5
100
AcDbEntity
8
1
62
256
6
ByLayer
370
18
48
1
60
0
100
AcDbSpline
70
4
71
3
72
8
73
4
40
0
40
0
40
0
40
0
40
1
40
1
40
1
40
1
41
1
10
20.5082844729924
20
-1.22667562471867
30
0
41
1
10
20.0176263226713
20
-1.22914436651249
30
0
41
1
10
19.5269681658371
20
-1.23161263727857
30
0
41
1
10
19.0363100025231
20
-1.23408043925693
30
0
0
SPLINE
5
1D6
100
AcDbEntity
8
1
62
256
6
ByLayer
370
18
48
1
60
0
100
AcDbSpline
70
4
71
3
72
10
73
6
40
0
40
0
40
0
40
0
40
0.5
40
0.5
40
1
40
1
40
1
40
1
41
1
10
18.5869595493442
20
6.16395261592339
30
0
41
1
10
18.6400664738246
20
6.16315917612081
30
0
41
1
10
18.6927974313994
20
6.16917409281939
30
0
41
1
10
18.7974154196841
20
6.19456469043749
30
0
41
1
10
18.8472314110254
20
6.21343289312426
30
0
41
1
10
18.89470893468
20
6.23778822969149
30
0
0
SPLINE
5
1D7
100
AcDbEntity
8
1
62
256
6
ByLayer
370
18
48
1
60
0
100
AcDbSpline
70
4
71
3
72
38
73
34
40
0
40
0
40
0
40
0
40
0.0625
40
0.0625
40
0.125
40
0.125
40
0.1875
40
0.1875
40
0.25
40
0.25
40
0.3125
40
0.3125
40
0.375
40
0.375
40
0.4375
40
0.4375
40
0.5
40
0.5
40
0.5625
40
0.5625
40
0.625
40
0.625
40
0.6875
40
0.6875
40
0.75
40
0.75
40
0.8125
40
0.8125
40
0.875
40
0.875
40
0.9375
40
0.9375
40
1
40
1
40
1
40
1
41
1
10
21.4302691520126
20
-2.38956931594345
30
0
41
1
10
21.418994107454
20
-2.45373694070568
30
0
41
1
10
21.4139719550512
20
-2.51922670868188
30
0
41
1
10
21.4165938535162
20
-2.64818082855186
30
0
41
1
10
21.4240987359425
20
-2.71230372361509
30
0
41
1
10
21.4521381551985
20
-2.8398155036374
30
0
41
1
10
21.472225408072
20
-2.90113402215726
30
0
41
1
10
21.5240664529726
20
-3.01889824076028
30
0
41
1
10
21.5562461404139
20
-3.07593237413408
30
0
41
1
10
21.6310851888352
20
-3.18198272074287
30
0
41
1
10
21.6733534222141
20
-3.23072177308092
30
0
41
1
10
21.7674985055037
20
-3.31975993642885
30
0
41
1
10
21.8198956862609
20
-3.3602539726532
30
0
41
1
10
21.9301545796598
20
-3.42921571293505
30
0
41
1
10
21.9883968963609
20
-3.45817660093851
30
0
41
1
10
22.1112364637103
20
-3.50487906200576
30
0
41
1
10
22.1751652025658
20
-3.52222562770058
30
0
41
1
10
22.304014910143
20
-3.5441800337164
30
0
41
1
10
22.3699112284471
20
-3.54900595728446
30
0
41
1
10
22.5021834094835
20
-3.54577803368033
30
0
41
1
10
22.5672062485917
20
-3.53783792256448
30
0
41
1
10
22.6950899228831
20
-3.5096624304951
30
0
41
1
10
22.7585884017649
20
-3.48907739038157
30
0
41
1
10
22.8786448541334
20
-3.43675622059624
30
0
41
1
10
22.9355440908345
20
-3.40509331701887
30
0
41
1
10
23.0430576635856
20
-3.3306724691052
30
0
41
1
10
23.093438477235
20
-3.28785954878009
30
0
41
1
10
23.1834636047412
20
-3.19469111010079
30
0
41
1
10
23.2237355775968
20
-3.14394300180658
30
0
41
1
10
23.2944568528363
20
-3.03376989338494
30
0
41
1
10
23.3237641058209
20
-2.97611337565698
30
0
41
1
10
23.3707447390608
20
-2.856017376729
30
0
41
1
10
23.3884900469571
20
-2.7931423113146
30
0
41
1
10
23.399884658037
20
-2.72878044635442
30
0
0
SPLINE
5
1D8
100
AcDbEntity
8
1
62
256
6
ByLayer
370
18
48
1
60
0
100
AcDbSpline
70
4
71
3
72
12
73
8
40
0
40
0
40
0
40
0
40
0.5
40
0.5
40
0.75
40
0.75
40
1
40
1
40
1
40
1
41
1
10
20.5082844729924
20
-1.22667562471861
30
0
41
1
10
20.6576605160161
20
-1.35702566414079
30
0
41
1
10
20.8180449379653
20
-1.46982407848992
30
0
41
1
10
21.0754231430013
20
-1.61243745124858
30
0
41
1
10
21.1640331943617
20
-1.65551705080364
30
0
41
1
10
21.3471806478974
20
-1.73232581804828
30
0
41
1
10
21.4402384799683
20
-1.76541824046473
30
0
41
1
10
21.5343749987048
20
-1.79322409392489
30
0
0
SPLINE
5
1D9
100
AcDbEntity
8
1
62
256
6
ByLayer
370
18
48
1
60
0
100
AcDbSpline
70
4
71
3
72
8
73
4
40
0
40
0
40
0
40
0
40
1
40
1
40
1
40
1
41
1
10
17.4244713310926
20
-0.951901662332432
30
0
41
1
10
17.4752521136991
20
-0.952389282921587
30
0
41
1
10
17.5253062344398
20
-0.957582587100262
30
0
41
1
10
17.5746718381263
20
-0.967234558446734
30
0
0
SPLINE
5
1DA
100
AcDbEntity
8
1
62
256
6
ByLayer
370
18
48
1
60
0
100
AcDbSpline
70
4
71
3
72
36
73
32
40
0
40
0
40
0
40
0
40
0.0625000000000003
40
0.0625000000000003
40
0.125000000000001
40
0.125000000000001
40
0.187500000000001
40
0.187500000000001
40
0.250000000000001
40
0.250000000000001
40
0.312500000000002
40
0.312500000000002
40
0.375000000000002
40
0.375000000000002
40
0.437500000000002
40
0.437500000000002
40
0.500000000000003
40
0.500000000000003
40
0.562500000000003
40
0.562500000000003
40
0.625000000000003
40
0.625000000000003
40
0.687500000000004
40
0.687500000000004
40
0.750000000000004
40
0.750000000000004
40
0.812500000000004
40
0.812500000000004
40
0.875000000000004
40
0.875000000000004
40
1
40
1
40
1
40
1
41
1
10
21.5832236005365
20
-12.8272611120733
30
0
41
1
10
21.5916947523507
20
-12.7921517535128
30
0
41
1
10
21.6032015669982
20
-12.7578746510098
30
0
41
1
10
21.6324620936215
20
-12.6911025127509
30
0
41
1
10
21.6503290002014
20
-12.6585562126654
30
0
41
1
10
21.6911960074471
20
-12.5976841661163
30
0
41
1
10
21.7143060811572
20
-12.5690448485206
30
0
41
1
10
21.7659639223476
20
-12.5154834457366
30
0
41
1
10
21.7947958216652
20
-12.4904010223366
30
0
41
1
10
21.8561073316431
20
-12.4458669073213
30
0
41
1
10
21.8887097058762
20
-12.4262109034354
30
0
41
1
10
21.9578120263084
20
-12.3921837484627
30
0
41
1
10
21.9946966568963
20
-12.3777216271166
30
0
41
1
10
22.070229042771
20
-12.3552098775661
30
0
41
1
10
22.108914704871
20
-12.3470571539037
30
0
41
1
10
22.1881048827238
20
-12.3369299720623
30
0
41
1
10
22.22901602857
20
-12.3349871593726
30
0
41
1
10
22.3103532602292
20
-12.3376045526813
30
0
41
1
10
22.3507775322166
20
-12.3420822830641
30
0
41
1
10
22.4311474108508
20
-12.3572699489561
30
0
41
1
10
22.4714670083685
20
-12.3681319631337
30
0
41
1
10
22.5493326336512
20
-12.3956108782475
30
0
41
1
10
22.5869124389154
20
-12.4121556269562
30
0
41
1
10
22.6594363384181
20
-12.4507059246681
30
0
41
1
10
22.694678047892
20
-12.4729564964083
30
0
41
1
10
22.7605267408368
20
-12.5217317884019
30
0
41
1
10
22.7912067729497
20
-12.5482159193819
30
0
41
1
10
22.8482168552876
20
-12.6052194630298
30
0
41
1
10
22.8747453947871
20
-12.6360375680625
30
0
41
1
10
22.9456768746717
20
-12.73212100963
30
0
41
1
10
22.9820433994582
20
-12.8013181751524
30
0
41
1
10
23.0069436533283
20
-12.8737501356458
30
0
0
SPLINE
5
1DB
100
AcDbEntity
8
1
62
256
6
ByLayer
370
18
48
1
60
0
100
AcDbSpline
70
4
71
3
72
38
73
34
40
0
40
0
40
0
40
0
40
0.0625
40
0.0625
40
0.125
40
0.125
40
0.1875
40
0.1875
40
0.25
40
0.25
40
0.3125
40
0.3125
40
0.375
40
0.375
40
0.4375
40
0.4375
40
0.5
40
0.5
40
0.5625
40
0.5625
40
0.625
40
0.625
40
0.6875
40
0.6875
40
0.75
40
0.75
40
0.8125
40
0.8125
40
0.875
40
0.875
40
0.9375
40
0.9375
40
1
40
1
40
1
40
1
41
1
10
21.5832236005365
20
-2.52226894630218
30
0
41
1
10
21.591751628544
20
-2.52196098608482
30
0
41
1
10
21.6035069730274
20
-2.52195289847526
30
0
41
1
10
21.6326958007271
20
-2.52267249887399
30
0
41
1
10
21.6501920406625
20
-2.52339551778107
30
0
41
1
10
21.6911260230534
20
-2.5257214500873
30
0
41
1
10
21.7147696821866
20
-2.52734436633691
30
0
41
1
10
21.7664971727384
20
-2.53150910220799
30
0
41
1
10
21.7947139632744
20
-2.53405431507602
30
0
41
1
10
21.8558899145051
20
-2.54018788347693
30
0
41
1
10
21.889199197449
20
-2.54381953580821
30
0
41
1
10
21.9585947181254
20
-2.55202353489011
30
0
41
1
10
21.9947491590195
20
-2.55659606869534
30
0
41
1
10
22.0699534493812
20
-2.56674476997244
30
0
41
1
10
22.1094066634101
20
-2.57238345762849
30
0
41
1
10
22.1890120608213
20
-2.58441413342308
30
0
41
1
10
22.2291510446737
20
-2.59079608102732
30
0
41
1
10
22.3100907482425
20
-2.60429738618612
30
0
41
1
10
22.351287727506
20
-2.61149081958521
30
0
41
1
10
22.4320542863848
20
-2.62621989547605
30
0
41
1
10
22.4716137235089
20
-2.63374565493194
30
0
41
1
10
22.5491243751628
20
-2.64907361641451
30
0
41
1
10
22.5874162274218
20
-2.65695062669394
30
0
41
1
10
22.66023888209
20
-2.67248350473838
30
0
41
1
10
22.694810282535
20
-2.6801404979131
30
0
41
1
10
22.7603804595855
20
-2.69515464290828
30
0
41
1
10
22.791629469752
20
-2.70257533042567
30
0
41
1
10
22.8488431540737
20
-2.71660703472492
30
0
41
1
10
22.8748691427226
20
-2.72322668842259
30
0
41
1
10
22.9219347956043
20
-2.73557724936146
30
0
41
1
10
22.9431200617935
20
-2.74135097115905
30
0
41
1
10
22.9794544134209
20
-2.75159035297781
30
0
41
1
10
22.9946340934997
20
-2.75605957966809
30
0
41
1
10
23.0069436533283
20
-2.75983393171532
30
0
0
SPLINE
5
1DC
100
AcDbEntity
8
1
62
256
6
ByLayer
370
18
48
1
60
0
100
AcDbSpline
70
4
71
3
72
8
73
4
40
0
40
0
40
0
40
0
40
1
40
1
40
1
40
1
41
1
10
24.2841620991728
20
1.27212157997837
30
0
41
1
10
24.2322329516751
20
1.17027616363274
30
0
41
1
10
24.1832159003714
20
1.05801449060985
30
0
41
1
10
24.1374404240111
20
0.935146344353655
30
0
0
SPLINE
5
1DD
100
AcDbEntity
8
1
62
256
6
ByLayer
370
18
48
1
60
0
100
AcDbSpline
70
4
71
3
72
8
73
4
40
0
40
0
40
0
40
0
40
1
40
1
40
1
40
1
41
1
10
18.8740947001463
20
-6.52953296724351
30
0
41
1
10
18.9237483830029
20
-6.5399608779712
30
0
41
1
10
18.9735883544529
20
-6.54918852387726
30
0
41
1
10
19.0236125169309
20
-6.5572294196586
30
0
0
SPLINE
5
1DE
100
AcDbEntity
8
1
62
256
6
ByLayer
370
18
48
1
60
0
100
AcDbSpline
70
4
71
3
72
20
73
16
40
0
40
0
40
0
40
0
40
0.250000000000005
40
0.250000000000005
40
0.375000000000004
40
0.375000000000004
40
0.500000000000003
40
0.500000000000003
40
0.625000000000003
40
0.625000000000003
40
0.750000000000002
40
0.750000000000002
40
0.875000000000001
40
0.875000000000001
40
1
40
1
40
1
40
1
41
1
10
24.3711852350396
20
11.8315121179262
30
0
41
1
10
24.3711852350396
20
11.8679306751941
30
0
41
1
10
24.3578544235708
20
11.9070941212773
30
0
41
1
10
24.3174129421099
20
11.9646553316106
30
0
41
1
10
24.3005581033459
20
11.983784903559
30
0
41
1
10
24.2592372430005
20
12.0219143544233
30
0
41
1
10
24.2353124186225
20
12.0403712555066
30
0
41
1
10
24.181582774241
20
12.0754508654009
30
0
41
1
10
24.1514216308447
20
12.0922945575964
30
0
41
1
10
24.0853770973667
20
12.1236117941094
30
0
41
1
10
24.0503835898912
20
12.13770065944
30
0
41
1
10
23.976487511151
20
12.1627654956655
30
0
41
1
10
23.9371682454717
20
12.1737929879251
30
0
41
1
10
23.8584358693102
20
12.1915682586776
30
0
41
1
10
23.8186331166863
20
12.1984878324204
30
0
41
1
10
23.7783941122454
20
12.2034407543194
30
0
0
SPLINE
5
1DF
100
AcDbEntity
8
1
62
256
6
ByLayer
370
18
48
1
60
0
100
AcDbSpline
70
4
71
3
72
20
73
16
40
0
40
0
40
0
40
0
40
0.250000000000002
40
0.250000000000002
40
0.312500000000002
40
0.312500000000002
40
0.375000000000001
40
0.375000000000001
40
0.500000000000001
40
0.500000000000001
40
0.625000000000001
40
0.625000000000001
40
0.750000000000001
40
0.750000000000001
40
1
40
1
40
1
40
1
41
1
10
16.4
20
15.0585391707698
30
0
41
1
10
16.0622567442828
20
15.0511504859386
30
0
41
1
10
15.7271249618068
20
15.0216546457372
30
0
41
1
10
15.3139795921961
20
14.9359449407263
30
0
41
1
10
15.2316394131221
20
14.9163573904052
30
0
41
1
10
15.0675890978495
20
14.8718487272697
30
0
41
1
10
14.9855928538722
20
14.8468232730041
30
0
41
1
10
14.7428943817814
20
14.7641043842571
30
0
41
1
10
14.5860358187858
20
14.6989680065487
30
0
41
1
10
14.2809542112436
20
14.551232614459
30
0
41
1
10
14.1327037050991
20
14.4686891325756
30
0
41
1
10
13.8427631808228
20
14.2903356325563
30
0
41
1
10
13.7007404917008
20
14.1943378948411
30
0
41
1
10
13.2838371927579
20
13.8945309021504
30
0
41
1
10
13.0181583286898
20
13.680002629101
30
0
41
1
10
12.7566195145104
20
13.4605235424178
30
0
0
SPLINE
5
1E0
100
AcDbEntity
8
1
62
256
6
ByLayer
370
18
48
1
60
0
100
AcDbSpline
70
4
71
3
72
8
73
4
40
0
40
0
40
0
40
0
40
1
40
1
40
1
40
1
41
1
10
19.5376008971688
20
-15.1274586425287
30
0
41
1
10
19.5072418434217
20
-15.1538830772745
30
0
41
1
10
19.4827094892663
20
-15.182875866805
30
0
41
1
10
19.464531268992
20
-15.2131345143862
30
0
0
SPLINE
5
1E1
100
AcDbEntity
8
1
62
256
6
ByLayer
370
18
48
1
60
0
100
AcDbSpline
70
4
71
3
72
16
73
12
40
0
40
0
40
0
40
0
40
0.25
40
0.25
40
0.499999999999999
40
0.499999999999999
40
0.749999999999998
40
0.749999999999998
40
0.874999999999999
40
0.874999999999999
40
1
40
1
40
1
40
1
41
1
10
2
20
6.50922422412992
30
0
41
1
10
2
20
6.54107362865469
30
0
41
1
10
2.00302359373973
20
6.57241134446619
30
0
41
1
10
2.01577046323735
20
6.63398977083619
30
0
41
1
10
2.02551780871772
20
6.66449834661663
30
0
41
1
10
2.05459052917189
20
6.72281734724464
30
0
41
1
10
2.07382007567469
20
6.75062740335034
30
0
41
1
10
2.11316180861633
20
6.78423159120791
30
0
41
1
10
2.12835753716223
20
6.79418980432845
30
0
41
1
10
2.16219779053796
20
6.80835447461277
30
0
41
1
10
2.18088220166294
20
6.81248853210045
30
0
41
1
10
2.19999999999999
20
6.81248853210045
30
0
0
SPLINE
5
1E2
100
AcDbEntity
8
1
62
256
6
ByLayer
370
18
48
1
60
0
100
AcDbSpline
70
4
71
3
72
8
73
4
40
0
40
0
40
0
40
0
40
1
40
1
40
1
40
1
41
1
10
18.9384011866334
20
6.28147836503069
30
0
41
1
10
18.9291925812735
20
6.26910674350168
30
0
41
1
10
18.9197314986386
20
6.25720098127513
30
0
41
1
10
18.9099891643796
20
6.24576080067425
30
0
0
SPLINE
5
1E3
100
AcDbEntity
8
1
62
256
6
ByLayer
370
18
48
1
60
0
100
AcDbSpline
70
4
71
3
72
8
73
4
40
0
40
0
40
0
40
0
40
1
40
1
40
1
40
1
41
1
10
24.3094877201525
20
1.32174615312758
30
0
41
1
10
24.3503905959407
20
1.40182157698584
30
0
41
1
10
24.3711852350398
20
1.4803507660213
30
0
41
1
10
24.3711852350398
20
1.55728093891227
30
0
0
SPLINE
5
1E4
100
AcDbEntity
8
1
62
256
6
ByLayer
370
18
48
1
60
0
100
AcDbSpline
70
4
71
3
72
8
73
4
40
0
40
0
40
0
40
0
40
1
40
1
40
1
40
1
41
1
10
17.5746718381257
20
-15.1237963678126
30
0
41
1
10
17.524823253697
20
-15.1155195417961
30
0
41
1
10
17.4747557890872
20
-15.1109860843354
30
0
41
1
10
17.4244713310919
20
-15.1101637267647
30
0
0
SPLINE
5
1E5
100
AcDbEntity
8
1
62
256
6
ByLayer
370
18
48
1
60
0
100
AcDbSpline
70
4
71
2
72
6
73
3
40
0
40
0
40
0
40
1
40
1
40
1
41
0.500000033908084
10
17.4244713310918
20
12.5811743240213
30
0
41
0.499999966091916
10
17.225363637542
20
12.5822454691256
30
0
41
0.500000033908084
10
17.0263145020565
20
12.5833162132049
30
0
0
SPLINE
5
1E6
100
AcDbEntity
8
1
62
256
6
ByLayer
370
18
48
1
60
0
100
AcDbSpline
70
4
71
3
72
8
73
4
40
0
40
0
40
0
40
0
40
1
40
1
40
1
40
1
41
1
10
23.7783941122456
20
-5.49266683459427
30
0
41
1
10
23.8118033860338
20
-5.49802110102837
30
0
41
1
10
23.8448385299893
20
-5.50285693848159
30
0
41
1
10
23.8774809915425
20
-5.50731319529191
30
0
0
SPLINE
5
1E7
100
AcDbEntity
8
1
62
256
6
ByLayer
370
18
48
1
60
0
100
AcDbSpline
70
4
71
3
72
8
73
4
40
0
40
0
40
0
40
0
40
1
40
1
40
1
40
1
41
1
10
24.3094877201525
20
-1.20859595160704
30
0
41
1
10
24.3503521801507
20
-1.28772565816419
30
0
41
1
10
24.3711852350397
20
-1.36535278367327
30
0
41
1
10
24.3711852350397
20
-1.44141719536975
30
0
0
SPLINE
5
1E8
100
AcDbEntity
8
1
62
256
6
ByLayer
370
18
48
1
60
0
100
AcDbSpline
70
4
71
3
72
8
73
4
40
0
40
0
40
0
40
0
40
1
40
1
40
1
40
1
41
1
10
23.7783941122456
20
-15.1677506395871
30
0
41
1
10
23.8118033860338
20
-15.1682287206078
30
0
41
1
10
23.8448385299893
20
-15.1660410801016
30
0
41
1
10
23.8774809915425
20
-15.1612663451806
30
0
0
SPLINE
5
1E9
100
AcDbEntity
8
1
62
256
6
ByLayer
370
18
48
1
60
0
100
AcDbSpline
70
4
71
3
72
8
73
4
40
0
40
0
40
0
40
0
40
1
40
1
40
1
40
1
41
1
10
18.8740947001463
20
12.6101185154391
30
0
41
1
10
18.4407449311984
20
12.6009759434512
30
0
41
1
10
18.0075976658544
20
12.5917335790417
30
0
41
1
10
17.5746718381257
20
12.5823820916565
30
0
0
SPLINE
5
1EA
100
AcDbEntity
8
1
62
256
6
ByLayer
370
18
48
1
60
0
100
AcDbSpline
70
4
71
3
72
8
73
4
40
0
40
0
40
0
40
0
40
1
40
1
40
1
40
1
41
1
10
24.1374404240072
20
-8.46628225629672
30
0
41
1
10
24.1269873750812
20
-8.44844472020611
30
0
41
1
10
24.1178510233706
20
-8.43043827404591
30
0
41
1
10
24.1100221426173
20
-8.41222362230619
30
0
0
SPLINE
5
1EB
100
AcDbEntity
8
1
62
256
6
ByLayer
370
18
48
1
60
0
100
AcDbSpline
70
4
71
3
72
38
73
34
40
0
40
0
40
0
40
0
40
0.0625
40
0.0625
40
0.125
40
0.125
40
0.1875
40
0.1875
40
0.25
40
0.25
40
0.3125
40
0.3125
40
0.375
40
0.375
40
0.4375
40
0.4375
40
0.5
40
0.5
40
0.5625
40
0.5625
40
0.625
40
0.625
40
0.6875
40
0.6875
40
0.75
40
0.75
40
0.8125
40
0.8125
40
0.875
40
0.875
40
0.9375
40
0.9375
40
1
40
1
40
1
40
1
41
1
10
21.4302691520126
20
12.1258963792085
30
0
41
1
10
21.4190692764832
20
12.086382313065
30
0
41
1
10
21.4139917246922
20
12.0460003974623
30
0
41
1
10
21.4165440439351
20
11.9634100196103
30
0
41
1
10
21.4242265160975
20
11.9220397067761
30
0
41
1
10
21.4518008612709
20
11.8407036239772
30
0
41
1
10
21.4718962746154
20
11.8002027047141
30
0
41
1
10
21.5242407109837
20
11.7216177244412
30
0
41
1
10
21.5559470720166
20
11.6841903717941
30
0
41
1
10
21.6302080860945
20
11.6131511321632
30
0
41
1
10
21.6733384728707
20
11.5792218719752
30
0
41
1
10
21.7676163459425
20
11.5180311765701
30
0
41
1
10
21.8188078675665
20
11.4905550418159
30
0
41
1
10
21.9293580538714
20
11.4420689863015
30
0
41
1
10
21.988754785707
20
11.4211905117727
30
0
41
1
10
22.1105985345832
20
11.3880040704008
30
0
41
1
10
22.1736623878782
20
11.3753925661584
30
0
41
1
10
22.3042465958285
20
11.3585500430858
30
0
41
1
10
22.369752940212
20
11.3545919160455
30
0
41
1
10
22.500628196764
20
11.3553113389779
30
0
41
1
10
22.5667999076334
20
11.3600985704309
30
0
41
1
10
22.6953428602488
20
11.3782556722924
30
0
41
1
10
22.7574854486291
20
11.3914735904142
30
0
41
1
10
22.8775541907813
20
11.425995095732
30
0
41
1
10
22.93571579652
20
11.4475182998063
30
0
41
1
10
23.042754333283
20
11.4968029267354
30
0
41
1
10
23.0923047590651
20
11.5247058563069
30
0
41
1
10
23.1832870019906
20
11.5869920756241
30
0
41
1
10
23.223852668428
20
11.6208713149179
30
0
41
1
10
23.2936659664685
20
11.6922270380825
30
0
41
1
10
23.3233948100597
20
11.7301909746476
30
0
41
1
10
23.3709108464961
20
11.8089876035555
30
0
41
1
10
23.3884915892949
20
11.8493147246043
30
0
41
1
10
23.399884658037
20
11.8905205686017
30
0
0
SPLINE
5
1EC
100
AcDbEntity
8
1
62
256
6
ByLayer
370
18
48
1
60
0
100
AcDbSpline
70
4
71
3
72
8
73
4
40
0
40
0
40
0
40
0
40
1
40
1
40
1
40
1
41
1
10
24.2841620991728
20
-1.15951141975182
30
0
41
1
10
24.2322329516751
20
-1.05877446098421
30
0
41
1
10
24.1832159003714
20
-0.947554075928196
30
0
41
1
10
24.1374404240111
20
-0.825659735183308
30
0
0
SPLINE
5
1ED
100
AcDbEntity
8
1
62
256
6
ByLayer
370
18
48
1
60
0
100
AcDbSpline
70
4
71
3
72
8
73
4
40
0
40
0
40
0
40
0
40
1
40
1
40
1
40
1
41
1
10
18.8740947001463
20
-15.3381176186997
30
0
41
1
10
18.9237483830029
20
-15.3462531131057
30
0
41
1
10
18.9735883544529
20
-15.3506510050425
30
0
41
1
10
19.0236125169309
20
-15.3513533790266
30
0
0
SPLINE
5
1EE
100
AcDbEntity
8
1
62
256
6
ByLayer
370
18
48
1
60
0
100
AcDbSpline
70
4
71
3
72
14
73
10
40
0
40
0
40
0
40
0
40
0.25
40
0.25
40
0.5
40
0.5
40
0.75
40
0.75
40
1
40
1
40
1
40
1
41
1
10
24.3669918917675
20
-5.42263642384631
30
0
41
1
10
24.3593161395343
20
-5.44385519525309
30
0
41
1
10
24.3416226921153
20
-5.46223977566805
30
0
41
1
10
24.2864986121526
20
-5.49287772065307
30
0
41
1
10
24.2503948186802
20
-5.50434254521434
30
0
41
1
10
24.1620452395955
20
-5.51933455463768
30
0
41
1
10
24.1115065725471
20
-5.5225356966923
30
0
41
1
10
23.9995846707236
20
-5.52076781170578
30
0
41
1
10
23.9396875419554
20
-5.51580545815202
30
0
41
1
10
23.8774809915427
20
-5.50731319529152
30
0
0
SPLINE
5
1EF
100
AcDbEntity
8
1
62
256
6
ByLayer
370
18
48
1
60
0
100
AcDbSpline
70
4
71
3
72
8
73
4
40
0
40
0
40
0
40
0
40
1
40
1
40
1
40
1
41
1
10
24.2841620991728
20
12.1594114674599
30
0
41
1
10
24.2701974384412
20
12.1148928917366
30
0
41
1
10
24.2564433707958
20
12.0704839198083
30
0
41
1
10
24.242906303683
20
12.0261832741767
30
0
0
SPLINE
5
1F0
100
AcDbEntity
8
1
62
256
6
ByLayer
370
18
48
1
60
0
100
AcDbSpline
70
4
71
3
72
8
73
4
40
0
40
0
40
0
40
0
40
1
40
1
40
1
40
1
41
1
10
23.9366808095832
20
9.83303712951715
30
0
41
1
10
23.91721899416
20
9.83990086976141
30
0
41
1
10
23.8974665705486
20
9.84615364448825
30
0
41
1
10
23.8774809915427
20
9.8517666840504
30
0
0
SPLINE
5
1F1
100
AcDbEntity
8
1
62
256
6
ByLayer
370
18
48
1
60
0
100
AcDbSpline
70
4
71
3
72
8
73
4
40
0
40
0
40
0
40
0
40
1
40
1
40
1
40
1
41
1
10
24.3094877201525
20
-11.353510332704
30
0
41
1
10
24.3503906590515
20
-11.4083079914617
30
0
41
1
10
24.3711852350398
20
-11.467298691565
30
0
41
1
10
24.3711852350398
20
-11.5306255237181
30
0
0
SPLINE
5
1F2
100
AcDbEntity
8
1
62
256
6
ByLayer
370
18
48
1
60
0
100
AcDbSpline
70
4
71
3
72
14
73
10
40
0
40
0
40
0
40
0
40
0.25
40
0.25
40
0.5
40
0.5
40
0.75
40
0.75
40
1
40
1
40
1
40
1
41
1
10
24.3669918917674
20
-14.662978020887
30
0
41
1
10
24.3593123723425
20
-14.7265897819895
30
0
41
1
10
24.3416092726618
20
-14.7869104020231
30
0
41
1
10
24.2865131988694
20
-14.9009644322748
30
0
41
1
10
24.2503754188902
20
-14.9519423987678
30
0
41
1
10
24.162066628522
20
-15.0410821234484
30
0
41
1
10
24.111484582613
20
-15.0775544694568
30
0
41
1
10
23.9996086639161
20
-15.1334765487508
30
0
41
1
10
23.939665497258
20
-15.1521703849847
30
0
41
1
10
23.8774809915427
20
-15.1612663451806
30
0
0
SPLINE
5
1F3
100
AcDbEntity
8
1
62
256
6
ByLayer
370
18
48
1
60
0
100
AcDbSpline
70
4
71
2
72
6
73
3
40
0
40
0
40
0
40
1
40
1
40
1
41
0.500000035119087
10
17.4244713310918
20
-13.7133829042607
30
0
41
0.499999964880913
10
17.2253636375556
20
-13.7125625970401
30
0
41
0.500000035119087
10
17.0263145020656
20
-13.7117418527463
30
0
0
SPLINE
5
1F4
100
AcDbEntity
8
1
62
256
6
ByLayer
370
18
48
1
60
0
100
AcDbSpline
70
4
71
3
72
8
73
4
40
0
40
0
40
0
40
0
40
1
40
1
40
1
40
1
41
1
10
20.7947521506722
20
-5.01031456131037
30
0
41
1
10
20.7861961464501
20
-5.00897086108182
30
0
41
1
10
20.7766663850877
20
-5.00881716261824
30
0
41
1
10
20.7660867302966
20
-5.00976431710137
30
0
0
SPLINE
5
1F5
100
AcDbEntity
8
1
62
256
6
ByLayer
370
18
48
1
60
0
100
AcDbSpline
70
4
71
3
72
40
73
36
40
0
40
0
40
0
40
0
40
0.0624999999999982
40
0.0624999999999982
40
0.124999999999996
40
0.124999999999996
40
0.187499999999995
40
0.187499999999995
40
0.249999999999993
40
0.249999999999993
40
0.312499999999991
40
0.312499999999991
40
0.374999999999989
40
0.374999999999989
40
0.437499999999987
40
0.437499999999987
40
0.468749999999986
40
0.468749999999986
40
0.499999999999985
40
0.499999999999985
40
0.562499999999987
40
0.562499999999987
40
0.624999999999989
40
0.624999999999989
40
0.687499999999991
40
0.687499999999991
40
0.749999999999993
40
0.749999999999993
40
0.812499999999994
40
0.812499999999994
40
0.874999999999996
40
0.874999999999996
40
0.937499999999998
40
0.937499999999998
40
1
40
1
40
1
40
1
41
1
10
23.0069436533283
20
-2.75983393171532
30
0
41
1
10
23.025102617445
20
-2.7654018256404
30
0
41
1
10
23.0359558198535
20
-2.77589197920202
30
0
41
1
10
23.0407170134495
20
-2.81150148089597
30
0
41
1
10
23.034427682465
20
-2.83557203069259
30
0
41
1
10
23.006137414654
20
-2.89337012914484
30
0
41
1
10
22.9849163097849
20
-2.92547974543649
30
0
41
1
10
22.9310575616103
20
-2.99120926261261
30
0
41
1
10
22.8983538482324
20
-3.0247231154043
30
0
41
1
10
22.8247153590508
20
-3.08735793561263
30
0
41
1
10
22.7832918934927
20
-3.11701923489008
30
0
41
1
10
22.6912702046057
20
-3.16972963550828
30
0
41
1
10
22.6420547399051
20
-3.19202053059061
30
0
41
1
10
22.5366805276515
20
-3.2263591772917
30
0
41
1
10
22.479467489105
20
-3.238461382905
30
0
41
1
10
22.3921089727782
20
-3.24582517677118
30
0
41
1
10
22.3627085108108
20
-3.2465427551468
30
0
41
1
10
22.3033261482985
20
-3.24429259367318
30
0
41
1
10
22.2731003330452
20
-3.24126813272838
30
0
41
1
10
22.1842176279033
20
-3.22669757101059
30
0
41
1
10
22.1266189746063
20
-3.20972036233573
30
0
41
1
10
22.0159603229357
20
-3.16235747249468
30
0
41
1
10
21.9649797968138
20
-3.13294612547983
30
0
41
1
10
21.8703677012401
20
-3.06479501355028
30
0
41
1
10
21.8279124203748
20
-3.02682969452104
30
0
41
1
10
21.7521748548089
20
-2.94652641793382
30
0
41
1
10
21.7187271877237
20
-2.9038945264802
30
0
41
1
10
21.661711767934
20
-2.81918396262515
30
0
41
1
10
21.6375983941287
20
-2.77636641389634
30
0
41
1
10
21.5985510495086
20
-2.69467191123761
30
0
41
1
10
21.583893512573
20
-2.65653015726275
30
0
41
1
10
21.5645652682987
20
-2.59068225487243
30
0
41
1
10
21.5603617316287
20
-2.56463057045662
30
0
41
1
10
21.5635006777908
20
-2.53023671655276
30
0
41
1
10
21.5707023523252
20
-2.52272110784733
30
0
41
1
10
21.5832236005365
20
-2.52226894630221
30
0
0
SPLINE
5
1F6
100
AcDbEntity
8
1
62
256
6
ByLayer
370
18
48
1
60
0
100
AcDbSpline
70
4
71
3
72
18
73
14
40
0
40
0
40
0
40
0
40
0.125000000000002
40
0.125000000000002
40
0.250000000000005
40
0.250000000000005
40
0.500000000000003
40
0.500000000000003
40
0.750000000000001
40
0.750000000000001
40
0.875000000000001
40
0.875000000000001
40
1
40
1
40
1
40
1
41
1
10
17.9391386957986
20
6.67618607569122
30
0
41
1
10
17.9510070383695
20
6.64199044900107
30
0
41
1
10
17.9649582464625
20
6.60842942268931
30
0
41
1
10
17.9972758858077
20
6.54275270674449
30
0
41
1
10
18.0158293515281
20
6.51037874785436
30
0
41
1
10
18.0772856981153
20
6.41829245243463
30
0
41
1
10
18.1259150963085
20
6.36311806765349
30
0
41
1
10
18.2400916577898
20
6.26851444709237
30
0
41
1
10
18.302797772075
20
6.23135169075891
30
0
41
1
10
18.4062723663006
20
6.1920500264556
30
0
41
1
10
18.4419243576576
20
6.18196167322688
30
0
41
1
10
18.5136839012322
20
6.16824341575881
30
0
41
1
10
18.5500664535543
20
6.1645038143015
30
0
41
1
10
18.5869595493442
20
6.16395261592339
30
0
0
SPLINE
5
1F7
100
AcDbEntity
8
1
62
256
6
ByLayer
370
18
48
1
60
0
100
AcDbSpline
70
4
71
3
72
8
73
4
40
0
40
0
40
0
40
0
40
1
40
1
40
1
40
1
41
1
10
18.005945849204
20
7.2812168360617
30
0
41
1
10
17.9736864877052
20
7.2682897345988
30
0
41
1
10
17.9430621671983
20
7.25305645008373
30
0
41
1
10
17.9140479663242
20
7.23514343498272
30
0
0
SPLINE
5
1F8
100
AcDbEntity
8
1
62
256
6
ByLayer
370
18
48
1
60
0
100
AcDbSpline
70
4
71
3
72
8
73
4
40
0
40
0
40
0
40
0
40
1
40
1
40
1
40
1
41
1
10
11.6115225656939
20
7.2833927556791
30
0
41
1
10
11.6066313582157
20
6.77856158508968
30
0
41
1
10
11.6441962061432
20
6.27154929777498
30
0
41
1
10
11.7283247019223
20
5.76576300587669
30
0
0
SPLINE
5
1F9
100
AcDbEntity
8
1
62
256
6
ByLayer
370
18
48
1
60
0
100
AcDbSpline
70
4
71
3
72
8
73
4
40
0
40
0
40
0
40
0
40
1
40
1
40
1
40
1
41
1
10
19.036310002523
20
-15.3504218753649
30
0
41
1
10
19.0320820598314
20
-15.3507608762604
30
0
41
1
10
19.0278494624023
20
-15.3510714377001
30
0
41
1
10
19.023612516931
20
-15.3513533790266
30
0
0
SPLINE
5
1FA
100
AcDbEntity
8
1
62
256
6
ByLayer
370
18
48
1
60
0
100
AcDbSpline
70
4
71
3
72
10
73
6
40
0
40
0
40
0
40
0
40
0.5
40
0.5
40
1
40
1
40
1
40
1
41
1
10
19.464531268992
20
9.93596845288812
30
0
41
1
10
19.3933568916594
20
9.79953953664369
30
0
41
1
10
19.3258878954451
20
9.66027826241623
30
0
41
1
10
19.2040660062046
20
9.37448981633042
30
0
41
1
10
19.1490021370836
20
9.22815544370172
30
0
41
1
10
19.1091252685425
20
9.07579884858251
30
0
0
SPLINE
5
1FB
100
AcDbEntity
8
1
62
256
6
ByLayer
370
18
48
1
60
0
100
AcDbSpline
70
4
71
3
72
8
73
4
40
0
40
0
40
0
40
0
40
1
40
1
40
1
40
1
41
1
10
17.5746718381257
20
-6.25617120005526
30
0
41
1
10
17.524823253697
20
-6.24566637499231
30
0
41
1
10
17.4747557890872
20
-6.23635862302987
30
0
41
1
10
17.4244713310919
20
-6.22823762513281
30
0
0
SPLINE
5
1FC
100
AcDbEntity
8
1
62
256
6
ByLayer
370
18
48
1
60
0
100
AcDbSpline
70
4
71
3
72
10
73
6
40
0
40
0
40
0
40
0
40
0.5
40
0.5
40
1
40
1
40
1
40
1
41
1
10
15.3311142908356
20
-0.576557942280118
30
0
41
1
10
15.4945793391981
20
-0.669460551594852
30
0
41
1
10
15.6658121777282
20
-0.743600822978323
30
0
41
1
10
16.0233459475013
20
-0.855136597598431
30
0
41
1
10
16.210843831309
20
-0.89252628319008
30
0
41
1
10
16.4
20
-0.91241116361968
30
0
0
SPLINE
5
1FD
100
AcDbEntity
8
1
62
256
6
ByLayer
370
18
48
1
60
0
100
AcDbSpline
70
4
71
3
72
8
73
4
40
0
40
0
40
0
40
0
40
1
40
1
40
1
40
1
41
1
10
12.4312715593578
20
-4.87043818832441
30
0
41
1
10
12.4065780552786
20
-4.8661778881262
30
0
41
1
10
12.3820894372954
20
-4.8627701099679
30
0
41
1
10
12.3578143866423
20
-4.86026142823033
30
0
0
SPLINE
5
1FE
100
AcDbEntity
8
1
62
256
6
ByLayer
370
18
48
1
60
0
100
AcDbSpline
70
4
71
3
72
20
73
16
40
0
40
0
40
0
40
0
40
0.143149432222471
40
0.143149432222471
40
0.285957860185393
40
0.285957860185393
40
0.428766288148314
40
0.428766288148314
40
0.571574716111235
40
0.571574716111235
40
0.714383144074157
40
0.714383144074157
40
0.857191572037078
40
0.857191572037078
40
1
40
1
40
1
40
1
41
1
10
12.2791570276197
20
-4.85532196012068
30
0
41
1
10
12.2291624510775
20
-4.85428846039864
30
0
41
1
10
12.1801521326637
20
-4.8574468500087
30
0
41
1
10
12.0843751839202
20
-4.87299240125833
30
0
41
1
10
12.0374309407896
20
-4.88557685003477
30
0
41
1
10
11.9491680121673
20
-4.92052017598846
30
0
41
1
10
11.9074719353292
20
-4.94288136931019
30
0
41
1
10
11.8296240416879
20
-4.99855291318019
30
0
41
1
10
11.7934701935779
20
-5.03211334707908
30
0
41
1
10
11.7307238215971
20
-5.10818715756227
30
0
41
1
10
11.7036519175164
20
-5.15096216926449
30
0
41
1
10
11.6589072508701
20
-5.24667749329993
30
0
41
1
10
11.6414317267531
20
-5.29974658615319
30
0
41
1
10
11.6181873323511
20
-5.41076784814402
30
0
41
1
10
11.6120701587644
20
-5.46934584909133
30
0
41
1
10
11.6115225656981
20
-5.53099483381271
30
0
0
SPLINE
5
1FF
100
AcDbEntity
8
1
62
256
6
ByLayer
370
18
48
1
60
0
100
AcDbSpline
70
4
71
3
72
8
73
4
40
0
40
0
40
0
40
0
40
1
40
1
40
1
40
1
41
1
10
24.3094877201525
20
-12.3520444502645
30
0
41
1
10
24.3503906590515
20
-12.4818689166155
30
0
41
1
10
24.3711852350398
20
-12.6143170077984
30
0
41
1
10
24.3711852350398
20
-12.749478256993
30
0
0
SPLINE
5
200
100
AcDbEntity
8
1
62
256
6
ByLayer
370
18
48
1
60
0
100
AcDbSpline
70
4
71
3
72
8
73
4
40
0
40
0
40
0
40
0
40
1
40
1
40
1
40
1
41
1
10
24.2841620991728
20
-11.3195448165294
30
0
41
1
10
24.2925964751631
20
-11.3308689354467
30
0
41
1
10
24.3010383874999
20
-11.3421907635023
30
0
41
1
10
24.3094877201525
20
-11.353510332704
30
0
0
SPLINE
5
201
100
AcDbEntity
8
1
62
256
6
ByLayer
370
18
48
1
60
0
100
AcDbSpline
70
4
71
3
72
10
73
6
40
0
40
0
40
0
40
0
40
0.5
40
0.5
40
1
40
1
40
1
40
1
41
1
10
17.6156938140301
20
7.41796240182523
30
0
41
1
10
17.6488316007286
20
7.37997680628075
30
0
41
1
10
17.6873080271102
20
7.34203903765737
30
0
41
1
10
17.7743868024506
20
7.27052619255826
30
0
41
1
10
17.8218829730881
20
7.23777870636141
30
0
41
1
10
17.8737512475766
20
7.20904270958829
30
0
0
SPLINE
5
202
100
AcDbEntity
8
1
62
256
6
ByLayer
370
18
48
1
60
0
100
AcDbSpline
70
4
71
3
72
8
73
4
40
0
40
0
40
0
40
0
40
1
40
1
40
1
40
1
41
1
10
24.2841620991728
20
-1.15951141975182
30
0
41
1
10
24.2925964751631
20
-1.17587320166621
30
0
41
1
10
24.3010383875
20
-1.19223471219692
30
0
41
1
10
24.3094877201525
20
-1.20859595160704
30
0
0
SPLINE
5
203
100
AcDbEntity
8
1
62
256
6
ByLayer
370
18
48
1
60
0
100
AcDbSpline
70
4
71
2
72
6
73
3
40
0
40
0
40
0
40
1
40
1
40
1
41
0.499990110540291
10
17.4244713310916
20
-0.951901662336722
30
0
41
0.500009889459709
10
17.2253636365893
20
-0.949989738055339
30
0
41
0.499990110540291
10
17.0263145020563
20
-0.94807778349155
30
0
0
SPLINE
5
204
100
AcDbEntity
8
1
62
256
6
ByLayer
370
18
48
1
60
0
100
AcDbSpline
70
4
71
3
72
24
73
20
40
0
40
0
40
0
40
0
40
0.249999999999999
40
0.249999999999999
40
0.374999999999999
40
0.374999999999999
40
0.499999999999999
40
0.499999999999999
40
0.624999999999999
40
0.624999999999999
40
0.687499999999999
40
0.687499999999999
40
0.749999999999999
40
0.749999999999999
40
0.874999999999999
40
0.874999999999999
40
0.9375
40
0.9375
40
1
40
1
40
1
40
1
41
1
10
11.7283247019226
20
5.7657630058755
30
0
41
1
10
11.8234341570553
20
5.19395843252022
30
0
41
1
10
11.9694837994771
20
4.62414683271058
30
0
41
1
10
12.2575402466545
20
3.7721282701155
30
0
41
1
10
12.3654496425683
20
3.48774870310623
30
0
41
1
10
12.602034072457
20
2.92511966999865
30
0
41
1
10
12.7306280315875
20
2.64670592837871
30
0
41
1
10
13.0094734639354
20
2.09597678857048
30
0
41
1
10
13.1596107925508
20
1.82362924943652
30
0
41
1
10
13.4049936759851
20
1.42078936877144
30
0
41
1
10
13.490192686224
20
1.28746811165453
30
0
41
1
10
13.6689155594308
20
1.02316971737628
30
0
41
1
10
13.76254871816
20
0.892073940633594
30
0
41
1
10
14.0563176094343
20
0.507429659123716
30
0
41
1
10
14.2694932458445
20
0.260975224879957
30
0
41
1
10
14.6346229874152
20
-0.0825933133771741
30
0
41
1
10
14.7650362886566
20
-0.193277929831567
30
0
41
1
10
15.038023302398
20
-0.397356434975222
30
0
41
1
10
15.1810721398335
20
-0.491284010788689
30
0
41
1
10
15.3311142908356
20
-0.57655794228009
30
0
0
SPLINE
5
205
100
AcDbEntity
8
1
62
256
6
ByLayer
370
18
48
1
60
0
100
AcDbSpline
70
4
71
3
72
8
73
4
40
0
40
0
40
0
40
0
40
1
40
1
40
1
40
1
41
1
10
20.8153667082605
20
-15.1169959841798
30
0
41
1
10
21.8032167939276
20
-15.1366502919988
30
0
41
1
10
22.7908768230317
20
-15.1536194352826
30
0
41
1
10
23.7783941122454
20
-15.1677506395853
30
0
0
SPLINE
5
206
100
AcDbEntity
8
1
62
256
6
ByLayer
370
18
48
1
60
0
100
AcDbSpline
70
4
71
3
72
32
73
28
40
0
40
0
40
0
40
0
40
0.125
40
0.125
40
0.1875
40
0.1875
40
0.249999999999999
40
0.249999999999999
40
0.312499999999999
40
0.312499999999999
40
0.374999999999999
40
0.374999999999999
40
0.437499999999999
40
0.437499999999999
40
0.499999999999999
40
0.499999999999999
40
0.562499999999999
40
0.562499999999999
40
0.624999999999998
40
0.624999999999998
40
0.749999999999999
40
0.749999999999999
40
0.874999999999999
40
0.874999999999999
40
0.9375
40
0.9375
40
1
40
1
40
1
40
1
41
1
10
21.8805698213239
20
-0.526711260837004
30
0
41
1
10
21.9414689225135
20
-0.489391654235561
30
0
41
1
10
22.009530427474
20
-0.456918013299145
30
0
41
1
10
22.1225170355024
20
-0.417714541979336
30
0
41
1
10
22.1623372900777
20
-0.406200922002739
30
0
41
1
10
22.2436718896938
20
-0.387573096951996
30
0
41
1
10
22.2853172931177
20
-0.38037829765733
30
0
41
1
10
22.3705801473055
20
-0.370619900351301
30
0
41
1
10
22.4141969439656
20
-0.368054525491914
30
0
41
1
10
22.5035411540772
20
-0.368158550172183
30
0
41
1
10
22.5486565968625
20
-0.370870142780433
30
0
41
1
10
22.6378136787708
20
-0.381528755945823
30
0
41
1
10
22.6821534371045
20
-0.38947328552365
30
0
41
1
10
22.7703545259419
20
-0.41062540333516
30
0
41
1
10
22.8144855490961
20
-0.423967946858113
30
0
41
1
10
22.8994114365751
20
-0.454896056573261
30
0
41
1
10
22.9405311228693
20
-0.472525294532261
30
0
41
1
10
23.0202753394145
20
-0.511691996242462
30
0
41
1
10
23.059156281616
20
-0.533403429208619
30
0
41
1
10
23.1697563597489
20
-0.602418169614566
30
0
41
1
10
23.2359235438705
20
-0.653592011336571
30
0
41
1
10
23.3540689453155
20
-0.762480519841404
30
0
41
1
10
23.4040735494851
20
-0.818321631249972
30
0
41
1
10
23.4665658952164
20
-0.902399797355031
30
0
41
1
10
23.4853302822543
20
-0.930608142042388
30
0
41
1
10
23.5177731898174
20
-0.985790177561569
30
0
41
1
10
23.5315520925352
20
-1.01287459595031
30
0
41
1
10
23.5428287711155
20
-1.03935005680472
30
0
0
SPLINE
5
207
100
AcDbEntity
8
1
62
256
6
ByLayer
370
18
48
1
60
0
100
AcDbSpline
70
4
71
3
72
10
73
6
40
0
40
0
40
0
40
0
40
0.5
40
0.5
40
1
40
1
40
1
40
1
41
1
10
19.464531268992
20
-15.2131345143862
30
0
41
1
10
19.3934540739955
20
-15.2410490475247
30
0
41
1
10
19.3260371685932
20
-15.2660081528833
30
0
41
1
10
19.2042131774318
20
-15.3098580650316
30
0
41
1
10
19.1490855294825
20
-15.3287567253265
30
0
41
1
10
19.1091252685427
20
-15.3444419517597
30
0
0
SPLINE
5
208
100
AcDbEntity
8
1
62
256
6
ByLayer
370
18
48
1
60
0
100
AcDbSpline
70
4
71
3
72
10
73
6
40
0
40
0
40
0
40
0
40
0.5
40
0.5
40
1
40
1
40
1
40
1
41
1
10
24.075742909124
20
-0.440995999386416
30
0
41
1
10
24.075742909124
20
-0.508359430627479
30
0
41
1
10
24.0798400235079
20
-0.574290595404108
30
0
41
1
10
24.0995428663742
20
-0.703656908851286
30
0
41
1
10
24.1149991899863
20
-0.765901549284166
30
0
41
1
10
24.1374404240038
20
-0.825659735185923
30
0
0
SPLINE
5
209
100
AcDbEntity
8
1
62
256
6
ByLayer
370
18
48
1
60
0
100
AcDbSpline
70
4
71
3
72
8
73
4
40
0
40
0
40
0
40
0
40
1
40
1
40
1
40
1
41
1
10
24.3711852350395
20
-14.5932929499608
30
0
41
1
10
24.3711852350395
20
-14.6165811394434
30
0
41
1
10
24.3697870408709
20
-14.6398249631017
30
0
41
1
10
24.3669918917674
20
-14.662978020887
30
0
0
SPLINE
5
20A
100
AcDbEntity
8
1
62
256
6
ByLayer
370
18
48
1
60
0
100
AcDbSpline
70
4
71
3
72
16
73
12
40
0
40
0
40
0
40
0
40
0.25
40
0.25
40
0.5
40
0.5
40
0.75
40
0.75
40
0.875
40
0.875
40
1
40
1
40
1
40
1
41
1
10
8.5
20
-6.50922422412995
30
0
41
1
10
8.5
20
-6.54110320461396
30
0
41
1
10
8.49697102204891
20
-6.5724731096106
30
0
41
1
10
8.48419499263429
20
-6.63412078219974
30
0
41
1
10
8.47439613531475
20
-6.66471116358881
30
0
41
1
10
8.44533975777352
20
-6.72291678209908
30
0
41
1
10
8.42611854158588
20
-6.75069164117116
30
0
41
1
10
8.38681030075895
20
-6.78424949756518
30
0
41
1
10
8.37161772041895
20
-6.79420299039077
30
0
41
1
10
8.33778664683086
20
-6.80835815584732
30
0
41
1
10
8.31911604358851
20
-6.81248853210045
30
0
41
1
10
8.30000000000001
20
-6.81248853210045
30
0
0
SPLINE
5
20B
100
AcDbEntity
8
1
62
256
6
ByLayer
370
18
48
1
60
0
100
AcDbSpline
70
4
71
3
72
8
73
4
40
0
40
0
40
0
40
0
40
1
40
1
40
1
40
1
41
1
10
24.1374404240109
20
-8.46628225629621
30
0
41
1
10
24.1680955853302
20
-8.51859355324569
30
0
41
1
10
24.1987507728742
20
-8.57089347872034
30
0
41
1
10
24.2294059824662
20
-8.62318199684944
30
0
0
SPLINE
5
20C
100
AcDbEntity
8
1
62
256
6
ByLayer
370
18
48
1
60
0
100
AcDbSpline
70
4
71
3
72
8
73
4
40
0
40
0
40
0
40
0
40
1
40
1
40
1
40
1
41
1
10
11.6454516502505
20
12.6852549777731
30
0
41
1
10
11.6647270827007
20
12.7020368788274
30
0
41
1
10
11.6922434186114
20
12.717936352116
30
0
41
1
10
11.7283247019224
20
12.7333991209603
30
0
0
SPLINE
5
20D
100
AcDbEntity
8
1
62
256
6
ByLayer
370
18
48
1
60
0
100
AcDbSpline
70
4
71
3
72
10
73
6
40
0
40
0
40
0
40
0
40
0.5
40
0.5
40
1
40
1
40
1
40
1
41
1
10
15.3311142908356
20
-13.4634590484245
30
0
41
1
10
15.494579339198
20
-13.5344548084263
30
0
41
1
10
15.665812177728
20
-13.5886252628176
30
0
41
1
10
16.0233459475008
20
-13.6653222733539
30
0
41
1
10
16.2108438313091
20
-13.6878172576473
30
0
41
1
10
16.4
20
-13.6963943636982
30
0
0
SPLINE
5
20E
100
AcDbEntity
8
1
62
256
6
ByLayer
370
18
48
1
60
0
100
AcDbSpline
70
4
71
3
72
8
73
4
40
0
40
0
40
0
40
0
40
1
40
1
40
1
40
1
41
1
10
21.0767455445771
20
12.595896722649
30
0
41
1
10
20.3966003764023
20
12.6010002026741
30
0
41
1
10
19.7164551956881
20
12.6061035511953
30
0
41
1
10
19.0363100025231
20
12.6112067690792
30
0
0
SPLINE
5
20F
100
AcDbEntity
8
1
62
256
6
ByLayer
370
18
48
1
60
0
100
AcDbSpline
70
4
71
3
72
8
73
4
40
0
40
0
40
0
40
0
40
1
40
1
40
1
40
1
41
1
10
12.7566195145104
20
8.70823894610723
30
0
41
1
10
12.6474747015614
20
8.66235477918639
30
0
41
1
10
12.5391361708741
20
8.6046745064065
30
0
41
1
10
12.4312715593578
20
8.53375307458927
30
0
0
SPLINE
5
210
100
AcDbEntity
8
1
62
256
6
ByLayer
370
18
48
1
60
0
100
AcDbSpline
70
4
71
3
72
8
73
4
40
0
40
0
40
0
40
0
40
1
40
1
40
1
40
1
41
1
10
24.2841620991728
20
-11.3195448165294
30
0
41
1
10
24.2322329516751
20
-11.2498239691043
30
0
41
1
10
24.1832159003714
20
-11.1920721092822
30
0
41
1
10
24.1374404240111
20
-11.1464111373444
30
0
0
SPLINE
5
211
100
AcDbEntity
8
1
62
256
6
ByLayer
370
18
48
1
60
0
100
AcDbSpline
70
4
71
3
72
20
73
16
40
0
40
0
40
0
40
0
40
0.250000000000001
40
0.250000000000001
40
0.375
40
0.375
40
0.5
40
0.5
40
0.625
40
0.625
40
0.75
40
0.75
40
0.875
40
0.875
40
1
40
1
40
1
40
1
41
1
10
12.4312715593579
20
8.5337530745893
30
0
41
1
10
12.3277707028425
20
8.46570082988009
30
0
41
1
10
12.227869286264
20
8.38732419810384
30
0
41
1
10
12.0843751839203
20
8.25098655820261
30
0
41
1
10
12.0374309407897
20
8.20207334353853
30
0
41
1
10
11.9491680121674
20
8.10026045431934
30
0
41
1
10
11.9074719353293
20
8.04705392740476
30
0
41
1
10
11.829624041688
20
7.93542149503423
30
0
41
1
10
11.793470193578
20
7.8767712113094
30
0
41
1
10
11.7307238215972
20
7.75902936189044
30
0
41
1
10
11.7036519175165
20
7.69932246754973
30
0
41
1
10
11.6589072508702
20
7.57802140967075
30
0
41
1
10
11.6414317267532
20
7.51646055892522
30
0
41
1
10
11.6181873323511
20
7.3978232160984
30
0
41
1
10
11.6120701587644
20
7.33991091605392
30
0
41
1
10
11.6115225656981
20
7.28339275567933
30
0
0
SPLINE
5
212
100
AcDbEntity
8
1
62
256
6
ByLayer
370
18
48
1
60
0
100
AcDbSpline
70
4
71
3
72
8
73
4
40
0
40
0
40
0
40
0
40
1
40
1
40
1
40
1
41
1
10
24.0459255577238
20
5.54691580342802
30
0
41
1
10
24.0438400845003
20
5.53512548907491
30
0
41
1
10
24.0417546112768
20
5.52333517472181
30
0
41
1
10
24.0396691380533
20
5.5115448603687
30
0
0
SPLINE
5
213
100
AcDbEntity
8
1
62
256
6
ByLayer
370
18
48
1
60
0
100
AcDbSpline
70
4
71
3
72
15
73
11
40
0
40
0
40
0
40
0
40
0.0261855431706681
40
0.240184900128682
40
0.293684739368186
40
0.347184578607689
40
0.454184257086696
40
0.882182971002724
40
0.989182649481731
40
1
40
1
40
1
40
1
41
1
10
19.0360000634587
20
12.5887498609417
30
0
41
1
10
19.0351352787183
20
12.5909533423727
30
0
41
1
10
19.0273415263036
20
12.6112211658027
30
0
41
1
10
19.0193491397423
20
12.6365980087857
30
0
41
1
10
19.0123629276339
20
12.6648512044675
30
0
41
1
10
19.0081638590321
20
12.6838104799889
30
0
41
1
10
18.9984738096099
20
12.736402151077
30
0
41
1
10
18.9944130904828
20
12.7950095864837
30
0
41
1
10
18.9963074445403
20
12.8449339293453
30
0
41
1
10
18.996889490556
20
12.855706796494
30
0
41
1
10
18.9969442292311
20
12.8566958788073
30
0
0
SPLINE
5
214
100
AcDbEntity
8
1
62
256
6
ByLayer
370
18
48
1
60
0
100
AcDbSpline
70
4
71
3
72
8
73
4
40
0
40
0
40
0
40
0
40
1
40
1
40
1
40
1
41
1
10
24.4458359367399
20
-12.3774959303065
30
0
41
1
10
24.392575064417
20
-12.3721649633767
30
0
41
1
10
24.3393141920941
20
-12.3668339964468
30
0
41
1
10
24.2860533197713
20
-12.361503029517
30
0
0
SPLINE
5
215
100
AcDbEntity
8
1
62
256
6
ByLayer
370
18
48
1
60
0
100
AcDbSpline
70
4
71
3
72
9
73
5
40
0
40
0
40
0
40
0
40
0.260802257127156
40
1
40
1
40
1
40
1
41
1
10
24.4041904622262
20
-5.09799800323992
30
0
41
1
10
24.4052986608563
20
-5.10096900499099
30
0
41
1
10
24.4089972203423
20
-5.11229252844083
30
0
41
1
10
24.410577545157
20
-5.12332957238991
30
0
41
1
10
24.410577545154
20
-5.13129324094069
30
0
0
SPLINE
5
216
100
AcDbEntity
8
1
62
256
6
ByLayer
370
18
48
1
60
0
100
AcDbSpline
70
4
71
3
72
8
73
4
40
0
40
0
40
0
40
0
40
1
40
1
40
1
40
1
41
1
10
19.9351817079834
20
-4.68686069433386
30
0
41
1
10
19.9983084437113
20
-4.74867519295117
30
0
41
1
10
20.0614351794379
20
-4.81048969156822
30
0
41
1
10
20.1245619151633
20
-4.8723041901851
30
0
0
SPLINE
5
217
100
AcDbEntity
8
1
62
256
6
ByLayer
370
18
48
1
60
0
100
AcDbSpline
70
4
71
3
72
8
73
4
40
0
40
0
40
0
40
0
40
1
40
1
40
1
40
1
41
1
10
19.197457517652
20
-6.51332797893232
30
0
41
1
10
19.1775038437137
20
-6.49378908885728
30
0
41
1
10
19.1575501697754
20
-6.47425019878227
30
0
41
1
10
19.137596495837
20
-6.45471130870723
30
0
0
SPLINE
5
218
100
AcDbEntity
8
1
62
256
6
ByLayer
370
18
48
1
60
0
100
AcDbSpline
70
4
71
3
72
10
73
6
40
0
40
0
40
0
40
0
40
0.319486915943638
40
0.971106993102545
40
1
40
1
40
1
40
1
41
1
10
24.9411793412906
20
-7.44545731643956
30
0
41
1
10
24.9438668015599
20
-7.45415362412183
30
0
41
1
10
24.9506783515113
20
-7.48041041754226
30
0
41
1
10
24.9547624212783
20
-7.50702229229464
30
0
41
1
10
24.9574732607716
20
-7.52512146277854
30
0
41
1
10
24.9575882405163
20
-7.52588989371662
30
0
0
SPLINE
5
219
100
AcDbEntity
8
1
62
256
6
ByLayer
370
18
48
1
60
0
100
AcDbSpline
70
4
71
3
72
8
73
4
40
0
40
0
40
0
40
0
40
1
40
1
40
1
40
1
41
1
10
18.306145619659
20
-6.58507614389086
30
0
41
1
10
18.3443604097735
20
-6.53477332572641
30
0
41
1
10
18.3825751998879
20
-6.48447050756192
30
0
41
1
10
18.4207899900023
20
-6.43416768939744
30
0
0
SPLINE
5
21A
100
AcDbEntity
8
1
62
256
6
ByLayer
370
18
48
1
60
0
100
AcDbSpline
70
4
71
3
72
8
73
4
40
0
40
0
40
0
40
0
40
1
40
1
40
1
40
1
41
1
10
24.3553609187255
20
-8.67607920999598
30
0
41
1
10
24.2621567629424
20
-8.52811333142526
30
0
41
1
10
24.1689526071624
20
-8.38014745285409
30
0
41
1
10
24.0757484513853
20
-8.23218157428255
30
0
0
SPLINE
5
21B
100
AcDbEntity
8
1
62
256
6
ByLayer
370
18
48
1
60
0
100
AcDbSpline
70
4
71
3
72
8
73
4
40
0
40
0
40
0
40
0
40
1
40
1
40
1
40
1
41
1
10
24.4105775458033
20
-9.74091176072844
30
0
41
1
10
24.4105775458052
20
-9.76145748976128
30
0
41
1
10
24.4060641872812
20
-9.78258142728271
30
0
41
1
10
24.3972978482337
20
-9.80333483802315
30
0
0
SPLINE
5
21C
100
AcDbEntity
8
1
62
256
6
ByLayer
370
18
48
1
60
0
100
AcDbSpline
70
4
71
3
72
8
73
4
40
0
40
0
40
0
40
0
40
1
40
1
40
1
40
1
41
1
10
24.4860371798473
20
-8.06242863940082
30
0
41
1
10
24.4424784261221
20
-8.26697882961869
30
0
41
1
10
24.3989196723962
20
-8.47152901983662
30
0
41
1
10
24.3553609186675
20
-8.67607921005492
30
0
0
SPLINE
5
21D
100
AcDbEntity
8
1
62
256
6
ByLayer
370
18
48
1
60
0
100
AcDbSpline
70
4
71
3
72
8
73
4
40
0
40
0
40
0
40
0
40
1
40
1
40
1
40
1
41
1
10
24.6283106851452
20
-8.08281876839266
30
0
41
1
10
24.5557419432726
20
-8.343864562189
30
0
41
1
10
24.4831642299174
20
-8.6049090228837
30
0
41
1
10
24.4105775451482
20
-8.86595215022996
30
0
0
SPLINE
5
21E
100
AcDbEntity
8
1
62
256
6
ByLayer
370
18
48
1
60
0
100
AcDbSpline
70
4
71
3
72
10
73
6
40
0
40
0
40
0
40
0
40
0.333194524467813
40
0.666597262233906
40
1
40
1
40
1
40
1
41
1
10
24.8213976823025
20
-8.08984904248211
30
0
41
1
10
24.8230854703157
20
-8.13054908296326
30
0
41
1
10
24.8264654734169
20
-8.21197409610232
30
0
41
1
10
24.8315462184917
20
-8.33412281403821
30
0
41
1
10
24.8349409599099
20
-8.41557122586801
30
0
41
1
10
24.836640064033
20
-8.45629517392589
30
0
0
SPLINE
5
21F
100
AcDbEntity
8
1
62
256
6
ByLayer
370
18
48
1
60
0
100
AcDbSpline
70
4
71
3
72
8
73
4
40
0
40
0
40
0
40
0
40
1
40
1
40
1
40
1
41
1
10
24.8756364060898
20
-6.64410468265632
30
0
41
1
10
24.8423363836171
20
-6.73305335138593
30
0
41
1
10
24.8090363611445
20
-6.82200202011552
30
0
41
1
10
24.775736338672
20
-6.91095068884511
30
0
0
SPLINE
5
220
100
AcDbEntity
8
1
62
256
6
ByLayer
370
18
48
1
60
0
100
AcDbSpline
70
4
71
3
72
16
73
12
40
0
40
0
40
0
40
0
40
0.196291586947887
40
0.426724236198601
40
0.484332398511279
40
0.541940560823958
40
0.657156885449315
40
0.887589534700029
40
0.945197697012708
40
0.974001778169047
40
1
40
1
40
1
40
1
41
1
10
24.6461247077877
20
-6.23635990628841
30
0
41
1
10
24.6611370459036
20
-6.26304063508312
30
0
41
1
10
24.6937723940021
20
-6.32104284451248
30
0
41
1
10
24.7308201769412
20
-6.38687294825075
30
0
41
1
10
24.7572659830941
20
-6.43385093943715
30
0
41
1
10
24.7748983946229
20
-6.46516889134412
30
0
41
1
10
24.8057605708549
20
-6.51997323990253
30
0
41
1
10
24.8366358054452
20
-6.57477262806972
30
0
41
1
10
24.8608366870596
20
-6.61785139782018
30
0
41
1
10
24.8694823121335
20
-6.63311228219669
30
0
41
1
10
24.8736780787369
20
-6.64055952372448
30
0
41
1
10
24.8756415511973
20
-6.64410273926495
30
0
0
SPLINE
5
221
100
AcDbEntity
8
1
62
256
6
ByLayer
370
18
48
1
60
0
100
AcDbSpline
70
4
71
3
72
9
73
5
40
0
40
0
40
0
40
0
40
0.546447169128184
40
1
40
1
40
1
40
1
41
1
10
24.836640064033
20
-8.45629517392589
30
0
41
1
10
24.8372859326079
20
-8.47177528367345
30
0
41
1
10
24.8353069686182
20
-8.50057748303482
30
0
41
1
10
24.8274867240598
20
-8.52961359525193
30
0
41
1
10
24.8227285187817
20
-8.54272309941143
30
0
0
SPLINE
5
222
100
AcDbEntity
8
1
62
256
6
ByLayer
370
18
48
1
60
0
100
AcDbSpline
70
4
71
3
72
8
73
4
40
0
40
0
40
0
40
0
40
1
40
1
40
1
40
1
41
1
10
24.9575829527509
20
-7.0091533279236
30
0
41
1
10
24.9319562680722
20
-7.08373576989993
30
0
41
1
10
24.9063295833935
20
-7.15831821187629
30
0
41
1
10
24.8807028987148
20
-7.23290065385265
30
0
0
SPLINE
5
223
100
AcDbEntity
8
1
62
256
6
ByLayer
370
18
48
1
60
0
100
AcDbSpline
70
4
71
3
72
30
73
26
40
0
40
0
40
0
40
0
40
0.0499606866419698
40
0.0910774587669921
40
0.104783049475333
40
0.118488640183674
40
0.159605412308696
40
0.214427775142059
40
0.324072500808785
40
0.433717226475511
40
0.488539589308874
40
0.515950770725556
40
0.543361952142237
40
0.5981843149756
40
0.625595496392282
40
0.653006677808963
40
0.666712268517304
40
0.680417859225645
40
0.707829040642326
40
0.76265140347569
40
0.817473766309053
40
0.844884947725734
40
0.872296129142416
40
0.981940854809142
40
1
40
1
40
1
40
1
41
1
10
24.9575882405163
20
-7.00915241359473
30
0
41
1
10
24.958769822087
20
-7.02526751275244
30
0
41
1
10
24.9609014520149
20
-7.05464788910891
30
0
41
1
10
24.9633365263286
20
-7.08845143805235
30
0
41
1
10
24.9649318268068
20
-7.11055836881118
30
0
41
1
10
24.9665301080057
20
-7.13266481393757
30
0
41
1
10
24.96909630757
20
-7.16803367781617
30
0
41
1
10
24.9739315031547
20
-7.23434658576505
30
0
41
1
10
24.980414648283
20
-7.32275848320668
30
0
41
1
10
24.9869338849431
20
-7.41116971097011
30
0
41
1
10
24.9914008054407
20
-7.47307662384009
30
0
41
1
10
24.9941347159026
20
-7.50842549098246
30
0
41
1
10
24.996140938783
20
-7.5438871870995
30
0
41
1
10
24.9970643705038
20
-7.57950813414774
30
0
41
1
10
24.9979329120931
20
-7.61513652506537
30
0
41
1
10
24.9984222429208
20
-7.63741167931454
30
0
41
1
10
24.9987632209168
20
-7.65523883365736
30
0
41
1
10
24.9990709479341
20
-7.67307058757365
30
0
41
1
10
24.99952325424
20
-7.70428800053668
30
0
41
1
10
24.9999291767265
20
-7.74891682782103
30
0
41
1
10
25.0000310653081
20
-7.79358551028625
30
0
41
1
10
24.9999288779919
20
-7.82934397762318
30
0
41
1
10
24.9995912599169
20
-7.88300500412146
30
0
41
1
10
24.9988366952258
20
-7.93366925790809
30
0
41
1
10
24.9978762812027
20
-7.97542078783758
30
0
41
1
10
24.997733029542
20
-7.9813258613917
30
0
0
SPLINE
5
224
100
AcDbEntity
8
1
62
256
6
ByLayer
370
18
48
1
60
0
100
AcDbSpline
70
4
71
3
72
10
73
6
40
0
40
0
40
0
40
0
40
0.0923314014523297
40
0.716806523628373
40
1
40
1
40
1
40
1
41
1
10
24.996985791195
20
-8.00944526886875
30
0
41
1
10
24.9968966754113
20
-8.01209804519758
30
0
41
1
10
24.996026684651
20
-8.03270355304917
30
0
41
1
10
24.9902328607362
20
-8.06170368356666
30
0
41
1
10
24.9802760101086
20
-8.08809916172456
30
0
41
1
10
24.9767244425633
20
-8.09630491066645
30
0
0
SPLINE
5
225
100
AcDbEntity
8
1
62
256
6
ByLayer
370
18
48
1
60
0
100
AcDbSpline
70
4
71
3
72
11
73
7
40
0
40
0
40
0
40
0
40
0.091886551243046
40
0.394591034162031
40
0.697295517081015
40
1
40
1
40
1
40
1
41
1
10
24.3727649731877
20
-13.4154651046353
30
0
41
1
10
24.375061429824
20
-13.4225233564978
30
0
41
1
10
24.3844858157423
20
-13.4529627691011
30
0
41
1
10
24.3977920928566
20
-13.5076334021331
30
0
41
1
10
24.4082412000849
20
-13.5799428148819
30
0
41
1
10
24.410577545157
20
-13.6284429592194
30
0
41
1
10
24.410577545154
20
-13.6526549912574
30
0
0
SPLINE
5
226
100
AcDbEntity
8
1
62
256
6
ByLayer
370
18
48
1
60
0
100
AcDbSpline
70
4
71
3
72
12
73
8
40
0
40
0
40
0
40
0
40
0.205564991379753
40
0.411129982759506
40
0.616694974139259
40
0.822259965519012
40
1
40
1
40
1
40
1
41
1
10
20.4983944392787
20
-15.157590261414
30
0
41
1
10
20.4785614222661
20
-15.1573744823561
30
0
41
1
10
20.4388305984835
20
-15.1539277965221
30
0
41
1
10
20.380390211843
20
-15.1399323970456
30
0
41
1
10
20.3244558925362
20
-15.1173316392845
30
0
41
1
10
20.2746215146245
20
-15.0881150369977
30
0
41
1
10
20.2450718337278
20
-15.0648166264186
30
0
41
1
10
20.2320996763111
20
-15.0531943667773
30
0
0
SPLINE
5
227
100
AcDbEntity
8
1
62
256
6
ByLayer
370
18
48
1
60
0
100
AcDbSpline
70
4
71
3
72
8
73
4
40
0
40
0
40
0
40
0
40
1
40
1
40
1
40
1
41
1
10
19.1974575176566
20
-15.40870773215
30
0
41
1
10
19.4000491923508
20
-15.2974672068297
30
0
41
1
10
19.6026408670451
20
-15.1862266815094
30
0
41
1
10
19.8052325417395
20
-15.0749861561889
30
0
0
SPLINE
5
228
100
AcDbEntity
8
1
62
256
6
ByLayer
370
18
48
1
60
0
100
AcDbSpline
70
4
71
3
72
8
73
4
40
0
40
0
40
0
40
0
40
1
40
1
40
1
40
1
41
1
10
19.197457517652
20
-15.4087077321504
30
0
41
1
10
19.1794757475055
20
-15.3637092209323
30
0
41
1
10
19.1614939773591
20
-15.3187107097142
30
0
41
1
10
19.1435122072125
20
-15.2737121984961
30
0
0
SPLINE
5
229
100
AcDbEntity
8
1
62
256
6
ByLayer
370
18
48
1
60
0
100
AcDbSpline
70
4
71
3
72
8
73
4
40
0
40
0
40
0
40
0
40
1
40
1
40
1
40
1
41
1
10
24.3047162921401
20
-12.6324689835281
30
0
41
1
10
24.4273270405383
20
-12.9392964589259
30
0
41
1
10
24.5499377889379
20
-13.2461239343232
30
0
41
1
10
24.6725485373393
20
-13.5529514097198
30
0
0
SPLINE
5
22A
100
AcDbEntity
8
1
62
256
6
ByLayer
370
18
48
1
60
0
100
AcDbSpline
70
4
71
3
72
16
73
12
40
0
40
0
40
0
40
0
40
0.0064474483719847
40
0.0665786351309901
40
0.186841008649001
40
0.307103382167012
40
0.427365755685023
40
0.547628129203033
40
0.667890502721044
40
0.788152876239055
40
1
40
1
40
1
40
1
41
1
10
18.7359368448951
20
-15.602221349211
30
0
41
1
10
18.735696697642
20
-15.6015670852717
30
0
41
1
10
18.7332236434534
20
-15.5948085272056
30
0
41
1
10
18.7264527684358
20
-15.5757825490601
30
0
41
1
10
18.715418936538
20
-15.5452199697521
30
0
41
1
10
18.7021814681895
20
-15.5085419106424
30
0
41
1
10
18.688946829681
20
-15.4718629208246
30
0
41
1
10
18.6757148044042
20
-15.4351830715567
30
0
41
1
10
18.6624851757504
20
-15.398502434097
30
0
41
1
10
18.6458999781479
20
-15.3525096256928
30
0
41
1
10
18.6337264256168
20
-15.3187431147543
30
0
41
1
10
18.6259619370438
20
-15.2972037501163
30
0
0
SPLINE
5
22B
100
AcDbEntity
8
1
62
256
6
ByLayer
370
18
48
1
60
0
100
AcDbSpline
70
4
71
3
72
11
73
7
40
0
40
0
40
0
40
0
40
0.286274895159598
40
0.810457191127557
40
0.941502765119547
40
1
40
1
40
1
40
1
41
1
10
24.2702675500427
20
-12.1406777587485
30
0
41
1
10
24.2931350832999
20
-12.1578090185875
30
0
41
1
10
24.3539072895944
20
-12.2116931150176
30
0
41
1
10
24.4083646607764
20
-12.2895883131173
30
0
41
1
10
24.4372183287044
20
-12.3544460370012
30
0
41
1
10
24.4438453375173
20
-12.3720449833883
30
0
41
1
10
24.4458449561864
20
-12.3774925456501
30
0
0
SPLINE
5
22C
100
AcDbEntity
8
1
62
256
6
ByLayer
370
18
48
1
60
0
100
AcDbSpline
70
4
71
3
72
14
73
10
40
0
40
0
40
0
40
0
40
0.0316323837478465
40
0.193026986456539
40
0.354421589165231
40
0.515816191873923
40
0.677210794582616
40
0.838605397291308
40
1
40
1
40
1
40
1
41
1
10
24.8231720597533
20
8.34114492246869
30
0
41
1
10
24.8220663895485
20
8.3441945656877
30
0
41
1
10
24.8149073149896
20
8.36278680407401
30
0
41
1
10
24.7971367603801
20
8.39663524691773
30
0
41
1
10
24.7623154107798
20
8.44067734151022
30
0
41
1
10
24.7170079284252
20
8.48091917476449
30
0
41
1
10
24.6619407785221
20
8.51507946057086
30
0
41
1
10
24.5990427069822
20
8.54068083045402
30
0
41
1
10
24.5542383354785
20
8.55079075328632
30
0
41
1
10
24.5317911362247
20
8.55405729835064
30
0
0
SPLINE
5
22D
100
AcDbEntity
8
1
62
256
6
ByLayer
370
18
48
1
60
0
100
AcDbSpline
70
4
71
3
72
14
73
10
40
0
40
0
40
0
40
0
40
0.0721411719737584
40
0.226784309978132
40
0.381427447982506
40
0.536070585986879
40
0.690713723991253
40
0.845356861995627
40
1
40
1
40
1
40
1
41
1
10
24.3976395194951
20
9.62410170437087
30
0
41
1
10
24.3950410091813
20
9.6302425103913
30
0
41
1
10
24.3856662012715
20
9.64945184542285
30
0
41
1
10
24.363639026669
20
9.68083742238559
30
0
41
1
10
24.3276470674692
20
9.71609542102885
30
0
41
1
10
24.2836378899023
20
9.74705123289908
30
0
41
1
10
24.2333908973524
20
9.77263885478709
30
0
41
1
10
24.1786854932053
20
9.7917922834834
30
0
41
1
10
24.1406437750722
20
9.79987854117263
30
0
41
1
10
24.1215802602545
20
9.80265268816211
30
0
0
SPLINE
5
22E
100
AcDbEntity
8
1
62
256
6
ByLayer
370
18
48
1
60
0
100
AcDbSpline
70
4
71
3
72
12
73
8
40
0
40
0
40
0
40
0
40
0.240045595908221
40
0.480091191816442
40
0.720136787724664
40
0.960182383632885
40
1
40
1
40
1
40
1
41
1
10
19.497403648304
20
9.28666778644413
30
0
41
1
10
19.4782953693951
20
9.28944844756143
30
0
41
1
10
19.4399036030968
20
9.29143362545926
30
0
41
1
10
19.3869141385306
20
9.28238470238361
30
0
41
1
10
19.3417318380876
20
9.263840440096
30
0
41
1
10
19.3144125280261
20
9.24609509387147
30
0
41
1
10
19.3010110459163
20
9.23570425801879
30
0
41
1
10
19.299129657603
20
9.23420996021119
30
0
0
SPLINE
5
22F
100
AcDbEntity
8
1
62
256
6
ByLayer
370
18
48
1
60
0
100
AcDbSpline
70
4
71
3
72
14
73
10
40
0
40
0
40
0
40
0
40
0.140116446766915
40
0.280232893533829
40
0.420349340300744
40
0.560465787067659
40
0.700582233834573
40
0.840698680601488
40
1
40
1
40
1
40
1
41
1
10
20.4983944392787
20
10.3299033087412
30
0
41
1
10
20.4785614222661
20
10.33278943619
30
0
41
1
10
20.4388305984835
20
10.3365109486921
30
0
41
1
10
20.380390211843
20
10.3358848303742
30
0
41
1
10
20.3244558925362
20
10.3289941651111
30
0
41
1
10
20.2722667684549
20
10.3160656250161
30
0
41
1
10
20.2250619674882
20
10.2973258821998
30
0
41
1
10
20.1819733633636
20
10.2721675871613
30
0
41
1
10
20.1579554849889
20
10.2513536239182
30
0
41
1
10
20.1468573828405
20
10.239412719394
30
0
0
SPLINE
5
230
100
AcDbEntity
8
1
62
256
6
ByLayer
370
18
48
1
60
0
100
AcDbSpline
70
4
71
3
72
18
73
14
40
0
40
0
40
0
40
0
40
0.0567843030542302
40
0.0567843030542302
40
0.191529402617911
40
0.191529402617911
40
0.461019601745275
40
0.461019601745275
40
0.730509800872638
40
0.730509800872638
40
0.865254900436319
40
0.865254900436319
40
1
40
1
40
1
40
1
41
1
10
21.442203629987
20
8.00380953895092
30
0
41
1
10
21.4406616959558
20
8.00195910087305
30
0
41
1
10
21.4383391517891
20
8.00013072310313
30
0
41
1
10
21.4287499306327
20
7.99403759790309
30
0
41
1
10
21.4190053836389
20
7.98990145225386
30
0
41
1
10
21.384591718101
20
7.97746611220884
30
0
41
1
10
21.3547448741501
20
7.96904477368008
30
0
41
1
10
21.2882270982061
20
7.95154633378718
30
0
41
1
10
21.2514783548586
20
7.94244792188476
30
0
41
1
10
21.1945461480811
20
7.93085074260537
30
0
41
1
10
21.1751720239526
20
7.92733438630734
30
0
41
1
10
21.1372033516487
20
7.92236664592747
30
0
41
1
10
21.1186443255011
20
7.9208691086213
30
0
41
1
10
21.1028635499809
20
7.92194372181217
30
0
0
SPLINE
5
231
100
AcDbEntity
8
1
62
256
6
ByLayer
370
18
48
1
60
0
100
AcDbSpline
70
4
71
3
72
13
73
9
40
0
40
0
40
0
40
0
40
0.0357652229473311
40
0.277660088815019
40
0.519554954682707
40
0.761449820550396
40
0.88239725348424
40
1
40
1
40
1
40
1
41
1
10
24.996985791195
20
8.11984576242941
30
0
41
1
10
24.9968966754113
20
8.12111288312201
30
0
41
1
10
24.996026684651
20
8.13092784489859
30
0
41
1
10
24.9882555349751
20
8.14852383946774
30
0
41
1
10
24.9640587157363
20
8.16890864571656
30
0
41
1
10
24.9334354865527
20
8.18268179073911
30
0
41
1
10
24.9032937495557
20
8.19175296982149
30
0
41
1
10
24.8865839634586
20
8.1954801443209
30
0
41
1
10
24.8779540879979
20
8.19711072248592
30
0
0
SPLINE
5
232
100
AcDbEntity
8
1
62
256
6
ByLayer
370
18
48
1
60
0
100
AcDbSpline
70
4
71
3
72
18
73
14
40
0
40
0
40
0
40
0
40
0.0967806101054609
40
0.176429361139317
40
0.202978944817269
40
0.229528528495221
40
0.309177279529076
40
0.415375614240884
40
0.6277722836645
40
0.840168953088115
40
0.946367287799923
40
0.999466455155827
40
1
40
1
40
1
40
1
41
1
10
24.9575882405163
20
7.62579460524174
30
0
41
1
10
24.958769822087
20
7.63387933647405
30
0
41
1
10
24.9609014520149
20
7.64861423465729
30
0
41
1
10
24.9633365263286
20
7.66556417261444
30
0
41
1
10
24.9649318268068
20
7.676650076676
30
0
41
1
10
24.9665301080057
20
7.68773657932707
30
0
41
1
10
24.96909630757
20
7.70547672683477
30
0
41
1
10
24.9739315031548
20
7.73874352820766
30
0
41
1
10
24.980414648283
20
7.78310329628997
30
0
41
1
10
24.9869338849431
20
7.8274618473842
30
0
41
1
10
24.9914008054407
20
7.85849399357792
30
0
41
1
10
24.993458105927
20
7.87185571917007
30
0
41
1
10
24.9940556530846
20
7.87632623498624
30
0
41
1
10
24.9940615883745
20
7.87637070692927
30
0
0
SPLINE
5
233
100
AcDbEntity
8
1
62
256
6
ByLayer
370
18
48
1
60
0
100
AcDbSpline
70
4
71
3
72
20
73
16
40
0
40
0
40
0
40
0
40
0.057741797797825
40
0.121822289051162
40
0.153862534677831
40
0.1859027803045
40
0.249983271557837
40
0.378144254064512
40
0.506305236571187
40
0.570385727824525
40
0.634466219077862
40
0.890788184091211
40
0.954868675344548
40
0.986908920971217
40
1
40
1
40
1
40
1
41
1
10
24.9973425845118
20
7.91705375695594
30
0
41
1
10
24.9975414936462
20
7.92099102698381
30
0
41
1
10
24.997952273481
20
7.92929611103025
30
0
41
1
10
24.9984222429208
20
7.93977728693474
30
0
41
1
10
24.9987632209169
20
7.94849953290466
30
0
41
1
10
24.9990709479341
20
7.95721640831076
30
0
41
1
10
24.99952325424
20
7.97245697261076
30
0
41
1
10
24.9999291767265
20
7.99419004297664
30
0
41
1
10
25.0000310653081
20
8.01587287622067
30
0
41
1
10
24.9999288779919
20
8.0331885129435
30
0
41
1
10
24.9995912599169
20
8.05913109435568
30
0
41
1
10
24.9987912017922
20
8.08499588208846
30
0
41
1
10
24.9976280550392
20
8.10863172514058
30
0
41
1
10
24.99722184711
20
8.11594775278849
30
0
41
1
10
24.9970473570565
20
8.11897036893703
30
0
41
1
10
24.996985791195
20
8.11984576242941
30
0
0
SPLINE
5
234
100
AcDbEntity
8
1
62
256
6
ByLayer
370
18
48
1
60
0
100
AcDbSpline
70
4
71
3
72
8
73
4
40
0
40
0
40
0
40
0
40
1
40
1
40
1
40
1
41
1
10
24.4694988285176
20
5.75330457551067
30
0
41
1
10
24.4314528585688
20
5.54670619845308
30
0
41
1
10
24.3934068886193
20
5.34010782139569
30
0
41
1
10
24.3553609186675
20
5.13350944433901
30
0
0
SPLINE
5
235
100
AcDbEntity
8
1
62
256
6
ByLayer
370
18
48
1
60
0
100
AcDbSpline
70
4
71
3
72
8
73
4
40
0
40
0
40
0
40
0
40
1
40
1
40
1
40
1
41
1
10
24.3553609187255
20
5.13350944439497
30
0
41
1
10
24.2621567821347
20
5.04043341459661
30
0
41
1
10
24.1689526455471
20
4.94735738479875
30
0
41
1
10
24.0757485089623
20
4.85428135500135
30
0
0
SPLINE
5
236
100
AcDbEntity
8
1
62
256
6
ByLayer
370
18
48
1
60
0
100
AcDbSpline
70
4
71
3
72
8
73
4
40
0
40
0
40
0
40
0
40
1
40
1
40
1
40
1
41
1
10
24.5531460314506
20
5.89907976377265
30
0
41
1
10
24.5225646831902
20
5.75731000437665
30
0
41
1
10
24.4919817419767
20
5.61554055074859
30
0
41
1
10
24.4613972078152
20
5.4737714029124
30
0
0
SPLINE
5
237
100
AcDbEntity
8
1
62
256
6
ByLayer
370
18
48
1
60
0
100
AcDbSpline
70
4
71
3
72
11
73
7
40
0
40
0
40
0
40
0
40
0.327112732344736
40
0.654225464689472
40
0.981338197034208
40
1
40
1
40
1
40
1
41
1
10
24.3553609186723
20
5.1335094443649
30
0
41
1
10
24.3644503262741
20
5.1425863588081
30
0
41
1
10
24.3804628416218
20
5.16067398499607
30
0
41
1
10
24.3977920928566
20
5.18735860913631
30
0
41
1
10
24.4049568717611
20
5.20517924660675
30
0
41
1
10
24.4073453531165
20
5.21416340346835
30
0
41
1
10
24.4074704927832
20
5.21464777551287
30
0
0
SPLINE
5
238
100
AcDbEntity
8
1
62
256
6
ByLayer
370
18
48
1
60
0
100
AcDbSpline
70
4
71
3
72
13
73
9
40
0
40
0
40
0
40
0
40
0.128476768088711
40
0.280755931645396
40
0.585314258758766
40
0.889872585872136
40
0.966012167650478
40
1
40
1
40
1
40
1
41
1
10
24.0763950486939
20
12.0660284567526
30
0
41
1
10
24.0977458359331
20
12.0708913860545
30
0
41
1
10
24.1438046869379
20
12.0845933061183
30
0
41
1
10
24.2352868321316
20
12.1264621730064
30
0
41
1
10
24.3401465104308
20
12.2073929818267
30
0
41
1
10
24.4083646607764
20
12.3048326591015
30
0
41
1
10
24.4372183287045
20
12.3695402245217
30
0
41
1
10
24.4438453375174
20
12.3870942078326
30
0
41
1
10
24.4458449561865
20
12.3925276728185
30
0
0
SPLINE
5
239
100
AcDbEntity
8
1
62
256
6
ByLayer
370
18
48
1
60
0
100
AcDbSpline
70
4
71
3
72
9
73
5
40
0
40
0
40
0
40
0
40
0.485838624967097
40
1
40
1
40
1
40
1
41
1
10
22.2478557263707
20
12.0097323977678
30
0
41
1
10
22.4411575994507
20
12.0130953231291
30
0
41
1
10
22.8390504523727
20
12.0210915969579
30
0
41
1
10
23.2369726019145
20
12.0312847851406
30
0
41
1
10
23.4415732633293
20
12.0370903856324
30
0
0
SPLINE
5
23A
100
AcDbEntity
8
1
62
256
6
ByLayer
370
18
48
1
60
0
100
AcDbSpline
70
4
71
3
72
8
73
4
40
0
40
0
40
0
40
0
40
1
40
1
40
1
40
1
41
1
10
22.7811445321813
20
12.0202022424186
30
0
41
1
10
23.0004656347214
20
12.0233483650144
30
0
41
1
10
23.2197867372614
20
12.0264944876101
30
0
41
1
10
23.4391078398015
20
12.0296406102056
30
0
0
SPLINE
5
23B
100
AcDbEntity
8
1
62
256
6
ByLayer
370
18
48
1
60
0
100
AcDbSpline
70
4
71
3
72
8
73
4
40
0
40
0
40
0
40
0
40
1
40
1
40
1
40
1
41
1
10
21.6343030458147
20
12.4254329695642
30
0
41
1
10
21.6030035015333
20
12.4240980897224
30
0
41
1
10
21.5717038409223
20
12.422781531666
30
0
41
1
10
21.5404040842425
20
12.4214832434028
30
0
0
SPLINE
5
23C
100
AcDbEntity
8
1
62
256
6
ByLayer
370
18
48
1
60
0
100
AcDbSpline
70
4
71
3
72
29
73
25
40
0
40
0
40
0
40
0
40
0.0556672801106864
40
0.101480478947073
40
0.116751545225868
40
0.132022611504663
40
0.17783581034105
40
0.238920075456231
40
0.361088605686595
40
0.483257135916958
40
0.54434140103214
40
0.57488353358973
40
0.605425666147321
40
0.666509931262503
40
0.697052063820094
40
0.727594196377685
40
0.74286526265648
40
0.758136328935276
40
0.788678461492866
40
0.849762726608048
40
0.91084699172323
40
0.941389124280821
40
0.971931256838411
40
1
40
1
40
1
40
1
41
1
10
18.22419373974
20
13.8541226873296
30
0
41
1
10
18.2230120926791
20
13.8307623117219
30
0
41
1
10
18.2208802588266
20
13.7881774210369
30
0
41
1
10
18.2184447601187
20
13.7391848179513
30
0
41
1
10
18.2168491033336
20
13.7071436952641
30
0
41
1
10
18.2152504257768
20
13.675102510814
30
0
41
1
10
18.2126834872709
20
13.6238364549236
30
0
41
1
10
18.2078467926784
20
13.5277124355462
30
0
41
1
10
18.2013620912726
20
13.3995478063063
30
0
41
1
10
18.194843710068
20
13.2713822022575
30
0
41
1
10
18.1903789657874
20
13.1816642158715
30
0
41
1
10
18.1876476546967
20
13.1303981613112
30
0
41
1
10
18.1856416958075
20
13.0791251141053
30
0
41
1
10
18.1847176973068
20
13.0278606534738
30
0
41
1
10
18.1838490386723
20
12.9765987594744
30
0
41
1
10
18.1833597253675
20
12.9445614882883
30
0
41
1
10
18.1830187577672
20
12.9189327247578
30
0
41
1
10
18.1827110389955
20
12.8933047001427
30
0
41
1
10
18.182258742169
20
12.8484576928908
30
0
41
1
10
18.1818528230507
20
12.7843969058642
30
0
41
1
10
18.1817509348563
20
12.720346072557
30
0
41
1
10
18.1818531220718
20
12.6691122250914
30
0
41
1
10
18.1820173742917
20
12.6317276290019
30
0
41
1
10
18.1821821235783
20
12.6071526402939
30
0
41
1
10
18.1822740825501
20
12.5953842473449
30
0
0
SPLINE
5
23D
100
AcDbEntity
8
1
62
256
6
ByLayer
370
18
48
1
60
0
100
AcDbSpline
70
4
71
3
72
8
73
4
40
0
40
0
40
0
40
0
40
1
40
1
40
1
40
1
41
1
10
21.6343030458145
20
12.4254329695642
30
0
41
1
10
21.619832365769
20
12.2837277233574
30
0
41
1
10
21.6053616857234
20
12.1420224771507
30
0
41
1
10
21.5908910056778
20
12.0003172309439
30
0
0
SPLINE
5
23E
100
AcDbEntity
8
1
62
256
6
ByLayer
370
18
48
1
60
0
100
AcDbSpline
70
4
71
3
72
25
73
21
40
0
40
0
40
0
40
0
40
0.0016493362088591
40
0.0170316297738977
40
0.0477962169039749
40
0.0785608040340522
40
0.109325391164129
40
0.140089978294207
40
0.170854565424284
40
0.201619152554361
40
0.32467750107467
40
0.570794198115288
40
0.693852546635596
40
0.724617133765673
40
0.755381720895751
40
0.816910895155905
40
0.939969243676214
40
0.970733830806291
40
0.98611612437133
40
1
40
1
40
1
40
1
41
1
10
24.4458449561865
20
12.3925276728185
30
0
41
1
10
24.4460851115579
20
12.3931802351406
30
0
41
1
10
24.4485582448146
20
12.3999211938436
30
0
41
1
10
24.4553291857658
20
12.4188971306657
30
0
41
1
10
24.4663629216075
20
12.4493800998193
30
0
41
1
10
24.4796004508407
20
12.4859624103713
30
0
41
1
10
24.4928351392073
20
12.5225456502386
30
0
41
1
10
24.5060672042024
20
12.559129748223
30
0
41
1
10
24.519296863321
20
12.5957146331263
30
0
41
1
10
24.5457518047954
20
12.6688858343741
30
0
41
1
10
24.6030494933873
20
12.8274304194035
30
0
41
1
10
24.673534496502
20
13.022573727705
30
0
41
1
10
24.7308201769412
20
13.1811222094327
30
0
41
1
10
24.7572659830941
20
13.25429639733
30
0
41
1
10
24.7748983946229
20
13.3030785810676
30
0
41
1
10
24.805760570855
20
13.3884456336966
30
0
41
1
10
24.8366358054452
20
13.4738084588928
30
0
41
1
10
24.8608366870596
20
13.5408981176092
30
0
41
1
10
24.8694823121335
20
13.5646809163381
30
0
41
1
10
24.8736780787369
20
13.5762816999211
30
0
41
1
10
24.8756415511973
20
13.5817938436925
30
0
0
SPLINE
5
23F
100
AcDbEntity
8
1
62
256
6
ByLayer
370
18
48
1
60
0
100
AcDbSpline
70
4
71
3
72
15
73
11
40
0
40
0
40
0
40
0
40
0.0034237104021429
40
0.038570458988907
40
0.073717207575671
40
0.144010704749199
40
0.425184693443311
40
0.706358682137424
40
0.987532670831536
40
1
40
1
40
1
40
1
41
1
10
24.8756415511973
20
13.5817938436925
30
0
41
1
10
24.8758534590558
20
13.5823887420707
30
0
41
1
10
24.8782372042842
20
13.5890918281646
30
0
41
1
10
24.8827098976109
20
13.6019299022231
30
0
41
1
10
24.8907626765629
20
13.6265569863991
30
0
41
1
10
24.9108435591958
20
13.6948651050291
30
0
41
1
10
24.9336510251496
20
13.8089332083955
30
0
41
1
10
24.9493218965089
20
13.9625159714799
30
0
41
1
10
24.9547624212784
20
14.067327365825
30
0
41
1
10
24.9574732607716
20
14.1208679574177
30
0
41
1
10
24.9575882405163
20
14.1231411637836
30
0
0
SPLINE
5
240
100
AcDbEntity
8
1
62
256
6
ByLayer
370
18
48
1
60
0
100
AcDbSpline
70
4
71
3
72
32
73
28
40
0
40
0
40
0
40
0
40
0.0485688260217204
40
0.0885401211767655
40
0.101863886228447
40
0.115187651280129
40
0.155158946435174
40
0.208454006641901
40
0.315044127055355
40
0.421634247468809
40
0.474929307675535
40
0.501576837778899
40
0.528224367882262
40
0.581519428088989
40
0.608166958192353
40
0.634814488295716
40
0.648138253347398
40
0.66146201839908
40
0.688109548502443
40
0.74140460870917
40
0.794699668915897
40
0.82134719901926
40
0.847994729122624
40
0.954584849536077
40
0.981232379639441
40
0.994556144691123
40
1
40
1
40
1
40
1
41
1
10
24.9575882405163
20
14.1231411637836
30
0
41
1
10
24.958769822087
20
14.1465016152927
30
0
41
1
10
24.9609014520149
20
14.1890867423211
30
0
41
1
10
24.9633365263286
20
14.2380798372689
30
0
41
1
10
24.9649318268068
20
14.2701213729069
30
0
41
1
10
24.9665301080057
20
14.3021630167256
30
0
41
1
10
24.96909630757
20
14.3534299290308
30
0
41
1
10
24.9739315031548
20
14.4495556857201
30
0
41
1
10
24.980414648283
20
14.5777221186464
30
0
41
1
10
24.9869338849431
20
14.7058867312439
30
0
41
1
10
24.9914008054407
20
14.7956021954493
30
0
41
1
10
24.9941347159026
20
14.8468652374043
30
0
41
1
10
24.9961409387831
20
14.898137978651
30
0
41
1
10
24.9970643705039
20
14.949403096166
30
0
41
1
10
24.9979329120932
20
15.0006651258179
30
0
41
1
10
24.9984222429208
20
15.0327023766955
30
0
41
1
10
24.9987632209169
20
15.0583311281775
30
0
41
1
10
24.9990709479341
20
15.0839591432363
30
0
41
1
10
24.99952325424
20
15.1288061395017
30
0
41
1
10
24.9999291767265
20
15.1928669226246
30
0
41
1
10
25.0000310653081
20
15.2569177554832
30
0
41
1
10
24.9999288779919
20
15.3081516030654
30
0
41
1
10
24.999591259917
20
15.3849951314608
30
0
41
1
10
24.9987912017922
20
15.4618194917292
30
0
41
1
10
24.9976280550392
20
15.5322203620223
30
0
41
1
10
24.99722184711
20
15.5540324458814
30
0
41
1
10
24.9970473570565
20
15.5630471209272
30
0
41
1
10
24.996985791195
20
15.5656613061459
30
0
0
SPLINE
5
241
100
AcDbEntity
8
1
62
256
6
ByLayer
370
18
48
1
60
0
100
AcDbSpline
70
4
71
3
72
19
73
15
40
0
40
0
40
0
40
0
40
0.0180580736808047
40
0.14019222945776
40
0.262326385234716
40
0.384460541011671
40
0.445527618900149
40
0.506594696788627
40
0.628728852565582
40
0.750863008342538
40
0.872997164119493
40
0.934064242007971
40
0.995131319896448
40
1
40
1
40
1
40
1
41
1
10
24.996985791195
20
15.5656613061459
30
0
41
1
10
24.9968966754113
20
15.5694453052431
30
0
41
1
10
24.996026684651
20
15.5988111636687
30
0
41
1
10
24.9882555349751
20
15.6533469664854
30
0
41
1
10
24.9640587157364
20
15.7256770211319
30
0
41
1
10
24.9334354865527
20
15.7811155266075
30
0
41
1
10
24.9030839135727
20
15.8215506863426
30
0
41
1
10
24.869146183262
20
15.8590019020534
30
0
41
1
10
24.8205171137748
20
15.8996131206473
30
0
41
1
10
24.7537359181035
20
15.9366319307555
30
0
41
1
10
24.6929793516253
20
15.9565797239746
30
0
41
1
10
24.6424605704835
20
15.9653138264067
30
0
41
1
10
24.6157903599901
20
15.9672812558526
30
0
41
1
10
24.6019025666029
20
15.967630596682
30
0
41
1
10
24.6008769318968
20
15.967653711141
30
0
0
SPLINE
5
242
100
AcDbEntity
8
1
62
256
6
ByLayer
370
18
48
1
60
0
100
AcDbSpline
70
4
71
3
72
15
73
11
40
0
40
0
40
0
40
0
40
0.0021852238900169
40
0.0053936315302419
40
0.0118104468106919
40
0.024644077371592
40
0.0759785996151925
40
0.178647644102393
40
0.589323822051197
40
1
40
1
40
1
40
1
41
1
10
24.6008769318968
20
15.967653711141
30
0
41
1
10
24.5986864734754
20
15.9677030769249
30
0
41
1
10
24.5932780815604
20
15.9677947421068
30
0
41
1
10
24.5814335173159
20
15.967960168502
30
0
41
1
10
24.5589158926658
20
15.9683821005101
30
0
41
1
10
24.4881382690448
20
15.9695671427058
30
0
41
1
10
24.3208423412132
20
15.9722997217992
30
0
41
1
10
23.7545363787802
20
15.9801450842715
30
0
41
1
10
22.827517757526
20
15.9860797720482
30
0
41
1
10
22.0031395778597
20
15.9815874656381
30
0
41
1
10
21.5908910028923
20
15.9769465884365
30
0
0
SPLINE
5
243
100
AcDbEntity
8
1
62
256
6
ByLayer
370
18
48
1
60
0
100
AcDbSpline
70
4
71
3
72
8
73
4
40
0
40
0
40
0
40
0
40
1
40
1
40
1
40
1
41
1
10
21.5908910028923
20
15.9769465884365
30
0
41
1
10
21.6053616838663
20
15.8016990364842
30
0
41
1
10
21.6198323648403
20
15.6264514845319
30
0
41
1
10
21.6343030458144
20
15.4512039325797
30
0
0
SPLINE
5
244
100
AcDbEntity
8
1
62
256
6
ByLayer
370
18
48
1
60
0
100
AcDbSpline
70
4
71
3
72
12
73
8
40
0
40
0
40
0
40
0
40
0.0111774985702499
40
0.028525261753228
40
0.167307367217053
40
0.444871578144702
40
1
40
1
40
1
40
1
41
1
10
23.3353160031061
20
12.5164706540784
30
0
41
1
10
23.328981149473
20
12.5160249909717
30
0
41
1
10
23.3128085207647
20
12.515025484026
30
0
41
1
10
23.2179691261908
20
12.5088670088697
30
0
41
1
10
22.9721019784555
20
12.4936095245111
30
0
41
1
10
22.4213069059508
20
12.4617416809854
30
0
41
1
10
21.9491113335948
20
12.438859083172
30
0
41
1
10
21.6343030458145
20
12.4254329695642
30
0
0
SPLINE
5
245
100
AcDbEntity
8
1
62
256
6
ByLayer
370
18
48
1
60
0
100
AcDbSpline
70
4
71
3
72
26
73
22
40
0
40
0
40
0
40
0
40
0.010443273712356
40
0.0494702964083716
40
0.0884973191043873
40
0.127524341800403
40
0.166551364496418
40
0.205578387192434
40
0.225091898540442
40
0.24460540988845
40
0.283632432584465
40
0.439740523368528
40
0.59584861415259
40
0.673902659544622
40
0.751956704936653
40
0.830010750328684
40
0.849524261676692
40
0.8690377730247
40
0.908064795720715
40
0.986118841112747
40
1
40
1
40
1
40
1
41
1
10
23.9135529850895
20
12.9513986814005
30
0
41
1
10
23.9126200978797
20
12.9489181730544
30
0
41
1
10
23.9081622646777
20
12.9371811383368
30
0
41
1
10
23.8997325722488
20
12.9163406860784
30
0
41
1
10
23.887245620211
20
12.8893007539695
30
0
41
1
10
23.8735316926009
20
12.8628186496884
30
0
41
1
10
23.8586286335155
20
12.8369495194253
30
0
41
1
10
23.8452488193595
20
12.8159453754285
30
0
41
1
10
23.8339868158705
20
12.799499730689
30
0
41
1
10
23.8223587798674
20
12.7833010634964
30
0
41
1
10
23.7888968310706
20
12.7398086997186
30
0
41
1
10
23.7263148359936
20
12.6747721857786
30
0
41
1
10
23.6449960583475
20
12.6160636114996
30
0
41
1
10
23.5746106473081
20
12.578329539714
30
0
41
1
10
23.5195919391102
20
12.554933101466
30
0
41
1
10
23.4769823289303
20
12.5412796508027
30
0
41
1
10
23.4481770048359
20
12.5338407959365
30
0
41
1
10
23.428877860199
20
12.5293278779392
30
0
41
1
10
23.3948817241867
20
12.5226090320871
30
0
41
1
10
23.3619690320357
20
12.5184550569134
30
0
41
1
10
23.3388130040632
20
12.5167166714927
30
0
41
1
10
23.3353160031061
20
12.5164706540784
30
0
0
SPLINE
5
246
100
AcDbEntity
8
1
62
256
6
ByLayer
370
18
48
1
60
0
100
AcDbSpline
70
4
71
3
72
13
73
9
40
0
40
0
40
0
40
0
40
0.0415335913911615
40
0.0955852659187839
40
0.311791964029274
40
0.744205360250253
40
0.960412058360742
40
1
40
1
40
1
40
1
41
1
10
24.102927715133
20
13.4672892886959
30
0
41
1
10
24.1003463298926
20
13.4601338756751
30
0
41
1
10
24.0942681788868
20
13.4437105637692
30
0
41
1
10
24.0747052583781
20
13.3900546833937
30
0
41
1
10
24.0304335863057
20
13.2691928927646
30
0
41
1
10
23.9759526916393
20
13.1204362897466
30
0
41
1
10
23.9322092151753
20
13.002191785358
30
0
41
1
10
23.9161063428363
20
12.9581879536027
30
0
41
1
10
23.9135529850895
20
12.9513986814005
30
0
0
SPLINE
5
247
100
AcDbEntity
8
1
62
256
6
ByLayer
370
18
48
1
60
0
100
AcDbSpline
70
4
71
3
72
22
73
18
40
0
40
0
40
0
40
0
40
0.0173062552164506
40
0.0745914966662748
40
0.150971818599374
40
0.303732462465572
40
0.456493106331769
40
0.609253750197967
40
0.647443911164517
40
0.666538991647792
40
0.685634072131066
40
0.704729152614341
40
0.723824233097616
40
0.762014394064165
40
0.914775037930363
40
0.991155359863462
40
1
40
1
40
1
40
1
41
1
10
24.1967795487888
20
14.2303433305525
30
0
41
1
10
24.1963317940842
20
14.225918218656
30
0
41
1
10
24.1944336362786
20
14.2068436796864
30
0
41
1
10
24.1910666299438
20
14.1682099166983
30
0
41
1
10
24.1859915493171
20
14.0948549051456
30
0
41
1
10
24.1814274992398
20
13.9970117591578
30
0
41
1
10
24.1760029126177
20
13.8795473210996
30
0
41
1
10
24.1694158241804
20
13.7915582153889
30
0
41
1
10
24.1634514394934
20
13.7378856150594
30
0
41
1
10
24.1610422947546
20
13.718387305874
30
0
41
1
10
24.1591081082451
20
13.7037751370996
30
0
41
1
10
24.1570394046149
20
13.6891765945418
30
0
41
1
10
24.1540921913932
20
13.6697327902227
30
0
41
1
10
24.1451684300507
20
13.6163599666578
30
0
41
1
10
24.1300011940307
20
13.5489414197202
30
0
41
1
10
24.11115032512
20
13.4902433681809
30
0
41
1
10
24.1037057358619
20
13.4694459058357
30
0
41
1
10
24.102927715133
20
13.4672892886959
30
0
0
SPLINE
5
248
100
AcDbEntity
8
1
62
256
6
ByLayer
370
18
48
1
60
0
100
AcDbSpline
70
4
71
3
72
25
73
21
40
0
40
0
40
0
40
0
40
0.0333597394323625
40
0.107582966694295
40
0.181806193956227
40
0.218917807587193
40
0.237473614402676
40
0.256029421218159
40
0.293141034849126
40
0.330252648480092
40
0.404475875742024
40
0.44158748937299
40
0.478699103003956
40
0.552922330265889
40
0.701368784789753
40
0.849815239313618
40
0.92403846657555
40
0.979705887021999
40
0.998261693837483
40
1
40
1
40
1
40
1
41
1
10
24.2716618623333
20
15.0199410234114
30
0
41
1
10
24.271175154256
20
15.0111466110625
30
0
41
1
10
24.269274560125
20
14.9827920059406
30
0
41
1
10
24.266252242297
20
14.9348717973962
30
0
41
1
10
24.2627893043382
20
14.8859733914659
30
0
41
1
10
24.2604682582057
20
14.8517412732648
30
0
41
1
10
24.2587356997049
20
14.8321944071086
30
0
41
1
10
24.2562341606066
20
14.8127033682395
30
0
41
1
10
24.2536488533056
20
14.7882975355009
30
0
41
1
10
24.249847554786
20
14.7492283523817
30
0
41
1
10
24.245914717274
20
14.7101665855528
30
0
41
1
10
24.241969018965
20
14.6711057311171
30
0
41
1
10
24.238014990954
20
14.6320454613053
30
0
41
1
10
24.2310742173934
20
14.5636914617224
30
0
41
1
10
24.2211018474848
20
14.4660467437121
30
0
41
1
10
24.2110632719349
20
14.3684062172737
30
0
41
1
10
24.2034692145572
20
14.2951801405862
30
0
41
1
10
24.1994300473321
20
14.2561255055814
30
0
41
1
10
24.1973670647203
20
14.236140564675
30
0
41
1
10
24.1968258300274
20
14.2308007230889
30
0
41
1
10
24.1967795487888
20
14.2303433305525
30
0
0
SPLINE
5
249
100
AcDbEntity
8
1
62
256
6
ByLayer
370
18
48
1
60
0
100
AcDbSpline
70
4
71
3
72
24
73
20
40
0
40
0
40
0
40
0
40
0.0083012810712635
40
0.0512299228286081
40
0.0941585645859527
40
0.180015848100642
40
0.265873131615331
40
0.351730415130021
40
0.394659056887365
40
0.43758769864471
40
0.523444982159399
40
0.609302265674088
40
0.695159549188778
40
0.71662387006745
40
0.738088190946122
40
0.781016832703467
40
0.952731399732846
40
0.99566004149019
40
1
40
1
40
1
40
1
41
1
10
23.9305453545987
20
15.5170118870798
30
0
41
1
10
23.9324471474803
20
15.5170332381823
30
0
41
1
10
23.9441817759942
20
15.517105754263
30
0
41
1
10
23.9657091422315
20
15.516032415521
30
0
41
1
10
24.0044376797479
20
15.5102539207713
30
0
41
1
10
24.051091068566
20
15.4956164632918
30
0
41
1
10
24.1018524465412
20
15.4669296936186
30
0
41
1
10
24.1385487205716
20
15.4354031666022
30
0
41
1
10
24.1643263401079
20
15.4067373361879
30
0
41
1
10
24.187752795501
20
15.3761144749858
30
0
41
1
10
24.2126932488152
20
15.3348027940304
30
0
41
1
10
24.2361533646101
20
15.2816444409312
30
0
41
1
10
24.2492569482951
20
15.2400388975208
30
0
41
1
10
24.2562431604925
20
15.2117857017358
30
0
41
1
10
24.260442229181
20
15.1928264261138
30
0
41
1
10
24.2701322789546
20
15.1402347546186
30
0
41
1
10
24.2741929988717
20
15.0816273182963
30
0
41
1
10
24.2722986468379
20
15.0317029730892
30
0
41
1
10
24.2717166009945
20
15.0209301057407
30
0
41
1
10
24.2716618623333
20
15.0199410234114
30
0
0
SPLINE
5
24A
100
AcDbEntity
8
1
62
256
6
ByLayer
370
18
48
1
60
0
100
AcDbSpline
70
4
71
3
72
15
73
11
40
0
40
0
40
0
40
0
40
0.411276026541516
40
0.822552053083032
40
0.92537105971841
40
0.9767805630361
40
0.989632938865522
40
0.996059126780234
40
0.999272220737589
40
1
40
1
40
1
40
1
41
1
10
21.6343030458144
20
15.4512039325797
30
0
41
1
10
21.9491113335947
20
15.4646300461875
30
0
41
1
10
22.5787514453808
20
15.4877753460507
30
0
41
1
10
23.2870567601376
20
15.5057112760531
30
0
41
1
10
23.7198602472296
20
15.5136706953242
30
0
41
1
10
23.8477279448607
20
15.5157273393712
30
0
41
1
10
23.9018258672488
20
15.5165815477439
30
0
41
1
10
23.9190377151072
20
15.516817822084
30
0
41
1
10
23.9269726979072
20
15.5169673212475
30
0
41
1
10
23.9299884490995
20
15.5170056347973
30
0
41
1
10
23.9305453545987
20
15.5170118870798
30
0
0
SPLINE
5
24B
100
AcDbEntity
8
1
62
256
6
ByLayer
370
18
48
1
60
0
100
AcDbSpline
70
4
71
3
72
16
73
12
40
0
40
0
40
0
40
0
40
0.517375104625283
40
0.776062656937924
40
0.905406433094245
40
0.921574405113785
40
0.937742377133325
40
0.970078321172405
40
0.986246293191945
40
0.994330279201715
40
1
40
1
40
1
40
1
41
1
10
21.5908910056251
20
15.976946584187
30
0
41
1
10
21.1786424322011
20
15.9723057044378
30
0
41
1
10
20.5601797464988
20
15.9617559167976
30
0
41
1
10
19.8385573612528
20
15.9432549933698
30
0
41
1
10
19.5163939539857
20
15.9336519921745
30
0
41
1
10
19.3875276951791
20
15.9295878420197
30
0
41
1
10
19.3359811040057
20
15.9279453017264
30
0
41
1
10
19.2844343693331
20
15.9262818473628
30
0
41
1
10
19.2393308298928
20
15.9248157359669
30
0
41
1
10
19.2154818497357
20
15.9239976602486
30
0
41
1
10
19.2045189501811
20
15.9236854833792
30
0
41
1
10
19.1999999780006
20
15.9235179479375
30
0
0
SPLINE
5
24C
100
AcDbEntity
8
1
62
256
6
ByLayer
370
18
48
1
60
0
100
AcDbSpline
70
4
71
3
72
15
73
11
40
0
40
0
40
0
40
0
40
0.0095746787020135
40
0.137815053134631
40
0.266055427567248
40
0.394295801999866
40
0.6507765508651
40
0.907257299730335
40
0.971377486946644
40
1
40
1
40
1
40
1
41
1
10
19.1999999780006
20
15.9235179479375
30
0
41
1
10
19.1980757214605
20
15.9234466084478
30
0
41
1
10
19.1703793017006
20
15.92231838596
30
0
41
1
10
19.1169433372817
20
15.9157884356986
30
0
41
1
10
19.0416969840734
20
15.8943737909784
30
0
41
1
10
18.946494169232
20
15.8508028126187
30
0
41
1
10
18.8416342608588
20
15.7698722704483
30
0
41
1
10
18.7734156324682
20
15.6724331472155
30
0
41
1
10
18.7445630820923
20
15.6077242865806
30
0
41
1
10
18.7379363959678
20
15.590169929282
30
0
41
1
10
18.7359368448952
20
15.5847363859535
30
0
0
SPLINE
5
24D
100
AcDbEntity
8
1
62
256
6
ByLayer
370
18
48
1
60
0
100
AcDbSpline
70
4
71
3
72
25
73
21
40
0
40
0
40
0
40
0
40
0.00164933620886
40
0.0170316297738986
40
0.0477962169039758
40
0.078560804034053
40
0.10932539116413
40
0.140089978294207
40
0.170854565424285
40
0.201619152554362
40
0.324677501074671
40
0.570794198115288
40
0.693852546635597
40
0.724617133765674
40
0.755381720895752
40
0.816910895155906
40
0.939969243676215
40
0.970733830806292
40
0.986116124371331
40
1
40
1
40
1
40
1
41
1
10
18.7359368448952
20
15.5847363859535
30
0
41
1
10
18.7356966976421
20
15.5840838142225
30
0
41
1
10
18.7332236434534
20
15.5773427638817
30
0
41
1
10
18.7264527684359
20
15.5583667506441
30
0
41
1
10
18.7154189365381
20
15.5278838928171
30
0
41
1
10
18.7021814681895
20
15.4913015117014
30
0
41
1
10
18.688946829681
20
15.4547182140497
30
0
41
1
10
18.6757148044042
20
15.4181340700329
30
0
41
1
10
18.6624851757504
20
15.3815491498216
30
0
41
1
10
18.6360302784719
20
15.3083778973519
30
0
41
1
10
18.5787326046003
20
15.149833295262
30
0
41
1
10
18.5082474937046
20
14.9546901118759
30
0
41
1
10
18.4509618077961
20
14.7961416364871
30
0
41
1
10
18.4245160068875
20
14.7229674425118
30
0
41
1
10
18.4068836003917
20
14.6741852529411
30
0
41
1
10
18.3760214355983
20
14.5888181870549
30
0
41
1
10
18.345146212094
20
14.5034553490104
30
0
41
1
10
18.3209453315541
20
14.4363656890487
30
0
41
1
10
18.3122997158438
20
14.4125828794675
30
0
41
1
10
18.3081039485153
20
14.4009820967249
30
0
41
1
10
18.306140474126
20
14.3954699551891
30
0
0
SPLINE
5
24E
100
AcDbEntity
8
1
62
256
6
ByLayer
370
18
48
1
60
0
100
AcDbSpline
70
4
71
3
72
15
73
11
40
0
40
0
40
0
40
0
40
0.0034237104021449
40
0.0385704589889086
40
0.0737172075756724
40
0.1440107047492
40
0.42518469344331
40
0.70635868213742
40
0.98753267083153
40
1
40
1
40
1
40
1
41
1
10
18.306140474126
20
14.3954699551891
30
0
41
1
10
18.3059285660594
20
14.3948750570521
30
0
41
1
10
18.3035448182777
20
14.3881719739174
30
0
41
1
10
18.2990721154729
20
14.3753339108437
30
0
41
1
10
18.2910193191867
20
14.3507068467578
30
0
41
1
10
18.2709384048134
20
14.282398764914
30
0
41
1
10
18.2481309193432
20
14.1683306841666
30
0
41
1
10
18.2324600298736
20
14.0147479420715
30
0
41
1
10
18.227019705107
20
13.9099363159284
30
0
41
1
10
18.2243087258574
20
13.8563958863096
30
0
41
1
10
18.22419373974
20
13.8541226873296
30
0
0
SPLINE
5
24F
100
AcDbEntity
8
1
62
256
6
ByLayer
370
18
48
1
60
0
100
AcDbSpline
70
4
71
3
72
12
73
8
40
0
40
0
40
0
40
0
40
0.0111774985702534
40
0.0285252617532314
40
0.167307367217055
40
0.444871578144704
40
1
40
1
40
1
40
1
41
1
10
19.9332900885229
20
15.3601662480654
30
0
41
1
10
19.939624942156
20
15.3606119111721
30
0
41
1
10
19.9557975708643
20
15.3616114181178
30
0
41
1
10
20.0506369654382
20
15.3677698932742
30
0
41
1
10
20.2965041131736
20
15.3830273776327
30
0
41
1
10
20.8472991856782
20
15.4148952211584
30
0
41
1
10
21.3194947580342
20
15.4377778189718
30
0
41
1
10
21.6343030458145
20
15.4512039325797
30
0
0
SPLINE
5
250
100
AcDbEntity
8
1
62
256
6
ByLayer
370
18
48
1
60
0
100
AcDbSpline
70
4
71
3
72
26
73
22
40
0
40
0
40
0
40
0
40
0.010443273712355
40
0.049470296408371
40
0.0884973191043869
40
0.127524341800403
40
0.166551364496419
40
0.205578387192435
40
0.225091898540443
40
0.244605409888451
40
0.283632432584467
40
0.439740523368531
40
0.595848614152595
40
0.673902659544627
40
0.751956704936659
40
0.830010750328691
40
0.849524261676698
40
0.869037773024707
40
0.908064795720723
40
0.986118841112754
40
1
40
1
40
1
40
1
41
1
10
19.3550531065395
20
14.9252382207433
30
0
41
1
10
19.3559859937493
20
14.9277187290894
30
0
41
1
10
19.3604438269513
20
14.939455763807
30
0
41
1
10
19.3688735193803
20
14.9602962160654
30
0
41
1
10
19.381360471418
20
14.9873361481744
30
0
41
1
10
19.3950743990282
20
15.0138182524554
30
0
41
1
10
19.4099774581135
20
15.0396873827185
30
0
41
1
10
19.4233572722695
20
15.0606915267154
30
0
41
1
10
19.4346192757586
20
15.0771371714548
30
0
41
1
10
19.4462473117616
20
15.0933358386474
30
0
41
1
10
19.4797092605584
20
15.1368282024252
30
0
41
1
10
19.5422912556355
20
15.2018647163652
30
0
41
1
10
19.6236100332815
20
15.2605732906442
30
0
41
1
10
19.6939954443209
20
15.2983073624298
30
0
41
1
10
19.7490141525188
20
15.3217038006778
30
0
41
1
10
19.7916237626988
20
15.3353572513411
30
0
41
1
10
19.8204290867931
20
15.3427961062074
30
0
41
1
10
19.83972823143
20
15.3473090242046
30
0
41
1
10
19.8737243674423
20
15.3540278700567
30
0
41
1
10
19.9066370595933
20
15.3581818452304
30
0
41
1
10
19.9297930875658
20
15.3599202306512
30
0
41
1
10
19.9332900885229
20
15.3601662480654
30
0
0
SPLINE
5
251
100
AcDbEntity
8
1
62
256
6
ByLayer
370
18
48
1
60
0
100
AcDbSpline
70
4
71
3
72
13
73
9
40
0
40
0
40
0
40
0
40
0.0415335913911555
40
0.0955852659187781
40
0.311791964029268
40
0.744205360250249
40
0.960412058360739
40
1
40
1
40
1
40
1
41
1
10
19.165678376496
20
14.4093476134479
30
0
41
1
10
19.1682597617364
20
14.4165030264687
30
0
41
1
10
19.1743379127422
20
14.4329263383746
30
0
41
1
10
19.193900833251
20
14.4865822187502
30
0
41
1
10
19.2381725053233
20
14.6074440093793
30
0
41
1
10
19.2926533999897
20
14.7562006123972
30
0
41
1
10
19.3363968764537
20
14.8744451167858
30
0
41
1
10
19.3524997487927
20
14.9184489485411
30
0
41
1
10
19.3550531065395
20
14.9252382207433
30
0
0
SPLINE
5
252
100
AcDbEntity
8
1
62
256
6
ByLayer
370
18
48
1
60
0
100
AcDbSpline
70
4
71
3
72
22
73
18
40
0
40
0
40
0
40
0
40
0.0173062552164537
40
0.0745914966662775
40
0.150971818599376
40
0.303732462465573
40
0.456493106331769
40
0.609253750197966
40
0.647443911164515
40
0.66653899164779
40
0.685634072131064
40
0.704729152614339
40
0.723824233097614
40
0.762014394064163
40
0.91477503793036
40
0.991155359863458
40
1
40
1
40
1
40
1
41
1
10
19.0718265428403
20
13.6462935715914
30
0
41
1
10
19.0722742975448
20
13.6507186834879
30
0
41
1
10
19.0741724553504
20
13.6697932224574
30
0
41
1
10
19.0775394616853
20
13.7084269854456
30
0
41
1
10
19.0826145423119
20
13.7817819969982
30
0
41
1
10
19.0871785923893
20
13.879625142986
30
0
41
1
10
19.0926031790114
20
13.9970895810442
30
0
41
1
10
19.0991902674487
20
14.085078686755
30
0
41
1
10
19.1051546521356
20
14.1387512870844
30
0
41
1
10
19.1075637968744
20
14.1582495962698
30
0
41
1
10
19.1094979833839
20
14.1728617650442
30
0
41
1
10
19.1115666870141
20
14.1874603076021
30
0
41
1
10
19.1145139002358
20
14.2069041119211
30
0
41
1
10
19.1234376615784
20
14.260276935486
30
0
41
1
10
19.1386048975983
20
14.3276954824236
30
0
41
1
10
19.157455766509
20
14.386393533963
30
0
41
1
10
19.1649003557671
20
14.4071909963082
30
0
41
1
10
19.165678376496
20
14.4093476134479
30
0
0
SPLINE
5
253
100
AcDbEntity
8
1
62
256
6
ByLayer
370
18
48
1
60
0
100
AcDbSpline
70
4
71
3
72
25
73
21
40
0
40
0
40
0
40
0
40
0.0333597394323585
40
0.107582966694291
40
0.181806193956224
40
0.218917807587191
40
0.237473614402674
40
0.256029421218157
40
0.293141034849124
40
0.33025264848009
40
0.404475875742023
40
0.441587489372989
40
0.478699103003956
40
0.552922330265889
40
0.701368784789754
40
0.84981523931362
40
0.924038466575553
40
0.979705887022003
40
0.998261693837486
40
1
40
1
40
1
40
1
41
1
10
18.9969442292311
20
12.8566958788073
30
0
41
1
10
18.9974309374315
20
12.8654902910136
30
0
41
1
10
18.9993315314532
20
12.8938448962622
30
0
41
1
10
19.0023538493479
20
12.9417651047292
30
0
41
1
10
19.0058167872923
20
12.9906635106762
30
0
41
1
10
19.0081378334233
20
13.024895628879
30
0
41
1
10
19.0098703919241
20
13.0444424950353
30
0
41
1
10
19.0123719310224
20
13.0639335339043
30
0
41
1
10
19.0149572383234
20
13.0883393666429
30
0
41
1
10
19.018758536843
20
13.1274085497621
30
0
41
1
10
19.022691374355
20
13.166470316591
30
0
41
1
10
19.026637072664
20
13.2055311710268
30
0
41
1
10
19.0305911006751
20
13.2445914408386
30
0
41
1
10
19.0375318742356
20
13.3129454404214
30
0
41
1
10
19.0475042441443
20
13.4105901584317
30
0
41
1
10
19.0575428196942
20
13.5082306848701
30
0
41
1
10
19.0651368770718
20
13.5814567615576
30
0
41
1
10
19.0691760442969
20
13.6205113965624
30
0
41
1
10
19.0712390269087
20
13.6404963374688
30
0
41
1
10
19.0717802616016
20
13.6458361790549
30
0
41
1
10
19.0718265428403
20
13.6462935715914
30
0
0
SPLINE
5
254
100
AcDbEntity
8
1
62
256
6
ByLayer
370
18
48
1
60
0
100
AcDbSpline
70
4
71
3
72
8
73
4
40
0
40
0
40
0
40
0
40
1
40
1
40
1
40
1
41
1
10
24.836640064033
20
-8.45629517392589
30
0
41
1
10
24.6932857013986
20
-8.88431517068469
30
0
41
1
10
24.5512632907752
20
-9.31252179547414
30
0
41
1
10
24.4105775451482
20
-9.74091176272321
30
0
0
SPLINE
5
255
100
AcDbEntity
8
1
62
256
6
ByLayer
370
18
48
1
60
0
100
AcDbSpline
70
4
71
3
72
8
73
4
40
0
40
0
40
0
40
0
40
1
40
1
40
1
40
1
41
1
10
24.4105775451482
20
-9.74091176272321
30
0
41
1
10
24.4105775451482
20
-9.44925855853327
30
0
41
1
10
24.4105775451482
20
-9.1576053543946
30
0
41
1
10
24.4105775451482
20
-8.86595215022996
30
0
0
SPLINE
5
256
100
AcDbEntity
8
1
62
256
6
ByLayer
370
18
48
1
60
0
100
AcDbSpline
70
4
71
3
72
11
73
7
40
0
40
0
40
0
40
0
40
0.25
40
0.5
40
0.75
40
1
40
1
40
1
40
1
41
1
10
24.3553609186723
20
-8.67607921003258
30
0
41
1
10
24.3644503262741
20
-8.69050906212107
30
0
41
1
10
24.3804628416218
20
-8.72025458042739
30
0
41
1
10
24.3977920928566
20
-8.7671083805381
30
0
41
1
10
24.4082412000849
20
-8.81577578356308
30
0
41
1
10
24.410577545157
20
-8.84912633429977
30
0
41
1
10
24.410577545154
20
-8.86595215020904
30
0
0
SPLINE
5
257
100
AcDbEntity
8
1
62
256
6
ByLayer
370
18
48
1
60
0
100
AcDbSpline
70
4
71
3
72
8
73
4
40
0
40
0
40
0
40
0
40
1
40
1
40
1
40
1
41
1
10
24.9970000000001
20
-8.00944419555455
30
0
41
1
10
24.9435466880111
20
-8.15839452167833
30
0
41
1
10
24.890093376022
20
-8.30734484780211
30
0
41
1
10
24.836640064033
20
-8.45629517392589
30
0
0
SPLINE
5
258
100
AcDbEntity
8
1
62
256
6
ByLayer
370
18
48
1
60
0
100
AcDbSpline
70
4
71
3
72
15
73
11
40
0
40
0
40
0
40
0
40
0.0034237104021449
40
0.0385704589889088
40
0.0737172075756727
40
0.1440107047492
40
0.425184693443312
40
0.706358682137423
40
0.987532670831534
40
1
40
1
40
1
40
1
41
1
10
24.8756415511973
20
-6.64410273926495
30
0
41
1
10
24.8758534590558
20
-6.64448514097037
30
0
41
1
10
24.8782372042842
20
-6.64879450400153
30
0
41
1
10
24.8827098976109
20
-6.65706227395486
30
0
41
1
10
24.8907626765628
20
-6.67300336240351
30
0
41
1
10
24.9108435591958
20
-6.71756634672653
30
0
41
1
10
24.9336510251495
20
-6.79363357403193
30
0
41
1
10
24.9493218965089
20
-6.89836642007882
30
0
41
1
10
24.9547624212783
20
-6.97064991828898
30
0
41
1
10
24.9574732607716
20
-7.0075842527234
30
0
41
1
10
24.9575882405163
20
-7.00915241359473
30
0
0
SPLINE
5
259
100
AcDbEntity
8
1
62
256
6
ByLayer
370
18
48
1
60
0
100
AcDbSpline
70
4
71
3
72
8
73
4
40
0
40
0
40
0
40
0
40
1
40
1
40
1
40
1
41
1
10
24.5317911362251
20
-15.781800257021
30
0
41
1
10
23.5862207268161
20
-15.7715126877967
30
0
41
1
10
22.640650317407
20
-15.7612251185702
30
0
41
1
10
21.6950799079979
20
-15.750937549345
30
0
0
SPLINE
5
25A
100
AcDbEntity
8
1
62
256
6
ByLayer
370
18
48
1
60
0
100
AcDbSpline
70
4
71
3
72
15
73
11
40
0
40
0
40
0
40
0
40
0.125
40
0.25
40
0.375
40
0.5
40
0.625
40
0.75
40
0.875
40
1
40
1
40
1
40
1
41
1
10
24.836640064033
20
-15.4158219975096
30
0
41
1
10
24.8372859326079
20
-15.4382383850288
30
0
41
1
10
24.8351231340679
20
-15.4830627927946
30
0
41
1
10
24.8214135399735
20
-15.54862097137
30
0
41
1
10
24.7971367603801
20
-15.6108473856176
30
0
41
1
10
24.7623154107798
20
-15.6674962053255
30
0
41
1
10
24.7170079284251
20
-15.7162376632046
30
0
41
1
10
24.6619407785221
20
-15.7538963874284
30
0
41
1
10
24.5990427069822
20
-15.7772791768435
30
0
41
1
10
24.5542383354785
20
-15.7820444769271
30
0
41
1
10
24.5317911362246
20
-15.781800257021
30
0
0
SPLINE
5
25B
100
AcDbEntity
8
1
62
256
6
ByLayer
370
18
48
1
60
0
100
AcDbSpline
70
4
71
3
72
8
73
4
40
0
40
0
40
0
40
0
40
1
40
1
40
1
40
1
41
1
10
24.5317911362249
20
-15.7818002570264
30
0
41
1
10
24.3950541773565
20
-15.5868700427578
30
0
41
1
10
24.258317218487
20
-15.3919398284896
30
0
41
1
10
24.1215802596174
20
-15.1970096142216
30
0
0
SPLINE
5
25C
100
AcDbEntity
8
1
62
256
6
ByLayer
370
18
48
1
60
0
100
AcDbSpline
70
4
71
3
72
19
73
15
40
0
40
0
40
0
40
0
40
0.125
40
0.25
40
0.375
40
0.4375
40
0.46875
40
0.5
40
0.53125
40
0.5625
40
0.625
40
0.75
40
0.875
40
1
40
1
40
1
40
1
41
1
10
24.7961865887869
20
-14.0005096380271
30
0
41
1
10
24.7978589322581
20
-14.059480930301
30
0
41
1
10
24.8012068425354
20
-14.177423529025
30
0
41
1
10
24.8062384692666
20
-14.3543374694519
30
0
41
1
10
24.8104397020633
20
-14.5017657882688
30
0
41
1
10
24.8133849154924
20
-14.6049656298007
30
0
41
1
10
24.8150691432934
20
-14.663936973053
30
0
41
1
10
24.8163329399203
20
-14.7081654831062
30
0
41
1
10
24.8175973637499
20
-14.7523939957706
30
0
41
1
10
24.8192841003622
20
-14.8113653494675
30
0
41
1
10
24.8222380946302
20
-14.9145652275554
30
0
41
1
10
24.8264644155381
20
-15.0619936508183
30
0
41
1
10
24.8315462184917
20
-15.238907800137
30
0
41
1
10
24.8349409599099
20
-15.3568505938267
30
0
41
1
10
24.836640064033
20
-15.4158219975096
30
0
0
SPLINE
5
25D
100
AcDbEntity
8
1
62
256
6
ByLayer
370
18
48
1
60
0
100
AcDbSpline
70
4
71
3
72
8
73
4
40
0
40
0
40
0
40
0
40
1
40
1
40
1
40
1
41
1
10
24.836640064033
20
-15.4158219975096
30
0
41
1
10
24.6932857013986
20
-15.2478820116701
30
0
41
1
10
24.5512632907752
20
-15.0798427340152
30
0
41
1
10
24.4105775451482
20
-14.9117053861606
30
0
0
SPLINE
5
25E
100
AcDbEntity
8
1
62
256
6
ByLayer
370
18
48
1
60
0
100
AcDbSpline
70
4
71
3
72
11
73
7
40
0
40
0
40
0
40
0
40
0.25
40
0.5
40
0.75
40
1
40
1
40
1
40
1
41
1
10
24.672548537339
20
-13.552951409719
30
0
41
1
10
24.687032296633
20
-13.5891963177388
30
0
41
1
10
24.7162103748615
20
-13.6616090326453
30
0
41
1
10
24.7557556022138
20
-13.7717648773141
30
0
41
1
10
24.7857082930919
20
-13.8847515378262
30
0
41
1
10
24.7950919016952
20
-13.9619080507859
30
0
41
1
10
24.7961865887869
20
-14.0005096380271
30
0
0
SPLINE
5
25F
100
AcDbEntity
8
1
62
256
6
ByLayer
370
18
48
1
60
0
100
AcDbSpline
70
4
71
3
72
8
73
4
40
0
40
0
40
0
40
0
40
1
40
1
40
1
40
1
41
1
10
24.7961865887869
20
-14.0005096380271
30
0
41
1
10
24.6676783853709
20
-13.8845570289561
30
0
41
1
10
24.539142037364
20
-13.7686054799152
30
0
41
1
10
24.4105775451482
20
-13.6526549912521
30
0
0
SPLINE
5
260
100
AcDbEntity
8
1
62
256
6
ByLayer
370
18
48
1
60
0
100
AcDbSpline
70
4
71
3
72
8
73
4
40
0
40
0
40
0
40
0
40
1
40
1
40
1
40
1
41
1
10
24.6725485373387
20
-13.5529514097183
30
0
41
1
10
24.5668193311107
20
-13.4910989455721
30
0
41
1
10
24.4610901248975
20
-13.4292464814194
30
0
41
1
10
24.3553609186675
20
-13.367394017274
30
0
0
SPLINE
5
261
100
AcDbEntity
8
1
62
256
6
ByLayer
370
18
48
1
60
0
100
AcDbSpline
70
4
71
3
72
8
73
4
40
0
40
0
40
0
40
0
40
1
40
1
40
1
40
1
41
1
10
20.4983944417494
20
-15.1575902599896
30
0
41
1
10
21.7061230477119
20
-15.1707300447266
30
0
41
1
10
22.9138516536452
20
-15.1838698294766
30
0
41
1
10
24.1215802595904
20
-15.1970096142213
30
0
0
SPLINE
5
262
100
AcDbEntity
8
1
62
256
6
ByLayer
370
18
48
1
60
0
100
AcDbSpline
70
4
71
3
72
14
73
10
40
0
40
0
40
0
40
0
40
0.249999999036531
40
0.374999999197109
40
0.499999999357687
40
0.624999999518265
40
0.749999999678844
40
0.874999999839422
40
1
40
1
40
1
40
1
41
1
10
24.4105775458033
20
-14.9117053869435
30
0
41
1
10
24.4105775458057
20
-14.9497600089279
30
0
41
1
10
24.3993611689654
20
-15.0064644609186
30
0
41
1
10
24.363639026669
20
-15.0729445705428
30
0
41
1
10
24.3276470674692
20
-15.1164785867295
30
0
41
1
10
24.2836378899023
20
-15.1519233840347
30
0
41
1
10
24.2333908973524
20
-15.1781174353916
30
0
41
1
10
24.1786854932053
20
-15.1938992137333
30
0
41
1
10
24.1406437750721
20
-15.1972170214102
30
0
41
1
10
24.1215802602544
20
-15.197009615143
30
0
0
SPLINE
5
263
100
AcDbEntity
8
1
62
256
6
ByLayer
370
18
48
1
60
0
100
AcDbSpline
70
4
71
3
72
8
73
4
40
0
40
0
40
0
40
0
40
1
40
1
40
1
40
1
41
1
10
24.4105775451482
20
-14.9117053861606
30
0
41
1
10
24.4105775451482
20
-14.4920219211544
30
0
41
1
10
24.4105775451482
20
-14.0723384562219
30
0
41
1
10
24.4105775451482
20
-13.6526549912521
30
0
0
SPLINE
5
264
100
AcDbEntity
8
1
62
256
6
ByLayer
370
18
48
1
60
0
100
AcDbSpline
70
4
71
3
72
8
73
4
40
0
40
0
40
0
40
0
40
1
40
1
40
1
40
1
41
1
10
24.8756364060897
20
-13.5698728537105
30
0
41
1
10
24.8079404498395
20
-13.56423237238
30
0
41
1
10
24.7402444935893
20
-13.5585918910495
30
0
41
1
10
24.672548537339
20
-13.552951409719
30
0
0
SPLINE
5
265
100
AcDbEntity
8
1
62
256
6
ByLayer
370
18
48
1
60
0
100
AcDbSpline
70
4
71
3
72
8
73
4
40
0
40
0
40
0
40
0
40
1
40
1
40
1
40
1
41
1
10
24.9575829527509
20
-14.1130356523844
30
0
41
1
10
24.903784164763
20
-14.075526980932
30
0
41
1
10
24.8499853767749
20
-14.0380183094796
30
0
41
1
10
24.7961865887869
20
-14.0005096380271
30
0
0
SPLINE
5
266
100
AcDbEntity
8
1
62
256
6
ByLayer
370
18
48
1
60
0
100
AcDbSpline
70
4
71
3
72
8
73
4
40
0
40
0
40
0
40
0
40
1
40
1
40
1
40
1
41
1
10
24.9970000000001
20
-15.5610283967712
30
0
41
1
10
24.9435466880111
20
-15.512626263684
30
0
41
1
10
24.890093376022
20
-15.4642241305969
30
0
41
1
10
24.836640064033
20
-15.4158219975096
30
0
0
SPLINE
5
267
100
AcDbEntity
8
1
62
256
6
ByLayer
370
18
48
1
60
0
100
AcDbSpline
70
4
71
3
72
8
73
4
40
0
40
0
40
0
40
0
40
1
40
1
40
1
40
1
41
1
10
24.6008759746793
20
-15.965961706685
30
0
41
1
10
24.5778476951946
20
-15.904574556797
30
0
41
1
10
24.5548194157099
20
-15.843187406909
30
0
41
1
10
24.5317911362251
20
-15.781800257021
30
0
0
SPLINE
5
268
100
AcDbEntity
8
1
62
256
6
ByLayer
370
18
48
1
60
0
100
AcDbSpline
70
4
71
3
72
8
73
4
40
0
40
0
40
0
40
0
40
1
40
1
40
1
40
1
41
1
10
21.6950799079979
20
-15.750937549345
30
0
41
1
10
21.6603502729627
20
-15.8292600875282
30
0
41
1
10
21.6256206379275
20
-15.9075826257114
30
0
41
1
10
21.5908910028922
20
-15.9859051638946
30
0
0
SPLINE
5
269
100
AcDbEntity
8
1
62
256
6
ByLayer
370
18
48
1
60
0
100
AcDbSpline
70
4
71
3
72
25
73
21
40
0
40
0
40
0
40
0
40
0.0016493362088574
40
0.017031629773896
40
0.0477962169039732
40
0.0785608040340505
40
0.109325391164128
40
0.140089978294205
40
0.170854565424282
40
0.201619152554359
40
0.324677501074668
40
0.570794198115286
40
0.693852546635595
40
0.724617133765672
40
0.75538172089575
40
0.816910895155904
40
0.939969243676213
40
0.97073383080629
40
0.986116124371329
40
1
40
1
40
1
40
1
41
1
10
24.4458449561864
20
-12.3774925456501
30
0
41
1
10
24.4460851115579
20
-12.3781468010632
30
0
41
1
10
24.4485582448145
20
-12.384905276089
30
0
41
1
10
24.4553291857657
20
-12.4039311849884
30
0
41
1
10
24.4663629216075
20
-12.4344938651783
30
0
41
1
10
24.4796004508407
20
-12.4711718603446
30
0
41
1
10
24.4928351392073
20
-12.5078507977994
30
0
41
1
10
24.5060672042024
20
-12.5445306053536
30
0
41
1
10
24.519296863321
20
-12.5812112108179
30
0
41
1
10
24.5457518047954
20
-12.6545738731885
30
0
41
1
10
24.6030494933873
20
-12.8135333882527
30
0
41
1
10
24.673534496502
20
-13.0091875411343
30
0
41
1
10
24.7308201769412
20
-13.1681510091536
30
0
41
1
10
24.7572659830941
20
-13.2415166996807
30
0
41
1
10
24.7748983946229
20
-13.2904265429637
30
0
41
1
10
24.8057605708549
20
-13.3760169738607
30
0
41
1
10
24.8366358054452
20
-13.4616031148846
30
0
41
1
10
24.8608366870595
20
-13.5288685140021
30
0
41
1
10
24.8694823121335
20
-13.5527133775102
30
0
41
1
10
24.8736780787369
20
-13.5643445101151
30
0
41
1
10
24.8756415511973
20
-13.5698711803943
30
0
0
SPLINE
5
26A
100
AcDbEntity
8
1
62
256
6
ByLayer
370
18
48
1
60
0
100
AcDbSpline
70
4
71
3
72
15
73
11
40
0
40
0
40
0
40
0
40
0.0034237104021409
40
0.038570458988905
40
0.0737172075756691
40
0.144010704749197
40
0.42518469344331
40
0.706358682137423
40
0.987532670831536
40
1
40
1
40
1
40
1
41
1
10
24.8756415511973
20
-13.5698711803943
30
0
41
1
10
24.8758534590557
20
-13.5704676465466
30
0
41
1
10
24.8782372042842
20
-13.5771884116142
30
0
41
1
10
24.8827098976109
20
-13.590060671662
30
0
41
1
10
24.8907626765628
20
-13.6147551902814
30
0
41
1
10
24.9108435591958
20
-13.6832582926332
30
0
41
1
10
24.9336510251495
20
-13.7976897661698
30
0
41
1
10
24.9493218965089
20
-13.9518147207065
30
0
41
1
10
24.9547624212783
20
-14.0570146403489
30
0
41
1
10
24.9574732607716
20
-14.1107539279962
30
0
41
1
10
24.9575882405162
20
-14.1130355709077
30
0
0
SPLINE
5
26B
100
AcDbEntity
8
1
62
256
6
ByLayer
370
18
48
1
60
0
100
AcDbSpline
70
4
71
3
72
32
73
28
40
0
40
0
40
0
40
0
40
0.0485688260217204
40
0.0885401211767656
40
0.101863886228447
40
0.115187651280129
40
0.155158946435174
40
0.208454006641901
40
0.315044127055355
40
0.421634247468809
40
0.474929307675535
40
0.501576837778899
40
0.528224367882262
40
0.581519428088989
40
0.608166958192353
40
0.634814488295716
40
0.648138253347398
40
0.66146201839908
40
0.688109548502443
40
0.74140460870917
40
0.794699668915897
40
0.82134719901926
40
0.847994729122624
40
0.954584849536077
40
0.981232379639441
40
0.994556144691122
40
1
40
1
40
1
40
1
41
1
10
24.9575882405162
20
-14.1130355709077
30
0
41
1
10
24.9587698220869
20
-14.1364827200072
30
0
41
1
10
24.9609014520149
20
-14.1792259668549
30
0
41
1
10
24.9633365263286
20
-14.2284010244641
30
0
41
1
10
24.9649318268068
20
-14.2605615495612
30
0
41
1
10
24.9665301080057
20
-14.2927221704269
30
0
41
1
10
24.96909630757
20
-14.3441794094775
30
0
41
1
10
24.9739315031547
20
-14.4406619403487
30
0
41
1
10
24.980414648283
20
-14.5693039656612
30
0
41
1
10
24.9869338849431
20
-14.697944177293
30
0
41
1
10
24.9914008054407
20
-14.7879929937527
30
0
41
1
10
24.9941347159025
20
-14.8394459518086
30
0
41
1
10
24.996140938783
20
-14.8909110726308
30
0
41
1
10
24.9970643705038
20
-14.9423723039323
30
0
41
1
10
24.9979329120931
20
-14.9938306548777
30
0
41
1
10
24.9984222429207
20
-15.0259907943482
30
0
41
1
10
24.9987632209168
20
-15.0517180301689
30
0
41
1
10
24.999070947934
20
-15.0774446436489
30
0
41
1
10
24.99952325424
20
-15.1224644825215
30
0
41
1
10
24.9999291767265
20
-15.1867730041611
30
0
41
1
10
25.0000310653081
20
-15.251072607124
30
0
41
1
10
24.9999288779919
20
-15.3025060910212
30
0
41
1
10
24.9995912599169
20
-15.3796496947605
30
0
41
1
10
24.9987912017922
20
-15.4567756841495
30
0
41
1
10
24.9976280550392
20
-15.5274544779613
30
0
41
1
10
24.99722184711
20
-15.5493528296759
30
0
41
1
10
24.9970473570565
20
-15.5584031812903
30
0
41
1
10
24.996985791195
20
-15.5610277385013
30
0
0
SPLINE
5
26C
100
AcDbEntity
8
1
62
256
6
ByLayer
370
18
48
1
60
0
100
AcDbSpline
70
4
71
3
72
19
73
15
40
0
40
0
40
0
40
0
40
0.0180580736808057
40
0.140192229457762
40
0.262326385234717
40
0.384460541011673
40
0.445527618900151
40
0.506594696788629
40
0.628728852565585
40
0.750863008342541
40
0.872997164119497
40
0.934064242007975
40
0.995131319896453
40
1
40
1
40
1
40
1
41
1
10
24.996985791195
20
-15.5610277385013
30
0
41
1
10
24.9968966754113
20
-15.5648267509226
30
0
41
1
10
24.996026684651
20
-15.5943095448887
30
0
41
1
10
24.9882555349751
20
-15.6490769313036
30
0
41
1
10
24.9640587157363
20
-15.7217815516958
30
0
41
1
10
24.9334354865526
20
-15.7775494185401
30
0
41
1
10
24.9030839135727
20
-15.8182456156335
30
0
41
1
10
24.8691461832619
20
-15.8559596926171
30
0
41
1
10
24.8205171137748
20
-15.8969025828659
30
0
41
1
10
24.7537359181035
20
-15.9343003268734
30
0
41
1
10
24.6929793516252
20
-15.9545382547718
30
0
41
1
10
24.6424605704834
20
-15.9634832287065
30
0
41
1
10
24.6157903599901
20
-15.965551976757
30
0
41
1
10
24.6019025666029
20
-15.9659515570499
30
0
41
1
10
24.6008769318967
20
-15.9659783717496
30
0
0
SPLINE
5
26D
100
AcDbEntity
8
1
62
256
6
ByLayer
370
18
48
1
60
0
100
AcDbSpline
70
4
71
3
72
15
73
11
40
0
40
0
40
0
40
0
40
0.0021852238900178
40
0.0053936315302428
40
0.0118104468106928
40
0.0246440773715929
40
0.0759785996151933
40
0.178647644102394
40
0.589323822051197
40
1
40
1
40
1
40
1
41
1
10
24.6008769318967
20
-15.9659783717496
30
0
41
1
10
24.5986864734754
20
-15.9660356401751
30
0
41
1
10
24.5932780815603
20
-15.9661467047281
30
0
41
1
10
24.5814335173158
20
-15.9663544844229
30
0
41
1
10
24.5589158926657
20
-15.9668573344059
30
0
41
1
10
24.4881382690448
20
-15.9682961888398
30
0
41
1
10
24.3208423412132
20
-15.9716284192189
30
0
41
1
10
23.7545363787802
20
-15.9814981904145
30
0
41
1
10
22.827517757526
20
-15.9907198698673
30
0
41
1
10
22.0031395778597
20
-15.9891126186969
30
0
41
1
10
21.5908910028922
20
-15.9859051638946
30
0
0
SPLINE
5
26E
100
AcDbEntity
8
1
62
256
6
ByLayer
370
18
48
1
60
0
100
AcDbSpline
70
4
71
3
72
15
73
11
40
0
40
0
40
0
40
0
40
0.125
40
0.25
40
0.375
40
0.5
40
0.625
40
0.75
40
0.875
40
1
40
1
40
1
40
1
41
1
10
19.497403648304
20
-15.7270273820774
30
0
41
1
10
19.478295369395
20
-15.7268194887884
30
0
41
1
10
19.4399036030968
20
-15.721131905466
30
0
41
1
10
19.3869141385305
20
-15.6960322773567
30
0
41
1
10
19.3417318380876
20
-15.6587864334862
30
0
41
1
10
19.3038912785877
20
-15.6143530626716
30
0
41
1
10
19.2718081310177
20
-15.5657916526185
30
0
41
1
10
19.2440483131603
20
-15.5147764962183
30
0
41
1
10
19.2194488995037
20
-15.4622833214528
30
0
41
1
10
19.204617308757
20
-15.4266247635505
30
0
41
1
10
19.1974575176522
20
-15.4087077321509
30
0
0
SPLINE
5
26F
100
AcDbEntity
8
1
62
256
6
ByLayer
370
18
48
1
60
0
100
AcDbSpline
70
4
71
3
72
8
73
4
40
0
40
0
40
0
40
0
40
1
40
1
40
1
40
1
41
1
10
21.695079907998
20
-15.750937549345
30
0
41
1
10
20.9625211547663
20
-15.7429674935878
30
0
41
1
10
20.2299624015345
20
-15.7349974378314
30
0
41
1
10
19.4974036483029
20
-15.7270273820773
30
0
0
SPLINE
5
270
100
AcDbEntity
8
1
62
256
6
ByLayer
370
18
48
1
60
0
100
AcDbSpline
70
4
71
3
72
8
73
4
40
0
40
0
40
0
40
0
40
1
40
1
40
1
40
1
41
1
10
19.4974036483051
20
-15.7270273820774
30
0
41
1
10
19.8310672461214
20
-15.5372150080579
30
0
41
1
10
20.1647308439372
20
-15.3474026340324
30
0
41
1
10
20.498394441753
20
-15.1575902600065
30
0
0
SPLINE
5
271
100
AcDbEntity
8
1
62
256
6
ByLayer
370
18
48
1
60
0
100
AcDbSpline
70
4
71
3
72
8
73
4
40
0
40
0
40
0
40
0
40
1
40
1
40
1
40
1
41
1
10
19.1999999997205
20
-15.9406693630346
30
0
41
1
10
19.2991345492483
20
-15.8694553693822
30
0
41
1
10
19.3982690987762
20
-15.7982413757298
30
0
41
1
10
19.497403648304
20
-15.7270273820774
30
0
0
SPLINE
5
272
100
AcDbEntity
8
1
62
256
6
ByLayer
370
18
48
1
60
0
100
AcDbSpline
70
4
71
3
72
8
73
4
40
0
40
0
40
0
40
0
40
1
40
1
40
1
40
1
41
1
10
18.7359449034152
20
-15.6022189737575
30
0
41
1
10
18.8897824414942
20
-15.5377152265551
30
0
41
1
10
19.0436199795731
20
-15.4732114793528
30
0
41
1
10
19.197457517652
20
-15.4087077321504
30
0
0
SPLINE
5
273
100
AcDbEntity
8
1
62
256
6
ByLayer
370
18
48
1
60
0
100
AcDbSpline
70
4
71
3
72
16
73
12
40
0
40
0
40
0
40
0
40
0.517375104625283
40
0.776062656937924
40
0.905406433094245
40
0.921574405113785
40
0.937742377133325
40
0.970078321172405
40
0.986246293191945
40
0.994330279201715
40
1
40
1
40
1
40
1
41
1
10
21.5908910056251
20
-15.9859051599411
30
0
41
1
10
21.1786424322011
20
-15.9826977027583
30
0
41
1
10
20.5601797464988
20
-15.9742844070771
30
0
41
1
10
19.8385573612528
20
-15.9582522609382
30
0
41
1
10
19.5163939539857
20
-15.9497462035523
30
0
41
1
10
19.3875276951791
20
-15.9461199668862
30
0
41
1
10
19.3359811040057
20
-15.9446525266455
30
0
41
1
10
19.284434369333
20
-15.9431640915104
30
0
41
1
10
19.2393308298927
20
-15.9418510813016
30
0
41
1
10
19.2154818497357
20
-15.941113792719
30
0
41
1
10
19.204518950181
20
-15.9408390006041
30
0
41
1
10
19.1999999780006
20
-15.9406867241719
30
0
0
SPLINE
5
274
100
AcDbEntity
8
1
62
256
6
ByLayer
370
18
48
1
60
0
100
AcDbSpline
70
4
71
3
72
15
73
11
40
0
40
0
40
0
40
0
40
0.0095746787020135
40
0.137815053134631
40
0.266055427567248
40
0.394295801999865
40
0.650776550865099
40
0.907257299730333
40
0.971377486946642
40
1
40
1
40
1
40
1
41
1
10
19.1999999780006
20
-15.9406867241719
30
0
41
1
10
19.1980757214604
20
-15.9406218822324
30
0
41
1
10
19.1703793017006
20
-15.939586786337
30
0
41
1
10
19.1169433372816
20
-15.933219568495
30
0
41
1
10
19.0416969840734
20
-15.9119865423737
30
0
41
1
10
18.946494169232
20
-15.868581262635
30
0
41
1
10
18.8416342608588
20
-15.7877051217952
30
0
41
1
10
18.7734156324681
20
-15.6901271653336
30
0
41
1
10
18.7445630820922
20
-15.6252682677525
30
0
41
1
10
18.7379363959678
20
-15.6076689824653
30
0
41
1
10
18.7359368448951
20
-15.602221349211
30
0
0
SPLINE
5
275
100
AcDbEntity
8
1
62
256
6
ByLayer
370
18
48
1
60
0
100
AcDbSpline
70
4
71
3
72
8
73
4
40
0
40
0
40
0
40
0
40
1
40
1
40
1
40
1
41
1
10
24.5317911362251
20
-7.46885037525124
30
0
41
1
10
23.5862207268161
20
-7.31784225141348
30
0
41
1
10
22.640650317407
20
-7.16683412757504
30
0
41
1
10
21.695079907998
20
-7.015826003737
30
0
0
SPLINE
5
276
100
AcDbEntity
8
1
62
256
6
ByLayer
370
18
48
1
60
0
100
AcDbSpline
70
4
71
3
72
15
73
11
40
0
40
0
40
0
40
0
40
0.125
40
0.25
40
0.375
40
0.5
40
0.625
40
0.75
40
0.875
40
1
40
1
40
1
40
1
41
1
10
24.836640064033
20
-7.39606876232625
30
0
41
1
10
24.8372859326079
20
-7.40354265316094
30
0
41
1
10
24.8351231340679
20
-7.41794835348651
30
0
41
1
10
24.8214135399735
20
-7.43737096513482
30
0
41
1
10
24.7971367603801
20
-7.45404794313447
30
0
41
1
10
24.7623154107798
20
-7.46724413398411
30
0
41
1
10
24.7170079284251
20
-7.47620236869651
30
0
41
1
10
24.6619407785221
20
-7.47999164128578
30
0
41
1
10
24.5990427069822
20
-7.47786278399875
30
0
41
1
10
24.5542383354785
20
-7.47243520554102
30
0
41
1
10
24.5317911362246
20
-7.46885037525115
30
0
0
SPLINE
5
277
100
AcDbEntity
8
1
62
256
6
ByLayer
370
18
48
1
60
0
100
AcDbSpline
70
4
71
3
72
8
73
4
40
0
40
0
40
0
40
0
40
1
40
1
40
1
40
1
41
1
10
24.5317911362249
20
-7.46885037525226
30
0
41
1
10
24.3950541773565
20
-6.84394483367393
30
0
41
1
10
24.258317218487
20
-6.2190392920956
30
0
41
1
10
24.1215802596174
20
-5.59413375051727
30
0
0
SPLINE
5
278
100
AcDbEntity
8
1
62
256
6
ByLayer
370
18
48
1
60
0
100
AcDbSpline
70
4
71
3
72
19
73
15
40
0
40
0
40
0
40
0
40
0.125
40
0.25
40
0.375
40
0.4375
40
0.46875
40
0.5
40
0.53125
40
0.5625
40
0.625
40
0.75
40
0.875
40
1
40
1
40
1
40
1
41
1
10
24.7961865887869
20
-6.92423748649625
30
0
41
1
10
24.7978589322581
20
-6.94389504093655
30
0
41
1
10
24.8012068425355
20
-6.98321065771358
30
0
41
1
10
24.8062384692666
20
-7.04218562076227
30
0
41
1
10
24.8104397020633
20
-7.09133271670026
30
0
41
1
10
24.8133849154924
20
-7.12573636910034
30
0
41
1
10
24.8150691432935
20
-7.14539579571417
30
0
41
1
10
24.8163329399204
20
-7.1601404642318
30
0
41
1
10
24.81759736375
20
-7.17488523152849
30
0
41
1
10
24.8192841003622
20
-7.19454505325845
30
0
41
1
10
24.8222380946302
20
-7.228950088565
30
0
41
1
10
24.8264644155381
20
-7.27810113566434
30
0
41
1
10
24.8315462184917
20
-7.33708400103569
30
0
41
1
10
24.8349409599099
20
-7.37640699331388
30
0
41
1
10
24.836640064033
20
-7.39606876232625
30
0
0
SPLINE
5
279
100
AcDbEntity
8
1
62
256
6
ByLayer
370
18
48
1
60
0
100
AcDbSpline
70
4
71
3
72
8
73
4
40
0
40
0
40
0
40
0
40
1
40
1
40
1
40
1
41
1
10
24.836640064033
20
-7.39606876232625
30
0
41
1
10
24.6932857013986
20
-6.77947775709518
30
0
41
1
10
24.5512632907752
20
-6.16259066183289
30
0
41
1
10
24.4105775451482
20
-5.54541213905128
30
0
0
SPLINE
5
27A
100
AcDbEntity
8
1
62
256
6
ByLayer
370
18
48
1
60
0
100
AcDbSpline
70
4
71
3
72
8
73
4
40
0
40
0
40
0
40
0
40
1
40
1
40
1
40
1
41
1
10
24.7961865887869
20
-6.92423748649625
30
0
41
1
10
24.667678385371
20
-6.32658398715068
30
0
41
1
10
24.5391420373641
20
-5.72893590469775
30
0
41
1
10
24.4105775451482
20
-5.13129324091361
30
0
0
SPLINE
5
27B
100
AcDbEntity
8
1
62
256
6
ByLayer
370
18
48
1
60
0
100
AcDbSpline
70
4
71
3
72
8
73
4
40
0
40
0
40
0
40
0
40
1
40
1
40
1
40
1
41
1
10
20.4983944417494
20
-5.01550894666406
30
0
41
1
10
21.7061230477119
20
-5.20838388128053
30
0
41
1
10
22.9138516536452
20
-5.40125881589668
30
0
41
1
10
24.1215802595904
20
-5.59413375051295
30
0
0
SPLINE
5
27C
100
AcDbEntity
8
1
62
256
6
ByLayer
370
18
48
1
60
0
100
AcDbSpline
70
4
71
3
72
14
73
10
40
0
40
0
40
0
40
0
40
0.249999999036535
40
0.374999999197113
40
0.49999999935769
40
0.624999999518268
40
0.749999999678845
40
0.874999999839423
40
1
40
1
40
1
40
1
41
1
10
24.4105775458033
20
-5.54541214192514
30
0
41
1
10
24.4105775458058
20
-5.55792882766642
30
0
41
1
10
24.3993611689654
20
-5.57482857374308
30
0
41
1
10
24.363639026669
20
-5.59111777672081
30
0
41
1
10
24.3276470674692
20
-5.5998175713035
30
0
41
1
10
24.2836378899023
20
-5.60460504648032
30
0
41
1
10
24.2333908973524
20
-5.60537596423436
30
0
41
1
10
24.1786854932053
20
-5.6020260865489
30
0
41
1
10
24.1406437750721
20
-5.59717820742264
30
0
41
1
10
24.1215802602544
20
-5.59413375343166
30
0
0
SPLINE
5
27D
100
AcDbEntity
8
1
62
256
6
ByLayer
370
18
48
1
60
0
100
AcDbSpline
70
4
71
3
72
8
73
4
40
0
40
0
40
0
40
0
40
1
40
1
40
1
40
1
41
1
10
24.4105775451482
20
-5.54541213905128
30
0
41
1
10
24.4105775451482
20
-5.40737250632665
30
0
41
1
10
24.4105775451482
20
-5.26933287362627
30
0
41
1
10
24.4105775451482
20
-5.13129324091358
30
0
0
SPLINE
5
27E
100
AcDbEntity
8
1
62
256
6
ByLayer
370
18
48
1
60
0
100
AcDbSpline
70
4
71
3
72
8
73
4
40
0
40
0
40
0
40
0
40
1
40
1
40
1
40
1
41
1
10
24.9575829527509
20
-7.52588903662951
30
0
41
1
10
24.903784164763
20
-7.32533851991843
30
0
41
1
10
24.8499853767749
20
-7.12478800320733
30
0
41
1
10
24.7961865887869
20
-6.92423748649625
30
0
0
SPLINE
5
27F
100
AcDbEntity
8
1
62
256
6
ByLayer
370
18
48
1
60
0
100
AcDbSpline
70
4
71
3
72
8
73
4
40
0
40
0
40
0
40
0
40
1
40
1
40
1
40
1
41
1
10
24.9970000000001
20
-8.00830752883218
30
0
41
1
10
24.9435466880111
20
-7.80422793999688
30
0
41
1
10
24.890093376022
20
-7.60014835116155
30
0
41
1
10
24.836640064033
20
-7.39606876232625
30
0
0
SPLINE
5
280
100
AcDbEntity
8
1
62
256
6
ByLayer
370
18
48
1
60
0
100
AcDbSpline
70
4
71
3
72
8
73
4
40
0
40
0
40
0
40
0
40
1
40
1
40
1
40
1
41
1
10
24.6008759746794
20
-8.07965193039408
30
0
41
1
10
24.5778476951946
20
-7.87605141201311
30
0
41
1
10
24.5548194157099
20
-7.67245089363217
30
0
41
1
10
24.5317911362251
20
-7.46885037525124
30
0
0
SPLINE
5
281
100
AcDbEntity
8
1
62
256
6
ByLayer
370
18
48
1
60
0
100
AcDbSpline
70
4
71
3
72
8
73
4
40
0
40
0
40
0
40
0
40
1
40
1
40
1
40
1
41
1
10
21.695079907998
20
-7.015826003737
30
0
41
1
10
21.6603502729627
20
-7.21597951705024
30
0
41
1
10
21.6256206379275
20
-7.41613303036348
30
0
41
1
10
21.5908910028922
20
-7.61628654367672
30
0
0
SPLINE
5
282
100
AcDbEntity
8
1
62
256
6
ByLayer
370
18
48
1
60
0
100
AcDbSpline
70
4
71
3
72
32
73
28
40
0
40
0
40
0
40
0
40
0.0485688260217182
40
0.0885401211767635
40
0.101863886228445
40
0.115187651280127
40
0.155158946435172
40
0.208454006641899
40
0.315044127055353
40
0.421634247468807
40
0.474929307675534
40
0.501576837778898
40
0.528224367882261
40
0.581519428088988
40
0.608166958192352
40
0.634814488295716
40
0.648138253347397
40
0.661462018399079
40
0.688109548502443
40
0.741404608709169
40
0.794699668915897
40
0.82134719901926
40
0.847994729122624
40
0.954584849536078
40
0.981232379639442
40
0.994556144691123
40
1
40
1
40
1
40
1
41
1
10
24.9575882405163
20
-7.52588989371662
30
0
41
1
10
24.958769822087
20
-7.53378662229161
30
0
41
1
10
24.9609014520149
20
-7.54817878326156
30
0
41
1
10
24.9633365263286
20
-7.56473439988377
30
0
41
1
10
24.9649318268068
20
-7.57556242052684
30
0
41
1
10
24.9665301080057
20
-7.58639104170831
30
0
41
1
10
24.96909630757
20
-7.60371858486192
30
0
41
1
10
24.9739315031547
20
-7.63621177039548
30
0
41
1
10
24.980414648283
20
-7.6795400831171
30
0
41
1
10
24.9869338849431
20
-7.72286719055114
30
0
41
1
10
24.9914008054407
20
-7.75317722921935
30
0
41
1
10
24.9941347159026
20
-7.77052090553522
30
0
41
1
10
24.996140938783
20
-7.78776102003252
30
0
41
1
10
24.9970643705038
20
-7.80483295830223
30
0
41
1
10
24.9979329120931
20
-7.82189421536242
30
0
41
1
10
24.9984222429208
20
-7.83254847514576
30
0
41
1
10
24.9987632209168
20
-7.84106372221973
30
0
41
1
10
24.9990709479341
20
-7.84957357895263
30
0
41
1
10
24.99952325424
20
-7.86445181026195
30
0
41
1
10
24.9999291767265
20
-7.88566712747726
30
0
41
1
10
25.0000310653081
20
-7.90683205253509
30
0
41
1
10
24.9999288779919
20
-7.92373327554219
30
0
41
1
10
24.9995912599169
20
-7.94905415214126
30
0
41
1
10
24.9987912017922
20
-7.97429703178057
30
0
41
1
10
24.9976280550392
20
-7.99736263290694
30
0
41
1
10
24.99722184711
20
-8.00450194912921
30
0
41
1
10
24.9970473570565
20
-8.00745152746507
30
0
41
1
10
24.996985791195
20
-8.00830573482767
30
0
0
SPLINE
5
283
100
AcDbEntity
8
1
62
256
6
ByLayer
370
18
48
1
60
0
100
AcDbSpline
70
4
71
3
72
19
73
15
40
0
40
0
40
0
40
0
40
0.0180580736808056
40
0.140192229457761
40
0.262326385234717
40
0.384460541011673
40
0.445527618900151
40
0.506594696788628
40
0.628728852565584
40
0.75086300834254
40
0.872997164119495
40
0.934064242007973
40
0.995131319896451
40
1
40
1
40
1
40
1
41
1
10
24.996985791195
20
-8.00830573482767
30
0
41
1
10
24.9968966754113
20
-8.00954218887301
30
0
41
1
10
24.996026684651
20
-8.01911906773171
30
0
41
1
10
24.9882555349751
20
-8.03626974161054
30
0
41
1
10
24.9640587157363
20
-8.05604909047901
30
0
41
1
10
24.9334354865526
20
-8.06934887226586
30
0
41
1
10
24.9030839135727
20
-8.07813336564348
30
0
41
1
10
24.8691461832619
20
-8.08534148224504
30
0
41
1
10
24.8205171137748
20
-8.09110542175154
30
0
41
1
10
24.7537359181035
20
-8.0929880333706
30
0
41
1
10
24.6929793516252
20
-8.09021983530022
30
0
41
1
10
24.6424605704834
20
-8.08531788543473
30
0
41
1
10
24.6157903599901
20
-8.08184498726607
30
0
41
1
10
24.6019025666029
20
-8.07980895182541
30
0
41
1
10
24.6008769318968
20
-8.07965768236426
30
0
0
SPLINE
5
284
100
AcDbEntity
8
1
62
256
6
ByLayer
370
18
48
1
60
0
100
AcDbSpline
70
4
71
3
72
15
73
11
40
0
40
0
40
0
40
0
40
0.0021852238900174
40
0.0053936315302424
40
0.0118104468106925
40
0.0246440773715926
40
0.075978599615193
40
0.178647644102394
40
0.589323822051197
40
1
40
1
40
1
40
1
41
1
10
24.6008769318968
20
-8.07965768236426
30
0
41
1
10
24.5986864734754
20
-8.07933461464515
30
0
41
1
10
24.5932780815603
20
-8.07852674965474
30
0
41
1
10
24.5814335173158
20
-8.07674559621057
30
0
41
1
10
24.5589158926658
20
-8.07339570364647
30
0
41
1
10
24.4881382690448
20
-8.06281882782665
30
0
41
1
10
24.3208423412132
20
-8.03779644965351
30
0
41
1
10
23.7545363787802
20
-7.95262969636906
30
0
41
1
10
22.827517757526
20
-7.81093490542972
30
0
41
1
10
22.0031395778597
20
-7.68170261593298
30
0
41
1
10
21.5908910028922
20
-7.61628654367672
30
0
0
SPLINE
5
285
100
AcDbEntity
8
1
62
256
6
ByLayer
370
18
48
1
60
0
100
AcDbSpline
70
4
71
3
72
15
73
11
40
0
40
0
40
0
40
0
40
0.125
40
0.25
40
0.375
40
0.5
40
0.625
40
0.75
40
0.875
40
1
40
1
40
1
40
1
41
1
10
19.497403648304
20
-6.6648558745153
30
0
41
1
10
19.478295369395
20
-6.6618042716741
30
0
41
1
10
19.4399036030968
20
-6.65393974601744
30
0
41
1
10
19.3869141385305
20
-6.63741131053575
30
0
41
1
10
19.3417318380876
20
-6.61810668909254
30
0
41
1
10
19.3038912785877
20
-6.59758419944615
30
0
41
1
10
19.2718081310177
20
-6.57660280024371
30
0
41
1
10
19.2440483131603
20
-6.55548929744873
30
0
41
1
10
19.2194488995037
20
-6.53438306301371
30
0
41
1
10
19.204617308757
20
-6.52033893700394
30
0
41
1
10
19.1974575176522
20
-6.51332797893252
30
0
0
SPLINE
5
286
100
AcDbEntity
8
1
62
256
6
ByLayer
370
18
48
1
60
0
100
AcDbSpline
70
4
71
3
72
8
73
4
40
0
40
0
40
0
40
0
40
1
40
1
40
1
40
1
41
1
10
19.1974575176566
20
-6.51332797893454
30
0
41
1
10
19.5064923168358
20
-5.96632004933807
30
0
41
1
10
19.8155271160152
20
-5.41931211974162
30
0
41
1
10
20.1245619151949
20
-4.87230419014517
30
0
0
SPLINE
5
287
100
AcDbEntity
8
1
62
256
6
ByLayer
370
18
48
1
60
0
100
AcDbSpline
70
4
71
3
72
8
73
4
40
0
40
0
40
0
40
0
40
1
40
1
40
1
40
1
41
1
10
21.695079907998
20
-7.015826003737
30
0
41
1
10
20.9625211547663
20
-6.89883596066261
30
0
41
1
10
20.2299624015346
20
-6.78184591758847
30
0
41
1
10
19.4974036483029
20
-6.66485587451513
30
0
0
SPLINE
5
288
100
AcDbEntity
8
1
62
256
6
ByLayer
370
18
48
1
60
0
100
AcDbSpline
70
4
71
3
72
8
73
4
40
0
40
0
40
0
40
0
40
1
40
1
40
1
40
1
41
1
10
19.4974036483051
20
-6.66485587451547
30
0
41
1
10
19.8310672461214
20
-6.11507356523489
30
0
41
1
10
20.1647308439372
20
-5.56529125595304
30
0
41
1
10
20.498394441753
20
-5.01550894667105
30
0
0
SPLINE
5
289
100
AcDbEntity
8
1
62
256
6
ByLayer
370
18
48
1
60
0
100
AcDbSpline
70
4
71
3
72
14
73
10
40
0
40
0
40
0
40
0
40
0.125000000024468
40
0.250000000048935
40
0.375000000073403
40
0.50000000009787
40
0.625000000122338
40
0.750000000146805
40
1
40
1
40
1
40
1
41
1
10
20.4983944392787
20
-5.01550895074786
30
0
41
1
10
20.4785614222661
20
-5.01234160445486
30
0
41
1
10
20.4388305984835
20
-5.00500508105898
30
0
41
1
10
20.380390211843
20
-4.9912779669074
30
0
41
1
10
20.3244558925362
20
-4.97511168707129
30
0
41
1
10
20.2722667684549
20
-4.95690000037959
30
0
41
1
10
20.2250619674882
20
-4.93703666565915
30
0
41
1
10
20.1701181480894
20
-4.90897511356215
30
0
41
1
10
20.1394246081606
20
-4.88685793331527
30
0
41
1
10
20.1245619129017
20
-4.8723041942678
30
0
0
SPLINE
5
28A
100
AcDbEntity
8
1
62
256
6
ByLayer
370
18
48
1
60
0
100
AcDbSpline
70
4
71
3
72
8
73
4
40
0
40
0
40
0
40
0
40
1
40
1
40
1
40
1
41
1
10
19.1999999997205
20
-7.22813704859055
30
0
41
1
10
19.2991345492483
20
-7.04037665723214
30
0
41
1
10
19.3982690987762
20
-6.85261626587371
30
0
41
1
10
19.497403648304
20
-6.6648558745153
30
0
0
SPLINE
5
28B
100
AcDbEntity
8
1
62
256
6
ByLayer
370
18
48
1
60
0
100
AcDbSpline
70
4
71
3
72
8
73
4
40
0
40
0
40
0
40
0
40
1
40
1
40
1
40
1
41
1
10
18.7359449034153
20
-7.04436985417064
30
0
41
1
10
18.8897824414942
20
-6.86735589575787
30
0
41
1
10
19.0436199795731
20
-6.6903419373451
30
0
41
1
10
19.197457517652
20
-6.51332797893232
30
0
0
SPLINE
5
28C
100
AcDbEntity
8
1
62
256
6
ByLayer
370
18
48
1
60
0
100
AcDbSpline
70
4
71
3
72
16
73
12
40
0
40
0
40
0
40
0
40
0.517375104625282
40
0.776062656937923
40
0.905406433094244
40
0.921574405113784
40
0.937742377133324
40
0.970078321172404
40
0.986246293191944
40
0.994330279201714
40
1
40
1
40
1
40
1
41
1
10
21.5908910056251
20
-7.61628652851735
30
0
41
1
10
21.1786424322011
20
-7.55087044763263
30
0
41
1
10
20.5601797464988
20
-7.45154754745636
30
0
41
1
10
19.8385573612528
20
-7.33361320516426
30
0
41
1
10
19.5163939539857
20
-7.28051863524075
30
0
41
1
10
19.3875276951791
20
-7.25920705271625
30
0
41
1
10
19.3359811040057
20
-7.25067683217046
30
0
41
1
10
19.2844343693331
20
-7.24213968295743
30
0
41
1
10
19.2393308298927
20
-7.23466615692644
30
0
41
1
10
19.2154818497357
20
-7.23070030335461
30
0
41
1
10
19.204518950181
20
-7.22889836797157
30
0
41
1
10
19.1999999780006
20
-7.22814277373661
30
0
0
SPLINE
5
28D
100
AcDbEntity
8
1
62
256
6
ByLayer
370
18
48
1
60
0
100
AcDbSpline
70
4
71
3
72
15
73
11
40
0
40
0
40
0
40
0
40
0.0095746787020099
40
0.137815053134627
40
0.266055427567245
40
0.394295801999863
40
0.650776550865098
40
0.907257299730333
40
0.971377486946642
40
1
40
1
40
1
40
1
41
1
10
19.1999999780006
20
-7.22814277373661
30
0
41
1
10
19.1980757214605
20
-7.22782102863832
30
0
41
1
10
19.1703793017006
20
-7.22315657609991
30
0
41
1
10
19.1169433372816
20
-7.212720224522
30
0
41
1
10
19.0416969840734
20
-7.19398969275562
30
0
41
1
10
18.946494169232
20
-7.16485102279091
30
0
41
1
10
18.8416342608588
20
-7.12187940426628
30
0
41
1
10
18.7734156324682
20
-7.07913548421683
30
0
41
1
10
18.7445630820922
20
-7.05329509282993
30
0
41
1
10
18.7379363959678
20
-7.04647103988322
30
0
41
1
10
18.7359368448952
20
-7.04436688975733
30
0
0
SPLINE
5
28E
100
AcDbEntity
8
1
62
256
6
ByLayer
370
18
48
1
60
0
100
AcDbSpline
70
4
71
3
72
25
73
21
40
0
40
0
40
0
40
0
40
0.0016493362088591
40
0.0170316297738977
40
0.0477962169039749
40
0.0785608040340522
40
0.109325391164129
40
0.140089978294207
40
0.170854565424284
40
0.201619152554361
40
0.32467750107467
40
0.570794198115288
40
0.693852546635596
40
0.724617133765673
40
0.755381720895751
40
0.816910895155905
40
0.939969243676214
40
0.970733830806291
40
0.98611612437133
40
1
40
1
40
1
40
1
41
1
10
18.7359368448952
20
-7.04436688975733
30
0
41
1
10
18.7356966976421
20
-7.04411418009678
30
0
41
1
10
18.7332236434534
20
-7.04150489488771
30
0
41
1
10
18.7264527684358
20
-7.03418973675576
30
0
41
1
10
18.715418936538
20
-7.0224149104242
30
0
41
1
10
18.7021814681895
20
-7.00828417657965
30
0
41
1
10
18.688946829681
20
-6.99415360695789
30
0
41
1
10
18.6757148044042
20
-6.98002318888433
30
0
41
1
10
18.6624851757504
20
-6.96589290968438
30
0
41
1
10
18.6360302784719
20
-6.93763260368257
30
0
41
1
10
18.5787326046003
20
-6.87640317052688
30
0
41
1
10
18.5082474937046
20
-6.80104587861726
30
0
41
1
10
18.4509618077961
20
-6.73981707610659
30
0
41
1
10
18.4245160068874
20
-6.71155730853908
30
0
41
1
10
18.4068836003917
20
-6.69271736959931
30
0
41
1
10
18.3760214355983
20
-6.65974720768546
30
0
41
1
10
18.345146212094
20
-6.62677641905168
30
0
41
1
10
18.3209453315541
20
-6.60087361460864
30
0
41
1
10
18.3122997158438
20
-6.59168091399138
30
0
41
1
10
18.3081039485153
20
-6.58720022565171
30
0
41
1
10
18.306140474126
20
-6.58507589218496
30
0
0
SPLINE
5
28F
100
AcDbEntity
8
1
62
256
6
ByLayer
370
18
48
1
60
0
100
AcDbSpline
70
4
71
3
72
15
73
11
40
0
40
0
40
0
40
0
40
0.0034237104021429
40
0.0385704589889068
40
0.0737172075756707
40
0.144010704749198
40
0.42518469344331
40
0.706358682137421
40
0.987532670831532
40
1
40
1
40
1
40
1
41
1
10
18.306140474126
20
-6.58507589218496
30
0
41
1
10
18.3059285660593
20
-6.5848466233947
30
0
41
1
10
18.3035448182777
20
-6.58226392370085
30
0
41
1
10
18.2990721154729
20
-6.57733180151246
30
0
41
1
10
18.2910193191867
20
-6.56795226823417
30
0
41
1
10
18.2709384048133
20
-6.54228568016316
30
0
41
1
10
18.2481309193432
20
-6.50108690876149
30
0
41
1
10
18.2324600298736
20
-6.44794658442319
30
0
41
1
10
18.2270197051069
20
-6.41249495019676
30
0
41
1
10
18.2243087258574
20
-6.39439652976495
30
0
41
1
10
18.2241937397399
20
-6.39362813302904
30
0
0
SPLINE
5
290
100
AcDbEntity
8
1
62
256
6
ByLayer
370
18
48
1
60
0
100
AcDbSpline
70
4
71
3
72
8
73
4
40
0
40
0
40
0
40
0
40
1
40
1
40
1
40
1
41
1
10
24.5317911362251
20
8.55405729835059
30
0
41
1
10
23.5862207268161
20
8.69165791030719
30
0
41
1
10
22.6406503174071
20
8.82925852226231
30
0
41
1
10
21.695079907998
20
8.96685913421834
30
0
0
SPLINE
5
291
100
AcDbEntity
8
1
62
256
6
ByLayer
370
18
48
1
60
0
100
AcDbSpline
70
4
71
3
72
8
73
4
40
0
40
0
40
0
40
0
40
1
40
1
40
1
40
1
41
1
10
24.5317911362249
20
8.55405729835496
30
0
41
1
10
24.3950541773565
20
8.97025576226653
30
0
41
1
10
24.258317218487
20
9.38645422617861
30
0
41
1
10
24.1215802596174
20
9.80265269009075
30
0
0
SPLINE
5
292
100
AcDbEntity
8
1
62
256
6
ByLayer
370
18
48
1
60
0
100
AcDbSpline
70
4
71
3
72
8
73
4
40
0
40
0
40
0
40
0
40
1
40
1
40
1
40
1
41
1
10
20.4983944417494
20
10.3299033113096
30
0
41
1
10
21.706123047712
20
10.1541531042309
30
0
41
1
10
22.9138516536453
20
9.97840289716552
30
0
41
1
10
24.1215802595904
20
9.8026526900947
30
0
0
SPLINE
5
293
100
AcDbEntity
8
1
62
256
6
ByLayer
370
18
48
1
60
0
100
AcDbSpline
70
4
71
3
72
8
73
4
40
0
40
0
40
0
40
0
40
1
40
1
40
1
40
1
41
1
10
24.6008759746794
20
8.14084691946229
30
0
41
1
10
24.5778476951946
20
8.27858371242505
30
0
41
1
10
24.5548194157099
20
8.4163205053878
30
0
41
1
10
24.5317911362251
20
8.55405729835059
30
0
0
SPLINE
5
294
100
AcDbEntity
8
1
62
256
6
ByLayer
370
18
48
1
60
0
100
AcDbSpline
70
4
71
3
72
8
73
4
40
0
40
0
40
0
40
0
40
1
40
1
40
1
40
1
41
1
10
21.695079907998
20
8.96685913421834
30
0
41
1
10
21.6603502729628
20
8.84953109405194
30
0
41
1
10
21.6256206379275
20
8.73220305388551
30
0
41
1
10
21.5908910028923
20
8.61487501371909
30
0
0
SPLINE
5
295
100
AcDbEntity
8
1
62
256
6
ByLayer
370
18
48
1
60
0
100
AcDbSpline
70
4
71
3
72
8
73
4
40
0
40
0
40
0
40
0
40
1
40
1
40
1
40
1
41
1
10
21.6343030458145
20
6.39512711070992
30
0
41
1
10
21.619832365769
20
6.22559354066678
30
0
41
1
10
21.6053616857234
20
6.05605997062364
30
0
41
1
10
21.5908910056778
20
5.88652640058049
30
0
0
SPLINE
5
296
100
AcDbEntity
8
1
62
256
6
ByLayer
370
18
48
1
60
0
100
AcDbSpline
70
4
71
3
72
16
73
12
40
0
40
0
40
0
40
0
40
0.517375104625281
40
0.776062656937922
40
0.905406433094243
40
0.921574405113783
40
0.937742377133323
40
0.970078321172403
40
0.986246293191943
40
0.994330279201713
40
1
40
1
40
1
40
1
41
1
10
21.5908910056778
20
5.88652640058049
30
0
41
1
10
22.0031395818892
20
5.8256622361568
30
0
41
1
10
22.6216022609076
20
5.73681404903954
30
0
41
1
10
23.3432246367748
20
5.63739387737877
30
0
41
1
10
23.6653880425023
20
5.59393011607068
30
0
41
1
10
23.7942543004204
20
5.57669743674683
30
0
41
1
10
23.8458008913236
20
5.56981593299361
30
0
41
1
10
23.897347626018
20
5.56294875647606
30
0
41
1
10
23.9424511660202
20
5.55694722007908
30
0
41
1
10
23.9663001451439
20
5.55380324285869
30
0
41
1
10
23.9772630454785
20
5.55231419621938
30
0
41
1
10
23.9817820165699
20
5.55172705783662
30
0
0
SPLINE
5
297
100
AcDbEntity
8
1
62
256
6
ByLayer
370
18
48
1
60
0
100
AcDbSpline
70
4
71
3
72
15
73
11
40
0
40
0
40
0
40
0
40
0.0095746787020044
40
0.137815053134622
40
0.26605542756724
40
0.394295801999857
40
0.650776550865092
40
0.907257299730327
40
0.971377486946636
40
1
40
1
40
1
40
1
41
1
10
23.9817820165699
20
5.55172705783662
30
0
41
1
10
23.9837062726463
20
5.55147704415475
30
0
41
1
10
24.01140268205
20
5.54794809164579
30
0
41
1
10
24.0648384740346
20
5.54412600030372
30
0
41
1
10
24.1400844731116
20
5.54712740789793
30
0
41
1
10
24.2352868321315
20
5.56222951751144
30
0
41
1
10
24.3401465104308
20
5.60146387630388
30
0
41
1
10
24.4083646607764
20
5.65771700626416
30
0
41
1
10
24.4372183287045
20
5.69763267481824
30
0
41
1
10
24.4438453375174
20
5.70864762673725
30
0
41
1
10
24.4458449561865
20
5.71206501113215
30
0
0
SPLINE
5
298
100
AcDbEntity
8
1
62
256
6
ByLayer
370
18
48
1
60
0
100
AcDbSpline
70
4
71
3
72
25
73
21
40
0
40
0
40
0
40
0
40
0.0016493362088565
40
0.0170316297738952
40
0.0477962169039725
40
0.0785608040340499
40
0.109325391164127
40
0.140089978294205
40
0.170854565424282
40
0.201619152554359
40
0.324677501074669
40
0.570794198115287
40
0.693852546635597
40
0.724617133765674
40
0.755381720895751
40
0.816910895155906
40
0.939969243676215
40
0.970733830806293
40
0.986116124371332
40
1
40
1
40
1
40
1
41
1
10
24.4458449561865
20
5.71206501113215
30
0
41
1
10
24.4460851115579
20
5.71247544099629
30
0
41
1
10
24.4485582448146
20
5.71671635412676
30
0
41
1
10
24.4553291857657
20
5.72868387914519
30
0
41
1
10
24.4663629216075
20
5.74788363173909
30
0
41
1
10
24.4796004508407
20
5.77092613265521
30
0
41
1
10
24.4928351392073
20
5.79396968413056
30
0
41
1
10
24.5060672042024
20
5.81701420580947
30
0
41
1
10
24.519296863321
20
5.84005961733624
30
0
41
1
10
24.5457518047954
20
5.88615205937401
30
0
41
1
10
24.6030494933873
20
5.98602691610054
30
0
41
1
10
24.673534496502
20
6.10896286352255
30
0
41
1
10
24.7308201769412
20
6.20884220737008
30
0
41
1
10
24.7572659830941
20
6.25493801748144
30
0
41
1
10
24.7748983946229
20
6.28566785307052
30
0
41
1
10
24.8057605708549
20
6.33944301081556
30
0
41
1
10
24.8366358054452
20
6.39321323843978
30
0
41
1
10
24.8608366870596
20
6.43548324666239
30
0
41
1
10
24.8694823121335
20
6.45045733670082
30
0
41
1
10
24.8736780787369
20
6.45776471579168
30
0
41
1
10
24.8756415511973
20
6.46124151804952
30
0
0
SPLINE
5
299
100
AcDbEntity
8
1
62
256
6
ByLayer
370
18
48
1
60
0
100
AcDbSpline
70
4
71
3
72
15
73
11
40
0
40
0
40
0
40
0
40
0.0034237104021469
40
0.0385704589889107
40
0.0737172075756746
40
0.144010704749202
40
0.425184693443313
40
0.706358682137423
40
0.987532670831534
40
1
40
1
40
1
40
1
41
1
10
24.8756415511973
20
6.46124151804952
30
0
41
1
10
24.8758534590558
20
6.46161675209825
30
0
41
1
10
24.8782372042842
20
6.46584535832966
30
0
41
1
10
24.8827098976109
20
6.4739585904257
30
0
41
1
10
24.8907626765629
20
6.48960397883863
30
0
41
1
10
24.9108435591958
20
6.53334997895033
30
0
41
1
10
24.9336510251496
20
6.6080681323385
30
0
41
1
10
24.9493218965089
20
6.71100589485368
30
0
41
1
10
24.9547624212784
20
6.78207180828585
30
0
41
1
10
24.9574732607716
20
6.81838425758582
30
0
41
1
10
24.9575882405163
20
6.81992601484552
30
0
0
SPLINE
5
29A
100
AcDbEntity
8
1
62
256
6
ByLayer
370
18
48
1
60
0
100
AcDbSpline
70
4
71
3
72
32
73
28
40
0
40
0
40
0
40
0
40
0.0485688260217196
40
0.0885401211767648
40
0.101863886228447
40
0.115187651280128
40
0.155158946435174
40
0.2084540066419
40
0.315044127055354
40
0.421634247468808
40
0.474929307675535
40
0.501576837778899
40
0.528224367882262
40
0.581519428088989
40
0.608166958192352
40
0.634814488295716
40
0.648138253347398
40
0.661462018399079
40
0.688109548502443
40
0.74140460870917
40
0.794699668915897
40
0.82134719901926
40
0.847994729122623
40
0.954584849536077
40
0.981232379639441
40
0.994556144691122
40
1
40
1
40
1
40
1
41
1
10
24.9575882405163
20
6.81992601484552
30
0
41
1
10
24.958769822087
20
6.83576977907373
30
0
41
1
10
24.9609014520149
20
6.86465555289215
30
0
41
1
10
24.9633365263286
20
6.89789009440665
30
0
41
1
10
24.9649318268068
20
6.91962488794292
30
0
41
1
10
24.9665301080057
20
6.94135918942865
30
0
41
1
10
24.96909630757
20
6.97613260506813
30
0
41
1
10
24.9739315031548
20
7.04132900805129
30
0
41
1
10
24.980414648283
20
7.12825220558798
30
0
41
1
10
24.9869338849431
20
7.21517475998911
30
0
41
1
10
24.9914008054407
20
7.27603977280907
30
0
41
1
10
24.9941347159026
20
7.31079307704039
30
0
41
1
10
24.9961409387831
20
7.34566007540514
30
0
41
1
10
24.9970643705039
20
7.38068792883459
30
0
41
1
10
24.9979329120932
20
7.41572335020194
30
0
41
1
10
24.9984222429208
20
7.43762799402063
30
0
41
1
10
24.9987632209169
20
7.45515882364805
30
0
41
1
10
24.9990709479341
20
7.47269430845728
30
0
41
1
10
24.99952325424
20
7.50339339607626
30
0
41
1
10
24.9999291767265
20
7.54728217240026
30
0
41
1
10
25.0000310653081
20
7.59121134988999
30
0
41
1
10
24.9999288779919
20
7.62637855247726
30
0
41
1
10
24.9995912599169
20
7.6791530269017
30
0
41
1
10
24.9987912017922
20
7.73198620255494
30
0
41
1
10
24.9976280550392
20
7.780468680887
30
0
41
1
10
24.99722184711
20
7.79549690289434
30
0
41
1
10
24.9970473570565
20
7.80170890728928
30
0
41
1
10
24.996985791195
20
7.80351149017986
30
0
0
SPLINE
5
29B
100
AcDbEntity
8
1
62
256
6
ByLayer
370
18
48
1
60
0
100
AcDbSpline
70
4
71
3
72
19
73
15
40
0
40
0
40
0
40
0
40
0.0180580736808048
40
0.140192229457761
40
0.262326385234717
40
0.384460541011673
40
0.445527618900151
40
0.506594696788629
40
0.628728852565585
40
0.750863008342541
40
0.872997164119497
40
0.934064242007975
40
0.995131319896453
40
1
40
1
40
1
40
1
41
1
10
24.996985791195
20
7.80351149017986
30
0
41
1
10
24.9968966754113
20
7.80612070546491
30
0
41
1
10
24.996026684651
20
7.82638832713695
30
0
41
1
10
24.9882555349751
20
7.86466398497873
30
0
41
1
10
24.9640587157363
20
7.91840343060173
30
0
41
1
10
24.9334354865527
20
7.96145807516032
30
0
41
1
10
24.9030839135727
20
7.99377914593339
30
0
41
1
10
24.8691461832619
20
8.02464556734742
30
0
41
1
10
24.8205171137748
20
8.06017404957029
30
0
41
1
10
24.7537359181035
20
8.09593987810595
30
0
41
1
10
24.6929793516253
20
8.11900489348008
30
0
41
1
10
24.6424605704835
20
8.13280327075859
30
0
41
1
10
24.6157903599901
20
8.13828626536468
30
0
41
1
10
24.6019025666029
20
8.14068287410674
30
0
41
1
10
24.6008769318968
20
8.14085804387636
30
0
0
SPLINE
5
29C
100
AcDbEntity
8
1
62
256
6
ByLayer
370
18
48
1
60
0
100
AcDbSpline
70
4
71
3
72
15
73
11
40
0
40
0
40
0
40
0
40
0.0021852238900179
40
0.005393631530243
40
0.011810446810693
40
0.0246440773715931
40
0.0759785996151935
40
0.178647644102394
40
0.589323822051197
40
1
40
1
40
1
40
1
41
1
10
24.6008769318968
20
8.14085804387636
30
0
41
1
10
24.5986864734754
20
8.14123215572602
30
0
41
1
10
24.5932780815604
20
8.14213533810579
30
0
41
1
10
24.5814335173159
20
8.14408934164055
30
0
41
1
10
24.5589158926658
20
8.14787702745002
30
0
41
1
10
24.4881382690448
20
8.159686503209
30
0
41
1
10
24.3208423412132
20
8.18755275477915
30
0
41
1
10
23.7545363787802
20
8.28091873135077
30
0
41
1
10
22.827517757526
20
8.4290149436479
30
0
41
1
10
22.0031395778597
20
8.55401084364266
30
0
41
1
10
21.5908910028923
20
8.61487501371909
30
0
0
SPLINE
5
29D
100
AcDbEntity
8
1
62
256
6
ByLayer
370
18
48
1
60
0
100
AcDbSpline
70
4
71
3
72
8
73
4
40
0
40
0
40
0
40
0
40
1
40
1
40
1
40
1
41
1
10
21.5908910028923
20
8.61487501371909
30
0
41
1
10
21.6053616838663
20
8.56694861059265
30
0
41
1
10
21.6198323648403
20
8.51902220746624
30
0
41
1
10
21.6343030458143
20
8.4710958043398
30
0
0
SPLINE
5
29E
100
AcDbEntity
8
1
62
256
6
ByLayer
370
18
48
1
60
0
100
AcDbSpline
70
4
71
3
72
12
73
8
40
0
40
0
40
0
40
0
40
0.0111774985702519
40
0.0285252617532299
40
0.167307367217054
40
0.444871578144703
40
1
40
1
40
1
40
1
41
1
10
23.3353160031061
20
6.19331286816035
30
0
41
1
10
23.328981149473
20
6.19399130370581
30
0
41
1
10
23.3128085207647
20
6.19581817753217
30
0
41
1
10
23.2179691261908
20
6.20632742539829
30
0
41
1
10
22.9721019784554
20
6.23405803623876
30
0
41
1
10
22.4213069059508
20
6.2977669274506
30
0
41
1
10
21.9491113335948
20
6.35542908809245
30
0
41
1
10
21.6343030458145
20
6.39512711070992
30
0
0
SPLINE
5
29F
100
AcDbEntity
8
1
62
256
6
ByLayer
370
18
48
1
60
0
100
AcDbSpline
70
4
71
3
72
26
73
22
40
0
40
0
40
0
40
0
40
0.0104432737123593
40
0.049470296408375
40
0.0884973191043907
40
0.127524341800406
40
0.166551364496422
40
0.205578387192438
40
0.225091898540446
40
0.244605409888453
40
0.283632432584469
40
0.439740523368532
40
0.595848614152594
40
0.673902659544626
40
0.751956704936657
40
0.830010750328688
40
0.849524261676696
40
0.869037773024704
40
0.90806479572072
40
0.986118841112751
40
1
40
1
40
1
40
1
41
1
10
23.9135529850895
20
6.40187840592628
30
0
41
1
10
23.9126200978797
20
6.4003214759548
30
0
41
1
10
23.9081622646777
20
6.39296132917221
30
0
41
1
10
23.8997325722488
20
6.37997244677103
30
0
41
1
10
23.887245620211
20
6.363360476227
30
0
41
1
10
23.8735316926008
20
6.34732185585196
30
0
41
1
10
23.8586286335155
20
6.33188854163433
30
0
41
1
10
23.8452488193595
20
6.31955641776685
30
0
41
1
10
23.8339868158705
20
6.31002283117078
30
0
41
1
10
23.8223587798674
20
6.3007155628099
30
0
41
1
10
23.7888968310706
20
6.27607439088828
30
0
41
1
10
23.7263148359935
20
6.24117605195613
30
0
41
1
10
23.6449960583475
20
6.21353029220211
30
0
41
1
10
23.5746106473081
20
6.19857640732155
30
0
41
1
10
23.5195919391102
20
6.19107209222344
30
0
41
1
10
23.4769823289303
20
6.18832448264729
30
0
41
1
10
23.4481770048359
20
6.18769600299126
30
0
41
1
10
23.428877860199
20
6.18759808583135
30
0
41
1
10
23.3948817241867
20
6.18827006246536
30
0
41
1
10
23.3619690320357
20
6.19053345874823
30
0
41
1
10
23.3388130040632
20
6.19293835441636
30
0
41
1
10
23.3353160031061
20
6.19331286816035
30
0
0
SPLINE
5
2A0
100
AcDbEntity
8
1
62
256
6
ByLayer
370
18
48
1
60
0
100
AcDbSpline
70
4
71
3
72
13
73
9
40
0
40
0
40
0
40
0
40
0.0415335913911583
40
0.0955852659187806
40
0.31179196402927
40
0.744205360250247
40
0.960412058360736
40
1
40
1
40
1
40
1
41
1
10
24.102927715133
20
6.72640691153941
30
0
41
1
10
24.1003463298926
20
6.72189866511837
30
0
41
1
10
24.0942681788868
20
6.71157502108247
30
0
41
1
10
24.0747052583781
20
6.67780130580567
30
0
41
1
10
24.0304335863057
20
6.60175672968498
30
0
41
1
10
23.9759526916393
20
6.50815977793459
30
0
41
1
10
23.9322092151753
20
6.43382884870343
30
0
41
1
10
23.9161063428363
20
6.40613979911731
30
0
41
1
10
23.9135529850895
20
6.40187840592628
30
0
0
SPLINE
5
2A1
100
AcDbEntity
8
1
62
256
6
ByLayer
370
18
48
1
60
0
100
AcDbSpline
70
4
71
3
72
22
73
18
40
0
40
0
40
0
40
0
40
0.0173062552164495
40
0.0745914966662737
40
0.150971818599373
40
0.30373246246557
40
0.456493106331768
40
0.609253750197966
40
0.647443911164515
40
0.66653899164779
40
0.685634072131065
40
0.704729152614339
40
0.723824233097614
40
0.762014394064163
40
0.914775037930361
40
0.99115535986346
40
1
40
1
40
1
40
1
41
1
10
24.1967795487888
20
7.23535394967539
30
0
41
1
10
24.1963317940842
20
7.2323874636734
30
0
41
1
10
24.1944336362786
20
7.21959540681968
30
0
41
1
10
24.1910666299438
20
7.1936120538823
30
0
41
1
10
24.1859915493171
20
7.14407197066041
30
0
41
1
10
24.1814274992398
20
7.07765128636404
30
0
41
1
10
24.1760029126176
20
6.99790221205998
30
0
41
1
10
24.1694158241804
20
6.93855664893926
30
0
41
1
10
24.1634514394934
20
6.90265875015146
30
0
41
1
10
24.1610422947546
20
6.88965533490466
30
0
41
1
10
24.1591081082451
20
6.87993048895214
30
0
41
1
10
24.1570394046149
20
6.87023589089944
30
0
41
1
10
24.1540921913932
20
6.85735346725204
30
0
41
1
10
24.1451684300507
20
6.8221210222608
30
0
41
1
10
24.1300011940307
20
6.77822187191092
30
0
41
1
10
24.11115032512
20
6.740878117655
30
0
41
1
10
24.1037057358619
20
6.72776568167242
30
0
41
1
10
24.102927715133
20
6.72640691153941
30
0
0
SPLINE
5
2A2
100
AcDbEntity
8
1
62
256
6
ByLayer
370
18
48
1
60
0
100
AcDbSpline
70
4
71
3
72
25
73
21
40
0
40
0
40
0
40
0
40
0.0333597394323583
40
0.107582966694291
40
0.181806193956223
40
0.21891780758719
40
0.237473614402673
40
0.256029421218156
40
0.293141034849122
40
0.330252648480089
40
0.404475875742021
40
0.441587489372987
40
0.478699103003954
40
0.552922330265886
40
0.701368784789751
40
0.849815239313616
40
0.924038466575549
40
0.979705887021998
40
0.998261693837481
40
1
40
1
40
1
40
1
41
1
10
24.2716618623333
20
7.76545963994414
30
0
41
1
10
24.271175154256
20
7.75950144757118
30
0
41
1
10
24.269274560125
20
7.74034275471155
30
0
41
1
10
24.266252242297
20
7.70793445891547
30
0
41
1
10
24.2627893043382
20
7.67492348196342
30
0
41
1
10
24.2604682582057
20
7.65179757521983
30
0
41
1
10
24.2587356997049
20
7.63865572863807
30
0
41
1
10
24.2562341606066
20
7.62567165620789
30
0
41
1
10
24.2536488533056
20
7.60932857893255
30
0
41
1
10
24.249847554786
20
7.58311395910295
30
0
41
1
10
24.2459147172739
20
7.55692486387753
30
0
41
1
10
24.241969018965
20
7.53073839273569
30
0
41
1
10
24.2380149909539
20
7.50455361683106
30
0
41
1
10
24.2310742173934
20
7.45873456684686
30
0
41
1
10
24.2211018474848
20
7.39329027701669
30
0
41
1
10
24.2110632719349
20
7.32785914892654
30
0
41
1
10
24.2034692145572
20
7.27879888365689
30
0
41
1
10
24.1994300473321
20
7.25263120127019
30
0
41
1
10
24.1973670647203
20
7.23924012919713
30
0
41
1
10
24.1968258300274
20
7.23566057436383
30
0
41
1
10
24.1967795487888
20
7.23535394967539
30
0
0
SPLINE
5
2A3
100
AcDbEntity
8
1
62
256
6
ByLayer
370
18
48
1
60
0
100
AcDbSpline
70
4
71
3
72
24
73
20
40
0
40
0
40
0
40
0
40
0.0083012810712628
40
0.0512299228286073
40
0.0941585645859517
40
0.180015848100641
40
0.26587313161533
40
0.351730415130019
40
0.394659056887363
40
0.437587698644707
40
0.523444982159396
40
0.609302265674085
40
0.695159549188774
40
0.716623870067446
40
0.738088190946119
40
0.781016832703463
40
0.952731399732841
40
0.995660041490185
40
1
40
1
40
1
40
1
41
1
10
23.9305453545986
20
8.15949481452799
30
0
41
1
10
23.9324471474803
20
8.15921399480379
30
0
41
1
10
23.9441817759942
20
8.15744061835375
30
0
41
1
10
23.9657091422315
20
8.15335964458487
30
0
41
1
10
24.0044376797478
20
8.14337805378744
30
0
41
1
10
24.0510910685659
20
8.12608713525196
30
0
41
1
10
24.1018524465412
20
8.09851881192509
30
0
41
1
10
24.1385487205716
20
8.07118734271396
30
0
41
1
10
24.1643263401078
20
8.04751494278887
30
0
41
1
10
24.1877527955009
20
8.02286511672989
30
0
41
1
10
24.2126932488152
20
7.99064651684947
30
0
41
1
10
24.2361533646101
20
7.95052995546993
30
0
41
1
10
24.2492569482951
20
7.91994875291877
30
0
41
1
10
24.2562431604925
20
7.89947895443214
30
0
41
1
10
24.260442229181
20
7.88581869488792
30
0
41
1
10
24.2701322789546
20
7.84823029470886
30
0
41
1
10
24.2741929988716
20
7.80738909548157
30
0
41
1
10
24.2722986468379
20
7.77343053064357
30
0
41
1
10
24.2717166009945
20
7.76612974074874
30
0
41
1
10
24.2716618623333
20
7.76545963994414
30
0
0
SPLINE
5
2A4
100
AcDbEntity
8
1
62
256
6
ByLayer
370
18
48
1
60
0
100
AcDbSpline
70
4
71
3
72
15
73
11
40
0
40
0
40
0
40
0
40
0.411276026541516
40
0.822552053083031
40
0.92537105971841
40
0.9767805630361
40
0.989632938865522
40
0.996059126780233
40
0.999272220737589
40
1
40
1
40
1
40
1
41
1
10
21.6343030458143
20
8.4710958043398
30
0
41
1
10
21.9491113335947
20
8.43139778172232
30
0
41
1
10
22.5787514453808
20
8.34945477260405
30
0
41
1
10
23.2870567601376
20
8.25171595925096
30
0
41
1
10
23.7198602472296
20
8.18993514913095
30
0
41
1
10
23.8477279448607
20
8.17148026943588
30
0
41
1
10
23.9018258672488
20
8.16366151194055
30
0
41
1
10
23.9190377151072
20
8.16114953102985
30
0
41
1
10
23.9269726979072
20
8.16001929746986
30
0
41
1
10
23.9299884490995
20
8.15957704748308
30
0
41
1
10
23.9305453545986
20
8.15949481452799
30
0
0
SPLINE
5
2A5
100
AcDbEntity
8
1
62
256
6
ByLayer
370
18
48
1
60
0
100
AcDbSpline
70
4
71
3
72
8
73
4
40
0
40
0
40
0
40
0
40
1
40
1
40
1
40
1
41
1
10
21.695079907998
20
8.96685913421834
30
0
41
1
10
20.9625211547663
20
9.07346201829276
30
0
41
1
10
20.2299624015346
20
9.18006490236772
30
0
41
1
10
19.4974036483029
20
9.28666778644427
30
0
0
SPLINE
5
2A6
100
AcDbEntity
8
1
62
256
6
ByLayer
370
18
48
1
60
0
100
AcDbSpline
70
4
71
3
72
8
73
4
40
0
40
0
40
0
40
0
40
1
40
1
40
1
40
1
41
1
10
19.4974036483051
20
9.28666778644396
30
0
41
1
10
19.8310672461214
20
9.63441296140587
30
0
41
1
10
20.1647308439372
20
9.98215813636295
30
0
41
1
10
20.498394441753
20
10.3299033113198
30
0
0
SPLINE
5
2A7
100
AcDbEntity
8
1
62
256
6
ByLayer
370
18
48
1
60
0
100
AcDbSpline
70
4
71
3
72
8
73
4
40
0
40
0
40
0
40
0
40
1
40
1
40
1
40
1
41
1
10
19.1999999997205
20
8.94966244630947
30
0
41
1
10
19.2991345492483
20
9.06199755968768
30
0
41
1
10
19.3982690987762
20
9.17433267306592
30
0
41
1
10
19.497403648304
20
9.28666778644413
30
0
0
SPLINE
5
2A8
100
AcDbEntity
8
1
62
256
6
ByLayer
370
18
48
1
60
0
100
AcDbSpline
70
4
71
3
72
16
73
12
40
0
40
0
40
0
40
0
40
0.517375104625283
40
0.776062656937924
40
0.905406433094245
40
0.921574405113785
40
0.937742377133325
40
0.970078321172405
40
0.986246293191945
40
0.994330279201715
40
1
40
1
40
1
40
1
41
1
10
21.5908910056251
20
8.61487502459516
30
0
41
1
10
21.1786424322011
20
8.67573920073113
30
0
41
1
10
20.5601797464988
20
8.76458735976368
30
0
41
1
10
19.8385573612528
20
8.86400749201601
30
0
41
1
10
19.5163939539857
20
8.90747124685535
30
0
41
1
10
19.3875276951791
20
8.92470392244562
30
0
41
1
10
19.3359811040057
20
8.93158542506345
30
0
41
1
10
19.2844343693331
20
8.93845260167245
30
0
41
1
10
19.2393308298928
20
8.94445414043022
30
0
41
1
10
19.2154818497357
20
8.94759811330874
30
0
41
1
10
19.2045189501811
20
8.94908716322536
30
0
41
1
10
19.1999999780006
20
8.9496742970322
30
0
0
SPLINE
5
2A9
100
AcDbEntity
8
1
62
256
6
ByLayer
370
18
48
1
60
0
100
AcDbSpline
70
4
71
3
72
15
73
11
40
0
40
0
40
0
40
0
40
0.0095746787020134
40
0.13781505313463
40
0.266055427567246
40
0.394295801999862
40
0.650776550865094
40
0.907257299730327
40
0.971377486946635
40
1
40
1
40
1
40
1
41
1
10
19.1999999780006
20
8.9496742970322
30
0
41
1
10
19.1980757214605
20
8.94992430876556
30
0
41
1
10
19.1703793017006
20
8.95345321775949
30
0
41
1
10
19.1169433372817
20
8.95727458455886
30
0
41
1
10
19.0416969840734
20
8.95427168895955
30
0
41
1
10
18.946494169232
20
8.93916766405385
30
0
41
1
10
18.8416342608588
20
8.89993233852579
30
0
41
1
10
18.7734156324682
20
8.84367719989351
30
0
41
1
10
18.7445630820922
20
8.80376622712242
30
0
41
1
10
18.7379363959678
20
8.79275263109074
30
0
41
1
10
18.7359368448952
20
8.78933553072585
30
0
0
SPLINE
5
2AA
100
AcDbEntity
8
1
62
256
6
ByLayer
370
18
48
1
60
0
100
AcDbSpline
70
4
71
3
72
25
73
21
40
0
40
0
40
0
40
0
40
0.0016493362088556
40
0.0170316297738943
40
0.0477962169039717
40
0.0785608040340491
40
0.109325391164126
40
0.140089978294204
40
0.170854565424281
40
0.201619152554359
40
0.324677501074668
40
0.570794198115287
40
0.693852546635596
40
0.724617133765674
40
0.755381720895751
40
0.816910895155906
40
0.939969243676215
40
0.970733830806293
40
0.986116124371332
40
1
40
1
40
1
40
1
41
1
10
18.7359368448952
20
8.78933553072585
30
0
41
1
10
18.7356966976421
20
8.78892513497388
30
0
41
1
10
18.7332236434534
20
8.78468455407497
30
0
41
1
10
18.7264527684359
20
8.77271730609959
30
0
41
1
10
18.7154189365381
20
8.75351714989276
30
0
41
1
10
18.7021814681895
20
8.73047490480448
30
0
41
1
10
18.688946829681
20
8.70743156282552
30
0
41
1
10
18.6757148044042
20
8.68438720803661
30
0
41
1
10
18.6624851757504
20
8.66134192451844
30
0
41
1
10
18.6360302784719
20
8.61524966818504
30
0
41
1
10
18.5787326046003
20
8.515374873311
30
0
41
1
10
18.5082474937046
20
8.39243847300989
30
0
41
1
10
18.4509618077961
20
8.29255910618119
30
0
41
1
10
18.4245160068874
20
8.24646331810524
30
0
41
1
10
18.4068836003917
20
8.2157335036643
30
0
41
1
10
18.3760214355983
20
8.16195839398264
30
0
41
1
10
18.345146212094
20
8.10818821293964
30
0
41
1
10
18.3209453315541
20
8.06591820923208
30
0
41
1
10
18.3122997158438
20
8.05094415853813
30
0
41
1
10
18.3081039485153
20
8.04363677640043
30
0
41
1
10
18.306140474126
20
8.04015996603766
30
0
0
SPLINE
5
2AB
100
AcDbEntity
8
1
62
256
6
ByLayer
370
18
48
1
60
0
100
AcDbSpline
70
4
71
3
72
15
73
11
40
0
40
0
40
0
40
0
40
0.0034237104021469
40
0.0385704589889107
40
0.0737172075756746
40
0.144010704749202
40
0.425184693443313
40
0.706358682137423
40
0.987532670831534
40
1
40
1
40
1
40
1
41
1
10
18.306140474126
20
8.04015996603766
30
0
41
1
10
18.3059285660594
20
8.0397847311142
30
0
41
1
10
18.3035448182777
20
8.03555611415453
30
0
41
1
10
18.2990721154729
20
8.02744284223343
30
0
41
1
10
18.2910193191867
20
8.01179738098429
30
0
41
1
10
18.2709384048134
20
7.96805124750426
30
0
41
1
10
18.2481309193432
20
7.89333301211127
30
0
41
1
10
18.2324600298736
20
7.79039517349963
30
0
41
1
10
18.2270197051069
20
7.71933010044827
30
0
41
1
10
18.2243087258574
20
7.68301706391409
30
0
41
1
10
18.22419373974
20
7.68147527987668
30
0
0
SPLINE
5
2AC
100
AcDbEntity
8
1
62
256
6
ByLayer
370
18
48
1
60
0
100
AcDbSpline
70
4
71
3
72
32
73
28
40
0
40
0
40
0
40
0
40
0.0485688260217197
40
0.088540121176765
40
0.101863886228447
40
0.115187651280129
40
0.155158946435174
40
0.208454006641901
40
0.315044127055355
40
0.421634247468809
40
0.474929307675536
40
0.501576837778899
40
0.528224367882263
40
0.58151942808899
40
0.608166958192353
40
0.634814488295717
40
0.648138253347399
40
0.66146201839908
40
0.688109548502444
40
0.741404608709171
40
0.794699668915898
40
0.821347199019261
40
0.847994729122625
40
0.954584849536079
40
0.981232379639442
40
0.994556144691124
40
1
40
1
40
1
40
1
41
1
10
18.22419373974
20
7.68147527987668
30
0
41
1
10
18.2230120926791
20
7.66563124046914
30
0
41
1
10
18.2208802588266
20
7.6367446097907
30
0
41
1
10
18.2184447601187
20
7.60350828503684
30
0
41
1
10
18.2168491033335
20
7.58177199435326
30
0
41
1
10
18.2152504257768
20
7.5600360274326
30
0
41
1
10
18.2126834872709
20
7.52525950687362
30
0
41
1
10
18.2078467926784
20
7.46005680528967
30
0
41
1
10
18.2013620912726
20
7.3731270685127
30
0
41
1
10
18.194843710068
20
7.28620810860485
30
0
41
1
10
18.1903789657874
20
7.22535223991551
30
0
41
1
10
18.1876476546967
20
7.19060985784387
30
0
41
1
10
18.1856416958075
20
7.15574396872972
30
0
41
1
10
18.1847176973068
20
7.12071373377813
30
0
41
1
10
18.1838490386723
20
7.08567782060476
30
0
41
1
10
18.1833597253675
20
7.06377325041413
30
0
41
1
10
18.1830187577672
20
7.04624246446829
30
0
41
1
10
18.1827110389955
20
7.02870701430524
30
0
41
1
10
18.182258742169
20
6.99800796651766
30
0
41
1
10
18.1818528230507
20
6.95411920434628
30
0
41
1
10
18.1817509348563
20
6.91019002848316
30
0
41
1
10
18.1818531220718
20
6.87502282547314
30
0
41
1
10
18.1821907402747
20
6.82224835158644
30
0
41
1
10
18.1829908009476
20
6.76941518663983
30
0
41
1
10
18.1841539585722
20
6.72093275398856
30
0
41
1
10
18.1845601406965
20
6.70590442355325
30
0
41
1
10
18.184734616986
20
6.69969236132388
30
0
41
1
10
18.1847959640634
20
6.69788885913579
30
0
0
SPLINE
5
2AD
100
AcDbEntity
8
1
62
256
6
ByLayer
370
18
48
1
60
0
100
AcDbSpline
70
4
71
3
72
19
73
15
40
0
40
0
40
0
40
0
40
0.0180580736808084
40
0.140192229457765
40
0.262326385234721
40
0.384460541011677
40
0.445527618900156
40
0.506594696788634
40
0.62872885256559
40
0.750863008342547
40
0.872997164119503
40
0.934064242007981
40
0.99513131989646
40
1
40
1
40
1
40
1
41
1
10
18.1847959640634
20
6.69788885913579
30
0
41
1
10
18.1848847631598
20
6.69527831317953
30
0
41
1
10
18.1857488015373
20
6.67498568050647
30
0
41
1
10
18.1933846827595
20
6.63614164533601
30
0
41
1
10
18.2177192267686
20
6.58298089810796
30
0
41
1
10
18.248443689594
20
6.54035162180992
30
0
41
1
10
18.2787421456582
20
6.50780736189049
30
0
41
1
10
18.3126405255806
20
6.47677559617071
30
0
41
1
10
18.3613123437518
20
6.4414267373715
30
0
41
1
10
18.4280904491678
20
6.4056479240565
30
0
41
1
10
18.4888235639854
20
6.38248436839581
30
0
41
1
10
18.5393257263993
20
6.36861616176748
30
0
41
1
10
18.5659918922955
20
6.3631161723836
30
0
41
1
10
18.5798794044421
20
6.3607183819114
30
0
41
1
10
18.5809050256198
20
6.36054315529756
30
0
0
SPLINE
5
2AE
100
AcDbEntity
8
1
62
256
6
ByLayer
370
18
48
1
60
0
100
AcDbSpline
70
4
71
3
72
15
73
11
40
0
40
0
40
0
40
0
40
0.0021852238900192
40
0.0053936315302442
40
0.0118104468106943
40
0.0246440773715944
40
0.0759785996151947
40
0.178647644102395
40
0.589323822051198
40
1
40
1
40
1
40
1
41
1
10
18.5809050256198
20
6.36054315529756
30
0
41
1
10
18.5830954551484
20
6.36016892204509
30
0
41
1
10
18.5885038572406
20
6.35926578242788
30
0
41
1
10
18.6003485363043
20
6.35731226134615
30
0
41
1
10
18.62286607938
20
6.35352423277325
30
0
41
1
10
18.6936437749345
20
6.34171505926824
30
0
41
1
10
18.8609396290626
20
6.31384849800679
30
0
41
1
10
19.4272456694328
20
6.22048284891579
30
0
41
1
10
20.3542642401922
20
6.07238642444688
30
0
41
1
10
21.1786424282611
20
5.94739055975879
30
0
41
1
10
21.5908910028923
20
5.88652638826946
30
0
0
SPLINE
5
2AF
100
AcDbEntity
8
1
62
256
6
ByLayer
370
18
48
1
60
0
100
AcDbSpline
70
4
71
3
72
12
73
8
40
0
40
0
40
0
40
0
40
0.0111774985702553
40
0.0285252617532333
40
0.167307367217057
40
0.444871578144705
40
1
40
1
40
1
40
1
41
1
10
19.9332900885229
20
8.67291004688934
30
0
41
1
10
19.9396249421559
20
8.6722316113439
30
0
41
1
10
19.9557975708643
20
8.67040473751754
30
0
41
1
10
20.0506369654382
20
8.65989548965149
30
0
41
1
10
20.2965041131736
20
8.63216487881107
30
0
41
1
10
20.8472991856782
20
8.56845598759921
30
0
41
1
10
21.3194947580342
20
8.51079382695724
30
0
41
1
10
21.6343030458145
20
8.47109580433977
30
0
0
SPLINE
5
2B0
100
AcDbEntity
8
1
62
256
6
ByLayer
370
18
48
1
60
0
100
AcDbSpline
70
4
71
3
72
26
73
22
40
0
40
0
40
0
40
0
40
0.0104432737123594
40
0.0494702964083754
40
0.0884973191043914
40
0.127524341800407
40
0.166551364496423
40
0.205578387192439
40
0.225091898540447
40
0.244605409888455
40
0.283632432584471
40
0.439740523368535
40
0.595848614152599
40
0.673902659544631
40
0.751956704936663
40
0.830010750328695
40
0.849524261676703
40
0.869037773024711
40
0.908064795720727
40
0.986118841112759
40
1
40
1
40
1
40
1
41
1
10
19.3550531065395
20
8.46434450912341
30
0
41
1
10
19.3559859937493
20
8.46590143909489
30
0
41
1
10
19.3604438269513
20
8.47326158587751
30
0
41
1
10
19.3688735193803
20
8.48625046827866
30
0
41
1
10
19.381360471418
20
8.50286243882272
30
0
41
1
10
19.3950743990282
20
8.51890105919773
30
0
41
1
10
19.4099774581135
20
8.53433437341536
30
0
41
1
10
19.4233572722695
20
8.54666649728287
30
0
41
1
10
19.4346192757586
20
8.55620008387891
30
0
41
1
10
19.4462473117616
20
8.56550735223979
30
0
41
1
10
19.4797092605584
20
8.59014852416144
30
0
41
1
10
19.5422912556355
20
8.62504686309356
30
0
41
1
10
19.6236100332815
20
8.65269262284761
30
0
41
1
10
19.6939954443209
20
8.66764650772816
30
0
41
1
10
19.7490141525188
20
8.67515082282628
30
0
41
1
10
19.7916237626988
20
8.67789843240243
30
0
41
1
10
19.8204290867931
20
8.67852691205846
30
0
41
1
10
19.83972823143
20
8.67862482921834
30
0
41
1
10
19.8737243674423
20
8.67795285258435
30
0
41
1
10
19.9066370595933
20
8.67568945630146
30
0
41
1
10
19.9297930875658
20
8.67328456063336
30
0
41
1
10
19.9332900885229
20
8.67291004688934
30
0
0
SPLINE
5
2B1
100
AcDbEntity
8
1
62
256
6
ByLayer
370
18
48
1
60
0
100
AcDbSpline
70
4
71
3
72
13
73
9
40
0
40
0
40
0
40
0
40
0.0415335913911556
40
0.0955852659187784
40
0.311791964029269
40
0.744205360250251
40
0.960412058360742
40
1
40
1
40
1
40
1
41
1
10
19.165678376496
20
8.13981600351028
30
0
41
1
10
19.1682597617364
20
8.14432424993132
30
0
41
1
10
19.1743379127422
20
8.15464789396722
30
0
41
1
10
19.193900833251
20
8.18842160924405
30
0
41
1
10
19.2381725053233
20
8.26446618536471
30
0
41
1
10
19.2926533999897
20
8.3580631371151
30
0
41
1
10
19.3363968764537
20
8.43239406634626
30
0
41
1
10
19.3524997487927
20
8.46008311593238
30
0
41
1
10
19.3550531065395
20
8.46434450912341
30
0
0
SPLINE
5
2B2
100
AcDbEntity
8
1
62
256
6
ByLayer
370
18
48
1
60
0
100
AcDbSpline
70
4
71
3
72
22
73
18
40
0
40
0
40
0
40
0
40
0.0173062552164537
40
0.0745914966662775
40
0.150971818599376
40
0.303732462465573
40
0.456493106331769
40
0.609253750197966
40
0.647443911164515
40
0.66653899164779
40
0.685634072131064
40
0.704729152614339
40
0.723824233097614
40
0.762014394064163
40
0.91477503793036
40
0.991155359863458
40
1
40
1
40
1
40
1
41
1
10
19.0718265428403
20
7.6308689653743
30
0
41
1
10
19.0722742975448
20
7.63383545137629
30
0
41
1
10
19.0741724553504
20
7.64662750823004
30
0
41
1
10
19.0775394616853
20
7.67261086116739
30
0
41
1
10
19.0826145423119
20
7.72215094438931
30
0
41
1
10
19.0871785923892
20
7.78857162868565
30
0
41
1
10
19.0926031790114
20
7.86832070298971
30
0
41
1
10
19.0991902674486
20
7.92766626611044
30
0
41
1
10
19.1051546521356
20
7.96356416489826
30
0
41
1
10
19.1075637968744
20
7.97656758014506
30
0
41
1
10
19.1094979833839
20
7.98629242609758
30
0
41
1
10
19.1115666870141
20
7.99598702415025
30
0
41
1
10
19.1145139002358
20
8.00886944779768
30
0
41
1
10
19.1234376615784
20
8.04410189278889
30
0
41
1
10
19.1386048975983
20
8.0880010431388
30
0
41
1
10
19.157455766509
20
8.12534479739472
30
0
41
1
10
19.1649003557671
20
8.1384572333773
30
0
41
1
10
19.165678376496
20
8.13981600351028
30
0
0
SPLINE
5
2B3
100
AcDbEntity
8
1
62
256
6
ByLayer
370
18
48
1
60
0
100
AcDbSpline
70
4
71
3
72
25
73
21
40
0
40
0
40
0
40
0
40
0.033359739432359
40
0.107582966694292
40
0.181806193956225
40
0.218917807587191
40
0.237473614402674
40
0.256029421218158
40
0.293141034849124
40
0.33025264848009
40
0.404475875742023
40
0.441587489372989
40
0.478699103003956
40
0.552922330265889
40
0.701368784789754
40
0.84981523931362
40
0.924038466575553
40
0.979705887022003
40
0.998261693837486
40
1
40
1
40
1
40
1
41
1
10
18.9969442292311
20
7.10076327483409
30
0
41
1
10
18.9974309374315
20
7.10672146772421
30
0
41
1
10
18.9993315314532
20
7.1258801601245
30
0
41
1
10
19.0023538493479
20
7.15828845620086
30
0
41
1
10
19.0058167872923
20
7.19129943309261
30
0
41
1
10
19.0081378334233
20
7.21442533982986
30
0
41
1
10
19.0098703919241
20
7.22756718641162
30
0
41
1
10
19.0123719310224
20
7.24055125884183
30
0
41
1
10
19.0149572383234
20
7.25689433611717
30
0
41
1
10
19.018758536843
20
7.28310895594674
30
0
41
1
10
19.022691374355
20
7.30929805117219
30
0
41
1
10
19.026637072664
20
7.335484522314
30
0
41
1
10
19.0305911006751
20
7.36166929821866
30
0
41
1
10
19.0375318742356
20
7.40748834820283
30
0
41
1
10
19.0475042441443
20
7.47293263803303
30
0
41
1
10
19.0575428196942
20
7.53836376612315
30
0
41
1
10
19.0651368770718
20
7.5874240313928
30
0
41
1
10
19.0691760442969
20
7.6135917137795
30
0
41
1
10
19.0712390269087
20
7.62698278585259
30
0
41
1
10
19.0717802616016
20
7.63056234068586
30
0
41
1
10
19.0718265428403
20
7.6308689653743
30
0
0
SPLINE
5
2B4
100
AcDbEntity
8
1
62
256
6
ByLayer
370
18
48
1
60
0
100
AcDbSpline
70
4
71
3
72
24
73
20
40
0
40
0
40
0
40
0
40
0.0083012810712628
40
0.0512299228286073
40
0.0941585645859518
40
0.180015848100641
40
0.26587313161533
40
0.351730415130019
40
0.394659056887363
40
0.437587698644708
40
0.523444982159397
40
0.609302265674086
40
0.695159549188775
40
0.716623870067447
40
0.738088190946119
40
0.781016832703464
40
0.952731399732842
40
0.995660041490186
40
1
40
1
40
1
40
1
41
1
10
19.3380607370308
20
6.70672810052366
30
0
41
1
10
19.336158944149
20
6.70700892024718
30
0
41
1
10
19.3244243156323
20
6.70878229668554
30
0
41
1
10
19.3028969493523
20
6.7128632702744
30
0
41
1
10
19.2641684116567
20
6.72284486031913
30
0
41
1
10
19.2175150224522
20
6.74013577723105
30
0
41
1
10
19.1667536438474
20
6.76770409791254
30
0
41
1
10
19.130057369231
20
6.79503556466148
30
0
41
1
10
19.1042797492364
20
6.81870796266062
30
0
41
1
10
19.0808532934053
20
6.84335778687901
30
0
41
1
10
19.0559128396065
20
6.87557638472404
30
0
41
1
10
19.0324527234485
20
6.91569294457719
30
0
41
1
10
19.0193491397423
20
6.94627414703928
30
0
41
1
10
19.0123629276339
20
6.96674394590005
30
0
41
1
10
19.0081638590321
20
6.98040420580892
30
0
41
1
10
18.9984738096099
20
7.01799260746418
30
0
41
1
10
18.9944130904828
20
7.0588338100107
30
0
41
1
10
18.9963074445403
20
7.09279238335216
30
0
41
1
10
18.996889490556
20
7.10009317397135
30
0
41
1
10
18.9969442292311
20
7.10076327483409
30
0
0
SPLINE
5
2B5
100
AcDbEntity
8
1
62
256
6
ByLayer
370
18
48
1
60
0
100
AcDbSpline
70
4
71
3
72
15
73
11
40
0
40
0
40
0
40
0
40
0.411276026541516
40
0.822552053083031
40
0.92537105971841
40
0.9767805630361
40
0.989632938865522
40
0.996059126780233
40
0.999272220737589
40
1
40
1
40
1
40
1
41
1
10
21.6343030458147
20
6.39512711070992
30
0
41
1
10
21.3194947580343
20
6.43482513332739
30
0
41
1
10
20.6898546462478
20
6.51676814244388
30
0
41
1
10
19.981549331491
20
6.61450695579686
30
0
41
1
10
19.5487458443997
20
6.67628776592005
30
0
41
1
10
19.4208781467679
20
6.69474264561191
30
0
41
1
10
19.3667802243805
20
6.70256140311034
30
0
41
1
10
19.3495683765213
20
6.70507338401757
30
0
41
1
10
19.3416333937224
20
6.70620361758245
30
0
41
1
10
19.33861764253
20
6.70664586756874
30
0
41
1
10
19.3380607370308
20
6.70672810052366
30
0
0
SPLINE
5
2B6
100
AcDbEntity
8
1
62
256
6
ByLayer
370
18
48
1
60
0
100
AcDbSpline
70
4
71
3
72
14
73
10
40
0
40
0
40
0
40
0
40
0.5
40
0.5
40
0.75
40
0.75
40
0.875
40
0.875
40
1
40
1
40
1
40
1
41
1
10
21.6356499045147
20
13.0789508124984
30
0
41
1
10
21.5936882509688
20
13.0774387696664
30
0
41
1
10
21.5516468954927
20
13.0814857810243
30
0
41
1
10
21.4946609266764
20
13.0998149775755
30
0
41
1
10
21.4765103328505
20
13.1081084993212
30
0
41
1
10
21.4552792620026
20
13.1254147793993
30
0
41
1
10
21.4493759416755
20
13.1318683942478
30
0
41
1
10
21.4413170813441
20
13.1467438621374
30
0
41
1
10
21.4395159229314
20
13.1548047041291
30
0
41
1
10
21.4404258612437
20
13.1629410538706
30
0
0
SPLINE
5
2B7
100
AcDbEntity
8
1
62
256
6
ByLayer
370
18
48
1
60
0
100
AcDbSpline
70
4
71
3
72
8
73
4
40
0
40
0
40
0
40
0
40
1
40
1
40
1
40
1
41
1
10
21.4404258612437
20
13.1629410538706
30
0
41
1
10
21.4414398217439
20
13.168719715706
30
0
41
1
10
21.4424535648285
20
13.174499523287
30
0
41
1
10
21.443467073354
20
13.1802805650233
30
0
0
SPLINE
5
2B8
100
AcDbEntity
8
1
62
256
6
ByLayer
370
18
48
1
60
0
100
AcDbSpline
70
4
71
3
72
12
73
8
40
0
40
0
40
0
40
0
40
0.25
40
0.25
40
0.5
40
0.5
40
1
40
1
40
1
40
1
41
1
10
21.8459696938874
20
13.1775543875548
30
0
41
1
10
21.844149694519
20
13.161270505182
30
0
41
1
10
21.8315011857457
20
13.1448749554979
30
0
41
1
10
21.7993757660527
20
13.1197772673201
30
0
41
1
10
21.7799824711892
20
13.1101112477638
30
0
41
1
10
21.7202108381435
20
13.0875546081641
30
0
41
1
10
21.6776306620449
20
13.0804635437218
30
0
41
1
10
21.6356499045147
20
13.0789508124984
30
0
0
SPLINE
5
2B9
100
AcDbEntity
8
1
62
256
6
ByLayer
370
18
48
1
60
0
100
AcDbSpline
70
4
71
3
72
18
73
14
40
0
40
0
40
0
40
0
40
0.125
40
0.125
40
0.250000000000001
40
0.250000000000001
40
0.500000000000001
40
0.500000000000001
40
0.75
40
0.75
40
0.875
40
0.875
40
1
40
1
40
1
40
1
41
1
10
21.443467073354
20
13.1802805650233
30
0
41
1
10
21.4460612361082
20
13.1950776414906
30
0
41
1
10
21.4422337716044
20
13.2097947349612
30
0
41
1
10
21.4287088114357
20
13.2376828632172
30
0
41
1
10
21.41894398585
20
13.2507588467193
30
0
41
1
10
21.3844608848486
20
13.2875919760221
30
0
41
1
10
21.3545524128299
20
13.3090552404387
30
0
41
1
10
21.2879294379468
20
13.344815444076
30
0
41
1
10
21.251578416641
20
13.3590025961406
30
0
41
1
10
21.1948150924654
20
13.3713379585232
30
0
41
1
10
21.1755111208263
20
13.3739142630422
30
0
41
1
10
21.1375354656445
20
13.373816045482
30
0
41
1
10
21.1186864275142
20
13.3712089476107
30
0
41
1
10
21.1028635499809
20
13.3634743779824
30
0
0
SPLINE
5
2BA
100
AcDbEntity
8
1
62
256
6
ByLayer
370
18
48
1
60
0
100
AcDbSpline
70
4
71
3
72
8
73
4
40
0
40
0
40
0
40
0
40
1
40
1
40
1
40
1
41
1
10
21.8468581569934
20
13.1948163267239
30
0
41
1
10
21.8465623284019
20
13.1890611458082
30
0
41
1
10
21.8462661659614
20
13.1833071954702
30
0
41
1
10
21.8459696938874
20
13.1775543875548
30
0
0
SPLINE
5
2BB
100
AcDbEntity
8
1
62
256
6
ByLayer
370
18
48
1
60
0
100
AcDbSpline
70
4
71
3
72
18
73
14
40
0
40
0
40
0
40
0
40
0.125
40
0.125
40
0.25
40
0.25
40
0.5
40
0.5
40
0.75
40
0.75
40
0.875
40
0.875
40
1
40
1
40
1
40
1
41
1
10
22.1874616803665
20
13.4025566993415
30
0
41
1
10
22.1749773708793
20
13.4092848612806
30
0
41
1
10
22.1591361905357
20
13.410622378048
30
0
41
1
10
22.1264965181766
20
13.4081909543434
30
0
41
1
10
22.1092083616439
20
13.4042788572419
30
0
41
1
10
22.0578348051986
20
13.3881097997245
30
0
41
1
10
22.0229408193023
20
13.3712339648999
30
0
41
1
10
21.9563386002148
20
13.3306457392169
30
0
41
1
10
21.9247204399323
20
13.3069989025338
30
0
41
1
10
21.8850603715714
20
13.2675214911953
30
0
41
1
10
21.8730977705871
20
13.2536106192736
30
0
41
1
10
21.854426573476
20
13.2246011956714
30
0
41
1
10
21.8476167688716
20
13.2095746994096
30
0
41
1
10
21.8468581569934
20
13.1948163267239
30
0
0
SPLINE
5
2BC
100
AcDbEntity
8
1
62
256
6
ByLayer
370
18
48
1
60
0
100
AcDbSpline
70
4
71
3
72
8
73
4
40
0
40
0
40
0
40
0
40
1
40
1
40
1
40
1
41
1
10
20.881607612663
20
14.1048960854148
30
0
41
1
10
20.8881272418991
20
14.1013942837345
30
0
41
1
10
20.8946473613574
20
14.0978924349918
30
0
41
1
10
20.9011680081613
20
14.0943905361229
30
0
0
SPLINE
5
2BD
100
AcDbEntity
8
1
62
256
6
ByLayer
370
18
48
1
60
0
100
AcDbSpline
70
4
71
3
72
18
73
14
40
0
40
0
40
0
40
0
40
0.125
40
0.125
40
0.25
40
0.25
40
0.5
40
0.5
40
0.750000000000001
40
0.750000000000001
40
0.875
40
0.875
40
1
40
1
40
1
40
1
41
1
10
20.9011680081613
20
14.0943905361229
30
0
41
1
10
20.9178376999119
20
14.0854381152294
30
0
41
1
10
20.9311694357296
20
14.071233630587
30
0
41
1
10
20.9531144169699
20
14.0393565486834
30
0
41
1
10
20.961594888408
20
14.0216998627132
30
0
41
1
10
20.9815524226515
20
13.9668501011459
30
0
41
1
10
20.9876235911082
20
13.927750903708
30
0
41
1
10
20.9876043163517
20
13.8514190310562
30
0
41
1
10
20.9815251383728
20
13.8140879809462
30
0
41
1
10
20.9615715135858
20
13.7640903294295
30
0
41
1
10
20.9530523219202
20
13.7483545249095
30
0
41
1
10
20.9311255944939
20
13.7211515405714
30
0
41
1
10
20.917867795445
20
13.7096212354817
30
0
41
1
10
20.9011680081613
20
13.7034563505462
30
0
0
SPLINE
5
2BE
100
AcDbEntity
8
1
62
256
6
ByLayer
370
18
48
1
60
0
100
AcDbSpline
70
4
71
3
72
12
73
8
40
0
40
0
40
0
40
0
40
0.25
40
0.25
40
0.499999999999999
40
0.499999999999999
40
1
40
1
40
1
40
1
41
1
10
22.2020160261463
20
13.3947136142126
30
0
41
1
10
22.2162209555331
20
13.3882036315275
30
0
41
1
10
22.23576097054
20
13.3914404563353
30
0
41
1
10
22.2717727236512
20
13.4079008868971
30
0
41
1
10
22.2889937087972
20
13.4205665922066
30
0
41
1
10
22.3360254335823
20
13.4631512909374
30
0
41
1
10
22.3620282202994
20
13.4978902407869
30
0
41
1
10
22.3830185990645
20
13.5347847673294
30
0
0
SPLINE
5
2BF
100
AcDbEntity
8
1
62
256
6
ByLayer
370
18
48
1
60
0
100
AcDbSpline
70
4
71
3
72
18
73
14
40
0
40
0
40
0
40
0
40
0.125
40
0.125
40
0.25
40
0.25
40
0.5
40
0.5
40
0.750000000000001
40
0.750000000000001
40
0.875
40
0.875
40
1
40
1
40
1
40
1
41
1
10
22.3891572221862
20
13.7570744336058
30
0
41
1
10
22.3758347821414
20
13.7621474744369
30
0
41
1
10
22.3655043480712
20
13.7728735262683
30
0
41
1
10
22.348746500164
20
13.7987388518411
30
0
41
1
10
22.342426667643
20
13.8138914119572
30
0
41
1
10
22.3276889501661
20
13.862691537921
30
0
41
1
10
22.3234002882128
20
13.8997248554078
30
0
41
1
10
22.3234141296023
20
13.9760630251945
30
0
41
1
10
22.3277087669187
20
14.0154623127946
30
0
41
1
10
22.342444095045
20
14.0715078381504
30
0
41
1
10
22.348793383729
20
14.0897585053412
30
0
41
1
10
22.3655383632276
20
14.1229670044612
30
0
41
1
10
22.3758107297509
20
14.1379573503353
30
0
41
1
10
22.3891572221862
20
14.1480086191825
30
0
0
SPLINE
5
2C0
100
AcDbEntity
8
1
62
256
6
ByLayer
370
18
48
1
60
0
100
AcDbSpline
70
4
71
3
72
8
73
4
40
0
40
0
40
0
40
0
40
1
40
1
40
1
40
1
41
1
10
20.9011680081613
20
13.7034563505462
30
0
41
1
10
20.8946473613574
20
13.7010491919059
30
0
41
1
10
20.8881272418991
20
13.6986428006491
30
0
41
1
10
20.881607612663
20
13.6962371216121
30
0
0
SPLINE
5
2C1
100
AcDbEntity
8
1
62
256
6
ByLayer
370
18
48
1
60
0
100
AcDbSpline
70
4
71
3
72
12
73
8
40
0
40
0
40
0
40
0
40
0.25
40
0.25
40
0.500000000000001
40
0.500000000000001
40
1
40
1
40
1
40
1
41
1
10
21.0843795289849
20
14.4613057496954
30
0
41
1
10
21.0665334683895
20
14.472035711353
30
0
41
1
10
21.0440649787499
20
14.4721929145724
30
0
41
1
10
21.0040915859981
20
14.4603239241491
30
0
41
1
10
20.9856135827825
20
14.4491150709874
30
0
41
1
10
20.9358350723598
20
14.4097138273341
30
0
41
1
10
20.9092715887298
20
14.3756247110243
30
0
41
1
10
20.8882812099647
20
14.3387301844819
30
0
0
SPLINE
5
2C2
100
AcDbEntity
8
1
62
256
6
ByLayer
370
18
48
1
60
0
100
AcDbSpline
70
4
71
3
72
8
73
4
40
0
40
0
40
0
40
0
40
1
40
1
40
1
40
1
41
1
10
22.4047879424682
20
13.7511232784931
30
0
41
1
10
22.3995787458062
20
13.7531063219658
30
0
41
1
10
22.3943685318731
20
13.7550900233374
30
0
41
1
10
22.3891572221862
20
13.7570744336058
30
0
0
SPLINE
5
2C3
100
AcDbEntity
8
1
62
256
6
ByLayer
370
18
48
1
60
0
100
AcDbSpline
70
4
71
3
72
8
73
4
40
0
40
0
40
0
40
0
40
1
40
1
40
1
40
1
41
1
10
21.4404258612437
20
14.6784649763531
30
0
41
1
10
21.4414398217439
20
14.6711934102301
30
0
41
1
10
21.4424535648285
20
14.6639213125209
30
0
41
1
10
21.443467073354
20
14.6566486430048
30
0
0
SPLINE
5
2C4
100
AcDbEntity
8
1
62
256
6
ByLayer
370
18
48
1
60
0
100
AcDbSpline
70
4
71
3
72
8
73
4
40
0
40
0
40
0
40
0
40
1
40
1
40
1
40
1
41
1
10
22.1874616803665
20
13.4025566993415
30
0
41
1
10
22.1923141500864
20
13.3999415605456
30
0
41
1
10
22.1971655736974
20
13.397327217907
30
0
41
1
10
22.2020160261463
20
13.3947136142126
30
0
0
SPLINE
5
2C5
100
AcDbEntity
8
1
62
256
6
ByLayer
370
18
48
1
60
0
100
AcDbSpline
70
4
71
3
72
12
73
8
40
0
40
0
40
0
40
0
40
0.5
40
0.5
40
0.75
40
0.75
40
1
40
1
40
1
40
1
41
1
10
20.8882812099647
20
13.4809235210746
30
0
41
1
10
20.9092745710259
20
13.4455366987386
30
0
41
1
10
20.9358395052984
20
13.412678014512
30
0
41
1
10
20.9856992455632
20
13.3735411628863
30
0
41
1
10
21.0041350328157
20
13.3621706165147
30
0
41
1
10
21.0444289686265
20
13.3484102260091
30
0
41
1
10
21.0665522563207
20
13.3467839549885
30
0
41
1
10
21.0843795289848
20
13.3544407910157
30
0
0
SPLINE
5
2C6
100
AcDbEntity
8
1
62
256
6
ByLayer
370
18
48
1
60
0
100
AcDbSpline
70
4
71
3
72
12
73
8
40
0
40
0
40
0
40
0
40
0.25
40
0.25
40
0.5
40
0.5
40
1
40
1
40
1
40
1
41
1
10
20.881607612663
20
13.6962371216121
30
0
41
1
10
20.8637609858319
20
13.6885731706031
30
0
41
1
10
20.8524767676492
20
13.6714438363921
30
0
41
1
10
20.84264797477
20
13.6343538938721
30
0
41
1
10
20.8429347573833
20
13.6141029326316
30
0
41
1
10
20.8515544871872
20
13.5547619567756
30
0
41
1
10
20.8672908311996
20
13.5163053163937
30
0
41
1
10
20.8882812099647
20
13.4809235210746
30
0
0
SPLINE
5
2C7
100
AcDbEntity
8
1
62
256
6
ByLayer
370
18
48
1
60
0
100
AcDbSpline
70
4
71
3
72
12
73
8
40
0
40
0
40
0
40
0
40
0.5
40
0.5
40
0.75
40
0.75
40
1
40
1
40
1
40
1
41
1
10
21.6356499045147
20
14.7945641393129
30
0
41
1
10
21.5936631823922
20
14.7930511931618
30
0
41
1
10
21.5516295305498
20
14.7853159858855
30
0
41
1
10
21.4945342369644
20
14.7595222255621
30
0
41
1
10
21.4764213770752
20
14.7484338309148
30
0
41
1
10
21.4481052366025
20
14.7184693273801
30
0
41
1
10
21.4386066466503
20
14.6989472516946
30
0
41
1
10
21.4404258612437
20
14.6784649763531
30
0
0
SPLINE
5
2C8
100
AcDbEntity
8
1
62
256
6
ByLayer
370
18
48
1
60
0
100
AcDbSpline
70
4
71
3
72
12
73
8
40
0
40
0
40
0
40
0
40
0.25
40
0.25
40
0.5
40
0.5
40
1
40
1
40
1
40
1
41
1
10
21.8459696938874
20
14.6930783100374
30
0
41
1
10
21.844149694519
20
14.7135822121902
30
0
41
1
10
21.8315011857457
20
14.7325657636341
30
0
41
1
10
21.7993757660527
20
14.7600824358002
30
0
41
1
10
21.7799824711892
20
14.7698529699529
30
0
41
1
10
21.7202108381436
20
14.7913844296942
30
0
41
1
10
21.6776306620449
20
14.7960768705363
30
0
41
1
10
21.6356499045147
20
14.7945641393129
30
0
0
SPLINE
5
2C9
100
AcDbEntity
8
1
62
256
6
ByLayer
370
18
48
1
60
0
100
AcDbSpline
70
4
71
3
72
12
73
8
40
0
40
0
40
0
40
0
40
0.25
40
0.25
40
0.5
40
0.5
40
1
40
1
40
1
40
1
41
1
10
22.4047879424682
20
14.1597822422959
30
0
41
1
10
22.4189934380908
20
14.1716661722774
30
0
41
1
10
22.4273491816407
20
14.1921895345156
30
0
41
1
10
22.4332163348792
20
14.2338709171742
30
0
41
1
10
22.4316725341964
20
14.2555787305625
30
0
41
1
10
22.4203060187548
20
14.3181031614959
30
0
41
1
10
22.4040089778297
20
14.3572096354176
30
0
41
1
10
22.3830185990645
20
14.3925914307367
30
0
0
SPLINE
5
2CA
100
AcDbEntity
8
1
62
256
6
ByLayer
370
18
48
1
60
0
100
AcDbSpline
70
4
71
3
72
18
73
14
40
0
40
0
40
0
40
0
40
0.125
40
0.125
40
0.25
40
0.25
40
0.5
40
0.5
40
0.750000000000001
40
0.750000000000001
40
0.875000000000001
40
0.875000000000001
40
1
40
1
40
1
40
1
41
1
10
21.443467073354
20
14.6566486430048
30
0
41
1
10
21.4460580547728
20
14.6380564446104
30
0
41
1
10
21.4422423818365
20
14.6194953509984
30
0
41
1
10
21.4287499306327
20
14.5844673588675
30
0
41
1
10
21.4190053836389
20
14.5681193447105
30
0
41
1
10
21.384591718101
20
14.5226020979225
30
0
41
1
10
21.3547448741501
20
14.4968760789818
30
0
41
1
10
21.2882270982062
20
14.4563294706299
30
0
41
1
10
21.2514783548586
20
14.4414474370857
30
0
41
1
10
21.1945461480811
20
14.43124619189
30
0
41
1
10
21.1751720239527
20
14.4298815102724
30
0
41
1
10
21.1372033516487
20
14.4334997901163
30
0
41
1
10
21.1186443255011
20
14.4383243512582
30
0
41
1
10
21.1028635499809
20
14.4489082703872
30
0
0
SPLINE
5
2CB
100
AcDbEntity
8
1
62
256
6
ByLayer
370
18
48
1
60
0
100
AcDbSpline
70
4
71
3
72
8
73
4
40
0
40
0
40
0
40
0
40
1
40
1
40
1
40
1
41
1
10
21.1028635499809
20
14.4489082703872
30
0
41
1
10
21.0967017431441
20
14.4530408977835
30
0
41
1
10
21.0905404140079
20
14.4571733877933
30
0
41
1
10
21.0843795289849
20
14.4613057496954
30
0
0
SPLINE
5
2CC
100
AcDbEntity
8
1
62
256
6
ByLayer
370
18
48
1
60
0
100
AcDbSpline
70
4
71
3
72
8
73
4
40
0
40
0
40
0
40
0
40
1
40
1
40
1
40
1
41
1
10
22.2020160261463
20
14.5015785728923
30
0
41
1
10
22.1971655736974
20
14.4970494293457
30
0
41
1
10
22.1923141500864
20
14.4925201066937
30
0
41
1
10
22.1874616803665
20
14.4879905917462
30
0
0
SPLINE
5
2CD
100
AcDbEntity
8
1
62
256
6
ByLayer
370
18
48
1
60
0
100
AcDbSpline
70
4
71
3
72
18
73
14
40
0
40
0
40
0
40
0
40
0.125
40
0.125
40
0.25
40
0.25
40
0.5
40
0.5
40
0.75
40
0.75
40
0.875
40
0.875
40
1
40
1
40
1
40
1
41
1
10
22.1874616803665
20
14.4879905917462
30
0
41
1
10
22.1750565958876
20
14.4764111242142
30
0
41
1
10
22.1594098380073
20
14.470315298839
30
0
41
1
10
22.1265659722297
20
14.4641585104463
30
0
41
1
10
22.1094212732564
20
14.4642151193325
30
0
41
1
10
22.0576599818583
20
14.4705228163101
30
0
41
1
10
22.0226332227023
20
14.4828630548317
30
0
41
1
10
21.9561320048314
20
14.518651467699
30
0
41
1
10
21.9245701691316
20
14.5421346030099
30
0
41
1
10
21.8849824388106
20
14.5849549462504
30
0
41
1
10
21.8730425548571
20
14.6005835004882
30
0
41
1
10
21.8544097360156
20
14.6344075220611
30
0
41
1
10
21.8476157926541
20
14.652492408685
30
0
41
1
10
21.8468581569934
20
14.6711844047053
30
0
0
SPLINE
5
2CE
100
AcDbEntity
8
1
62
256
6
ByLayer
370
18
48
1
60
0
100
AcDbSpline
70
4
71
3
72
8
73
4
40
0
40
0
40
0
40
0
40
1
40
1
40
1
40
1
41
1
10
22.3891572221862
20
14.1480086191825
30
0
41
1
10
22.3943685318731
20
14.1519332664233
30
0
41
1
10
22.3995787458062
20
14.1558578050512
30
0
41
1
10
22.4047879424682
20
14.1597822422959
30
0
0
SPLINE
5
2CF
100
AcDbEntity
8
1
62
256
6
ByLayer
370
18
48
1
60
0
100
AcDbSpline
70
4
71
3
72
8
73
4
40
0
40
0
40
0
40
0
40
1
40
1
40
1
40
1
41
1
10
21.0843795289848
20
13.3544407910157
30
0
41
1
10
21.0905404140079
20
13.3574511763545
30
0
41
1
10
21.0967017431441
20
13.3604623516354
30
0
41
1
10
21.1028635499809
20
13.3634743779824
30
0
0
SPLINE
5
2D0
100
AcDbEntity
8
1
62
256
6
ByLayer
370
18
48
1
60
0
100
AcDbSpline
70
4
71
3
72
12
73
8
40
0
40
0
40
0
40
0
40
0.5
40
0.5
40
0.75
40
0.75
40
1
40
1
40
1
40
1
41
1
10
22.3830185990645
20
13.5347847673294
30
0
41
1
10
22.4040119601258
20
13.5716845358164
30
0
41
1
10
22.4203202017546
20
13.6113054401698
30
0
41
1
10
22.4316854917741
20
13.6714497917417
30
0
41
1
10
22.4332402171996
20
13.6917325806715
30
0
41
1
10
22.4272651897425
20
13.7285004185703
30
0
41
1
10
22.4189784828645
20
13.7446211435893
30
0
41
1
10
22.4047879424682
20
13.7511232784931
30
0
0
SPLINE
5
2D1
100
AcDbEntity
8
1
62
256
6
ByLayer
370
18
48
1
60
0
100
AcDbSpline
70
4
71
3
72
8
73
4
40
0
40
0
40
0
40
0
40
1
40
1
40
1
40
1
41
1
10
21.8468581569934
20
14.6711844047053
30
0
41
1
10
21.8465623284019
20
14.6784829350422
30
0
41
1
10
21.8462661659614
20
14.6857808899943
30
0
41
1
10
21.8459696938874
20
14.6930783100374
30
0
0
SPLINE
5
2D2
100
AcDbEntity
8
1
62
256
6
ByLayer
370
18
48
1
60
0
100
AcDbSpline
70
4
71
3
72
12
73
8
40
0
40
0
40
0
40
0
40
0.5
40
0.5
40
0.75
40
0.75
40
1
40
1
40
1
40
1
41
1
10
22.3830185990645
20
14.3925914307367
30
0
41
1
10
22.3620252380034
20
14.4279782530726
30
0
41
1
10
22.3360199864368
20
14.4601882791995
30
0
41
1
10
22.2889134039713
20
14.4961342905738
30
0
41
1
10
22.2717293852446
20
14.5060540688859
30
0
41
1
10
22.2354372946879
20
14.5151764219639
30
0
41
1
10
22.216206000903
20
14.5134509451931
30
0
41
1
10
22.2020160261463
20
14.5015785728923
30
0
0
SPLINE
5
2D3
100
AcDbEntity
8
1
62
256
6
ByLayer
370
18
48
1
60
0
100
AcDbSpline
70
4
71
3
72
12
73
8
40
0
40
0
40
0
40
0
40
0.5
40
0.5
40
0.75
40
0.75
40
1
40
1
40
1
40
1
41
1
10
20.8882812099647
20
14.3387301844819
30
0
41
1
10
20.8672878489035
20
14.3018304159948
30
0
41
1
10
20.8515392899806
20
14.2615608535418
30
0
41
1
10
20.8429271577604
20
14.1982256617184
30
0
41
1
10
20.8426242008607
20
14.1764921047291
30
0
41
1
10
20.8526010735719
20
14.1350862294027
30
0
41
1
10
20.8637797743592
20
14.1156137565923
30
0
41
1
10
20.881607612663
20
14.1048960854148
30
0
0
SPLINE
5
2D4
100
AcDbEntity
8
1
62
256
6
ByLayer
370
18
48
1
60
0
100
AcDbSpline
70
4
71
3
72
14
73
10
40
0
40
0
40
0
40
0
40
0.5
40
0.5
40
0.75
40
0.75
40
0.875
40
0.875
40
1
40
1
40
1
40
1
41
1
10
21.6356499045147
20
6.85023321839364
30
0
41
1
10
21.5936882509688
20
6.8557151088973
30
0
41
1
10
21.5516468954927
20
6.86646999132603
30
0
41
1
10
21.4946609266764
20
6.89496787246685
30
0
41
1
10
21.4765103328505
20
6.90670528386926
30
0
41
1
10
21.4552792620026
20
6.92958395004354
30
0
41
1
10
21.4493759416754
20
6.9379265499193
30
0
41
1
10
21.4413170813441
20
6.95684065526493
30
0
41
1
10
21.4395159229314
20
6.96695086097532
30
0
41
1
10
21.4404258612437
20
6.97707869344725
30
0
0
SPLINE
5
2D5
100
AcDbEntity
8
1
62
256
6
ByLayer
370
18
48
1
60
0
100
AcDbSpline
70
4
71
3
72
8
73
4
40
0
40
0
40
0
40
0
40
1
40
1
40
1
40
1
41
1
10
21.4404258612437
20
6.97707869344725
30
0
41
1
10
21.4414398217439
20
6.98426179860974
30
0
41
1
10
21.4424535648285
20
6.99144436586389
30
0
41
1
10
21.443467073354
20
6.99862635198195
30
0
0
SPLINE
5
2D6
100
AcDbEntity
8
1
62
256
6
ByLayer
370
18
48
1
60
0
100
AcDbSpline
70
4
71
3
72
12
73
8
40
0
40
0
40
0
40
0
40
0.25
40
0.25
40
0.5
40
0.5
40
1
40
1
40
1
40
1
41
1
10
21.8459696938874
20
6.92409825304185
30
0
41
1
10
21.844149694519
20
6.90382846930112
30
0
41
1
10
21.8315011857457
20
6.88700036087812
30
0
41
1
10
21.7993757660527
20
6.8645661189382
30
0
41
1
10
21.7799824711892
20
6.85770899206827
30
0
41
1
10
21.7202108381435
20
6.8444430503236
30
0
41
1
10
21.6776306620449
20
6.84474883213627
30
0
41
1
10
21.6356499045147
20
6.85023321839364
30
0
0
SPLINE
5
2D7
100
AcDbEntity
8
1
62
256
6
ByLayer
370
18
48
1
60
0
100
AcDbSpline
70
4
71
3
72
18
73
14
40
0
40
0
40
0
40
0
40
0.125
40
0.125
40
0.250000000000001
40
0.250000000000001
40
0.500000000000001
40
0.500000000000001
40
0.75
40
0.75
40
0.875
40
0.875
40
1
40
1
40
1
40
1
41
1
10
21.443467073354
20
6.99862635198195
30
0
41
1
10
21.4460612361082
20
7.01700926679587
30
0
41
1
10
21.4422337716044
20
7.03544145942809
30
0
41
1
10
21.4287088114357
20
7.07005116192943
30
0
41
1
10
21.41894398585
20
7.08610833813006
30
0
41
1
10
21.3844608848486
20
7.13018455763938
30
0
41
1
10
21.3545524128299
20
7.15413817942604
30
0
41
1
10
21.2879294379468
20
7.18896485494489
30
0
41
1
10
21.251578416641
20
7.19977982080954
30
0
41
1
10
21.1948150924654
20
7.20368150350683
30
0
41
1
10
21.1755111208263
20
7.20289145524333
30
0
41
1
10
21.1375354656445
20
7.19540180217894
30
0
41
1
10
21.1186864275142
20
7.18874223816667
30
0
41
1
10
21.1028635499809
20
7.1772321070932
30
0
0
SPLINE
5
2D8
100
AcDbEntity
8
1
62
256
6
ByLayer
370
18
48
1
60
0
100
AcDbSpline
70
4
71
3
72
8
73
4
40
0
40
0
40
0
40
0
40
1
40
1
40
1
40
1
41
1
10
21.8468581569934
20
6.94592714773685
30
0
41
1
10
21.8465623284019
20
6.93865140356871
30
0
41
1
10
21.8462661659614
20
6.93137509123574
30
0
41
1
10
21.8459696938874
20
6.92409825304185
30
0
0
SPLINE
5
2D9
100
AcDbEntity
8
1
62
256
6
ByLayer
370
18
48
1
60
0
100
AcDbSpline
70
4
71
3
72
18
73
14
40
0
40
0
40
0
40
0
40
0.125
40
0.125
40
0.25
40
0.25
40
0.5
40
0.5
40
0.75
40
0.75
40
0.875
40
0.875
40
1
40
1
40
1
40
1
41
1
10
22.1874616803665
20
7.03553968820938
30
0
41
1
10
22.1749773708793
20
7.05077367826647
30
0
41
1
10
22.1591361905357
20
7.06195061119709
30
0
41
1
10
22.1264965181766
20
7.07861338476704
30
0
41
1
10
22.1092083616438
20
7.08422219902792
30
0
41
1
10
22.0578348051986
20
7.09444583836626
30
0
41
1
10
22.0229408193023
20
7.09290976401024
30
0
41
1
10
21.9563386002148
20
7.07544310460617
30
0
41
1
10
21.9247204399323
20
7.05954538141023
30
0
41
1
10
21.8850603715714
20
7.02517814015994
30
0
41
1
10
21.8730977705871
20
7.01189960801679
30
0
41
1
10
21.8544265734759
20
6.98153622276339
30
0
41
1
10
21.8476167688716
20
6.96458479648385
30
0
41
1
10
21.8468581569934
20
6.94592714773685
30
0
0
SPLINE
5
2DA
100
AcDbEntity
8
1
62
256
6
ByLayer
370
18
48
1
60
0
100
AcDbSpline
70
4
71
3
72
8
73
4
40
0
40
0
40
0
40
0
40
1
40
1
40
1
40
1
41
1
10
20.881607612663
20
7.71016985750916
30
0
41
1
10
20.8881272418991
20
7.7101302974977
30
0
41
1
10
20.8946473613574
20
7.71008927125655
30
0
41
1
10
20.9011680081613
20
7.71004666436713
30
0
0
SPLINE
5
2DB
100
AcDbEntity
8
1
62
256
6
ByLayer
370
18
48
1
60
0
100
AcDbSpline
70
4
71
3
72
18
73
14
40
0
40
0
40
0
40
0
40
0.125
40
0.125
40
0.25
40
0.25
40
0.5
40
0.5
40
0.750000000000001
40
0.750000000000001
40
0.875
40
0.875
40
1
40
1
40
1
40
1
41
1
10
20.9011680081613
20
7.71004666436713
30
0
41
1
10
20.9178376999119
20
7.70993774208776
30
0
41
1
10
20.9311694357296
20
7.70585276410705
30
0
41
1
10
20.9531144169699
20
7.69393562532088
30
0
41
1
10
20.961594888408
20
7.68607010830362
30
0
41
1
10
20.9815524226515
20
7.65878448572912
30
0
41
1
10
20.9876235911082
20
7.63560752855369
30
0
41
1
10
20.9876043163517
20
7.5832255499387
30
0
41
1
10
20.9815251383728
20
7.5539600406963
30
0
41
1
10
20.9615715135858
20
7.50931360414296
30
0
41
1
10
20.9530523219202
20
7.49425082401791
30
0
41
1
10
20.9311255944939
20
7.46564441643358
30
0
41
1
10
20.917867795445
20
7.45210225879984
30
0
41
1
10
20.9011680081613
20
7.44182836878332
30
0
0
SPLINE
5
2DC
100
AcDbEntity
8
1
62
256
6
ByLayer
370
18
48
1
60
0
100
AcDbSpline
70
4
71
3
72
12
73
8
40
0
40
0
40
0
40
0
40
0.25
40
0.25
40
0.499999999999999
40
0.499999999999999
40
1
40
1
40
1
40
1
41
1
10
22.2020160261463
20
7.01777378535482
30
0
41
1
10
22.2162209555331
20
7.0017201487708
30
0
41
1
10
22.23576097054
20
6.99336081765651
30
0
41
1
10
22.2717727236512
20
6.98885341656407
30
0
41
1
10
22.2889937087971
20
6.99162948026344
30
0
41
1
10
22.3360254335823
20
7.00646342466041
30
0
41
1
10
22.3620282202994
20
7.02481333434989
30
0
41
1
10
22.3830185990645
20
7.04686538098844
30
0
0
SPLINE
5
2DD
100
AcDbEntity
8
1
62
256
6
ByLayer
370
18
48
1
60
0
100
AcDbSpline
70
4
71
3
72
18
73
14
40
0
40
0
40
0
40
0
40
0.125
40
0.125
40
0.25
40
0.25
40
0.5
40
0.5
40
0.750000000000001
40
0.750000000000001
40
0.875
40
0.875
40
1
40
1
40
1
40
1
41
1
10
22.3891572221862
20
7.24743674565443
30
0
41
1
10
22.3758347821414
20
7.2616103070261
30
0
41
1
10
22.3655043480712
20
7.27830629535052
30
0
41
1
10
22.348746500164
20
7.31201897407993
30
0
41
1
10
22.3424266676429
20
7.3289631649609
30
0
41
1
10
22.3276889501661
20
7.37818165826107
30
0
41
1
10
22.3234002882127
20
7.40884843480265
30
0
41
1
10
22.3234141296023
20
7.46120758324184
30
0
41
1
10
22.3277087669187
20
7.48297472589272
30
0
41
1
10
22.342444095045
20
7.50569467897299
30
0
41
1
10
22.348793383729
20
7.5116398590531
30
0
41
1
10
22.3655383632276
20
7.51847335534384
30
0
41
1
10
22.3758107297509
20
7.51947118267387
30
0
41
1
10
22.3891572221862
20
7.51565504123823
30
0
0
SPLINE
5
2DE
100
AcDbEntity
8
1
62
256
6
ByLayer
370
18
48
1
60
0
100
AcDbSpline
70
4
71
3
72
8
73
4
40
0
40
0
40
0
40
0
40
1
40
1
40
1
40
1
41
1
10
20.9011680081613
20
7.44182836878332
30
0
41
1
10
20.8946473613574
20
7.43781679624283
30
0
41
1
10
20.8881272418991
20
7.43380420394399
30
0
41
1
10
20.881607612663
20
7.42979066635576
30
0
0
SPLINE
5
2DF
100
AcDbEntity
8
1
62
256
6
ByLayer
370
18
48
1
60
0
100
AcDbSpline
70
4
71
3
72
12
73
8
40
0
40
0
40
0
40
0
40
0.25
40
0.25
40
0.500000000000001
40
0.500000000000001
40
1
40
1
40
1
40
1
41
1
10
21.0843795289848
20
7.92319773117183
30
0
41
1
10
21.0665334683895
20
7.92395189199621
30
0
41
1
10
21.0440649787499
20
7.92000622115043
30
0
41
1
10
21.0040915859981
20
7.90786741913192
30
0
41
1
10
20.9856135827825
20
7.89980955799567
30
0
41
1
10
20.9358350723597
20
7.87343404097368
30
0
41
1
10
20.9092715887298
20
7.85272816871785
30
0
41
1
10
20.8882812099647
20
7.83067612207932
30
0
0
SPLINE
5
2E0
100
AcDbEntity
8
1
62
256
6
ByLayer
370
18
48
1
60
0
100
AcDbSpline
70
4
71
3
72
8
73
4
40
0
40
0
40
0
40
0
40
1
40
1
40
1
40
1
41
1
10
22.4047879424681
20
7.23080165901749
30
0
41
1
10
22.3995787458062
20
7.23634745603491
30
0
41
1
10
22.3943685318731
20
7.24189250470258
30
0
41
1
10
22.3891572221862
20
7.24743674565443
30
0
0
SPLINE
5
2E1
100
AcDbEntity
8
1
62
256
6
ByLayer
370
18
48
1
60
0
100
AcDbSpline
70
4
71
3
72
8
73
4
40
0
40
0
40
0
40
0
40
1
40
1
40
1
40
1
41
1
10
21.4404258612437
20
8.0168732634848
30
0
41
1
10
21.4414398217439
20
8.0151026622969
30
0
41
1
10
21.4424535648285
20
8.01333037239041
30
0
41
1
10
21.443467073354
20
8.0115562622847
30
0
0
SPLINE
5
2E2
100
AcDbEntity
8
1
62
256
6
ByLayer
370
18
48
1
60
0
100
AcDbSpline
70
4
71
3
72
8
73
4
40
0
40
0
40
0
40
0
40
1
40
1
40
1
40
1
41
1
10
22.1874616803665
20
7.03553968820938
30
0
41
1
10
22.1923141500864
20
7.02961845760063
30
0
41
1
10
22.1971655736974
20
7.02369647143203
30
0
41
1
10
22.2020160261463
20
7.01777378535482
30
0
0
SPLINE
5
2E3
100
AcDbEntity
8
1
62
256
6
ByLayer
370
18
48
1
60
0
100
AcDbSpline
70
4
71
3
72
12
73
8
40
0
40
0
40
0
40
0
40
0.5
40
0.5
40
0.75
40
0.75
40
1
40
1
40
1
40
1
41
1
10
20.8882812099647
20
7.24213858893907
30
0
41
1
10
20.9092745710259
20
7.21459824368904
30
0
41
1
10
20.9358395052984
20
7.18936867424861
30
0
41
1
10
20.9856992455632
20
7.16186333117315
30
0
41
1
10
21.0041350328157
20
7.15442259653094
30
0
41
1
10
21.0444289686265
20
7.14903096506944
30
0
41
1
10
21.0665522563207
20
7.15192836513884
30
0
41
1
10
21.0843795289848
20
7.16378235228768
30
0
0
SPLINE
5
2E4
100
AcDbEntity
8
1
62
256
6
ByLayer
370
18
48
1
60
0
100
AcDbSpline
70
4
71
3
72
12
73
8
40
0
40
0
40
0
40
0
40
0.25
40
0.25
40
0.5
40
0.5
40
1
40
1
40
1
40
1
41
1
10
20.881607612663
20
7.42979066635576
30
0
41
1
10
20.8637609858319
20
7.41792492926584
30
0
41
1
10
20.8524767676492
20
7.40038141382439
30
0
41
1
10
20.84264797477
20
7.36625526150999
30
0
41
1
10
20.8429347573833
20
7.3490782910178
30
0
41
1
10
20.8515544871872
20
7.29994927045399
30
0
41
1
10
20.8672908311996
20
7.26967502183498
30
0
41
1
10
20.8882812099647
20
7.24213858893907
30
0
0
SPLINE
5
2E5
100
AcDbEntity
8
1
62
256
6
ByLayer
370
18
48
1
60
0
100
AcDbSpline
70
4
71
3
72
12
73
8
40
0
40
0
40
0
40
0
40
0.5
40
0.5
40
0.75
40
0.75
40
1
40
1
40
1
40
1
41
1
10
21.6356499045147
20
8.02730828467412
30
0
41
1
10
21.5936631823922
20
8.03279345014863
30
0
41
1
10
21.5516295305498
20
8.03545868801768
30
0
41
1
10
21.4945342369644
20
8.03372485975976
30
0
41
1
10
21.4764213770752
20
8.03215602294864
30
0
41
1
10
21.4481052366025
20
8.02630629879997
30
0
41
1
10
21.4386066466503
20
8.02183833883748
30
0
41
1
10
21.4404258612437
20
8.0168732634848
30
0
0
SPLINE
5
2E6
100
AcDbEntity
8
1
62
256
6
ByLayer
370
18
48
1
60
0
100
AcDbSpline
70
4
71
3
72
12
73
8
40
0
40
0
40
0
40
0
40
0.25
40
0.25
40
0.5
40
0.5
40
1
40
1
40
1
40
1
41
1
10
21.8459696938874
20
7.96389282307942
30
0
41
1
10
21.844149694519
20
7.96886298311387
30
0
41
1
10
21.8315011857457
20
7.97630832672948
30
0
41
1
10
21.7993757660527
20
7.98997257546992
30
0
41
1
10
21.7799824711891
20
7.99645078610743
30
0
41
1
10
21.7202108381435
20
8.01343350333673
30
0
41
1
10
21.6776306620449
20
8.02182389841676
30
0
41
1
10
21.6356499045147
20
8.02730828467412
30
0
0
SPLINE
5
2E7
100
AcDbEntity
8
1
62
256
6
ByLayer
370
18
48
1
60
0
100
AcDbSpline
70
4
71
3
72
12
73
8
40
0
40
0
40
0
40
0
40
0.25
40
0.25
40
0.5
40
0.5
40
1
40
1
40
1
40
1
41
1
10
22.4047879424681
20
7.51118085017089
30
0
41
1
10
22.4189934380908
20
7.50774711150117
30
0
41
1
10
22.4273491816406
20
7.51298562498252
30
0
41
1
10
22.4332163348792
20
7.530465574186
30
0
41
1
10
22.4316725341964
20
7.5423607472413
30
0
41
1
10
22.4203060187548
20
7.57994819518009
30
0
41
1
10
22.4040089778297
20
7.60786648123278
30
0
41
1
10
22.3830185990645
20
7.63540291412866
30
0
0
SPLINE
5
2E8
100
AcDbEntity
8
1
62
256
6
ByLayer
370
18
48
1
60
0
100
AcDbSpline
70
4
71
3
72
8
73
4
40
0
40
0
40
0
40
0
40
1
40
1
40
1
40
1
41
1
10
21.1028635499809
20
7.92194372181217
30
0
41
1
10
21.0967017431441
20
7.92236331835849
30
0
41
1
10
21.0905404140079
20
7.92278128210057
30
0
41
1
10
21.0843795289848
20
7.92319773117183
30
0
0
SPLINE
5
2E9
100
AcDbEntity
8
1
62
256
6
ByLayer
370
18
48
1
60
0
100
AcDbSpline
70
4
71
3
72
8
73
4
40
0
40
0
40
0
40
0
40
1
40
1
40
1
40
1
41
1
10
22.2020160261463
20
7.77718916423896
30
0
41
1
10
22.1971655736974
20
7.77821124156549
30
0
41
1
10
22.1923141500864
20
7.77923198911344
30
0
41
1
10
22.1874616803665
20
7.78025130292835
30
0
0
SPLINE
5
2EA
100
AcDbEntity
8
1
62
256
6
ByLayer
370
18
48
1
60
0
100
AcDbSpline
70
4
71
3
72
18
73
14
40
0
40
0
40
0
40
0
40
0.125
40
0.125
40
0.25
40
0.25
40
0.5
40
0.5
40
0.75
40
0.75
40
0.875
40
0.875
40
1
40
1
40
1
40
1
41
1
10
22.1874616803665
20
7.78025130292835
30
0
41
1
10
22.1750565958876
20
7.78285712526508
30
0
41
1
10
22.1594098380073
20
7.78883765567224
30
0
41
1
10
22.1265659722297
20
7.80307927228262
30
0
41
1
10
22.1094212732564
20
7.8113479805825
30
0
41
1
10
22.0576599818583
20
7.83716469847482
30
0
41
1
10
22.0226332227023
20
7.85566522680458
30
0
41
1
10
21.9561320048314
20
7.89053735043876
30
0
41
1
10
21.9245701691315
20
7.90695526448297
30
0
41
1
10
21.8849824388106
20
7.92904128002039
30
0
41
1
10
21.873042554857
20
7.93602890382493
30
0
41
1
10
21.8544097360155
20
7.94878111538259
30
0
41
1
10
21.8476157926541
20
7.95455357055832
30
0
41
1
10
21.8468581569934
20
7.9588570580396
30
0
0
SPLINE
5
2EB
100
AcDbEntity
8
1
62
256
6
ByLayer
370
18
48
1
60
0
100
AcDbSpline
70
4
71
3
72
8
73
4
40
0
40
0
40
0
40
0
40
1
40
1
40
1
40
1
41
1
10
22.3891572221862
20
7.51565504123823
30
0
41
1
10
22.3943685318731
20
7.5141649797163
30
0
41
1
10
22.3995787458062
20
7.51267354958861
30
0
41
1
10
22.4047879424681
20
7.51118085017089
30
0
0
SPLINE
5
2EC
100
AcDbEntity
8
1
62
256
6
ByLayer
370
18
48
1
60
0
100
AcDbSpline
70
4
71
3
72
8
73
4
40
0
40
0
40
0
40
0
40
1
40
1
40
1
40
1
41
1
10
21.0843795289848
20
7.16378235228768
30
0
41
1
10
21.0905404140079
20
7.16826651196712
30
0
41
1
10
21.0967017431441
20
7.17274978684569
30
0
41
1
10
21.1028635499809
20
7.1772321070932
30
0
0
SPLINE
5
2ED
100
AcDbEntity
8
1
62
256
6
ByLayer
370
18
48
1
60
0
100
AcDbSpline
70
4
71
3
72
12
73
8
40
0
40
0
40
0
40
0
40
0.5
40
0.5
40
0.75
40
0.75
40
1
40
1
40
1
40
1
41
1
10
22.3830185990645
20
7.04686538098844
30
0
41
1
10
22.4040119601258
20
7.06892056076393
30
0
41
1
10
22.4203202017546
20
7.09501244387175
30
0
41
1
10
22.4316854917741
20
7.1416041364138
30
0
41
1
10
22.4332402171995
20
7.15850331735422
30
0
41
1
10
22.4272651897425
20
7.19496738437752
30
0
41
1
10
22.4189784828645
20
7.21476551759002
30
0
41
1
10
22.4047879424681
20
7.23080165901749
30
0
0
SPLINE
5
2EE
100
AcDbEntity
8
1
62
256
6
ByLayer
370
18
48
1
60
0
100
AcDbSpline
70
4
71
3
72
8
73
4
40
0
40
0
40
0
40
0
40
1
40
1
40
1
40
1
41
1
10
21.8468581569934
20
7.9588570580396
30
0
41
1
10
21.8465623284019
20
7.96053741009521
30
0
41
1
10
21.8462661659614
20
7.9622159549229
30
0
41
1
10
21.8459696938874
20
7.96389282307942
30
0
0
SPLINE
5
2EF
100
AcDbEntity
8
1
62
256
6
ByLayer
370
18
48
1
60
0
100
AcDbSpline
70
4
71
3
72
12
73
8
40
0
40
0
40
0
40
0
40
0.5
40
0.5
40
0.75
40
0.75
40
1
40
1
40
1
40
1
41
1
10
22.3830185990645
20
7.63540291412866
30
0
41
1
10
22.3620252380034
20
7.66294325937869
30
0
41
1
10
22.3360199864368
20
7.69052452984343
30
0
41
1
10
22.2889134039713
20
7.72959822039132
30
0
41
1
10
22.2717293852446
20
7.74229869469158
30
0
41
1
10
22.2354372946879
20
7.76450546709518
30
0
41
1
10
22.216206000903
20
7.77375978257206
30
0
41
1
10
22.2020160261463
20
7.77718916423896
30
0
0
SPLINE
5
2F0
100
AcDbEntity
8
1
62
256
6
ByLayer
370
18
48
1
60
0
100
AcDbSpline
70
4
71
3
72
12
73
8
40
0
40
0
40
0
40
0
40
0.5
40
0.5
40
0.75
40
0.75
40
1
40
1
40
1
40
1
41
1
10
20.8882812099647
20
7.83067612207932
30
0
41
1
10
20.8672878489035
20
7.8086209423038
30
0
41
1
10
20.8515392899806
20
7.78488076022029
30
0
41
1
10
20.8429271577604
20
7.74985741515067
30
0
41
1
10
20.8426242008607
20
7.7382179738683
30
0
41
1
10
20.8526010735719
20
7.7185690477871
30
0
41
1
10
20.8637797743591
20
7.7109226301209
30
0
41
1
10
20.881607612663
20
7.71016985750916
30
0
0
LINE
5
72
100
AcDbEntity
8
SK1
62
256
6
ByLayer
370
18
48
1
60
0
100
AcDbLine
10
-24
20
-5
30
0
11
-23.8
21
-5.2
31
0
39
0
210
0
220
0
230
1
0
LINE
5
74
100
AcDbEntity
8
SK1
62
256
6
ByLayer
370
18
48
1
60
0
100
AcDbLine
10
-0.384645
20
8.892056
30
0
11
-4.5
21
8.73396
31
0
39
0
210
0
220
0
230
1
0
LINE
5
75
100
AcDbEntity
8
1
62
256
6
ByLayer
370
18
48
1
60
0
100
AcDbLine
10
10.6
20
12.1
30
0
11
0
21
12.1
31
0
39
0
210
0
220
0
230
1
0
LINE
5
77
100
AcDbEntity
8
1
62
256
6
ByLayer
370
18
48
1
60
0
100
AcDbLine
10
0
20
-12.1
30
0
11
10.6
21
-12.1
31
0
39
0
210
0
220
0
230
1
0
LINE
5
78
100
AcDbEntity
8
SK1
62
256
6
ByLayer
370
18
48
1
60
0
100
AcDbLine
10
-20
20
5.2
30
0
11
-23.8
21
5.2
31
0
39
0
210
0
220
0
230
1
0
LINE
5
79
100
AcDbEntity
8
SK1
62
256
6
ByLayer
370
18
48
1
60
0
100
AcDbLine
10
-23.8
20
-5.2
30
0
11
-20
21
-5.2
31
0
39
0
210
0
220
0
230
1
0
LINE
5
7A
100
AcDbEntity
8
SK1
62
256
6
ByLayer
370
18
48
1
60
0
100
AcDbLine
10
-23.8
20
5.2
30
0
11
-24
21
5
31
0
39
0
210
0
220
0
230
1
0
LINE
5
7B
100
AcDbEntity
8
SK1
62
256
6
ByLayer
370
18
48
1
60
0
100
AcDbLine
10
-19.5
20
-7.157396
30
0
11
-4.5
21
-8.73396
31
0
39
0
210
0
220
0
230
1
0
LINE
5
7C
100
AcDbEntity
8
SK1
62
256
6
ByLayer
370
18
48
1
60
0
100
AcDbLine
10
-4.5
20
8.73396
30
0
11
-19.5
21
7.157396
31
0
39
0
210
0
220
0
230
1
0
LINE
5
7D
100
AcDbEntity
8
SK1
62
256
6
ByLayer
370
18
48
1
60
0
100
AcDbLine
10
-4.5
20
-8.73396
30
0
11
-0.384645
21
-8.892056
31
0
39
0
210
0
220
0
230
1
0
LINE
5
7E
100
AcDbEntity
8
1
62
256
6
ByLayer
370
18
48
1
60
0
100
AcDbLine
10
22.365333
20
13.774777
30
0
11
22.431508
21
13.698082
31
0
39
0
210
0
220
0
230
1
0
LINE
5
7F
100
AcDbEntity
8
1
62
256
6
ByLayer
370
18
48
1
60
0
100
AcDbLine
10
21.040235
20
13.943125
30
0
11
20.931395
21
14.069267
31
0
39
0
210
0
220
0
230
1
0
LINE
5
80
100
AcDbEntity
8
1
62
256
6
ByLayer
370
18
48
1
60
0
100
AcDbLine
10
21.891496
20
14.578162
30
0
11
21.996342
21
14.456649
31
0
39
0
210
0
220
0
230
1
0
LINE
5
81
100
AcDbEntity
8
1
62
256
6
ByLayer
370
18
48
1
60
0
100
AcDbLine
10
20.752441
20
13.123464
30
0
11
20.848654
21
13.011955
31
0
39
0
210
0
220
0
230
1
0
LINE
5
82
100
AcDbEntity
8
1
62
256
6
ByLayer
370
18
48
1
60
0
100
AcDbLine
10
22.665753
20
14.579805
30
0
11
22.569539
21
14.691314
31
0
39
0
210
0
220
0
230
1
0
LINE
5
83
100
AcDbEntity
8
1
62
256
6
ByLayer
370
18
48
1
60
0
100
AcDbLine
10
21.518065
20
13.135111
30
0
11
21.41322
21
13.256623
31
0
39
0
210
0
220
0
230
1
0
LINE
5
84
100
AcDbEntity
8
4
62
256
6
ByLayer
370
18
48
0.05
60
0
100
AcDbLine
10
0
20
0
30
0
11
30
21
0
31
0
39
0
210
0
220
0
230
1
0
LINE
5
86
100
AcDbEntity
8
1
62
256
6
ByLayer
370
18
48
1
60
0
100
AcDbLine
10
22.828385
20
7.267418
30
0
11
22.891438
21
7.532356
31
0
39
0
210
0
220
0
230
1
0
LINE
5
87
100
AcDbEntity
8
1
62
256
6
ByLayer
370
18
48
1
60
0
100
AcDbLine
10
20.556648
20
8.088014
30
0
11
20.493595
21
7.823076
31
0
39
0
210
0
220
0
230
1
0
LINE
5
88
100
AcDbEntity
8
1
62
256
6
ByLayer
370
18
48
1
60
0
100
AcDbLine
10
21.444043
20
8.007185
30
0
11
21.448175
21
8.024548
31
0
39
0
210
0
220
0
230
1
0
LINE
5
89
100
AcDbEntity
8
1
62
256
6
ByLayer
370
18
48
1
60
0
100
AcDbLine
10
22.369883
20
7.651656
30
0
11
22.327257
21
7.472546
31
0
39
0
210
0
220
0
230
1
0
LINE
5
8A
100
AcDbEntity
8
1
62
256
6
ByLayer
370
18
48
1
60
0
100
AcDbLine
10
20.982046
20
7.564679
30
0
11
21.067164
21
7.922333
31
0
39
0
210
0
220
0
230
1
0
LINE
5
8B
100
AcDbEntity
8
1
62
256
6
ByLayer
370
18
48
1
60
0
100
AcDbLine
10
21.959759
20
7.42711
30
0
11
21.849129
21
6.962261
31
0
39
0
210
0
220
0
230
1
0
LINE
5
8C
100
AcDbEntity
8
80
62
256
6
ByLayer
370
18
48
1
60
0
100
AcDbLine
10
0
20
0
30
0
11
-5
21
0
31
0
39
0
210
0
220
0
230
1
0
LINE
5
8D
100
AcDbEntity
8
SK4
62
256
6
ByLayer
370
18
48
0.05
60
0
100
AcDbLine
10
-37
20
0
30
0
11
30
21
0
31
0
39
0
210
0
220
0
230
1
0
LINE
5
8F
100
AcDbEntity
8
81
62
256
6
ByLayer
370
18
48
1
60
0
100
AcDbLine
10
25
20
16
30
0
11
30
21
16
31
0
39
0
210
0
220
0
230
1
0
LINE
5
90
100
AcDbEntity
8
SK1
62
256
6
ByLayer
370
18
48
1
60
0
100
AcDbLine
10
-0.384645
20
8.892056
30
0
11
-0.384645
21
-8.892056
31
0
39
0
210
0
220
0
230
1
0
LINE
5
91
100
AcDbEntity
8
SK1
62
256
6
ByLayer
370
18
48
1
60
0
100
AcDbLine
10
-4.5
20
8.73396
30
0
11
-4.5
21
-8.73396
31
0
39
0
210
0
220
0
230
1
0
LINE
5
92
100
AcDbEntity
8
SK1
62
256
6
ByLayer
370
18
48
1
60
0
100
AcDbLine
10
-24
20
5
30
0
11
-24
21
-5
31
0
39
0
210
0
220
0
230
1
0
LINE
5
93
100
AcDbEntity
8
SK1
62
256
6
ByLayer
370
18
48
1
60
0
100
AcDbLine
10
-23.8
20
5.2
30
0
11
-23.8
21
-5.2
31
0
39
0
210
0
220
0
230
1
0
LINE
5
94
100
AcDbEntity
8
SK1
62
256
6
ByLayer
370
18
48
1
60
0
100
AcDbLine
10
-19.5
20
7.157396
30
0
11
-19.5
21
-7.157396
31
0
39
0
210
0
220
0
230
1
0
LINE
5
95
100
AcDbEntity
8
SK1
62
256
6
ByLayer
370
18
48
1
60
0
100
AcDbLine
10
-20
20
5.2
30
0
11
-20
21
-5.2
31
0
39
0
210
0
220
0
230
1
0
LINE
5
96
100
AcDbEntity
8
1
62
256
6
ByLayer
370
18
48
1
60
0
100
AcDbLine
10
21.430269
20
12.125896
30
0
11
21.430269
21
11.948728
31
0
39
0
210
0
220
0
230
1
0
LINE
5
97
100
AcDbEntity
8
1
62
256
6
ByLayer
370
18
48
1
60
0
100
AcDbLine
10
2.2
20
-6.812489
30
0
11
8.3
21
-6.812489
31
0
39
0
210
0
220
0
230
1
0
LINE
5
98
100
AcDbEntity
8
1
62
256
6
ByLayer
370
18
48
1
60
0
100
AcDbLine
10
23.778394
20
-15.167751
30
0
11
23.778394
21
-14.300517
31
0
39
0
210
0
220
0
230
1
0
LINE
5
99
100
AcDbEntity
8
1
62
256
6
ByLayer
370
18
48
1
60
0
100
AcDbLine
10
12.75662
20
8.708239
30
0
11
17.331997
21
7.489843
31
0
39
0
210
0
220
0
230
1
0
LINE
5
9A
100
AcDbEntity
8
1
62
256
6
ByLayer
370
18
48
1
60
0
100
AcDbLine
10
17.331997
20
12.720756
30
0
11
12.75662
21
13.460524
31
0
39
0
210
0
220
0
230
1
0
LINE
5
9B
100
AcDbEntity
8
1
62
256
6
ByLayer
370
18
48
1
60
0
100
AcDbLine
10
24.075743
20
-8.000887
30
0
11
24.075743
21
-9.516359
31
0
39
0
210
0
220
0
230
1
0
LINE
5
9C
100
AcDbEntity
8
1
62
256
6
ByLayer
370
18
48
1
60
0
100
AcDbLine
10
12.065185
20
7.154326
30
0
11
16.89461
21
5.868278
31
0
39
0
210
0
220
0
230
1
0
LINE
5
9D
100
AcDbEntity
8
1
62
256
6
ByLayer
370
18
48
1
60
0
100
AcDbLine
10
23.399885
20
-12.756641
30
0
11
23.399885
21
-14.48168
31
0
39
0
210
0
220
0
230
1
0
LINE
5
9E
100
AcDbEntity
8
1
62
256
6
ByLayer
370
18
48
1
60
0
100
AcDbLine
10
24.075743
20
-0.440996
30
0
11
24.075743
21
2.607267
31
0
39
0
210
0
220
0
230
1
0
LINE
5
9F
100
AcDbEntity
8
1
62
256
6
ByLayer
370
18
48
1
60
0
100
AcDbLine
10
19.03631
20
-1.23408
30
0
11
19.03631
21
-6.546922
31
0
39
0
210
0
220
0
230
1
0
LINE
5
A0
100
AcDbEntity
8
1
62
256
6
ByLayer
370
18
48
1
60
0
100
AcDbLine
10
24.13744
20
4.937192
30
0
11
24.13744
21
0.935146
31
0
39
0
210
0
220
0
230
1
0
LINE
5
A1
100
AcDbEntity
8
1
62
256
6
ByLayer
370
18
48
1
60
0
100
AcDbLine
10
22.743989
20
12.009749
30
0
11
22.589201
21
12.007528
31
0
39
0
210
0
220
0
230
1
0
LINE
5
A2
100
AcDbEntity
8
1
62
256
6
ByLayer
370
18
48
1
60
0
100
AcDbLine
10
12.065185
20
7.154326
30
0
11
11.728325
21
5.765763
31
0
39
0
210
0
220
0
230
1
0
LINE
5
A3
100
AcDbEntity
8
1
62
256
6
ByLayer
370
18
48
1
60
0
100
AcDbLine
10
19.03631
20
12.611207
30
0
11
19.03631
21
9.023465
31
0
39
0
210
0
220
0
230
1
0
LINE
5
A4
100
AcDbEntity
8
1
62
256
6
ByLayer
370
18
48
1
60
0
100
AcDbLine
10
18.216713
20
13.701696
30
0
11
17.87734
21
13.723427
31
0
39
0
210
0
220
0
230
1
0
LINE
5
A5
100
AcDbEntity
8
1
62
256
6
ByLayer
370
18
48
1
60
0
100
AcDbLine
10
18.933508
20
6.281895
30
0
11
18.938401
21
6.281478
31
0
39
0
210
0
220
0
230
1
0
LINE
5
A6
100
AcDbEntity
8
1
62
256
6
ByLayer
370
18
48
1
60
0
100
AcDbLine
10
21.790201
20
5.061511
30
0
11
24.075743
21
4.728916
31
0
39
0
210
0
220
0
230
1
0
LINE
5
A7
100
AcDbEntity
8
1
62
256
6
ByLayer
370
18
48
1
60
0
100
AcDbLine
10
17.87734
20
13.723427
30
0
11
18.231605
21
13.951669
31
0
39
0
210
0
220
0
230
1
0
LINE
5
A8
100
AcDbEntity
8
1
62
256
6
ByLayer
370
18
48
1
60
0
100
AcDbLine
10
12.065185
20
-5.573102
30
0
11
11.728325
21
-7.167415
31
0
39
0
210
0
220
0
230
1
0
LINE
5
A9
100
AcDbEntity
8
1
62
256
6
ByLayer
370
18
48
1
60
0
100
AcDbLine
10
16.4
20
-0.912411
30
0
11
16.4
21
-6.062433
31
0
39
0
210
0
220
0
230
1
0
LINE
5
AA
100
AcDbEntity
8
1
62
256
6
ByLayer
370
18
48
1
60
0
100
AcDbLine
10
18.472246
20
5.544344
30
0
11
17.026315
21
-0.948078
31
0
39
0
210
0
220
0
230
1
0
LINE
5
AB
100
AcDbEntity
8
1
62
256
6
ByLayer
370
18
48
1
60
0
100
AcDbLine
10
8.3
20
6.812489
30
0
11
2.2
21
6.812489
31
0
39
0
210
0
220
0
230
1
0
LINE
5
AC
100
AcDbEntity
8
1
62
256
6
ByLayer
370
18
48
1
60
0
100
AcDbLine
10
23.399885
20
-12.756641
30
0
11
23.575094
21
-12.57263
31
0
39
0
210
0
220
0
230
1
0
LINE
5
AD
100
AcDbEntity
8
1
62
256
6
ByLayer
370
18
48
1
60
0
100
AcDbLine
10
18.005946
20
7.281217
30
0
11
18.215209
21
7.540237
31
0
39
0
210
0
220
0
230
1
0
LINE
5
AE
100
AcDbEntity
8
1
62
256
6
ByLayer
370
18
48
1
60
0
100
AcDbLine
10
8.3
20
-6.812489
30
0
11
8.3
21
6.812489
31
0
39
0
210
0
220
0
230
1
0
LINE
5
AF
100
AcDbEntity
8
1
62
256
6
ByLayer
370
18
48
1
60
0
100
AcDbLine
10
2
20
6.509224
30
0
11
2
21
-6.509224
31
0
39
0
210
0
220
0
230
1
0
LINE
5
B0
100
AcDbEntity
8
1
62
256
6
ByLayer
370
18
48
1
60
0
100
AcDbLine
10
18.874095
20
9.028127
30
0
11
18.874095
21
12.610119
31
0
39
0
210
0
220
0
230
1
0
LINE
5
B1
100
AcDbEntity
8
1
62
256
6
ByLayer
370
18
48
1
60
0
100
AcDbLine
10
18.874095
20
-6.529533
30
0
11
18.874095
21
-1.21901
31
0
39
0
210
0
220
0
230
1
0
LINE
5
B2
100
AcDbEntity
8
1
62
256
6
ByLayer
370
18
48
1
60
0
100
AcDbLine
10
12.065185
20
-5.573102
30
0
11
15.778787
21
-5.950318
31
0
39
0
210
0
220
0
230
1
0
LINE
5
B3
100
AcDbEntity
8
1
62
256
6
ByLayer
370
18
48
1
60
0
100
AcDbLine
10
23.497885
20
-2.17184
30
0
11
23.575094
21
-1.221069
31
0
39
0
210
0
220
0
230
1
0
LINE
5
B4
100
AcDbEntity
8
1
62
256
6
ByLayer
370
18
48
1
60
0
100
AcDbLine
10
23.497885
20
-14.284553
30
0
11
23.575094
21
-12.57263
31
0
39
0
210
0
220
0
230
1
0
LINE
5
B5
100
AcDbEntity
8
1
62
256
6
ByLayer
370
18
48
1
60
0
100
AcDbLine
10
23.778394
20
9.872637
30
0
11
23.778394
21
12.203441
31
0
39
0
210
0
220
0
230
1
0
LINE
5
B6
100
AcDbEntity
8
1
62
256
6
ByLayer
370
18
48
1
60
0
100
AcDbLine
10
18.393014
20
-6.677973
30
0
11
17.026315
21
-13.711742
31
0
39
0
210
0
220
0
230
1
0
LINE
5
B7
100
AcDbEntity
8
1
62
256
6
ByLayer
370
18
48
1
60
0
100
AcDbLine
10
17.87734
20
8.093044
30
0
11
18.426859
21
8.250574
31
0
39
0
210
0
220
0
230
1
0
LINE
5
B8
100
AcDbEntity
8
1
62
256
6
ByLayer
370
18
48
1
60
0
100
AcDbLine
10
24.371185
20
11.831512
30
0
11
24.371185
21
9.633502
31
0
39
0
210
0
220
0
230
1
0
LINE
5
B9
100
AcDbEntity
8
1
62
256
6
ByLayer
370
18
48
1
60
0
100
AcDbLine
10
24.075743
20
5.494034
30
0
11
24.075743
21
5.54181
31
0
39
0
210
0
220
0
230
1
0
LINE
5
BA
100
AcDbEntity
8
1
62
256
6
ByLayer
370
18
48
1
60
0
100
AcDbLine
10
24.371185
20
-8.994315
30
0
11
24.371185
21
-11.530626
31
0
39
0
210
0
220
0
230
1
0
LINE
5
BB
100
AcDbEntity
8
1
62
256
6
ByLayer
370
18
48
1
60
0
100
AcDbLine
10
23.399885
20
-2.161391
30
0
11
23.399885
21
-2.72878
31
0
39
0
210
0
220
0
230
1
0
LINE
5
BC
100
AcDbEntity
8
1
62
256
6
ByLayer
370
18
48
1
60
0
100
AcDbLine
10
17.424471
20
-6.228238
30
0
11
17.424471
21
-0.951902
31
0
39
0
210
0
220
0
230
1
0
LINE
5
BD
100
AcDbEntity
8
1
62
256
6
ByLayer
370
18
48
1
60
0
100
AcDbLine
10
17.424471
20
9.094065
30
0
11
17.424471
21
12.581174
31
0
39
0
210
0
220
0
230
1
0
LINE
5
BE
100
AcDbEntity
8
1
62
256
6
ByLayer
370
18
48
1
60
0
100
AcDbLine
10
10.6
20
12.1
30
0
11
10.6
21
-12.1
31
0
39
0
210
0
220
0
230
1
0
LINE
5
BF
100
AcDbEntity
8
1
62
256
6
ByLayer
370
18
48
1
60
0
100
AcDbLine
10
24.284162
20
-12.271583
30
0
11
23.542829
21
-12.258136
31
0
39
0
210
0
220
0
230
1
0
LINE
5
C0
100
AcDbEntity
8
1
62
256
6
ByLayer
370
18
48
1
60
0
100
AcDbLine
10
0
20
12.1
30
0
11
0
21
-12.1
31
0
39
0
210
0
220
0
230
1
0
LINE
5
C1
100
AcDbEntity
8
1
62
256
6
ByLayer
370
18
48
1
60
0
100
AcDbLine
10
24.309488
20
1.321746
30
0
11
24.309488
21
5.119099
31
0
39
0
210
0
220
0
230
1
0
LINE
5
C2
100
AcDbEntity
8
1
62
256
6
ByLayer
370
18
48
1
60
0
100
AcDbLine
10
16.4
20
12.603254
30
0
11
16.4
21
9.238583
31
0
39
0
210
0
220
0
230
1
0
LINE
5
C3
100
AcDbEntity
8
1
62
256
6
ByLayer
370
18
48
1
60
0
100
AcDbLine
10
21.583065
20
-5.140236
30
0
11
20.766087
21
-5.009764
31
0
39
0
210
0
220
0
230
1
0
LINE
5
C4
100
AcDbEntity
8
1
62
256
6
ByLayer
370
18
48
1
60
0
100
AcDbLine
10
24.284162
20
-11.319545
30
0
11
24.078268
21
-11.348142
31
0
39
0
210
0
220
0
230
1
0
LINE
5
C5
100
AcDbEntity
8
1
62
256
6
ByLayer
370
18
48
1
60
0
100
AcDbLine
10
24.371185
20
-1.441417
30
0
11
24.371185
21
-1.962765
31
0
39
0
210
0
220
0
230
1
0
LINE
5
C6
100
AcDbEntity
8
1
62
256
6
ByLayer
370
18
48
1
60
0
100
AcDbLine
10
24.284162
20
-1.159511
30
0
11
23.542829
21
-1.03935
31
0
39
0
210
0
220
0
230
1
0
LINE
5
C7
100
AcDbEntity
8
1
62
256
6
ByLayer
370
18
48
1
60
0
100
AcDbLine
10
8.5
20
-6.509224
30
0
11
8.5
21
6.509224
31
0
39
0
210
0
220
0
230
1
0
LINE
5
C8
100
AcDbEntity
8
1
62
256
6
ByLayer
370
18
48
1
60
0
100
AcDbLine
10
2.2
20
6.812489
30
0
11
2.2
21
-6.812489
31
0
39
0
210
0
220
0
230
1
0
LINE
5
C9
100
AcDbEntity
8
1
62
256
6
ByLayer
370
18
48
1
60
0
100
AcDbLine
10
24.075743
20
4.728916
30
0
11
24.075743
21
2.607267
31
0
39
0
210
0
220
0
230
1
0
LINE
5
CA
100
AcDbEntity
8
1
62
256
6
ByLayer
370
18
48
1
60
0
100
AcDbLine
10
17.574672
20
-13.729902
30
0
11
17.574672
21
-15.123796
31
0
39
0
210
0
220
0
230
1
0
LINE
5
CB
100
AcDbEntity
8
1
62
256
6
ByLayer
370
18
48
1
60
0
100
AcDbLine
10
19.03631
20
-14.025305
30
0
11
19.03631
21
-15.350422
31
0
39
0
210
0
220
0
230
1
0
LINE
5
CC
100
AcDbEntity
8
1
62
256
6
ByLayer
370
18
48
1
60
0
100
AcDbLine
10
24.371185
20
-1.962765
30
0
11
24.371185
21
-5.399564
31
0
39
0
210
0
220
0
230
1
0
LINE
5
CD
100
AcDbEntity
8
1
62
256
6
ByLayer
370
18
48
1
60
0
100
AcDbLine
10
24.309488
20
-11.35351
30
0
11
24.309488
21
-8.763103
31
0
39
0
210
0
220
0
230
1
0
LINE
5
CE
100
AcDbEntity
8
1
62
256
6
ByLayer
370
18
48
1
60
0
100
AcDbLine
10
16.878487
20
-6.13997
30
0
11
15.331114
21
-13.463459
31
0
39
0
210
0
220
0
230
1
0
LINE
5
CF
100
AcDbEntity
8
1
62
256
6
ByLayer
370
18
48
1
60
0
100
AcDbLine
10
18.472246
20
5.544344
30
0
11
19.694167
21
5.366528
31
0
39
0
210
0
220
0
230
1
0
LINE
5
D0
100
AcDbEntity
8
1
62
256
6
ByLayer
370
18
48
1
60
0
100
AcDbLine
10
24.371185
20
-12.749478
30
0
11
24.371185
21
-13.676761
31
0
39
0
210
0
220
0
230
1
0
LINE
5
D1
100
AcDbEntity
8
1
62
256
6
ByLayer
370
18
48
1
60
0
100
AcDbLine
10
24.13744
20
-8.466282
30
0
11
24.13744
21
-11.146411
31
0
39
0
210
0
220
0
230
1
0
LINE
5
D2
100
AcDbEntity
8
1
62
256
6
ByLayer
370
18
48
1
60
0
100
AcDbLine
10
16.4
20
-13.696394
30
0
11
16.4
21
-15.09234
31
0
39
0
210
0
220
0
230
1
0
LINE
5
D3
100
AcDbEntity
8
1
62
256
6
ByLayer
370
18
48
1
60
0
100
AcDbLine
10
23.399885
20
-2.161391
30
0
11
23.575094
21
-1.221069
31
0
39
0
210
0
220
0
230
1
0
LINE
5
D4
100
AcDbEntity
8
1
62
256
6
ByLayer
370
18
48
1
60
0
100
AcDbLine
10
24.075743
20
5.494034
30
0
11
24.075743
21
4.728916
31
0
39
0
210
0
220
0
230
1
0
LINE
5
D5
100
AcDbEntity
8
1
62
256
6
ByLayer
370
18
48
1
60
0
100
AcDbLine
10
24.075743
20
-11.306943
30
0
11
24.075743
21
-9.516359
31
0
39
0
210
0
220
0
230
1
0
LINE
5
D6
100
AcDbEntity
8
1
62
256
6
ByLayer
370
18
48
1
60
0
100
AcDbLine
10
16.89461
20
5.868278
30
0
11
15.331114
21
-0.576558
31
0
39
0
210
0
220
0
230
1
0
LINE
5
D7
100
AcDbEntity
8
1
62
256
6
ByLayer
370
18
48
1
60
0
100
AcDbLine
10
17.574672
20
12.582382
30
0
11
17.574672
21
9.080408
31
0
39
0
210
0
220
0
230
1
0
LINE
5
D8
100
AcDbEntity
8
1
62
256
6
ByLayer
370
18
48
1
60
0
100
AcDbLine
10
18.874095
20
-15.338118
30
0
11
18.874095
21
-14.00917
31
0
39
0
210
0
220
0
230
1
0
LINE
5
D9
100
AcDbEntity
8
1
62
256
6
ByLayer
370
18
48
1
60
0
100
AcDbLine
10
17.574672
20
-0.967235
30
0
11
17.574672
21
-6.256171
31
0
39
0
210
0
220
0
230
1
0
LINE
5
DA
100
AcDbEntity
8
1
62
256
6
ByLayer
370
18
48
1
60
0
100
AcDbLine
10
18.909989
20
6.245761
30
0
11
24.075743
21
5.494034
31
0
39
0
210
0
220
0
230
1
0
LINE
5
DB
100
AcDbEntity
8
1
62
256
6
ByLayer
370
18
48
1
60
0
100
AcDbLine
10
24.371185
20
5.16481
30
0
11
24.371185
21
1.557281
31
0
39
0
210
0
220
0
230
1
0
LINE
5
DC
100
AcDbEntity
8
1
62
256
6
ByLayer
370
18
48
1
60
0
100
AcDbLine
10
17.424471
20
-15.110164
30
0
11
17.424471
21
-13.713383
31
0
39
0
210
0
220
0
230
1
0
LINE
5
DD
100
AcDbEntity
8
1
62
256
6
ByLayer
370
18
48
1
60
0
100
AcDbLine
10
24.371185
20
-13.676761
30
0
11
24.371185
21
-14.593293
31
0
39
0
210
0
220
0
230
1
0
LINE
5
DE
100
AcDbEntity
8
1
62
256
6
ByLayer
370
18
48
1
60
0
100
AcDbLine
10
24.371185
20
-11.530626
30
0
11
24.371185
21
-11.965083
31
0
39
0
210
0
220
0
230
1
0
LINE
5
DF
100
AcDbEntity
8
1
62
256
6
ByLayer
370
18
48
1
60
0
100
AcDbLine
10
23.778394
20
-5.492667
30
0
11
23.778394
21
-2.223422
31
0
39
0
210
0
220
0
230
1
0
LINE
5
E0
100
AcDbEntity
8
1
62
256
6
ByLayer
370
18
48
1
60
0
100
AcDbLine
10
11.257354
20
12.346418
30
0
11
11.257354
21
-12.346418
31
0
39
0
210
0
220
0
230
1
0
LINE
5
E1
100
AcDbEntity
8
1
62
256
6
ByLayer
370
18
48
1
60
0
100
AcDbLine
10
22.423305
20
13.729662
30
0
11
22.404788
21
13.751123
31
0
39
0
210
0
220
0
230
1
0
LINE
5
E2
100
AcDbEntity
8
1
62
256
6
ByLayer
370
18
48
1
60
0
100
AcDbLine
10
21.493203
20
13.101773
30
0
11
21.440426
21
13.162941
31
0
39
0
210
0
220
0
230
1
0
LINE
5
E3
100
AcDbEntity
8
1
62
256
6
ByLayer
370
18
48
1
60
0
100
AcDbLine
10
22.43001
20
13.709727
30
0
11
22.389157
21
13.757074
31
0
39
0
210
0
220
0
230
1
0
LINE
5
E4
100
AcDbEntity
8
1
62
256
6
ByLayer
370
18
48
1
60
0
100
AcDbLine
10
21.519333
20
13.092354
30
0
11
21.443467
21
13.180281
31
0
39
0
210
0
220
0
230
1
0
LINE
5
E5
100
AcDbEntity
8
1
62
256
6
ByLayer
370
18
48
1
60
0
100
AcDbLine
10
21.443467
20
8.011556
30
0
11
21.444153
21
8.007461
31
0
39
0
210
0
220
0
230
1
0
LINE
5
E6
100
AcDbEntity
8
1
62
256
6
ByLayer
370
18
48
1
60
0
100
AcDbLine
10
22.419961
20
7.574937
30
0
11
22.404788
21
7.511181
31
0
39
0
210
0
220
0
230
1
0
LINE
5
E7
100
AcDbEntity
8
1
62
256
6
ByLayer
370
18
48
1
60
0
100
AcDbLine
10
21.446401
20
8.023885
30
0
11
21.443467
21
8.011556
31
0
39
0
210
0
220
0
230
1
0
LINE
5
E8
100
AcDbEntity
8
1
62
256
6
ByLayer
370
18
48
1
60
0
100
AcDbLine
10
20.916096
20
7.855085
30
0
11
20.881608
21
7.71017
31
0
39
0
210
0
220
0
230
1
0
LINE
5
E9
100
AcDbEntity
8
1
62
256
6
ByLayer
370
18
48
1
60
0
100
AcDbLine
10
22.408414
20
7.59657
30
0
11
22.389157
21
7.515655
31
0
39
0
210
0
220
0
230
1
0
LINE
5
EA
100
AcDbEntity
8
1
62
256
6
ByLayer
370
18
48
1
60
0
100
AcDbLine
10
20.94006
20
7.873466
30
0
11
20.901168
21
7.710047
31
0
39
0
210
0
220
0
230
1
0
LINE
5
EB
100
AcDbEntity
8
1
62
256
6
ByLayer
370
18
48
1
60
0
100
AcDbLine
10
22.299503
20
14.358138
30
0
11
22.187462
21
14.487991
31
0
39
0
210
0
220
0
230
1
0
LINE
5
EC
100
AcDbEntity
8
1
62
256
6
ByLayer
370
18
48
1
60
0
100
AcDbLine
10
21.554432
20
14.546335
30
0
11
21.440426
21
14.678465
31
0
39
0
210
0
220
0
230
1
0
LINE
5
ED
100
AcDbEntity
8
1
62
256
6
ByLayer
370
18
48
1
60
0
100
AcDbLine
10
22.316022
20
14.369449
30
0
11
22.202016
21
14.501579
31
0
39
0
210
0
220
0
230
1
0
LINE
5
EE
100
AcDbEntity
8
1
62
256
6
ByLayer
370
18
48
1
60
0
100
AcDbLine
10
20.995613
20
13.564107
30
0
11
20.881608
21
13.696237
31
0
39
0
210
0
220
0
230
1
0
LINE
5
EF
100
AcDbEntity
8
1
62
256
6
ByLayer
370
18
48
1
60
0
100
AcDbLine
10
21.198385
20
14.329176
30
0
11
21.214905
21
14.319056
31
0
39
0
210
0
220
0
230
1
0
LINE
5
F0
100
AcDbEntity
8
1
62
256
6
ByLayer
370
18
48
1
60
0
100
AcDbLine
10
21.198385
20
14.329176
30
0
11
21.08438
21
14.461306
31
0
39
0
210
0
220
0
230
1
0
LINE
5
F1
100
AcDbEntity
8
1
62
256
6
ByLayer
370
18
48
1
60
0
100
AcDbLine
10
22.299503
20
14.358138
30
0
11
22.316022
21
14.369449
31
0
39
0
210
0
220
0
230
1
0
LINE
5
F2
100
AcDbEntity
8
1
62
256
6
ByLayer
370
18
48
1
60
0
100
AcDbLine
10
21.555508
20
14.526796
30
0
11
21.554432
21
14.546335
31
0
39
0
210
0
220
0
230
1
0
LINE
5
F3
100
AcDbEntity
8
1
62
256
6
ByLayer
370
18
48
1
60
0
100
AcDbLine
10
20.995613
20
13.564107
30
0
11
21.013209
21
13.573604
31
0
39
0
210
0
220
0
230
1
0
LINE
5
F4
100
AcDbEntity
8
1
62
256
6
ByLayer
370
18
48
1
60
0
100
AcDbLine
10
21.214905
20
14.319056
30
0
11
21.102864
21
14.448908
31
0
39
0
210
0
220
0
230
1
0
LINE
5
F5
100
AcDbEntity
8
1
62
256
6
ByLayer
370
18
48
1
60
0
100
AcDbLine
10
21.555508
20
14.526796
30
0
11
21.443467
21
14.656649
31
0
39
0
210
0
220
0
230
1
0
LINE
5
F6
100
AcDbEntity
8
1
62
256
6
ByLayer
370
18
48
1
60
0
100
AcDbLine
10
21.013209
20
13.573604
30
0
11
20.901168
21
13.703456
31
0
39
0
210
0
220
0
230
1
0
LINE
5
F7
100
AcDbEntity
8
1
62
256
6
ByLayer
370
18
48
1
60
0
100
AcDbLine
10
21.555508
20
7.469406
30
0
11
21.443467
21
6.998626
31
0
39
0
210
0
220
0
230
1
0
LINE
5
F8
100
AcDbEntity
8
1
62
256
6
ByLayer
370
18
48
1
60
0
100
AcDbLine
10
21.554432
20
7.456114
30
0
11
21.440426
21
6.977079
31
0
39
0
210
0
220
0
230
1
0
LINE
5
F9
100
AcDbEntity
8
1
62
256
6
ByLayer
370
18
48
1
60
0
100
AcDbLine
10
21.554432
20
7.456114
30
0
11
21.555508
21
7.469406
31
0
39
0
210
0
220
0
230
1
0
LINE
5
FA
100
AcDbEntity
8
1
62
256
6
ByLayer
370
18
48
1
60
0
100
AcDbLine
10
22.316022
20
7.496809
30
0
11
22.202016
21
7.017774
31
0
39
0
210
0
220
0
230
1
0
LINE
5
FB
100
AcDbEntity
8
1
62
256
6
ByLayer
370
18
48
1
60
0
100
AcDbLine
10
22.316022
20
7.496809
30
0
11
22.299503
21
7.506319
31
0
39
0
210
0
220
0
230
1
0
LINE
5
FC
100
AcDbEntity
8
1
62
256
6
ByLayer
370
18
48
1
60
0
100
AcDbLine
10
21.198385
20
7.642817
30
0
11
21.08438
21
7.163782
31
0
39
0
210
0
220
0
230
1
0
LINE
5
FD
100
AcDbEntity
8
1
62
256
6
ByLayer
370
18
48
1
60
0
100
AcDbLine
10
22.299503
20
7.506319
30
0
11
22.187462
21
7.03554
31
0
39
0
210
0
220
0
230
1
0
LINE
5
FE
100
AcDbEntity
8
1
62
256
6
ByLayer
370
18
48
1
60
0
100
AcDbLine
10
21.214905
20
7.648011
30
0
11
21.198385
21
7.642817
31
0
39
0
210
0
220
0
230
1
0
LINE
5
FF
100
AcDbEntity
8
1
62
256
6
ByLayer
370
18
48
1
60
0
100
AcDbLine
10
21.214905
20
7.648011
30
0
11
21.102864
21
7.177232
31
0
39
0
210
0
220
0
230
1
0
MTEXT
5
2F1
100
AcDbEntity
8
SK6
62
256
6
ByLayer
370
18
48
1
60
0
100
AcDbMText
10
-28.624359
20
-26.87732
30
0
210
0
220
0
230
1
1
\W0.7594;R390-032EH25-07M
40
3.5
41
0
44
1.084337
50
0
71
7
72
5
7
iso_b_vert
0
DIMENSION
5
302
100
AcDbEntity
8
2
62
256
6
ByLayer
370
13
48
1
60
0
100
AcDbDimension
2
DimnDraft3D1
10
36.851281
20
16
30
0
11
36.851281
21
0
31
0
70
32
71
5
72
1
41
1
210
0
220
0
230
1
3
Standard
100
AcDbAlignedDimension
13
26.5875
23
-16
33
0
14
26.5875
24
16
34
0
50
90
100
AcDbRotatedDimension
1001
ACAD
1000
DSTYLE
1002
{
1070
    74
1070
     0
1070
   279
1070
     0
1070
   172
1070
     1
1070
   173
1070
     1
1070
   340
1005
2F2
1070
   271
1070
     2
1070
   272
1070
     2
1070
    77
1070
     1
1070
    73
1070
     0
1070
   171
1070
     3
1070
   274
1070
     4
1070
   177
1070
   150
1070
   176
1070
     9
1070
   178
1070
    43
1070
    78
1070
     8
1070
    48
1040
-0.005
1070
    41
1041
3.175
1070
   147
1041
1.75
1070
    42
1041
1.5875
1070
    44
1041
3.175
1070
   140
1041
3.5
1070
   343
1005
303
1070
   344
1005
303
1002
}
0
DIMENSION
5
318
100
AcDbEntity
8
SK2
62
256
6
ByLayer
370
13
48
1
60
0
100
AcDbDimension
2
DimnDraft3D2
10
-46.85
20
-12.1
30
0
11
-46.85
21
0
31
0
70
32
71
5
72
1
41
1
210
0
220
0
230
1
3
Standard
100
AcDbAlignedDimension
13
-1.5875
23
12.1
33
0
14
-1.5875
24
-12.1
34
0
50
90
100
AcDbRotatedDimension
1001
ACAD
1000
DSTYLE
1002
{
1070
    74
1070
     0
1070
   279
1070
     0
1070
   172
1070
     1
1070
   173
1070
     1
1070
   340
1005
2F2
1070
   271
1070
     2
1070
   272
1070
     2
1070
    77
1070
     1
1070
    73
1070
     0
1070
   171
1070
     3
1070
   274
1070
     4
1070
   177
1070
   150
1070
   176
1070
     9
1070
   178
1070
    43
1070
    78
1070
     8
1070
    48
1040
-0.005
1070
    41
1041
3.175
1070
   147
1041
1.75
1070
    42
1041
1.5875
1070
    44
1041
3.175
1070
   140
1041
3.5
1070
   343
1005
303
1070
   344
1005
303
1002
}
0
DIMENSION
5
326
100
AcDbEntity
8
2
62
256
6
ByLayer
370
13
48
1
60
0
100
AcDbDimension
2
DimnDraft3D3
10
25
20
34.5
30
0
11
12.5
21
34.5
31
0
70
32
71
5
72
1
41
1
210
0
220
0
230
1
3
Standard
100
AcDbAlignedDimension
13
0
23
13.6875
33
0
14
25
24
17.5875
34
0
50
0
100
AcDbRotatedDimension
1001
ACAD
1000
DSTYLE
1002
{
1070
   279
1070
     0
1070
   172
1070
     1
1070
   173
1070
     1
1070
   340
1005
2F2
1070
   271
1070
     2
1070
   272
1070
     2
1070
    77
1070
     1
1070
    73
1070
     0
1070
   171
1070
     3
1070
   274
1070
     4
1070
   177
1070
   150
1070
   176
1070
     9
1070
   178
1070
    43
1070
    78
1070
     8
1070
    48
1040
-0.005
1070
    41
1041
3.175
1070
   147
1041
1.75
1070
    42
1041
1.5875
1070
    44
1041
3.175
1070
   140
1041
3.5
1070
   343
1005
303
1070
   344
1005
303
1002
}
0
DIMENSION
5
334
100
AcDbEntity
8
SK2
62
256
6
ByLayer
370
13
48
1
60
0
100
AcDbDimension
2
DimnDraft3D4
10
25
20
24.5
30
0
11
39.4375
21
24.5
31
0
70
32
71
5
72
1
41
1
210
0
220
0
230
1
3
Standard
100
AcDbAlignedDimension
13
19.2
23
17.5875
33
0
14
25
24
17.5875
34
0
50
0
100
AcDbRotatedDimension
1001
ACAD
1000
DSTYLE
1002
{
1070
   279
1070
     0
1070
   172
1070
     1
1070
   173
1070
     1
1070
   340
1005
2F2
1070
   271
1070
     2
1070
   272
1070
     2
1070
    77
1070
     1
1070
    73
1070
     0
1070
   171
1070
     3
1070
   274
1070
     4
1070
   177
1070
   150
1070
   176
1070
     9
1070
   178
1070
    43
1070
    78
1070
     8
1070
    48
1040
-0.005
1070
    41
1041
3.175
1070
   147
1041
1.75
1070
    42
1041
1.5875
1070
    44
1041
3.175
1070
   140
1041
3.5
1070
   343
1005
303
1070
   344
1005
303
1002
}
0
ENDSEC
0
SECTION
2
OBJECTS
0
DICTIONARY
5
39f
330
0
100
AcDbDictionary
280
0
281
1
3
ACAD_GROUP
350
3a0
3
ACAD_MLINESTYLE
350
3a1
0
DICTIONARY
5
3a0
330
0
100
AcDbDictionary
280
0
281
1
0
DICTIONARY
5
3a1
330
0
100
AcDbDictionary
280
0
281
1
3
Standard
350
18
0
MLINESTYLE
5
18
330
3a1
100
AcDbMlineStyle
2
Standard
70
0
3

62
256
51
90
52
90
71
2
49
-0.5
62
256
6
ByLayer
49
0.5
62
256
6
ByLayer
0
RASTERVARIABLES
5
38d
330

100
AcDbRasterVariables
90
0
70
1
71
1
72
1
0
ENDSEC
0
EOF
