0
SECTION
2
HEADER
9
$ACADVER
1
AC1015
9
$DWGCODEPAGE
3
ANSI_1252
9
$HANDSEED
5
33b
9
$ANGBASE
50
0
9
$ANGDIR
70
0
9
$ATTMODE
70
1
9
$AUNITS
70
0
9
$AUPREC
70
0
9
$CECOLOR
62
256
9
$CELTSCALE
40
1
9
$CELTYPE
6
ByLayer
9
$CELWEIGHT
370
18
9
$CLAYER
8
0
9
$CMLJUST
70
0
9
$CMLSCALE
40
1
9
$CMLSTYLE
2
Standard
9
$DIMSTYLE
2
Standard
9
$TEXTSIZE
40
0.2
9
$TEXTSTYLE
7
Standard
9
$LUNITS
70
2
9
$LUPREC
70
4
9
$EXTNAMES
290
1
9
$INSUNITS
70
4
9
$LTSCALE
40
1
9
$LWDISPLAY
290
1
9
$PDMODE
70
0
9
$PDSIZE
40
0
9
$PLINEGEN
70
0
0
ENDSEC
0
SECTION
2
CLASSES
0
CLASS
1
RASTERVARIABLES
2
AcDbRasterVariables
3
ISM
90
0
280
0
281
0
0
ENDSEC
0
SECTION
2
TABLES
0
TABLE
2
VPORT
5
331
100
AcDbSymbolTable
0
VPORT
5
1
100
AcDbSymbolTableRecord
100
AcDbViewportTableRecord
2
*Active
70
0
10
0
20
0
11
1
21
1
12
-1
22
1
13
0
23
0
14
0.5
24
0.5
15
10
25
10
16
0
26
0
36
1
17
0
27
0
37
0
0
ENDTAB
0
TABLE
2
LTYPE
5
332
100
AcDbSymbolTable
0
LTYPE
5
14
100
AcDbSymbolTableRecord
100
AcDbLinetypeTableRecord
70
0
2
ByBlock
3

72
65
73
0
40
0
0
LTYPE
5
15
100
AcDbSymbolTableRecord
100
AcDbLinetypeTableRecord
70
0
2
ByLayer
3

72
65
73
0
40
0
0
LTYPE
5
16
100
AcDbSymbolTableRecord
100
AcDbLinetypeTableRecord
70
0
2
CONTINUOUS
3
Solid line
72
65
73
0
40
0
0
LTYPE
5
6A
100
AcDbSymbolTableRecord
100
AcDbLinetypeTableRecord
70
0
2
CENTER
3
____ _ ____ _ ____ _ ____
72
65
73
4
40
47.5
49
22
74
0
49
-8.5
74
0
49
8.5
74
0
49
-8.5
74
0
0
LTYPE
5
6B
100
AcDbSymbolTableRecord
100
AcDbLinetypeTableRecord
70
0
2
DASHED
3
__ __ __ __ __ __ __ __ __
72
65
73
2
40
25.72
49
12.86
74
0
49
-12.86
74
0
0
ENDTAB
0
TABLE
2
LAYER
5
333
100
AcDbSymbolTable
0
LAYER
5
10
100
AcDbSymbolTableRecord
100
AcDbLayerTableRecord
2
0
70
0
62
7
6
CONTINUOUS
290
1
370
-3
390
0
0
LAYER
5
6D
100
AcDbSymbolTableRecord
100
AcDbLayerTableRecord
2
81
70
0
62
-3
6
CONTINUOUS
290
1
370
-3
390
0
0
LAYER
5
6F
100
AcDbSymbolTableRecord
100
AcDbLayerTableRecord
2
80
70
0
62
-6
6
CONTINUOUS
290
1
370
-3
390
0
0
LAYER
5
71
100
AcDbSymbolTableRecord
100
AcDbLayerTableRecord
2
2
70
0
62
7
6
CONTINUOUS
290
1
370
-3
390
0
0
LAYER
5
75
100
AcDbSymbolTableRecord
100
AcDbLayerTableRecord
2
1
70
0
62
4
6
CONTINUOUS
290
1
370
-3
390
0
0
LAYER
5
85
100
AcDbSymbolTableRecord
100
AcDbLayerTableRecord
2
4
70
0
62
-2
6
CENTER
290
1
370
-3
390
0
0
LAYER
5
31d
100
AcDbSymbolTableRecord
100
AcDbLayerTableRecord
2
SK1
70
0
62
4
6
CONTINUOUS
290
1
370
-3
390
0
0
LAYER
5
31e
100
AcDbSymbolTableRecord
100
AcDbLayerTableRecord
2
SK4
70
0
62
2
6
CENTER
290
1
370
-3
390
0
0
LAYER
5
31f
100
AcDbSymbolTableRecord
100
AcDbLayerTableRecord
2
SK6
70
0
62
5
6
CONTINUOUS
290
1
370
-3
390
0
0
LAYER
5
320
100
AcDbSymbolTableRecord
100
AcDbLayerTableRecord
2
SK2
70
0
62
7
6
CONTINUOUS
290
1
370
-3
390
0
0
ENDTAB
0
TABLE
2
STYLE
5
334
100
AcDbSymbolTable
0
STYLE
5
11
100
AcDbSymbolTableRecord
100
AcDbTextStyleTableRecord
2
Standard
3
txt
70
0
71
0
40
0
41
1
42
0
50
0
0
STYLE
5
281
100
AcDbSymbolTableRecord
100
AcDbTextStyleTableRecord
2
iso_b_vert
3
simplex.shx
70
0
71
0
40
0
41
1
42
0
50
0
0
STYLE
5
282
100
AcDbSymbolTableRecord
100
AcDbTextStyleTableRecord
2
DWGDirectTextStyle
3
simplex
70
0
71
0
40
0
41
1
42
0
50
0
0
ENDTAB
0
TABLE
2
DIMSTYLE
5
335
100
AcDbSymbolTable
100
AcDbDimStyleTable
0
DIMSTYLE
105
27
100
AcDbSymbolTableRecord
100
AcDbDimStyleTableRecord
2
Standard
70
0
3
<>
41
0.18
42
0.0625
44
0.18
140
0.18
147
0.09
73
0
74
0
77
1
271
2
275
0
278
52
280
0
340
11
0
ENDTAB
0
TABLE
2
VIEW
5
336
100
AcDbSymbolTable
0
ENDTAB
0
TABLE
2
UCS
5
337
100
AcDbSymbolTable
0
ENDTAB
0
TABLE
2
APPID
5
338
100
AcDbSymbolTable
0
APPID
5
12
100
AcDbSymbolTableRecord
100
AcDbRegAppTableRecord
2
ACAD
70
0
0
ENDTAB
0
TABLE
2
BLOCK_RECORD
5
339
100
AcDbSymbolTable
0
BLOCK_RECORD
5
1F
100
AcDbSymbolTableRecord
100
AcDbBlockTableRecord
2
*Model_Space
340
0
70
0
0
BLOCK_RECORD
5
1B
100
AcDbSymbolTableRecord
100
AcDbBlockTableRecord
2
*Paper_Space
340
0
70
0
0
BLOCK_RECORD
5
23
100
AcDbSymbolTableRecord
100
AcDbBlockTableRecord
2
*Paper_Space0
340
0
70
0
0
BLOCK_RECORD
5
284
100
AcDbSymbolTableRecord
100
AcDbBlockTableRecord
2
DimnDraft3D1
340
0
70
0
0
BLOCK_RECORD
5
292
100
AcDbSymbolTableRecord
100
AcDbBlockTableRecord
2
_CLOSED
340
0
70
0
0
BLOCK_RECORD
5
299
100
AcDbSymbolTableRecord
100
AcDbBlockTableRecord
2
DimnDraft3D2
340
0
70
0
0
BLOCK_RECORD
5
2A8
100
AcDbSymbolTableRecord
100
AcDbBlockTableRecord
2
DimnDraft3D3
340
0
70
0
0
BLOCK_RECORD
5
2B6
100
AcDbSymbolTableRecord
100
AcDbBlockTableRecord
2
DimnDraft3D4
340
0
70
0
0
ENDTAB
0
ENDSEC
0
SECTION
2
BLOCKS
0
BLOCK
5
20
100
AcDbEntity
8
0
100
AcDbBlockBegin
2
*Model_Space
70
0
10
0
20
0
30
0
3
*Model_Space
0
ENDBLK
5
21
100
AcDbEntity
8
0
100
AcDbBlockEnd
0
BLOCK
5
1C
100
AcDbEntity
8
0
100
AcDbBlockBegin
2
*Paper_Space
70
0
10
0
20
0
30
0
3
*Paper_Space
0
ENDBLK
5
1D
100
AcDbEntity
8
0
100
AcDbBlockEnd
0
BLOCK
5
24
100
AcDbEntity
8
0
100
AcDbBlockBegin
2
*Paper_Space0
70
0
10
0
20
0
30
0
3
*Paper_Space0
0
ENDBLK
5
25
100
AcDbEntity
8
0
100
AcDbBlockEnd
0
BLOCK
5
28F
100
AcDbEntity
8
0
100
AcDbBlockBegin
2
DimnDraft3D1
70
0
10
0
20
0
30
0
3
DimnDraft3D1
0
MTEXT
5
285
100
AcDbEntity
8
2
62
256
6
ByLayer
370
18
48
1
60
0
100
AcDbMText
10
35.976281
20
-3.474671
30
0
210
0
220
0
230
1
1
\W1.0809;%%c25
40
3.5
41
0
44
1.084337
50
90
71
7
72
5
7
iso_b_vert
0
LINE
5
286
100
AcDbEntity
8
2
62
256
6
ByLayer
370
13
48
1
60
0
100
AcDbLine
10
26.5875
20
-12.5
30
0
11
40.026281
21
-12.5
31
0
39
0
210
0
220
0
230
1
0
LINE
5
287
100
AcDbEntity
8
2
62
256
6
ByLayer
370
13
48
1
60
0
100
AcDbLine
10
26.5875
20
12.5
30
0
11
40.026281
21
12.5
31
0
39
0
210
0
220
0
230
1
0
LINE
5
288
100
AcDbEntity
8
2
62
256
6
ByLayer
370
13
48
1
60
0
100
AcDbLine
10
36.851281
20
-12.5
30
0
11
36.851281
21
12.5
31
0
39
0
210
0
220
0
230
1
0
LINE
5
289
100
AcDbEntity
8
2
62
256
6
ByLayer
370
13
48
1
60
0
100
AcDbLine
10
36.851281
20
-12.5
30
0
11
36.433284
21
-9.325002
31
0
39
0
210
0
220
0
230
1
0
LINE
5
28A
100
AcDbEntity
8
2
62
256
6
ByLayer
370
13
48
1
60
0
100
AcDbLine
10
36.851281
20
-12.5
30
0
11
37.269278
21
-9.324998
31
0
39
0
210
0
220
0
230
1
0
LINE
5
28B
100
AcDbEntity
8
2
62
256
6
ByLayer
370
13
48
1
60
0
100
AcDbLine
10
36.433284
20
-9.325002
30
0
11
37.269278
21
-9.324998
31
0
39
0
210
0
220
0
230
1
0
LINE
5
28C
100
AcDbEntity
8
2
62
256
6
ByLayer
370
13
48
1
60
0
100
AcDbLine
10
36.851281
20
12.5
30
0
11
37.269278
21
9.325002
31
0
39
0
210
0
220
0
230
1
0
LINE
5
28D
100
AcDbEntity
8
2
62
256
6
ByLayer
370
13
48
1
60
0
100
AcDbLine
10
36.851281
20
12.5
30
0
11
36.433284
21
9.324998
31
0
39
0
210
0
220
0
230
1
0
LINE
5
28E
100
AcDbEntity
8
2
62
256
6
ByLayer
370
13
48
1
60
0
100
AcDbLine
10
37.269278
20
9.325002
30
0
11
36.433284
21
9.324998
31
0
39
0
210
0
220
0
230
1
0
ENDBLK
5
290
100
AcDbEntity
8
0
100
AcDbBlockEnd
0
BLOCK
5
293
100
AcDbEntity
8
0
100
AcDbBlockBegin
2
_CLOSED
70
0
10
0
20
0
30
0
3
_CLOSED
0
LINE
5
295
100
AcDbEntity
8
0
62
256
6
ByLayer
370
-2
48
1
60
0
100
AcDbLine
10
-1
20
0.166667
30
0
11
0
21
0
31
0
39
0
210
0
220
0
230
1
0
LINE
5
296
100
AcDbEntity
8
0
62
256
6
ByLayer
370
-2
48
1
60
0
100
AcDbLine
10
0
20
0
30
0
11
-1
21
-0.166667
31
0
39
0
210
0
220
0
230
1
0
LINE
5
297
100
AcDbEntity
8
0
62
256
6
ByLayer
370
-2
48
1
60
0
100
AcDbLine
10
-1
20
0.166667
30
0
11
-1
21
-0.166667
31
0
39
0
210
0
220
0
230
1
0
LINE
5
298
100
AcDbEntity
8
0
62
256
6
ByLayer
370
-2
48
1
60
0
100
AcDbLine
10
0
20
0
30
0
11
-1
21
0
31
0
39
0
210
0
220
0
230
1
0
ENDBLK
5
294
100
AcDbEntity
8
0
100
AcDbBlockEnd
0
BLOCK
5
2A5
100
AcDbEntity
8
0
100
AcDbBlockBegin
2
DimnDraft3D2
70
0
10
0
20
0
30
0
3
DimnDraft3D2
0
MTEXT
5
29A
100
AcDbEntity
8
SK2
62
256
6
ByLayer
370
18
48
1
60
0
100
AcDbMText
10
-43.225
20
-5.213158
30
0
210
0
220
0
230
1
1
\W0.9398;%%c19.3
40
3.5
41
0
44
1.084337
50
90
71
7
72
5
7
iso_b_vert
0
LINE
5
29C
100
AcDbEntity
8
SK2
62
256
6
ByLayer
370
13
48
1
60
0
100
AcDbLine
10
-1.5875
20
9.65
30
0
11
-45.525
21
9.65
31
0
39
0
210
0
220
0
230
1
0
LINE
5
29D
100
AcDbEntity
8
SK2
62
256
6
ByLayer
370
13
48
1
60
0
100
AcDbLine
10
-1.5875
20
-9.65
30
0
11
-45.525
21
-9.65
31
0
39
0
210
0
220
0
230
1
0
LINE
5
29E
100
AcDbEntity
8
SK2
62
256
6
ByLayer
370
13
48
1
60
0
100
AcDbLine
10
-42.35
20
18.4
30
0
11
-42.35
21
-18.4
31
0
39
0
210
0
220
0
230
1
0
LINE
5
29F
100
AcDbEntity
8
SK2
62
256
6
ByLayer
370
13
48
1
60
0
100
AcDbLine
10
-42.35
20
9.65
30
0
11
-42.767997
21
12.824998
31
0
39
0
210
0
220
0
230
1
0
LINE
5
2A0
100
AcDbEntity
8
SK2
62
256
6
ByLayer
370
13
48
1
60
0
100
AcDbLine
10
-42.35
20
9.65
30
0
11
-41.932003
21
12.825002
31
0
39
0
210
0
220
0
230
1
0
LINE
5
2A1
100
AcDbEntity
8
SK2
62
256
6
ByLayer
370
13
48
1
60
0
100
AcDbLine
10
-42.767997
20
12.824998
30
0
11
-41.932003
21
12.825002
31
0
39
0
210
0
220
0
230
1
0
LINE
5
2A2
100
AcDbEntity
8
SK2
62
256
6
ByLayer
370
13
48
1
60
0
100
AcDbLine
10
-42.35
20
-9.65
30
0
11
-41.932003
21
-12.824998
31
0
39
0
210
0
220
0
230
1
0
LINE
5
2A3
100
AcDbEntity
8
SK2
62
256
6
ByLayer
370
13
48
1
60
0
100
AcDbLine
10
-42.35
20
-9.65
30
0
11
-42.767997
21
-12.825002
31
0
39
0
210
0
220
0
230
1
0
LINE
5
2A4
100
AcDbEntity
8
SK2
62
256
6
ByLayer
370
13
48
1
60
0
100
AcDbLine
10
-41.932003
20
-12.824998
30
0
11
-42.767997
21
-12.825002
31
0
39
0
210
0
220
0
230
1
0
ENDBLK
5
2A6
100
AcDbEntity
8
0
100
AcDbBlockEnd
0
BLOCK
5
2B3
100
AcDbEntity
8
0
100
AcDbBlockBegin
2
DimnDraft3D3
70
0
10
0
20
0
30
0
3
DimnDraft3D3
0
MTEXT
5
2A9
100
AcDbEntity
8
2
62
256
6
ByLayer
370
18
48
1
60
0
100
AcDbMText
10
11.076974
20
31.875
30
0
210
0
220
0
230
1
1
\W0.8247;25
40
3.5
41
0
44
1.084337
50
0
71
7
72
5
7
iso_b_vert
0
LINE
5
2AA
100
AcDbEntity
8
2
62
256
6
ByLayer
370
13
48
1
60
0
100
AcDbLine
10
0
20
11.2375
30
0
11
0
21
34.175
31
0
39
0
210
0
220
0
230
1
0
LINE
5
2AB
100
AcDbEntity
8
2
62
256
6
ByLayer
370
13
48
1
60
0
100
AcDbLine
10
25
20
14.0875
30
0
11
25
21
34.175
31
0
39
0
210
0
220
0
230
1
0
LINE
5
2AC
100
AcDbEntity
8
2
62
256
6
ByLayer
370
13
48
1
60
0
100
AcDbLine
10
0
20
31
30
0
11
25
21
31
31
0
39
0
210
0
220
0
230
1
0
LINE
5
2AD
100
AcDbEntity
8
2
62
256
6
ByLayer
370
13
48
1
60
0
100
AcDbLine
10
0
20
31
30
0
11
3.174998
21
31.417997
31
0
39
0
210
0
220
0
230
1
0
LINE
5
2AE
100
AcDbEntity
8
2
62
256
6
ByLayer
370
13
48
1
60
0
100
AcDbLine
10
0
20
31
30
0
11
3.175002
21
30.582003
31
0
39
0
210
0
220
0
230
1
0
LINE
5
2AF
100
AcDbEntity
8
2
62
256
6
ByLayer
370
13
48
1
60
0
100
AcDbLine
10
3.174998
20
31.417997
30
0
11
3.175002
21
30.582003
31
0
39
0
210
0
220
0
230
1
0
LINE
5
2B0
100
AcDbEntity
8
2
62
256
6
ByLayer
370
13
48
1
60
0
100
AcDbLine
10
25
20
31
30
0
11
21.825002
21
30.582003
31
0
39
0
210
0
220
0
230
1
0
LINE
5
2B1
100
AcDbEntity
8
2
62
256
6
ByLayer
370
13
48
1
60
0
100
AcDbLine
10
25
20
31
30
0
11
21.824998
21
31.417997
31
0
39
0
210
0
220
0
230
1
0
LINE
5
2B2
100
AcDbEntity
8
2
62
256
6
ByLayer
370
13
48
1
60
0
100
AcDbLine
10
21.825002
20
30.582003
30
0
11
21.824998
21
31.417997
31
0
39
0
210
0
220
0
230
1
0
ENDBLK
5
2B4
100
AcDbEntity
8
0
100
AcDbBlockEnd
0
BLOCK
5
2C1
100
AcDbEntity
8
0
100
AcDbBlockBegin
2
DimnDraft3D4
70
0
10
0
20
0
30
0
3
DimnDraft3D4
0
MTEXT
5
2B7
100
AcDbEntity
8
SK2
62
256
6
ByLayer
370
18
48
1
60
0
100
AcDbMText
10
37.25
20
21.875
30
0
210
0
220
0
230
1
1
\W0.8447;5.8
40
3.5
41
0
44
1.084337
50
0
71
7
72
5
7
iso_b_vert
0
LINE
5
2B8
100
AcDbEntity
8
SK2
62
256
6
ByLayer
370
13
48
1
60
0
100
AcDbLine
10
19.2
20
14.0875
30
0
11
19.2
21
24.175
31
0
39
0
210
0
220
0
230
1
0
LINE
5
2B9
100
AcDbEntity
8
SK2
62
256
6
ByLayer
370
13
48
1
60
0
100
AcDbLine
10
25
20
14.0875
30
0
11
25
21
24.175
31
0
39
0
210
0
220
0
230
1
0
LINE
5
2BA
100
AcDbEntity
8
SK2
62
256
6
ByLayer
370
13
48
1
60
0
100
AcDbLine
10
42.7625
20
21
30
0
11
10.45
21
21
31
0
39
0
210
0
220
0
230
1
0
LINE
5
2BB
100
AcDbEntity
8
SK2
62
256
6
ByLayer
370
13
48
1
60
0
100
AcDbLine
10
19.2
20
21
30
0
11
16.025002
21
20.582003
31
0
39
0
210
0
220
0
230
1
0
LINE
5
2BC
100
AcDbEntity
8
SK2
62
256
6
ByLayer
370
13
48
1
60
0
100
AcDbLine
10
19.2
20
21
30
0
11
16.024998
21
21.417997
31
0
39
0
210
0
220
0
230
1
0
LINE
5
2BD
100
AcDbEntity
8
SK2
62
256
6
ByLayer
370
13
48
1
60
0
100
AcDbLine
10
16.025002
20
20.582003
30
0
11
16.024998
21
21.417997
31
0
39
0
210
0
220
0
230
1
0
LINE
5
2BE
100
AcDbEntity
8
SK2
62
256
6
ByLayer
370
13
48
1
60
0
100
AcDbLine
10
25
20
21
30
0
11
28.174998
21
21.417997
31
0
39
0
210
0
220
0
230
1
0
LINE
5
2BF
100
AcDbEntity
8
SK2
62
256
6
ByLayer
370
13
48
1
60
0
100
AcDbLine
10
25
20
21
30
0
11
28.175002
21
20.582003
31
0
39
0
210
0
220
0
230
1
0
LINE
5
2C0
100
AcDbEntity
8
SK2
62
256
6
ByLayer
370
13
48
1
60
0
100
AcDbLine
10
28.174998
20
21.417997
30
0
11
28.175002
21
20.582003
31
0
39
0
210
0
220
0
230
1
0
ENDBLK
5
2C2
100
AcDbEntity
8
0
100
AcDbBlockEnd
0
ENDSEC
0
SECTION
2
ENTITIES
0
ARC
5
EF
100
AcDbEntity
8
1
62
256
6
ByLayer
370
18
48
1
60
0
100
AcDbCircle
39
0
10
-10.1
20
10.65
30
0
40
1
210
0
220
0
230
-1
100
AcDbArc
50
256.295054
51
270
0
ARC
5
F0
100
AcDbEntity
8
1
62
256
6
ByLayer
370
18
48
1
60
0
100
AcDbCircle
39
0
10
-10.1
20
-10.65
30
0
40
1
210
0
220
0
230
-1
100
AcDbArc
50
90
51
112.176152
0
ARC
5
F1
100
AcDbEntity
8
SK1
62
256
6
ByLayer
370
18
48
1
60
0
100
AcDbCircle
39
0
10
0.4
20
7.750053
30
0
40
0.4
210
0
220
0
230
-1
100
AcDbArc
50
180
51
267.8
0
ARC
5
F2
100
AcDbEntity
8
SK1
62
256
6
ByLayer
370
18
48
1
60
0
100
AcDbCircle
39
0
10
0.4
20
-7.750053
30
0
40
0.4
210
0
220
0
230
-1
100
AcDbArc
50
92.2
51
180
0
ARC
5
F3
100
AcDbEntity
8
SK1
62
256
6
ByLayer
370
18
48
1
60
0
100
AcDbCircle
39
0
10
16
20
5.1
30
0
40
0.5
210
0
220
0
230
-1
100
AcDbArc
50
180
51
270
0
ARC
5
F4
100
AcDbEntity
8
SK1
62
256
6
ByLayer
370
18
48
1
60
0
100
AcDbCircle
39
0
10
16
20
-5.1
30
0
40
0.5
210
0
220
0
230
-1
100
AcDbArc
50
90
51
180
0
ELLIPSE
5
F5
100
AcDbEntity
8
1
62
256
6
ByLayer
370
18
48
1
60
0
100
AcDbEllipse
10
14.858046
20
7.375506
30
0
11
8.57640192202607
21
-1.73430968165005
31
0
210
0
220
0
230
1
40
0.482137
41
-2.03306009591681
42
-1.66995589308474
0
ELLIPSE
5
F6
100
AcDbEntity
8
1
62
256
6
ByLayer
370
18
48
1
60
0
100
AcDbEllipse
10
20.849251
20
-0.036677
30
0
11
1.56871539114553
21
11.9460360664486
31
0
210
0
220
0
230
-1
40
0.117706
41
1.93559904747016
42
2.02217210084256
0
ELLIPSE
5
F7
100
AcDbEntity
8
1
62
256
6
ByLayer
370
18
48
1
60
0
100
AcDbEllipse
10
20.849251
20
-0.043556
30
0
11
1.85024818192631
21
11.946467564018
31
0
210
0
220
0
230
-1
40
0.084317
41
-0.792835118501018
42
-0.689729647426714
0
ELLIPSE
5
F8
100
AcDbEntity
8
1
62
256
6
ByLayer
370
18
48
1
60
0
100
AcDbEllipse
10
19.502854
20
5.072057
30
0
11
0.764782645628492
21
-0.160155572555964
31
0
210
0
220
0
230
-1
40
0.463142
41
2.12420556210126
42
2.20415752142131
0
ELLIPSE
5
F9
100
AcDbEntity
8
1
62
256
6
ByLayer
370
18
48
1
60
0
100
AcDbEllipse
10
24.266307
20
1.714804
30
0
11
-0.213625802648533
21
0.452066384995356
31
0
210
0
220
0
230
1
40
0.912967
41
2.55116148789521
42
2.58544034012429
0
ELLIPSE
5
FA
100
AcDbEntity
8
1
62
256
6
ByLayer
370
18
48
1
60
0
100
AcDbEllipse
10
14.988282
20
16.76734
30
0
11
6.16931433336712
21
5.09308950010791
31
0
210
0
220
0
230
1
40
0.962082
41
-2.7369293152372
42
-2.69919885329889
0
ELLIPSE
5
FB
100
AcDbEntity
8
1
62
256
6
ByLayer
370
18
48
1
60
0
100
AcDbEllipse
10
22.415077
20
-4.508909
30
0
11
-1
21
1.01063905508236E-15
31
0
210
0
220
0
230
1
40
0.734235
41
2.20416916567123
42
2.96705972839037
0
ELLIPSE
5
FC
100
AcDbEntity
8
1
62
256
6
ByLayer
370
18
48
1
60
0
100
AcDbEllipse
10
18.564785
20
3.173658
30
0
11
0.608074697409459
21
-0.439027518921531
31
0
210
0
220
0
230
1
40
0.283176
41
-2.7914088122784
42
-1.97871541115996
0
ELLIPSE
5
FD
100
AcDbEntity
8
1
62
256
6
ByLayer
370
18
48
1
60
0
100
AcDbEllipse
10
22.415077
20
-10.390559
30
0
11
-1
21
1.01063905508236E-15
31
0
210
0
220
0
230
1
40
0.372459
41
-2.96705972839037
42
-2.20416916567123
0
ELLIPSE
5
FE
100
AcDbEntity
8
1
62
256
6
ByLayer
370
18
48
1
60
0
100
AcDbEllipse
10
18.721585
20
6.39944
30
0
11
8.57640192202616
21
-1.73430968165006
31
0
210
0
220
0
230
1
40
0.482137
41
-1.66995589308474
42
-1.6025670116062
0
ELLIPSE
5
FF
100
AcDbEntity
8
1
62
256
6
ByLayer
370
18
48
1
60
0
100
AcDbEllipse
10
22.606975
20
-10.795911
30
0
11
1.00720001128988
21
0.148481771400957
31
0
210
0
220
0
230
-1
40
0.765223
41
-2.962328274505
42
0.179264379084784
0
ELLIPSE
5
100
100
AcDbEntity
8
1
62
256
6
ByLayer
370
18
48
1
60
0
100
AcDbEllipse
10
13.321034
20
3.770481
30
0
11
-0.183704539107801
21
-0.72715379550083
31
0
210
0
220
0
230
1
40
0.086731
41
-2.63641763114424
42
-1.06562130434937
0
ELLIPSE
5
101
100
AcDbEntity
8
1
62
256
6
ByLayer
370
18
48
1
60
0
100
AcDbEllipse
10
22.707919
20
9.004229
30
0
11
1.0128491414219
21
-0.0332130424074887
31
0
210
0
220
0
230
-1
40
0.216379
41
0.54951714147674
42
3.08080555486348
0
ELLIPSE
5
102
100
AcDbEntity
8
1
62
256
6
ByLayer
370
18
48
1
60
0
100
AcDbEllipse
10
22.88014
20
-0.043381
30
0
11
1.84279062073172
21
11.8983164582001
31
0
210
0
220
0
230
-1
40
0.084317
41
-0.821937962885958
42
-0.691172046166206
0
ELLIPSE
5
103
100
AcDbEntity
8
1
62
256
6
ByLayer
370
18
48
1
60
0
100
AcDbEllipse
10
22.88014
20
-0.036529
30
0
11
1.56239257000064
21
11.8978867383917
31
0
210
0
220
0
230
-1
40
0.117706
41
1.9370414626143
42
2.05127494749114
0
ELLIPSE
5
104
100
AcDbEntity
8
1
62
256
6
ByLayer
370
18
48
1
60
0
100
AcDbEllipse
10
18.205332
20
9.584383
30
0
11
-0.556154431448953
21
-0.459134377370132
31
0
210
0
220
0
230
1
40
0.962082
41
-1.28953489881769
42
-0.366704551740427
0
ELLIPSE
5
105
100
AcDbEntity
8
1
62
256
6
ByLayer
370
18
48
1
60
0
100
AcDbEllipse
10
18.285032
20
3.396729
30
0
11
-0.598438185412716
21
-0.237407969440542
31
0
210
0
220
0
230
1
40
0.58115
41
-1.14878287470157
42
-1.09537752922103
0
ELLIPSE
5
106
100
AcDbEntity
8
1
62
256
6
ByLayer
370
18
48
1
60
0
100
AcDbEllipse
10
12.76829
20
7E-06
30
0
11
67.9077647769467
21
-10.5173940489311
31
0
210
0
220
0
230
-1
40
0.084317
41
-1.50821999076156
42
-1.4921073733823
0
ELLIPSE
5
107
100
AcDbEntity
8
1
62
256
6
ByLayer
370
18
48
1
60
0
100
AcDbEllipse
10
370.117273
20
-0.001963
30
0
11
557.212657413954
21
8.16340057365422
31
0
210
0
220
0
230
-1
40
0.015719
41
2.2527633985557
42
2.25529418915194
0
ELLIPSE
5
108
100
AcDbEntity
8
1
62
256
6
ByLayer
370
18
48
1
60
0
100
AcDbEllipse
10
22.68323
20
-3.392304
30
0
11
0.998534453501095
21
0.189679433299395
31
0
210
0
220
0
230
-1
40
0.900272
41
-2.91536373095867
42
0.226228922631131
0
ELLIPSE
5
109
100
AcDbEntity
8
1
62
256
6
ByLayer
370
18
48
1
60
0
100
AcDbEllipse
10
12.768291
20
-1.2E-05
30
0
11
67.9054411582934
21
-8.9170533638447
31
0
210
0
220
0
230
-1
40
0.117706
41
1.46359377857554
42
1.47970639655061
0
ELLIPSE
5
10A
100
AcDbEntity
8
1
62
256
6
ByLayer
370
18
48
1
60
0
100
AcDbEllipse
10
19.292401
20
5.242908
30
0
11
-0.236356493432372
21
-0.711783399646517
31
0
210
0
220
0
230
1
40
0.712755
41
2.7514010247515
42
2.90117697868287
0
ELLIPSE
5
10B
100
AcDbEntity
8
1
62
256
6
ByLayer
370
18
48
1
60
0
100
AcDbEllipse
10
19.745292
20
5.487285
30
0
11
1.61321582631629
21
1.28003307656832
31
0
210
0
220
0
230
-1
40
0.030419
41
1.91503372730936
42
2.04879027577723
0
ELLIPSE
5
10C
100
AcDbEntity
8
1
62
256
6
ByLayer
370
18
48
1
60
0
100
AcDbEllipse
10
20.461526
20
-7.798202
30
0
11
6.45035208467687
21
9.35077245919202
31
0
210
0
220
0
230
-1
40
0.045488
41
-1.69544723520223
42
-1.62852903775195
0
ELLIPSE
5
10D
100
AcDbEntity
8
1
62
256
6
ByLayer
370
18
48
1
60
0
100
AcDbEllipse
10
18.169581
20
3.687748
30
0
11
0.608074697409459
21
-0.439027518921531
31
0
210
0
220
0
230
1
40
0.283176
41
-3.01834105096226
42
-1.79346075611617
0
ELLIPSE
5
10E
100
AcDbEntity
8
1
62
256
6
ByLayer
370
18
48
1
60
0
100
AcDbEllipse
10
18.745736
20
1.999706
30
0
11
1.23535262489398
21
-0.202486673988242
31
0
210
0
220
0
230
-1
40
0.524673
41
-0.16620380278958
42
1.78068249363591
0
ELLIPSE
5
10F
100
AcDbEntity
8
1
62
256
6
ByLayer
370
18
48
1
60
0
100
AcDbEllipse
10
22.415077
20
-10.390559
30
0
11
-0.903832749441488
21
-0.427885920587492
31
0
210
0
220
0
230
1
40
0.913949
41
2.73323899453078
42
2.80637960749813
0
ELLIPSE
5
110
100
AcDbEntity
8
1
62
256
6
ByLayer
370
18
48
1
60
0
100
AcDbEllipse
10
18.297761
20
9.6177
30
0
11
0.754025113728166
21
0.34405860317559
31
0
210
0
220
0
230
-1
40
0.87366
41
-2.1649117650659
42
-1.73588766731797
0
ELLIPSE
5
111
100
AcDbEntity
8
1
62
256
6
ByLayer
370
18
48
1
60
0
100
AcDbEllipse
10
18.205332
20
3.864543
30
0
11
0.706879786294097
21
-0.142944380204951
31
0
210
0
220
0
230
1
40
0.482137
41
2.62047212835802
42
-1.93608265531693
0
ELLIPSE
5
112
100
AcDbEntity
8
1
62
256
6
ByLayer
370
18
48
1
60
0
100
AcDbEllipse
10
22.88014
20
0.01853
30
0
11
0.802848572998677
21
-11.8985474051938
31
0
210
0
220
0
230
-1
40
0.162919
41
0.079618824310096
42
0.142334746031838
0
ELLIPSE
5
113
100
AcDbEntity
8
1
62
256
6
ByLayer
370
18
48
1
60
0
100
AcDbEllipse
10
14.988282
20
8.019542
30
0
11
7.841281757281
21
-1.58565456608005
31
0
210
0
220
0
230
1
40
0.482137
41
-1.96851494165129
42
-1.66995589308474
0
ELLIPSE
5
114
100
AcDbEntity
8
1
62
256
6
ByLayer
370
18
48
1
60
0
100
AcDbEllipse
10
23.794219
20
5.444149
30
0
11
-0.0812061517605404
21
-0.493361491116041
31
0
210
0
220
0
230
1
40
0.065972
41
2.38469608867124
42
2.45235562968416
0
ELLIPSE
5
115
100
AcDbEntity
8
1
62
256
6
ByLayer
370
18
48
1
60
0
100
AcDbEllipse
10
67.251338
20
-4.449301
30
0
11
529.16581995369
21
7.7514583682586
31
0
210
0
220
0
230
-1
40
0.012885
41
1.65958946057185
42
1.66228401583351
0
ELLIPSE
5
116
100
AcDbEntity
8
1
62
256
6
ByLayer
370
18
48
1
60
0
100
AcDbEllipse
10
18.169581
20
9.627689
30
0
11
-0.0582675510898913
21
-0.747733169312414
31
0
210
0
220
0
230
1
40
0.826381
41
-1.98241863452179
42
-1.12446165016002
0
ELLIPSE
5
117
100
AcDbEntity
8
1
62
256
6
ByLayer
370
18
48
1
60
0
100
AcDbEllipse
10
12.768281
20
-3E-06
30
0
11
67.9120961725268
21
2.63574110446267
31
0
210
0
220
0
230
-1
40
0.172007
41
-1.48848612227749
42
-1.47719647283601
0
ELLIPSE
5
118
100
AcDbEntity
8
1
62
256
6
ByLayer
370
18
48
1
60
0
100
AcDbEllipse
10
22.415077
20
-4.508909
30
0
11
0.972354073419945
21
-0.233511361401552
31
0
210
0
220
0
230
1
40
0.668581
41
0.159201385793095
42
2.64753918439738
0
ELLIPSE
5
119
100
AcDbEntity
8
1
62
256
6
ByLayer
370
18
48
1
60
0
100
AcDbEllipse
10
18.612688
20
3.410544
30
0
11
0.683587223327871
21
-0.138234186136385
31
0
210
0
220
0
230
1
40
0.482137
41
-2.88769561203951
42
-2.30849459272086
0
ELLIPSE
5
11A
100
AcDbEntity
8
1
62
256
6
ByLayer
370
18
48
1
60
0
100
AcDbEllipse
10
19.502854
20
-9.341189
30
0
11
0.761666230589665
21
-0.156151063662097
31
0
210
0
220
0
230
-1
40
0.648641
41
-2.43304702635454
42
-2.35309506184975
0
ELLIPSE
5
11B
100
AcDbEntity
8
1
62
256
6
ByLayer
370
18
48
1
60
0
100
AcDbEllipse
10
19.745292
20
-8.950983
30
0
11
1.56555523837206
21
1.53821933057948
31
0
210
0
220
0
230
-1
40
0.254304
41
-1.77980799736415
42
-1.64605145376522
0
ELLIPSE
5
11C
100
AcDbEntity
8
1
62
256
6
ByLayer
370
18
48
1
60
0
100
AcDbEllipse
10
17.184574
20
2.794415
30
0
11
-0.183704539107801
21
-0.72715379550083
31
0
210
0
220
0
230
1
40
0.086731
41
-2.63641763114422
42
-1.06562130434937
0
ELLIPSE
5
11D
100
AcDbEntity
8
1
62
256
6
ByLayer
370
18
48
1
60
0
100
AcDbEllipse
10
14.858046
20
-12.423772
30
0
11
8.50809814242453
21
-2.04322441226358
31
0
210
0
220
0
230
1
40
0.668581
41
2.17194747250181
42
2.28945145626939
0
ELLIPSE
5
11E
100
AcDbEntity
8
1
62
256
6
ByLayer
370
18
48
1
60
0
100
AcDbEllipse
10
18.478625
20
3.492131
30
0
11
0.588096131796032
21
-0.118924092455995
31
0
210
0
220
0
230
1
40
0.482137
41
-3.0934725585752
42
-2.64487415560514
0
ELLIPSE
5
11F
100
AcDbEntity
8
1
62
256
6
ByLayer
370
18
48
1
60
0
100
AcDbEllipse
10
370.376655
20
0.002547
30
0
11
557.500009127928
21
-5.82450107235761
31
0
210
0
220
0
230
-1
40
0.018776
41
2.25251787206483
42
2.25504772971692
0
ELLIPSE
5
120
100
AcDbEntity
8
1
62
256
6
ByLayer
370
18
48
1
60
0
100
AcDbEllipse
10
18.297761
20
3.865284
30
0
11
0.809703932471626
21
-0.128128322022005
31
0
210
0
220
0
230
-1
40
0.447528
41
-2.61495101167744
42
-2.18592691392105
0
ELLIPSE
5
121
100
AcDbEntity
8
1
62
256
6
ByLayer
370
18
48
1
60
0
100
AcDbEllipse
10
18.482634
20
3.139684
30
0
11
-0.282493745987431
21
0.683085211455808
31
0
210
0
220
0
230
1
40
0.713359
41
0.708972587142477
42
0.81496286986859
0
ELLIPSE
5
122
100
AcDbEntity
8
1
62
256
6
ByLayer
370
18
48
1
60
0
100
AcDbEllipse
10
18.851822
20
7.043476
30
0
11
7.84128175728108
21
-1.58565456608006
31
0
210
0
220
0
230
1
40
0.482137
41
-1.66995589308474
42
-1.56872069678615
0
ELLIPSE
5
123
100
AcDbEntity
8
1
62
256
6
ByLayer
370
18
48
1
60
0
100
AcDbEllipse
10
22.415077
20
-4.508909
30
0
11
-1
21
1.01063905508236E-15
31
0
210
0
220
0
230
1
40
0.734235
41
0.492591599104108
42
0.588357637520052
0
ELLIPSE
5
124
100
AcDbEntity
8
1
62
256
6
ByLayer
370
18
48
1
60
0
100
AcDbEllipse
10
67.116695
20
3.129272
30
0
11
528.40824969642
21
-5.52606109199479
31
0
210
0
220
0
230
-1
40
0.015368
41
1.65911155803948
42
1.66180994568277
0
ELLIPSE
5
125
100
AcDbEntity
8
1
62
256
6
ByLayer
370
18
48
1
60
0
100
AcDbEllipse
10
21.726624
20
3.906539
30
0
11
1.27251797356257
21
-0.257327054129233
31
0
210
0
220
0
230
1
40
0.482137
41
-2.80210382605034
42
-2.7500711458626
0
ELLIPSE
5
126
100
AcDbEntity
8
1
62
256
6
ByLayer
370
18
48
1
60
0
100
AcDbEllipse
10
21.726624
20
3.906539
30
0
11
1.27251797356257
21
-0.257327054129233
31
0
210
0
220
0
230
1
40
0.482137
41
-0.391618972663863
42
-0.339586199617029
0
ELLIPSE
5
127
100
AcDbEntity
8
1
62
256
6
ByLayer
370
18
48
1
60
0
100
AcDbEllipse
10
21.66099
20
10.401927
30
0
11
-0.92539715000508
21
-0.763963425016195
31
0
210
0
220
0
230
1
40
0.962082
41
-0.709170809280548
42
0
0
ELLIPSE
5
128
100
AcDbEntity
8
1
62
256
6
ByLayer
370
18
48
1
60
0
100
AcDbEllipse
10
21.66099
20
10.401927
30
0
11
-0.92539715000508
21
-0.763963425016195
31
0
210
0
220
0
230
1
40
0.962082
41
0
42
0.622962101707629
0
ELLIPSE
5
129
100
AcDbEntity
8
1
62
256
6
ByLayer
370
18
48
1
60
0
100
AcDbEllipse
10
21.66099
20
10.401927
30
0
11
-0.92539715000508
21
-0.763963425016195
31
0
210
0
220
0
230
1
40
0.962082
41
0.886954352487968
42
-0.709170809280557
0
ELLIPSE
5
12A
100
AcDbEntity
8
1
62
256
6
ByLayer
370
18
48
1
60
0
100
AcDbEllipse
10
21.757204
20
10.285382
30
0
11
-0.92539715000508
21
-0.763963425016195
31
0
210
0
220
0
230
1
40
0.962082
41
4.33978700920186E-05
42
0.349447694384352
0
ELLIPSE
5
12B
100
AcDbEntity
8
1
62
256
6
ByLayer
370
18
48
1
60
0
100
AcDbEllipse
10
21.757204
20
10.285382
30
0
11
-0.92539715000508
21
-0.763963425016195
31
0
210
0
220
0
230
1
40
0.962082
41
2.46059741959818
42
3.14153769589107
0
ELLIPSE
5
12C
100
AcDbEntity
8
1
62
256
6
ByLayer
370
18
48
1
60
0
100
AcDbEllipse
10
22.417409
20
10.688365
30
0
11
0.100695453357661
21
-0.170795806358598
31
0
210
0
220
0
230
-1
40
0.515001
41
3.13369157122986
42
-2.32358921068806
0
ELLIPSE
5
12D
100
AcDbEntity
8
1
62
256
6
ByLayer
370
18
48
1
60
0
100
AcDbEllipse
10
21.096998
20
9.8824
30
0
11
0.100695453357661
21
-0.170795806358599
31
0
210
0
220
0
230
-1
40
0.515001
41
1.69750996921547
42
3.1337219474274
0
ELLIPSE
5
12E
100
AcDbEntity
8
1
62
256
6
ByLayer
370
18
48
1
60
0
100
AcDbEllipse
10
22.141476
20
10.960105
30
0
11
0.176493533670298
21
-0.0923350064899028
31
0
210
0
220
0
230
-1
40
0.510264
41
1.58902064054005
42
2.36700196191741
0
ELLIPSE
5
12F
100
AcDbEntity
8
1
62
256
6
ByLayer
370
18
48
1
60
0
100
AcDbEllipse
10
21.757204
20
11.041619
30
0
11
0.202711493219837
21
0.0100715450745011
31
0
210
0
220
0
230
-1
40
0.491464
41
-3.11719471118224
42
-1.14660992989787
0
ELLIPSE
5
130
100
AcDbEntity
8
1
62
256
6
ByLayer
370
18
48
1
60
0
100
AcDbEllipse
10
21.096998
20
10.638637
30
0
11
0.10281886815553
21
0.177219461285638
31
0
210
0
220
0
230
-1
40
0.482273
41
-2.51618903955812
42
-0.0165852395270433
0
ELLIPSE
5
131
100
AcDbEntity
8
1
62
256
6
ByLayer
370
18
48
1
60
0
100
AcDbEllipse
10
21.757204
20
10.285382
30
0
11
-0.523003622611204
21
-0.431766662371653
31
0
210
0
220
0
230
1
40
0.962082
41
1.86359967125124
42
2.31638190007264
0
ELLIPSE
5
132
100
AcDbEntity
8
1
62
256
6
ByLayer
370
18
48
1
60
0
100
AcDbEllipse
10
21.757204
20
10.285382
30
0
11
0.523003622611204
21
0.431766662371653
31
0
210
0
220
0
230
1
40
0.962082
41
2.47036825456335
42
3.13839861074501
0
ELLIPSE
5
133
100
AcDbEntity
8
1
62
256
6
ByLayer
370
18
48
1
60
0
100
AcDbEllipse
10
21.757204
20
10.285382
30
0
11
-0.523003622611204
21
-0.431766662371653
31
0
210
0
220
0
230
1
40
0.962082
41
2.92159585330743
42
-2.76561950141963
0
ELLIPSE
5
134
100
AcDbEntity
8
1
62
256
6
ByLayer
370
18
48
1
60
0
100
AcDbEllipse
10
21.757204
20
10.285382
30
0
11
-0.523003622611204
21
-0.431766662371653
31
0
210
0
220
0
230
1
40
0.962082
41
0.470760258769039
42
1.00843102983984
0
ELLIPSE
5
135
100
AcDbEntity
8
1
62
256
6
ByLayer
370
18
48
1
60
0
100
AcDbEllipse
10
21.66099
20
3.581971
30
0
11
1.17619226359217
21
-0.23784818491201
31
0
210
0
220
0
230
1
40
0.482137
41
0
42
0.407228476906658
0
ELLIPSE
5
136
100
AcDbEntity
8
1
62
256
6
ByLayer
370
18
48
1
60
0
100
AcDbEllipse
10
21.66099
20
3.581971
30
0
11
1.17619226359217
21
-0.23784818491201
31
0
210
0
220
0
230
1
40
0.482137
41
2.73446252110518
42
-7.67570921836984E-16
0
ELLIPSE
5
137
100
AcDbEntity
8
1
62
256
6
ByLayer
370
18
48
1
60
0
100
AcDbEllipse
10
21.757204
20
4.05776
30
0
11
-0.664744660973505
21
0.134423865839438
31
0
210
0
220
0
230
1
40
0.482137
41
0.907491298811934
42
1.14438752575607
0
ELLIPSE
5
138
100
AcDbEntity
8
1
62
256
6
ByLayer
370
18
48
1
60
0
100
AcDbEllipse
10
21.757204
20
4.05776
30
0
11
0.664744660973505
21
-0.134423865839438
31
0
210
0
220
0
230
1
40
0.482137
41
-0.950007576637112
42
-0.893148850601594
0
ELLIPSE
5
139
100
AcDbEntity
8
1
62
256
6
ByLayer
370
18
48
1
60
0
100
AcDbEllipse
10
21.096998
20
3.969777
30
0
11
0.128510079472127
21
-0.0886519584379427
31
0
210
0
220
0
230
-1
40
0.416247
41
0.430470508721974
42
0.986341616804955
0
ELLIPSE
5
13A
100
AcDbEntity
8
1
62
256
6
ByLayer
370
18
48
1
60
0
100
AcDbEllipse
10
21.634303
20
10.434253
30
0
11
1.02985322551625
21
0.850197342216859
31
0
210
0
220
0
230
1
40
0.962082
41
-2.20403124944126
42
-0.709171132118413
0
ELLIPSE
5
13B
100
AcDbEntity
8
1
62
256
6
ByLayer
370
18
48
1
60
0
100
AcDbEllipse
10
21.634303
20
10.434253
30
0
11
1.02985322551625
21
0.850197342216859
31
0
210
0
220
0
230
1
40
0.962082
41
-0.709171132118405
42
0
0
ELLIPSE
5
13C
100
AcDbEntity
8
1
62
256
6
ByLayer
370
18
48
1
60
0
100
AcDbEllipse
10
21.634303
20
10.434253
30
0
11
1.02985322551625
21
0.850197342216859
31
0
210
0
220
0
230
1
40
0.962082
41
0
42
-2.76814409564854
0
ELLIPSE
5
13D
100
AcDbEntity
8
1
62
256
6
ByLayer
370
18
48
1
60
0
100
AcDbEllipse
10
21.726624
20
10.322424
30
0
11
-1.00118368613361
21
-0.826529147971522
31
0
210
0
220
0
230
1
40
0.962082
41
-0.709170998755742
42
0
0
ELLIPSE
5
13E
100
AcDbEntity
8
1
62
256
6
ByLayer
370
18
48
1
60
0
100
AcDbEllipse
10
21.726624
20
10.322424
30
0
11
-1.00118368613361
21
-0.826529147971522
31
0
210
0
220
0
230
1
40
0.962082
41
0
42
0.193396026376455
0
ELLIPSE
5
13F
100
AcDbEntity
8
1
62
256
6
ByLayer
370
18
48
1
60
0
100
AcDbEllipse
10
21.726624
20
10.322424
30
0
11
-1.00118368613361
21
-0.826529147971522
31
0
210
0
220
0
230
1
40
0.962082
41
2.94818061716037
42
-1.96409195612667
0
ELLIPSE
5
140
100
AcDbEntity
8
1
62
256
6
ByLayer
370
18
48
1
60
0
100
AcDbEllipse
10
21.726624
20
10.322424
30
0
11
-1.00118368613361
21
-0.826529147971522
31
0
210
0
220
0
230
1
40
0.962082
41
-1.17761456903306
42
-0.709171786060109
0
ELLIPSE
5
141
100
AcDbEntity
8
1
62
256
6
ByLayer
370
18
48
1
60
0
100
AcDbEllipse
10
21.758816
20
10.28343
30
0
11
-0.938356088648076
21
-0.774661702129134
31
0
210
0
220
0
230
1
40
0.962082
41
-0.170930175953072
42
0
0
ELLIPSE
5
142
100
AcDbEntity
8
1
62
256
6
ByLayer
370
18
48
1
60
0
100
AcDbEllipse
10
21.758816
20
10.28343
30
0
11
-0.938356088648076
21
-0.774661702129134
31
0
210
0
220
0
230
1
40
0.962082
41
0
42
0.321317915238882
0
ELLIPSE
5
143
100
AcDbEntity
8
1
62
256
6
ByLayer
370
18
48
1
60
0
100
AcDbEllipse
10
21.758816
20
10.28343
30
0
11
-0.938356088648076
21
-0.774661702129134
31
0
210
0
220
0
230
1
40
0.962082
41
2.58463925981813
42
-2.97067866750425
0
ELLIPSE
5
144
100
AcDbEntity
8
1
62
256
6
ByLayer
370
18
48
1
60
0
100
AcDbEllipse
10
21.758816
20
10.28343
30
0
11
-0.938356088648076
21
-0.774661702129134
31
0
210
0
220
0
230
1
40
0.962082
41
-0.747117964550232
42
-0.709170994715981
0
ELLIPSE
5
145
100
AcDbEntity
8
1
62
256
6
ByLayer
370
18
48
1
60
0
100
AcDbEllipse
10
22.260783
20
-5.706906
30
0
11
0.875118666077966
21
-0.2101602252614
31
0
210
0
220
0
230
1
40
0.668581
41
2.02397154899133
42
2.59132381019135
0
ELLIPSE
5
146
100
AcDbEntity
8
1
62
256
6
ByLayer
370
18
48
1
60
0
100
AcDbEllipse
10
22.295513
20
-5.56229
30
0
11
-0.680647851393973
21
0.163457952981088
31
0
210
0
220
0
230
1
40
0.668581
41
-2.67300461018188
42
-0.128215814619052
0
ELLIPSE
5
147
100
AcDbEntity
8
1
62
256
6
ByLayer
370
18
48
1
60
0
100
AcDbEllipse
10
21.634303
20
3.449999
30
0
11
-1.30895734494212
21
0.264695779983196
31
0
210
0
220
0
230
1
40
0.482137
41
0
42
6.28318530717959
0
ELLIPSE
5
148
100
AcDbEntity
8
1
62
256
6
ByLayer
370
18
48
1
60
0
100
AcDbEllipse
10
22.141476
20
10.960105
30
0
11
0.17649353367073
21
-0.0923350064901629
31
0
210
0
220
0
230
-1
40
0.510264
41
0.264624693484252
42
1.58902064053973
0
ELLIPSE
5
149
100
AcDbEntity
8
1
62
256
6
ByLayer
370
18
48
1
60
0
100
AcDbEllipse
10
21.372932
20
10.931161
30
0
11
0.175250230449699
21
0.10777530492775
31
0
210
0
220
0
230
-1
40
0.478289
41
0.253377782174152
42
1.57777372923074
0
ELLIPSE
5
14A
100
AcDbEntity
8
1
62
256
6
ByLayer
370
18
48
1
60
0
100
AcDbEllipse
10
20.98866
20
10.256438
30
0
11
0.00252885509898146
21
0.201180407124686
31
0
210
0
220
0
230
-1
40
0.500126
41
0.221271837382126
42
1.545667784438
0
ELLIPSE
5
14B
100
AcDbEntity
8
1
62
256
6
ByLayer
370
18
48
1
60
0
100
AcDbEllipse
10
21.372932
20
10.931161
30
0
11
0.175250230449939
21
0.107775304928195
31
0
210
0
220
0
230
-1
40
0.478289
41
1.57777372923328
42
2.90216967628773
0
ELLIPSE
5
14C
100
AcDbEntity
8
1
62
256
6
ByLayer
370
18
48
1
60
0
100
AcDbEllipse
10
20.98866
20
10.256438
30
0
11
0.00252885509903009
21
0.201180407124257
31
0
210
0
220
0
230
-1
40
0.500126
41
1.54566778443729
42
2.87006373149535
0
ELLIPSE
5
14D
100
AcDbEntity
8
1
62
256
6
ByLayer
370
18
48
1
60
0
100
AcDbEllipse
10
21.757204
20
10.285382
30
0
11
-0.523003622611204
21
-0.431766662371653
31
0
210
0
220
0
230
1
40
0.962082
41
-1.71842195022303
42
-0.671224399026431
0
ELLIPSE
5
14E
100
AcDbEntity
8
1
62
256
6
ByLayer
370
18
48
1
60
0
100
AcDbEllipse
10
21.757204
20
10.285382
30
0
11
-0.523003622611204
21
-0.431766662371653
31
0
210
0
220
0
230
1
40
0.962082
41
-2.76561950141962
42
-1.71842195022303
0
ELLIPSE
5
14F
100
AcDbEntity
8
1
62
256
6
ByLayer
370
18
48
1
60
0
100
AcDbEllipse
10
21.63565
20
10.432622
30
0
11
0.675771268791209
21
0.557884291118077
31
0
210
0
220
0
230
1
40
0.962082
41
2.99396703016164
42
-2.24202072582133
0
ELLIPSE
5
150
100
AcDbEntity
8
1
62
256
6
ByLayer
370
18
48
1
60
0
100
AcDbEllipse
10
21.63565
20
10.432622
30
0
11
0.675771268791209
21
0.557884291118077
31
0
210
0
220
0
230
1
40
0.962082
41
1.94676947896506
42
2.99396703016164
0
ELLIPSE
5
151
100
AcDbEntity
8
1
62
256
6
ByLayer
370
18
48
1
60
0
100
AcDbEllipse
10
21.63565
20
10.432622
30
0
11
0.675771268791209
21
0.557884291118077
31
0
210
0
220
0
230
1
40
0.962082
41
0.899571927768464
42
1.94676947896506
0
ELLIPSE
5
152
100
AcDbEntity
8
1
62
256
6
ByLayer
370
18
48
1
60
0
100
AcDbEllipse
10
21.63565
20
10.432622
30
0
11
0.675771268791209
21
0.557884291118077
31
0
210
0
220
0
230
1
40
0.962082
41
-1.19482317462473
42
-0.147625623428134
0
ELLIPSE
5
153
100
AcDbEntity
8
1
62
256
6
ByLayer
370
18
48
1
60
0
100
AcDbEllipse
10
21.63565
20
10.432622
30
0
11
0.675771268791209
21
0.557884291118077
31
0
210
0
220
0
230
1
40
0.962082
41
-2.24202072582133
42
-1.19482317462473
0
ELLIPSE
5
154
100
AcDbEntity
8
1
62
256
6
ByLayer
370
18
48
1
60
0
100
AcDbEllipse
10
21.63565
20
10.432622
30
0
11
0.675771268791209
21
0.557884291118077
31
0
210
0
220
0
230
1
40
0.962082
41
-0.147625623428134
42
0.899571927768464
0
ELLIPSE
5
155
100
AcDbEntity
8
1
62
256
6
ByLayer
370
18
48
1
60
0
100
AcDbEllipse
10
21.63565
20
10.432622
30
0
11
-0.69404786250381
21
-0.572972568762147
31
0
210
0
220
0
230
1
40
0.962082
41
0
42
6.28318530717959
0
ELLIPSE
5
156
100
AcDbEntity
8
1
62
256
6
ByLayer
370
18
48
1
60
0
100
AcDbEllipse
10
22.141476
20
3.667801
30
0
11
0.182652349615187
21
0.00928336611431399
31
0
210
0
220
0
230
-1
40
0.303324
41
3.12431578943936
42
-1.83447357068351
0
ELLIPSE
5
157
100
AcDbEntity
8
1
62
256
6
ByLayer
370
18
48
1
60
0
100
AcDbEllipse
10
21.372932
20
3.785965
30
0
11
0.181712388873588
21
-0.0699519209670122
31
0
210
0
220
0
230
-1
40
0.267604
41
-1.39435854037425
42
-0.0699625933207754
0
ELLIPSE
5
158
100
AcDbEntity
8
1
62
256
6
ByLayer
370
18
48
1
60
0
100
AcDbEllipse
10
21.757204
20
3.67878
30
0
11
0.202615149101685
21
-0.0331192351815179
31
0
210
0
220
0
230
-1
40
0.240703
41
-0.0393400078118256
42
3.10228302197549
0
ELLIPSE
5
159
100
AcDbEntity
8
1
62
256
6
ByLayer
370
18
48
1
60
0
100
AcDbEllipse
10
21.757204
20
4.05776
30
0
11
0.664744660973505
21
-0.134423865839438
31
0
210
0
220
0
230
1
40
0.482137
41
-1.99720512783371
42
-0.950007576637118
0
ELLIPSE
5
15A
100
AcDbEntity
8
1
62
256
6
ByLayer
370
18
48
1
60
0
100
AcDbEllipse
10
21.372932
20
3.785965
30
0
11
0.181712388873033
21
-0.0699519209670144
31
0
210
0
220
0
230
-1
40
0.267604
41
-2.71875448743425
42
-1.39435854037853
0
ELLIPSE
5
15B
100
AcDbEntity
8
1
62
256
6
ByLayer
370
18
48
1
60
0
100
AcDbEllipse
10
21.63565
20
3.45666
30
0
11
-0.858914400488179
21
0.173688637031996
31
0
210
0
220
0
230
1
40
0.482137
41
0.620788750157771
42
1.66798630135438
0
ELLIPSE
5
15C
100
AcDbEntity
8
1
62
256
6
ByLayer
370
18
48
1
60
0
100
AcDbEllipse
10
21.63565
20
3.45666
30
0
11
-0.858914400488179
21
0.173688637031996
31
0
210
0
220
0
230
1
40
0.482137
41
-0.426408801038816
42
0.620788750157771
0
ELLIPSE
5
15D
100
AcDbEntity
8
1
62
256
6
ByLayer
370
18
48
1
60
0
100
AcDbEllipse
10
21.63565
20
3.45666
30
0
11
-0.858914400488179
21
0.173688637031996
31
0
210
0
220
0
230
1
40
0.482137
41
-1.47360635223541
42
-0.426408801038816
0
ELLIPSE
5
15E
100
AcDbEntity
8
1
62
256
6
ByLayer
370
18
48
1
60
0
100
AcDbEllipse
10
21.63565
20
3.45666
30
0
11
-0.858914400488179
21
0.173688637031996
31
0
210
0
220
0
230
1
40
0.482137
41
2.71518385255098
42
-2.52080390343201
0
ELLIPSE
5
15F
100
AcDbEntity
8
1
62
256
6
ByLayer
370
18
48
1
60
0
100
AcDbEllipse
10
21.63565
20
3.45666
30
0
11
-0.858914400488179
21
0.173688637031996
31
0
210
0
220
0
230
1
40
0.482137
41
1.66798630135438
42
2.71518385255098
0
ELLIPSE
5
160
100
AcDbEntity
8
1
62
256
6
ByLayer
370
18
48
1
60
0
100
AcDbEllipse
10
21.63565
20
3.45666
30
0
11
-0.858914400488179
21
0.173688637031996
31
0
210
0
220
0
230
1
40
0.482137
41
-2.52080390343201
42
-1.47360635223541
0
ELLIPSE
5
161
100
AcDbEntity
8
1
62
256
6
ByLayer
370
18
48
1
60
0
100
AcDbEllipse
10
21.63565
20
3.45666
30
0
11
0.882144197694125
21
-0.178386138684008
31
0
210
0
220
0
230
1
40
0.482137
41
0
42
6.28318530717959
0
POINT
5
6C
100
AcDbEntity
8
81
62
256
6
ByLayer
370
18
48
1
60
0
100
AcDbPoint
10
25
20
12.5
30
0
39
0
210
0
220
0
230
1
50
360
0
POINT
5
6E
100
AcDbEntity
8
80
62
256
6
ByLayer
370
18
48
1
60
0
100
AcDbPoint
10
0
20
0
30
0
39
0
210
0
220
0
230
1
50
360
0
POINT
5
70
100
AcDbEntity
8
2
62
256
6
ByLayer
370
18
48
1
60
0
100
AcDbPoint
10
21.590891
20
10.486839
30
0
39
0
210
0
220
0
230
1
50
360
0
SPLINE
5
162
100
AcDbEntity
8
1
62
256
6
ByLayer
370
18
48
1
60
0
100
AcDbSpline
70
4
71
3
72
11
73
7
40
0
40
0
40
0
40
0
40
0.333118050741685
40
0.612361309246607
40
0.850815851940449
40
1
40
1
40
1
40
1
41
1
10
10.477455388857
20
-9.72397223074967
30
0
41
1
10
10.9463744674719
20
-9.91732470709127
30
0
41
1
10
11.8079375048529
20
-10.2735903434066
30
0
41
1
10
12.9980316008908
20
-10.7862472727735
30
0
41
1
10
13.9385995110518
20
-11.1669042105793
30
0
41
1
10
14.4894136012033
20
-11.3826820774441
30
0
41
1
10
14.7048175308651
20
-11.4546336012386
30
0
0
SPLINE
5
163
100
AcDbEntity
8
1
62
256
6
ByLayer
370
18
48
1
60
0
100
AcDbSpline
70
4
71
3
72
9
73
5
40
0
40
0
40
0
40
0
40
0.519669486248592
40
1
40
1
40
1
40
1
41
1
10
14.827917978278
20
-11.4943526425772
30
0
41
1
10
14.8766522493739
20
-11.509496021236
30
0
41
1
10
14.970816230079
20
-11.5373682212429
30
0
41
1
10
15.065838746774
20
-11.5623677204628
30
0
41
1
10
15.1115989560421
20
-11.5740053412934
30
0
0
SPLINE
5
164
100
AcDbEntity
8
1
62
256
6
ByLayer
370
18
48
1
60
0
100
AcDbSpline
70
4
71
3
72
9
73
5
40
0
40
0
40
0
40
0
40
0.318866334843493
40
1
40
1
40
1
40
1
41
1
10
24.9218984914414
20
3.69277563591143
30
0
41
1
10
24.9288622927663
20
3.71732883146683
30
0
41
1
10
24.9518931027884
20
3.79877778000224
30
0
41
1
10
24.9777804047935
20
3.89315923784665
30
0
41
1
10
24.9970595282228
20
3.96381587818462
30
0
0
SPLINE
5
165
100
AcDbEntity
8
1
62
256
6
ByLayer
370
18
48
1
60
0
100
AcDbSpline
70
4
71
2
72
6
73
3
40
0
40
0
40
0
40
1
40
1
40
1
41
1
10
24.3712051153113
20
-10.8545784122017
30
0
41
1
10
24.5598817291065
20
-10.6246730229376
30
0
41
1
10
24.7480339339558
20
-10.4014882541507
30
0
0
SPLINE
5
166
100
AcDbEntity
8
1
62
256
6
ByLayer
370
18
48
1
60
0
100
AcDbSpline
70
4
71
1
72
4
73
2
40
0
40
0
40
1
40
1
41
1
10
24.7694067758731
20
-10.3732901980375
30
0
41
1
10
24.9176493855356
20
-10.1619923734626
30
0
0
SPLINE
5
167
100
AcDbEntity
8
1
62
256
6
ByLayer
370
18
48
1
60
0
100
AcDbSpline
70
4
71
1
72
4
73
2
40
0
40
0
40
1
40
1
41
1
10
20.8165346414514
20
-7.6916781262768
30
0
41
1
10
20.7838676964771
20
-7.65506537497333
30
0
0
SPLINE
5
168
100
AcDbEntity
8
1
62
256
6
ByLayer
370
18
48
1
60
0
100
AcDbSpline
70
4
71
2
72
6
73
3
40
0
40
0
40
0
40
1
40
1
40
1
41
1
10
24.7826311057559
20
-8.39437163357664
30
0
41
1
10
24.5791306256041
20
-7.66298460402365
30
0
41
1
10
24.3967938394584
20
-6.98629339719383
30
0
0
SPLINE
5
169
100
AcDbEntity
8
1
62
256
6
ByLayer
370
18
48
1
60
0
100
AcDbSpline
70
4
71
3
72
10
73
6
40
0
40
0
40
0
40
0
40
0.272742756561464
40
0.531941402873224
40
1
40
1
40
1
40
1
41
1
10
24.829462666477
20
-8.46581475963796
30
0
41
1
10
24.8126900771933
20
-8.43243466782326
30
0
41
1
10
24.7858142580862
20
-8.37903619524002
30
0
41
1
10
24.7607732772607
20
-8.33039366789887
30
0
41
1
10
24.7555055191883
20
-8.31966957982081
30
0
41
1
10
24.7588255200914
20
-8.325894876392
30
0
0
SPLINE
5
16A
100
AcDbEntity
8
1
62
256
6
ByLayer
370
18
48
1
60
0
100
AcDbSpline
70
4
71
2
72
6
73
3
40
0
40
0
40
0
40
1
40
1
40
1
41
1
10
22.4607189042015
20
4.08019813261095
30
0
41
1
10
22.6895182307568
20
4.04449269728556
30
0
41
1
10
22.9559909242196
20
3.99852578776827
30
0
0
SPLINE
5
16B
100
AcDbEntity
8
1
62
256
6
ByLayer
370
18
48
1
60
0
100
AcDbSpline
70
4
71
1
72
4
73
2
40
0
40
0
40
1
40
1
41
1
10
24.9825539197867
20
3.49162290953757
30
0
41
1
10
24.8277588571221
20
4.03280146729955
30
0
0
SPLINE
5
16C
100
AcDbEntity
8
1
62
256
6
ByLayer
370
18
48
1
60
0
100
AcDbSpline
70
4
71
1
72
4
73
2
40
0
40
0
40
1
40
1
41
1
10
19.234381459812
20
4.97267105274011
30
0
41
1
10
18.7765873120949
20
4.56011785956596
30
0
0
SPLINE
5
16D
100
AcDbEntity
8
1
62
256
6
ByLayer
370
18
48
1
60
0
100
AcDbSpline
70
4
71
2
72
6
73
3
40
0
40
0
40
0
40
1
40
1
40
1
41
1
10
24.8280227995561
20
4.03212872872166
30
0
41
1
10
24.6128291816316
20
4.81678050609361
30
0
41
1
10
24.4011760837852
20
5.60317878774788
30
0
0
SPLINE
5
16E
100
AcDbEntity
8
1
62
256
6
ByLayer
370
18
48
1
60
0
100
AcDbSpline
70
4
71
3
72
8
73
4
40
0
40
0
40
0
40
0
40
1
40
1
40
1
40
1
41
1
10
18.0059458491985
20
3.67267188565859
30
0
41
1
10
17.9736894085056
20
3.65658919893241
30
0
41
1
10
17.9430648476217
20
3.63804363257705
30
0
41
1
10
17.9140479663271
20
3.61675745126595
30
0
0
SPLINE
5
16F
100
AcDbEntity
8
1
62
256
6
ByLayer
370
18
48
1
60
0
100
AcDbSpline
70
4
71
3
72
12
73
8
40
0
40
0
40
0
40
0
40
0.5
40
0.5
40
0.75
40
0.75
40
1
40
1
40
1
40
1
41
1
10
10.477455388857
20
-8.38801647668333
30
0
41
1
10
10.3850045153851
20
-8.14678692882737
30
0
41
1
10
10.3108492968547
20
-7.90196645651497
30
0
41
1
10
10.257741930837
20
-7.50728027403937
30
0
41
1
10
10.249595815148
20
-7.37070883854727
30
0
41
1
10
10.2533250807434
20
-7.08890562130159
30
0
41
1
10
10.2650562245283
20
-6.94448193807492
30
0
41
1
10
10.284766930252
20
-6.7969901900104
30
0
0
SPLINE
5
170
100
AcDbEntity
8
1
62
256
6
ByLayer
370
18
48
1
60
0
100
AcDbSpline
70
4
71
3
72
8
73
4
40
0
40
0
40
0
40
0
40
1
40
1
40
1
40
1
41
1
10
23.785408113565
20
-11.8464383884169
30
0
41
1
10
23.699027830581
20
-11.8485346085359
30
0
41
1
10
23.6126475464474
20
-11.8506307646592
30
0
41
1
10
23.5262672611655
20
-11.8527268568573
30
0
0
SPLINE
5
171
100
AcDbEntity
8
1
62
256
6
ByLayer
370
18
48
1
60
0
100
AcDbSpline
70
4
71
3
72
20
73
16
40
0
40
0
40
0
40
0
40
0.25
40
0.25
40
0.375
40
0.375
40
0.5
40
0.5
40
0.625
40
0.625
40
0.75
40
0.75
40
0.875
40
0.875
40
1
40
1
40
1
40
1
41
1
10
24.3711852350256
20
-3.80005074973431
30
0
41
1
10
24.3711852350255
20
-3.87776195753537
30
0
41
1
10
24.35980633325
20
-3.95647228646936
30
0
41
1
10
24.3250046059154
20
-4.06793646823903
30
0
41
1
10
24.3104478216144
20
-4.10424618158333
30
0
41
1
10
24.2746470307438
20
-4.17495410716927
30
0
41
1
10
24.2531215785339
20
-4.20968719219564
30
0
41
1
10
24.2036805579108
20
-4.27436833927425
30
0
41
1
10
24.1757808074312
20
-4.30449223431773
30
0
41
1
10
24.1125068005206
20
-4.35952853495033
30
0
41
1
10
24.0772809520545
20
-4.38415371775085
30
0
41
1
10
24.0015701742768
20
-4.42476721571009
30
0
41
1
10
23.9600227159061
20
-4.44119977753255
30
0
41
1
10
23.8746973352409
20
-4.46306767550414
30
0
41
1
10
23.8307535361646
20
-4.46880273990291
30
0
41
1
10
23.785408113565
20
-4.46884985707041
30
0
0
SPLINE
5
172
100
AcDbEntity
8
1
62
256
6
ByLayer
370
18
48
1
60
0
100
AcDbSpline
70
4
71
3
72
14
73
10
40
0
40
0
40
0
40
0
40
0.25
40
0.25
40
0.5
40
0.5
40
0.75
40
0.75
40
1
40
1
40
1
40
1
41
1
10
20.8194015621563
20
6.3243140080337
30
0
41
1
10
20.7991694769718
20
6.35697612458853
30
0
41
1
10
20.7751407026623
20
6.388531835272
30
0
41
1
10
20.7214300096724
20
6.44681740903346
30
0
41
1
10
20.6917962866897
20
6.47364687861469
30
0
41
1
10
20.6270417163705
20
6.52280125812138
30
0
41
1
10
20.591618236522
20
6.54524031161154
30
0
41
1
10
20.5174233754401
20
6.58411197160075
30
0
41
1
10
20.4784828763057
20
6.60073458664334
30
0
41
1
10
20.437663127119
20
6.61451478865249
30
0
0
SPLINE
5
173
100
AcDbEntity
8
1
62
256
6
ByLayer
370
18
48
1
60
0
100
AcDbSpline
70
4
71
3
72
19
73
15
40
0
40
0
40
0
40
0
40
0.125
40
0.125
40
0.25
40
0.25
40
0.375
40
0.375
40
0.5
40
0.5
40
0.625
40
0.75
40
0.75
40
1
40
1
40
1
40
1
41
1
10
17.9
20
11.8584865743262
30
0
41
1
10
17.6084670512135
20
11.8513126620043
30
0
41
1
10
17.3182899273247
20
11.8344685372598
30
0
41
1
10
16.7415329628115
20
11.7751232185041
30
0
41
1
10
16.4549753776033
20
11.7324632911623
30
0
41
1
10
15.8859839934863
20
11.6177311653458
30
0
41
1
10
15.6035606309365
20
11.5455845311448
30
0
41
1
10
15.0423681052031
20
11.3752282481418
30
0
41
1
10
14.7633586769888
20
11.2770608552131
30
0
41
1
10
14.2129285273453
20
11.0660479898403
30
0
41
1
10
13.6682649858323
20
10.840164492543
30
0
41
1
10
13.1290615736955
20
10.6002006949406
30
0
41
1
10
12.3215206552832
20
10.236994945249
30
0
41
1
10
11.7846989558958
20
9.9911195607524
30
0
41
1
10
11.2463966674378
20
9.74877564611518
30
0
0
SPLINE
5
174
100
AcDbEntity
8
1
62
256
6
ByLayer
370
18
48
1
60
0
100
AcDbSpline
70
4
71
3
72
14
73
10
40
0
40
0
40
0
40
0
40
0.25
40
0.25
40
0.5
40
0.5
40
0.75
40
0.75
40
1
40
1
40
1
40
1
41
1
10
7.94999999999999
20
-5.08748464371149
30
0
41
1
10
7.94999999999999
20
-5.1199267688547
30
0
41
1
10
7.94703433444789
20
-5.15185476182117
30
0
41
1
10
7.9344267765668
20
-5.21460278201357
30
0
41
1
10
7.92473159456785
20
-5.24574448718226
30
0
41
1
10
7.89589184719313
20
-5.30496450184773
30
0
41
1
10
7.87680172890754
20
-5.33323454629556
30
0
41
1
10
7.82427731362429
20
-5.37900978088237
30
0
41
1
10
7.78873964190632
20
-5.39652666073283
30
0
41
1
10
7.75
20
-5.39652666073283
30
0
0
SPLINE
5
175
100
AcDbEntity
8
1
62
256
6
ByLayer
370
18
48
1
60
0
100
AcDbSpline
70
4
71
3
72
8
73
4
40
0
40
0
40
0
40
0
40
1
40
1
40
1
40
1
41
1
10
23.785408113565
20
-4.46884985707041
30
0
41
1
10
23.7330069406806
20
-4.4689043056718
30
0
41
1
10
23.6806057673732
20
-4.46895872613501
30
0
41
1
10
23.628204593643
20
-4.46901311847896
30
0
0
SPLINE
5
176
100
AcDbEntity
8
1
62
256
6
ByLayer
370
18
48
1
60
0
100
AcDbSpline
70
4
71
3
72
8
73
4
40
0
40
0
40
0
40
0
40
1
40
1
40
1
40
1
41
1
10
18.9938568603559
20
4.89221696213389
30
0
41
1
10
18.9927074880568
20
4.88859452445666
30
0
41
1
10
18.9915629588714
20
4.88496999705853
30
0
41
1
10
18.9904233681398
20
4.88134337369297
30
0
0
SPLINE
5
177
100
AcDbEntity
8
1
62
256
6
ByLayer
370
18
48
1
60
0
100
AcDbSpline
70
4
71
3
72
8
73
4
40
0
40
0
40
0
40
0
40
1
40
1
40
1
40
1
41
1
10
18.6338506049635
20
2.73165935988206
30
0
41
1
10
18.6638560954048
20
2.73494414948919
30
0
41
1
10
18.6938452735331
20
2.7378733835389
30
0
41
1
10
18.7238232939911
20
2.74040436627141
30
0
0
SPLINE
5
178
100
AcDbEntity
8
1
62
256
6
ByLayer
370
18
48
1
60
0
100
AcDbSpline
70
4
71
3
72
14
73
10
40
0
40
0
40
0
40
0
40
0.110584213121092
40
0.110584213121092
40
0.407056142080728
40
0.407056142080728
40
0.703528071040364
40
0.703528071040364
40
1
40
1
40
1
40
1
41
1
10
19.6590413045569
20
2.58253645873793
30
0
41
1
10
19.6818325499875
20
2.56505168400247
30
0
41
1
10
19.7031713938102
20
2.54613219663065
30
0
41
1
10
19.7767308393637
20
2.47138615407152
30
0
41
1
10
19.8209305979178
20
2.4058634418482
30
0
41
1
10
19.8906328481079
20
2.26741989016531
30
0
41
1
10
19.9171891803209
20
2.19319213860618
30
0
41
1
10
19.9574191016344
20
2.0479317004019
30
0
41
1
10
19.9715807813014
20
1.97519092104835
30
0
41
1
10
19.981641342877
20
1.90724002755249
30
0
0
SPLINE
5
179
100
AcDbEntity
8
1
62
256
6
ByLayer
370
18
48
1
60
0
100
AcDbSpline
70
4
71
3
72
12
73
8
40
0
40
0
40
0
40
0
40
0.5
40
0.5
40
0.75
40
0.75
40
1
40
1
40
1
40
1
41
1
10
10.4774553888571
20
9.69371416831541
30
0
41
1
10
10.6188042147576
20
9.70142267593133
30
0
41
1
10
10.8353234147994
20
9.68098884849988
30
0
41
1
10
11.2800242979474
20
9.64473405070876
30
0
41
1
10
11.4494669694332
20
9.63176321668976
30
0
41
1
10
11.8222872979593
20
9.61187366825311
30
0
41
1
10
12.0259818488734
20
9.60490544293893
30
0
41
1
10
12.2470300554872
20
9.60435579211017
30
0
0
SPLINE
5
17A
100
AcDbEntity
8
1
62
256
6
ByLayer
370
18
48
1
60
0
100
AcDbSpline
70
4
71
3
72
8
73
4
40
0
40
0
40
0
40
0
40
1
40
1
40
1
40
1
41
1
10
19.0061426759994
20
-8.86528049735895
30
0
41
1
10
19.0019630477863
20
-8.87459335776063
30
0
41
1
10
18.997867018819
20
-8.8838850594918
30
0
41
1
10
18.9938568603558
20
-8.89315816665277
30
0
0
SPLINE
5
17B
100
AcDbEntity
8
1
62
256
6
ByLayer
370
18
48
1
60
0
100
AcDbSpline
70
4
71
3
72
8
73
4
40
0
40
0
40
0
40
0
40
1
40
1
40
1
40
1
41
1
10
21.6031814135221
20
-4.47110113171351
30
0
41
1
10
21.2146753410237
20
-4.47149905239831
30
0
41
1
10
20.8261692455088
20
-4.47189544066057
30
0
41
1
10
20.4376631271144
20
-4.47229030404938
30
0
0
SPLINE
5
17C
100
AcDbEntity
8
1
62
256
6
ByLayer
370
18
48
1
60
0
100
AcDbSpline
70
4
71
3
72
16
73
12
40
0
40
0
40
0
40
0
40
0.25
40
0.25
40
0.499999999999999
40
0.499999999999999
40
0.749999999999999
40
0.749999999999999
40
0.874999999999999
40
0.874999999999999
40
1
40
1
40
1
40
1
41
1
10
2.05000000000001
20
5.08748464371146
30
0
41
1
10
2.05000000000001
20
5.11961835364281
30
0
41
1
10
2.05290172546108
20
5.15154885864479
30
0
41
1
10
2.06565029296741
20
5.21497401793735
30
0
41
1
10
2.07535568614668
20
5.2459721738885
30
0
41
1
10
2.10420350532416
20
5.30511152929711
30
0
41
1
10
2.12313555385464
20
5.33322222444886
30
0
41
1
10
2.16282692022651
20
5.367749738067
30
0
41
1
10
2.17796803618546
20
5.37782801094284
30
0
41
1
10
2.21195483140269
20
5.3922946119925
30
0
41
1
10
2.23101115419934
20
5.39652666073283
30
0
41
1
10
2.25
20
5.39652666073283
30
0
0
SPLINE
5
17D
100
AcDbEntity
8
1
62
256
6
ByLayer
370
18
48
1
60
0
100
AcDbSpline
70
4
71
3
72
10
73
6
40
0
40
0
40
0
40
0
40
0.987719190569254
40
0.987719190569254
40
1
40
1
40
1
40
1
41
1
10
11.2463966674378
20
9.74877564611518
30
0
41
1
10
11.1786425411699
20
9.71827271022829
30
0
41
1
10
11.1108013106278
20
9.68939766217315
30
0
41
1
10
11.0420094486974
20
9.66192122419062
30
0
41
1
10
11.0411644908703
20
9.6615840181839
30
0
41
1
10
11.0403194005821
20
9.66124704159105
30
0
0
SPLINE
5
17E
100
AcDbEntity
8
1
62
256
6
ByLayer
370
18
48
1
60
0
100
AcDbSpline
70
4
71
3
72
8
73
4
40
0
40
0
40
0
40
0
40
1
40
1
40
1
40
1
41
1
10
24.1376062060173
20
1.18045249231687
30
0
41
1
10
24.1272908067751
20
1.17515079610845
30
0
41
1
10
24.1182585405029
20
1.16969159220423
30
0
41
1
10
24.1104967431402
20
1.16412486107566
30
0
0
SPLINE
5
17F
100
AcDbEntity
8
1
62
256
6
ByLayer
370
18
48
1
60
0
100
AcDbSpline
70
4
71
3
72
14
73
10
40
0
40
0
40
0
40
0
40
0.499999999999999
40
0.499999999999999
40
0.624999999999999
40
0.624999999999999
40
0.749999999999999
40
0.749999999999999
40
1
40
1
40
1
40
1
41
1
10
10.477455388857
20
2.09783384377008
30
0
41
1
10
10.3849425170087
20
2.49285819698525
30
0
41
1
10
10.3107514929745
20
2.88914470968203
30
0
41
1
10
10.2665286370878
20
3.38213219574797
30
0
41
1
10
10.2600427652268
20
3.48060998762387
30
0
41
1
10
10.2520350751943
20
3.67724695202011
30
0
41
1
10
10.2505201093441
20
3.7756413255554
30
0
41
1
10
10.2533742515271
20
4.0681395217612
30
0
41
1
10
10.2651303559559
20
4.25955007253052
30
0
41
1
10
10.284766930252
20
4.44795339470613
30
0
0
SPLINE
5
180
100
AcDbEntity
8
1
62
256
6
ByLayer
370
18
48
1
60
0
100
AcDbSpline
70
4
71
3
72
8
73
4
40
0
40
0
40
0
40
0
40
1
40
1
40
1
40
1
41
1
10
10.477455388857
20
9.69371416831541
30
0
41
1
10
10.4206074830698
20
9.69061394790739
30
0
41
1
10
10.3706777896058
20
9.68643534717086
30
0
41
1
10
10.3324207310103
20
9.67729944234364
30
0
0
SPLINE
5
181
100
AcDbEntity
8
1
62
256
6
ByLayer
370
18
48
1
60
0
100
AcDbSpline
70
4
71
3
72
14
73
10
40
0
40
0
40
0
40
0
40
0.25
40
0.25
40
0.5
40
0.5
40
0.75
40
0.75
40
1
40
1
40
1
40
1
41
1
10
10.284766930252
20
-6.7969901900104
30
0
41
1
10
10.288113522401
20
-6.77194822890425
30
0
41
1
10
10.2954823880105
20
-6.7474558767349
30
0
41
1
10
10.3177351251784
20
-6.70071756979488
30
0
41
1
10
10.3322682167323
20
-6.67905176044971
30
0
41
1
10
10.3666822318755
20
-6.63911116651485
30
0
41
1
10
10.3866606663549
20
-6.6208099906776
30
0
41
1
10
10.4297581049565
20
-6.58861662269814
30
0
41
1
10
10.4529812313102
20
-6.57457972944454
30
0
41
1
10
10.4774553888519
20
-6.56264499217693
30
0
0
SPLINE
5
182
100
AcDbEntity
8
1
62
256
6
ByLayer
370
18
48
1
60
0
100
AcDbSpline
70
4
71
3
72
8
73
4
40
0
40
0
40
0
40
0
40
1
40
1
40
1
40
1
41
1
10
17.2125350515179
20
-4.38729099974097
30
0
41
1
10
17.4407770520714
20
-4.40850016246037
30
0
41
1
10
17.6700048918877
20
-4.42111523677673
30
0
41
1
10
17.9
20
-4.4270416227705
30
0
0
SPLINE
5
183
100
AcDbEntity
8
1
62
256
6
ByLayer
370
18
48
1
60
0
100
AcDbSpline
70
4
71
3
72
10
73
6
40
0
40
0
40
0
40
0
40
0.5
40
0.5
40
1
40
1
40
1
40
1
41
1
10
17.9509636875975
20
3.52696655669825
30
0
41
1
10
17.9596717559525
20
3.55495688037536
30
0
41
1
10
17.9680198025486
20
3.5809629227038
30
0
41
1
10
17.9859387284222
20
3.62957762508637
30
0
41
1
10
17.995524018057
20
3.65221542635274
30
0
41
1
10
18.0059458491984
20
3.67267188565876
30
0
0
SPLINE
5
184
100
AcDbEntity
8
1
62
256
6
ByLayer
370
18
48
1
60
0
100
AcDbSpline
70
4
71
3
72
14
73
10
40
0
40
0
40
0
40
0
40
0.25
40
0.25
40
0.5
40
0.5
40
0.75
40
0.75
40
1
40
1
40
1
40
1
41
1
10
20.8194015621563
20
-7.69790724754037
30
0
41
1
10
20.7991694769718
20
-7.66900271351915
30
0
41
1
10
20.7751407026623
20
-7.64098615459295
30
0
41
1
10
20.7214300096724
20
-7.58917370229156
30
0
41
1
10
20.6917962866897
20
-7.56529127652206
30
0
41
1
10
20.6270417163705
20
-7.52160346890125
30
0
41
1
10
20.5916182365219
20
-7.50169821570182
30
0
41
1
10
20.51742337544
20
-7.46743307558123
30
0
41
1
10
20.4784828763057
20
-7.45290307990842
30
0
41
1
10
20.437663127119
20
-7.44106012792852
30
0
0
SPLINE
5
185
100
AcDbEntity
8
1
62
256
6
ByLayer
370
18
48
1
60
0
100
AcDbSpline
70
4
71
3
72
40
73
36
40
0
40
0
40
0
40
0
40
0.0625000000000019
40
0.0625000000000019
40
0.125000000000004
40
0.125000000000004
40
0.187500000000006
40
0.187500000000006
40
0.250000000000008
40
0.250000000000008
40
0.31250000000001
40
0.31250000000001
40
0.375000000000011
40
0.375000000000011
40
0.437500000000013
40
0.437500000000013
40
0.468750000000013
40
0.468750000000013
40
0.500000000000012
40
0.500000000000012
40
0.562500000000011
40
0.562500000000011
40
0.625000000000009
40
0.625000000000009
40
0.687500000000008
40
0.687500000000008
40
0.750000000000006
40
0.750000000000006
40
0.812500000000005
40
0.812500000000005
40
0.875000000000003
40
0.875000000000003
40
0.937500000000002
40
0.937500000000002
40
1
40
1
40
1
40
1
41
1
10
23.006943653328
20
-5.10072895429909
30
0
41
1
10
23.0251026174448
20
-5.12913654117722
30
0
41
1
10
23.0359558198532
20
-5.16218656207147
30
0
41
1
10
23.0407170134492
20
-5.24173631704534
30
0
41
1
10
23.0344276824647
20
-5.28577887685117
30
0
41
1
10
23.0061374146538
20
-5.38021943603178
30
0
41
1
10
22.9849163097846
20
-5.428160705876
30
0
41
1
10
22.9310575616102
20
-5.52257588937374
30
0
41
1
10
22.8983538482323
20
-5.56886013176171
30
0
41
1
10
22.8247153590506
20
-5.65436526612001
30
0
41
1
10
22.7832918934925
20
-5.6943112696699
30
0
41
1
10
22.6912702046055
20
-5.76576658244139
30
0
41
1
10
22.6420547399049
20
-5.79624362373377
30
0
41
1
10
22.5366805276513
20
-5.84499040182723
30
0
41
1
10
22.4794674891048
20
-5.86338688474842
30
0
41
1
10
22.3921089727779
20
-5.87818008215987
30
0
41
1
10
22.3627085108105
20
-5.88105109417128
30
0
41
1
10
22.3033261482983
20
-5.88245326068883
30
0
41
1
10
22.273100333045
20
-5.88093383624891
30
0
41
1
10
22.1842176279031
20
-5.8697356591
30
0
41
1
10
22.1266189746061
20
-5.85355580535634
30
0
41
1
10
22.0159603229354
20
-5.80485396298218
30
0
41
1
10
21.9649797968135
20
-5.77334652398199
30
0
41
1
10
21.8703677012397
20
-5.69819654776182
30
0
41
1
10
21.8279124203744
20
-5.65540011339516
30
0
41
1
10
21.7521748548085
20
-5.56274378376324
30
0
41
1
10
21.7187271877234
20
-5.51253423703619
30
0
41
1
10
21.6617117679336
20
-5.40980317447884
30
0
41
1
10
21.6375983941284
20
-5.35642357005383
30
0
41
1
10
21.5985510495083
20
-5.2494174412798
30
0
41
1
10
21.5838935125726
20
-5.19679005833919
30
0
41
1
10
21.5645652682983
20
-5.09611869497596
30
0
41
1
10
21.5603617316284
20
-5.05036606022242
30
0
41
1
10
21.5635006777906
20
-4.97169155664554
30
0
41
1
10
21.5707023523249
20
-4.94087923044029
30
0
41
1
10
21.5832236005362
20
-4.91640636348598
30
0
0
SPLINE
5
186
100
AcDbEntity
8
1
62
256
6
ByLayer
370
18
48
1
60
0
100
AcDbSpline
70
4
71
3
72
14
73
10
40
0
40
0
40
0
40
0
40
0.25
40
0.25
40
0.5
40
0.5
40
0.75
40
0.75
40
1
40
1
40
1
40
1
41
1
10
24.3676679530038
20
-7.75719713213812
30
0
41
1
10
24.3605962437038
20
-7.80156731042072
30
0
41
1
10
24.3433622406972
20
-7.8424743823351
30
0
41
1
10
24.2887535975533
20
-7.91706808564336
30
0
41
1
10
24.2527359199895
20
-7.94882474075334
30
0
41
1
10
24.1640706425084
20
-8.00095273348822
30
0
41
1
10
24.1133126559595
20
-8.02016449730451
30
0
41
1
10
24.000480777457
20
-8.04497168173395
30
0
41
1
10
23.9402960483163
20
-8.05011503843153
30
0
41
1
10
23.8775872785937
20
-8.04827936668656
30
0
0
SPLINE
5
187
100
AcDbEntity
8
1
62
256
6
ByLayer
370
18
48
1
60
0
100
AcDbSpline
70
4
71
3
72
8
73
4
40
0
40
0
40
0
40
0
40
1
40
1
40
1
40
1
41
1
10
24.3711852350256
20
-7.71305175405212
30
0
41
1
10
24.3711852350256
20
-7.72777484240751
30
0
41
1
10
24.3700129431492
20
-7.742483909886
30
0
41
1
10
24.367667953008
20
-7.75719713213809
30
0
0
SPLINE
5
188
100
AcDbEntity
8
1
62
256
6
ByLayer
370
18
48
1
60
0
100
AcDbSpline
70
4
71
3
72
19
73
15
40
0
40
0
40
0
40
0
40
0.124999999999999
40
0.124999999999999
40
0.249999999999998
40
0.249999999999998
40
0.374999999999998
40
0.374999999999998
40
0.499999999999999
40
0.499999999999999
40
0.624999999999999
40
0.749999999999999
40
0.749999999999999
40
1
40
1
40
1
40
1
41
1
10
17.9
20
-8.77090775897969
30
0
41
1
10
17.6084670512135
20
-8.73580889860864
30
0
41
1
10
17.3182899273246
20
-8.69412995229862
30
0
41
1
10
16.7415329628115
20
-8.59331373370406
30
0
41
1
10
16.4549753776033
20
-8.53406845149061
30
0
41
1
10
15.8859839934862
20
-8.39556433790293
30
0
41
1
10
15.6035606309364
20
-8.31625485681658
30
0
41
1
10
15.0423681052031
20
-8.13990134359071
30
0
41
1
10
14.7633586769888
20
-8.04286185854653
30
0
41
1
10
14.2129285273453
20
-7.83936649530634
30
0
41
1
10
13.6682649858322
20
-7.62613271710126
30
0
41
1
10
13.1290615736955
20
-7.40367809287591
30
0
41
1
10
12.3215206552832
20
-7.06786122697415
30
0
41
1
10
11.7846989558958
20
-6.84154447122754
30
0
41
1
10
11.2463966674378
20
-6.61752890930958
30
0
0
SPLINE
5
189
100
AcDbEntity
8
1
62
256
6
ByLayer
370
18
48
1
60
0
100
AcDbSpline
70
4
71
3
72
8
73
4
40
0
40
0
40
0
40
0
40
1
40
1
40
1
40
1
41
1
10
24.1376062060222
20
1.18045249231636
30
0
41
1
10
24.1683537443728
20
1.19625547809181
30
0
41
1
10
24.1991025642886
20
1.21207294679647
30
0
41
1
10
24.2298525684504
20
1.22790490068647
30
0
0
SPLINE
5
18A
100
AcDbEntity
8
1
62
256
6
ByLayer
370
18
48
1
60
0
100
AcDbSpline
70
4
71
3
72
8
73
4
40
0
40
0
40
0
40
0
40
1
40
1
40
1
40
1
41
1
10
17.2125350515179
20
-11.9319351783254
30
0
41
1
10
17.4407770520714
20
-11.9443537590376
30
0
41
1
10
17.6700048918877
20
-11.9495532824044
30
0
41
1
10
17.9
20
-11.949134289612
30
0
0
SPLINE
5
18B
100
AcDbEntity
8
1
62
256
6
ByLayer
370
18
48
1
60
0
100
AcDbSpline
70
4
71
3
72
20
73
16
40
0
40
0
40
0
40
0
40
0.249999999999996
40
0.249999999999996
40
0.374999999999997
40
0.374999999999997
40
0.499999999999998
40
0.499999999999998
40
0.624999999999998
40
0.624999999999998
40
0.749999999999999
40
0.749999999999999
40
0.874999999999999
40
0.874999999999999
40
1
40
1
40
1
40
1
41
1
10
24.3711852350256
20
9.04592261148332
30
0
41
1
10
24.3711852350255
20
9.0645883544496
30
0
41
1
10
24.35980633325
20
9.08376170740814
30
0
41
1
10
24.3250046059154
20
9.11135322548259
30
0
41
1
10
24.3104478216144
20
9.12041696003652
30
0
41
1
10
24.2746470307438
20
9.1382425795023
30
0
41
1
10
24.253121578534
20
9.14709151824221
30
0
41
1
10
24.2036805579108
20
9.16379035639338
30
0
41
1
10
24.1757808074312
20
9.17168211775063
30
0
41
1
10
24.1125068005207
20
9.18638967100136
30
0
41
1
10
24.0772809520546
20
9.19313298329075
30
0
41
1
10
24.0015701742768
20
9.20466877818109
30
0
41
1
10
23.9600227159061
20
9.2095929563084
30
0
41
1
10
23.874697335241
20
9.21685230782958
30
0
41
1
10
23.8307535361647
20
9.21926337542035
30
0
41
1
10
23.785408113565
20
9.22034119953372
30
0
0
SPLINE
5
18C
100
AcDbEntity
8
1
62
256
6
ByLayer
370
18
48
1
60
0
100
AcDbSpline
70
4
71
3
72
8
73
4
40
0
40
0
40
0
40
0
40
1
40
1
40
1
40
1
41
1
10
24.3093219381274
20
-2.35757165002252
30
0
41
1
10
24.3506031538017
20
-2.50323229869969
30
0
41
1
10
24.3711852350256
20
-2.6500347113637
30
0
41
1
10
24.3711852350256
20
-2.79797243136008
30
0
0
SPLINE
5
18D
100
AcDbEntity
8
1
62
256
6
ByLayer
370
18
48
1
60
0
100
AcDbSpline
70
4
71
3
72
10
73
6
40
0
40
0
40
0
40
0
40
0.5
40
0.5
40
1
40
1
40
1
40
1
41
1
10
19.4479656769812
20
-8.04951270317707
30
0
41
1
10
19.3649195044433
20
-8.18931276661814
30
0
41
1
10
19.2850986338674
20
-8.32690710113599
30
0
41
1
10
19.1357033550357
20
-8.59841268640938
30
0
41
1
10
19.065840915226
20
-8.7322635542734
30
0
41
1
10
19.0061426759994
20
-8.86528049735895
30
0
0
SPLINE
5
18E
100
AcDbEntity
8
1
62
256
6
ByLayer
370
18
48
1
60
0
100
AcDbSpline
70
4
71
3
72
8
73
4
40
0
40
0
40
0
40
0
40
1
40
1
40
1
40
1
41
1
10
24.3093219381274
20
-10.0663673850734
30
0
41
1
10
24.3503789203852
20
-10.186708661965
30
0
41
1
10
24.3711852350256
20
-10.3091258080631
30
0
41
1
10
24.3711852350256
20
-10.4336757820108
30
0
0
SPLINE
5
18F
100
AcDbEntity
8
1
62
256
6
ByLayer
370
18
48
1
60
0
100
AcDbSpline
70
4
71
3
72
19
73
15
40
0
40
0
40
0
40
0
40
0.124999999999999
40
0.124999999999999
40
0.249999999999998
40
0.249999999999998
40
0.374999999999998
40
0.374999999999998
40
0.499999999999999
40
0.499999999999999
40
0.624999999999999
40
0.749999999999999
40
0.749999999999999
40
1
40
1
40
1
40
1
41
1
10
17.9
20
5.05689266130196
30
0
41
1
10
17.6084670512135
20
5.10362304993524
30
0
41
1
10
17.3182899273247
20
5.14527327130713
30
0
41
1
10
16.7415329628115
20
5.21509498187666
30
0
41
1
10
16.4549753776033
20
5.24318308181316
30
0
41
1
10
15.8859839934862
20
5.28390778482517
30
0
41
1
10
15.6035606309364
20
5.29650528369876
30
0
41
1
10
15.0423681052031
20
5.30800828919965
30
0
41
1
10
14.7633586769888
20
5.30697644734317
30
0
41
1
10
14.2129285273453
20
5.29624701580113
30
0
41
1
10
13.6682649858323
20
5.27706987845616
30
0
41
1
10
13.1290615736955
20
5.2498940067469
30
0
41
1
10
12.3215206552832
20
5.20727822872075
30
0
41
1
10
11.7846989558958
20
5.17672869060786
30
0
41
1
10
11.2463966674378
20
5.14820449429234
30
0
0
SPLINE
5
190
100
AcDbEntity
8
1
62
256
6
ByLayer
370
18
48
1
60
0
100
AcDbSpline
70
4
71
3
72
8
73
4
40
0
40
0
40
0
40
0
40
1
40
1
40
1
40
1
41
1
10
19.0061426759994
20
-11.9470110380155
30
0
41
1
10
19.0020472236599
20
-11.947066187952
30
0
41
1
10
18.9979516956338
20
-11.9470976237701
30
0
41
1
10
18.9938568603559
20
-11.9471053543116
30
0
0
SPLINE
5
191
100
AcDbEntity
8
1
62
256
6
ByLayer
370
18
48
1
60
0
100
AcDbSpline
70
4
71
3
72
10
73
6
40
0
40
0
40
0
40
0
40
0.5
40
0.5
40
1
40
1
40
1
40
1
41
1
10
15.7453114752473
20
9.42994866226175
30
0
41
1
10
15.9751457799974
20
9.40617283746246
30
0
41
1
10
16.2122305616618
20
9.38780255512697
30
0
41
1
10
16.7012752596741
20
9.36254141646799
30
0
41
1
10
16.9532313681233
20
9.35565384294858
30
0
41
1
10
17.2125350515179
20
9.35534271702295
30
0
0
SPLINE
5
192
100
AcDbEntity
8
1
62
256
6
ByLayer
370
18
48
1
60
0
100
AcDbSpline
70
4
71
3
72
8
73
4
40
0
40
0
40
0
40
0
40
1
40
1
40
1
40
1
41
1
10
20.4376631271144
20
9.29990524531644
30
0
41
1
10
20.4338570638147
20
9.29999569161035
30
0
41
1
10
20.4300505312917
20
9.30008028017193
30
0
41
1
10
20.4262441451921
20
9.30015899926784
30
0
0
SPLINE
5
193
100
AcDbEntity
8
1
62
256
6
ByLayer
370
18
48
1
60
0
100
AcDbSpline
70
4
71
3
72
12
73
8
40
0
40
0
40
0
40
0
40
0.5
40
0.5
40
0.75
40
0.75
40
1
40
1
40
1
40
1
41
1
10
10.477455388857
20
-8.38801647668333
30
0
41
1
10
10.6188042147576
20
-8.75683412092414
30
0
41
1
10
10.8353234147994
20
-9.08480681027683
30
0
41
1
10
11.2800242979474
20
-9.54438964098608
30
0
41
1
10
11.4494669694332
20
-9.69296261524553
30
0
41
1
10
11.8222872979593
20
-9.97869191299117
30
0
41
1
10
12.0259818488734
20
-10.1165088656029
30
0
41
1
10
12.2470300554872
20
-10.2521278531019
30
0
0
SPLINE
5
194
100
AcDbEntity
8
1
62
256
6
ByLayer
370
18
48
1
60
0
100
AcDbSpline
70
4
71
3
72
14
73
10
40
0
40
0
40
0
40
0
40
0.25
40
0.25
40
0.5
40
0.5
40
0.75
40
0.75
40
1
40
1
40
1
40
1
41
1
10
12.2470300554872
20
-1.16601925054766
30
0
41
1
10
12.5036816209143
20
-1.43023100216422
30
0
41
1
10
12.767927313451
20
-1.68800461692192
30
0
41
1
10
13.3114142518187
20
-2.19083894039937
30
0
41
1
10
13.590592723272
20
-2.43595286788005
30
0
41
1
10
14.1678963298407
20
-2.91011815081504
30
0
41
1
10
14.4660355054189
20
-3.13929014475801
30
0
41
1
10
15.0913249697704
20
-3.57250624442361
30
0
41
1
10
15.4126031846591
20
-3.77185030477159
30
0
41
1
10
15.7453114752473
20
-3.94833815364069
30
0
0
SPLINE
5
195
100
AcDbEntity
8
1
62
256
6
ByLayer
370
18
48
1
60
0
100
AcDbSpline
70
4
71
3
72
8
73
4
40
0
40
0
40
0
40
0
40
1
40
1
40
1
40
1
41
1
10
24.1376062060219
20
-1.73303877436041
30
0
41
1
10
24.0942196801967
20
-1.56998486042889
30
0
41
1
10
24.0757429091237
20
-1.40584183755584
30
0
41
1
10
24.0757429091237
20
-1.24089096985313
30
0
0
SPLINE
5
196
100
AcDbEntity
8
1
62
256
6
ByLayer
370
18
48
1
60
0
100
AcDbSpline
70
4
71
3
72
14
73
10
40
0
40
0
40
0
40
0
40
0.25
40
0.25
40
0.5
40
0.5
40
0.75
40
0.75
40
1
40
1
40
1
40
1
41
1
10
19.6646993714001
20
-8.04482391532926
30
0
41
1
10
19.6387136940376
20
-8.04387418501321
30
0
41
1
10
19.6143144246978
20
-8.04360443330958
30
0
41
1
10
19.5689666526891
20
-8.04395872953901
30
0
41
1
10
19.5479684073423
20
-8.04459698177811
30
0
41
1
10
19.511068617235
20
-8.04621501638741
30
0
41
1
10
19.4949616955216
20
-8.04719904524808
30
0
41
1
10
19.4675772187977
20
-8.04884004616059
30
0
41
1
10
19.4563397611186
20
-8.04949290009381
30
0
41
1
10
19.4479656769756
20
-8.04951270318151
30
0
0
SPLINE
5
197
100
AcDbEntity
8
1
62
256
6
ByLayer
370
18
48
1
60
0
100
AcDbSpline
70
4
71
3
72
16
73
12
40
0
40
0
40
0
40
0
40
0.125000000000003
40
0.125000000000003
40
0.25
40
0.25
40
0.5
40
0.5
40
0.75
40
0.75
40
1
40
1
40
1
40
1
41
1
10
7.75
20
5.3965266607328
30
0
41
1
10
7.76899327750527
20
5.3965266607328
30
0
41
1
10
7.78808350696022
20
5.39230393266541
30
0
41
1
10
7.82235094195158
20
5.37766632850887
30
0
41
1
10
7.8372754573794
20
5.36767801477865
30
0
41
1
10
7.87699413702296
20
5.33307451659152
30
0
41
1
10
7.89589770890456
20
5.30490750862785
30
0
41
1
10
7.9245562550085
20
5.24614922381375
30
0
41
1
10
7.9342282409728
20
5.21541414097587
30
0
41
1
10
7.94704580972001
20
5.1519718379723
30
0
41
1
10
7.94999999999999
20
5.1199648646614
30
0
41
1
10
7.94999999999999
20
5.08748464371146
30
0
0
SPLINE
5
198
100
AcDbEntity
8
1
62
256
6
ByLayer
370
18
48
1
60
0
100
AcDbSpline
70
4
71
3
72
14
73
10
40
0
40
0
40
0
40
0
40
0.25
40
0.25
40
0.5
40
0.5
40
0.75
40
0.75
40
1
40
1
40
1
40
1
41
1
10
11.2463966674378
20
5.1482044942924
30
0
41
1
10
11.1786425411698
20
5.14461425876803
30
0
41
1
10
11.1108013106276
20
5.13528300720185
30
0
41
1
10
10.9749072262602
20
5.10465552965908
30
0
41
1
10
10.9060669921556
20
5.08303707748635
30
0
41
1
10
10.7724469920265
20
5.0269905782188
30
0
41
1
10
10.7079287752547
20
4.99289793186151
30
0
41
1
10
10.5846315477117
20
4.90974119881352
30
0
41
1
10
10.527542970761
20
4.86173353324185
30
0
41
1
10
10.4774553888571
20
4.80663659244425
30
0
0
SPLINE
5
199
100
AcDbEntity
8
1
62
256
6
ByLayer
370
18
48
1
60
0
100
AcDbSpline
70
4
71
3
72
8
73
4
40
0
40
0
40
0
40
0
40
1
40
1
40
1
40
1
41
1
10
20.4376631271144
20
-4.47229030404938
30
0
41
1
10
20.4338570638147
20
-4.47229417239271
30
0
41
1
10
20.4300505312917
20
-4.47227360725523
30
0
41
1
10
20.4262441451921
20
-4.47222862007138
30
0
0
SPLINE
5
19A
100
AcDbEntity
8
1
62
256
6
ByLayer
370
18
48
1
60
0
100
AcDbSpline
70
4
71
3
72
8
73
4
40
0
40
0
40
0
40
0
40
1
40
1
40
1
40
1
41
1
10
23.7854081135652
20
-8.04169421551686
30
0
41
1
10
23.8164557970118
20
-8.04522786214625
30
0
41
1
10
23.8471872611331
20
-8.04738946797954
30
0
41
1
10
23.8775872785936
20
-8.04827936668664
30
0
0
SPLINE
5
19B
100
AcDbEntity
8
1
62
256
6
ByLayer
370
18
48
1
60
0
100
AcDbSpline
70
4
71
3
72
30
73
26
40
0
40
0
40
0
40
0
40
0.0636697737841963
40
0.0636697737841963
40
0.141697292635514
40
0.141697292635514
40
0.219724811486831
40
0.219724811486831
40
0.297752330338148
40
0.297752330338148
40
0.375779849189465
40
0.375779849189465
40
0.453807368040782
40
0.453807368040782
40
0.531834886892099
40
0.531834886892099
40
0.609862405743416
40
0.609862405743416
40
0.687889924594734
40
0.687889924594734
40
0.765917443446051
40
0.765917443446051
40
0.843944962297368
40
0.843944962297368
40
1
40
1
40
1
40
1
41
1
10
21.5101408439813
20
-11.7831395355961
30
0
41
1
10
21.5328339589984
20
-11.774840895483
30
0
41
1
10
21.5594117031729
20
-11.7664478437359
30
0
41
1
10
21.6260725205903
20
-11.7480717213264
30
0
41
1
10
21.6682789276575
20
-11.7380238542347
30
0
41
1
10
21.7630320439313
20
-11.7187067376924
30
0
41
1
10
21.8143449622468
20
-11.7096790164855
30
0
41
1
10
21.9246506700787
20
-11.6931702136116
30
0
41
1
10
21.9843951736507
20
-11.685621363944
30
0
41
1
10
22.1075205321834
20
-11.6729446636692
30
0
41
1
10
22.1709505028896
20
-11.6677700062419
30
0
41
1
10
22.3015632662804
20
-11.6599297187245
30
0
41
1
10
22.3686864889823
20
-11.6573088204624
30
0
41
1
10
22.5007068844398
20
-11.6548989206915
30
0
41
1
10
22.566445945985
20
-11.6550575167933
30
0
41
1
10
22.6968605473967
20
-11.6581176409592
30
0
41
1
10
22.7594804034627
20
-11.6609660959452
30
0
41
1
10
22.8797635748325
20
-11.6689918238795
30
0
41
1
10
22.9380128593006
20
-11.6742484228342
30
0
41
1
10
23.0454954121697
20
-11.6865079993587
30
0
41
1
10
23.0948946991502
20
-11.6934867131669
30
0
41
1
10
23.1850941516648
20
-11.7088021785907
30
0
41
1
10
23.2257631465865
20
-11.7171551617308
30
0
41
1
10
23.3296562876188
20
-11.7427197241448
30
0
41
1
10
23.3773464851599
20
-11.7609692917301
30
0
41
1
10
23.3998846580366
20
-11.7782476601108
30
0
0
SPLINE
5
19C
100
AcDbEntity
8
1
62
256
6
ByLayer
370
18
48
1
60
0
100
AcDbSpline
70
4
71
3
72
8
73
4
40
0
40
0
40
0
40
0
40
1
40
1
40
1
40
1
41
1
10
19.0061426759995
20
9.32952069885295
30
0
41
1
10
19.0020472236599
20
9.3296053549407
30
0
41
1
10
18.9979516956338
20
9.32968320965583
30
0
41
1
10
18.9938568603559
20
9.32975425261895
30
0
0
SPLINE
5
19D
100
AcDbEntity
8
1
62
256
6
ByLayer
370
18
48
1
60
0
100
AcDbSpline
70
4
71
2
72
6
73
3
40
0
40
0
40
0
40
1
40
1
40
1
41
0.500000213813698
10
18.993856860356
20
9.32975425261896
30
0
41
0.499999786186302
10
18.4463653261135
20
9.339252905984
30
0
41
0.500000213813698
10
17.8999999999996
20
9.34872165578408
30
0
0
SPLINE
5
19E
100
AcDbEntity
8
1
62
256
6
ByLayer
370
18
48
1
60
0
100
AcDbSpline
70
4
71
3
72
36
73
32
40
0
40
0
40
0
40
0
40
0.076290648131747
40
0.076290648131747
40
0.152581296263494
40
0.152581296263494
40
0.228871944395241
40
0.228871944395241
40
0.305162592526988
40
0.305162592526988
40
0.381453240658735
40
0.381453240658735
40
0.457743888790482
40
0.457743888790482
40
0.534034536922229
40
0.534034536922229
40
0.572179860988102
40
0.572179860988102
40
0.610325185053976
40
0.610325185053976
40
0.686615833185723
40
0.686615833185723
40
0.762906481317469
40
0.762906481317469
40
0.839197129449216
40
0.839197129449216
40
0.915487777580963
40
0.915487777580963
40
0.99177842571271
40
0.99177842571271
40
1
40
1
40
1
40
1
41
1
10
23.006943653328
20
-10.0903435344185
30
0
41
1
10
23.0251026174448
20
-10.1475263480028
30
0
41
1
10
23.0359558198532
20
-10.2048013016258
30
0
41
1
10
23.0407170134492
20
-10.3187676848359
30
0
41
1
10
23.0344276824647
20
-10.3718209592398
30
0
41
1
10
23.0061374146538
20
-10.4713233751128
30
0
41
1
10
22.9849163097846
20
-10.5154479302615
30
0
41
1
10
22.9310575616101
20
-10.59659725489
30
0
41
1
10
22.8983538482322
20
-10.6333990531174
30
0
41
1
10
22.8247153590505
20
-10.6997223243028
30
0
41
1
10
22.7832918934925
20
-10.7297850980401
30
0
41
1
10
22.6912702046055
20
-10.7843630443734
30
0
41
1
10
22.6420547399048
20
-10.8080822330065
30
0
41
1
10
22.5366805276513
20
-10.8490519757007
30
0
41
1
10
22.4794674891047
20
-10.8664893750874
30
0
41
1
10
22.3921089727779
20
-10.8859720989594
30
0
41
1
10
22.3627085108105
20
-10.8913941594125
30
0
41
1
10
22.3033261482983
20
-10.9000394772366
30
0
41
1
10
22.2731003330449
20
-10.9032688645642
30
0
41
1
10
22.184217627903
20
-10.9092670666236
30
0
41
1
10
22.126618974606
20
-10.9085356958959
30
0
41
1
10
22.0159603229354
20
-10.897711754989
30
0
41
1
10
21.9649797968135
20
-10.8878730845832
30
0
41
1
10
21.8703677012397
20
-10.8597956562257
30
0
41
1
10
21.8279124203744
20
-10.8418565473902
30
0
41
1
10
21.7521748548085
20
-10.7986510411321
30
0
41
1
10
21.7187271877234
20
-10.7732006126486
30
0
41
1
10
21.6617117679336
20
-10.7153251303216
30
0
41
1
10
21.6375983941283
20
-10.682488856789
30
0
41
1
10
21.6159707244583
20
-10.6407434840278
30
0
41
1
10
21.6139232405129
20
-10.6366349922052
30
0
41
1
10
21.6119324292797
20
-10.6324762271199
30
0
0
SPLINE
5
19F
100
AcDbEntity
8
1
62
256
6
ByLayer
370
18
48
1
60
0
100
AcDbSpline
70
4
71
3
72
38
73
34
40
0
40
0
40
0
40
0
40
0.0624999999999998
40
0.0624999999999998
40
0.125
40
0.125
40
0.187499999999999
40
0.187499999999999
40
0.249999999999999
40
0.249999999999999
40
0.312499999999999
40
0.312499999999999
40
0.374999999999999
40
0.374999999999999
40
0.437499999999999
40
0.437499999999999
40
0.5
40
0.5
40
0.5625
40
0.5625
40
0.625
40
0.625
40
0.6875
40
0.6875
40
0.75
40
0.75
40
0.812500000000001
40
0.812500000000001
40
0.875
40
0.875
40
0.9375
40
0.9375
40
1
40
1
40
1
40
1
41
1
10
21.4302691520122
20
8.4519469418953
30
0
41
1
10
21.4192328679234
20
8.40616306934129
30
0
41
1
10
21.4141442026745
20
8.359423144213
30
0
41
1
10
21.4162873010795
20
8.26394070701028
30
0
41
1
10
21.4236436211445
20
8.21563828184836
30
0
41
1
10
21.450370804201
20
8.12106502272363
30
0
41
1
10
21.4697325642235
20
8.07433896542645
30
0
41
1
10
21.5212253254894
20
7.98221961942519
30
0
41
1
10
21.5526196441075
20
7.93820364343472
30
0
41
1
10
21.6260292006874
20
7.85493161888556
30
0
41
1
10
21.6685773155411
20
7.81521892537509
30
0
41
1
10
21.7630045015206
20
7.74267107984249
30
0
41
1
10
21.8142434355833
20
7.71017907196818
30
0
41
1
10
21.9246918045902
20
7.65288622599081
30
0
41
1
10
21.984534836358
20
7.62796379312735
30
0
41
1
10
22.1074073395492
20
7.58832791277317
30
0
41
1
10
22.1708523153611
20
7.57329124897871
30
0
41
1
10
22.3018387648221
20
7.5530720694442
30
0
41
1
10
22.368644869447
20
7.54811583449097
30
0
41
1
10
22.5006064869035
20
7.54858692554672
30
0
41
1
10
22.5668816717522
20
7.55399058544364
30
0
41
1
10
22.6968089813371
20
7.57508932690234
30
0
41
1
10
22.7593624104452
20
7.59052075658062
30
0
41
1
10
22.8797845719808
20
7.63073609966392
30
0
41
1
10
22.9381261107067
20
7.65586140411477
30
0
41
1
10
23.0453880563613
20
7.71345840118062
30
0
41
1
10
23.0948202602291
20
7.74600321947051
30
0
41
1
10
23.1852515427759
20
7.81839598751353
30
0
41
1
10
23.2257356213911
20
7.85798444965769
30
0
41
1
10
23.2949657725507
20
7.94094566362833
30
0
41
1
10
23.3242477378303
20
7.98483217617286
30
0
41
1
10
23.3712639656256
20
8.07633695877527
30
0
41
1
10
23.3886159247973
20
8.1231124655896
30
0
41
1
10
23.3998846580366
20
8.17083828304445
30
0
0
SPLINE
5
1A0
100
AcDbEntity
8
1
62
256
6
ByLayer
370
18
48
1
60
0
100
AcDbSpline
70
4
71
3
72
24
73
20
40
0
40
0
40
0
40
0
40
0.125000000000002
40
0.125000000000002
40
0.250000000000004
40
0.250000000000004
40
0.375000000000006
40
0.375000000000006
40
0.500000000000008
40
0.500000000000008
40
0.62500000000001
40
0.62500000000001
40
0.687500000000009
40
0.687500000000009
40
0.750000000000008
40
0.750000000000008
40
0.875000000000004
40
0.875000000000004
40
1
40
1
40
1
40
1
41
1
10
20.4262441451921
20
6.61822721955645
30
0
41
1
10
20.3663298042971
20
6.6369623998483
30
0
41
1
10
20.3049386185328
20
6.64890525075623
30
0
41
1
10
20.1793068064107
20
6.65976721635039
30
0
41
1
10
20.1149752899153
20
6.65842630813788
30
0
41
1
10
19.990775299817
20
6.64242762318239
30
0
41
1
10
19.9291046907241
20
6.62753820559809
30
0
41
1
10
19.8138235710308
20
6.58540890572579
30
0
41
1
10
19.7599064055436
20
6.55830985107698
30
0
41
1
10
19.6606620945515
20
6.49187504244568
30
0
41
1
10
19.6172328304199
20
6.45385514597282
30
0
41
1
10
19.5611845114087
20
6.38961425055683
30
0
41
1
10
19.5439521817767
20
6.36681990951598
30
0
41
1
10
19.5135371696579
20
6.31993314893927
30
0
41
1
10
19.5002455271923
20
6.29575488498037
30
0
41
1
10
19.4660241418805
20
6.2210223426701
30
0
41
1
10
19.4506795150886
20
6.16751507536182
30
0
41
1
10
19.4369675104575
20
6.05986187484731
30
0
41
1
10
19.438270627812
20
6.00495896992393
30
0
41
1
10
19.4479656769811
20
5.9502530083372
30
0
0
SPLINE
5
1A1
100
AcDbEntity
8
1
62
256
6
ByLayer
370
18
48
1
60
0
100
AcDbSpline
70
4
71
3
72
8
73
4
40
0
40
0
40
0
40
0
40
1
40
1
40
1
40
1
41
1
10
21.6355984923207
20
9.27143665950598
30
0
41
1
10
21.2362867281877
20
9.28092657577378
30
0
41
1
10
20.836974939736
20
9.29041610372209
30
0
41
1
10
20.4376631271144
20
9.29990524531644
30
0
0
SPLINE
5
1A2
100
AcDbEntity
8
1
62
256
6
ByLayer
370
18
48
1
60
0
100
AcDbSpline
70
4
71
3
72
8
73
4
40
0
40
0
40
0
40
0
40
1
40
1
40
1
40
1
41
1
10
20.8194015621561
20
-7.6979072475402
30
0
41
1
10
20.8057810060411
20
-7.67241300908051
30
0
41
1
10
20.7882231518726
20
-7.65248276720874
30
0
41
1
10
20.7660867302874
20
-7.63750253619043
30
0
0
SPLINE
5
1A3
100
AcDbEntity
8
1
62
256
6
ByLayer
370
18
48
1
60
0
100
AcDbSpline
70
4
71
3
72
8
73
4
40
0
40
0
40
0
40
0
40
1
40
1
40
1
40
1
41
1
10
20.4376631271144
20
-11.9276473673198
30
0
41
1
10
20.4338570638147
20
-11.9277396580001
30
0
41
1
10
20.4300505312917
20
-11.9278115010474
30
0
41
1
10
20.4262441451921
20
-11.9278628916314
30
0
0
SPLINE
5
1A4
100
AcDbEntity
8
1
62
256
6
ByLayer
370
18
48
1
60
0
100
AcDbSpline
70
4
71
3
72
8
73
4
40
0
40
0
40
0
40
0
40
1
40
1
40
1
40
1
41
1
10
23.785408113565
20
9.22034119953372
30
0
41
1
10
23.7437751753191
20
9.22133078088902
30
0
41
1
10
23.7021422368061
20
9.22232035798427
30
0
41
1
10
23.6605092980261
20
9.22330993082184
30
0
0
SPLINE
5
1A5
100
AcDbEntity
8
1
62
256
6
ByLayer
370
18
48
1
60
0
100
AcDbSpline
70
4
71
3
72
30
73
26
40
0
40
0
40
0
40
0
40
0.139504126696057
40
0.139504126696057
40
0.279008253392114
40
0.279008253392114
40
0.348760316740142
40
0.348760316740142
40
0.418512380088171
40
0.418512380088171
40
0.488264443436199
40
0.488264443436199
40
0.558016506784228
40
0.558016506784228
40
0.697520633480279
40
0.697520633480279
40
0.7672726968283
40
0.7672726968283
40
0.837024760176322
40
0.837024760176322
40
0.906776823524344
40
0.906776823524344
40
0.976528886872366
40
0.976528886872366
40
1
40
1
40
1
40
1
41
1
10
19.6695210203916
20
5.65304700408973
30
0
41
1
10
19.6296084172728
20
5.69652374499134
30
0
41
1
10
19.5974420875019
20
5.74671933739319
30
0
41
1
10
19.554344008854
20
5.85135827347892
30
0
41
1
10
19.5428963111281
20
5.90701621825505
30
0
41
1
10
19.5424197224579
20
5.98798853549025
30
0
41
1
10
19.5450187792381
20
6.01509375854425
30
0
41
1
10
19.5556065353575
20
6.06734071045162
30
0
41
1
10
19.5635167838548
20
6.09247271406593
30
0
41
1
10
19.5845160173104
20
6.14078420084454
30
0
41
1
10
19.5977880400723
20
6.16414764553224
30
0
41
1
10
19.6285282750745
20
6.20700458137225
30
0
41
1
10
19.6460385295106
20
6.22671718128558
30
0
41
1
10
19.7049282190894
20
6.28083606365084
30
0
41
1
10
19.7536183233691
20
6.31034145719369
30
0
41
1
10
19.8330340463009
20
6.34011642618421
30
0
41
1
10
19.8605091707979
20
6.34774483620231
30
0
41
1
10
19.9174540734178
20
6.35855394504179
30
0
41
1
10
19.9472006620573
20
6.361712517928
30
0
41
1
10
20.0065558240026
20
6.36335583843746
30
0
41
1
10
20.0363457930517
20
6.36191622498589
30
0
41
1
10
20.0961635839741
20
6.35463824830273
30
0
41
1
10
20.1264197658548
20
6.34870680027407
30
0
41
1
10
20.1655502856917
20
6.33812246880083
30
0
41
1
10
20.1753177719343
20
6.3352329695368
30
0
41
1
10
20.1850010507877
20
6.33211972466262
30
0
0
SPLINE
5
1A6
100
AcDbEntity
8
1
62
256
6
ByLayer
370
18
48
1
60
0
100
AcDbSpline
70
4
71
3
72
38
73
34
40
0
40
0
40
0
40
0
40
0.0625
40
0.0625
40
0.125
40
0.125
40
0.1875
40
0.1875
40
0.25
40
0.25
40
0.3125
40
0.3125
40
0.375
40
0.375
40
0.4375
40
0.4375
40
0.5
40
0.5
40
0.5625
40
0.5625
40
0.625
40
0.625
40
0.6875
40
0.6875
40
0.75
40
0.75
40
0.8125
40
0.8125
40
0.875
40
0.875
40
0.9375
40
0.9375
40
1
40
1
40
1
40
1
41
1
10
21.4302691520122
20
-5.41373947941443
30
0
41
1
10
21.4192328679234
20
-5.4718871870665
30
0
41
1
10
21.4141442026745
20
-5.53033380747667
30
0
41
1
10
21.4162873010795
20
-5.64783196994043
30
0
41
1
10
21.4236436211445
20
-5.70632195263028
30
0
41
1
10
21.450370804201
20
-5.81909224863216
30
0
41
1
10
21.4697325642235
20
-5.87393438685916
30
0
41
1
10
21.5212253254894
20
-5.98043420210473
30
0
41
1
10
21.5526196441075
20
-6.03049875128536
30
0
41
1
10
21.6260292006873
20
-6.12388624431799
30
0
41
1
10
21.6685773155411
20
-6.16770933341283
30
0
41
1
10
21.7630045015206
20
-6.24662214414761
30
0
41
1
10
21.8142434355833
20
-6.28135613439773
30
0
41
1
10
21.9246918045902
20
-6.34165278949001
30
0
41
1
10
21.984534836358
20
-6.36732683054205
30
0
41
1
10
22.1074073395492
20
-6.40719850653358
30
0
41
1
10
22.1708523153611
20
-6.42174374702526
30
0
41
1
10
22.3018387648221
20
-6.4399477195592
30
0
41
1
10
22.3686448694469
20
-6.44338226558151
30
0
41
1
10
22.5006064869035
20
-6.43902123815161
30
0
41
1
10
22.5668816717522
20
-6.43121868043539
30
0
41
1
10
22.6968089813371
20
-6.40440945502056
30
0
41
1
10
22.7593624104451
20
-6.38572122607357
30
0
41
1
10
22.8797845719808
20
-6.33797897817939
30
0
41
1
10
22.9381261107067
20
-6.30853002537089
30
0
41
1
10
23.0453880563613
20
-6.24125891139818
30
0
41
1
10
23.0948202602291
20
-6.20334547950918
30
0
41
1
10
23.1852515427759
20
-6.11876191002023
30
0
41
1
10
23.2257356213911
20
-6.07238863298707
30
0
41
1
10
23.2949657725507
20
-5.97459789828301
30
0
41
1
10
23.3242477378303
20
-5.92257827098413
30
0
41
1
10
23.3712639656256
20
-5.81321166067508
30
0
41
1
10
23.3886159247973
20
-5.75687312308145
30
0
41
1
10
23.3998846580366
20
-5.69885638034992
30
0
0
SPLINE
5
1A7
100
AcDbEntity
8
1
62
256
6
ByLayer
370
18
48
1
60
0
100
AcDbSpline
70
4
71
3
72
8
73
4
40
0
40
0
40
0
40
0
40
1
40
1
40
1
40
1
41
1
10
24.0179996827932
20
5.77496246283636
30
0
41
1
10
23.9730900307093
20
5.79288178455886
30
0
41
1
10
23.9260898443567
20
5.80848660116192
30
0
41
1
10
23.8775872785937
20
5.821484216388
30
0
0
SPLINE
5
1A8
100
AcDbEntity
8
1
62
256
6
ByLayer
370
18
48
1
60
0
100
AcDbSpline
70
4
71
3
72
8
73
4
40
0
40
0
40
0
40
0
40
1
40
1
40
1
40
1
41
1
10
17.2125350515179
20
9.35534271702295
30
0
41
1
10
17.4407770520714
20
9.3550688605055
30
0
41
1
10
17.6700048918877
20
9.35270757148891
30
0
41
1
10
17.9
20
9.34872165578406
30
0
0
SPLINE
5
1A9
100
AcDbEntity
8
1
62
256
6
ByLayer
370
18
48
1
60
0
100
AcDbSpline
70
4
71
3
72
10
73
6
40
0
40
0
40
0
40
0
40
0.5
40
0.5
40
1
40
1
40
1
40
1
41
1
10
15.7453114752473
20
-11.7434951612802
30
0
41
1
10
15.9751457799974
20
-11.7927952428689
30
0
41
1
10
16.2122305616618
20
-11.8330996098771
30
0
41
1
10
16.7012752596741
20
-11.8956100867541
30
0
41
1
10
16.9532313681233
20
-11.9178265405051
30
0
41
1
10
17.2125350515179
20
-11.9319351783254
30
0
0
SPLINE
5
1AA
100
AcDbEntity
8
1
62
256
6
ByLayer
370
18
48
1
60
0
100
AcDbSpline
70
4
71
3
72
36
73
32
40
0
40
0
40
0
40
0
40
0.125
40
0.125
40
0.1875
40
0.1875
40
0.25
40
0.25
40
0.3125
40
0.3125
40
0.375
40
0.375
40
0.4375
40
0.4375
40
0.5
40
0.5
40
0.5625
40
0.5625
40
0.625
40
0.625
40
0.6875
40
0.6875
40
0.75
40
0.75
40
0.8125
40
0.8125
40
0.875
40
0.875
40
0.9375
40
0.9375
40
1
40
1
40
1
40
1
41
1
10
21.5832236005362
20
-4.91640636348598
30
0
41
1
10
21.6003785768621
20
-4.88287684261536
30
0
41
1
10
21.6294311030995
20
-4.85234793449527
30
0
41
1
10
21.6911358075386
20
-4.81190029389973
30
0
41
1
10
21.7146461366656
20
-4.7994660850662
30
0
41
1
10
21.7662073657448
20
-4.77744734478662
30
0
41
1
10
21.7944180466774
20
-4.76775089925056
30
0
41
1
10
21.8558417706018
20
-4.75116633394302
30
0
41
1
10
21.8891333425164
20
-4.7443123614369
30
0
41
1
10
21.9582754816759
20
-4.73408436680825
30
0
41
1
10
21.9944161637566
20
-4.73061767337651
30
0
41
1
10
22.0698856463699
20
-4.72709966345437
30
0
41
1
10
22.1094086546665
20
-4.72709032340663
30
0
41
1
10
22.1887132118578
20
-4.73060205960857
30
0
41
1
10
22.2288407837172
20
-4.73408960910209
30
0
41
1
10
22.3100523522455
20
-4.74456987508435
30
0
41
1
10
22.3513357252251
20
-4.75163646860435
30
0
41
1
10
22.4318078261397
20
-4.76879558338791
30
0
41
1
10
22.4713674460064
20
-4.77891895321588
30
0
41
1
10
22.5491394239898
20
-4.80222111196369
30
0
41
1
10
22.5874911357701
20
-4.81548912925265
30
0
41
1
10
22.6600629182008
20
-4.84408566286078
30
0
41
1
10
22.6946454194573
20
-4.85950723137387
30
0
41
1
10
22.760435964605
20
-4.89250863874702
30
0
41
1
10
22.7917219204344
20
-4.91017818258368
30
0
41
1
10
22.8487405616094
20
-4.94634734509447
30
0
41
1
10
22.8747802006922
20
-4.96498510828559
30
0
41
1
10
22.9219943544769
20
-5.00324758457216
30
0
41
1
10
22.943215823329
20
-5.02297362681534
30
0
41
1
10
22.9794121531734
20
-5.06198480972876
30
0
41
1
10
22.9946016121777
20
-5.08142126670336
30
0
41
1
10
23.006943653328
20
-5.10072895429906
30
0
0
SPLINE
5
1AB
100
AcDbEntity
8
1
62
256
6
ByLayer
370
18
48
1
60
0
100
AcDbSpline
70
4
71
3
72
16
73
12
40
0
40
0
40
0
40
0
40
0.125000000000003
40
0.125000000000003
40
0.250000000000006
40
0.250000000000006
40
0.500000000000004
40
0.500000000000004
40
0.750000000000002
40
0.750000000000002
40
1
40
1
40
1
40
1
41
1
10
17.6134003017658
20
2.32161787593756
30
0
41
1
10
17.6320165042677
20
2.36009138936058
30
0
41
1
10
17.6617657973315
20
2.39561239275412
30
0
41
1
10
17.730804265917
20
2.45734469229356
30
0
41
1
10
17.7707739353717
20
2.484473169067
30
0
41
1
10
17.8949783260449
20
2.55544373054522
30
0
41
1
10
17.986031870644
20
2.59111678244017
30
0
41
1
10
18.1683248733512
20
2.64899358784766
30
0
41
1
10
18.2604905072896
20
2.67127065946562
30
0
41
1
10
18.4461644593027
20
2.70750436807816
30
0
41
1
10
18.5396878516171
20
2.72135108532896
30
0
41
1
10
18.6338506049635
20
2.73165935988209
30
0
0
SPLINE
5
1AC
100
AcDbEntity
8
1
62
256
6
ByLayer
370
18
48
1
60
0
100
AcDbSpline
70
4
71
3
72
10
73
6
40
0
40
0
40
0
40
0
40
0.5
40
0.5
40
1
40
1
40
1
40
1
41
1
10
19.4479656769812
20
5.95025300833714
30
0
41
1
10
19.3649866779787
20
5.7877955345823
30
0
41
1
10
19.2851996295616
20
5.62215145025846
30
0
41
1
10
19.1358029364321
20
5.28293200268152
30
0
41
1
10
19.0659029308464
20
5.10947205088951
30
0
41
1
10
19.0061426759995
20
4.93000331082129
30
0
0
SPLINE
5
1AD
100
AcDbEntity
8
1
62
256
6
ByLayer
370
18
48
1
60
0
100
AcDbSpline
70
4
71
3
72
16
73
12
40
0
40
0
40
0
40
0
40
0.125000000000002
40
0.125000000000002
40
0.250000000000003
40
0.250000000000003
40
0.500000000000002
40
0.500000000000002
40
0.750000000000001
40
0.750000000000001
40
1
40
1
40
1
40
1
41
1
10
2.25
20
-5.3965266607328
30
0
41
1
10
2.23062206817502
20
-5.3965266607328
30
0
41
1
10
2.21167958257234
20
-5.3922133836426
30
0
41
1
10
2.1777366847619
20
-5.37769306287052
30
0
41
1
10
2.162498565622
20
-5.36750017709201
30
0
41
1
10
2.1230879482024
20
-5.33310768765119
30
0
41
1
10
2.10399258362355
20
-5.30473801856442
30
0
41
1
10
2.07534306448559
20
-5.24588694945325
30
0
41
1
10
2.06554776508887
20
-5.2145266762825
30
0
41
1
10
2.05293670086769
20
-5.1516597845725
30
0
41
1
10
2.05000000000001
20
-5.11977828660145
30
0
41
1
10
2.05000000000001
20
-5.08748464371146
30
0
0
SPLINE
5
1AE
100
AcDbEntity
8
1
62
256
6
ByLayer
370
18
48
1
60
0
100
AcDbSpline
70
4
71
3
72
24
73
20
40
0
40
0
40
0
40
0
40
0.125000000000001
40
0.125000000000001
40
0.250000000000002
40
0.250000000000002
40
0.375000000000003
40
0.375000000000003
40
0.500000000000004
40
0.500000000000004
40
0.625000000000005
40
0.625000000000005
40
0.687500000000006
40
0.687500000000006
40
0.750000000000007
40
0.750000000000007
40
0.875000000000004
40
0.875000000000004
40
1
40
1
40
1
40
1
41
1
10
20.4262441451923
20
-7.43780562980351
30
0
41
1
10
20.366330250695
20
-7.42103317203112
30
0
41
1
10
20.3049395329707
20
-7.41060728184164
30
0
41
1
10
20.1793087000689
20
-7.40211064928855
30
0
41
1
10
20.114977642066
20
-7.40428684126809
30
0
41
1
10
19.9907784998531
20
-7.42113947430462
30
0
41
1
10
19.9291083017225
20
-7.43605813463492
30
0
41
1
10
19.8138276902633
20
-7.47719093699749
30
0
41
1
10
19.7599108478294
20
-7.5032777291521
30
0
41
1
10
19.6606665254524
20
-7.56623085567722
30
0
41
1
10
19.6172371874634
20
-7.60184775816344
30
0
41
1
10
19.5611885968274
20
-7.66117393161855
30
0
41
1
10
19.5439561229497
20
-7.68209381169993
30
0
41
1
10
19.5135407066928
20
-7.72482844153606
30
0
41
1
10
19.5002488403003
20
-7.74672425468816
30
0
41
1
10
19.4660266947124
20
-7.81393568738196
30
0
41
1
10
19.4506813942987
20
-7.86142872297606
30
0
41
1
10
19.4369677767967
20
-7.95560809810121
30
0
41
1
10
19.4382627413228
20
-8.00294370693115
30
0
41
1
10
19.4479656769811
20
-8.04951270317704
30
0
0
SPLINE
5
1AF
100
AcDbEntity
8
1
62
256
6
ByLayer
370
18
48
1
60
0
100
AcDbSpline
70
4
71
3
72
14
73
10
40
0
40
0
40
0
40
0
40
0.25
40
0.25
40
0.5
40
0.5
40
0.75
40
0.75
40
1
40
1
40
1
40
1
41
1
10
19.6646993714001
20
5.64391393621804
30
0
41
1
10
19.6387136940376
20
5.66350532214784
30
0
41
1
10
19.6143144246978
20
5.68460013660069
30
0
41
1
10
19.5689666526891
20
5.73022737467838
30
0
41
1
10
19.5479684073423
20
5.75489601917846
30
0
41
1
10
19.511068617235
20
5.80637652114038
30
0
41
1
10
19.4949616955216
20
5.83335685776615
30
0
41
1
10
19.4675772187977
20
5.89010352819824
30
0
41
1
10
19.4563397611186
20
5.9199578729712
30
0
41
1
10
19.4479656769756
20
5.95025300833498
30
0
0
SPLINE
5
1B0
100
AcDbEntity
8
1
62
256
6
ByLayer
370
18
48
1
60
0
100
AcDbSpline
70
4
71
3
72
14
73
10
40
0
40
0
40
0
40
0
40
0.25
40
0.25
40
0.5
40
0.5
40
0.75
40
0.75
40
1
40
1
40
1
40
1
41
1
10
10.284766930252
20
4.44795339470613
30
0
41
1
10
10.288113522401
20
4.4800623088843
30
0
41
1
10
10.2954823880105
20
4.51222019264009
30
0
41
1
10
10.3177351251783
20
4.57584123718999
30
0
41
1
10
10.3322682167322
20
4.60651858924692
30
0
41
1
10
10.3666822318754
20
4.66644183370948
30
0
41
1
10
10.3866606663547
20
4.69577184769341
30
0
41
1
10
10.4297581049563
20
4.75230796379944
30
0
41
1
10
10.4529812313099
20
4.77971472562973
30
0
41
1
10
10.4774553888515
20
4.8066365924453
30
0
0
SPLINE
5
1B1
100
AcDbEntity
8
1
62
256
6
ByLayer
370
18
48
1
60
0
100
AcDbSpline
70
4
71
3
72
12
73
8
40
0
40
0
40
0
40
0
40
0.5
40
0.5
40
0.75
40
0.75
40
1
40
1
40
1
40
1
41
1
10
10.477455388857
20
2.09783384377008
30
0
41
1
10
10.6188042147576
20
1.49428292795147
30
0
41
1
10
10.8353234147995
20
0.912205139678264
30
0
41
1
10
11.2800242979474
20
0.0838786469033153
30
0
41
1
10
11.4494669694332
20
-0.185979899878816
30
0
41
1
10
11.8222872979593
20
-0.696555860111573
30
0
41
1
10
12.0259818488734
20
-0.938459626027367
30
0
41
1
10
12.2470300554872
20
-1.16601925054769
30
0
0
SPLINE
5
1B2
100
AcDbEntity
8
1
62
256
6
ByLayer
370
18
48
1
60
0
100
AcDbSpline
70
4
71
3
72
8
73
4
40
0
40
0
40
0
40
0
40
1
40
1
40
1
40
1
41
1
10
23.7854081135652
20
5.84136822955037
30
0
41
1
10
23.8164557970117
20
5.83623580015441
30
0
41
1
10
23.847187261133
20
5.82963074891882
30
0
41
1
10
23.8775872785937
20
5.82148421638791
30
0
0
SPLINE
5
1B3
100
AcDbEntity
8
1
62
256
6
ByLayer
370
18
48
1
60
0
100
AcDbSpline
70
4
71
3
72
8
73
4
40
0
40
0
40
0
40
0
40
1
40
1
40
1
40
1
41
1
10
18.9938568603559
20
-8.89315816665277
30
0
41
1
10
18.9927074880568
20
-8.89581597995246
30
0
41
1
10
18.9915629588714
20
-8.89847326989286
30
0
41
1
10
18.9904233681397
20
-8.90113003666943
30
0
0
SPLINE
5
1B4
100
AcDbEntity
8
1
62
256
6
ByLayer
370
18
48
1
60
0
100
AcDbSpline
70
4
71
3
72
8
73
4
40
0
40
0
40
0
40
0
40
1
40
1
40
1
40
1
41
1
10
19.0061426759994
20
4.93000331082129
30
0
41
1
10
19.0019630477863
20
4.91745127918614
30
0
41
1
10
18.997867018819
20
4.9048556424992
30
0
41
1
10
18.9938568603559
20
4.89221696213392
30
0
0
SPLINE
5
1B5
100
AcDbEntity
8
1
62
256
6
ByLayer
370
18
48
1
60
0
100
AcDbSpline
70
4
71
3
72
16
73
12
40
0
40
0
40
0
40
0
40
0.294349033744086
40
0.294349033744086
40
0.588698067488172
40
0.588698067488172
40
0.735872584360215
40
0.735872584360215
40
0.883047101232258
40
0.883047101232258
40
1
40
1
40
1
40
1
41
1
10
19.6695210203916
20
-8.02191522377066
30
0
41
1
10
19.6296084172728
20
-7.99584882629429
30
0
41
1
10
19.5974420875019
20
-7.96334326244096
30
0
41
1
10
19.554344008854
20
-7.8904126747484
30
0
41
1
10
19.5428963111281
20
-7.849127544064
30
0
41
1
10
19.5424197224579
20
-7.78509246131645
30
0
41
1
10
19.5450187792381
20
-7.76298319712004
30
0
41
1
10
19.5556065353575
20
-7.71898309336481
30
0
41
1
10
19.5635167838548
20
-7.69711935229347
30
0
41
1
10
19.5823599687381
20
-7.65813509506407
30
0
41
1
10
19.5924542443398
20
-7.64084231418968
30
0
41
1
10
19.6039608545065
20
-7.62407106994746
30
0
0
SPLINE
5
1B6
100
AcDbEntity
8
1
62
256
6
ByLayer
370
18
48
1
60
0
100
AcDbSpline
70
4
71
3
72
8
73
4
40
0
40
0
40
0
40
0
40
1
40
1
40
1
40
1
41
1
10
18.1035961449643
20
3.25962146585411
30
0
41
1
10
18.1362115097077
20
3.23670298541427
30
0
41
1
10
18.171305295167
20
3.21303639704121
30
0
41
1
10
18.2094410031955
20
3.18975669559816
30
0
0
SPLINE
5
1B7
100
AcDbEntity
8
1
62
256
6
ByLayer
370
18
48
1
60
0
100
AcDbSpline
70
4
71
3
72
12
73
8
40
0
40
0
40
0
40
0
40
0.0687925895783675
40
0.0687925895783675
40
0.379195059718912
40
0.379195059718912
40
1
40
1
40
1
40
1
41
1
10
20.4000717159636
20
-7.43092668876645
30
0
41
1
10
20.4074461004124
20
-7.43278643274965
30
0
41
1
10
20.4148052385791
20
-7.4347645304471
30
0
41
1
10
20.4552842119624
20
-7.44632296024136
30
0
41
1
10
20.4881332459614
20
-7.45827599095108
30
0
41
1
10
20.5822398286949
20
-7.50021295772885
30
0
41
1
10
20.640750864091
20
-7.53682523019867
30
0
41
1
10
20.6937783468271
20
-7.581266950946
30
0
0
SPLINE
5
1B8
100
AcDbEntity
8
1
62
256
6
ByLayer
370
18
48
1
60
0
100
AcDbSpline
70
4
71
3
72
8
73
4
40
0
40
0
40
0
40
0
40
1
40
1
40
1
40
1
41
1
10
24.1376062060219
20
-1.73303877436041
30
0
41
1
10
24.1930928842081
20
-1.94156711068695
30
0
41
1
10
24.2504174998528
20
-2.14972751198331
30
0
41
1
10
24.3093219381274
20
-2.35757165002252
30
0
0
SPLINE
5
1B9
100
AcDbEntity
8
1
62
256
6
ByLayer
370
18
48
1
60
0
100
AcDbSpline
70
4
71
3
72
8
73
4
40
0
40
0
40
0
40
0
40
1
40
1
40
1
40
1
41
1
10
24.2298525684504
20
1.22790490068647
30
0
41
1
10
24.2563191295708
20
1.24153148015222
30
0
41
1
10
24.2828113601414
20
1.2536274641578
30
0
41
1
10
24.3093219381345
20
1.26456687866562
30
0
0
SPLINE
5
1BA
100
AcDbEntity
8
1
62
256
6
ByLayer
370
18
48
1
60
0
100
AcDbSpline
70
4
71
3
72
12
73
8
40
0
40
0
40
0
40
0
40
0.287758351834444
40
0.287758351834444
40
0.944506793586457
40
0.944506793586457
40
1
40
1
40
1
40
1
41
1
10
19.7355813168821
20
5.86947655592601
30
0
41
1
10
19.7182503538403
20
5.87292720343154
30
0
41
1
10
19.7007252472191
20
5.8760424802189
30
0
41
1
10
19.6432048974422
20
5.88471404910158
30
0
41
1
10
19.6025949653929
20
5.88840444714387
30
0
41
1
10
19.5587812369388
20
5.8886196682684
30
0
41
1
10
19.5553770033844
20
5.88861179162171
30
0
41
1
10
19.551982104036
20
5.88857893662072
30
0
0
SPLINE
5
1BB
100
AcDbEntity
8
1
62
256
6
ByLayer
370
18
48
1
60
0
100
AcDbSpline
70
4
71
3
72
14
73
10
40
0
40
0
40
0
40
0
40
0.25
40
0.25
40
0.5
40
0.5
40
0.75
40
0.75
40
1
40
1
40
1
40
1
41
1
10
12.2470300554872
20
9.6043557921102
30
0
41
1
10
12.5036816209143
20
9.60371761120024
30
0
41
1
10
12.767927313451
20
9.60017617524684
30
0
41
1
10
13.3114142518186
20
9.58736046333021
30
0
41
1
10
13.590592723272
20
9.57811018617903
30
0
41
1
10
14.1678963298407
20
9.55236627183794
30
0
41
1
10
14.466035505419
20
9.53589408375319
30
0
41
1
10
15.0913249697705
20
9.49175086273823
30
0
41
1
10
15.4126031846592
20
9.46436656186509
30
0
41
1
10
15.7453114752473
20
9.42994866226175
30
0
0
SPLINE
5
1BC
100
AcDbEntity
8
1
62
256
6
ByLayer
370
18
48
1
60
0
100
AcDbSpline
70
4
71
3
72
8
73
4
40
0
40
0
40
0
40
0
40
1
40
1
40
1
40
1
41
1
10
19.6646993713979
20
-8.04482391533236
30
0
41
1
10
19.6662179461924
20
-8.0371537226635
30
0
41
1
10
19.6678255620456
20
-8.02951764521592
30
0
41
1
10
19.6695210203916
20
-8.02191522377066
30
0
0
SPLINE
5
1BD
100
AcDbEntity
8
1
62
256
6
ByLayer
370
18
48
1
60
0
100
AcDbSpline
70
4
71
3
72
8
73
4
40
0
40
0
40
0
40
0
40
1
40
1
40
1
40
1
41
1
10
20.8194015621562
20
6.3243140080337
30
0
41
1
10
21.8082638680905
20
6.1657775567094
30
0
41
1
10
22.7969303431973
20
6.00477147909072
30
0
41
1
10
23.785408113565
20
5.84136822954974
30
0
0
SPLINE
5
1BE
100
AcDbEntity
8
1
62
256
6
ByLayer
370
18
48
1
60
0
100
AcDbSpline
70
4
71
3
72
8
73
4
40
0
40
0
40
0
40
0
40
1
40
1
40
1
40
1
41
1
10
20.8194015621562
20
-7.69790724754037
30
0
41
1
10
21.8082638680905
20
-7.81452222356208
30
0
41
1
10
22.7969303431973
20
-7.92919206547532
30
0
41
1
10
23.785408113565
20
-8.04169421551583
30
0
0
SPLINE
5
1BF
100
AcDbEntity
8
1
62
256
6
ByLayer
370
18
48
1
60
0
100
AcDbSpline
70
4
71
2
72
6
73
3
40
0
40
0
40
0
40
1
40
1
40
1
41
0.500000244353385
10
20.4262441451942
20
9.30015899926765
30
0
41
0.499999755646615
10
19.7161071264512
20
9.31484519836605
30
0
41
0.500000244353385
10
19.0061426760034
20
9.32952069885271
30
0
0
SPLINE
5
1C0
100
AcDbEntity
8
1
62
256
6
ByLayer
370
18
48
1
60
0
100
AcDbSpline
70
4
71
3
72
8
73
4
40
0
40
0
40
0
40
0
40
1
40
1
40
1
40
1
41
1
10
20.6937783468282
20
-7.58126695094225
30
0
41
1
10
20.7200175246863
20
-7.59848941882271
30
0
41
1
10
20.7443623998196
20
-7.61730236298536
30
0
41
1
10
20.7660867302874
20
-7.6375025361904
30
0
0
SPLINE
5
1C1
100
AcDbEntity
8
1
62
256
6
ByLayer
370
18
48
1
60
0
100
AcDbSpline
70
4
71
3
72
20
73
16
40
0
40
0
40
0
40
0
40
0.249999999999998
40
0.249999999999998
40
0.374999999999998
40
0.374999999999998
40
0.499999999999999
40
0.499999999999999
40
0.624999999999999
40
0.624999999999999
40
0.749999999999999
40
0.749999999999999
40
0.875
40
0.875
40
1
40
1
40
1
40
1
41
1
10
24.3711852350256
20
-11.2727347468638
30
0
41
1
10
24.3711852350255
20
-11.3378037982338
30
0
41
1
10
24.35980633325
20
-11.4039756681571
30
0
41
1
10
24.3250046059154
20
-11.4981209843084
30
0
41
1
10
24.3104478216143
20
-11.5288643776942
30
0
41
1
10
24.2746470307438
20
-11.5889070917664
30
0
41
1
10
24.2531215785339
20
-11.6184933927851
30
0
41
1
10
24.2036805579108
20
-11.6738089168991
30
0
41
1
10
24.1757808074311
20
-11.6996849981577
30
0
41
1
10
24.1125068005206
20
-11.7472483661745
30
0
41
1
10
24.0772809520545
20
-11.7686916835592
30
0
41
1
10
24.0015701742768
20
-11.8044695554581
30
0
41
1
10
23.9600227159061
20
-11.8192009463554
30
0
41
1
10
23.8746973352409
20
-11.8395077317531
30
0
41
1
10
23.8307535361646
20
-11.8453379754074
30
0
41
1
10
23.785408113565
20
-11.8464383884169
30
0
0
SPLINE
5
1C2
100
AcDbEntity
8
1
62
256
6
ByLayer
370
18
48
1
60
0
100
AcDbSpline
70
4
71
3
72
14
73
10
40
0
40
0
40
0
40
0
40
0.25
40
0.25
40
0.5
40
0.5
40
0.75
40
0.75
40
1
40
1
40
1
40
1
41
1
10
12.2470300554872
20
-10.2521278531019
30
0
41
1
10
12.5036816209143
20
-10.4095904535746
30
0
41
1
10
12.767927313451
20
-10.5603124820316
30
0
41
1
10
13.3114142518186
20
-10.8484464368839
30
0
41
1
10
13.590592723272
20
-10.9859140820218
30
0
41
1
10
14.1678963298407
20
-11.2440322517741
30
0
41
1
10
14.4660355054189
20
-11.3647763009003
30
0
41
1
10
15.0913249697704
20
-11.580087912545
30
0
41
1
10
15.4126031846591
20
-11.6721283307757
30
0
41
1
10
15.7453114752472
20
-11.7434951612802
30
0
0
SPLINE
5
1C3
100
AcDbEntity
8
1
62
256
6
ByLayer
370
18
48
1
60
0
100
AcDbSpline
70
4
71
3
72
8
73
4
40
0
40
0
40
0
40
0
40
1
40
1
40
1
40
1
41
1
10
19.0061426759994
20
-4.45541494152732
30
0
41
1
10
19.0020472236599
20
-4.45536636667754
30
0
41
1
10
18.9979516956338
20
-4.45528946821824
30
0
41
1
10
18.9938568603559
20
-4.45518427818158
30
0
0
SPLINE
5
1C4
100
AcDbEntity
8
1
62
256
6
ByLayer
370
18
48
1
60
0
100
AcDbSpline
70
4
71
3
72
10
73
6
40
0
40
0
40
0
40
0
40
0.5
40
0.5
40
1
40
1
40
1
40
1
41
1
10
15.7453114752473
20
-3.94833815364069
30
0
41
1
10
15.9751457799974
20
-4.07025565070688
30
0
41
1
10
16.2122305616618
20
-4.16815280958508
30
0
41
1
10
16.7012752596741
20
-4.31461680014118
30
0
41
1
10
16.9532313681233
20
-4.36319546078883
30
0
41
1
10
17.2125350515179
20
-4.38729099974097
30
0
0
SPLINE
5
1C5
100
AcDbEntity
8
1
62
256
6
ByLayer
370
18
48
1
60
0
100
AcDbSpline
70
4
71
3
72
8
73
4
40
0
40
0
40
0
40
0
40
1
40
1
40
1
40
1
41
1
10
21.5008837767946
20
-11.9018628493668
30
0
41
1
10
21.146476912677
20
-11.9104587539464
30
0
41
1
10
20.7920700294156
20
-11.9190535916658
30
0
41
1
10
20.4376631271144
20
-11.9276473673198
30
0
0
SPLINE
5
1C6
100
AcDbEntity
8
1
62
256
6
ByLayer
370
18
48
1
60
0
100
AcDbSpline
70
4
71
3
72
8
73
4
40
0
40
0
40
0
40
0
40
1
40
1
40
1
40
1
41
1
10
24.1104967431539
20
1.1641248610695
30
0
41
1
10
24.0988756295577
20
1.16437144185764
30
0
41
1
10
24.087273967127
20
1.16487780771013
30
0
41
1
10
24.0757357777504
20
1.16560524974997
30
0
0
SPLINE
5
1C7
100
AcDbEntity
8
1
62
256
6
ByLayer
370
18
48
1
60
0
100
AcDbSpline
70
4
71
3
72
20
73
16
40
0
40
0
40
0
40
0
40
0.25
40
0.25
40
0.375
40
0.375
40
0.5
40
0.5
40
0.625
40
0.625
40
0.75
40
0.75
40
0.875
40
0.875
40
1
40
1
40
1
40
1
41
1
10
18.3844440248741
20
1.40796141560006
30
0
41
1
10
18.270390390751
20
1.43999021670209
30
0
41
1
10
18.1612860755866
20
1.48149706239715
30
0
41
1
10
18.0072252377117
20
1.56145661898322
30
0
41
1
10
17.9574885479908
20
1.59108962210107
30
0
41
1
10
17.8621108157422
20
1.65773928040721
30
0
41
1
10
17.8170513663842
20
1.69442223895083
30
0
41
1
10
17.7354372341093
20
1.77415939124862
30
0
41
1
10
17.6982100949857
20
1.81796540869496
30
0
41
1
10
17.6365182195736
20
1.91104271910419
30
0
41
1
10
17.6118061669313
20
1.96043383707104
30
0
41
1
10
17.5790033616142
20
2.06448464946976
30
0
41
1
10
17.5714870046897
20
2.11730650819342
30
0
41
1
10
17.5772166515363
20
2.22336786828427
30
0
41
1
10
17.5902549643449
20
2.27378414347476
30
0
41
1
10
17.6134003017658
20
2.32161787593751
30
0
0
SPLINE
5
1C8
100
AcDbEntity
8
1
62
256
6
ByLayer
370
18
48
1
60
0
100
AcDbSpline
70
4
71
3
72
8
73
4
40
0
40
0
40
0
40
0
40
1
40
1
40
1
40
1
41
1
10
20.4376631271146
20
-7.44106012793486
30
0
41
1
10
20.4338711175979
20
-7.43995995981751
30
0
41
1
10
20.4300648037444
20
-7.43887519529852
30
0
41
1
10
20.4262441451923
20
-7.43780562980351
30
0
0
SPLINE
5
1C9
100
AcDbEntity
8
1
62
256
6
ByLayer
370
18
48
1
60
0
100
AcDbSpline
70
4
71
3
72
8
73
4
40
0
40
0
40
0
40
0
40
1
40
1
40
1
40
1
41
1
10
20.4376631271146
20
6.61451478864578
30
0
41
1
10
20.4338713498344
20
6.6157948420007
30
0
41
1
10
20.4300645686457
20
6.61703257531727
30
0
41
1
10
20.4262441451921
20
6.61822721955645
30
0
0
SPLINE
5
1CA
100
AcDbEntity
8
1
62
256
6
ByLayer
370
18
48
1
60
0
100
AcDbSpline
70
4
71
3
72
14
73
10
40
0
40
0
40
0
40
0
40
0.25
40
0.25
40
0.5
40
0.5
40
0.75
40
0.75
40
1
40
1
40
1
40
1
41
1
10
11.2463966674378
20
-6.61752890930953
30
0
41
1
10
11.1786425411698
20
-6.58933289566883
30
0
41
1
10
11.1108013106277
20
-6.56619157984704
30
0
41
1
10
10.9749072262603
20
-6.53052250945336
30
0
41
1
10
10.9060669921558
20
-6.51792060170823
30
0
41
1
10
10.7724469920267
20
-6.50591225828626
30
0
41
1
10
10.707928775255
20
-6.50633505351195
30
0
41
1
10
10.584631547712
20
-6.52256279934926
30
0
41
1
10
10.527542970761
20
-6.53821995817086
30
0
41
1
10
10.477455388857
20
-6.56264499218372
30
0
0
SPLINE
5
1CB
100
AcDbEntity
8
1
62
256
6
ByLayer
370
18
48
1
60
0
100
AcDbSpline
70
4
71
3
72
14
73
10
40
0
40
0
40
0
40
0
40
0.0764087972433353
40
0.230340664369446
40
0.384272531495557
40
0.538204398621668
40
0.692136265747778
40
0.846068132873889
40
1
40
1
40
1
40
1
41
1
10
24.8277804232121
20
4.03274681364698
30
0
41
1
10
24.8255036277206
20
4.03852014443427
30
0
41
1
10
24.8173381211617
20
4.05599081025895
30
0
41
1
10
24.7971367603798
20
4.08522189924207
30
0
41
1
10
24.7623154107795
20
4.11936411729991
30
0
41
1
10
24.7170079284249
20
4.15134978403211
30
0
41
1
10
24.6619407785218
20
4.17947344378689
30
0
41
1
10
24.599042706982
20
4.20181634928735
30
0
41
1
10
24.5542383354783
20
4.21180792557308
30
0
41
1
10
24.5317911362244
20
4.21550268226159
30
0
0
SPLINE
5
1CC
100
AcDbEntity
8
1
62
256
6
ByLayer
370
18
48
1
60
0
100
AcDbSpline
70
4
71
3
72
20
73
16
40
0
40
0
40
0
40
0
40
0.064787145335071
40
0.174161748918542
40
0.228849050710278
40
0.283536352502013
40
0.392910956085485
40
0.502285559668956
40
0.611660163252427
40
0.639003814148295
40
0.666347465044163
40
0.721034766835899
40
0.939783974002841
40
0.994471275794577
40
1
40
1
40
1
40
1
41
1
10
24.0715275111598
20
3.80410997613458
30
0
41
1
10
24.0816207677065
20
3.79966107917241
30
0
41
1
10
24.1078362619153
20
3.78704800883233
30
0
41
1
10
24.1385487205713
20
3.76857620224973
30
0
41
1
10
24.1643263401076
20
3.74981170631739
30
0
41
1
10
24.1877527955006
20
3.73047230593642
30
0
41
1
10
24.212693248815
20
3.70552705064705
30
0
41
1
10
24.2361533646097
20
3.67491120776771
30
0
41
1
10
24.2492569482948
20
3.6518522265859
30
0
41
1
10
24.2562431604922
20
3.63652193933885
30
0
41
1
10
24.2604422291807
20
3.62631856732725
30
0
41
1
10
24.2701322789543
20
3.59835145149697
30
0
41
1
10
24.2741929988713
20
3.5683426372882
30
0
41
1
10
24.2722986468376
20
3.543699409509
30
0
41
1
10
24.2717166009942
20
3.5384115620526
30
0
41
1
10
24.271661862333
20
3.53792629556051
30
0
0
SPLINE
5
1CD
100
AcDbEntity
8
1
62
256
6
ByLayer
370
18
48
1
60
0
100
AcDbSpline
70
4
71
3
72
8
73
4
40
0
40
0
40
0
40
0
40
1
40
1
40
1
40
1
41
1
10
21.634303045814
20
4.20663776470008
30
0
41
1
10
21.9170386117249
20
4.16410241796794
30
0
41
1
10
22.1997836700219
20
4.12081772761326
30
0
41
1
10
22.4825232863577
20
4.07680542569062
30
0
0
SPLINE
5
1CE
100
AcDbEntity
8
1
62
256
6
ByLayer
370
18
48
1
60
0
100
AcDbSpline
70
4
71
3
72
14
73
10
40
0
40
0
40
0
40
0
40
0.155318886524068
40
0.310637773048136
40
0.465956659572205
40
0.621275546096273
40
0.776594432620341
40
0.931913319144409
40
1
40
1
40
1
40
1
41
1
10
19.4974036483037
20
5.04415113118299
30
0
41
1
10
19.4782953693948
20
5.04729630936339
30
0
41
1
10
19.4399036030965
20
5.05099008941804
30
0
41
1
10
19.3869141385303
20
5.04749482129432
30
0
41
1
10
19.3417318380874
20
5.03662105304028
30
0
41
1
10
19.3038912785875
20
5.02091829205145
30
0
41
1
10
19.2718081310175
20
5.00218011366036
30
0
41
1
10
19.2492452560322
20
4.98535891058393
30
0
41
1
10
19.2370254135748
20
4.97499708034718
30
0
41
1
10
19.2333910775718
20
4.97180365287997
30
0
0
SPLINE
5
1CF
100
AcDbEntity
8
1
62
256
6
ByLayer
370
18
48
1
60
0
100
AcDbSpline
70
4
71
3
72
8
73
4
40
0
40
0
40
0
40
0
40
1
40
1
40
1
40
1
41
1
10
19.6857665462796
20
5.64821034153508
30
0
41
1
10
19.8320316692513
20
5.86137282057754
30
0
41
1
10
19.9782967922229
20
6.07453529962001
30
0
41
1
10
20.1245619151946
20
6.28769777866248
30
0
0
SPLINE
5
1D0
100
AcDbEntity
8
1
62
256
6
ByLayer
370
18
48
1
60
0
100
AcDbSpline
70
4
71
3
72
9
73
5
40
0
40
0
40
0
40
0
40
0.707335263686958
40
1
40
1
40
1
40
1
41
1
10
19.6599323369336
20
5.78743921651849
30
0
41
1
10
19.6508429293302
20
5.77765280989678
30
0
41
1
10
19.6395240285395
20
5.76327428398943
30
0
41
1
10
19.6304335280168
20
5.74822504904753
30
0
41
1
10
19.6279661778505
20
5.74376665326773
30
0
0
SPLINE
5
1D1
100
AcDbEntity
8
1
62
256
6
ByLayer
370
18
48
1
60
0
100
AcDbSpline
70
4
71
3
72
8
73
4
40
0
40
0
40
0
40
0
40
1
40
1
40
1
40
1
41
1
10
19.6361828847609
20
5.75297346169711
30
0
41
1
10
19.6440993688232
20
5.76446204664441
30
0
41
1
10
19.6520158528854
20
5.77595063159171
30
0
41
1
10
19.6599323369478
20
5.78743921653901
30
0
0
SPLINE
5
1D2
100
AcDbEntity
8
1
62
256
6
ByLayer
370
18
48
1
60
0
100
AcDbSpline
70
4
71
3
72
12
73
8
40
0
40
0
40
0
40
0
40
0.218662042732314
40
0.743817041657389
40
0.875105791388658
40
0.940750166254292
40
1
40
1
40
1
40
1
41
1
10
24.7749143682143
20
-8.35360091713122
30
0
41
1
10
24.7822568116835
20
-8.36845467975226
30
0
41
1
10
24.8072359448261
20
-8.41898203533736
30
0
41
1
10
24.8366358054449
20
-8.47842640276178
30
0
41
1
10
24.8608366870593
20
-8.52748356907802
30
0
41
1
10
24.8694823121332
20
-8.54488092085288
30
0
41
1
10
24.8736780787366
20
-8.5533647818342
30
0
41
1
10
24.875641551197
20
-8.55739276343488
30
0
0
SPLINE
5
1D3
100
AcDbEntity
8
1
62
256
6
ByLayer
370
18
48
1
60
0
100
AcDbSpline
70
4
71
3
72
10
73
6
40
0
40
0
40
0
40
0
40
0.0527399230519648
40
0.0527399230519648
40
1
40
1
40
1
40
1
41
1
10
21.4646643669385
20
3.90348207398173
30
0
41
1
10
21.4638521036268
20
3.9035206485261
30
0
41
1
10
21.4630515756077
20
3.90355770205485
30
0
41
1
10
21.4481052366023
20
3.90423129866807
30
0
41
1
10
21.43860664665
20
3.90433651785051
30
0
41
1
10
21.4404258612435
20
3.90414026175901
30
0
0
SPLINE
5
1D4
100
AcDbEntity
8
1
62
256
6
ByLayer
370
18
48
1
60
0
100
AcDbSpline
70
4
71
3
72
18
73
14
40
0
40
0
40
0
40
0
40
0.056431632732029
40
0.056431632732029
40
0.19122711377031
40
0.19122711377031
40
0.460818075846874
40
0.460818075846874
40
0.730409037923438
40
0.730409037923438
40
0.865204518961719
40
0.865204518961719
40
1
40
1
40
1
40
1
41
1
10
21.4421730809162
20
3.90361442948085
30
0
41
1
10
21.4406310987765
20
3.90355277308569
30
0
41
1
10
21.4383204387886
20
3.90348702425928
30
0
41
1
10
21.4287499306324
20
3.90318447981505
30
0
41
1
10
21.4190053836386
20
3.90283628945662
30
0
41
1
10
21.3845917181007
20
3.9008505487422
30
0
41
1
10
21.3547448741498
20
3.89818812878065
30
0
41
1
10
21.2882270982059
20
3.88931999161625
30
0
41
1
10
21.2514783548583
20
3.88310659208148
30
0
41
1
10
21.1945461480808
20
3.8729208670141
30
0
41
1
10
21.1751720239524
20
3.86938580238896
30
0
41
1
10
21.1372033516484
20
3.86295832507966
30
0
41
1
10
21.1186443255008
20
3.86005581986816
30
0
41
1
10
21.1028635499807
20
3.85850874043118
30
0
0
SPLINE
5
1D5
100
AcDbEntity
8
1
62
256
6
ByLayer
370
18
48
1
60
0
100
AcDbSpline
70
4
71
3
72
8
73
4
40
0
40
0
40
0
40
0
40
1
40
1
40
1
40
1
41
1
10
24.8756364060894
20
-8.06135391858999
30
0
41
1
10
24.8307465042865
20
-8.13586399085031
30
0
41
1
10
24.7858566024836
20
-8.21037406311063
30
0
41
1
10
24.7409667006806
20
-8.28488413537093
30
0
0
SPLINE
5
1D6
100
AcDbEntity
8
1
62
256
6
ByLayer
370
18
48
1
60
0
100
AcDbSpline
70
4
71
3
72
10
73
6
40
0
40
0
40
0
40
0
40
0.619492618643018
40
0.882566741553556
40
1
40
1
40
1
40
1
41
1
10
24.3758628818896
20
8.76859709855259
30
0
41
1
10
24.3941706016309
20
8.79329370884943
30
0
41
1
10
24.4170804239484
20
8.83074222117966
30
0
41
1
10
24.4372183287042
20
8.87584694536693
30
0
41
1
10
24.443845337517
20
8.89337682101706
30
0
41
1
10
24.4458449561862
20
8.89880273713217
30
0
0
SPLINE
5
1D7
100
AcDbEntity
8
1
62
256
6
ByLayer
370
18
48
1
60
0
100
AcDbSpline
70
4
71
3
72
12
73
8
40
0
40
0
40
0
40
0
40
0.0126161277546386
40
0.0321966801651896
40
0.188841099449598
40
0.502129938018414
40
1
40
1
40
1
40
1
41
1
10
23.3353160031058
20
9.01816120055798
30
0
41
1
10
23.3289811494727
20
9.01770566737244
30
0
41
1
10
23.3128085207644
20
9.01668068399351
30
0
41
1
10
23.2179691261905
20
9.01037340881763
30
0
41
1
10
22.9721019784552
20
8.99472874015987
30
0
41
1
10
22.4859588104227
20
8.96583184465652
30
0
41
1
10
22.0784369588997
20
8.94490709010964
30
0
41
1
10
21.8282991606959
20
8.9332346364117
30
0
0
SPLINE
5
1D8
100
AcDbEntity
8
1
62
256
6
ByLayer
370
18
48
1
60
0
100
AcDbSpline
70
4
71
3
72
25
73
21
40
0
40
0
40
0
40
0
40
0.06970299930243
40
0.127067349782374
40
0.146188799942355
40
0.165310250102336
40
0.22267460058228
40
0.299160401222205
40
0.452132002502055
40
0.605103603781905
40
0.68158940442183
40
0.719832304741792
40
0.758075205061755
40
0.83456100570168
40
0.872803906021642
40
0.911046806341605
40
0.930168256501586
40
0.949289706661567
40
0.98753260698153
40
1
40
1
40
1
40
1
41
1
10
18.2241937397397
20
10.3468778562808
30
0
41
1
10
18.2230120926789
20
10.3235625341805
30
0
41
1
10
18.2208802588263
20
10.2810598141787
30
0
41
1
10
18.2184447601184
20
10.2321617803623
30
0
41
1
10
18.2168491033333
20
10.2001825032883
30
0
41
1
10
18.2152504257765
20
10.1682031605701
30
0
41
1
10
18.2126834872706
20
10.1170360393368
30
0
41
1
10
18.2078467926781
20
10.021097485713
30
0
41
1
10
18.2013620912723
20
9.89318006939453
30
0
41
1
10
18.1948437100677
20
9.76526155500707
30
0
41
1
10
18.1903789657872
20
9.67571665786883
30
0
41
1
10
18.1876476546964
20
9.62454916447371
30
0
41
1
10
18.1856416958072
20
9.57337599128539
30
0
41
1
10
18.1847176973065
20
9.52221324988764
30
0
41
1
10
18.1838490386721
20
9.47105315134135
30
0
41
1
10
18.1833597253672
20
9.43907958801771
30
0
41
1
10
18.1830187577669
20
9.41350187456732
30
0
41
1
10
18.1827110389952
20
9.38792495512027
30
0
41
1
10
18.1824750685782
20
9.36457429477943
30
0
41
1
10
18.1823318703349
20
9.34761834573411
30
0
41
1
10
18.182298352232
20
9.34344968540387
30
0
0
SPLINE
5
1D9
100
AcDbEntity
8
1
62
256
6
ByLayer
370
18
48
1
60
0
100
AcDbSpline
70
4
71
3
72
14
73
10
40
0
40
0
40
0
40
0
40
0.0292098283695102
40
0.226767873117785
40
0.424325917866059
40
0.621883962614333
40
0.72066298498847
40
0.819442007362608
40
1
40
1
40
1
40
1
41
1
10
24.9969857911947
20
4.03820795152336
30
0
41
1
10
24.9968966754111
20
4.03865115684314
30
0
41
1
10
24.9960266846507
20
4.04207010179957
30
0
41
1
10
24.9882555349748
20
4.04772020153874
30
0
41
1
10
24.964058715736
20
4.05194459313796
30
0
41
1
10
24.9334354865524
20
4.0531327476306
30
0
41
1
10
24.9030839135725
20
4.05299019441659
30
0
41
1
10
24.8706063697717
20
4.05188528845343
30
0
41
1
10
24.8433041464468
20
4.04996546012708
30
0
41
1
10
24.8244654087339
20
4.04834116658765
30
0
0
SPLINE
5
1DA
100
AcDbEntity
8
1
62
256
6
ByLayer
370
18
48
1
60
0
100
AcDbSpline
70
4
71
3
72
8
73
4
40
0
40
0
40
0
40
0
40
1
40
1
40
1
40
1
41
1
10
24.4718133690466
20
1.97814736730865
30
0
41
1
10
24.432995885588
20
1.75164722297441
30
0
41
1
10
24.3941784021288
20
1.52514707864034
30
0
41
1
10
24.3553609186673
20
1.29864693430684
30
0
0
SPLINE
5
1DB
100
AcDbEntity
8
1
62
256
6
ByLayer
370
18
48
1
60
0
100
AcDbSpline
70
4
71
3
72
8
73
4
40
0
40
0
40
0
40
0
40
1
40
1
40
1
40
1
41
1
10
24.3553609187252
20
1.29864693436957
30
0
41
1
10
24.2621565838605
20
1.2546028481371
30
0
41
1
10
24.1689522489991
20
1.21055876190516
30
0
41
1
10
24.0757479141404
20
1.16651467567371
30
0
0
SPLINE
5
1DC
100
AcDbEntity
8
1
62
256
6
ByLayer
370
18
48
1
60
0
100
AcDbSpline
70
4
71
3
72
8
73
4
40
0
40
0
40
0
40
0
40
1
40
1
40
1
40
1
41
1
10
24.9575829527507
20
3.8570647798827
30
0
41
1
10
24.945079774515
20
3.80806104233014
30
0
41
1
10
24.9325765962794
20
3.7590573047776
30
0
41
1
10
24.9200734180437
20
3.71005356722506
30
0
0
SPLINE
5
1DD
100
AcDbEntity
8
1
62
256
6
ByLayer
370
18
48
1
60
0
100
AcDbSpline
70
4
71
3
72
8
73
4
40
0
40
0
40
0
40
0
40
1
40
1
40
1
40
1
41
1
10
24.5636484119424
20
2.08944773981236
30
0
41
1
10
24.5126292233803
20
1.84044920142239
30
0
41
1
10
24.4616056011075
20
1.59145155862311
30
0
41
1
10
24.4105775451479
20
1.34245481153098
30
0
0
SPLINE
5
1DE
100
AcDbEntity
8
1
62
256
6
ByLayer
370
18
48
1
60
0
100
AcDbSpline
70
4
71
3
72
8
73
4
40
0
40
0
40
0
40
0
40
1
40
1
40
1
40
1
41
1
10
24.4105775451479
20
-10.7073350814272
30
0
41
1
10
24.4105775451479
20
-10.5267024147494
30
0
41
1
10
24.4105775451479
20
-10.346069748086
30
0
41
1
10
24.4105775451479
20
-10.1654370814272
30
0
0
SPLINE
5
1DF
100
AcDbEntity
8
1
62
256
6
ByLayer
370
18
48
1
60
0
100
AcDbSpline
70
4
71
3
72
9
73
5
40
0
40
0
40
0
40
0
40
0.780167728099352
40
1
40
1
40
1
40
1
41
1
10
24.410577545803
20
-10.7073350805493
30
0
41
1
10
24.4105775458055
20
-10.7432732173612
30
0
41
1
10
24.4009929599811
20
-10.78995824743
30
0
41
1
10
24.3800353494692
20
-10.8330211131789
30
0
41
1
10
24.3749138675144
20
-10.8422595998958
30
0
0
SPLINE
5
1E0
100
AcDbEntity
8
1
62
256
6
ByLayer
370
18
48
1
60
0
100
AcDbSpline
70
4
71
3
72
11
73
7
40
0
40
0
40
0
40
0
40
0.121935583196933
40
0.766813868808768
40
0.928033440211727
40
1
40
1
40
1
40
1
41
1
10
24.3132289619377
20
-6.79988982713223
30
0
41
1
10
24.3204626371663
20
-6.80556993361745
30
0
41
1
10
24.3647328443112
20
-6.84264155879319
30
0
41
1
10
24.4083646607761
20
-6.89736945113063
30
0
41
1
10
24.4372183287042
20
-6.95583705104877
30
0
41
1
10
24.443845337517
20
-6.9718181283834
30
0
41
1
10
24.4458449561861
20
-6.97676983485633
30
0
0
SPLINE
5
1E1
100
AcDbEntity
8
1
62
256
6
ByLayer
370
18
48
1
60
0
100
AcDbSpline
70
4
71
3
72
12
73
8
40
0
40
0
40
0
40
0
40
0.232693281035065
40
0.465386562070129
40
0.698079843105193
40
0.930773124140258
40
1
40
1
40
1
40
1
41
1
10
24.8366400640327
20
-10.1418738572295
30
0
41
1
10
24.8372859326076
20
-10.1629811778688
30
0
41
1
10
24.8351231340677
20
-10.205521320553
30
0
41
1
10
24.8214135399733
20
-10.2687564847761
30
0
41
1
10
24.7971367603798
20
-10.3298650451766
30
0
41
1
10
24.7704693789806
20
-10.3734094987784
30
0
41
1
10
24.7524668569333
20
-10.3961896704284
30
0
41
1
10
24.7481875862782
20
-10.4013042103976
30
0
0
SPLINE
5
1E2
100
AcDbEntity
8
1
62
256
6
ByLayer
370
18
48
1
60
0
100
AcDbSpline
70
4
71
3
72
8
73
4
40
0
40
0
40
0
40
0
40
1
40
1
40
1
40
1
41
1
10
24.4458359367396
20
-6.97677236395052
30
0
41
1
10
24.4323632426696
20
-6.9945479033218
30
0
41
1
10
24.4188905485996
20
-7.01232344269312
30
0
41
1
10
24.4054178545296
20
-7.0300989820644
30
0
0
SPLINE
5
1E3
100
AcDbEntity
8
1
62
256
6
ByLayer
370
18
48
1
60
0
100
AcDbSpline
70
4
71
3
72
14
73
10
40
0
40
0
40
0
40
0
40
0.184073021429078
40
0.184073021429078
40
0.368146042858156
40
0.368146042858156
40
0.736292085716313
40
0.736292085716313
40
1
40
1
40
1
40
1
41
1
10
22.1874616803662
20
3.6917514343842
30
0
41
1
10
22.1750565958873
20
3.69762493809563
30
0
41
1
10
22.159409838007
20
3.70581244043231
30
0
41
1
10
22.1265659722295
20
3.72314928107141
30
0
41
1
10
22.1094212732561
20
3.73227666252876
30
0
41
1
10
22.057659981858
20
3.75918993228598
30
0
41
1
10
22.022633222702
20
3.77645532879964
30
0
41
1
10
21.9655647596809
20
3.80160481352633
30
0
41
1
10
21.9426134232024
20
3.81078240767945
30
0
41
1
10
21.9218081132786
20
3.81841659363775
30
0
0
SPLINE
5
1E4
100
AcDbEntity
8
1
62
256
6
ByLayer
370
18
48
1
60
0
100
AcDbSpline
70
4
71
3
72
8
73
4
40
0
40
0
40
0
40
0
40
1
40
1
40
1
40
1
41
1
10
24.9575829527506
20
-8.56639877180589
30
0
41
1
10
24.9397544738979
20
-8.59321747717726
30
0
41
1
10
24.9219259950451
20
-8.62003618254866
30
0
41
1
10
24.9040975161923
20
-8.64685488792006
30
0
0
SPLINE
5
1E5
100
AcDbEntity
8
1
62
256
6
ByLayer
370
18
48
1
60
0
100
AcDbSpline
70
4
71
3
72
30
73
26
40
0
40
0
40
0
40
0
40
0.0500314776404217
40
0.0912065095202116
40
0.104931520146808
40
0.118656530773405
40
0.159831562653195
40
0.214731605159581
40
0.324531690172355
40
0.434331775185128
40
0.489231817691514
40
0.516681838944707
40
0.544131860197901
40
0.599031902704287
40
0.626481923957481
40
0.653931945210674
40
0.66765695583727
40
0.681381966463867
40
0.70883198771706
40
0.763732030223447
40
0.818632072729834
40
0.846082093983027
40
0.87353211523622
40
0.983332200248994
40
1
40
1
40
1
40
1
41
1
10
24.9575882405159
20
-8.5663981484588
30
0
41
1
10
24.9587698220867
20
-8.58842709536825
30
0
41
1
10
24.9609014520146
20
-8.62858703593881
30
0
41
1
10
24.9633365263283
20
-8.67479143026296
30
0
41
1
10
24.9649318268065
20
-8.70500874690569
30
0
41
1
10
24.9665301080054
20
-8.73522580222138
30
0
41
1
10
24.9690963075697
20
-8.78357229131757
30
0
41
1
10
24.9739315031545
20
-8.87421969793277
30
0
41
1
10
24.9804146482827
20
-8.9950788451612
30
0
41
1
10
24.9869338849429
20
-9.11593665589427
30
0
41
1
10
24.9914008054404
20
-9.20054959665751
30
0
41
1
10
24.9941347159023
20
-9.24888119918649
30
0
41
1
10
24.9961409387827
20
-9.29729078105237
30
0
41
1
10
24.9970643705036
20
-9.34579986229201
30
0
41
1
10
24.9979329120928
20
-9.39431224063972
30
0
41
1
10
24.9984222429205
20
-9.4246365304306
30
0
41
1
10
24.9987632209165
20
-9.44890000197455
30
0
41
1
10
24.9990709479338
20
-9.4731660914596
30
0
41
1
10
24.9995232542398
20
-9.51563842275451
30
0
41
1
10
24.9999291767262
20
-9.57633112431154
30
0
41
1
10
25.0000310653078
20
-9.6370447412983
30
0
41
1
10
24.9999288779916
20
-9.6856275095333
30
0
41
1
10
24.9995912599167
20
-9.75851319922523
30
0
41
1
10
24.9988435782172
20
-9.82665353778606
30
0
41
1
10
24.9978975218909
20
-9.88265901943652
30
0
41
1
10
24.9977665641119
20
-9.89004050282344
30
0
0
SPLINE
5
1E6
100
AcDbEntity
8
1
62
256
6
ByLayer
370
18
48
1
60
0
100
AcDbSpline
70
4
71
3
72
17
73
13
40
0
40
0
40
0
40
0
40
0.0305121819771356
40
0.14453769268623
40
0.258563203395324
40
0.372588714104418
40
0.486614224813512
40
0.600639735522606
40
0.657652490877153
40
0.7146652462317
40
0.828690756940795
40
1
40
1
40
1
40
1
41
1
10
23.9135529850892
20
9.45319592960453
30
0
41
1
10
23.9126200978794
20
9.45071883261349
30
0
41
1
10
23.9081622646774
20
9.43899786516639
30
0
41
1
10
23.8997325722485
20
9.41818506799567
30
0
41
1
10
23.8872456202107
20
9.39117838355631
30
0
41
1
10
23.8735316926005
20
9.36472631759011
30
0
41
1
10
23.8586286335152
20
9.33888396952023
30
0
41
1
10
23.8452488193592
20
9.31789939623687
30
0
41
1
10
23.8339868158702
20
9.3014677387919
30
0
41
1
10
23.8223587798671
20
9.2852819391737
30
0
41
1
10
23.8040923494393
20
9.26155681914196
30
0
41
1
10
23.7877788914925
20
9.24263258475472
30
0
41
1
10
23.7776146445593
20
9.23160526059149
30
0
0
SPLINE
5
1E7
100
AcDbEntity
8
1
62
256
6
ByLayer
370
18
48
1
60
0
100
AcDbSpline
70
4
71
3
72
16
73
12
40
0
40
0
40
0
40
0
40
0.0404110475321235
40
0.225737146307148
40
0.411063245082172
40
0.596389343857196
40
0.642720868550952
40
0.689052393244709
40
0.78171544263222
40
0.967041541407245
40
1
40
1
40
1
40
1
41
1
10
23.6381116668429
20
9.11619150720324
30
0
41
1
10
23.6344145682413
20
9.11389237657394
30
0
41
1
10
23.6136403032218
20
9.10125045819302
30
0
41
1
10
23.5746106473078
20
9.08030221868043
30
0
41
1
10
23.5195919391099
20
9.05685939338264
30
0
41
1
10
23.47698232893
20
9.04316102089979
30
0
41
1
10
23.4481770048356
20
9.03568818901766
30
0
41
1
10
23.4288778601987
20
9.0311515580625
30
0
41
1
10
23.3948817241865
20
9.02438846145623
30
0
41
1
10
23.3619690320354
20
9.02018691013654
30
0
41
1
10
23.338813004063
20
9.01841266650783
30
0
41
1
10
23.3353160031058
20
9.01816120055798
30
0
0
SPLINE
5
1E8
100
AcDbEntity
8
1
62
256
6
ByLayer
370
18
48
1
60
0
100
AcDbSpline
70
4
71
3
72
9
73
5
40
0
40
0
40
0
40
0
40
0.492653799062476
40
1
40
1
40
1
40
1
41
1
10
24.397044738148
20
-6.98722485361623
30
0
41
1
10
24.4014758906334
20
-7.00375091135388
30
0
41
1
10
24.408275029569
20
-7.03730150078164
30
0
41
1
10
24.4105775451567
20
-7.07056854999448
30
0
41
1
10
24.4105775451537
20
-7.08729529517487
30
0
0
SPLINE
5
1E9
100
AcDbEntity
8
1
62
256
6
ByLayer
370
18
48
1
60
0
100
AcDbSpline
70
4
71
3
72
8
73
4
40
0
40
0
40
0
40
0
40
1
40
1
40
1
40
1
41
1
10
20.0843641684119
20
-7.41677490158273
30
0
41
1
10
20.097763417329
20
-7.44137206053369
30
0
41
1
10
20.111162666246
20
-7.46596921948466
30
0
41
1
10
20.124561915163
20
-7.49056637843566
30
0
0
SPLINE
5
1EA
100
AcDbEntity
8
1
62
256
6
ByLayer
370
18
48
1
60
0
100
AcDbSpline
70
4
71
3
72
8
73
4
40
0
40
0
40
0
40
0
40
1
40
1
40
1
40
1
41
1
10
19.1974575176517
20
-8.85131152404912
30
0
41
1
10
19.1813977133604
20
-8.82183035227965
30
0
41
1
10
19.165337909069
20
-8.79234918051017
30
0
41
1
10
19.1492781047776
20
-8.7628680087407
30
0
0
SPLINE
5
1EB
100
AcDbEntity
8
1
62
256
6
ByLayer
370
18
48
1
60
0
100
AcDbSpline
70
4
71
3
72
17
73
13
40
0
40
0
40
0
40
0
40
0.0031078336060731
40
0.0320925903968235
40
0.0900621039783242
40
0.148031617559825
40
0.206001131141326
40
0.263970644722826
40
0.321940158304327
40
0.379909671885828
40
0.61178772621183
40
1
40
1
40
1
40
1
41
1
10
18.7359368448949
20
-9.30505217592216
30
0
41
1
10
18.7356966976418
20
-9.30457449352608
30
0
41
1
10
18.7332236434531
20
-9.29964085453
30
0
41
1
10
18.7264527684355
20
-9.28577289319335
30
0
41
1
10
18.7154189365377
20
-9.2634794827085
30
0
41
1
10
18.7021814681892
20
-9.23672536485191
30
0
41
1
10
18.6889468296807
20
-9.20997092609778
30
0
41
1
10
18.6757148044039
20
-9.18321619094584
30
0
41
1
10
18.6624851757501
20
-9.15646118389583
30
0
41
1
10
18.6360302784716
20
-9.10295067499911
30
0
41
1
10
18.5844763212878
20
-8.99863123580076
30
0
41
1
10
18.5373507971496
20
-8.90322801861646
30
0
41
1
10
18.5078448605926
20
-8.8435004005004
30
0
0
SPLINE
5
1EC
100
AcDbEntity
8
1
62
256
6
ByLayer
370
18
48
1
60
0
100
AcDbSpline
70
4
71
3
72
9
73
5
40
0
40
0
40
0
40
0
40
0.0199668585154241
40
1
40
1
40
1
40
1
41
1
10
24.7826102870073
20
-8.39429519975405
30
0
41
1
10
24.7827619772038
20
-8.39484769707659
30
0
41
1
10
24.7903045081844
20
-8.422519163939
30
0
41
1
10
24.7950919016949
20
-8.45022553061523
30
0
41
1
10
24.7961865887867
20
-8.47701024841427
30
0
0
SPLINE
5
1ED
100
AcDbEntity
8
1
62
256
6
ByLayer
370
18
48
1
60
0
100
AcDbSpline
70
4
71
3
72
8
73
4
40
0
40
0
40
0
40
0
40
1
40
1
40
1
40
1
41
1
10
24.8756364060894
20
-8.55739336863249
30
0
41
1
10
24.8602450842938
20
-8.52686701637114
30
0
41
1
10
24.8448537624982
20
-8.49634066410979
30
0
41
1
10
24.8294624407025
20
-8.46581431184848
30
0
0
SPLINE
5
1EE
100
AcDbEntity
8
1
62
256
6
ByLayer
370
18
48
1
60
0
100
AcDbSpline
70
4
71
3
72
25
73
21
40
0
40
0
40
0
40
0
40
0.00164933620886
40
0.0170316297738986
40
0.0477962169039758
40
0.078560804034053
40
0.10932539116413
40
0.140089978294207
40
0.170854565424285
40
0.201619152554362
40
0.32467750107467
40
0.570794198115288
40
0.693852546635597
40
0.724617133765674
40
0.755381720895751
40
0.816910895155905
40
0.939969243676214
40
0.970733830806291
40
0.98611612437133
40
1
40
1
40
1
40
1
41
1
10
24.4458449561862
20
8.89880273713217
30
0
41
1
10
24.4460851115576
20
8.89945439283042
30
0
41
1
10
24.4485582448143
20
8.90618597322475
30
0
41
1
10
24.4553291857654
20
8.92513518970662
30
0
41
1
10
24.4663629216072
20
8.95557550763911
30
0
41
1
10
24.4796004508404
20
8.9921066212051
30
0
41
1
10
24.492835139207
20
9.02863865769621
30
0
41
1
10
24.5060672042021
20
9.06517154640235
30
0
41
1
10
24.5192968633207
20
9.1017052166134
30
0
41
1
10
24.5457518047951
20
9.17477397862515
30
0
41
1
10
24.603049493387
20
9.33309656390188
30
0
41
1
10
24.6735344965017
20
9.5279665622154
30
0
41
1
10
24.7308201769409
20
9.68629301649818
30
0
41
1
10
24.7572659830938
20
9.7593647447126
30
0
41
1
10
24.7748983946226
20
9.80807862636232
30
0
41
1
10
24.8057605708547
20
9.89332616310114
30
0
41
1
10
24.8366358054449
20
9.97856950312979
30
0
41
1
10
24.8608366870593
20
10.0455651438686
30
0
41
1
10
24.8694823121332
20
10.0693147268358
30
0
41
1
10
24.8736780787366
20
10.0808992721944
30
0
41
1
10
24.875641551197
20
10.086403649113
30
0
0
SPLINE
5
1EF
100
AcDbEntity
8
1
62
256
6
ByLayer
370
18
48
1
60
0
100
AcDbSpline
70
4
71
3
72
15
73
11
40
0
40
0
40
0
40
0
40
0.0034237104021429
40
0.038570458988907
40
0.073717207575671
40
0.144010704749199
40
0.425184693443311
40
0.706358682137424
40
0.987532670831536
40
1
40
1
40
1
40
1
41
1
10
24.875641551197
20
10.086403649113
30
0
41
1
10
24.8758534590555
20
10.0869977092532
30
0
41
1
10
24.8782372042839
20
10.0936913436941
30
0
41
1
10
24.8827098976106
20
10.1065111579301
30
0
41
1
10
24.8907626765626
20
10.1311023185473
30
0
41
1
10
24.9108435591955
20
10.1993069623919
30
0
41
1
10
24.9336510251493
20
10.3131840403122
30
0
41
1
10
24.9493218965087
20
10.4664840437278
30
0
41
1
10
24.954762421278
20
10.5710935343249
30
0
41
1
10
24.9574732607713
20
10.624530878504
30
0
41
1
10
24.957588240516
20
10.6267997010451
30
0
0
SPLINE
5
1F0
100
AcDbEntity
8
1
62
256
6
ByLayer
370
18
48
1
60
0
100
AcDbSpline
70
4
71
3
72
32
73
28
40
0
40
0
40
0
40
0
40
0.0485688260217204
40
0.0885401211767656
40
0.101863886228447
40
0.115187651280129
40
0.155158946435174
40
0.208454006641901
40
0.315044127055355
40
0.421634247468809
40
0.474929307675536
40
0.501576837778899
40
0.528224367882263
40
0.58151942808899
40
0.608166958192353
40
0.634814488295717
40
0.648138253347398
40
0.66146201839908
40
0.688109548502443
40
0.74140460870917
40
0.794699668915897
40
0.821347199019261
40
0.847994729122624
40
0.954584849536078
40
0.981232379639441
40
0.994556144691123
40
1
40
1
40
1
40
1
41
1
10
24.957588240516
20
10.6267997010451
30
0
41
1
10
24.9587698220867
20
10.6501151024743
30
0
41
1
10
24.9609014520146
20
10.6926180694923
30
0
41
1
10
24.9633365263283
20
10.7415166173819
30
0
41
1
10
24.9649318268065
20
10.7734963260544
30
0
41
1
10
24.9665301080054
20
10.8054761488851
30
0
41
1
10
24.9690963075697
20
10.8566441652063
30
0
41
1
10
24.9739315031545
20
10.9525845345944
30
0
41
1
10
24.9804146482827
20
11.0805038360487
30
0
41
1
10
24.9869338849429
20
11.2084213142136
30
0
41
1
10
24.9914008054404
20
11.2979635752767
30
0
41
1
10
24.9941347159023
20
11.3491279200254
30
0
41
1
10
24.9961409387828
20
11.4003007734383
30
0
41
1
10
24.9970643705036
20
11.4514642013826
30
0
41
1
10
24.9979329120929
20
11.502624441707
30
0
41
1
10
24.9984222429205
20
11.5345979838052
30
0
41
1
10
24.9987632209166
20
11.560175684663
30
0
41
1
10
24.9990709479338
20
11.5857525941222
30
0
41
1
10
24.9995232542398
20
11.6305100132692
30
0
41
1
10
24.9999291767263
20
11.6944424338299
30
0
41
1
10
25.0000310653078
20
11.7583644074635
30
0
41
1
10
24.9999288779916
20
11.8094948691666
30
0
41
1
10
24.9995912599167
20
11.8861830199935
30
0
41
1
10
24.998791201792
20
11.9628512551919
30
0
41
1
10
24.9976280550389
20
12.0331083233293
30
0
41
1
10
24.9972218471098
20
12.0548757763262
30
0
41
1
10
24.9970473570562
20
12.0638719948202
30
0
41
1
10
24.9969857911947
20
12.066480815199
30
0
0
SPLINE
5
1F1
100
AcDbEntity
8
1
62
256
6
ByLayer
370
18
48
1
60
0
100
AcDbSpline
70
4
71
3
72
19
73
15
40
0
40
0
40
0
40
0
40
0.0180580736808066
40
0.140192229457763
40
0.262326385234719
40
0.384460541011676
40
0.445527618900154
40
0.506594696788632
40
0.628728852565589
40
0.750863008342545
40
0.872997164119501
40
0.93406424200798
40
0.995131319896458
40
1
40
1
40
1
40
1
41
1
10
24.9969857911947
20
12.066480815199
30
0
41
1
10
24.9968966754111
20
12.0702570487603
30
0
41
1
10
24.9960266846507
20
12.099562437721
30
0
41
1
10
24.9882555349748
20
12.1539789797732
30
0
41
1
10
24.9640587157361
20
12.2261183120876
30
0
41
1
10
24.9334354865524
20
12.2813902287921
30
0
41
1
10
24.9030839135725
20
12.3216938366436
30
0
41
1
10
24.8691461832617
20
12.359013028013
30
0
41
1
10
24.8205171137745
20
12.3994585702518
30
0
41
1
10
24.7537359181032
20
12.4362893783212
30
0
41
1
10
24.692979351625
20
12.4560943740577
30
0
41
1
10
24.6424605704832
20
12.4647254787698
30
0
41
1
10
24.6157903599898
20
12.4666437251761
30
0
41
1
10
24.6019025666026
20
12.4669687639291
30
0
41
1
10
24.6008769318965
20
12.4669900888473
30
0
0
SPLINE
5
1F2
100
AcDbEntity
8
1
62
256
6
ByLayer
370
18
48
1
60
0
100
AcDbSpline
70
4
71
3
72
15
73
11
40
0
40
0
40
0
40
0
40
0.0021852238900189
40
0.0053936315302439
40
0.0118104468106939
40
0.024644077371594
40
0.0759785996151943
40
0.178647644102395
40
0.589323822051197
40
1
40
1
40
1
40
1
41
1
10
24.6008769318965
20
12.4669900888473
30
0
41
1
10
24.5986864734751
20
12.4670356326911
30
0
41
1
10
24.5932780815601
20
12.4671179198273
30
0
41
1
10
24.5814335173156
20
12.467262876532
30
0
41
1
10
24.5589158926655
20
12.467645685752
30
0
41
1
10
24.4881382690446
20
12.4687080319626
30
0
41
1
10
24.3208423412129
20
12.4711507413709
30
0
41
1
10
23.75453637878
20
12.4780176992568
30
0
41
1
10
22.8275177575258
20
12.4823647016717
30
0
41
1
10
22.0031395778594
20
12.4764801802979
30
0
41
1
10
21.590891002892
20
12.4711479188767
30
0
0
SPLINE
5
1F3
100
AcDbEntity
8
1
62
256
6
ByLayer
370
18
48
1
60
0
100
AcDbSpline
70
4
71
3
72
8
73
4
40
0
40
0
40
0
40
0
40
1
40
1
40
1
40
1
41
1
10
21.590891002892
20
12.4711479188767
30
0
41
1
10
21.605361683866
20
12.2954622836139
30
0
41
1
10
21.61983236484
20
12.1197766483511
30
0
41
1
10
21.6343030458141
20
11.9440910130883
30
0
0
SPLINE
5
1F4
100
AcDbEntity
8
1
62
256
6
ByLayer
370
18
48
1
60
0
100
AcDbSpline
70
4
71
3
72
13
73
9
40
0
40
0
40
0
40
0
40
0.0415335913911599
40
0.0955852659187822
40
0.311791964029272
40
0.74420536025025
40
0.960412058360739
40
1
40
1
40
1
40
1
41
1
10
24.1029277151328
20
9.96836915524952
30
0
41
1
10
24.1003463298923
20
9.96122376923501
30
0
41
1
10
24.0942681788865
20
9.94482321106148
30
0
41
1
10
24.0747052583778
20
9.89124216939823
30
0
41
1
10
24.0304335863054
20
9.77054860635198
30
0
41
1
10
23.975952691639
20
9.62199907241691
30
0
41
1
10
23.932209215175
20
9.50391842082465
30
0
41
1
10
23.916106342836
20
9.4599758647619
30
0
41
1
10
23.9135529850892
20
9.45319592960453
30
0
0
SPLINE
5
1F5
100
AcDbEntity
8
1
62
256
6
ByLayer
370
18
48
1
60
0
100
AcDbSpline
70
4
71
3
72
22
73
18
40
0
40
0
40
0
40
0
40
0.0173062552164517
40
0.0745914966662758
40
0.150971818599375
40
0.303732462465572
40
0.45649310633177
40
0.609253750197967
40
0.647443911164517
40
0.666538991647791
40
0.685634072131066
40
0.704729152614341
40
0.723824233097615
40
0.762014394064165
40
0.914775037930362
40
0.991155359863461
40
1
40
1
40
1
40
1
41
1
10
24.1967795487885
20
10.7300455287344
30
0
41
1
10
24.196331794084
20
10.7256285702778
30
0
41
1
10
24.1944336362783
20
10.7065892311047
30
0
41
1
10
24.1910666299435
20
10.6680275738558
30
0
41
1
10
24.1859915493168
20
10.5948117117248
30
0
41
1
10
24.1814274992395
20
10.4971579159114
30
0
41
1
10
24.1760029126173
20
10.3799208930071
30
0
41
1
10
24.1694158241801
20
10.2920978474712
30
0
41
1
10
24.1634514394931
20
10.2385232341069
30
0
41
1
10
24.1610422947543
20
10.2190601098491
30
0
41
1
10
24.1591081082448
20
10.2044740900462
30
0
41
1
10
24.1570394046146
20
10.1899014403593
30
0
41
1
10
24.1540921913929
20
10.170491796566
30
0
41
1
10
24.1451684300504
20
10.1172113257564
30
0
41
1
10
24.1300011940305
20
10.0499028145655
30
0
41
1
10
24.1111503251197
20
9.99129096968332
30
0
41
1
10
24.1037057358616
20
9.97052275028369
30
0
41
1
10
24.1029277151328
20
9.96836915524952
30
0
0
SPLINE
5
1F6
100
AcDbEntity
8
1
62
256
6
ByLayer
370
18
48
1
60
0
100
AcDbSpline
70
4
71
3
72
25
73
21
40
0
40
0
40
0
40
0
40
0.0333597394323615
40
0.107582966694294
40
0.181806193956226
40
0.218917807587193
40
0.237473614402676
40
0.256029421218159
40
0.293141034849125
40
0.330252648480091
40
0.404475875742024
40
0.44158748937299
40
0.478699103003956
40
0.552922330265889
40
0.701368784789754
40
0.849815239313619
40
0.924038466575551
40
0.979705887022001
40
0.998261693837484
40
1
40
1
40
1
40
1
41
1
10
24.271661862333
20
11.518179836128
30
0
41
1
10
24.2711751542557
20
11.5094023130954
30
0
41
1
10
24.2692745601247
20
11.481101598615
30
0
41
1
10
24.2662522422967
20
11.4332727895383
30
0
41
1
10
24.2627893043379
20
11.3844670047283
30
0
41
1
10
24.2604682582054
20
11.3502999029218
30
0
41
1
10
24.2587356997046
20
11.3307894695629
30
0
41
1
10
24.2562341606063
20
11.3113334439248
30
0
41
1
10
24.2536488533053
20
11.2869723830349
30
0
41
1
10
24.2498475547857
20
11.2479754446195
30
0
41
1
10
24.2459147172737
20
11.2089856839663
30
0
41
1
10
24.2419690189647
20
11.1699968120076
30
0
41
1
10
24.2380149909537
20
11.1310085093364
30
0
41
1
10
24.2310742173931
20
11.062780413206
30
0
41
1
10
24.2211018474845
20
10.9653154526566
30
0
41
1
10
24.2110632719346
20
10.8678545626999
30
0
41
1
10
24.2034692145569
20
10.794763093975
30
0
41
1
10
24.1994300473318
20
10.7557802700411
30
0
41
1
10
24.19736706472
20
10.7358320827978
30
0
41
1
10
24.1968258300271
20
10.7305020785073
30
0
41
1
10
24.1967795487885
20
10.7300455287344
30
0
0
SPLINE
5
1F7
100
AcDbEntity
8
1
62
256
6
ByLayer
370
18
48
1
60
0
100
AcDbSpline
70
4
71
3
72
24
73
20
40
0
40
0
40
0
40
0
40
0.0083012810712616
40
0.0512299228286063
40
0.094158564585951
40
0.18001584810064
40
0.26587313161533
40
0.351730415130019
40
0.394659056887364
40
0.437587698644708
40
0.523444982159398
40
0.609302265674087
40
0.695159549188776
40
0.716623870067449
40
0.738088190946121
40
0.781016832703466
40
0.952731399732844
40
0.995660041490189
40
1
40
1
40
1
40
1
41
1
10
23.9305453545984
20
12.0136695107296
30
0
41
1
10
23.9324471474801
20
12.0136940514562
30
0
41
1
10
23.944181775994
20
12.0137863677818
30
0
41
1
10
23.9657091422312
20
12.0127517831822
30
0
41
1
10
24.0044376797476
20
12.0070507595337
30
0
41
1
10
24.0510910685657
20
11.9925220903516
30
0
41
1
10
24.1018524465409
20
11.9639793944537
30
0
41
1
10
24.1385487205713
20
11.9325787543565
30
0
41
1
10
24.1643263401076
20
11.9040144885438
30
0
41
1
10
24.1877527955007
20
11.8734931379718
30
0
41
1
10
24.212693248815
20
11.8323070740781
30
0
41
1
10
24.2361533646098
20
11.7792956872743
30
0
41
1
10
24.2492569482948
20
11.7377962327891
30
0
41
1
10
24.2562431604922
20
11.7096118289965
30
0
41
1
10
24.2604422291807
20
11.6906978849333
30
0
41
1
10
24.2701322789543
20
11.6382286319814
30
0
41
1
10
24.2741929988714
20
11.5797461644929
30
0
41
1
10
24.2722986468376
20
11.5299191733922
30
0
41
1
10
24.2717166009942
20
11.5191670189644
30
0
41
1
10
24.271661862333
20
11.518179836128
30
0
0
SPLINE
5
1F8
100
AcDbEntity
8
1
62
256
6
ByLayer
370
18
48
1
60
0
100
AcDbSpline
70
4
71
3
72
15
73
11
40
0
40
0
40
0
40
0
40
0.411276026541516
40
0.822552053083031
40
0.92537105971841
40
0.9767805630361
40
0.989632938865522
40
0.996059126780233
40
0.999272220737589
40
1
40
1
40
1
40
1
41
1
10
21.6343030458141
20
11.9440910130883
30
0
41
1
10
21.9491113335944
20
11.9580251853772
30
0
41
1
10
22.5787514453805
20
11.98219411033
30
0
41
1
10
23.2870567601373
20
12.0012978736924
30
0
41
1
10
23.7198602472293
20
12.0099769307912
30
0
41
1
10
23.8477279448604
20
12.0122467790968
30
0
41
1
10
23.9018258672485
20
12.0131912214084
30
0
41
1
10
23.9190377151069
20
12.0134562761854
30
0
41
1
10
23.9269726979069
20
12.0136189619329
30
0
41
1
10
23.9299884490993
20
12.0136623244236
30
0
41
1
10
23.9305453545984
20
12.0136695107296
30
0
0
SPLINE
5
1F9
100
AcDbEntity
8
1
62
256
6
ByLayer
370
18
48
1
60
0
100
AcDbSpline
70
4
71
3
72
16
73
12
40
0
40
0
40
0
40
0
40
0.517375104625282
40
0.776062656937923
40
0.905406433094243
40
0.921574405113783
40
0.937742377133323
40
0.970078321172404
40
0.986246293191944
40
0.994330279201714
40
1
40
1
40
1
40
1
41
1
10
21.5908910056248
20
12.4711479144849
30
0
41
1
10
21.1786424322008
20
12.4658156504358
30
0
41
1
10
20.5601797464985
20
12.4542358630489
30
0
41
1
10
19.8385573612525
20
12.4345456085825
30
0
41
1
10
19.5163939539854
20
12.4244143448577
30
0
41
1
10
19.3875276951789
20
12.4201393373151
30
0
41
1
10
19.3359811040054
20
12.4184124879211
30
0
41
1
10
19.2844343693328
20
12.4166647663365
30
0
41
1
10
19.2393308298925
20
12.4151249421894
30
0
41
1
10
19.2154818497355
20
12.4142679764308
30
0
41
1
10
19.2045189501808
20
12.4139377938712
30
0
41
1
10
19.1999999780003
20
12.4137629146902
30
0
0
SPLINE
5
1FA
100
AcDbEntity
8
1
62
256
6
ByLayer
370
18
48
1
60
0
100
AcDbSpline
70
4
71
3
72
15
73
11
40
0
40
0
40
0
40
0
40
0.0095746787020081
40
0.137815053134626
40
0.266055427567244
40
0.394295801999862
40
0.650776550865098
40
0.907257299730334
40
0.971377486946643
40
1
40
1
40
1
40
1
41
1
10
19.1999999780003
20
12.4137629146902
30
0
41
1
10
19.1980757214602
20
12.4136884481092
30
0
41
1
10
19.1703793017003
20
12.4125154208291
30
0
41
1
10
19.1169433372814
20
12.4059078006334
30
0
41
1
10
19.0416969840732
20
12.3844084038379
30
0
41
1
10
18.9464941692318
20
12.3407633892261
30
0
41
1
10
18.8416342608585
20
12.2598176514781
30
0
41
1
10
18.7734156324679
20
12.1624588789605
30
0
41
1
10
18.744563082092
20
12.0978313017514
30
0
41
1
10
18.7379363959675
20
12.0803010352254
30
0
41
1
10
18.7359368448949
20
12.0748750372299
30
0
0
SPLINE
5
1FB
100
AcDbEntity
8
1
62
256
6
ByLayer
370
18
48
1
60
0
100
AcDbSpline
70
4
71
3
72
25
73
21
40
0
40
0
40
0
40
0
40
0.00164933620886
40
0.0170316297738986
40
0.0477962169039758
40
0.0785608040340529
40
0.10932539116413
40
0.140089978294207
40
0.170854565424284
40
0.201619152554362
40
0.32467750107467
40
0.570794198115287
40
0.693852546635596
40
0.724617133765673
40
0.755381720895751
40
0.816910895155905
40
0.939969243676213
40
0.970733830806291
40
0.986116124371329
40
1
40
1
40
1
40
1
41
1
10
18.7359368448949
20
12.0748750372299
30
0
41
1
10
18.7356966976418
20
12.0742233716978
30
0
41
1
10
18.7332236434531
20
12.0674916955276
30
0
41
1
10
18.7264527684356
20
12.0485423991795
30
0
41
1
10
18.7154189365378
20
12.0181021976008
30
0
41
1
10
18.7021814681892
20
11.9815710102847
30
0
41
1
10
18.6889468296807
20
11.9450389133998
30
0
41
1
10
18.6757148044039
20
11.9085059765825
30
0
41
1
10
18.6624851757501
20
11.8719722694691
30
0
41
1
10
18.6360302784717
20
11.7989034539223
30
0
41
1
10
18.5787326046
20
11.6405808508148
30
0
41
1
10
18.5082474937043
20
11.4457109830575
30
0
41
1
10
18.4509618077958
20
11.2873845353997
30
0
41
1
10
18.4245160068872
20
11.2143128008329
30
0
41
1
10
18.4068836003914
20
11.1655989130866
30
0
41
1
10
18.376021435598
20
11.0803513624921
30
0
41
1
10
18.3451462120937
20
10.9951080090349
30
0
41
1
10
18.3209453315538
20
10.9281123669946
30
0
41
1
10
18.3122997158436
20
10.9043627726851
30
0
41
1
10
18.308103948515
20
10.8927782282049
30
0
41
1
10
18.3061404741258
20
10.8872738536228
30
0
0
SPLINE
5
1FC
100
AcDbEntity
8
1
62
256
6
ByLayer
370
18
48
1
60
0
100
AcDbSpline
70
4
71
3
72
15
73
11
40
0
40
0
40
0
40
0
40
0.0034237104021409
40
0.038570458988905
40
0.073717207575669
40
0.144010704749197
40
0.425184693443309
40
0.706358682137422
40
0.987532670831534
40
1
40
1
40
1
40
1
41
1
10
18.3061404741258
20
10.8872738536228
30
0
41
1
10
18.3059285660591
20
10.8866797937347
30
0
41
1
10
18.3035448182774
20
10.8799861623865
30
0
41
1
10
18.2990721154727
20
10.8671663596314
30
0
41
1
10
18.2910193191864
20
10.8425752200113
30
0
41
1
10
18.2709384048131
20
10.7743706146143
30
0
41
1
10
18.2481309193429
20
10.6604935603344
30
0
41
1
10
18.2324600298733
20
10.5071935788559
30
0
41
1
10
18.2270197051066
20
10.4025838459934
30
0
41
1
10
18.2243087258571
20
10.3491466711024
30
0
41
1
10
18.2241937397397
20
10.3468778562808
30
0
0
SPLINE
5
1FD
100
AcDbEntity
8
1
62
256
6
ByLayer
370
18
48
1
60
0
100
AcDbSpline
70
4
71
3
72
12
73
8
40
0
40
0
40
0
40
0
40
0.011177498570249
40
0.0285252617532271
40
0.167307367217052
40
0.444871578144701
40
1
40
1
40
1
40
1
41
1
10
19.9332900885227
20
11.85034537268
30
0
41
1
10
19.9396249421557
20
11.8508009058656
30
0
41
1
10
19.955797570864
20
11.8518258892445
30
0
41
1
10
20.0506369654379
20
11.8581331644204
30
0
41
1
10
20.2965041131733
20
11.8737778330781
30
0
41
1
10
20.847299185678
20
11.9065177103417
30
0
41
1
10
21.3194947580339
20
11.9301568407994
30
0
41
1
10
21.6343030458142
20
11.9440910130884
30
0
0
SPLINE
5
1FE
100
AcDbEntity
8
1
62
256
6
ByLayer
370
18
48
1
60
0
100
AcDbSpline
70
4
71
3
72
26
73
22
40
0
40
0
40
0
40
0
40
0.0104432737123549
40
0.0494702964083704
40
0.088497319104386
40
0.127524341800402
40
0.166551364496417
40
0.205578387192433
40
0.225091898540441
40
0.244605409888448
40
0.283632432584464
40
0.439740523368526
40
0.595848614152589
40
0.67390265954462
40
0.751956704936651
40
0.830010750328682
40
0.84952426167669
40
0.869037773024698
40
0.908064795720713
40
0.986118841112744
40
1
40
1
40
1
40
1
41
1
10
19.3550531065392
20
11.4153106436335
30
0
41
1
10
19.355985993749
20
11.4177877406246
30
0
41
1
10
19.360443826951
20
11.4295087080717
30
0
41
1
10
19.36887351938
20
11.4503215052424
30
0
41
1
10
19.3813604714177
20
11.4773281896817
30
0
41
1
10
19.3950743990279
20
11.5037802556479
30
0
41
1
10
19.4099774581133
20
11.5296226037178
30
0
41
1
10
19.4233572722692
20
11.5506071770012
30
0
41
1
10
19.4346192757583
20
11.5670388344461
30
0
41
1
10
19.4462473117613
20
11.5832246340644
30
0
41
1
10
19.4797092605581
20
11.6266862591935
30
0
41
1
10
19.5422912556352
20
11.6916981309028
30
0
41
1
10
19.6236100332812
20
11.7504266592612
30
0
41
1
10
19.6939954443206
20
11.7882043545576
30
0
41
1
10
19.7490141525186
20
11.8116471798554
30
0
41
1
10
19.7916237626985
20
11.8253455523382
30
0
41
1
10
19.8204290867928
20
11.8328183842204
30
0
41
1
10
19.8397282314297
20
11.8373550151755
30
0
41
1
10
19.873724367442
20
11.8441181117818
30
0
41
1
10
19.906637059593
20
11.8483196631015
30
0
41
1
10
19.9297930875655
20
11.8500939067302
30
0
41
1
10
19.9332900885227
20
11.85034537268
30
0
0
SPLINE
5
1FF
100
AcDbEntity
8
1
62
256
6
ByLayer
370
18
48
1
60
0
100
AcDbSpline
70
4
71
3
72
13
73
9
40
0
40
0
40
0
40
0
40
0.0415335913911568
40
0.0955852659187792
40
0.311791964029269
40
0.744205360250247
40
0.960412058360736
40
1
40
1
40
1
40
1
41
1
10
19.1656783764957
20
10.9001374179885
30
0
41
1
10
19.1682597617361
20
10.907282804003
30
0
41
1
10
19.1743379127419
20
10.9236833621766
30
0
41
1
10
19.1939008332507
20
10.9772644038398
30
0
41
1
10
19.238172505323
20
11.0979579668861
30
0
41
1
10
19.2926533999894
20
11.2465075008211
30
0
41
1
10
19.3363968764534
20
11.3645881524134
30
0
41
1
10
19.3524997487924
20
11.4085307084761
30
0
41
1
10
19.3550531065392
20
11.4153106436335
30
0
0
SPLINE
5
200
100
AcDbEntity
8
1
62
256
6
ByLayer
370
18
48
1
60
0
100
AcDbSpline
70
4
71
3
72
22
73
18
40
0
40
0
40
0
40
0
40
0.0173062552164527
40
0.0745914966662766
40
0.150971818599375
40
0.303732462465572
40
0.456493106331769
40
0.609253750197966
40
0.647443911164516
40
0.66653899164779
40
0.685634072131065
40
0.704729152614339
40
0.723824233097614
40
0.762014394064163
40
0.91477503793036
40
0.991155359863459
40
1
40
1
40
1
40
1
41
1
10
19.07182654284
20
10.1384610445037
30
0
41
1
10
19.0722742975445
20
10.1428780029603
30
0
41
1
10
19.0741724553502
20
10.1619173421333
30
0
41
1
10
19.077539461685
20
10.2004789993822
30
0
41
1
10
19.0826145423117
20
10.2736948615133
30
0
41
1
10
19.0871785923889
20
10.3713486573267
30
0
41
1
10
19.0926031790111
20
10.4885856802309
30
0
41
1
10
19.0991902674484
20
10.5764087257668
30
0
41
1
10
19.1051546521353
20
10.6299833391311
30
0
41
1
10
19.1075637968742
20
10.6494464633889
30
0
41
1
10
19.1094979833836
20
10.6640324831919
30
0
41
1
10
19.1115666870138
20
10.6786051328787
30
0
41
1
10
19.1145139002355
20
10.698014776672
30
0
41
1
10
19.1234376615781
20
10.7512952474817
30
0
41
1
10
19.138604897598
20
10.8186037586726
30
0
41
1
10
19.1574557665088
20
10.8772156035547
30
0
41
1
10
19.1649003557668
20
10.8979838229544
30
0
41
1
10
19.1656783764957
20
10.9001374179885
30
0
0
SPLINE
5
201
100
AcDbEntity
8
1
62
256
6
ByLayer
370
18
48
1
60
0
100
AcDbSpline
70
4
71
3
72
25
73
21
40
0
40
0
40
0
40
0
40
0.0333597394323569
40
0.10758296669429
40
0.181806193956223
40
0.218917807587189
40
0.237473614402672
40
0.256029421218156
40
0.293141034849122
40
0.330252648480089
40
0.404475875742021
40
0.441587489372988
40
0.478699103003954
40
0.552922330265887
40
0.701368784789753
40
0.849815239313619
40
0.924038466575552
40
0.979705887022002
40
0.998261693837485
40
1
40
1
40
1
40
1
41
1
10
18.9969442292308
20
9.35032673718825
30
0
41
1
10
18.9974309374312
20
9.35910426007177
30
0
41
1
10
18.9993315314529
20
9.3874049746847
30
0
41
1
10
19.0023538493476
20
9.4352337836805
30
0
41
1
10
19.005816787292
20
9.48403956850794
30
0
41
1
10
19.008137833423
20
9.51820667031626
30
0
41
1
10
19.0098703919239
20
9.53771710367516
30
0
41
1
10
19.0123719310221
20
9.55717312931327
30
0
41
1
10
19.0149572383231
20
9.58153419020312
30
0
41
1
10
19.0187585368427
20
9.62053112861852
30
0
41
1
10
19.0226913743547
20
9.65952088927173
30
0
41
1
10
19.0266370726637
20
9.69850976123044
30
0
41
1
10
19.0305911006748
20
9.73749806390165
30
0
41
1
10
19.0375318742354
20
9.80572616003209
30
0
41
1
10
19.047504244144
20
9.90319112058145
30
0
41
1
10
19.0575428196939
20
10.0006520105382
30
0
41
1
10
19.0651368770715
20
10.073743479263
30
0
41
1
10
19.0691760442966
20
10.112726303197
30
0
41
1
10
19.0712390269084
20
10.1326744904403
30
0
41
1
10
19.0717802616013
20
10.1380044947307
30
0
41
1
10
19.07182654284
20
10.1384610445037
30
0
0
SPLINE
5
202
100
AcDbEntity
8
1
62
256
6
ByLayer
370
18
48
1
60
0
100
AcDbSpline
70
4
71
3
72
11
73
7
40
0
40
0
40
0
40
0
40
0.25
40
0.5
40
0.75
40
1
40
1
40
1
40
1
41
1
10
24.355360918672
20
1.29864693433464
30
0
41
1
10
24.3644503262738
20
1.30294217074572
30
0
41
1
10
24.3804628416215
20
1.31125851456676
30
0
41
1
10
24.3977920928563
20
1.3227998880391
30
0
41
1
10
24.4082412000847
20
1.33329736399637
30
0
41
1
10
24.4105775451567
20
1.33953867564449
30
0
41
1
10
24.4105775451537
20
1.34245481155944
30
0
0
SPLINE
5
203
100
AcDbEntity
8
1
62
256
6
ByLayer
370
18
48
1
60
0
100
AcDbSpline
70
4
71
3
72
15
73
11
40
0
40
0
40
0
40
0
40
0.0034237104021469
40
0.0385704589889107
40
0.0737172075756746
40
0.144010704749202
40
0.425184693443313
40
0.706358682137423
40
0.987532670831534
40
1
40
1
40
1
40
1
41
1
10
24.875641551197
20
3.77762045591604
30
0
41
1
10
24.8758534590555
20
3.77772856488485
30
0
41
1
10
24.8782372042839
20
3.77894602118946
30
0
41
1
10
24.8827098976106
20
3.78126192647119
30
0
41
1
10
24.8907626765626
20
3.78561449451283
30
0
41
1
10
24.9108435591955
20
3.79730214666114
30
0
41
1
10
24.9336510251493
20
3.81498811841476
30
0
41
1
10
24.9493218965087
20
3.83623337043173
30
0
41
1
10
24.954762421278
20
3.84983442133256
30
0
41
1
10
24.9574732607713
20
3.85677123691974
30
0
41
1
10
24.957588240516
20
3.85706573906316
30
0
0
SPLINE
5
204
100
AcDbEntity
8
1
62
256
6
ByLayer
370
18
48
1
60
0
100
AcDbSpline
70
4
71
3
72
32
73
28
40
0
40
0
40
0
40
0
40
0.0485688260217196
40
0.0885401211767648
40
0.101863886228446
40
0.115187651280128
40
0.155158946435173
40
0.2084540066419
40
0.315044127055354
40
0.421634247468808
40
0.474929307675535
40
0.501576837778898
40
0.528224367882262
40
0.581519428088989
40
0.608166958192352
40
0.634814488295716
40
0.648138253347397
40
0.661462018399079
40
0.688109548502442
40
0.741404608709169
40
0.794699668915896
40
0.82134719901926
40
0.847994729122623
40
0.954584849536076
40
0.98123237963944
40
0.994556144691122
40
1
40
1
40
1
40
1
41
1
10
24.957588240516
20
3.85706573906316
30
0
41
1
10
24.9587698220867
20
3.86009217042621
30
0
41
1
10
24.9609014520146
20
3.86560565288701
30
0
41
1
10
24.9633365263283
20
3.8719463545892
30
0
41
1
10
24.9649318268065
20
3.87609387422253
30
0
41
1
10
24.9665301080054
20
3.88024202922088
30
0
41
1
10
24.9690963075697
20
3.88688093592003
30
0
41
1
10
24.9739315031545
20
3.89933326744381
30
0
41
1
10
24.9804146482827
20
3.91594115692624
30
0
41
1
10
24.9869338849429
20
3.93254816060809
30
0
41
1
10
24.9914008054404
20
3.94415214279459
30
0
41
1
10
24.9941347159023
20
3.95080976413715
30
0
41
1
10
24.9961409387828
20
3.95735093108888
30
0
41
1
10
24.9970643705036
20
3.96370866247705
30
0
41
1
10
24.9979329120929
20
3.97005537587802
30
0
41
1
10
24.9984222429205
20
3.97401249614779
30
0
41
1
10
24.9987632209166
20
3.97716945613342
30
0
41
1
10
24.9990709479338
20
3.98032065620262
30
0
41
1
10
24.9995232542398
20
3.98582030516539
30
0
41
1
10
24.9999291767262
20
3.99363519250136
30
0
41
1
10
25.0000310653078
20
4.00139697726684
30
0
41
1
10
24.9999288779916
20
4.00757421887081
30
0
41
1
10
24.9995912599167
20
4.01680773273532
30
0
41
1
10
24.998791201792
20
4.02595996941341
30
0
41
1
10
24.9976280550389
20
4.03427352756106
30
0
41
1
10
24.9972218471098
20
4.03684154892184
30
0
41
1
10
24.9970473570562
20
4.03790176202224
30
0
41
1
10
24.9969857911947
20
4.03820795152336
30
0
0
SPLINE
5
205
100
AcDbEntity
8
1
62
256
6
ByLayer
370
18
48
1
60
0
100
AcDbSpline
70
4
71
3
72
8
73
4
40
0
40
0
40
0
40
0
40
1
40
1
40
1
40
1
41
1
10
24.8366400640327
20
-10.1418738572295
30
0
41
1
10
24.6932857013983
20
-10.3302923463473
30
0
41
1
10
24.551263290775
20
-10.5187799144853
30
0
41
1
10
24.4105775451479
20
-10.7073350814273
30
0
0
SPLINE
5
206
100
AcDbEntity
8
1
62
256
6
ByLayer
370
18
48
1
60
0
100
AcDbSpline
70
4
71
3
72
25
73
21
40
0
40
0
40
0
40
0
40
0.00164933620886
40
0.0170316297738986
40
0.0477962169039757
40
0.0785608040340528
40
0.10932539116413
40
0.140089978294207
40
0.170854565424284
40
0.201619152554361
40
0.32467750107467
40
0.570794198115287
40
0.693852546635595
40
0.724617133765672
40
0.75538172089575
40
0.816910895155904
40
0.939969243676212
40
0.97073383080629
40
0.986116124371328
40
1
40
1
40
1
40
1
41
1
10
24.4458449561861
20
-6.97676983485633
30
0
41
1
10
24.4460851115576
20
-6.97736453769923
30
0
41
1
10
24.4485582448143
20
-6.98350856649006
30
0
41
1
10
24.4553291857654
20
-7.0008229408792
30
0
41
1
10
24.4663629216072
20
-7.02862077649803
30
0
41
1
10
24.4796004508404
20
-7.06198137059835
30
0
41
1
10
24.492835139207
20
-7.09534311111096
30
0
41
1
10
24.5060672042021
20
-7.12870591028957
30
0
41
1
10
24.5192968633207
20
-7.16206968038776
30
0
41
1
10
24.5457518047951
20
-7.22879898693071
30
0
41
1
10
24.603049493387
20
-7.37338776823216
30
0
41
1
10
24.6735344965017
20
-7.55135741350213
30
0
41
1
10
24.7308201769409
20
-7.69595105452495
30
0
41
1
10
24.7572659830938
20
-7.76268404013766
30
0
41
1
10
24.7748983946226
20
-7.8071719360515
30
0
41
1
10
24.8057605708547
20
-7.8850235365129
30
0
41
1
10
24.8366358054449
20
-7.96286982484179
30
0
41
1
10
24.8608366870593
20
-8.02405845409712
30
0
41
1
10
24.8694823121332
20
-8.0457427475441
30
0
41
1
10
24.8736780787366
20
-8.05632204908648
30
0
41
1
10
24.875641551197
20
-8.06135184109419
30
0
0
SPLINE
5
207
100
AcDbEntity
8
1
62
256
6
ByLayer
370
18
48
1
60
0
100
AcDbSpline
70
4
71
3
72
15
73
11
40
0
40
0
40
0
40
0
40
0.0034237104021389
40
0.0385704589889032
40
0.0737172075756674
40
0.144010704749196
40
0.42518469344331
40
0.706358682137424
40
0.987532670831538
40
1
40
1
40
1
40
1
41
1
10
24.875641551197
20
-8.06135184109419
30
0
41
1
10
24.8758534590554
20
-8.06189468163544
30
0
41
1
10
24.8782372042839
20
-8.06801159415897
30
0
41
1
10
24.8827098976106
20
-8.07973625462552
30
0
41
1
10
24.8907626765625
20
-8.10228012178365
30
0
41
1
10
24.9108435591955
20
-8.16503519272484
30
0
41
1
10
24.9336510251492
20
-8.27090110731871
30
0
41
1
10
24.9493218965087
20
-8.4149416368108
30
0
41
1
10
24.954762421278
20
-8.51376589449137
30
0
41
1
10
24.9574732607713
20
-8.56425451085272
30
0
41
1
10
24.9575882405159
20
-8.5663981484588
30
0
0
SPLINE
5
208
100
AcDbEntity
8
1
62
256
6
ByLayer
370
18
48
1
60
0
100
AcDbSpline
70
4
71
3
72
8
73
4
40
0
40
0
40
0
40
0
40
1
40
1
40
1
40
1
41
1
10
24.5317911362249
20
-9.67933900669058
30
0
41
1
10
23.5862207268158
20
-9.57114362099864
30
0
41
1
10
22.6406503174067
20
-9.46294823530519
30
0
41
1
10
21.6950799079977
20
-9.35475284961268
30
0
0
SPLINE
5
209
100
AcDbEntity
8
1
62
256
6
ByLayer
370
18
48
1
60
0
100
AcDbSpline
70
4
71
3
72
15
73
11
40
0
40
0
40
0
40
0
40
0.125
40
0.25
40
0.375
40
0.5
40
0.625
40
0.75
40
0.875
40
1
40
1
40
1
40
1
41
1
10
24.8366400640327
20
-9.45909554197107
30
0
41
1
10
24.8372859326076
20
-9.47465082430048
30
0
41
1
10
24.8351231340677
20
-9.50538629376808
30
0
41
1
10
24.8214135399733
20
-9.54921113586491
30
0
41
1
10
24.7971367603798
20
-9.58960453932644
30
0
41
1
10
24.7623154107795
20
-9.62501740283173
30
0
41
1
10
24.7170079284248
20
-9.65384646720921
30
0
41
1
10
24.6619407785218
20
-9.6739757091751
30
0
41
1
10
24.5990427069819
20
-9.68340532060972
30
0
41
1
10
24.5542383354782
20
-9.68190749165686
30
0
41
1
10
24.5317911362243
20
-9.67933900669053
30
0
0
SPLINE
5
20A
100
AcDbEntity
8
1
62
256
6
ByLayer
370
18
48
1
60
0
100
AcDbSpline
70
4
71
3
72
8
73
4
40
0
40
0
40
0
40
0
40
1
40
1
40
1
40
1
41
1
10
24.5317911362246
20
-9.67933900669377
30
0
41
1
10
24.3950541773562
20
-9.16066202109468
30
0
41
1
10
24.2583172184867
20
-8.64198503549579
30
0
41
1
10
24.1215802596171
20
-8.12330804989696
30
0
0
SPLINE
5
20B
100
AcDbEntity
8
1
62
256
6
ByLayer
370
18
48
1
60
0
100
AcDbSpline
70
4
71
3
72
19
73
15
40
0
40
0
40
0
40
0
40
0.125
40
0.25
40
0.375
40
0.4375
40
0.46875
40
0.5
40
0.53125
40
0.5625
40
0.625
40
0.75
40
0.875
40
1
40
1
40
1
40
1
41
1
10
24.7961865887867
20
-8.47701024841427
30
0
41
1
10
24.7978589322578
20
-8.51792901716672
30
0
41
1
10
24.8012068425352
20
-8.59976690906285
30
0
41
1
10
24.8062384692663
20
-8.72252481971276
30
0
41
1
10
24.810439702063
20
-8.82482398061927
30
0
41
1
10
24.8133849154921
20
-8.89643387103447
30
0
41
1
10
24.8150691432932
20
-8.93735394552533
30
0
41
1
10
24.8163329399201
20
-8.96804407009938
30
0
41
1
10
24.8175973637497
20
-8.9987342635298
30
0
41
1
10
24.8192841003619
20
-9.0396546134462
30
0
41
1
10
24.8222380946299
20
-9.11126546785079
30
0
41
1
10
24.8264644155378
20
-9.21356738301267
30
0
41
1
10
24.8315462184914
20
-9.33633080217336
30
0
41
1
10
24.8349409599097
20
-9.41817383534621
30
0
41
1
10
24.8366400640327
20
-9.45909554197107
30
0
0
SPLINE
5
20C
100
AcDbEntity
8
1
62
256
6
ByLayer
370
18
48
1
60
0
100
AcDbSpline
70
4
71
3
72
8
73
4
40
0
40
0
40
0
40
0
40
1
40
1
40
1
40
1
41
1
10
24.8366400640327
20
-9.45909554197104
30
0
41
1
10
24.6932857013983
20
-8.95867913459523
30
0
41
1
10
24.551263290775
20
-8.45801374284298
30
0
41
1
10
24.4105775451479
20
-7.95710312825003
30
0
0
SPLINE
5
20D
100
AcDbEntity
8
1
62
256
6
ByLayer
370
18
48
1
60
0
100
AcDbSpline
70
4
71
3
72
8
73
4
40
0
40
0
40
0
40
0
40
1
40
1
40
1
40
1
41
1
10
24.7961865887867
20
-8.47701024841427
30
0
41
1
10
24.6676783853706
20
-8.01376772732752
30
0
41
1
10
24.5391420373638
20
-7.55052940911466
30
0
41
1
10
24.4105775451479
20
-7.08729529515384
30
0
0
SPLINE
5
20E
100
AcDbEntity
8
1
62
256
6
ByLayer
370
18
48
1
60
0
100
AcDbSpline
70
4
71
3
72
8
73
4
40
0
40
0
40
0
40
0
40
1
40
1
40
1
40
1
41
1
10
20.4983944417492
20
-7.70873079250703
30
0
41
1
10
21.7061230477116
20
-7.84692321163291
30
0
41
1
10
22.9138516536449
20
-7.98511563076457
30
0
41
1
10
24.1215802595901
20
-8.12330804989386
30
0
0
SPLINE
5
20F
100
AcDbEntity
8
1
62
256
6
ByLayer
370
18
48
1
60
0
100
AcDbSpline
70
4
71
3
72
14
73
10
40
0
40
0
40
0
40
0
40
0.249999999036532
40
0.37499999919711
40
0.499999999357688
40
0.624999999518266
40
0.749999999678844
40
0.874999999839422
40
1
40
1
40
1
40
1
41
1
10
24.410577545803
20
-7.95710313058248
30
0
41
1
10
24.4105775458055
20
-7.98339295061001
30
0
41
1
10
24.3993611689651
20
-8.02136778870408
30
0
41
1
10
24.3636390266687
20
-8.06347624193864
30
0
41
1
10
24.3276470674689
20
-8.08970367113886
30
0
41
1
10
24.283637889902
20
-8.10948561099963
30
0
41
1
10
24.2333908973521
20
-8.1222098581448
30
0
41
1
10
24.178685493205
20
-8.12726420919844
30
0
41
1
10
24.1406437750719
20
-8.12548936459447
30
0
41
1
10
24.1215802602541
20
-8.12330805232165
30
0
0
SPLINE
5
210
100
AcDbEntity
8
1
62
256
6
ByLayer
370
18
48
1
60
0
100
AcDbSpline
70
4
71
3
72
8
73
4
40
0
40
0
40
0
40
0
40
1
40
1
40
1
40
1
41
1
10
24.4105775451479
20
-7.95710312825
30
0
41
1
10
24.4105775451479
20
-7.66716718385925
30
0
41
1
10
24.4105775451479
20
-7.37723123951946
30
0
41
1
10
24.4105775451479
20
-7.08729529515384
30
0
0
SPLINE
5
211
100
AcDbEntity
8
1
62
256
6
ByLayer
370
18
48
1
60
0
100
AcDbSpline
70
4
71
3
72
8
73
4
40
0
40
0
40
0
40
0
40
1
40
1
40
1
40
1
41
1
10
24.9575829527506
20
-8.94139502704658
30
0
41
1
10
24.9037841647627
20
-8.78660010083581
30
0
41
1
10
24.8499853767747
20
-8.63180517462504
30
0
41
1
10
24.7961865887867
20
-8.47701024841427
30
0
0
SPLINE
5
212
100
AcDbEntity
8
1
62
256
6
ByLayer
370
18
48
1
60
0
100
AcDbSpline
70
4
71
3
72
8
73
4
40
0
40
0
40
0
40
0
40
1
40
1
40
1
40
1
41
1
10
24.9969999999998
20
-9.94594657778143
30
0
41
1
10
24.9435466880108
20
-9.78366289917795
30
0
41
1
10
24.8900933760217
20
-9.62137922057451
30
0
41
1
10
24.8366400640327
20
-9.45909554197107
30
0
0
SPLINE
5
213
100
AcDbEntity
8
1
62
256
6
ByLayer
370
18
48
1
60
0
100
AcDbSpline
70
4
71
3
72
8
73
4
40
0
40
0
40
0
40
0
40
1
40
1
40
1
40
1
41
1
10
24.6008759746791
20
-10.1833439513775
30
0
41
1
10
24.5778476951943
20
-10.0153423031485
30
0
41
1
10
24.5548194157096
20
-9.84734065491955
30
0
41
1
10
24.5317911362249
20
-9.67933900669058
30
0
0
SPLINE
5
214
100
AcDbEntity
8
1
62
256
6
ByLayer
370
18
48
1
60
0
100
AcDbSpline
70
4
71
3
72
8
73
4
40
0
40
0
40
0
40
0
40
1
40
1
40
1
40
1
41
1
10
21.6950799079977
20
-9.35475284961268
30
0
41
1
10
21.6603502729624
20
-9.52827947761989
30
0
41
1
10
21.6256206379272
20
-9.7018061056271
30
0
41
1
10
21.590891002892
20
-9.87533273363431
30
0
0
SPLINE
5
215
100
AcDbEntity
8
1
62
256
6
ByLayer
370
18
48
1
60
0
100
AcDbSpline
70
4
71
3
72
15
73
11
40
0
40
0
40
0
40
0
40
0.0034237104021449
40
0.0385704589889089
40
0.0737172075756728
40
0.144010704749201
40
0.425184693443313
40
0.706358682137424
40
0.987532670831536
40
1
40
1
40
1
40
1
41
1
10
24.875641551197
20
-8.55739276343488
30
0
41
1
10
24.8758534590555
20
-8.55782748354036
30
0
41
1
10
24.8782372042839
20
-8.56272533004937
30
0
41
1
10
24.8827098976106
20
-8.57209623786841
30
0
41
1
10
24.8907626765625
20
-8.59001723687751
30
0
41
1
10
24.9108435591955
20
-8.63948906411338
30
0
41
1
10
24.9336510251492
20
-8.72098171610406
30
0
41
1
10
24.9493218965087
20
-8.82913342881236
30
0
41
1
10
24.954762421278
20
-8.90239147404145
30
0
41
1
10
24.9574732607713
20
-8.93980701247528
30
0
41
1
10
24.9575882405159
20
-8.94139557601449
30
0
0
SPLINE
5
216
100
AcDbEntity
8
1
62
256
6
ByLayer
370
18
48
1
60
0
100
AcDbSpline
70
4
71
3
72
32
73
28
40
0
40
0
40
0
40
0
40
0.0485688260217203
40
0.0885401211767655
40
0.101863886228447
40
0.115187651280129
40
0.155158946435174
40
0.208454006641901
40
0.315044127055355
40
0.421634247468808
40
0.474929307675535
40
0.501576837778899
40
0.528224367882262
40
0.581519428088989
40
0.608166958192352
40
0.634814488295716
40
0.648138253347397
40
0.661462018399079
40
0.688109548502442
40
0.741404608709169
40
0.794699668915896
40
0.82134719901926
40
0.847994729122623
40
0.954584849536077
40
0.98123237963944
40
0.994556144691122
40
1
40
1
40
1
40
1
41
1
10
24.9575882405159
20
-8.94139557601449
30
0
41
1
10
24.9587698220867
20
-8.95772034180905
30
0
41
1
10
24.9609014520146
20
-8.98747751983024
30
0
41
1
10
24.9633365263283
20
-9.02171090909582
30
0
41
1
10
24.9649318268065
20
-9.04410000639803
30
0
41
1
10
24.9665301080054
20
-9.06648955952028
30
0
41
1
10
24.9690963075697
20
-9.10231415673871
30
0
41
1
10
24.9739315031545
20
-9.16948814111848
30
0
41
1
10
24.9804146482827
20
-9.25905560923698
30
0
41
1
10
24.9869338849429
20
-9.34862140753734
30
0
41
1
10
24.9914008054404
20
-9.41130481041702
30
0
41
1
10
24.9941347159023
20
-9.44713846179184
30
0
41
1
10
24.9961409387827
20
-9.48290686064894
30
0
41
1
10
24.9970643705036
20
-9.51855828700297
30
0
41
1
10
24.9979329120928
20
-9.55420105808267
30
0
41
1
10
24.9984222429205
20
-9.57647099017785
30
0
41
1
10
24.9987632209165
20
-9.59428093987708
30
0
41
1
10
24.9990709479338
20
-9.61208690867878
30
0
41
1
10
24.9995232542398
20
-9.64323694732954
30
0
41
1
10
24.9999291767262
20
-9.6877075152737
30
0
41
1
10
25.0000310653078
20
-9.7321394236742
30
0
41
1
10
24.9999288779916
20
-9.7676610302853
30
0
41
1
10
24.9995912599167
20
-9.82091915790105
30
0
41
1
10
24.998791201792
20
-9.87411567428566
30
0
41
1
10
24.9976280550389
20
-9.92281935058696
30
0
41
1
10
24.9972218471098
20
-9.9379043220155
30
0
41
1
10
24.9970473570562
20
-9.94413807631818
30
0
41
1
10
24.9969857911947
20
-9.94594504280636
30
0
0
SPLINE
5
217
100
AcDbEntity
8
1
62
256
6
ByLayer
370
18
48
1
60
0
100
AcDbSpline
70
4
71
3
72
19
73
15
40
0
40
0
40
0
40
0
40
0.0180580736808032
40
0.14019222945776
40
0.262326385234717
40
0.384460541011674
40
0.445527618900153
40
0.506594696788631
40
0.628728852565588
40
0.750863008342545
40
0.872997164119502
40
0.934064242007981
40
0.99513131989646
40
1
40
1
40
1
40
1
41
1
10
24.9969857911947
20
-9.94594504280636
30
0
41
1
10
24.996896675411
20
-9.94856060329192
30
0
41
1
10
24.9960266846507
20
-9.96884616804019
30
0
41
1
10
24.9882555349748
20
-10.006090905976
30
0
41
1
10
24.964058715736
20
-10.0534875217466
30
0
41
1
10
24.9334354865524
20
-10.0885611358386
30
0
41
1
10
24.9030839135724
20
-10.1135252322645
30
0
41
1
10
24.8691461832616
20
-10.1360213579054
30
0
41
1
10
24.8205171137745
20
-10.1590319436562
30
0
41
1
10
24.7537359181032
20
-10.1777340512957
30
0
41
1
10
24.692979351625
20
-10.1852615681335
30
0
41
1
10
24.6424605704831
20
-10.1860697918004
30
0
41
1
10
24.6157903599898
20
-10.1846549072509
30
0
41
1
10
24.6019025666026
20
-10.1834467486032
30
0
41
1
10
24.6008769318965
20
-10.1833556496426
30
0
0
SPLINE
5
218
100
AcDbEntity
8
1
62
256
6
ByLayer
370
18
48
1
60
0
100
AcDbSpline
70
4
71
3
72
15
73
11
40
0
40
0
40
0
40
0
40
0.0021852238900192
40
0.0053936315302442
40
0.0118104468106943
40
0.0246440773715944
40
0.0759785996151947
40
0.178647644102395
40
0.589323822051198
40
1
40
1
40
1
40
1
41
1
10
24.6008769318965
20
-10.1833556496426
30
0
41
1
10
24.5986864734751
20
-10.1831610886704
30
0
41
1
10
24.59327808156
20
-10.1826596029569
30
0
41
1
10
24.5814335173155
20
-10.1815366737442
30
0
41
1
10
24.5589158926655
20
-10.1794769134049
30
0
41
1
10
24.4881382690446
20
-10.1729041733652
30
0
41
1
10
24.3208423412129
20
-10.1573212187188
30
0
41
1
10
23.7545363787799
20
-10.1035973761453
30
0
41
1
10
22.8275177575257
20
-10.0108632534668
30
0
41
1
10
22.0031395778594
20
-9.92162092234005
30
0
41
1
10
21.590891002892
20
-9.87533273363431
30
0
0
SPLINE
5
219
100
AcDbEntity
8
1
62
256
6
ByLayer
370
18
48
1
60
0
100
AcDbSpline
70
4
71
3
72
15
73
11
40
0
40
0
40
0
40
0
40
0.125
40
0.25
40
0.375
40
0.5
40
0.625
40
0.75
40
0.875
40
1
40
1
40
1
40
1
41
1
10
19.4974036483037
20
-9.10328724940325
30
0
41
1
10
19.4782953693948
20
-9.10110081507105
30
0
41
1
10
19.4399036030965
20
-9.09306722444256
30
0
41
1
10
19.3869141385303
20
-9.07006233371462
30
0
41
1
10
19.3417318380873
20
-9.03950094062293
30
0
41
1
10
19.3038912785875
20
-9.00475897016202
30
0
41
1
10
19.2718081310175
20
-8.96778067591688
30
0
41
1
10
19.24404831316
20
-8.92956941994501
30
0
41
1
10
19.2194488995034
20
-8.89067495329499
30
0
41
1
10
19.2046173087567
20
-8.86445483685435
30
0
41
1
10
19.1974575176519
20
-8.85131152404949
30
0
0
SPLINE
5
21A
100
AcDbEntity
8
1
62
256
6
ByLayer
370
18
48
1
60
0
100
AcDbSpline
70
4
71
3
72
8
73
4
40
0
40
0
40
0
40
0
40
1
40
1
40
1
40
1
41
1
10
19.1974575176563
20
-8.85131152405046
30
0
41
1
10
19.5064923168355
20
-8.39772980883652
30
0
41
1
10
19.815527116015
20
-7.94414809362254
30
0
41
1
10
20.1245619151946
20
-7.49056637840852
30
0
0
SPLINE
5
21B
100
AcDbEntity
8
1
62
256
6
ByLayer
370
18
48
1
60
0
100
AcDbSpline
70
4
71
3
72
8
73
4
40
0
40
0
40
0
40
0
40
1
40
1
40
1
40
1
41
1
10
21.6950799079977
20
-9.35475284961268
30
0
41
1
10
20.962521154766
20
-9.27093098287526
30
0
41
1
10
20.2299624015343
20
-9.18710911613837
30
0
41
1
10
19.4974036483026
20
-9.10328724940314
30
0
0
SPLINE
5
21C
100
AcDbEntity
8
1
62
256
6
ByLayer
370
18
48
1
60
0
100
AcDbSpline
70
4
71
3
72
8
73
4
40
0
40
0
40
0
40
0
40
1
40
1
40
1
40
1
41
1
10
19.4974036483048
20
-9.10328724940339
30
0
41
1
10
19.8310672461211
20
-8.63843509711137
30
0
41
1
10
20.1647308439369
20
-8.17358294481568
30
0
41
1
10
20.4983944417527
20
-7.70873079251973
30
0
0
SPLINE
5
21D
100
AcDbEntity
8
1
62
256
6
ByLayer
370
18
48
1
60
0
100
AcDbSpline
70
4
71
3
72
14
73
10
40
0
40
0
40
0
40
0
40
0.125000000024468
40
0.250000000048937
40
0.375000000073405
40
0.500000000097874
40
0.625000000122342
40
0.75000000014681
40
1
40
1
40
1
40
1
41
1
10
20.4983944392785
20
-7.70873079596674
30
0
41
1
10
20.4785614222658
20
-7.70646143263718
30
0
41
1
10
20.4388305984833
20
-7.69983279630384
30
0
41
1
10
20.3803902118427
20
-7.68391645476362
30
0
41
1
10
20.3244558925359
20
-7.66232306817201
30
0
41
1
10
20.2722667684546
20
-7.63560582316262
30
0
41
1
10
20.2250619674879
20
-7.60431790636522
30
0
41
1
10
20.1701181480892
20
-7.55752099183294
30
0
41
1
10
20.1394246081604
20
-7.51785000617323
30
0
41
1
10
20.1245619129014
20
-7.49056638182532
30
0
0
SPLINE
5
21E
100
AcDbEntity
8
1
62
256
6
ByLayer
370
18
48
1
60
0
100
AcDbSpline
70
4
71
3
72
8
73
4
40
0
40
0
40
0
40
0
40
1
40
1
40
1
40
1
41
1
10
19.1999999997202
20
-9.58847840209589
30
0
41
1
10
19.299134549248
20
-9.42674801786501
30
0
41
1
10
19.3982690987759
20
-9.26501763363413
30
0
41
1
10
19.4974036483037
20
-9.10328724940325
30
0
0
SPLINE
5
21F
100
AcDbEntity
8
1
62
256
6
ByLayer
370
18
48
1
60
0
100
AcDbSpline
70
4
71
3
72
8
73
4
40
0
40
0
40
0
40
0
40
1
40
1
40
1
40
1
41
1
10
18.735944903415
20
-9.30505309980646
30
0
41
1
10
18.8897824414939
20
-9.15380590788735
30
0
41
1
10
19.0436199795728
20
-9.00255871596823
30
0
41
1
10
19.1974575176517
20
-8.85131152404912
30
0
0
SPLINE
5
220
100
AcDbEntity
8
1
62
256
6
ByLayer
370
18
48
1
60
0
100
AcDbSpline
70
4
71
3
72
16
73
12
40
0
40
0
40
0
40
0
40
0.517375104625281
40
0.776062656937921
40
0.905406433094242
40
0.921574405113782
40
0.937742377133322
40
0.970078321172402
40
0.986246293191942
40
0.994330279201712
40
1
40
1
40
1
40
1
41
1
10
21.5908910056248
20
-9.87533272141289
30
0
41
1
10
21.1786424322008
20
-9.82904452569028
30
0
41
1
10
20.5601797464985
20
-9.75711415114367
30
0
41
1
10
19.8385573612525
20
-9.66889182794759
30
0
41
1
10
19.5163939539854
20
-9.62857388406377
30
0
41
1
10
19.3875276951789
20
-9.6122919907807
30
0
41
1
10
19.3359811040054
20
-9.60576751719196
30
0
41
1
10
19.2844343693328
20
-9.59922852354063
30
0
41
1
10
19.2393308298924
20
-9.59349954415464
30
0
41
1
10
19.2154818497354
20
-9.59044056685863
30
0
41
1
10
19.2045189501807
20
-9.58907871409875
30
0
41
1
10
19.1999999780003
20
-9.58849040609468
30
0
0
SPLINE
5
221
100
AcDbEntity
8
1
62
256
6
ByLayer
370
18
48
1
60
0
100
AcDbSpline
70
4
71
3
72
15
73
11
40
0
40
0
40
0
40
0
40
0.0095746787020008
40
0.137815053134619
40
0.266055427567237
40
0.394295801999856
40
0.650776550865092
40
0.907257299730329
40
0.971377486946638
40
1
40
1
40
1
40
1
41
1
10
19.1999999780003
20
-9.58849040609468
30
0
41
1
10
19.1980757214602
20
-9.58823989436786
30
0
41
1
10
19.1703793017003
20
-9.58456387614129
30
0
41
1
10
19.1169433372813
20
-9.5744527365618
30
0
41
1
10
19.0416969840732
20
-9.55174027222924
30
0
41
1
10
18.9464941692318
20
-9.51157692308857
30
0
41
1
10
18.8416342608585
20
-9.44449422888928
30
0
41
1
10
18.7734156324679
20
-9.36979083589245
30
0
41
1
10
18.7445630820919
20
-9.32189690769246
30
0
41
1
10
18.7379363959675
20
-9.30902952871421
30
0
41
1
10
18.7359368448949
20
-9.30505217592216
30
0
0
SPLINE
5
222
100
AcDbEntity
8
1
62
256
6
ByLayer
370
18
48
1
60
0
100
AcDbSpline
70
4
71
3
72
8
73
4
40
0
40
0
40
0
40
0
40
1
40
1
40
1
40
1
41
1
10
24.5317911362249
20
4.21550268226153
30
0
41
1
10
23.5862207268158
20
4.37114136819565
30
0
41
1
10
22.6406503174068
20
4.52678005412872
30
0
41
1
10
21.6950799079977
20
4.68241874006245
30
0
0
SPLINE
5
223
100
AcDbEntity
8
1
62
256
6
ByLayer
370
18
48
1
60
0
100
AcDbSpline
70
4
71
3
72
8
73
4
40
0
40
0
40
0
40
0
40
1
40
1
40
1
40
1
41
1
10
24.5317911362246
20
4.215502682265
30
0
41
1
10
24.3950541773563
20
4.72909414588648
30
0
41
1
10
24.2583172184868
20
5.24268560950841
30
0
41
1
10
24.1215802596171
20
5.75627707313038
30
0
0
SPLINE
5
224
100
AcDbEntity
8
1
62
256
6
ByLayer
370
18
48
1
60
0
100
AcDbSpline
70
4
71
3
72
8
73
4
40
0
40
0
40
0
40
0
40
1
40
1
40
1
40
1
41
1
10
20.4983944417492
20
6.35264501566959
30
0
41
1
10
21.7061230477117
20
6.1538557014853
30
0
41
1
10
22.913851653645
20
5.95506638731237
30
0
41
1
10
24.1215802595901
20
5.75627707313484
30
0
0
SPLINE
5
225
100
AcDbEntity
8
1
62
256
6
ByLayer
370
18
48
1
60
0
100
AcDbSpline
70
4
71
3
72
14
73
10
40
0
40
0
40
0
40
0
40
0.249999999036532
40
0.37499999919711
40
0.499999999357688
40
0.624999999518266
40
0.749999999678844
40
0.874999999839422
40
1
40
1
40
1
40
1
41
1
10
24.410577545803
20
5.56500619672369
30
0
41
1
10
24.4105775458055
20
5.5839646899081
30
0
41
1
10
24.3993611689652
20
5.61412135632216
30
0
41
1
10
24.3636390266688
20
5.65331459133321
30
0
41
1
10
24.3276470674689
20
5.68112214893279
30
0
41
1
10
24.283637889902
20
5.70626279598554
30
0
41
1
10
24.2333908973521
20
5.72785533908586
30
0
41
1
10
24.178685493205
20
5.7450185848279
30
0
41
1
10
24.1406437750719
20
5.75313926063046
30
0
41
1
10
24.1215802602542
20
5.75627707074568
30
0
0
SPLINE
5
226
100
AcDbEntity
8
1
62
256
6
ByLayer
370
18
48
1
60
0
100
AcDbSpline
70
4
71
3
72
8
73
4
40
0
40
0
40
0
40
0
40
1
40
1
40
1
40
1
41
1
10
24.6008759746791
20
3.70804838420261
30
0
41
1
10
24.5778476951944
20
3.87719981688892
30
0
41
1
10
24.5548194157096
20
4.04635124957522
30
0
41
1
10
24.5317911362249
20
4.21550268226153
30
0
0
SPLINE
5
227
100
AcDbEntity
8
1
62
256
6
ByLayer
370
18
48
1
60
0
100
AcDbSpline
70
4
71
3
72
8
73
4
40
0
40
0
40
0
40
0
40
1
40
1
40
1
40
1
41
1
10
21.6950799079977
20
4.68241874006245
30
0
41
1
10
21.6603502729624
20
4.53152425459967
30
0
41
1
10
21.6256206379272
20
4.38062976913693
30
0
41
1
10
21.590891002892
20
4.22973528367416
30
0
0
SPLINE
5
228
100
AcDbEntity
8
1
62
256
6
ByLayer
370
18
48
1
60
0
100
AcDbSpline
70
4
71
3
72
8
73
4
40
0
40
0
40
0
40
0
40
1
40
1
40
1
40
1
41
1
10
21.6343030458142
20
2.69336091522604
30
0
41
1
10
21.6198323657686
20
2.54254269799765
30
0
41
1
10
21.6053616857231
20
2.39172448076926
30
0
41
1
10
21.5908910056775
20
2.24090626354087
30
0
0
SPLINE
5
229
100
AcDbEntity
8
1
62
256
6
ByLayer
370
18
48
1
60
0
100
AcDbSpline
70
4
71
3
72
16
73
12
40
0
40
0
40
0
40
0
40
0.517375104625281
40
0.776062656937921
40
0.905406433094242
40
0.921574405113782
40
0.937742377133322
40
0.970078321172402
40
0.986246293191942
40
0.994330279201712
40
1
40
1
40
1
40
1
41
1
10
21.5908910056775
20
2.24090626354087
30
0
41
1
10
22.0031395818889
20
2.17241457351312
30
0
41
1
10
22.6216022609072
20
2.07145628433577
30
0
41
1
10
23.3432246367745
20
1.95675464441933
30
0
41
1
10
23.6653880425021
20
1.90621875136091
30
0
41
1
10
23.7942543004201
20
1.88611574335087
30
0
41
1
10
23.8458008913233
20
1.87808296756862
30
0
41
1
10
23.8973476260177
20
1.87006062748984
30
0
41
1
10
23.9424511660199
20
1.86304635166044
30
0
41
1
10
23.9663001451436
20
1.85935890764748
30
0
41
1
10
23.9772630454782
20
1.85763191960345
30
0
41
1
10
23.9817820165696
20
1.8569394741055
30
0
0
SPLINE
5
22A
100
AcDbEntity
8
1
62
256
6
ByLayer
370
18
48
1
60
0
100
AcDbSpline
70
4
71
3
72
15
73
11
40
0
40
0
40
0
40
0
40
0.0095746787020008
40
0.137815053134619
40
0.266055427567237
40
0.394295801999856
40
0.650776550865092
40
0.907257299730329
40
0.971377486946638
40
1
40
1
40
1
40
1
41
1
10
23.9817820165696
20
1.8569394741055
30
0
41
1
10
23.983706272646
20
1.85664461883201
30
0
41
1
10
24.0114026820497
20
1.8524513866175
30
0
41
1
10
24.0648384740343
20
1.84653804567364
30
0
41
1
10
24.1400844731114
20
1.84432218349323
30
0
41
1
10
24.2352868321312
20
1.84975918063768
30
0
41
1
10
24.3401465104305
20
1.87222244765496
30
0
41
1
10
24.4083646607761
20
1.90923556418221
30
0
41
1
10
24.4372183287042
20
1.9366446491467
30
0
41
1
10
24.443845337517
20
1.94428649628401
30
0
41
1
10
24.4458449561861
20
1.94666064572883
30
0
0
SPLINE
5
22B
100
AcDbEntity
8
1
62
256
6
ByLayer
370
18
48
1
60
0
100
AcDbSpline
70
4
71
3
72
25
73
21
40
0
40
0
40
0
40
0
40
0.0016493362088574
40
0.017031629773896
40
0.0477962169039734
40
0.0785608040340507
40
0.109325391164128
40
0.140089978294205
40
0.170854565424283
40
0.20161915255436
40
0.324677501074669
40
0.570794198115288
40
0.693852546635597
40
0.724617133765674
40
0.755381720895752
40
0.816910895155906
40
0.939969243676216
40
0.970733830806293
40
0.986116124371332
40
1
40
1
40
1
40
1
41
1
10
24.4458449561861
20
1.94666064572883
30
0
41
1
10
24.4460851115576
20
1.94694578246546
30
0
41
1
10
24.4485582448143
20
1.94989254404248
30
0
41
1
10
24.4553291857654
20
1.95822009704767
30
0
41
1
10
24.4663629216072
20
1.97156996466734
30
0
41
1
10
24.4796004508404
20
1.98759218905505
30
0
41
1
10
24.492835139207
20
2.00361533479545
30
0
41
1
10
24.5060672042021
20
2.01963933144574
30
0
41
1
10
24.5192968633207
20
2.03566410856305
30
0
41
1
10
24.5457518047951
20
2.06771508284606
30
0
41
1
10
24.603049493387
20
2.13716578925732
30
0
41
1
10
24.6735344965017
20
2.22265503168407
30
0
41
1
10
24.7308201769409
20
2.29210969210658
30
0
41
1
10
24.7572659830938
20
2.32416361834751
30
0
41
1
10
24.7748983946226
20
2.34553228079332
30
0
41
1
10
24.8057605708547
20
2.38292562568461
30
0
41
1
10
24.8366358054449
20
2.42031461224855
30
0
41
1
10
24.8608366870593
20
2.44971109005655
30
0
41
1
10
24.8694823121332
20
2.46012051650794
30
0
41
1
10
24.8736780787366
20
2.46520169177896
30
0
41
1
10
24.875641551197
20
2.46762120167023
30
0
0
SPLINE
5
22C
100
AcDbEntity
8
1
62
256
6
ByLayer
370
18
48
1
60
0
100
AcDbSpline
70
4
71
3
72
15
73
11
40
0
40
0
40
0
40
0
40
0.0034237104021469
40
0.0385704589889107
40
0.0737172075756746
40
0.144010704749202
40
0.425184693443313
40
0.706358682137423
40
0.987532670831534
40
1
40
1
40
1
40
1
41
1
10
24.875641551197
20
2.46762120167023
30
0
41
1
10
24.8758534590555
20
2.4678823273901
30
0
41
1
10
24.8782372042839
20
2.47082526963914
30
0
41
1
10
24.8827098976106
20
2.47647765701478
30
0
41
1
10
24.8907626765626
20
2.48741109367742
30
0
41
1
10
24.9108435591955
20
2.51812456578372
30
0
41
1
10
24.9336510251493
20
2.57125563339639
30
0
41
1
10
24.9493218965087
20
2.64537501256959
30
0
41
1
10
24.954762421278
20
2.69686030674291
30
0
41
1
10
24.9574732607713
20
2.72317148352545
30
0
41
1
10
24.957588240516
20
2.72428861229096
30
0
0
SPLINE
5
22D
100
AcDbEntity
8
1
62
256
6
ByLayer
370
18
48
1
60
0
100
AcDbSpline
70
4
71
3
72
32
73
28
40
0
40
0
40
0
40
0
40
0.0485688260217197
40
0.0885401211767649
40
0.101863886228447
40
0.115187651280128
40
0.155158946435174
40
0.208454006641901
40
0.315044127055355
40
0.421634247468809
40
0.474929307675535
40
0.501576837778899
40
0.528224367882263
40
0.581519428088989
40
0.608166958192353
40
0.634814488295717
40
0.648138253347398
40
0.66146201839908
40
0.688109548502443
40
0.74140460870917
40
0.794699668915897
40
0.821347199019261
40
0.847994729122624
40
0.954584849536078
40
0.981232379639442
40
0.994556144691123
40
1
40
1
40
1
40
1
41
1
10
24.957588240516
20
2.72428861229096
30
0
41
1
10
24.9587698220867
20
2.73576871051122
30
0
41
1
10
24.9609014520146
20
2.75670004715829
30
0
41
1
10
24.9633365263283
20
2.78078344541515
30
0
41
1
10
24.9649318268065
20
2.79653331492932
30
0
41
1
10
24.9665301080054
20
2.81228261246787
30
0
41
1
10
24.9690963075697
20
2.83747979395452
30
0
41
1
10
24.9739315031545
20
2.88472028517674
30
0
41
1
10
24.9804146482827
20
2.94770202420898
30
0
41
1
10
24.9869338849429
20
3.01068352260577
30
0
41
1
10
24.9914008054404
20
3.05479176581949
30
0
41
1
10
24.9941347159023
20
3.07996771203403
30
0
41
1
10
24.9961409387828
20
3.10526685365252
30
0
41
1
10
24.9970643705036
20
3.13074580929052
30
0
41
1
10
24.9979329120929
20
3.15623393014923
30
0
41
1
10
24.9984222429205
20
3.17217269604777
30
0
41
1
10
24.9987632209166
20
3.18493184589565
30
0
41
1
10
24.9990709479338
20
3.19769633289692
30
0
41
1
10
24.9995232542398
20
3.22004796522862
30
0
41
1
10
24.9999291767262
20
3.25201692622576
30
0
41
1
10
25.0000310653078
20
3.28403312680561
30
0
41
1
10
24.9999288779916
20
3.30967423005899
30
0
41
1
10
24.9995912599167
20
3.34816392724849
30
0
41
1
10
24.998791201792
20
3.38672347901144
30
0
41
1
10
24.9976280550389
20
3.42213284708592
30
0
41
1
10
24.9972218471098
20
3.43311141192035
30
0
41
1
10
24.9970473570562
20
3.43764984873599
30
0
41
1
10
24.9969857911947
20
3.43896723160688
30
0
0
SPLINE
5
22E
100
AcDbEntity
8
1
62
256
6
ByLayer
370
18
48
1
60
0
100
AcDbSpline
70
4
71
3
72
19
73
15
40
0
40
0
40
0
40
0
40
0.0180580736808075
40
0.140192229457764
40
0.262326385234721
40
0.384460541011678
40
0.445527618900156
40
0.506594696788634
40
0.628728852565591
40
0.750863008342548
40
0.872997164119505
40
0.934064242007983
40
0.995131319896461
40
1
40
1
40
1
40
1
41
1
10
24.9969857911947
20
3.43896723160688
30
0
41
1
10
24.9968966754111
20
3.4408741261752
30
0
41
1
10
24.9960266846507
20
3.45569333969254
30
0
41
1
10
24.9882555349748
20
3.48391787884788
30
0
41
1
10
24.964058715736
20
3.52464087408063
30
0
41
1
10
24.9334354865524
20
3.5579158500465
30
0
41
1
10
24.9030839135725
20
3.58320091695177
30
0
41
1
10
24.8691461832616
20
3.60764883792018
30
0
41
1
10
24.8205171137745
20
3.63643456949774
30
0
41
1
10
24.7537359181032
20
3.6664110961936
30
0
41
1
10
24.692979351625
20
3.68675704930919
30
0
41
1
10
24.6424605704832
20
3.69975560444317
30
0
41
1
10
24.6157903599898
20
3.70530924724156
30
0
41
1
10
24.6019025666026
20
3.70786869496337
30
0
41
1
10
24.6008769318965
20
3.70805639191022
30
0
0
SPLINE
5
22F
100
AcDbEntity
8
1
62
256
6
ByLayer
370
18
48
1
60
0
100
AcDbSpline
70
4
71
3
72
15
73
11
40
0
40
0
40
0
40
0
40
0.0021852238900196
40
0.0053936315302446
40
0.0118104468106946
40
0.0246440773715947
40
0.075978599615195
40
0.178647644102396
40
0.589323822051198
40
1
40
1
40
1
40
1
41
1
10
24.6008769318965
20
3.70805639191022
30
0
41
1
10
24.5986864734751
20
3.70845725817918
30
0
41
1
10
24.5932780815601
20
3.70943214156947
30
0
41
1
10
24.5814335173156
20
3.71154976694521
30
0
41
1
10
24.5589158926655
20
3.71562845118245
30
0
41
1
10
24.4881382690446
20
3.7283789399583
30
0
41
1
10
24.3208423412129
20
3.75848211861353
30
0
41
1
10
23.75453637878
20
3.85968150874868
30
0
41
1
10
22.8275177575257
20
4.02188526072993
30
0
41
1
10
22.0031395778594
20
4.16124358722016
30
0
41
1
10
21.590891002892
20
4.22973528367416
30
0
0
SPLINE
5
230
100
AcDbEntity
8
1
62
256
6
ByLayer
370
18
48
1
60
0
100
AcDbSpline
70
4
71
3
72
8
73
4
40
0
40
0
40
0
40
0
40
1
40
1
40
1
40
1
41
1
10
21.590891002892
20
4.22973528367416
30
0
41
1
10
21.605361683866
20
4.22203611068281
30
0
41
1
10
21.61983236484
20
4.21433693769143
30
0
41
1
10
21.634303045814
20
4.20663776470008
30
0
0
SPLINE
5
231
100
AcDbEntity
8
1
62
256
6
ByLayer
370
18
48
1
60
0
100
AcDbSpline
70
4
71
3
72
12
73
8
40
0
40
0
40
0
40
0
40
0.0111774985702509
40
0.028525261753229
40
0.167307367217053
40
0.444871578144702
40
1
40
1
40
1
40
1
41
1
10
23.3353160031058
20
2.44670524204571
30
0
41
1
10
23.3289811494727
20
2.4475705029279
30
0
41
1
10
23.3128085207644
20
2.44984862393508
30
0
41
1
10
23.2179691261905
20
2.46305933630848
30
0
41
1
10
22.9721019784552
20
2.49766169688601
30
0
41
1
10
22.4213069059505
20
2.5763347897267
30
0
41
1
10
21.9491113335945
20
2.6460004792238
30
0
41
1
10
21.6343030458142
20
2.69336091522604
30
0
0
SPLINE
5
232
100
AcDbEntity
8
1
62
256
6
ByLayer
370
18
48
1
60
0
100
AcDbSpline
70
4
71
3
72
26
73
22
40
0
40
0
40
0
40
0
40
0.0104432737123582
40
0.0494702964083738
40
0.0884973191043895
40
0.127524341800405
40
0.166551364496421
40
0.205578387192436
40
0.225091898540444
40
0.244605409888452
40
0.283632432584468
40
0.43974052336853
40
0.595848614152593
40
0.673902659544624
40
0.751956704936655
40
0.830010750328686
40
0.849524261676694
40
0.869037773024702
40
0.908064795720718
40
0.986118841112749
40
1
40
1
40
1
40
1
41
1
10
23.9135529850892
20
2.56490062492352
30
0
41
1
10
23.9126200978794
20
2.56382029375257
30
0
41
1
10
23.9081622646774
20
2.55871598891281
30
0
41
1
10
23.8997325722485
20
2.54974105177553
30
0
41
1
10
23.8872456202107
20
2.53836249618436
30
0
41
1
10
23.8735316926005
20
2.52747368663014
30
0
41
1
10
23.8586286335152
20
2.51709570278686
30
0
41
1
10
23.8452488193592
20
2.50888919060563
30
0
41
1
10
23.8339868158702
20
2.5025987372309
30
0
41
1
10
23.8223587798671
20
2.49649467868886
30
0
41
1
10
23.7888968310704
20
2.48049069504936
30
0
41
1
10
23.7263148359933
20
2.45871385646117
30
0
41
1
10
23.6449960583473
20
2.44332025962683
30
0
41
1
10
23.5746106473078
20
2.43653858142264
30
0
41
1
10
23.5195919391099
20
2.43428800617281
30
0
41
1
10
23.47698232893
20
2.4347786501167
30
0
41
1
10
23.4481770048356
20
2.43600620682412
30
0
41
1
10
23.4288778601987
20
2.43706421556121
30
0
41
1
10
23.3948817241864
20
2.43954350572341
30
0
41
1
10
23.3619690320354
20
2.44311945772691
30
0
41
1
10
23.338813004063
20
2.44622759594549
30
0
41
1
10
23.3353160031058
20
2.44670524204571
30
0
0
SPLINE
5
233
100
AcDbEntity
8
1
62
256
6
ByLayer
370
18
48
1
60
0
100
AcDbSpline
70
4
71
3
72
13
73
9
40
0
40
0
40
0
40
0
40
0.0415335913911599
40
0.0955852659187822
40
0.311791964029272
40
0.74420536025025
40
0.960412058360739
40
1
40
1
40
1
40
1
41
1
10
24.1029277151328
20
2.79038339216106
30
0
41
1
10
24.1003463298923
20
2.78724816967778
30
0
41
1
10
24.0942681788865
20
2.7800784452258
30
0
41
1
10
24.0747052583778
20
2.7566039256759
30
0
41
1
10
24.0304335863054
20
2.70376202837843
30
0
41
1
10
23.975952691639
20
2.63872277477671
30
0
41
1
10
23.932209215175
20
2.58709912994925
30
0
41
1
10
23.916106342836
20
2.56785754397595
30
0
41
1
10
23.9135529850892
20
2.56490062492352
30
0
0
SPLINE
5
234
100
AcDbEntity
8
1
62
256
6
ByLayer
370
18
48
1
60
0
100
AcDbSpline
70
4
71
3
72
22
73
18
40
0
40
0
40
0
40
0
40
0.0173062552164527
40
0.0745914966662767
40
0.150971818599375
40
0.303732462465573
40
0.45649310633177
40
0.609253750197968
40
0.647443911164517
40
0.666538991647792
40
0.685634072131066
40
0.704729152614341
40
0.723824233097616
40
0.762014394064165
40
0.914775037930362
40
0.991155359863461
40
1
40
1
40
1
40
1
41
1
10
24.1967795487885
20
3.15588799895198
30
0
41
1
10
24.196331794084
20
3.15375178233111
30
0
41
1
10
24.1944336362783
20
3.14453809589565
30
0
41
1
10
24.1910666299435
20
3.1257945745227
30
0
41
1
10
24.1859915493168
20
3.08997933708173
30
0
41
1
10
24.1814274992395
20
3.04182908430113
30
0
41
1
10
24.1760029126173
20
2.98401346360106
30
0
41
1
10
24.16941582418
20
2.94113900674648
30
0
41
1
10
24.1634514394931
20
2.91532027821722
30
0
41
1
10
24.1610422947543
20
2.9059824250767
30
0
41
1
10
24.1591081082448
20
2.89900668964381
30
0
41
1
10
24.1570394046146
20
2.89206087534805
30
0
41
1
10
24.1540921913929
20
2.88284270675618
30
0
41
1
10
24.1451684300504
20
2.85768224324457
30
0
41
1
10
24.1300011940305
20
2.82656955504373
30
0
41
1
10
24.1111503251197
20
2.80045098725063
30
0
41
1
10
24.1037057358616
20
2.7913283375506
30
0
41
1
10
24.1029277151328
20
2.79038339216106
30
0
0
SPLINE
5
235
100
AcDbEntity
8
1
62
256
6
ByLayer
370
18
48
1
60
0
100
AcDbSpline
70
4
71
3
72
25
73
21
40
0
40
0
40
0
40
0
40
0.0333597394323595
40
0.107582966694292
40
0.181806193956225
40
0.218917807587191
40
0.237473614402674
40
0.256029421218158
40
0.293141034849124
40
0.33025264848009
40
0.404475875742023
40
0.441587489372989
40
0.478699103003956
40
0.552922330265888
40
0.701368784789754
40
0.849815239313619
40
0.924038466575552
40
0.979705887022002
40
0.998261693837485
40
1
40
1
40
1
40
1
41
1
10
24.271661862333
20
3.53792629556051
30
0
41
1
10
24.2711751542557
20
3.53361155501369
30
0
41
1
10
24.2692745601247
20
3.519757053354
30
0
41
1
10
24.2662522422967
20
3.49630990042627
30
0
41
1
10
24.2627893043379
20
3.47244920822325
30
0
41
1
10
24.2604682582054
20
3.45572741195969
30
0
41
1
10
24.2587356997046
20
3.44624905552439
30
0
41
1
10
24.2562341606063
20
3.43693070924053
30
0
41
1
10
24.2536488533053
20
3.42516871934492
30
0
41
1
10
24.2498475547857
20
3.40628203079689
30
0
41
1
10
24.2459147172736
20
3.38742164606083
30
0
41
1
10
24.2419690189647
20
3.36856392676336
30
0
41
1
10
24.2380149909536
20
3.34970793066253
30
0
41
1
10
24.2310742173931
20
3.31671431975104
30
0
41
1
10
24.2211018474845
20
3.26959230419865
30
0
41
1
10
24.2110632719346
20
3.22248375724567
30
0
41
1
10
24.2034692145569
20
3.18716569343039
30
0
41
1
10
24.1994300473318
20
3.1683271399896
30
0
41
1
10
24.19736706472
20
3.15868644710611
30
0
41
1
10
24.1968258300271
20
3.15610880456353
30
0
41
1
10
24.1967795487885
20
3.15588799895198
30
0
0
SPLINE
5
236
100
AcDbEntity
8
1
62
256
6
ByLayer
370
18
48
1
60
0
100
AcDbSpline
70
4
71
3
72
8
73
4
40
0
40
0
40
0
40
0
40
1
40
1
40
1
40
1
41
1
10
21.6950799079977
20
4.68241874006245
30
0
41
1
10
20.962521154766
20
4.80299620376869
30
0
41
1
10
20.2299624015343
20
4.92357366747535
30
0
41
1
10
19.4974036483026
20
5.04415113118316
30
0
0
SPLINE
5
237
100
AcDbEntity
8
1
62
256
6
ByLayer
370
18
48
1
60
0
100
AcDbSpline
70
4
71
3
72
8
73
4
40
0
40
0
40
0
40
0
40
1
40
1
40
1
40
1
41
1
10
19.4974036483048
20
5.04415113118282
30
0
41
1
10
19.8310672461212
20
5.48031575934994
30
0
41
1
10
20.1647308439369
20
5.9164803875133
30
0
41
1
10
20.4983944417527
20
6.35264501567653
30
0
0
SPLINE
5
238
100
AcDbEntity
8
1
62
256
6
ByLayer
370
18
48
1
60
0
100
AcDbSpline
70
4
71
3
72
8
73
4
40
0
40
0
40
0
40
0
40
1
40
1
40
1
40
1
41
1
10
19.659932336871
20
5.78743921651107
30
0
41
1
10
19.8148088629766
20
5.95419207054564
30
0
41
1
10
19.9696853890733
20
6.12094492458164
30
0
41
1
10
20.124561915163
20
6.28769777861862
30
0
0
SPLINE
5
239
100
AcDbEntity
8
1
62
256
6
ByLayer
370
18
48
1
60
0
100
AcDbSpline
70
4
71
3
72
14
73
10
40
0
40
0
40
0
40
0
40
0.125000000024467
40
0.250000000048933
40
0.375000000073399
40
0.500000000097866
40
0.625000000122332
40
0.750000000146799
40
1
40
1
40
1
40
1
41
1
10
20.4983944392785
20
6.35264501244222
30
0
41
1
10
20.4785614222658
20
6.35590948272244
30
0
41
1
10
20.4388305984833
20
6.36094732623732
30
0
41
1
10
20.3803902118427
20
6.36391084812181
30
0
41
1
10
20.3244558925359
20
6.36216117437601
30
0
41
1
10
20.2722667684546
20
6.35579102407024
30
0
41
1
10
20.2250619674879
20
6.34489311627277
30
0
41
1
10
20.1701181480892
20
6.32472354229256
30
0
41
1
10
20.1394246081604
20
6.3037001801068
30
0
41
1
10
20.1245619129014
20
6.28769777526503
30
0
0
SPLINE
5
23A
100
AcDbEntity
8
1
62
256
6
ByLayer
370
18
48
1
60
0
100
AcDbSpline
70
4
71
3
72
8
73
4
40
0
40
0
40
0
40
0
40
1
40
1
40
1
40
1
41
1
10
19.1999999997202
20
4.61369337046625
30
0
41
1
10
19.299134549248
20
4.75717929070518
30
0
41
1
10
19.3982690987759
20
4.90066521094408
30
0
41
1
10
19.4974036483037
20
5.04415113118299
30
0
0
SPLINE
5
23B
100
AcDbEntity
8
1
62
256
6
ByLayer
370
18
48
1
60
0
100
AcDbSpline
70
4
71
3
72
16
73
12
40
0
40
0
40
0
40
0
40
0.517375104625281
40
0.776062656937921
40
0.905406433094241
40
0.921574405113781
40
0.937742377133321
40
0.970078321172401
40
0.986246293191941
40
0.994330279201711
40
1
40
1
40
1
40
1
41
1
10
21.5908910056248
20
4.22973529679709
30
0
41
1
10
21.1786424322008
20
4.29822700060899
30
0
41
1
10
20.5601797464985
20
4.39918525673352
30
0
41
1
10
19.8385573612525
20
4.51388685027032
30
0
41
1
10
19.5163939539854
20
4.56442273571571
30
0
41
1
10
19.3875276951789
20
4.5845257393317
30
0
41
1
10
19.3359811040054
20
4.5925585137777
30
0
41
1
10
19.2844343693328
20
4.60058085396412
30
0
41
1
10
19.2393308298925
20
4.60759513257193
30
0
41
1
10
19.2154818497355
20
4.61128257147496
30
0
41
1
10
19.2045189501808
20
4.61300956337607
30
0
41
1
10
19.1999999780003
20
4.61370200348858
30
0
0
SPLINE
5
23C
100
AcDbEntity
8
1
62
256
6
ByLayer
370
18
48
1
60
0
100
AcDbSpline
70
4
71
3
72
15
73
11
40
0
40
0
40
0
40
0
40
0.0095746787019991
40
0.137815053134618
40
0.266055427567237
40
0.394295801999856
40
0.650776550865094
40
0.907257299730332
40
0.971377486946642
40
1
40
1
40
1
40
1
41
1
10
19.1999999780003
20
4.61370200348858
30
0
41
1
10
19.1980757214602
20
4.61399685646887
30
0
41
1
10
19.1703793017003
20
4.6181900374707
30
0
41
1
10
19.1169433372814
20
4.62410252570285
30
0
41
1
10
19.0416969840732
20
4.62631663665533
30
0
41
1
10
18.9464941692318
20
4.6208773854103
30
0
41
1
10
18.8416342608585
20
4.59841298064526
30
0
41
1
10
18.7734156324679
20
4.561397500119
30
0
41
1
10
18.7445630820919
20
4.53399394160493
30
0
41
1
10
18.7379363959675
20
4.52635369020661
30
0
41
1
10
18.7359368448949
20
4.52397987503571
30
0
0
SPLINE
5
23D
100
AcDbEntity
8
1
62
256
6
ByLayer
370
18
48
1
60
0
100
AcDbSpline
70
4
71
3
72
25
73
21
40
0
40
0
40
0
40
0
40
0.0016493362088591
40
0.0170316297738977
40
0.0477962169039749
40
0.0785608040340522
40
0.109325391164129
40
0.140089978294207
40
0.170854565424284
40
0.201619152554361
40
0.32467750107467
40
0.570794198115288
40
0.693852546635596
40
0.724617133765673
40
0.755381720895751
40
0.816910895155905
40
0.939969243676214
40
0.970733830806291
40
0.98611612437133
40
1
40
1
40
1
40
1
41
1
10
18.7359368448949
20
4.52397987503571
30
0
41
1
10
18.7356966976418
20
4.52369477844559
30
0
41
1
10
18.7332236434531
20
4.52074840787068
30
0
41
1
10
18.7264527684355
20
4.51242118091648
30
0
41
1
10
18.7154189365378
20
4.4990708382862
30
0
41
1
10
18.7021814681892
20
4.48304891498134
30
0
41
1
10
18.6889468296807
20
4.46702601579651
30
0
41
1
10
18.6757148044039
20
4.45100221555848
30
0
41
1
10
18.6624851757501
20
4.43497758909402
30
0
41
1
10
18.6360302784717
20
4.40292683336583
30
0
41
1
10
18.5787326046
20
4.33347619974856
30
0
41
1
10
18.5082474937043
20
4.24798642433001
30
0
41
1
10
18.4509618077958
20
4.17853173686106
30
0
41
1
10
18.4245160068871
20
4.14647783655352
30
0
41
1
10
18.4068836003914
20
4.12510919899685
30
0
41
1
10
18.376021435598
20
4.08771591067122
30
0
41
1
10
18.3451462120937
20
4.05032697892855
30
0
41
1
10
18.3209453315538
20
4.02093050643427
30
0
41
1
10
18.3122997158436
20
4.01052112628727
30
0
41
1
10
18.308103948515
20
4.00543994743043
30
0
41
1
10
18.3061404741258
20
4.0030204280005
30
0
0
SPLINE
5
23E
100
AcDbEntity
8
1
62
256
6
ByLayer
370
18
48
1
60
0
100
AcDbSpline
70
4
71
3
72
15
73
11
40
0
40
0
40
0
40
0
40
0.0034237104021429
40
0.0385704589889067
40
0.0737172075756706
40
0.144010704749198
40
0.425184693443309
40
0.706358682137419
40
0.98753267083153
40
1
40
1
40
1
40
1
41
1
10
18.3061404741258
20
4.0030204280005
30
0
41
1
10
18.3059285660591
20
4.00275930125116
30
0
41
1
10
18.3035448182774
20
3.99981634637607
30
0
41
1
10
18.2990721154727
20
3.99416391213046
30
0
41
1
10
18.2910193191864
20
3.98323038974715
30
0
41
1
10
18.2709384048131
20
3.95251676068014
30
0
41
1
10
18.2481309193429
20
3.89938559655627
30
0
41
1
10
18.2324600298733
20
3.82526612782544
30
0
41
1
10
18.2270197051066
20
3.77378182269331
30
0
41
1
10
18.2243087258571
20
3.74746995479691
30
0
41
1
10
18.2241937397396
20
3.74635279451681
30
0
0
SPLINE
5
23F
100
AcDbEntity
8
1
62
256
6
ByLayer
370
18
48
1
60
0
100
AcDbSpline
70
4
71
3
72
32
73
28
40
0
40
0
40
0
40
0
40
0.0485688260217182
40
0.0885401211767634
40
0.101863886228445
40
0.115187651280127
40
0.155158946435172
40
0.208454006641899
40
0.315044127055353
40
0.421634247468807
40
0.474929307675534
40
0.501576837778897
40
0.528224367882261
40
0.581519428088987
40
0.608166958192351
40
0.634814488295715
40
0.648138253347396
40
0.661462018399078
40
0.688109548502441
40
0.741404608709168
40
0.794699668915895
40
0.821347199019259
40
0.847994729122622
40
0.954584849536076
40
0.98123237963944
40
0.994556144691122
40
1
40
1
40
1
40
1
41
1
10
18.2241937397396
20
3.74635279451681
30
0
41
1
10
18.2230120926789
20
3.73487237243896
30
0
41
1
10
18.2208802588263
20
3.71394002735636
30
0
41
1
10
18.2184447601184
20
3.6898545304114
30
0
41
1
10
18.2168491033332
20
3.67410289890987
30
0
41
1
10
18.2152504257765
20
3.65835164132687
30
0
41
1
10
18.2126834872706
20
3.63315080567145
30
0
41
1
10
18.2078467926781
20
3.58590290164824
30
0
41
1
10
18.2013620912723
20
3.52291346660732
30
0
41
1
10
18.1948437100677
20
3.4599361985569
30
0
41
1
10
18.1903789657871
20
3.41583871703816
30
0
41
1
10
18.1876476546964
20
3.39067562507461
30
0
41
1
10
18.1856416958072
20
3.36537778892924
30
0
41
1
10
18.1847176973065
20
3.3398960304863
30
0
41
1
10
18.183849038672
20
3.31440733082283
30
0
41
1
10
18.1833597253672
20
3.29846865157688
30
0
41
1
10
18.1830187577669
20
3.28570955313771
30
0
41
1
10
18.1827110389952
20
3.27294510691138
30
0
41
1
10
18.1822587421687
20
3.25059352145712
30
0
41
1
10
18.1818528230504
20
3.21862457711612
30
0
41
1
10
18.181750934856
20
3.18660837845064
30
0
41
1
10
18.1818531220715
20
3.16096727469977
30
0
41
1
10
18.1821907402745
20
3.12247757814308
30
0
41
1
10
18.1829908009473
20
3.08391803898075
30
0
41
1
10
18.1841539585719
20
3.04850872466781
30
0
41
1
10
18.1845601406962
20
3.03753003222491
30
0
41
1
10
18.1847346169857
20
3.03299152734414
30
0
41
1
10
18.184795964063
20
3.03167306255526
30
0
0
SPLINE
5
240
100
AcDbEntity
8
1
62
256
6
ByLayer
370
18
48
1
60
0
100
AcDbSpline
70
4
71
3
72
19
73
15
40
0
40
0
40
0
40
0
40
0.0180580736808024
40
0.140192229457759
40
0.262326385234717
40
0.384460541011673
40
0.445527618900152
40
0.506594696788631
40
0.628728852565588
40
0.750863008342545
40
0.872997164119502
40
0.93406424200798
40
0.995131319896459
40
1
40
1
40
1
40
1
41
1
10
18.184795964063
20
3.03167306255526
30
0
41
1
10
18.1848847631595
20
3.02976460192468
30
0
41
1
10
18.185748801537
20
3.01491595304879
30
0
41
1
10
18.1933846827592
20
2.986022492628
30
0
41
1
10
18.2177192267683
20
2.94598056548708
30
0
41
1
10
18.2484436895937
20
2.91320620392079
30
0
41
1
10
18.2787421456579
20
2.88765846649949
30
0
41
1
10
18.3126405255803
20
2.86301595240315
30
0
41
1
10
18.3613123437514
20
2.83444161899683
30
0
41
1
10
18.4280904491675
20
2.80444981056013
30
0
41
1
10
18.4888235639851
20
2.78398788573026
30
0
41
1
10
18.539325726399
20
2.77090714868174
30
0
41
1
10
18.5659918922952
20
2.76533350478957
30
0
41
1
10
18.5798794044418
20
2.76277266629373
30
0
41
1
10
18.5809050256195
20
2.76258490244709
30
0
0
SPLINE
5
241
100
AcDbEntity
8
1
62
256
6
ByLayer
370
18
48
1
60
0
100
AcDbSpline
70
4
71
3
72
15
73
11
40
0
40
0
40
0
40
0
40
0.002185223890019
40
0.0053936315302441
40
0.0118104468106941
40
0.0246440773715942
40
0.0759785996151945
40
0.178647644102395
40
0.589323822051198
40
1
40
1
40
1
40
1
41
1
10
18.5809050256195
20
2.76258490244709
30
0
41
1
10
18.5830954551482
20
2.76218389329961
30
0
41
1
10
18.5885038572403
20
2.76120906023638
30
0
41
1
10
18.6003485363041
20
2.75909200265792
30
0
41
1
10
18.6228660793797
20
2.75501291502363
30
0
41
1
10
18.6936437749342
20
2.74226278196943
30
0
41
1
10
18.8609396290623
20
2.71215923883958
30
0
41
1
10
19.4272456694325
20
2.61096023411522
30
0
41
1
10
20.3542642401919
20
2.44875623242976
30
0
41
1
10
21.1786424282608
20
2.30939794749182
30
0
41
1
10
21.590891002892
20
2.24090624937497
30
0
0
SPLINE
5
242
100
AcDbEntity
8
1
62
256
6
ByLayer
370
18
48
1
60
0
100
AcDbSpline
70
4
71
3
72
12
73
8
40
0
40
0
40
0
40
0
40
0.0111774985702509
40
0.028525261753229
40
0.167307367217053
40
0.444871578144702
40
1
40
1
40
1
40
1
41
1
10
19.9332900885227
20
4.4532934378804
30
0
41
1
10
19.9396249421557
20
4.45242817699821
30
0
41
1
10
19.955797570864
20
4.45015005599103
30
0
41
1
10
20.0506369654379
20
4.43693934361769
30
0
41
1
10
20.2965041131733
20
4.40233698304021
30
0
41
1
10
20.847299185678
20
4.32366389019953
30
0
41
1
10
21.3194947580339
20
4.25399820070231
30
0
41
1
10
21.6343030458142
20
4.20663776470005
30
0
0
SPLINE
5
243
100
AcDbEntity
8
1
62
256
6
ByLayer
370
18
48
1
60
0
100
AcDbSpline
70
4
71
3
72
26
73
22
40
0
40
0
40
0
40
0
40
0.0104432737123549
40
0.0494702964083707
40
0.0884973191043864
40
0.127524341800402
40
0.166551364496418
40
0.205578387192434
40
0.225091898540442
40
0.244605409888449
40
0.283632432584465
40
0.439740523368528
40
0.595848614152591
40
0.673902659544623
40
0.751956704936654
40
0.830010750328686
40
0.849524261676694
40
0.869037773024702
40
0.908064795720717
40
0.986118841112749
40
1
40
1
40
1
40
1
41
1
10
19.3550531065392
20
4.33509805500259
30
0
41
1
10
19.355985993749
20
4.33617838617354
30
0
41
1
10
19.360443826951
20
4.34128269101328
30
0
41
1
10
19.36887351938
20
4.35025762815059
30
0
41
1
10
19.3813604714177
20
4.36163618374175
30
0
41
1
10
19.3950743990279
20
4.37252499329597
30
0
41
1
10
19.4099774581132
20
4.38290297713922
30
0
41
1
10
19.4233572722692
20
4.39110948932048
30
0
41
1
10
19.4346192757583
20
4.39739994269519
30
0
41
1
10
19.4462473117613
20
4.40350400123725
30
0
41
1
10
19.4797092605581
20
4.41950798487673
30
0
41
1
10
19.5422912556351
20
4.44128482346491
30
0
41
1
10
19.6236100332812
20
4.45667842029926
30
0
41
1
10
19.6939954443206
20
4.46346009850345
30
0
41
1
10
19.7490141525186
20
4.46571067375328
30
0
41
1
10
19.7916237626985
20
4.46522002980942
30
0
41
1
10
19.8204290867928
20
4.46399247310197
30
0
41
1
10
19.8397282314297
20
4.46293446436491
30
0
41
1
10
19.873724367442
20
4.46045517420268
30
0
41
1
10
19.906637059593
20
4.45687922219918
30
0
41
1
10
19.9297930875655
20
4.4537710839806
30
0
41
1
10
19.9332900885227
20
4.4532934378804
30
0
0
SPLINE
5
244
100
AcDbEntity
8
1
62
256
6
ByLayer
370
18
48
1
60
0
100
AcDbSpline
70
4
71
3
72
13
73
9
40
0
40
0
40
0
40
0
40
0.0415335913911628
40
0.0955852659187849
40
0.311791964029273
40
0.74420536025025
40
0.960412058360738
40
1
40
1
40
1
40
1
41
1
10
19.1656783764957
20
4.10961528776505
30
0
41
1
10
19.1682597617361
20
4.1127505102483
30
0
41
1
10
19.1743379127419
20
4.11992023470029
30
0
41
1
10
19.1939008332507
20
4.14339475425018
30
0
41
1
10
19.238172505323
20
4.19623665154765
30
0
41
1
10
19.2926533999894
20
4.26127590514938
30
0
41
1
10
19.3363968764534
20
4.31289954997683
30
0
41
1
10
19.3524997487924
20
4.33214113595017
30
0
41
1
10
19.3550531065392
20
4.33509805500259
30
0
0
SPLINE
5
245
100
AcDbEntity
8
1
62
256
6
ByLayer
370
18
48
1
60
0
100
AcDbSpline
70
4
71
3
72
22
73
18
40
0
40
0
40
0
40
0
40
0.0173062552164538
40
0.0745914966662779
40
0.150971818599377
40
0.303732462465574
40
0.456493106331772
40
0.609253750197969
40
0.647443911164519
40
0.666538991647794
40
0.685634072131068
40
0.704729152614343
40
0.723824233097618
40
0.762014394064167
40
0.914775037930365
40
0.991155359863463
40
1
40
1
40
1
40
1
41
1
10
19.07182654284
20
3.74411068097413
30
0
41
1
10
19.0722742975445
20
3.746246897595
30
0
41
1
10
19.0741724553501
20
3.75546058403046
30
0
41
1
10
19.077539461685
20
3.77420410540341
30
0
41
1
10
19.0826145423117
20
3.81001934284436
30
0
41
1
10
19.0871785923889
20
3.85816959562496
30
0
41
1
10
19.0926031790111
20
3.91598521632505
30
0
41
1
10
19.0991902674484
20
3.95885967317963
30
0
41
1
10
19.1051546521353
20
3.98467840170886
30
0
41
1
10
19.1075637968742
20
3.99401625484938
30
0
41
1
10
19.1094979833836
20
4.0009919902823
30
0
41
1
10
19.1115666870138
20
4.00793780457804
30
0
41
1
10
19.1145139002355
20
4.01715597316991
30
0
41
1
10
19.1234376615781
20
4.04231643668152
30
0
41
1
10
19.138604897598
20
4.07342912488235
30
0
41
1
10
19.1574557665088
20
4.09954769267546
30
0
41
1
10
19.1649003557668
20
4.10867034237549
30
0
41
1
10
19.1656783764957
20
4.10961528776505
30
0
0
SPLINE
5
246
100
AcDbEntity
8
1
62
256
6
ByLayer
370
18
48
1
60
0
100
AcDbSpline
70
4
71
3
72
25
73
21
40
0
40
0
40
0
40
0
40
0.033359739432358
40
0.107582966694291
40
0.181806193956224
40
0.21891780758719
40
0.237473614402674
40
0.256029421218157
40
0.293141034849123
40
0.33025264848009
40
0.404475875742022
40
0.441587489372989
40
0.478699103003956
40
0.552922330265888
40
0.701368784789754
40
0.84981523931362
40
0.924038466575553
40
0.979705887022003
40
0.998261693837486
40
1
40
1
40
1
40
1
41
1
10
18.9969442292308
20
3.36207238404609
30
0
41
1
10
18.9974309374312
20
3.36638712520155
30
0
41
1
10
18.9993315314529
20
3.38024162632061
30
0
41
1
10
19.0023538493476
20
3.40368877957823
30
0
41
1
10
19.005816787292
20
3.42754947171025
30
0
41
1
10
19.008137833423
20
3.4442712679664
30
0
41
1
10
19.0098703919239
20
3.4537496244017
30
0
41
1
10
19.0123719310221
20
3.46306797068556
30
0
41
1
10
19.0149572383231
20
3.47482996058116
30
0
41
1
10
19.0187585368427
20
3.4937166491292
30
0
41
1
10
19.0226913743547
20
3.51257703386526
30
0
41
1
10
19.0266370726637
20
3.53143475316273
30
0
41
1
10
19.0305911006748
20
3.55029074926358
30
0
41
1
10
19.0375318742354
20
3.58328436017507
30
0
41
1
10
19.047504244144
20
3.63040637572743
30
0
41
1
10
19.0575428196938
20
3.67751492268042
30
0
41
1
10
19.0651368770715
20
3.71283298649573
30
0
41
1
10
19.0691760442966
20
3.73167153993648
30
0
41
1
10
19.0712390269084
20
3.74131223281998
30
0
41
1
10
19.0717802616013
20
3.74388987536258
30
0
41
1
10
19.07182654284
20
3.74411068097413
30
0
0
SPLINE
5
247
100
AcDbEntity
8
1
62
256
6
ByLayer
370
18
48
1
60
0
100
AcDbSpline
70
4
71
3
72
24
73
20
40
0
40
0
40
0
40
0
40
0.0083012810712562
40
0.0512299228286009
40
0.0941585645859456
40
0.180015848100635
40
0.265873131615325
40
0.351730415130014
40
0.394659056887359
40
0.437587698644703
40
0.523444982159393
40
0.609302265674082
40
0.695159549188772
40
0.716623870067444
40
0.738088190946116
40
0.781016832703461
40
0.95273139973284
40
0.995660041490185
40
1
40
1
40
1
40
1
41
1
10
19.3380607370305
20
3.05487841547153
30
0
41
1
10
19.3361589441487
20
3.05519441180556
30
0
41
1
10
19.324424315632
20
3.0571738242507
30
0
41
1
10
19.3028969493519
20
3.06140842976183
30
0
41
1
10
19.2641684116564
20
3.07095090008974
30
0
41
1
10
19.2175150224519
20
3.08628526426858
30
0
41
1
10
19.1667536438471
20
3.10935173849609
30
0
41
1
10
19.1300573692307
20
3.13142246864456
30
0
41
1
10
19.1042797492361
20
3.15018696231024
30
0
41
1
10
19.080853293405
20
3.16952636052503
30
0
41
1
10
19.0559128396063
20
3.19447161341895
30
0
41
1
10
19.0324527234482
20
3.2250874545019
30
0
41
1
10
19.019349139742
20
3.24814643557886
30
0
41
1
10
19.0123629276336
20
3.26347672326628
30
0
41
1
10
19.0081638590318
20
3.27368009570702
30
0
41
1
10
18.9984738096096
20
3.30164721327461
30
0
41
1
10
18.9944130904825
20
3.33165603138977
30
0
41
1
10
18.99630744454
20
3.35629926917664
30
0
41
1
10
18.9968894905557
20
3.36158711748556
30
0
41
1
10
18.9969442292308
20
3.36207238404609
30
0
0
SPLINE
5
248
100
AcDbEntity
8
1
62
256
6
ByLayer
370
18
48
1
60
0
100
AcDbSpline
70
4
71
3
72
15
73
11
40
0
40
0
40
0
40
0
40
0.411276026541515
40
0.82255205308303
40
0.925371059718409
40
0.976780563036098
40
0.98963293886552
40
0.996059126780231
40
0.999272220737587
40
1
40
1
40
1
40
1
41
1
10
21.6343030458144
20
2.69336091522601
30
0
41
1
10
21.3194947580341
20
2.74072135122827
30
0
41
1
10
20.6898546462476
20
2.83730020924321
30
0
41
1
10
19.9815493314907
20
2.94999690029084
30
0
41
1
10
19.5487458443994
20
3.02035965450546
30
0
41
1
10
19.4208781467676
20
3.0412951485778
30
0
41
1
10
19.3667802243803
20
3.05016043882688
30
0
41
1
10
19.3495683765209
20
3.0529987835418
30
0
41
1
10
19.3416333937221
20
3.05428702199191
30
0
41
1
10
19.3386176425297
20
3.05478588168523
30
0
41
1
10
19.3380607370305
20
3.05487841547153
30
0
0
SPLINE
5
249
100
AcDbEntity
8
1
62
256
6
ByLayer
370
18
48
1
60
0
100
AcDbSpline
70
4
71
3
72
14
73
10
40
0
40
0
40
0
40
0
40
0.5
40
0.5
40
0.75
40
0.75
40
0.875
40
0.875
40
1
40
1
40
1
40
1
41
1
10
21.6356499045144
20
9.57654323702408
30
0
41
1
10
21.5936882509686
20
9.57496291451355
30
0
41
1
10
21.5516468954925
20
9.57891448537418
30
0
41
1
10
21.4946609266762
20
9.59703255595261
30
0
41
1
10
21.4765103328502
20
9.60524320880839
30
0
41
1
10
21.4552792620023
20
9.62239422341872
30
0
41
1
10
21.4493759416752
20
9.62879200654487
30
0
41
1
10
21.4413170813439
20
9.64354223443669
30
0
41
1
10
21.4395159229312
20
9.65153673248346
30
0
41
1
10
21.4404258612435
20
9.65960696010765
30
0
0
SPLINE
5
24A
100
AcDbEntity
8
1
62
256
6
ByLayer
370
18
48
1
60
0
100
AcDbSpline
70
4
71
3
72
8
73
4
40
0
40
0
40
0
40
0
40
1
40
1
40
1
40
1
41
1
10
21.4404258612435
20
9.65960696010765
30
0
41
1
10
21.4414398217436
20
9.66533876917975
30
0
41
1
10
21.4424535648282
20
9.67107173617487
30
0
41
1
10
21.4434670733538
20
9.67680595046124
30
0
0
SPLINE
5
24B
100
AcDbEntity
8
1
62
256
6
ByLayer
370
18
48
1
60
0
100
AcDbSpline
70
4
71
3
72
12
73
8
40
0
40
0
40
0
40
0
40
0.25
40
0.25
40
0.5
40
0.5
40
1
40
1
40
1
40
1
41
1
10
21.8459696938871
20
9.67488019158401
30
0
41
1
10
21.8441496945187
20
9.65872864650095
30
0
41
1
10
21.8315011857454
20
9.64242716647499
30
0
41
1
10
21.7993757660524
20
9.61743709225127
30
0
41
1
10
21.7799824711889
20
9.60779301026236
30
0
41
1
10
21.7202108381432
20
9.58525763194339
30
0
41
1
10
21.6776306620446
20
9.57812427901192
30
0
41
1
10
21.6356499045144
20
9.57654323702408
30
0
0
SPLINE
5
24C
100
AcDbEntity
8
1
62
256
6
ByLayer
370
18
48
1
60
0
100
AcDbSpline
70
4
71
3
72
18
73
14
40
0
40
0
40
0
40
0
40
0.125
40
0.125
40
0.250000000000001
40
0.250000000000001
40
0.500000000000001
40
0.500000000000001
40
0.75
40
0.75
40
0.875
40
0.875
40
1
40
1
40
1
40
1
41
1
10
21.4434670733538
20
9.67680595046124
30
0
41
1
10
21.4460612361079
20
9.69148316801889
30
0
41
1
10
21.4422337716042
20
9.70607942419142
30
0
41
1
10
21.4287088114354
20
9.73374205496907
30
0
41
1
10
21.4189439858498
20
9.74671417281991
30
0
41
1
10
21.3844608848483
20
9.78326735877457
30
0
41
1
10
21.3545524128296
20
9.80458642645453
30
0
41
1
10
21.2879294379465
20
9.84016199098369
30
0
41
1
10
21.2515784166408
20
9.85430873326536
30
0
41
1
10
21.1948150924651
20
9.86666915235281
30
0
41
1
10
21.1755111208261
20
9.86926824922313
30
0
41
1
10
21.1375354656442
20
9.86925143439115
30
0
41
1
10
21.1186864275139
20
9.86670287910522
30
0
41
1
10
21.1028635499807
20
9.85905176143646
30
0
0
SPLINE
5
24D
100
AcDbEntity
8
1
62
256
6
ByLayer
370
18
48
1
60
0
100
AcDbSpline
70
4
71
3
72
8
73
4
40
0
40
0
40
0
40
0
40
1
40
1
40
1
40
1
41
1
10
21.8468581569931
20
9.69199810701744
30
0
41
1
10
21.8465623284017
20
9.68629092135507
30
0
41
1
10
21.8462661659611
20
9.68058497924454
30
0
41
1
10
21.8459696938871
20
9.67488019158401
30
0
0
SPLINE
5
24E
100
AcDbEntity
8
1
62
256
6
ByLayer
370
18
48
1
60
0
100
AcDbSpline
70
4
71
3
72
18
73
14
40
0
40
0
40
0
40
0
40
0.125
40
0.125
40
0.25
40
0.25
40
0.5
40
0.5
40
0.75
40
0.75
40
0.875
40
0.875
40
1
40
1
40
1
40
1
41
1
10
22.1874616803662
20
9.8998989324962
30
0
41
1
10
22.174977370879
20
9.90649737377984
30
0
41
1
10
22.1591361905354
20
9.90771995239641
30
0
41
1
10
22.1264965181763
20
9.90509287311565
30
0
41
1
10
22.1092083616436
20
9.90109792697621
30
0
41
1
10
22.0578348051983
20
9.88472821764378
30
0
41
1
10
22.022940819302
20
9.86777650911307
30
0
41
1
10
21.9563386002146
20
9.82715647688948
30
0
41
1
10
21.924720439932
20
9.80355370785307
30
0
41
1
10
21.8850603715711
20
9.76423549476115
30
0
41
1
10
21.8730977705868
20
9.75039350307446
30
0
41
1
10
21.8544265734757
20
9.72155696124517
30
0
41
1
10
21.8476167688713
20
9.70663340245412
30
0
41
1
10
21.8468581569931
20
9.69199810701744
30
0
0
SPLINE
5
24F
100
AcDbEntity
8
1
62
256
6
ByLayer
370
18
48
1
60
0
100
AcDbSpline
70
4
71
3
72
8
73
4
40
0
40
0
40
0
40
0
40
1
40
1
40
1
40
1
41
1
10
20.8816076126627
20
10.5987145236629
30
0
41
1
10
20.8881272418988
20
10.595193923449
30
0
41
1
10
20.8946473613571
20
10.5916732919558
30
0
41
1
10
20.901168008161
20
10.5881526273546
30
0
0
SPLINE
5
250
100
AcDbEntity
8
1
62
256
6
ByLayer
370
18
48
1
60
0
100
AcDbSpline
70
4
71
3
72
18
73
14
40
0
40
0
40
0
40
0
40
0.125
40
0.125
40
0.25
40
0.25
40
0.5
40
0.5
40
0.750000000000001
40
0.750000000000001
40
0.875
40
0.875
40
1
40
1
40
1
40
1
41
1
10
20.901168008161
20
10.5881526273546
30
0
41
1
10
20.9178376999116
20
10.5791522328503
30
0
41
1
10
20.9311694357293
20
10.5649144319559
30
0
41
1
10
20.9531144169696
20
10.5329926680566
30
0
41
1
10
20.9615948884077
20
10.5153250686656
30
0
41
1
10
20.9815524226513
20
10.4604726048594
30
0
41
1
10
20.9876235911079
20
10.4214122531046
30
0
41
1
10
20.9876043163515
20
10.3452342737718
30
0
41
1
10
20.9815251383725
20
10.3080183928178
30
0
41
1
10
20.9615715135856
20
10.2582346257277
30
0
41
1
10
20.9530523219199
20
10.2425772001379
30
0
41
1
10
20.9311255944937
20
10.2155377956718
30
0
41
1
10
20.9178677954447
20
10.2040923287685
30
0
41
1
10
20.901168008161
20
10.1980059909007
30
0
0
SPLINE
5
251
100
AcDbEntity
8
1
62
256
6
ByLayer
370
18
48
1
60
0
100
AcDbSpline
70
4
71
3
72
12
73
8
40
0
40
0
40
0
40
0
40
0.25
40
0.25
40
0.499999999999999
40
0.499999999999999
40
1
40
1
40
1
40
1
41
1
10
22.202016026146
20
9.89220714596266
30
0
41
1
10
22.2162209555328
20
9.88583704965455
30
0
41
1
10
22.2357609705397
20
9.88918310761809
30
0
41
1
10
22.2717727236509
20
9.90578325046405
30
0
41
1
10
22.2889937087969
20
9.91848814174151
30
0
41
1
10
22.3360254335821
20
9.96114441510315
30
0
41
1
10
22.3620282202991
20
9.99587338479816
30
0
41
1
10
22.3830185990643
20
10.0327292652693
30
0
0
SPLINE
5
252
100
AcDbEntity
8
1
62
256
6
ByLayer
370
18
48
1
60
0
100
AcDbSpline
70
4
71
3
72
18
73
14
40
0
40
0
40
0
40
0
40
0.125
40
0.125
40
0.25
40
0.25
40
0.5
40
0.5
40
0.750000000000001
40
0.750000000000001
40
0.875
40
0.875
40
1
40
1
40
1
40
1
41
1
10
22.3891572221859
20
10.2540453185166
30
0
41
1
10
22.3758347821411
20
10.2589911508685
30
0
41
1
10
22.3655043480709
20
10.2695934425324
30
0
41
1
10
22.3487465001637
20
10.2952319757874
30
0
41
1
10
22.3424266676427
20
10.3102823699162
30
0
41
1
10
22.3276889501658
20
10.3588120132821
30
0
41
1
10
22.3234002882125
20
10.3957131956525
30
0
41
1
10
22.323414129602
20
10.4718977564813
30
0
41
1
10
22.3277087669184
20
10.5112752708187
30
0
41
1
10
22.3424440950448
20
10.5673800170283
30
0
41
1
10
22.3487933837287
20
10.5856658695419
30
0
41
1
10
22.3655383632273
20
10.6189819812524
30
0
41
1
10
22.3758107297506
20
10.6340437348263
30
0
41
1
10
22.3891572221859
20
10.6441919549706
30
0
0
SPLINE
5
253
100
AcDbEntity
8
1
62
256
6
ByLayer
370
18
48
1
60
0
100
AcDbSpline
70
4
71
3
72
8
73
4
40
0
40
0
40
0
40
0
40
1
40
1
40
1
40
1
41
1
10
20.901168008161
20
10.1980059909007
30
0
41
1
10
20.8946473613571
20
10.1956295019735
30
0
41
1
10
20.8881272418988
20
10.1932537958011
30
0
41
1
10
20.8816076126627
20
10.190878816102
30
0
0
SPLINE
5
254
100
AcDbEntity
8
1
62
256
6
ByLayer
370
18
48
1
60
0
100
AcDbSpline
70
4
71
3
72
12
73
8
40
0
40
0
40
0
40
0
40
0.25
40
0.25
40
0.500000000000001
40
0.500000000000001
40
1
40
1
40
1
40
1
41
1
10
21.0843795289846
20
10.9547508579514
30
0
41
1
10
21.0665334683892
20
10.9655314958283
30
0
41
1
10
21.0440649787496
20
10.9657327308245
30
0
41
1
10
21.0040915859978
20
10.9539313648738
30
0
41
1
10
20.9856135827823
20
10.9427491131638
30
0
41
1
10
20.9358350723595
20
10.9034200509192
30
0
41
1
10
20.9092715887295
20
10.8693702594521
30
0
41
1
10
20.8882812099644
20
10.8325143789809
30
0
0
SPLINE
5
255
100
AcDbEntity
8
1
62
256
6
ByLayer
370
18
48
1
60
0
100
AcDbSpline
70
4
71
3
72
8
73
4
40
0
40
0
40
0
40
0
40
1
40
1
40
1
40
1
41
1
10
22.4047879424679
20
10.2482434802511
30
0
41
1
10
22.3995787458059
20
10.250176739331
30
0
41
1
10
22.3943685318728
20
10.2521106681103
30
0
41
1
10
22.3891572221859
20
10.2540453185166
30
0
0
SPLINE
5
256
100
AcDbEntity
8
1
62
256
6
ByLayer
370
18
48
1
60
0
100
AcDbSpline
70
4
71
3
72
8
73
4
40
0
40
0
40
0
40
0
40
1
40
1
40
1
40
1
41
1
10
21.4404258612435
20
11.17207781233
30
0
41
1
10
21.4414398217436
20
11.1647856835354
30
0
41
1
10
21.4424535648282
20
11.1574930387111
30
0
41
1
10
21.4434670733538
20
11.1501998388538
30
0
0
SPLINE
5
257
100
AcDbEntity
8
1
62
256
6
ByLayer
370
18
48
1
60
0
100
AcDbSpline
70
4
71
3
72
8
73
4
40
0
40
0
40
0
40
0
40
1
40
1
40
1
40
1
41
1
10
22.1874616803662
20
9.8998989324962
30
0
41
1
10
22.1923141500861
20
9.89733421423443
30
0
41
1
10
22.1971655736971
20
9.89477030476866
30
0
41
1
10
22.202016026146
20
9.89220714596266
30
0
0
SPLINE
5
258
100
AcDbEntity
8
1
62
256
6
ByLayer
370
18
48
1
60
0
100
AcDbSpline
70
4
71
3
72
12
73
8
40
0
40
0
40
0
40
0
40
0.5
40
0.5
40
0.75
40
0.75
40
1
40
1
40
1
40
1
41
1
10
20.8882812099644
20
9.97643579387989
30
0
41
1
10
20.9092745710256
20
9.94115594357595
30
0
41
1
10
20.9358395052981
20
9.90839283399279
30
0
41
1
10
20.985699245563
20
9.86934197687495
30
0
41
1
10
21.0041350328154
20
9.85799039215914
30
0
41
1
10
21.0444289686262
20
9.84421342001428
30
0
41
1
10
21.0665522563204
20
9.84254651815263
30
0
41
1
10
21.0843795289846
20
9.85011571328985
30
0
0
SPLINE
5
259
100
AcDbEntity
8
1
62
256
6
ByLayer
370
18
48
1
60
0
100
AcDbSpline
70
4
71
3
72
12
73
8
40
0
40
0
40
0
40
0
40
0.25
40
0.25
40
0.5
40
0.5
40
1
40
1
40
1
40
1
41
1
10
20.8816076126627
20
10.190878816102
30
0
41
1
10
20.8637609858316
20
10.1833025954613
30
0
41
1
10
20.8524767676489
20
10.1662711281392
30
0
41
1
10
20.8426479747698
20
10.1293508577875
30
0
41
1
10
20.842934757383
20
10.1091766096855
30
0
41
1
10
20.8515544871869
20
10.0500472488301
30
0
41
1
10
20.8672908311993
20
10.0117106323633
30
0
41
1
10
20.8882812099644
20
9.97643579387989
30
0
0
SPLINE
5
25A
100
AcDbEntity
8
1
62
256
6
ByLayer
370
18
48
1
60
0
100
AcDbSpline
70
4
71
3
72
12
73
8
40
0
40
0
40
0
40
0
40
0.5
40
0.5
40
0.75
40
0.75
40
1
40
1
40
1
40
1
41
1
10
21.6356499045144
20
11.2887004072261
30
0
41
1
10
21.5936631823919
20
11.2871191406051
30
0
41
1
10
21.5516295305495
20
11.2793122931829
30
0
41
1
10
21.4945342369641
20
11.2533958468668
30
0
41
1
10
21.4764213770749
20
11.2422637206759
30
0
41
1
10
21.4481052366023
20
11.2121986569022
30
0
41
1
10
21.43860664665
20
11.1926182516797
30
0
41
1
10
21.4404258612435
20
11.17207781233
30
0
0
SPLINE
5
25B
100
AcDbEntity
8
1
62
256
6
ByLayer
370
18
48
1
60
0
100
AcDbSpline
70
4
71
3
72
12
73
8
40
0
40
0
40
0
40
0
40
0.25
40
0.25
40
0.5
40
0.5
40
1
40
1
40
1
40
1
41
1
10
21.8459696938871
20
11.1873510438064
30
0
41
1
10
21.8441496945187
20
11.2079131731084
30
0
41
1
10
21.8315011857454
20
11.2269195219066
30
0
41
1
10
21.7993757660524
20
11.2544378147551
30
0
41
1
10
21.7799824711889
20
11.2641911309309
30
0
41
1
10
21.7202108381433
20
11.2856550351003
30
0
41
1
10
21.6776306620446
20
11.2902814492139
30
0
41
1
10
21.6356499045144
20
11.2887004072261
30
0
0
SPLINE
5
25C
100
AcDbEntity
8
1
62
256
6
ByLayer
370
18
48
1
60
0
100
AcDbSpline
70
4
71
3
72
12
73
8
40
0
40
0
40
0
40
0
40
0.25
40
0.25
40
0.5
40
0.5
40
1
40
1
40
1
40
1
41
1
10
22.4047879424679
20
10.656079187812
30
0
41
1
10
22.4189934380905
20
10.6680659500215
30
0
41
1
10
22.4273491816404
20
10.6886447103034
30
0
41
1
10
22.433216334879
20
10.7303637575503
30
0
41
1
10
22.4316725341961
20
10.7520606452198
30
0
41
1
10
22.4203060187546
20
10.8145172171923
30
0
41
1
10
22.4040089778294
20
10.853533011887
30
0
41
1
10
22.3830185990643
20
10.8888078503704
30
0
0
SPLINE
5
25D
100
AcDbEntity
8
1
62
256
6
ByLayer
370
18
48
1
60
0
100
AcDbSpline
70
4
71
3
72
18
73
14
40
0
40
0
40
0
40
0
40
0.125
40
0.125
40
0.25
40
0.25
40
0.5
40
0.5
40
0.750000000000001
40
0.750000000000001
40
0.875000000000001
40
0.875000000000001
40
1
40
1
40
1
40
1
41
1
10
21.4434670733538
20
11.1501998388538
30
0
41
1
10
21.4460580547726
20
11.1315551557185
30
0
41
1
10
21.4422423818362
20
11.1129403754928
30
0
41
1
10
21.4287499306324
20
11.0778138130021
30
0
41
1
10
21.4190053836387
20
11.0614212704743
30
0
41
1
10
21.3845917181008
20
11.0157901015242
30
0
41
1
10
21.3547448741498
20
10.9900149347278
30
0
41
1
10
21.2882270982059
20
10.9494370960922
30
0
41
1
10
21.2514783548583
20
10.9345728758309
30
0
41
1
10
21.1945461480808
20
10.9244424883667
30
0
41
1
10
21.1751720239524
20
10.9231087835659
30
0
41
1
10
21.1372033516484
20
10.9268012850457
30
0
41
1
10
21.1186443255008
20
10.9316687260459
30
0
41
1
10
21.1028635499807
20
10.9422990133751
30
0
0
SPLINE
5
25E
100
AcDbEntity
8
1
62
256
6
ByLayer
370
18
48
1
60
0
100
AcDbSpline
70
4
71
3
72
8
73
4
40
0
40
0
40
0
40
0
40
1
40
1
40
1
40
1
41
1
10
21.1028635499807
20
10.9422990133751
30
0
41
1
10
21.0967017431439
20
10.9464497458317
30
0
41
1
10
21.0905404140076
20
10.9506003580113
30
0
41
1
10
21.0843795289846
20
10.9547508579514
30
0
0
SPLINE
5
25F
100
AcDbEntity
8
1
62
256
6
ByLayer
370
18
48
1
60
0
100
AcDbSpline
70
4
71
3
72
8
73
4
40
0
40
0
40
0
40
0
40
1
40
1
40
1
40
1
41
1
10
22.202016026146
20
10.9968422906242
30
0
41
1
10
22.1971655736971
20
10.9922770914764
30
0
41
1
10
22.1923141500861
20
10.9877117267883
30
0
41
1
10
22.1874616803662
20
10.9831461844348
30
0
0
SPLINE
5
260
100
AcDbEntity
8
1
62
256
6
ByLayer
370
18
48
1
60
0
100
AcDbSpline
70
4
71
3
72
18
73
14
40
0
40
0
40
0
40
0
40
0.125
40
0.125
40
0.25
40
0.25
40
0.5
40
0.5
40
0.75
40
0.75
40
0.875
40
0.875
40
1
40
1
40
1
40
1
41
1
10
22.1874616803662
20
10.9831461844348
30
0
41
1
10
22.1750565958873
20
10.9714746147277
30
0
41
1
10
22.159409838007
20
10.9652798807811
30
0
41
1
10
22.1265659722295
20
10.9589334668675
30
0
41
1
10
22.1094212732561
20
10.9588999210996
30
0
41
1
10
22.057659981858
20
10.9649598057355
30
0
41
1
10
22.022633222702
20
10.9771654060017
30
0
41
1
10
21.9561320048312
20
11.0127688374469
30
0
41
1
10
21.9245701691313
20
11.0362013148314
30
0
41
1
10
21.8849824388104
20
11.0790151840169
30
0
41
1
10
21.8730425548568
20
11.0946531182679
30
0
41
1
10
21.8544097360153
20
11.128523377836
30
0
41
1
10
21.8476157926538
20
11.1466444290748
30
0
41
1
10
21.8468581569931
20
11.16539199541
30
0
0
SPLINE
5
261
100
AcDbEntity
8
1
62
256
6
ByLayer
370
18
48
1
60
0
100
AcDbSpline
70
4
71
3
72
8
73
4
40
0
40
0
40
0
40
0
40
1
40
1
40
1
40
1
41
1
10
22.3891572221859
20
10.6441919549706
30
0
41
1
10
22.3943685318728
20
10.6481544580926
30
0
41
1
10
22.3995787458059
20
10.6521168669789
30
0
41
1
10
22.4047879424679
20
10.656079187812
30
0
0
SPLINE
5
262
100
AcDbEntity
8
1
62
256
6
ByLayer
370
18
48
1
60
0
100
AcDbSpline
70
4
71
3
72
8
73
4
40
0
40
0
40
0
40
0
40
1
40
1
40
1
40
1
41
1
10
21.0843795289846
20
9.85011571328985
30
0
41
1
10
21.0905404140076
20
9.85309357130353
30
0
41
1
10
21.0967017431439
20
9.85607223327781
30
0
41
1
10
21.1028635499807
20
9.85905176143646
30
0
0
SPLINE
5
263
100
AcDbEntity
8
1
62
256
6
ByLayer
370
18
48
1
60
0
100
AcDbSpline
70
4
71
3
72
12
73
8
40
0
40
0
40
0
40
0
40
0.5
40
0.5
40
0.75
40
0.75
40
1
40
1
40
1
40
1
41
1
10
22.3830185990643
20
10.0327292652693
30
0
41
1
10
22.4040119601255
20
10.0695903821943
30
0
41
1
10
22.4203202017544
20
10.1091434146375
30
0
41
1
10
22.4316854917738
20
10.1691083233935
30
0
41
1
10
22.4332402171993
20
10.1893176131925
30
0
41
1
10
22.4272651897422
20
10.2258884315273
30
0
41
1
10
22.4189784828643
20
10.2418810834136
30
0
41
1
10
22.4047879424679
20
10.2482434802511
30
0
0
SPLINE
5
264
100
AcDbEntity
8
1
62
256
6
ByLayer
370
18
48
1
60
0
100
AcDbSpline
70
4
71
3
72
8
73
4
40
0
40
0
40
0
40
0
40
1
40
1
40
1
40
1
41
1
10
21.8468581569931
20
11.16539199541
30
0
41
1
10
21.8465623284017
20
11.1727122238913
30
0
41
1
10
21.8462661659612
20
11.1800318936002
30
0
41
1
10
21.8459696938871
20
11.1873510438064
30
0
0
SPLINE
5
265
100
AcDbEntity
8
1
62
256
6
ByLayer
370
18
48
1
60
0
100
AcDbSpline
70
4
71
3
72
12
73
8
40
0
40
0
40
0
40
0
40
0.5
40
0.5
40
0.75
40
0.75
40
1
40
1
40
1
40
1
41
1
10
22.3830185990643
20
10.8888078503704
30
0
41
1
10
22.3620252380031
20
10.9240877006743
30
0
41
1
10
22.3360199864366
20
10.9561728605493
30
0
41
1
10
22.288913403971
20
10.9918887878819
30
0
41
1
10
22.2717293852443
20
11.0017240918592
30
0
41
1
10
22.2354372946876
20
11.0106535856149
30
0
41
1
10
22.2162060009027
20
11.0088173840113
30
0
41
1
10
22.202016026146
20
10.9968422906242
30
0
0
SPLINE
5
266
100
AcDbEntity
8
1
62
256
6
ByLayer
370
18
48
1
60
0
100
AcDbSpline
70
4
71
3
72
12
73
8
40
0
40
0
40
0
40
0
40
0.5
40
0.5
40
0.75
40
0.75
40
1
40
1
40
1
40
1
41
1
10
20.8882812099644
20
10.8325143789809
30
0
41
1
10
20.8672878489032
20
10.795653262056
30
0
41
1
10
20.8515392899803
20
10.7554222799046
30
0
41
1
10
20.8429271577601
20
10.6921224413634
30
0
41
1
10
20.8426242008605
20
10.6703968708259
30
0
41
1
10
20.8526010735716
20
10.6289785741019
30
0
41
1
10
20.8637797743589
20
10.6094828187503
30
0
41
1
10
20.8816076126627
20
10.5987145236629
30
0
0
SPLINE
5
267
100
AcDbEntity
8
1
62
256
6
ByLayer
370
18
48
1
60
0
100
AcDbSpline
70
4
71
3
72
14
73
10
40
0
40
0
40
0
40
0
40
0.5
40
0.5
40
0.75
40
0.75
40
0.875
40
0.875
40
1
40
1
40
1
40
1
41
1
10
21.6356499045144
20
3.02764545844346
30
0
41
1
10
21.5936882509685
20
3.03409707596569
30
0
41
1
10
21.5516468954925
20
3.04494197524829
30
0
41
1
10
21.4946609266762
20
3.07171287995183
30
0
41
1
10
21.4765103328502
20
3.08254665826453
30
0
41
1
10
21.4552792620023
20
3.10336922360511
30
0
41
1
10
21.4493759416752
20
3.11092513090051
30
0
41
1
10
21.4413170813439
20
3.12799260852586
30
0
41
1
10
21.4395159229312
20
3.13708745437094
30
0
41
1
10
21.4404258612435
20
3.1461822752658
30
0
0
SPLINE
5
268
100
AcDbEntity
8
1
62
256
6
ByLayer
370
18
48
1
60
0
100
AcDbSpline
70
4
71
3
72
8
73
4
40
0
40
0
40
0
40
0
40
1
40
1
40
1
40
1
41
1
10
21.4404258612435
20
3.1461822752658
30
0
41
1
10
21.4414398217436
20
3.15263065462636
30
0
41
1
10
21.4424535648282
20
3.1590781431737
30
0
41
1
10
21.4434670733538
20
3.16552467026688
30
0
0
SPLINE
5
269
100
AcDbEntity
8
1
62
256
6
ByLayer
370
18
48
1
60
0
100
AcDbSpline
70
4
71
3
72
12
73
8
40
0
40
0
40
0
40
0
40
0.25
40
0.25
40
0.5
40
0.5
40
1
40
1
40
1
40
1
41
1
10
21.8459696938871
20
3.08382978255813
30
0
41
1
10
21.8441496945187
20
3.0656274207893
30
0
41
1
10
21.8315011857454
20
3.05125908611603
30
0
41
1
10
21.7993757660524
20
3.03294140636032
30
0
41
1
10
21.7799824711889
20
3.02785803833766
30
0
41
1
10
21.7202108381432
20
3.01902029217089
30
0
41
1
10
21.6776306620446
20
3.02119090367756
30
0
41
1
10
21.6356499045144
20
3.02764545844346
30
0
0
SPLINE
5
26A
100
AcDbEntity
8
1
62
256
6
ByLayer
370
18
48
1
60
0
100
AcDbSpline
70
4
71
3
72
18
73
14
40
0
40
0
40
0
40
0
40
0.125
40
0.125
40
0.250000000000001
40
0.250000000000001
40
0.500000000000001
40
0.500000000000001
40
0.75
40
0.75
40
0.875
40
0.875
40
1
40
1
40
1
40
1
41
1
10
21.4434670733538
20
3.16552467026688
30
0
41
1
10
21.4460612361079
20
3.18202511407884
30
0
41
1
10
21.4422337716042
20
3.19860071010362
30
0
41
1
10
21.4287088114354
20
3.22965863619086
30
0
41
1
10
21.4189439858498
20
3.24403248748035
30
0
41
1
10
21.3844608848483
20
3.28324509524324
30
0
41
1
10
21.3545524128296
20
3.30418186402341
30
0
41
1
10
21.2879294379465
20
3.33344530874035
30
0
41
1
10
21.2515784166408
20
3.34173613398926
30
0
41
1
10
21.1948150924651
20
3.34286208282035
30
0
41
1
10
21.1755111208261
20
3.34132280235096
30
0
41
1
10
21.1375354656442
20
3.33306750919491
30
0
41
1
10
21.1186864275139
20
3.3263783418696
30
0
41
1
10
21.1028635499807
20
3.31565139891794
30
0
0
SPLINE
5
26B
100
AcDbEntity
8
1
62
256
6
ByLayer
370
18
48
1
60
0
100
AcDbSpline
70
4
71
3
72
8
73
4
40
0
40
0
40
0
40
0
40
1
40
1
40
1
40
1
41
1
10
21.8468581569931
20
3.1035031634004
30
0
41
1
10
21.8465623284017
20
3.09694629279005
30
0
41
1
10
21.8462661659611
20
3.09038847599143
30
0
41
1
10
21.8459696938871
20
3.08382978255813
30
0
0
SPLINE
5
26C
100
AcDbEntity
8
1
62
256
6
ByLayer
370
18
48
1
60
0
100
AcDbSpline
70
4
71
3
72
18
73
14
40
0
40
0
40
0
40
0
40
0.125
40
0.125
40
0.25
40
0.25
40
0.5
40
0.5
40
0.75
40
0.75
40
0.875
40
0.875
40
1
40
1
40
1
40
1
41
1
10
22.1874616803662
20
3.14889409287096
30
0
41
1
10
22.174977370879
20
3.16399827608757
30
0
41
1
10
22.1591361905354
20
3.17601001200049
30
0
41
1
10
22.1264965181763
20
3.19506097984973
30
0
41
1
10
22.1092083616435
20
3.20227316908881
30
0
41
1
10
22.0578348051983
20
3.21775512990007
30
0
41
1
10
22.022940819302
20
3.22041802227298
30
0
41
1
10
21.9563386002146
20
3.21159577721684
30
0
41
1
10
21.924720439932
20
3.20013003127681
30
0
41
1
10
21.8850603715711
20
3.17233517722792
30
0
41
1
10
21.8730977705868
20
3.16124919657355
30
0
41
1
10
21.8544265734756
20
3.13517583889359
30
0
41
1
10
21.8476167688713
20
3.1203173594331
30
0
41
1
10
21.8468581569931
20
3.1035031634004
30
0
0
SPLINE
5
26D
100
AcDbEntity
8
1
62
256
6
ByLayer
370
18
48
1
60
0
100
AcDbSpline
70
4
71
3
72
8
73
4
40
0
40
0
40
0
40
0
40
1
40
1
40
1
40
1
41
1
10
20.8816076126627
20
3.71327092113546
30
0
41
1
10
20.8881272418988
20
3.71413214897402
30
0
41
1
10
20.8946473613571
20
3.71499176788876
30
0
41
1
10
20.901168008161
20
3.7158496521686
30
0
0
SPLINE
5
26E
100
AcDbEntity
8
1
62
256
6
ByLayer
370
18
48
1
60
0
100
AcDbSpline
70
4
71
3
72
18
73
14
40
0
40
0
40
0
40
0
40
0.125
40
0.125
40
0.25
40
0.25
40
0.5
40
0.5
40
0.750000000000001
40
0.750000000000001
40
0.875
40
0.875
40
1
40
1
40
1
40
1
41
1
10
20.901168008161
20
3.7158496521686
30
0
41
1
10
20.9178376999116
20
3.71804278836086
30
0
41
1
10
20.9311694357293
20
3.71719722025384
30
0
41
1
10
20.9531144169696
20
3.7122594009659
30
0
41
1
10
20.9615948884077
20
3.70812615871128
30
0
41
1
10
20.9815524226513
20
3.69213350718567
30
0
41
1
10
20.9876235911079
20
3.67661306165562
30
0
41
1
10
20.9876043163515
20
3.63842508733796
30
0
41
1
10
20.9815251383725
20
3.61571610520184
30
0
41
1
10
20.9615715135856
20
3.57927514685332
30
0
41
1
10
20.9530523219199
20
3.56668808916973
30
0
41
1
10
20.9311255944937
20
3.54209043725049
30
0
41
1
10
20.9178677954447
20
3.53009778145736
30
0
41
1
10
20.901168008161
20
3.52033199404696
30
0
0
SPLINE
5
26F
100
AcDbEntity
8
1
62
256
6
ByLayer
370
18
48
1
60
0
100
AcDbSpline
70
4
71
3
72
12
73
8
40
0
40
0
40
0
40
0
40
0.25
40
0.25
40
0.499999999999999
40
0.499999999999999
40
1
40
1
40
1
40
1
41
1
10
22.202016026146
20
3.13127871613278
30
0
41
1
10
22.2162209555328
20
3.11521193535762
30
0
41
1
10
22.2357609705397
20
3.10513324219539
30
0
41
1
10
22.2717727236509
20
3.09589594297847
30
0
41
1
10
22.2889937087969
20
3.09569202008035
30
0
41
1
10
22.3360254335821
20
3.10108754911437
30
0
41
1
10
22.3620282202991
20
3.11239794989044
30
0
41
1
10
22.3830185990643
20
3.1272444272588
30
0
0
SPLINE
5
270
100
AcDbEntity
8
1
62
256
6
ByLayer
370
18
48
1
60
0
100
AcDbSpline
70
4
71
3
72
18
73
14
40
0
40
0
40
0
40
0
40
0.125
40
0.125
40
0.25
40
0.25
40
0.5
40
0.5
40
0.750000000000001
40
0.750000000000001
40
0.875
40
0.875
40
1
40
1
40
1
40
1
41
1
10
22.3891572221859
20
3.29155318113354
30
0
41
1
10
22.3758347821411
20
3.3059126688857
30
0
41
1
10
22.3655043480709
20
3.32160009041022
30
0
41
1
10
22.3487465001637
20
3.3521890034786
30
0
41
1
10
22.3424266676427
20
3.3670069048556
30
0
41
1
10
22.3276889501658
20
3.40881227427323
30
0
41
1
10
22.3234002882124
20
3.43314746169364
30
0
41
1
10
22.323414129602
20
3.4713085672582
30
0
41
1
10
22.3277087669184
20
3.48519274830471
30
0
41
1
10
22.3424440950448
20
3.49582850589618
30
0
41
1
10
22.3487933837287
20
3.49768509237262
30
0
41
1
10
22.3655383632273
20
3.49665828208899
30
0
41
1
10
22.3758107297506
20
3.49388755996756
30
0
41
1
10
22.3891572221859
20
3.48707083925518
30
0
0
SPLINE
5
271
100
AcDbEntity
8
1
62
256
6
ByLayer
370
18
48
1
60
0
100
AcDbSpline
70
4
71
3
72
8
73
4
40
0
40
0
40
0
40
0
40
1
40
1
40
1
40
1
41
1
10
20.901168008161
20
3.52033199404696
30
0
41
1
10
20.8946473613571
20
3.51651881670625
30
0
41
1
10
20.8881272418988
20
3.51270431359117
30
0
41
1
10
20.8816076126627
20
3.50888858129159
30
0
0
SPLINE
5
272
100
AcDbEntity
8
1
62
256
6
ByLayer
370
18
48
1
60
0
100
AcDbSpline
70
4
71
3
72
12
73
8
40
0
40
0
40
0
40
0
40
0.25
40
0.25
40
0.500000000000001
40
0.500000000000001
40
1
40
1
40
1
40
1
41
1
10
21.0843795289845
20
3.85669132818435
30
0
41
1
10
21.0665334683892
20
3.85475221011393
30
0
41
1
10
21.0440649787496
20
3.85034919004175
30
0
41
1
10
21.0040915859978
20
3.83999563176215
30
0
41
1
10
20.9856135827823
20
3.83398342595981
30
0
41
1
10
20.9358350723594
20
3.81500466097248
30
0
41
1
10
20.9092715887295
20
3.80092153619461
30
0
41
1
10
20.8882812099644
20
3.78607505882627
30
0
0
SPLINE
5
273
100
AcDbEntity
8
1
62
256
6
ByLayer
370
18
48
1
60
0
100
AcDbSpline
70
4
71
3
72
8
73
4
40
0
40
0
40
0
40
0
40
1
40
1
40
1
40
1
41
1
10
22.4047879424678
20
3.27469912318168
30
0
41
1
10
22.3995787458059
20
3.28031816617766
30
0
41
1
10
22.3943685318728
20
3.28593621176674
30
0
41
1
10
22.3891572221859
20
3.29155318113354
30
0
0
SPLINE
5
274
100
AcDbEntity
8
1
62
256
6
ByLayer
370
18
48
1
60
0
100
AcDbSpline
70
4
71
3
72
8
73
4
40
0
40
0
40
0
40
0
40
1
40
1
40
1
40
1
41
1
10
21.4404258612435
20
3.90414026175901
30
0
41
1
10
21.4414398217436
20
3.90406183916025
30
0
41
1
10
21.4424535648282
20
3.90398168686545
30
0
41
1
10
21.4434670733538
20
3.90389966990173
30
0
0
SPLINE
5
275
100
AcDbEntity
8
1
62
256
6
ByLayer
370
18
48
1
60
0
100
AcDbSpline
70
4
71
3
72
8
73
4
40
0
40
0
40
0
40
0
40
1
40
1
40
1
40
1
41
1
10
22.1874616803662
20
3.14889409287096
30
0
41
1
10
22.1923141500861
20
3.1430233162952
30
0
41
1
10
22.1971655736971
20
3.13715149861102
30
0
41
1
10
22.202016026146
20
3.13127871613278
30
0
0
SPLINE
5
276
100
AcDbEntity
8
1
62
256
6
ByLayer
370
18
48
1
60
0
100
AcDbSpline
70
4
71
3
72
12
73
8
40
0
40
0
40
0
40
0
40
0.5
40
0.5
40
0.75
40
0.75
40
1
40
1
40
1
40
1
41
1
10
20.8882812099644
20
3.35706077422719
30
0
41
1
10
20.9092745710256
20
3.33575671565953
30
0
41
1
10
20.9358395052981
20
3.31635414289562
30
0
41
1
10
20.9856992455629
20
3.29605789839792
30
0
41
1
10
21.0041350328154
20
3.29076978328317
30
0
41
1
10
21.0444289686262
20
3.28836479236864
30
0
41
1
10
21.0665522563204
20
3.29198847743629
30
0
41
1
10
21.0843795289845
20
3.30311568153502
30
0
0
SPLINE
5
277
100
AcDbEntity
8
1
62
256
6
ByLayer
370
18
48
1
60
0
100
AcDbSpline
70
4
71
3
72
12
73
8
40
0
40
0
40
0
40
0
40
0.25
40
0.25
40
0.5
40
0.5
40
1
40
1
40
1
40
1
41
1
10
20.8816076126627
20
3.50888858129159
30
0
41
1
10
20.8637609858316
20
3.49775022499298
30
0
41
1
10
20.8524767676489
20
3.48278055630746
30
0
41
1
10
20.8426479747698
20
3.45463526346555
30
0
41
1
10
20.842934757383
20
3.4408775704625
30
0
41
1
10
20.8515544871869
20
3.40189518142506
30
0
41
1
10
20.8672908311993
20
3.37836180636145
30
0
41
1
10
20.8882812099644
20
3.35706077422719
30
0
0
SPLINE
5
278
100
AcDbEntity
8
1
62
256
6
ByLayer
370
18
48
1
60
0
100
AcDbSpline
70
4
71
3
72
12
73
8
40
0
40
0
40
0
40
0
40
0.25
40
0.25
40
0.5
40
0.5
40
1
40
1
40
1
40
1
41
1
10
22.4047879424678
20
3.47908146302555
30
0
41
1
10
22.4189934380905
20
3.47221392047854
30
0
41
1
10
22.4273491816404
20
3.47270187592969
30
0
41
1
10
22.4332163348789
20
3.48125631127508
30
0
41
1
10
22.4316725341961
20
3.48879787557766
30
0
41
1
10
22.4203060187546
20
3.51419702866176
30
0
41
1
10
22.4040089778294
20
3.53495767972362
30
0
41
1
10
22.3830185990643
20
3.55625871185785
30
0
0
SPLINE
5
279
100
AcDbEntity
8
1
62
256
6
ByLayer
370
18
48
1
60
0
100
AcDbSpline
70
4
71
3
72
8
73
4
40
0
40
0
40
0
40
0
40
1
40
1
40
1
40
1
41
1
10
21.1028635499807
20
3.85850874043118
30
0
41
1
10
21.0967017431438
20
3.8579046633603
30
0
41
1
10
21.0905404140076
20
3.85729881654066
30
0
41
1
10
21.0843795289845
20
3.85669132818435
30
0
0
SPLINE
5
27A
100
AcDbEntity
8
1
62
256
6
ByLayer
370
18
48
1
60
0
100
AcDbSpline
70
4
71
3
72
8
73
4
40
0
40
0
40
0
40
0
40
1
40
1
40
1
40
1
41
1
10
22.202016026146
20
3.68485436278212
30
0
41
1
10
22.1971655736971
20
3.68715484776209
30
0
41
1
10
22.1923141500861
20
3.68945390880444
30
0
41
1
10
22.1874616803662
20
3.6917514343842
30
0
0
SPLINE
5
27B
100
AcDbEntity
8
1
62
256
6
ByLayer
370
18
48
1
60
0
100
AcDbSpline
70
4
71
3
72
8
73
4
40
0
40
0
40
0
40
0
40
1
40
1
40
1
40
1
41
1
10
22.3891572221859
20
3.48707083925518
30
0
41
1
10
22.3943685318728
20
3.48440916294928
30
0
41
1
10
22.3995787458059
20
3.48174600156051
30
0
41
1
10
22.4047879424678
20
3.47908146302555
30
0
0
SPLINE
5
27C
100
AcDbEntity
8
1
62
256
6
ByLayer
370
18
48
1
60
0
100
AcDbSpline
70
4
71
3
72
8
73
4
40
0
40
0
40
0
40
0
40
1
40
1
40
1
40
1
41
1
10
21.0843795289845
20
3.30311568153502
30
0
41
1
10
21.0905404140076
20
3.30729546738959
30
0
41
1
10
21.0967017431438
20
3.31147407085106
30
0
41
1
10
21.1028635499807
20
3.31565139891794
30
0
0
SPLINE
5
27D
100
AcDbEntity
8
1
62
256
6
ByLayer
370
18
48
1
60
0
100
AcDbSpline
70
4
71
3
72
12
73
8
40
0
40
0
40
0
40
0
40
0.5
40
0.5
40
0.75
40
0.75
40
1
40
1
40
1
40
1
41
1
10
22.3830185990643
20
3.1272444272588
30
0
41
1
10
22.4040119601255
20
3.14209301400265
30
0
41
1
10
22.4203202017544
20
3.16070142235557
30
0
41
1
10
22.4316854917738
20
3.19667088725754
30
0
41
1
10
22.4332402171992
20
3.21011322668036
30
0
41
1
10
22.4272651897422
20
3.24092659498325
30
0
41
1
10
22.4189784828643
20
3.25864965722838
30
0
41
1
10
22.4047879424678
20
3.27469912318168
30
0
0
SPLINE
5
27E
100
AcDbEntity
8
1
62
256
6
ByLayer
370
18
48
1
60
0
100
AcDbSpline
70
4
71
3
72
12
73
8
40
0
40
0
40
0
40
0
40
0.5
40
0.5
40
0.75
40
0.75
40
1
40
1
40
1
40
1
41
1
10
22.3830185990643
20
3.55625871185785
30
0
41
1
10
22.3620252380031
20
3.57756277042554
30
0
41
1
10
22.3360199864365
20
3.5997330517975
30
0
41
1
10
22.288913403971
20
3.6336440434716
30
0
41
1
10
22.2717293852443
20
3.64512232756499
30
0
41
1
10
22.2354372946876
20
3.66731699831132
30
0
41
1
10
22.2162060009027
20
3.67799462424048
30
0
41
1
10
22.202016026146
20
3.68485436278212
30
0
0
SPLINE
5
27F
100
AcDbEntity
8
1
62
256
6
ByLayer
370
18
48
1
60
0
100
AcDbSpline
70
4
71
3
72
12
73
8
40
0
40
0
40
0
40
0
40
0.5
40
0.5
40
0.75
40
0.75
40
1
40
1
40
1
40
1
41
1
10
20.8882812099644
20
3.78607505882627
30
0
41
1
10
20.8672878489032
20
3.77122647208242
30
0
41
1
10
20.8515392899803
20
3.75538577233755
30
0
41
1
10
20.8429271577601
20
3.73303105461199
30
0
41
1
10
20.8426242008604
20
3.7257788841678
30
0
41
1
10
20.8526010735716
20
3.71475519569671
30
0
41
1
10
20.8637797743588
20
3.7113334444484
30
0
41
1
10
20.8816076126627
20
3.71327092113546
30
0
0
LINE
5
72
100
AcDbEntity
8
SK1
62
256
6
ByLayer
370
18
48
1
60
0
100
AcDbLine
10
-15.5
20
-5.969417
30
0
11
-3.5
21
-7.230668
31
0
39
0
210
0
220
0
230
1
0
LINE
5
74
100
AcDbEntity
8
1
62
256
6
ByLayer
370
18
48
1
60
0
100
AcDbLine
10
20.514115
20
3.964794
30
0
11
20.484798
21
3.81982
31
0
39
0
210
0
220
0
230
1
0
LINE
5
76
100
AcDbEntity
8
SK1
62
256
6
ByLayer
370
18
48
1
60
0
100
AcDbLine
10
-19.3
20
-4.6
30
0
11
-16
21
-4.6
31
0
39
0
210
0
220
0
230
1
0
LINE
5
77
100
AcDbEntity
8
1
62
256
6
ByLayer
370
18
48
1
60
0
100
AcDbLine
10
10.1
20
9.65
30
0
11
0
21
9.65
31
0
39
0
210
0
220
0
230
1
0
LINE
5
78
100
AcDbEntity
8
SK1
62
256
6
ByLayer
370
18
48
1
60
0
100
AcDbLine
10
-19.5
20
-4.4
30
0
11
-19.3
21
-4.6
31
0
39
0
210
0
220
0
230
1
0
LINE
5
79
100
AcDbEntity
8
SK1
62
256
6
ByLayer
370
18
48
1
60
0
100
AcDbLine
10
-3.5
20
-7.230668
30
0
11
-0.384645
21
-7.350348
31
0
39
0
210
0
220
0
230
1
0
LINE
5
7A
100
AcDbEntity
8
1
62
256
6
ByLayer
370
18
48
1
60
0
100
AcDbLine
10
21.041999
20
10.429025
30
0
11
20.93338
21
10.560597
31
0
39
0
210
0
220
0
230
1
0
LINE
5
7B
100
AcDbEntity
8
1
62
256
6
ByLayer
370
18
48
1
60
0
100
AcDbLine
10
21.887678
20
11.07675
30
0
11
21.992784
21
10.949434
31
0
39
0
210
0
220
0
230
1
0
LINE
5
7C
100
AcDbEntity
8
1
62
256
6
ByLayer
370
18
48
1
60
0
100
AcDbLine
10
21.521623
20
9.621331
30
0
11
21.416502
21
9.748666
31
0
39
0
210
0
220
0
230
1
0
LINE
5
7D
100
AcDbEntity
8
1
62
256
6
ByLayer
370
18
48
1
60
0
100
AcDbLine
10
20.985361
20
3.636616
30
0
11
21.027665
21
3.845812
31
0
39
0
210
0
220
0
230
1
0
LINE
5
7E
100
AcDbEntity
8
1
62
256
6
ByLayer
370
18
48
1
60
0
100
AcDbLine
10
0
20
-9.65
30
0
11
10.1
21
-9.65
31
0
39
0
210
0
220
0
230
1
0
LINE
5
7F
100
AcDbEntity
8
SK1
62
256
6
ByLayer
370
18
48
1
60
0
100
AcDbLine
10
-3.5
20
7.230668
30
0
11
-15.5
21
5.969417
31
0
39
0
210
0
220
0
230
1
0
LINE
5
80
100
AcDbEntity
8
1
62
256
6
ByLayer
370
18
48
1
60
0
100
AcDbLine
10
22.348812
20
3.587622
30
0
11
22.324929
21
3.469516
31
0
39
0
210
0
220
0
230
1
0
LINE
5
81
100
AcDbEntity
8
1
62
256
6
ByLayer
370
18
48
1
60
0
100
AcDbLine
10
22.363789
20
10.273311
30
0
11
22.431542
21
10.191241
31
0
39
0
210
0
220
0
230
1
0
LINE
5
82
100
AcDbEntity
8
1
62
256
6
ByLayer
370
18
48
1
60
0
100
AcDbLine
10
22.837183
20
3.344123
30
0
11
22.866499
21
3.489097
31
0
39
0
210
0
220
0
230
1
0
LINE
5
83
100
AcDbEntity
8
SK1
62
256
6
ByLayer
370
18
48
1
60
0
100
AcDbLine
10
-0.384645
20
7.350348
30
0
11
-3.5
21
7.230668
31
0
39
0
210
0
220
0
230
1
0
LINE
5
84
100
AcDbEntity
8
4
62
256
6
ByLayer
370
18
48
0.05
60
0
100
AcDbLine
10
0
20
0
30
0
11
30
21
0
31
0
39
0
210
0
220
0
230
1
0
LINE
5
86
100
AcDbEntity
8
SK1
62
256
6
ByLayer
370
18
48
1
60
0
100
AcDbLine
10
-19.3
20
4.6
30
0
11
-19.5
21
4.4
31
0
39
0
210
0
220
0
230
1
0
LINE
5
87
100
AcDbEntity
8
SK1
62
256
6
ByLayer
370
18
48
1
60
0
100
AcDbLine
10
-16
20
4.6
30
0
11
-19.3
21
4.6
31
0
39
0
210
0
220
0
230
1
0
LINE
5
88
100
AcDbEntity
8
1
62
256
6
ByLayer
370
18
48
1
60
0
100
AcDbLine
10
22.095772
20
-5.081589
30
0
11
22.003974
21
-5.088862
31
0
39
0
210
0
220
0
230
1
0
LINE
5
89
100
AcDbEntity
8
1
62
256
6
ByLayer
370
18
48
1
60
0
100
AcDbLine
10
20.735593
20
9.637963
30
0
11
20.831806
21
9.521419
31
0
39
0
210
0
220
0
230
1
0
LINE
5
8A
100
AcDbEntity
8
1
62
256
6
ByLayer
370
18
48
1
60
0
100
AcDbLine
10
22.682601
20
11.049346
30
0
11
22.586387
21
11.16589
31
0
39
0
210
0
220
0
230
1
0
LINE
5
8B
100
AcDbEntity
8
80
62
256
6
ByLayer
370
18
48
1
60
0
100
AcDbLine
10
0
20
0
30
0
11
-5
21
0
31
0
39
0
210
0
220
0
230
1
0
LINE
5
8C
100
AcDbEntity
8
SK4
62
256
6
ByLayer
370
18
48
0.05
60
0
100
AcDbLine
10
-37
20
0
30
0
11
30
21
0
31
0
39
0
210
0
220
0
230
1
0
LINE
5
8E
100
AcDbEntity
8
81
62
256
6
ByLayer
370
18
48
1
60
0
100
AcDbLine
10
25
20
12.5
30
0
11
30
21
12.5
31
0
39
0
210
0
220
0
230
1
0
LINE
5
8F
100
AcDbEntity
8
SK1
62
256
6
ByLayer
370
18
48
1
60
0
100
AcDbLine
10
-19.5
20
4.4
30
0
11
-19.5
21
-4.4
31
0
39
0
210
0
220
0
230
1
0
LINE
5
90
100
AcDbEntity
8
SK1
62
256
6
ByLayer
370
18
48
1
60
0
100
AcDbLine
10
-0.384645
20
7.350348
30
0
11
-0.384645
21
-7.350348
31
0
39
0
210
0
220
0
230
1
0
LINE
5
91
100
AcDbEntity
8
SK1
62
256
6
ByLayer
370
18
48
1
60
0
100
AcDbLine
10
-15.5
20
5.969417
30
0
11
-15.5
21
-5.969417
31
0
39
0
210
0
220
0
230
1
0
LINE
5
92
100
AcDbEntity
8
SK1
62
256
6
ByLayer
370
18
48
1
60
0
100
AcDbLine
10
-16
20
4.6
30
0
11
-16
21
-4.6
31
0
39
0
210
0
220
0
230
1
0
LINE
5
93
100
AcDbEntity
8
SK1
62
256
6
ByLayer
370
18
48
1
60
0
100
AcDbLine
10
-3.5
20
7.230668
30
0
11
-3.5
21
-7.230668
31
0
39
0
210
0
220
0
230
1
0
LINE
5
94
100
AcDbEntity
8
SK1
62
256
6
ByLayer
370
18
48
1
60
0
100
AcDbLine
10
-19.3
20
4.6
30
0
11
-19.3
21
-4.6
31
0
39
0
210
0
220
0
230
1
0
LINE
5
95
100
AcDbEntity
8
1
62
256
6
ByLayer
370
18
48
1
60
0
100
AcDbLine
10
17.9
20
-4.427042
30
0
11
17.9
21
-8.770908
31
0
39
0
210
0
220
0
230
1
0
LINE
5
96
100
AcDbEntity
8
1
62
256
6
ByLayer
370
18
48
1
60
0
100
AcDbLine
10
20.426244
20
-7.437806
30
0
11
20.426244
21
-4.472229
31
0
39
0
210
0
220
0
230
1
0
LINE
5
97
100
AcDbEntity
8
1
62
256
6
ByLayer
370
18
48
1
60
0
100
AcDbLine
10
2.25
20
-5.396527
30
0
11
7.75
21
-5.396527
31
0
39
0
210
0
220
0
230
1
0
LINE
5
98
100
AcDbEntity
8
1
62
256
6
ByLayer
370
18
48
1
60
0
100
AcDbLine
10
21.430269
20
8.451947
30
0
11
21.430269
21
8.238488
31
0
39
0
210
0
220
0
230
1
0
LINE
5
99
100
AcDbEntity
8
1
62
256
6
ByLayer
370
18
48
1
60
0
100
AcDbLine
10
24.371185
20
-10.171053
30
0
11
24.371185
21
-10.433676
31
0
39
0
210
0
220
0
230
1
0
LINE
5
9A
100
AcDbEntity
8
1
62
256
6
ByLayer
370
18
48
1
60
0
100
AcDbLine
10
23.694624
20
-3.409096
30
0
11
23.628205
21
-4.469013
31
0
39
0
210
0
220
0
230
1
0
LINE
5
9B
100
AcDbEntity
8
1
62
256
6
ByLayer
370
18
48
1
60
0
100
AcDbLine
10
19.006143
20
-4.455415
30
0
11
19.006143
21
-8.86528
31
0
39
0
210
0
220
0
230
1
0
LINE
5
9C
100
AcDbEntity
8
1
62
256
6
ByLayer
370
18
48
1
60
0
100
AcDbLine
10
18.216435
20
10.184537
30
0
11
17.87734
21
10.210962
31
0
39
0
210
0
220
0
230
1
0
LINE
5
9D
100
AcDbEntity
8
1
62
256
6
ByLayer
370
18
48
1
60
0
100
AcDbLine
10
20.437663
20
9.299905
30
0
11
20.437663
21
6.614515
31
0
39
0
210
0
220
0
230
1
0
LINE
5
9E
100
AcDbEntity
8
1
62
256
6
ByLayer
370
18
48
1
60
0
100
AcDbLine
10
23.618295
20
-10.787234
30
0
11
23.526267
21
-11.852727
31
0
39
0
210
0
220
0
230
1
0
LINE
5
9F
100
AcDbEntity
8
1
62
256
6
ByLayer
370
18
48
1
60
0
100
AcDbLine
10
18.993857
20
4.892217
30
0
11
18.993857
21
9.329754
31
0
39
0
210
0
220
0
230
1
0
LINE
5
A0
100
AcDbEntity
8
1
62
256
6
ByLayer
370
18
48
1
60
0
100
AcDbLine
10
23.785408
20
-8.041694
30
0
11
23.785408
21
-4.46885
31
0
39
0
210
0
220
0
230
1
0
LINE
5
A1
100
AcDbEntity
8
1
62
256
6
ByLayer
370
18
48
1
60
0
100
AcDbLine
10
16.514722
20
-8.539628
30
0
11
15.745311
21
-11.743495
31
0
39
0
210
0
220
0
230
1
0
LINE
5
A2
100
AcDbEntity
8
1
62
256
6
ByLayer
370
18
48
1
60
0
100
AcDbLine
10
20.437663
20
-4.47229
30
0
11
20.437663
21
-7.44106
31
0
39
0
210
0
220
0
230
1
0
LINE
5
A3
100
AcDbEntity
8
1
62
256
6
ByLayer
370
18
48
1
60
0
100
AcDbLine
10
23.399885
20
-10.325882
30
0
11
23.399885
21
-11.778248
31
0
39
0
210
0
220
0
230
1
0
LINE
5
A4
100
AcDbEntity
8
1
62
256
6
ByLayer
370
18
48
1
60
0
100
AcDbLine
10
24.371185
20
9.045923
30
0
11
24.371185
21
5.609594
31
0
39
0
210
0
220
0
230
1
0
LINE
5
A5
100
AcDbEntity
8
1
62
256
6
ByLayer
370
18
48
1
60
0
100
AcDbLine
10
24.075743
20
1.849323
30
0
11
24.075743
21
1.23336
31
0
39
0
210
0
220
0
230
1
0
LINE
5
A6
100
AcDbEntity
8
1
62
256
6
ByLayer
370
18
48
1
60
0
100
AcDbLine
10
13.176939
20
3.43251
30
0
11
17.040479
21
2.456444
31
0
39
0
210
0
220
0
230
1
0
LINE
5
A7
100
AcDbEntity
8
1
62
256
6
ByLayer
370
18
48
1
60
0
100
AcDbLine
10
7.75
20
5.396527
30
0
11
2.25
21
5.396527
31
0
39
0
210
0
220
0
230
1
0
LINE
5
A8
100
AcDbEntity
8
1
62
256
6
ByLayer
370
18
48
1
60
0
100
AcDbLine
10
7.95
20
-5.087485
30
0
11
7.95
21
5.087485
31
0
39
0
210
0
220
0
230
1
0
LINE
5
A9
100
AcDbEntity
8
1
62
256
6
ByLayer
370
18
48
1
60
0
100
AcDbLine
10
0
20
9.65
30
0
11
0
21
-9.65
31
0
39
0
210
0
220
0
230
1
0
LINE
5
AA
100
AcDbEntity
8
1
62
256
6
ByLayer
370
18
48
1
60
0
100
AcDbLine
10
10.477455
20
-8.388016
30
0
11
10.477455
21
-9.723972
31
0
39
0
210
0
220
0
230
1
0
LINE
5
AB
100
AcDbEntity
8
1
62
256
6
ByLayer
370
18
48
1
60
0
100
AcDbLine
10
17.9
20
9.348722
30
0
11
17.9
21
5.056893
31
0
39
0
210
0
220
0
230
1
0
LINE
5
AC
100
AcDbEntity
8
1
62
256
6
ByLayer
370
18
48
1
60
0
100
AcDbLine
10
2.05
20
5.087485
30
0
11
2.05
21
-5.087485
31
0
39
0
210
0
220
0
230
1
0
LINE
5
AD
100
AcDbEntity
8
1
62
256
6
ByLayer
370
18
48
1
60
0
100
AcDbLine
10
23.399885
20
-4.636408
30
0
11
23.399885
21
-5.698856
31
0
39
0
210
0
220
0
230
1
0
LINE
5
AE
100
AcDbEntity
8
1
62
256
6
ByLayer
370
18
48
1
60
0
100
AcDbLine
10
21.495725
20
8.03119
30
0
11
21.696504
21
9.024067
31
0
39
0
210
0
220
0
230
1
0
LINE
5
AF
100
AcDbEntity
8
1
62
256
6
ByLayer
370
18
48
1
60
0
100
AcDbLine
10
13.45127
20
4.414517
30
0
11
17.31481
21
3.438451
31
0
39
0
210
0
220
0
230
1
0
LINE
5
B0
100
AcDbEntity
8
1
62
256
6
ByLayer
370
18
48
1
60
0
100
AcDbLine
10
21.635598
20
9.271437
30
0
11
21.696504
21
9.024067
31
0
39
0
210
0
220
0
230
1
0
LINE
5
B1
100
AcDbEntity
8
1
62
256
6
ByLayer
370
18
48
1
60
0
100
AcDbLine
10
18.384444
20
1.407961
30
0
11
17.212535
21
-4.387291
31
0
39
0
210
0
220
0
230
1
0
LINE
5
B2
100
AcDbEntity
8
1
62
256
6
ByLayer
370
18
48
1
60
0
100
AcDbLine
10
12.949402
20
-7.327413
30
0
11
12.24703
21
-10.252128
31
0
39
0
210
0
220
0
230
1
0
LINE
5
B3
100
AcDbEntity
8
1
62
256
6
ByLayer
370
18
48
1
60
0
100
AcDbLine
10
10.477455
20
2.097834
30
0
11
10.477455
21
-6.562645
31
0
39
0
210
0
220
0
230
1
0
LINE
5
B4
100
AcDbEntity
8
1
62
256
6
ByLayer
370
18
48
1
60
0
100
AcDbLine
10
19.006143
20
9.329521
30
0
11
19.006143
21
4.930003
31
0
39
0
210
0
220
0
230
1
0
LINE
5
B5
100
AcDbEntity
8
1
62
256
6
ByLayer
370
18
48
1
60
0
100
AcDbLine
10
19.037788
20
4.854899
30
0
11
18.557188
21
4.337446
31
0
39
0
210
0
220
0
230
1
0
LINE
5
B6
100
AcDbEntity
8
1
62
256
6
ByLayer
370
18
48
1
60
0
100
AcDbLine
10
18.557188
20
4.337446
30
0
11
18.830337
21
4.570703
31
0
39
0
210
0
220
0
230
1
0
LINE
5
B7
100
AcDbEntity
8
1
62
256
6
ByLayer
370
18
48
1
60
0
100
AcDbLine
10
19.981641
20
1.90724
30
0
11
24.075743
21
1.23336
31
0
39
0
210
0
220
0
230
1
0
LINE
5
B8
100
AcDbEntity
8
1
62
256
6
ByLayer
370
18
48
1
60
0
100
AcDbLine
10
23.785408
20
5.841368
30
0
11
23.785408
21
9.220341
31
0
39
0
210
0
220
0
230
1
0
LINE
5
B9
100
AcDbEntity
8
1
62
256
6
ByLayer
370
18
48
1
60
0
100
AcDbLine
10
21.500884
20
-11.901863
30
0
11
21.595656
21
-10.804587
31
0
39
0
210
0
220
0
230
1
0
LINE
5
BA
100
AcDbEntity
8
1
62
256
6
ByLayer
370
18
48
1
60
0
100
AcDbLine
10
24.137606
20
1.180452
30
0
11
24.137606
21
-1.738189
31
0
39
0
210
0
220
0
230
1
0
LINE
5
BB
100
AcDbEntity
8
1
62
256
6
ByLayer
370
18
48
1
60
0
100
AcDbLine
10
23.399885
20
-10.325882
30
0
11
23.618295
21
-10.787234
31
0
39
0
210
0
220
0
230
1
0
LINE
5
BC
100
AcDbEntity
8
1
62
256
6
ByLayer
370
18
48
1
60
0
100
AcDbLine
10
24.309322
20
-2.361952
30
0
11
24.309322
21
1.264567
31
0
39
0
210
0
220
0
230
1
0
LINE
5
BD
100
AcDbEntity
8
1
62
256
6
ByLayer
370
18
48
1
60
0
100
AcDbLine
10
13.176939
20
3.43251
30
0
11
12.24703
21
-1.166019
31
0
39
0
210
0
220
0
230
1
0
LINE
5
BE
100
AcDbEntity
8
1
62
256
6
ByLayer
370
18
48
1
60
0
100
AcDbLine
10
24.371185
20
-2.797972
30
0
11
24.371185
21
-3.800051
31
0
39
0
210
0
220
0
230
1
0
LINE
5
BF
100
AcDbEntity
8
1
62
256
6
ByLayer
370
18
48
1
60
0
100
AcDbLine
10
19.669521
20
-8.021915
30
0
11
19.54863
21
-7.799994
31
0
39
0
210
0
220
0
230
1
0
LINE
5
C0
100
AcDbEntity
8
1
62
256
6
ByLayer
370
18
48
1
60
0
100
AcDbLine
10
17.969643
20
-8.779296
30
0
11
17.212535
21
-11.931935
31
0
39
0
210
0
220
0
230
1
0
LINE
5
C1
100
AcDbEntity
8
1
62
256
6
ByLayer
370
18
48
1
60
0
100
AcDbLine
10
24.075743
20
1.23336
30
0
11
24.075743
21
-1.240891
31
0
39
0
210
0
220
0
230
1
0
LINE
5
C2
100
AcDbEntity
8
1
62
256
6
ByLayer
370
18
48
1
60
0
100
AcDbLine
10
23.399885
20
-4.636408
30
0
11
23.694624
21
-3.409096
31
0
39
0
210
0
220
0
230
1
0
LINE
5
C3
100
AcDbEntity
8
1
62
256
6
ByLayer
370
18
48
1
60
0
100
AcDbLine
10
21.603181
20
-4.471101
30
0
11
21.671836
21
-3.375511
31
0
39
0
210
0
220
0
230
1
0
LINE
5
C4
100
AcDbEntity
8
1
62
256
6
ByLayer
370
18
48
1
60
0
100
AcDbLine
10
17.87734
20
10.210962
30
0
11
18.231212
21
10.439093
31
0
39
0
210
0
220
0
230
1
0
LINE
5
C5
100
AcDbEntity
8
1
62
256
6
ByLayer
370
18
48
1
60
0
100
AcDbLine
10
24.371185
20
1.312443
30
0
11
24.371185
21
-2.807527
31
0
39
0
210
0
220
0
230
1
0
LINE
5
C6
100
AcDbEntity
8
1
62
256
6
ByLayer
370
18
48
1
60
0
100
AcDbLine
10
24.371185
20
-10.433676
30
0
11
24.371185
21
-11.272735
31
0
39
0
210
0
220
0
230
1
0
LINE
5
C7
100
AcDbEntity
8
1
62
256
6
ByLayer
370
18
48
1
60
0
100
AcDbLine
10
18.005946
20
3.672672
30
0
11
18.477228
21
4.325421
31
0
39
0
210
0
220
0
230
1
0
LINE
5
C8
100
AcDbEntity
8
1
62
256
6
ByLayer
370
18
48
1
60
0
100
AcDbLine
10
24.371185
20
-3.800051
30
0
11
24.371185
21
-7.713052
31
0
39
0
210
0
220
0
230
1
0
LINE
5
C9
100
AcDbEntity
8
1
62
256
6
ByLayer
370
18
48
1
60
0
100
AcDbLine
10
17.87734
20
4.235165
30
0
11
18.557188
21
4.337446
31
0
39
0
210
0
220
0
230
1
0
LINE
5
CA
100
AcDbEntity
8
1
62
256
6
ByLayer
370
18
48
1
60
0
100
AcDbLine
10
20.426244
20
6.618227
30
0
11
20.426244
21
9.300159
31
0
39
0
210
0
220
0
230
1
0
LINE
5
CB
100
AcDbEntity
8
1
62
256
6
ByLayer
370
18
48
1
60
0
100
AcDbLine
10
7.75
20
-5.396527
30
0
11
7.75
21
5.396527
31
0
39
0
210
0
220
0
230
1
0
LINE
5
CC
100
AcDbEntity
8
1
62
256
6
ByLayer
370
18
48
1
60
0
100
AcDbLine
10
17.040479
20
2.456444
30
0
11
15.745311
21
-3.948338
31
0
39
0
210
0
220
0
230
1
0
LINE
5
CD
100
AcDbEntity
8
1
62
256
6
ByLayer
370
18
48
1
60
0
100
AcDbLine
10
2.25
20
5.396527
30
0
11
2.25
21
-5.396527
31
0
39
0
210
0
220
0
230
1
0
LINE
5
CE
100
AcDbEntity
8
1
62
256
6
ByLayer
370
18
48
1
60
0
100
AcDbLine
10
18.993857
20
-8.893158
30
0
11
18.993857
21
-4.455184
31
0
39
0
210
0
220
0
230
1
0
LINE
5
CF
100
AcDbEntity
8
1
62
256
6
ByLayer
370
18
48
1
60
0
100
AcDbLine
10
10.1
20
9.65
30
0
11
10.1
21
-9.65
31
0
39
0
210
0
220
0
230
1
0
LINE
5
D0
100
AcDbEntity
8
1
62
256
6
ByLayer
370
18
48
1
60
0
100
AcDbLine
10
10.477455
20
9.693714
30
0
11
10.477455
21
4.806637
31
0
39
0
210
0
220
0
230
1
0
LINE
5
D1
100
AcDbEntity
8
1
62
256
6
ByLayer
370
18
48
1
60
0
100
AcDbLine
10
22.424306
20
10.224601
30
0
11
22.404788
21
10.248243
31
0
39
0
210
0
220
0
230
1
0
LINE
5
D2
100
AcDbEntity
8
1
62
256
6
ByLayer
370
18
48
1
60
0
100
AcDbLine
10
21.488875
20
9.60092
30
0
11
21.440426
21
9.659607
31
0
39
0
210
0
220
0
230
1
0
LINE
5
D3
100
AcDbEntity
8
1
62
256
6
ByLayer
370
18
48
1
60
0
100
AcDbLine
10
22.430418
20
10.204066
30
0
11
22.389157
21
10.254045
31
0
39
0
210
0
220
0
230
1
0
LINE
5
D4
100
AcDbEntity
8
1
62
256
6
ByLayer
370
18
48
1
60
0
100
AcDbLine
10
21.514051
20
9.591307
30
0
11
21.443467
21
9.676806
31
0
39
0
210
0
220
0
230
1
0
LINE
5
D5
100
AcDbEntity
8
1
62
256
6
ByLayer
370
18
48
1
60
0
100
AcDbLine
10
21.443467
20
3.9039
30
0
11
21.444264
21
3.903763
31
0
39
0
210
0
220
0
230
1
0
LINE
5
D6
100
AcDbEntity
8
1
62
256
6
ByLayer
370
18
48
1
60
0
100
AcDbLine
10
22.41331
20
3.521224
30
0
11
22.404788
21
3.479081
31
0
39
0
210
0
220
0
230
1
0
LINE
5
D7
100
AcDbEntity
8
1
62
256
6
ByLayer
370
18
48
1
60
0
100
AcDbLine
10
20.897533
20
3.792023
30
0
11
20.881608
21
3.713271
31
0
39
0
210
0
220
0
230
1
0
LINE
5
D8
100
AcDbEntity
8
1
62
256
6
ByLayer
370
18
48
1
60
0
100
AcDbLine
10
22.399395
20
3.537698
30
0
11
22.389157
21
3.487071
31
0
39
0
210
0
220
0
230
1
0
LINE
5
D9
100
AcDbEntity
8
1
62
256
6
ByLayer
370
18
48
1
60
0
100
AcDbLine
10
20.91907
20
3.804378
30
0
11
20.901168
21
3.71585
31
0
39
0
210
0
220
0
230
1
0
LINE
5
DA
100
AcDbEntity
8
1
62
256
6
ByLayer
370
18
48
1
60
0
100
AcDbLine
10
22.301728
20
3.62437
30
0
11
22.202016
21
3.131279
31
0
39
0
210
0
220
0
230
1
0
LINE
5
DB
100
AcDbEntity
8
1
62
256
6
ByLayer
370
18
48
1
60
0
100
AcDbLine
10
22.285841
20
3.635392
30
0
11
22.187462
21
3.148894
31
0
39
0
210
0
220
0
230
1
0
LINE
5
DC
100
AcDbEntity
8
1
62
256
6
ByLayer
370
18
48
1
60
0
100
AcDbLine
10
22.299503
20
10.84743
30
0
11
22.187462
21
10.983146
31
0
39
0
210
0
220
0
230
1
0
LINE
5
DD
100
AcDbEntity
8
1
62
256
6
ByLayer
370
18
48
1
60
0
100
AcDbLine
10
21.554432
20
11.033981
30
0
11
21.440426
21
11.172078
31
0
39
0
210
0
220
0
230
1
0
LINE
5
DE
100
AcDbEntity
8
1
62
256
6
ByLayer
370
18
48
1
60
0
100
AcDbLine
10
22.316022
20
10.858746
30
0
11
22.202016
21
10.996842
31
0
39
0
210
0
220
0
230
1
0
LINE
5
DF
100
AcDbEntity
8
1
62
256
6
ByLayer
370
18
48
1
60
0
100
AcDbLine
10
20.995613
20
10.052782
30
0
11
20.881608
21
10.190879
31
0
39
0
210
0
220
0
230
1
0
LINE
5
E0
100
AcDbEntity
8
1
62
256
6
ByLayer
370
18
48
1
60
0
100
AcDbLine
10
21.198385
20
10.816654
30
0
11
21.214905
21
10.806583
31
0
39
0
210
0
220
0
230
1
0
LINE
5
E1
100
AcDbEntity
8
1
62
256
6
ByLayer
370
18
48
1
60
0
100
AcDbLine
10
21.198385
20
10.816654
30
0
11
21.08438
21
10.954751
31
0
39
0
210
0
220
0
230
1
0
LINE
5
E2
100
AcDbEntity
8
1
62
256
6
ByLayer
370
18
48
1
60
0
100
AcDbLine
10
22.299503
20
10.84743
30
0
11
22.316022
21
10.858746
31
0
39
0
210
0
220
0
230
1
0
LINE
5
E3
100
AcDbEntity
8
1
62
256
6
ByLayer
370
18
48
1
60
0
100
AcDbLine
10
21.555508
20
11.014483
30
0
11
21.554432
21
11.033981
31
0
39
0
210
0
220
0
230
1
0
LINE
5
E4
100
AcDbEntity
8
1
62
256
6
ByLayer
370
18
48
1
60
0
100
AcDbLine
10
20.995613
20
10.052782
30
0
11
21.013209
21
10.06229
31
0
39
0
210
0
220
0
230
1
0
LINE
5
E5
100
AcDbEntity
8
1
62
256
6
ByLayer
370
18
48
1
60
0
100
AcDbLine
10
21.214905
20
10.806583
30
0
11
21.102864
21
10.942299
31
0
39
0
210
0
220
0
230
1
0
LINE
5
E6
100
AcDbEntity
8
1
62
256
6
ByLayer
370
18
48
1
60
0
100
AcDbLine
10
21.555508
20
11.014483
30
0
11
21.443467
21
11.1502
31
0
39
0
210
0
220
0
230
1
0
LINE
5
E7
100
AcDbEntity
8
1
62
256
6
ByLayer
370
18
48
1
60
0
100
AcDbLine
10
21.013209
20
10.06229
30
0
11
20.901168
21
10.198006
31
0
39
0
210
0
220
0
230
1
0
LINE
5
E8
100
AcDbEntity
8
1
62
256
6
ByLayer
370
18
48
1
60
0
100
AcDbLine
10
21.555508
20
3.719583
30
0
11
21.443467
21
3.165525
31
0
39
0
210
0
220
0
230
1
0
LINE
5
E9
100
AcDbEntity
8
1
62
256
6
ByLayer
370
18
48
1
60
0
100
AcDbLine
10
21.554432
20
3.709957
30
0
11
21.440426
21
3.146182
31
0
39
0
210
0
220
0
230
1
0
LINE
5
EA
100
AcDbEntity
8
1
62
256
6
ByLayer
370
18
48
1
60
0
100
AcDbLine
10
21.554432
20
3.709957
30
0
11
21.555508
21
3.719583
31
0
39
0
210
0
220
0
230
1
0
LINE
5
EB
100
AcDbEntity
8
1
62
256
6
ByLayer
370
18
48
1
60
0
100
AcDbLine
10
21.958899
20
3.657562
30
0
11
21.846858
21
3.103503
31
0
39
0
210
0
220
0
230
1
0
LINE
5
EC
100
AcDbEntity
8
1
62
256
6
ByLayer
370
18
48
1
60
0
100
AcDbLine
10
21.198385
20
3.86689
30
0
11
21.08438
21
3.303116
31
0
39
0
210
0
220
0
230
1
0
LINE
5
ED
100
AcDbEntity
8
1
62
256
6
ByLayer
370
18
48
1
60
0
100
AcDbLine
10
21.214905
20
3.86971
30
0
11
21.198385
21
3.86689
31
0
39
0
210
0
220
0
230
1
0
LINE
5
EE
100
AcDbEntity
8
1
62
256
6
ByLayer
370
18
48
1
60
0
100
AcDbLine
10
21.214905
20
3.86971
30
0
11
21.102864
21
3.315651
31
0
39
0
210
0
220
0
230
1
0
MTEXT
5
280
100
AcDbEntity
8
SK6
62
256
6
ByLayer
370
18
48
1
60
0
100
AcDbMText
10
-26.374359
20
-23.250016
30
0
210
0
220
0
230
1
1
\W0.7594;R390-025EH20-07M
40
3.5
41
0
44
1.084337
50
0
71
7
72
5
7
iso_b_vert
0
DIMENSION
5
291
100
AcDbEntity
8
2
62
256
6
ByLayer
370
13
48
1
60
0
100
AcDbDimension
2
DimnDraft3D1
10
36.851281
20
12.5
30
0
11
36.851281
21
0
31
0
70
32
71
5
72
1
41
1
210
0
220
0
230
1
3
Standard
100
AcDbAlignedDimension
13
26.5875
23
-12.5
33
0
14
26.5875
24
12.5
34
0
50
90
100
AcDbRotatedDimension
1001
ACAD
1000
DSTYLE
1002
{
1070
    74
1070
     0
1070
   279
1070
     0
1070
   172
1070
     1
1070
   173
1070
     1
1070
   340
1005
281
1070
   271
1070
     2
1070
   272
1070
     2
1070
    77
1070
     1
1070
    73
1070
     0
1070
   171
1070
     3
1070
   274
1070
     4
1070
   177
1070
   150
1070
   176
1070
     9
1070
   178
1070
    43
1070
    78
1070
     8
1070
    48
1040
-0.005
1070
    41
1041
3.175
1070
   147
1041
1.75
1070
    42
1041
1.5875
1070
    44
1041
3.175
1070
   140
1041
3.5
1070
   343
1005
292
1070
   344
1005
292
1002
}
0
DIMENSION
5
2A7
100
AcDbEntity
8
SK2
62
256
6
ByLayer
370
13
48
1
60
0
100
AcDbDimension
2
DimnDraft3D2
10
-42.35
20
-9.65
30
0
11
-42.35
21
0
31
0
70
32
71
5
72
1
41
1
210
0
220
0
230
1
3
Standard
100
AcDbAlignedDimension
13
-1.5875
23
9.65
33
0
14
-1.5875
24
-9.65
34
0
50
90
100
AcDbRotatedDimension
1001
ACAD
1000
DSTYLE
1002
{
1070
    74
1070
     0
1070
   279
1070
     0
1070
   172
1070
     1
1070
   173
1070
     1
1070
   340
1005
281
1070
   271
1070
     2
1070
   272
1070
     2
1070
    77
1070
     1
1070
    73
1070
     0
1070
   171
1070
     3
1070
   274
1070
     4
1070
   177
1070
   150
1070
   176
1070
     9
1070
   178
1070
    43
1070
    78
1070
     8
1070
    48
1040
-0.005
1070
    41
1041
3.175
1070
   147
1041
1.75
1070
    42
1041
1.5875
1070
    44
1041
3.175
1070
   140
1041
3.5
1070
   343
1005
292
1070
   344
1005
292
1002
}
0
DIMENSION
5
2B5
100
AcDbEntity
8
2
62
256
6
ByLayer
370
13
48
1
60
0
100
AcDbDimension
2
DimnDraft3D3
10
25
20
31
30
0
11
12.5
21
31
31
0
70
32
71
5
72
1
41
1
210
0
220
0
230
1
3
Standard
100
AcDbAlignedDimension
13
0
23
11.2375
33
0
14
25
24
14.0875
34
0
50
0
100
AcDbRotatedDimension
1001
ACAD
1000
DSTYLE
1002
{
1070
   279
1070
     0
1070
   172
1070
     1
1070
   173
1070
     1
1070
   340
1005
281
1070
   271
1070
     2
1070
   272
1070
     2
1070
    77
1070
     1
1070
    73
1070
     0
1070
   171
1070
     3
1070
   274
1070
     4
1070
   177
1070
   150
1070
   176
1070
     9
1070
   178
1070
    43
1070
    78
1070
     8
1070
    48
1040
-0.005
1070
    41
1041
3.175
1070
   147
1041
1.75
1070
    42
1041
1.5875
1070
    44
1041
3.175
1070
   140
1041
3.5
1070
   343
1005
292
1070
   344
1005
292
1002
}
0
DIMENSION
5
2C3
100
AcDbEntity
8
SK2
62
256
6
ByLayer
370
13
48
1
60
0
100
AcDbDimension
2
DimnDraft3D4
10
25
20
21
30
0
11
39.4375
21
21
31
0
70
32
71
5
72
1
41
1
210
0
220
0
230
1
3
Standard
100
AcDbAlignedDimension
13
19.2
23
14.0875
33
0
14
25
24
14.0875
34
0
50
0
100
AcDbRotatedDimension
1001
ACAD
1000
DSTYLE
1002
{
1070
   279
1070
     0
1070
   172
1070
     1
1070
   173
1070
     1
1070
   340
1005
281
1070
   271
1070
     2
1070
   272
1070
     2
1070
    77
1070
     1
1070
    73
1070
     0
1070
   171
1070
     3
1070
   274
1070
     4
1070
   177
1070
   150
1070
   176
1070
     9
1070
   178
1070
    43
1070
    78
1070
     8
1070
    48
1040
-0.005
1070
    41
1041
3.175
1070
   147
1041
1.75
1070
    42
1041
1.5875
1070
    44
1041
3.175
1070
   140
1041
3.5
1070
   343
1005
292
1070
   344
1005
292
1002
}
0
ENDSEC
0
SECTION
2
OBJECTS
0
DICTIONARY
5
32e
330
0
100
AcDbDictionary
280
0
281
1
3
ACAD_GROUP
350
32f
3
ACAD_MLINESTYLE
350
330
0
DICTIONARY
5
32f
330
0
100
AcDbDictionary
280
0
281
1
0
DICTIONARY
5
330
330
0
100
AcDbDictionary
280
0
281
1
3
Standard
350
18
0
MLINESTYLE
5
18
330
330
100
AcDbMlineStyle
2
Standard
70
0
3

62
256
51
90
52
90
71
2
49
-0.5
62
256
6
ByLayer
49
0.5
62
256
6
ByLayer
0
RASTERVARIABLES
5
31c
330

100
AcDbRasterVariables
90
0
70
1
71
1
72
1
0
ENDSEC
0
EOF
