0
SECTION
2
HEADER
9
$ACADVER
1
AC1015
9
$DWGCODEPAGE
3
ANSI_1252
9
$HANDSEED
5
1e5
9
$ANGBASE
50
0
9
$ANGDIR
70
0
9
$ATTMODE
70
1
9
$AUNITS
70
0
9
$AUPREC
70
0
9
$CECOLOR
62
256
9
$CELTSCALE
40
1
9
$CELTYPE
6
ByLayer
9
$CELWEIGHT
370
18
9
$CLAYER
8
0
9
$CMLJUST
70
0
9
$CMLSCALE
40
1
9
$CMLSTYLE
2
Standard
9
$DIMSTYLE
2
Standard
9
$TEXTSIZE
40
0.2
9
$TEXTSTYLE
7
Standard
9
$LUNITS
70
2
9
$LUPREC
70
4
9
$EXTNAMES
290
1
9
$INSUNITS
70
4
9
$LTSCALE
40
1
9
$LWDISPLAY
290
1
9
$PDMODE
70
0
9
$PDSIZE
40
0
9
$PLINEGEN
70
0
0
ENDSEC
0
SECTION
2
CLASSES
0
CLASS
1
RASTERVARIABLES
2
AcDbRasterVariables
3
ISM
90
0
280
0
281
0
0
ENDSEC
0
SECTION
2
TABLES
0
TABLE
2
VPORT
5
1db
100
AcDbSymbolTable
0
VPORT
5
1
100
AcDbSymbolTableRecord
100
AcDbViewportTableRecord
2
*Active
70
0
10
0
20
0
11
1
21
1
12
-1
22
1
13
0
23
0
14
0.5
24
0.5
15
10
25
10
16
0
26
0
36
1
17
0
27
0
37
0
0
ENDTAB
0
TABLE
2
LTYPE
5
1dc
100
AcDbSymbolTable
0
LTYPE
5
14
100
AcDbSymbolTableRecord
100
AcDbLinetypeTableRecord
70
0
2
ByBlock
3

72
65
73
0
40
0
0
LTYPE
5
15
100
AcDbSymbolTableRecord
100
AcDbLinetypeTableRecord
70
0
2
ByLayer
3

72
65
73
0
40
0
0
LTYPE
5
16
100
AcDbSymbolTableRecord
100
AcDbLinetypeTableRecord
70
0
2
CONTINUOUS
3
Solid line
72
65
73
0
40
0
0
LTYPE
5
6A
100
AcDbSymbolTableRecord
100
AcDbLinetypeTableRecord
70
0
2
CENTER
3
____ _ ____ _ ____ _ ____
72
65
73
4
40
47.5
49
22
74
0
49
-8.5
74
0
49
8.5
74
0
49
-8.5
74
0
0
LTYPE
5
6B
100
AcDbSymbolTableRecord
100
AcDbLinetypeTableRecord
70
0
2
DASHED
3
__ __ __ __ __ __ __ __ __
72
65
73
2
40
25.72
49
12.86
74
0
49
-12.86
74
0
0
ENDTAB
0
TABLE
2
LAYER
5
1dd
100
AcDbSymbolTable
0
LAYER
5
10
100
AcDbSymbolTableRecord
100
AcDbLayerTableRecord
2
0
70
0
62
7
6
CONTINUOUS
290
1
370
-3
390
0
0
LAYER
5
6D
100
AcDbSymbolTableRecord
100
AcDbLayerTableRecord
2
80
70
0
62
-6
6
CONTINUOUS
290
1
370
-3
390
0
0
LAYER
5
6F
100
AcDbSymbolTableRecord
100
AcDbLayerTableRecord
2
81
70
0
62
-3
6
CONTINUOUS
290
1
370
-3
390
0
0
LAYER
5
71
100
AcDbSymbolTableRecord
100
AcDbLayerTableRecord
2
2
70
0
62
7
6
CONTINUOUS
290
1
370
-3
390
0
0
LAYER
5
77
100
AcDbSymbolTableRecord
100
AcDbLayerTableRecord
2
1
70
0
62
4
6
CONTINUOUS
290
1
370
-3
390
0
0
LAYER
5
1c8
100
AcDbSymbolTableRecord
100
AcDbLayerTableRecord
2
SK1
70
0
62
4
6
CONTINUOUS
290
1
370
-3
390
0
0
LAYER
5
1c9
100
AcDbSymbolTableRecord
100
AcDbLayerTableRecord
2
SK6
70
0
62
5
6
CONTINUOUS
290
1
370
-3
390
0
0
LAYER
5
1ca
100
AcDbSymbolTableRecord
100
AcDbLayerTableRecord
2
SK2
70
0
62
7
6
CONTINUOUS
290
1
370
-3
390
0
0
ENDTAB
0
TABLE
2
STYLE
5
1de
100
AcDbSymbolTable
0
STYLE
5
11
100
AcDbSymbolTableRecord
100
AcDbTextStyleTableRecord
2
Standard
3
txt
70
0
71
0
40
0
41
1
42
0
50
0
0
STYLE
5
110
100
AcDbSymbolTableRecord
100
AcDbTextStyleTableRecord
2
iso_b_vert
3
simplex.shx
70
0
71
0
40
0
41
1
42
0
50
0
0
STYLE
5
111
100
AcDbSymbolTableRecord
100
AcDbTextStyleTableRecord
2
DWGDirectTextStyle
3
simplex
70
0
71
0
40
0
41
1
42
0
50
0
0
ENDTAB
0
TABLE
2
DIMSTYLE
5
1df
100
AcDbSymbolTable
100
AcDbDimStyleTable
0
DIMSTYLE
105
27
100
AcDbSymbolTableRecord
100
AcDbDimStyleTableRecord
2
Standard
70
0
3
<>
41
0.18
42
0.0625
44
0.18
140
0.18
147
0.09
73
0
74
0
77
1
271
2
275
0
278
52
280
0
340
11
0
ENDTAB
0
TABLE
2
VIEW
5
1e0
100
AcDbSymbolTable
0
ENDTAB
0
TABLE
2
UCS
5
1e1
100
AcDbSymbolTable
0
ENDTAB
0
TABLE
2
APPID
5
1e2
100
AcDbSymbolTable
0
APPID
5
12
100
AcDbSymbolTableRecord
100
AcDbRegAppTableRecord
2
ACAD
70
0
0
ENDTAB
0
TABLE
2
BLOCK_RECORD
5
1e3
100
AcDbSymbolTable
0
BLOCK_RECORD
5
1F
100
AcDbSymbolTableRecord
100
AcDbBlockTableRecord
2
*Model_Space
340
0
70
0
0
BLOCK_RECORD
5
1B
100
AcDbSymbolTableRecord
100
AcDbBlockTableRecord
2
*Paper_Space
340
0
70
0
0
BLOCK_RECORD
5
23
100
AcDbSymbolTableRecord
100
AcDbBlockTableRecord
2
*Paper_Space0
340
0
70
0
0
BLOCK_RECORD
5
113
100
AcDbSymbolTableRecord
100
AcDbBlockTableRecord
2
DimnDraft3D1
340
0
70
0
0
BLOCK_RECORD
5
121
100
AcDbSymbolTableRecord
100
AcDbBlockTableRecord
2
_CLOSED
340
0
70
0
0
BLOCK_RECORD
5
128
100
AcDbSymbolTableRecord
100
AcDbBlockTableRecord
2
DimnDraft3D2
340
0
70
0
0
BLOCK_RECORD
5
137
100
AcDbSymbolTableRecord
100
AcDbBlockTableRecord
2
DimnDraft3D3
340
0
70
0
0
BLOCK_RECORD
5
145
100
AcDbSymbolTableRecord
100
AcDbBlockTableRecord
2
DimnDraft3D4
340
0
70
0
0
BLOCK_RECORD
5
153
100
AcDbSymbolTableRecord
100
AcDbBlockTableRecord
2
DimnDraft3D5
340
0
70
0
0
BLOCK_RECORD
5
161
100
AcDbSymbolTableRecord
100
AcDbBlockTableRecord
2
DimnDraft3D6
340
0
70
0
0
ENDTAB
0
ENDSEC
0
SECTION
2
BLOCKS
0
BLOCK
5
20
100
AcDbEntity
8
0
100
AcDbBlockBegin
2
*Model_Space
70
0
10
0
20
0
30
0
3
*Model_Space
0
ENDBLK
5
21
100
AcDbEntity
8
0
100
AcDbBlockEnd
0
BLOCK
5
1C
100
AcDbEntity
8
0
100
AcDbBlockBegin
2
*Paper_Space
70
0
10
0
20
0
30
0
3
*Paper_Space
0
ENDBLK
5
1D
100
AcDbEntity
8
0
100
AcDbBlockEnd
0
BLOCK
5
24
100
AcDbEntity
8
0
100
AcDbBlockBegin
2
*Paper_Space0
70
0
10
0
20
0
30
0
3
*Paper_Space0
0
ENDBLK
5
25
100
AcDbEntity
8
0
100
AcDbBlockEnd
0
BLOCK
5
11E
100
AcDbEntity
8
0
100
AcDbBlockBegin
2
DimnDraft3D1
70
0
10
0
20
0
30
0
3
DimnDraft3D1
0
MTEXT
5
114
100
AcDbEntity
8
2
62
256
6
ByLayer
370
18
48
1
60
0
100
AcDbMText
10
33.647884
20
0.267105
30
0
210
0
220
0
230
1
1
\W0.7346;32.0
40
3.5
41
0
44
1.084337
50
90
71
7
72
5
7
iso_b_vert
0
LINE
5
115
100
AcDbEntity
8
2
62
256
6
ByLayer
370
13
48
1
60
0
100
AcDbLine
10
27
20
-12.5
30
0
11
36.522884
21
-12.5
31
0
39
0
210
0
220
0
230
1
0
LINE
5
116
100
AcDbEntity
8
2
62
256
6
ByLayer
370
13
48
1
60
0
100
AcDbLine
10
34
20
19.5
30
0
11
36.522884
21
19.5
31
0
39
0
210
0
220
0
230
1
0
LINE
5
117
100
AcDbEntity
8
2
62
256
6
ByLayer
370
13
48
1
60
0
100
AcDbLine
10
34.522884
20
-12.5
30
0
11
34.522884
21
19.5
31
0
39
0
210
0
220
0
230
1
0
LINE
5
118
100
AcDbEntity
8
2
62
256
6
ByLayer
370
13
48
1
60
0
100
AcDbLine
10
34.522884
20
-12.5
30
0
11
34.104888
21
-9.325002
31
0
39
0
210
0
220
0
230
1
0
LINE
5
119
100
AcDbEntity
8
2
62
256
6
ByLayer
370
13
48
1
60
0
100
AcDbLine
10
34.522884
20
-12.5
30
0
11
34.940881
21
-9.324998
31
0
39
0
210
0
220
0
230
1
0
LINE
5
11A
100
AcDbEntity
8
2
62
256
6
ByLayer
370
13
48
1
60
0
100
AcDbLine
10
34.104888
20
-9.325002
30
0
11
34.940881
21
-9.324998
31
0
39
0
210
0
220
0
230
1
0
LINE
5
11B
100
AcDbEntity
8
2
62
256
6
ByLayer
370
13
48
1
60
0
100
AcDbLine
10
34.522884
20
19.5
30
0
11
34.940881
21
16.325002
31
0
39
0
210
0
220
0
230
1
0
LINE
5
11C
100
AcDbEntity
8
2
62
256
6
ByLayer
370
13
48
1
60
0
100
AcDbLine
10
34.522884
20
19.5
30
0
11
34.104888
21
16.324998
31
0
39
0
210
0
220
0
230
1
0
LINE
5
11D
100
AcDbEntity
8
2
62
256
6
ByLayer
370
13
48
1
60
0
100
AcDbLine
10
34.940881
20
16.325002
30
0
11
34.104888
21
16.324998
31
0
39
0
210
0
220
0
230
1
0
ENDBLK
5
11F
100
AcDbEntity
8
0
100
AcDbBlockEnd
0
BLOCK
5
122
100
AcDbEntity
8
0
100
AcDbBlockBegin
2
_CLOSED
70
0
10
0
20
0
30
0
3
_CLOSED
0
LINE
5
124
100
AcDbEntity
8
0
62
256
6
ByLayer
370
-2
48
1
60
0
100
AcDbLine
10
-1
20
0.166667
30
0
11
0
21
0
31
0
39
0
210
0
220
0
230
1
0
LINE
5
125
100
AcDbEntity
8
0
62
256
6
ByLayer
370
-2
48
1
60
0
100
AcDbLine
10
0
20
0
30
0
11
-1
21
-0.166667
31
0
39
0
210
0
220
0
230
1
0
LINE
5
126
100
AcDbEntity
8
0
62
256
6
ByLayer
370
-2
48
1
60
0
100
AcDbLine
10
-1
20
0.166667
30
0
11
-1
21
-0.166667
31
0
39
0
210
0
220
0
230
1
0
LINE
5
127
100
AcDbEntity
8
0
62
256
6
ByLayer
370
-2
48
1
60
0
100
AcDbLine
10
0
20
0
30
0
11
-1
21
0
31
0
39
0
210
0
220
0
230
1
0
ENDBLK
5
123
100
AcDbEntity
8
0
100
AcDbBlockEnd
0
BLOCK
5
134
100
AcDbEntity
8
0
100
AcDbBlockBegin
2
DimnDraft3D2
70
0
10
0
20
0
30
0
3
DimnDraft3D2
0
MTEXT
5
129
100
AcDbEntity
8
SK2
62
256
6
ByLayer
370
18
48
1
60
0
100
AcDbMText
10
-99.47505
20
-3.232895
30
0
210
0
220
0
230
1
1
\W0.7346;25.0
40
3.5
41
0
44
1.084337
50
90
71
7
72
5
7
iso_b_vert
0
LINE
5
12B
100
AcDbEntity
8
SK2
62
256
6
ByLayer
370
13
48
1
60
0
100
AcDbLine
10
-2
20
12.5
30
0
11
-100.60005
21
12.5
31
0
39
0
210
0
220
0
230
1
0
LINE
5
12C
100
AcDbEntity
8
SK2
62
256
6
ByLayer
370
13
48
1
60
0
100
AcDbLine
10
-86
20
-12.5
30
0
11
-100.60005
21
-12.5
31
0
39
0
210
0
220
0
230
1
0
LINE
5
12D
100
AcDbEntity
8
SK2
62
256
6
ByLayer
370
13
48
1
60
0
100
AcDbLine
10
-98.60005
20
12.5
30
0
11
-98.60005
21
-12.5
31
0
39
0
210
0
220
0
230
1
0
LINE
5
12E
100
AcDbEntity
8
SK2
62
256
6
ByLayer
370
13
48
1
60
0
100
AcDbLine
10
-98.60005
20
12.5
30
0
11
-98.182053
21
9.325002
31
0
39
0
210
0
220
0
230
1
0
LINE
5
12F
100
AcDbEntity
8
SK2
62
256
6
ByLayer
370
13
48
1
60
0
100
AcDbLine
10
-98.60005
20
12.5
30
0
11
-99.018047
21
9.324998
31
0
39
0
210
0
220
0
230
1
0
LINE
5
130
100
AcDbEntity
8
SK2
62
256
6
ByLayer
370
13
48
1
60
0
100
AcDbLine
10
-98.182053
20
9.325002
30
0
11
-99.018047
21
9.324998
31
0
39
0
210
0
220
0
230
1
0
LINE
5
131
100
AcDbEntity
8
SK2
62
256
6
ByLayer
370
13
48
1
60
0
100
AcDbLine
10
-98.60005
20
-12.5
30
0
11
-99.018047
21
-9.325002
31
0
39
0
210
0
220
0
230
1
0
LINE
5
132
100
AcDbEntity
8
SK2
62
256
6
ByLayer
370
13
48
1
60
0
100
AcDbLine
10
-98.60005
20
-12.5
30
0
11
-98.182053
21
-9.324998
31
0
39
0
210
0
220
0
230
1
0
LINE
5
133
100
AcDbEntity
8
SK2
62
256
6
ByLayer
370
13
48
1
60
0
100
AcDbLine
10
-99.018047
20
-9.325002
30
0
11
-98.182053
21
-9.324998
31
0
39
0
210
0
220
0
230
1
0
ENDBLK
5
135
100
AcDbEntity
8
0
100
AcDbBlockEnd
0
BLOCK
5
142
100
AcDbEntity
8
0
100
AcDbBlockBegin
2
DimnDraft3D3
70
0
10
0
20
0
30
0
3
DimnDraft3D3
0
MTEXT
5
138
100
AcDbEntity
8
2
62
256
6
ByLayer
370
18
48
1
60
0
100
AcDbMText
10
24.180447
20
23.239136
30
0
210
0
220
0
230
1
1
\W0.8292;95%%d0'
40
3
41
0
44
1.084337
50
39.5727452227697
71
7
72
5
7
iso_b_vert
0
LINE
5
139
100
AcDbEntity
8
2
62
256
6
ByLayer
370
13
48
1
60
0
100
AcDbLine
10
32.174311
20
21.492389
30
0
11
32.794311
21
28.579011
31
0
39
0
210
0
220
0
230
1
0
LINE
5
13A
100
AcDbEntity
8
2
62
256
6
ByLayer
370
13
48
1
60
0
100
AcDbLine
10
30
20
19.5
30
0
11
22.886309
21
19.5
31
0
39
0
210
0
220
0
230
1
0
ARC
5
13B
100
AcDbEntity
8
2
62
256
6
ByLayer
370
13
48
1
60
0
100
AcDbCircle
39
0
10
32
20
19.5
30
0
40
7.11369128120759
210
0
220
0
230
1
100
AcDbArc
50
85
51
180
0
LINE
5
13C
100
AcDbEntity
8
2
62
256
6
ByLayer
370
13
48
1
60
0
100
AcDbLine
10
32.619999
20
26.586622
30
0
11
29.455216
21
26.097251
31
0
39
0
210
0
220
0
230
1
0
LINE
5
13D
100
AcDbEntity
8
2
62
256
6
ByLayer
370
13
48
1
60
0
100
AcDbLine
10
32.619999
20
26.586622
30
0
11
29.436392
21
26.933032
31
0
39
0
210
0
220
0
230
1
0
LINE
5
13E
100
AcDbEntity
8
2
62
256
6
ByLayer
370
13
48
1
60
0
100
AcDbLine
10
29.455216
20
26.097251
30
0
11
29.436392
21
26.933032
31
0
39
0
210
0
220
0
230
1
0
LINE
5
13F
100
AcDbEntity
8
2
62
256
6
ByLayer
370
13
48
1
60
0
100
AcDbLine
10
24.886309
20
19.5
30
0
11
24.818686
21
22.701681
31
0
39
0
210
0
220
0
230
1
0
LINE
5
140
100
AcDbEntity
8
2
62
256
6
ByLayer
370
13
48
1
60
0
100
AcDbLine
10
24.886309
20
19.5
30
0
11
25.649647
21
22.610092
31
0
39
0
210
0
220
0
230
1
0
LINE
5
141
100
AcDbEntity
8
2
62
256
6
ByLayer
370
13
48
1
60
0
100
AcDbLine
10
24.818686
20
22.701681
30
0
11
25.649647
21
22.610092
31
0
39
0
210
0
220
0
230
1
0
ENDBLK
5
143
100
AcDbEntity
8
0
100
AcDbBlockEnd
0
BLOCK
5
150
100
AcDbEntity
8
0
100
AcDbBlockBegin
2
DimnDraft3D4
70
0
10
0
20
0
30
0
3
DimnDraft3D4
0
MTEXT
5
146
100
AcDbEntity
8
SK2
62
256
6
ByLayer
370
18
48
1
60
0
100
AcDbMText
10
-29.665789
20
-39.469955
30
0
210
0
220
0
230
1
1
\W0.6261;116.0
40
3.5
41
0
44
1.084337
50
0
71
7
72
5
7
iso_b_vert
0
LINE
5
147
100
AcDbEntity
8
SK2
62
256
6
ByLayer
370
13
48
1
60
0
100
AcDbLine
10
-84
20
-14.5
30
0
11
-84
21
-42.344955
31
0
39
0
210
0
220
0
230
1
0
LINE
5
148
100
AcDbEntity
8
SK2
62
256
6
ByLayer
370
13
48
1
60
0
100
AcDbLine
10
32
20
17.5
30
0
11
32
21
-42.344955
31
0
39
0
210
0
220
0
230
1
0
LINE
5
149
100
AcDbEntity
8
SK2
62
256
6
ByLayer
370
13
48
1
60
0
100
AcDbLine
10
-84
20
-40.344955
30
0
11
32
21
-40.344955
31
0
39
0
210
0
220
0
230
1
0
LINE
5
14A
100
AcDbEntity
8
SK2
62
256
6
ByLayer
370
13
48
1
60
0
100
AcDbLine
10
-84
20
-40.344955
30
0
11
-80.825002
21
-39.926958
31
0
39
0
210
0
220
0
230
1
0
LINE
5
14B
100
AcDbEntity
8
SK2
62
256
6
ByLayer
370
13
48
1
60
0
100
AcDbLine
10
-84
20
-40.344955
30
0
11
-80.824998
21
-40.762951
31
0
39
0
210
0
220
0
230
1
0
LINE
5
14C
100
AcDbEntity
8
SK2
62
256
6
ByLayer
370
13
48
1
60
0
100
AcDbLine
10
-80.825002
20
-39.926958
30
0
11
-80.824998
21
-40.762951
31
0
39
0
210
0
220
0
230
1
0
LINE
5
14D
100
AcDbEntity
8
SK2
62
256
6
ByLayer
370
13
48
1
60
0
100
AcDbLine
10
32
20
-40.344955
30
0
11
28.825002
21
-40.762951
31
0
39
0
210
0
220
0
230
1
0
LINE
5
14E
100
AcDbEntity
8
SK2
62
256
6
ByLayer
370
13
48
1
60
0
100
AcDbLine
10
32
20
-40.344955
30
0
11
28.824998
21
-39.926958
31
0
39
0
210
0
220
0
230
1
0
LINE
5
14F
100
AcDbEntity
8
SK2
62
256
6
ByLayer
370
13
48
1
60
0
100
AcDbLine
10
28.825002
20
-40.762951
30
0
11
28.824998
21
-39.926958
31
0
39
0
210
0
220
0
230
1
0
ENDBLK
5
151
100
AcDbEntity
8
0
100
AcDbBlockEnd
0
BLOCK
5
15E
100
AcDbEntity
8
0
100
AcDbBlockBegin
2
DimnDraft3D5
70
0
10
0
20
0
30
0
3
DimnDraft3D5
0
MTEXT
5
154
100
AcDbEntity
8
2
62
256
6
ByLayer
370
18
48
1
60
0
100
AcDbMText
10
12.767105
20
-24.72505
30
0
210
0
220
0
230
1
1
\W0.7346;32.0
40
3.5
41
0
44
1.084337
50
0
71
7
72
5
7
iso_b_vert
0
LINE
5
155
100
AcDbEntity
8
2
62
256
6
ByLayer
370
13
48
1
60
0
100
AcDbLine
10
0
20
10.5
30
0
11
0
21
-27.60005
31
0
39
0
210
0
220
0
230
1
0
LINE
5
156
100
AcDbEntity
8
2
62
256
6
ByLayer
370
13
48
1
60
0
100
AcDbLine
10
32
20
17.5
30
0
11
32
21
-27.60005
31
0
39
0
210
0
220
0
230
1
0
LINE
5
157
100
AcDbEntity
8
2
62
256
6
ByLayer
370
13
48
1
60
0
100
AcDbLine
10
0
20
-25.60005
30
0
11
32
21
-25.60005
31
0
39
0
210
0
220
0
230
1
0
LINE
5
158
100
AcDbEntity
8
2
62
256
6
ByLayer
370
13
48
1
60
0
100
AcDbLine
10
0
20
-25.60005
30
0
11
3.174998
21
-25.182053
31
0
39
0
210
0
220
0
230
1
0
LINE
5
159
100
AcDbEntity
8
2
62
256
6
ByLayer
370
13
48
1
60
0
100
AcDbLine
10
0
20
-25.60005
30
0
11
3.175002
21
-26.018047
31
0
39
0
210
0
220
0
230
1
0
LINE
5
15A
100
AcDbEntity
8
2
62
256
6
ByLayer
370
13
48
1
60
0
100
AcDbLine
10
3.174998
20
-25.182053
30
0
11
3.175002
21
-26.018047
31
0
39
0
210
0
220
0
230
1
0
LINE
5
15B
100
AcDbEntity
8
2
62
256
6
ByLayer
370
13
48
1
60
0
100
AcDbLine
10
32
20
-25.60005
30
0
11
28.825002
21
-26.018047
31
0
39
0
210
0
220
0
230
1
0
LINE
5
15C
100
AcDbEntity
8
2
62
256
6
ByLayer
370
13
48
1
60
0
100
AcDbLine
10
32
20
-25.60005
30
0
11
28.824998
21
-25.182053
31
0
39
0
210
0
220
0
230
1
0
LINE
5
15D
100
AcDbEntity
8
2
62
256
6
ByLayer
370
13
48
1
60
0
100
AcDbLine
10
28.825002
20
-26.018047
30
0
11
28.824998
21
-25.182053
31
0
39
0
210
0
220
0
230
1
0
ENDBLK
5
15F
100
AcDbEntity
8
0
100
AcDbBlockEnd
0
BLOCK
5
16C
100
AcDbEntity
8
0
100
AcDbBlockBegin
2
DimnDraft3D6
70
0
10
0
20
0
30
0
3
DimnDraft3D6
0
MTEXT
5
162
100
AcDbEntity
8
SK2
62
256
6
ByLayer
370
18
48
1
60
0
100
AcDbMText
10
-69.87
20
-24.72505
30
0
210
0
220
0
230
1
1
\W0.7121;3.0
40
3.5
41
0
44
1.084337
50
0
71
7
72
5
7
iso_b_vert
0
LINE
5
163
100
AcDbEntity
8
SK2
62
256
6
ByLayer
370
13
48
1
60
0
100
AcDbLine
10
-84
20
-14.5
30
0
11
-84
21
-27.60005
31
0
39
0
210
0
220
0
230
1
0
LINE
5
164
100
AcDbEntity
8
SK2
62
256
6
ByLayer
370
13
48
1
60
0
100
AcDbLine
10
-81
20
-14.5
30
0
11
-81
21
-27.60005
31
0
39
0
210
0
220
0
230
1
0
LINE
5
165
100
AcDbEntity
8
SK2
62
256
6
ByLayer
370
13
48
1
60
0
100
AcDbLine
10
-65.145
20
-25.60005
30
0
11
-92.75
21
-25.60005
31
0
39
0
210
0
220
0
230
1
0
LINE
5
166
100
AcDbEntity
8
SK2
62
256
6
ByLayer
370
13
48
1
60
0
100
AcDbLine
10
-84
20
-25.60005
30
0
11
-87.174998
21
-26.018047
31
0
39
0
210
0
220
0
230
1
0
LINE
5
167
100
AcDbEntity
8
SK2
62
256
6
ByLayer
370
13
48
1
60
0
100
AcDbLine
10
-84
20
-25.60005
30
0
11
-87.175002
21
-25.182053
31
0
39
0
210
0
220
0
230
1
0
LINE
5
168
100
AcDbEntity
8
SK2
62
256
6
ByLayer
370
13
48
1
60
0
100
AcDbLine
10
-87.174998
20
-26.018047
30
0
11
-87.175002
21
-25.182053
31
0
39
0
210
0
220
0
230
1
0
LINE
5
169
100
AcDbEntity
8
SK2
62
256
6
ByLayer
370
13
48
1
60
0
100
AcDbLine
10
-81
20
-25.60005
30
0
11
-77.825002
21
-25.182053
31
0
39
0
210
0
220
0
230
1
0
LINE
5
16A
100
AcDbEntity
8
SK2
62
256
6
ByLayer
370
13
48
1
60
0
100
AcDbLine
10
-81
20
-25.60005
30
0
11
-77.824998
21
-26.018047
31
0
39
0
210
0
220
0
230
1
0
LINE
5
16B
100
AcDbEntity
8
SK2
62
256
6
ByLayer
370
13
48
1
60
0
100
AcDbLine
10
-77.825002
20
-25.182053
30
0
11
-77.824998
21
-26.018047
31
0
39
0
210
0
220
0
230
1
0
ENDBLK
5
16D
100
AcDbEntity
8
0
100
AcDbBlockEnd
0
ENDSEC
0
SECTION
2
ENTITIES
0
ARC
5
BD
100
AcDbEntity
8
1
62
256
6
ByLayer
370
18
48
1
60
0
100
AcDbCircle
39
0
10
-1.772277
20
14.025
30
0
40
1.60000000000797
210
0
220
0
230
-1
100
AcDbArc
50
224.962022
51
250.06671
0
ARC
5
BE
100
AcDbEntity
8
1
62
256
6
ByLayer
370
18
48
1
60
0
100
AcDbCircle
39
0
10
-1.772277
20
14.025
30
0
40
1.60000000000041
210
0
220
0
230
-1
100
AcDbArc
50
195
51
224.962022
0
ELLIPSE
5
BF
100
AcDbEntity
8
1
62
256
6
ByLayer
370
13
48
1
60
0
100
AcDbEllipse
10
19.406565
20
-6.894261
30
0
11
4.26050764448551
21
-4.209023440397
31
0
210
0
220
0
230
1
40
0.989121
41
-0.441310821966524
42
-0.0886018538778057
0
ELLIPSE
5
C0
100
AcDbEntity
8
1
62
256
6
ByLayer
370
13
48
1
60
0
100
AcDbEllipse
10
22.897294
20
-3.282086
30
0
11
3.17716891795658
21
-3.1387758374495
31
0
210
0
220
0
230
1
40
0.989121
41
1.21391234358945
42
1.87371319417463
0
ELLIPSE
5
C1
100
AcDbEntity
8
1
62
256
6
ByLayer
370
13
48
1
60
0
100
AcDbEllipse
10
21.663601
20
2.405573
30
0
11
0.607321784795248
21
1.48025681883689
31
0
210
0
220
0
230
1
40
0.056451
41
1.92525803439423
42
2.58178330161142
0
ELLIPSE
5
C2
100
AcDbEntity
8
1
62
256
6
ByLayer
370
18
48
1
60
0
100
AcDbEllipse
10
-86.721425
20
-236.662699
30
0
11
104.919565285207
21
230.958975955355
31
0
210
0
220
0
230
1
40
0.157683
41
-0.121718982447514
42
0.0412588397535765
0
ELLIPSE
5
C3
100
AcDbEntity
8
1
62
256
6
ByLayer
370
13
48
1
60
0
100
AcDbEllipse
10
52.84723
20
-18.522685
30
0
11
29.4986716875478
21
-29.1422081484042
31
0
210
0
220
0
230
1
40
0.989121
41
-2.82648542422515
42
-2.69266452200815
0
ELLIPSE
5
C4
100
AcDbEntity
8
1
62
256
6
ByLayer
370
13
48
1
60
0
100
AcDbEllipse
10
13.926793
20
-4.763801
30
0
11
1.51567841510713
21
-0.51256115925648
31
0
210
0
220
0
230
1
40
0.13253
41
-1.63525337039943
42
-0.151723506204253
0
ELLIPSE
5
C5
100
AcDbEntity
8
1
62
256
6
ByLayer
370
13
48
1
60
0
100
AcDbEllipse
10
52.99823
20
-18.369838
30
0
11
-28.3647758386884
21
28.0220143581183
31
0
210
0
220
0
230
1
40
0.989121
41
0.315107229364642
42
0.448928131581642
0
ELLIPSE
5
C6
100
AcDbEntity
8
1
62
256
6
ByLayer
370
18
48
1
60
0
100
AcDbEllipse
10
20.285482
20
-6.004593
30
0
11
-2.66473142944177
21
-2.69732606301823
31
0
210
0
220
0
230
1
40
0.989037
41
-1.00714516140082
42
1.21086508044842
0
ELLIPSE
5
C7
100
AcDbEntity
8
1
62
256
6
ByLayer
370
18
48
1
60
0
100
AcDbEllipse
10
23.772248
20
11.189807
30
0
11
-2.26756189400193
21
2.24016055381534
31
0
210
0
220
0
230
1
40
0.989121
41
-2.47116311687124
42
-0.670406775990693
0
ELLIPSE
5
C8
100
AcDbEntity
8
1
62
256
6
ByLayer
370
13
48
1
60
0
100
AcDbEllipse
10
19.406565
20
-6.894261
30
0
11
4.26050764448551
21
-4.209023440397
31
0
210
0
220
0
230
1
40
0.989121
41
-2.69266452200816
42
-1.13070421126508
0
ELLIPSE
5
C9
100
AcDbEntity
8
1
62
256
6
ByLayer
370
18
48
1
60
0
100
AcDbEllipse
10
20.788089
20
4.49111
30
0
11
1.84961911353884
21
-1.82726821644547
31
0
210
0
220
0
230
1
40
0.989121
41
-2.44414697610643
42
-1.49144644425295
0
ELLIPSE
5
CA
100
AcDbEntity
8
1
62
256
6
ByLayer
370
13
48
1
60
0
100
AcDbEllipse
10
20.001448
20
-1.715503
30
0
11
-2.04327306909716
21
2.01858204716363
31
0
210
0
220
0
230
1
40
0.989121
41
-0.628900823709935
42
0.315107229364644
0
ELLIPSE
5
CB
100
AcDbEntity
8
1
62
256
6
ByLayer
370
18
48
1
60
0
100
AcDbEllipse
10
21.078182
20
10.230815
30
0
11
1.84961911353884
21
-1.82726821644547
31
0
210
0
220
0
230
1
40
0.989121
41
-2.44414697610643
42
-2.10280920390704
0
ELLIPSE
5
CC
100
AcDbEntity
8
1
62
256
6
ByLayer
370
13
48
1
60
0
100
AcDbEllipse
10
23.048294
20
-3.129239
30
0
11
-2.04327306909716
21
2.01858204716363
31
0
210
0
220
0
230
1
40
0.989121
41
-2.75994022878544
42
-2.51267780376939
0
ELLIPSE
5
CD
100
AcDbEntity
8
1
62
256
6
ByLayer
370
13
48
1
60
0
100
AcDbEllipse
10
16.032949
20
0.309372
30
0
11
1.43299094751913
21
-0.711714088892609
31
0
210
0
220
0
230
1
40
0.139863
41
-1.6168561948444
42
-0.133326330649231
0
ELLIPSE
5
CE
100
AcDbEntity
8
1
62
256
6
ByLayer
370
18
48
1
60
0
100
AcDbEllipse
10
21.289952
20
12.994235
30
0
11
1.84961911353884
21
-1.82726821644546
31
0
210
0
220
0
230
1
40
0.989121
41
-2.78548474830583
42
-2.44414697610644
0
ELLIPSE
5
CF
100
AcDbEntity
8
1
62
256
6
ByLayer
370
13
48
1
60
0
100
AcDbEllipse
10
24.723567
20
-9.773501
30
0
11
-1.38140116479774
21
0.807298471381844
31
0
210
0
220
0
230
1
40
0.142612
41
0.0508001670088973
42
1.07809152052422
0
ELLIPSE
5
D0
100
AcDbEntity
8
1
62
256
6
ByLayer
370
13
48
1
60
0
100
AcDbEllipse
10
-10.959116
20
11.306352
30
0
11
-28.3647758386884
21
28.0220143581183
31
0
210
0
220
0
230
1
40
0.989121
41
-2.89376113100246
42
-2.85677638608665
0
ELLIPSE
5
D1
100
AcDbEntity
8
1
62
256
6
ByLayer
370
18
48
1
60
0
100
AcDbEllipse
10
-10.959116
20
11.306352
30
0
11
-28.3647758386884
21
28.0220143581183
31
0
210
0
220
0
230
1
40
0.989121
41
-2.85677639124577
42
-2.75994022878545
0
ELLIPSE
5
D2
100
AcDbEntity
8
1
62
256
6
ByLayer
370
13
48
1
60
0
100
AcDbEllipse
10
25.07822
20
0.821191
30
0
11
0.738141556405687
21
1.41955874929747
31
0
210
0
220
0
230
1
40
0.043883
41
1.71180736104926
42
2.4569795408474
0
ELLIPSE
5
D3
100
AcDbEntity
8
1
62
256
6
ByLayer
370
13
48
1
60
0
100
AcDbEllipse
10
6.199657
20
-35.888827
30
0
11
29.4986716875478
21
-29.1422081484042
31
0
210
0
220
0
230
1
40
0.989121
41
1.87371319417463
42
1.94999270804834
0
ELLIPSE
5
D4
100
AcDbEntity
8
1
62
256
6
ByLayer
370
13
48
1
60
0
100
AcDbEllipse
10
27.167617
20
-4.857111
30
0
11
1.47748868440503
21
-0.614025396425181
31
0
210
0
220
0
230
1
40
0.136522
41
-3.10966275645143
42
-2.63557757492398
0
ELLIPSE
5
D5
100
AcDbEntity
8
1
62
256
6
ByLayer
370
13
48
1
60
0
100
AcDbEllipse
10
19.557565
20
-6.741413
30
0
11
-3.1266117956261
21
3.08882965011114
31
0
210
0
220
0
230
1
40
0.989121
41
0.448928131581635
42
-2.89376113100245
0
ELLIPSE
5
D6
100
AcDbEntity
8
1
62
256
6
ByLayer
370
18
48
1
60
0
100
AcDbEllipse
10
20.626042
20
3.672707
30
0
11
1.8630402564074
21
-1.84052717749998
31
0
210
0
220
0
230
1
40
0.989121
41
0.288793370009107
42
0.697445677483421
0
ELLIPSE
5
D7
100
AcDbEntity
8
1
62
256
6
ByLayer
370
13
48
1
60
0
100
AcDbEllipse
10
19.850448
20
-1.86835
30
0
11
3.17716891795658
21
-3.1387758374495
31
0
210
0
220
0
230
1
40
0.989121
41
2.50686518207036
42
-2.82648542422515
0
ELLIPSE
5
D8
100
AcDbEntity
8
1
62
256
6
ByLayer
370
18
48
1
60
0
100
AcDbEllipse
10
21.383132
20
4.439058
30
0
11
-1.80248286993622
21
1.78070156975196
31
0
210
0
220
0
230
1
40
0.989121
41
2.61553861367269
42
-2.44414697610644
0
ELLIPSE
5
D9
100
AcDbEntity
8
1
62
256
6
ByLayer
370
18
48
1
60
0
100
AcDbEllipse
10
20.607739
20
3.65418
30
0
11
-1.73855507260098
21
1.7175462793665
31
0
210
0
220
0
230
1
40
0.989121
41
-2.99490730081878
42
-2.44414697610644
0
ELLIPSE
5
DA
100
AcDbEntity
8
1
62
256
6
ByLayer
370
13
48
1
60
0
100
AcDbEllipse
10
29.861432
20
7.03302
30
0
11
0.564667373604696
21
-0.557843902617051
31
0
210
0
220
0
230
1
40
0.989121
41
-0.698817724112127
42
-9.30855193687468E-06
0
ELLIPSE
5
DB
100
AcDbEntity
8
1
62
256
6
ByLayer
370
13
48
1
60
0
100
AcDbEllipse
10
25.19742
20
12.632412
30
0
11
-1.83396849031801
21
1.81180671619946
31
0
210
0
220
0
230
1
40
0.989121
41
0
42
6.28318530717959
0
ELLIPSE
5
DC
100
AcDbEntity
8
1
62
256
6
ByLayer
370
13
48
1
60
0
100
AcDbEllipse
10
18.691963
20
6.055818
30
0
11
0.564667373604696
21
-0.557843902617051
31
0
210
0
220
0
230
1
40
0.989121
41
-1.37314190197353
42
-0.698817724112128
0
ELLIPSE
5
DD
100
AcDbEntity
8
1
62
256
6
ByLayer
370
13
48
1
60
0
100
AcDbEllipse
10
31.210503
20
18.710608
30
0
11
-0.564667373604696
21
0.557843902617051
31
0
210
0
220
0
230
1
40
0.989121
41
-2.44414697610644
42
-0.698817724112126
0
ELLIPSE
5
DE
100
AcDbEntity
8
1
62
256
6
ByLayer
370
13
48
1
60
0
100
AcDbEllipse
10
20.041034
20
17.733406
30
0
11
-0.564667373604696
21
0.557843902617051
31
0
210
0
220
0
230
1
40
0.989121
41
-0.69881772411212
42
0.697445677483336
0
ELLIPSE
5
DF
100
AcDbEntity
8
1
62
256
6
ByLayer
370
13
48
1
60
0
100
AcDbEllipse
10
19.54866
20
17.235009
30
0
11
0.564667373604696
21
-0.557843902617051
31
0
210
0
220
0
230
1
40
0.989121
41
3.14158269758253
42
-2.44414697610646
0
ELLIPSE
5
E0
100
AcDbEntity
8
1
62
256
6
ByLayer
370
13
48
1
60
0
100
AcDbEllipse
10
24.705046
20
12.134015
30
0
11
-1.83396849031807
21
1.81180671619952
31
0
210
0
220
0
230
1
40
0.989121
41
-3.00377538698542
42
-0.137857622482913
0
ELLIPSE
5
E1
100
AcDbEntity
8
1
62
256
6
ByLayer
370
13
48
1
60
0
100
AcDbEllipse
10
19.184338
20
6.554215
30
0
11
-0.564667373604696
21
0.557843902617051
31
0
210
0
220
0
230
1
40
0.989121
41
0.697445677483335
42
2.44277492947766
0
ELLIPSE
5
E2
100
AcDbEntity
8
1
62
256
6
ByLayer
370
13
48
1
60
0
100
AcDbEllipse
10
30.353807
20
7.531417
30
0
11
-0.564667373604696
21
0.557843902617051
31
0
210
0
220
0
230
1
40
0.989121
41
2.44277492947766
42
-2.44414697610644
0
ELLIPSE
5
E3
100
AcDbEntity
8
1
62
256
6
ByLayer
370
18
48
1
60
0
100
AcDbEllipse
10
12.847218
20
7.839604
30
0
11
-1.10621450828958
21
1.09284695252796
31
0
210
0
220
0
230
1
40
0.989121
41
-2.89401610715527
42
-0.147479003040824
0
ELLIPSE
5
E4
100
AcDbEntity
8
1
62
256
6
ByLayer
370
18
48
1
60
0
100
AcDbEllipse
10
12.950604
20
7.944254
30
0
11
-1.10621450828958
21
1.09284695252796
31
0
210
0
220
0
230
1
40
0.989121
41
-2.98005151120959
42
-2.75294214131125
0
ELLIPSE
5
E5
100
AcDbEntity
8
1
62
256
6
ByLayer
370
18
48
1
60
0
100
AcDbEllipse
10
12.950604
20
7.944254
30
0
11
-1.10621450828958
21
1.09284695252796
31
0
210
0
220
0
230
1
40
0.989121
41
-0.215489633707863
42
-0.0632648923628115
0
ELLIPSE
5
E6
100
AcDbEntity
8
1
62
256
6
ByLayer
370
18
48
1
60
0
100
AcDbEllipse
10
13.341919
20
8.340356
30
0
11
-1.10621450828958
21
1.09284695252796
31
0
210
0
220
0
230
1
40
0.989121
41
0.388650512278543
42
0.831707917488738
0
ELLIPSE
5
E7
100
AcDbEntity
8
1
62
256
6
ByLayer
370
18
48
1
60
0
100
AcDbEllipse
10
13.341919
20
8.340356
30
0
11
-1.10621450828958
21
1.09284695252796
31
0
210
0
220
0
230
1
40
0.989121
41
-0.658547038918075
42
-0.215489633707857
0
ELLIPSE
5
E8
100
AcDbEntity
8
1
62
256
6
ByLayer
370
18
48
1
60
0
100
AcDbEllipse
10
13.341919
20
8.340356
30
0
11
-1.10621450828958
21
1.09284695252796
31
0
210
0
220
0
230
1
40
0.989121
41
1.43584806347514
42
1.87890546868533
0
ELLIPSE
5
E9
100
AcDbEntity
8
1
62
256
6
ByLayer
370
18
48
1
60
0
100
AcDbEllipse
10
13.341919
20
8.340356
30
0
11
-1.10621450828958
21
1.09284695252796
31
0
210
0
220
0
230
1
40
0.989121
41
2.48304561467174
42
2.92610301988192
0
ELLIPSE
5
EA
100
AcDbEntity
8
1
62
256
6
ByLayer
370
18
48
1
60
0
100
AcDbEllipse
10
13.341919
20
8.340356
30
0
11
-1.10621450828958
21
1.09284695252796
31
0
210
0
220
0
230
1
40
0.989121
41
-2.75294214131124
42
-2.30988473610107
0
ELLIPSE
5
EB
100
AcDbEntity
8
1
62
256
6
ByLayer
370
18
48
1
60
0
100
AcDbEllipse
10
13.364147
20
8.362856
30
0
11
2.30135301242237
21
-2.27354333853888
31
0
210
0
220
0
230
1
40
0.989121
41
0
42
6.28318530717959
0
ELLIPSE
5
EC
100
AcDbEntity
8
1
62
256
6
ByLayer
370
18
48
1
60
0
100
AcDbEllipse
10
13.285057
20
8.282798
30
0
11
2.84556786698283
21
-2.81118187145457
31
0
210
0
220
0
230
1
40
0.989121
41
0
42
6.28318530717959
0
ELLIPSE
5
ED
100
AcDbEntity
8
1
62
256
6
ByLayer
370
18
48
1
60
0
100
AcDbEllipse
10
12.950604
20
7.944254
30
0
11
-1.10621450828958
21
1.09284695252796
31
0
210
0
220
0
230
1
40
0.989121
41
-2.30988473610107
42
-1.70574459011466
0
ELLIPSE
5
EE
100
AcDbEntity
8
1
62
256
6
ByLayer
370
18
48
1
60
0
100
AcDbEllipse
10
13.341919
20
8.340356
30
0
11
-1.10621450828958
21
1.09284695252796
31
0
210
0
220
0
230
1
40
0.989121
41
-1.70574459011465
42
-1.26268718490446
0
ELLIPSE
5
EF
100
AcDbEntity
8
1
62
256
6
ByLayer
370
18
48
1
60
0
100
AcDbEllipse
10
12.950604
20
7.944254
30
0
11
-1.10621450828958
21
1.09284695252796
31
0
210
0
220
0
230
1
40
0.989121
41
-1.26268718490446
42
-0.658547038918077
0
ELLIPSE
5
F0
100
AcDbEntity
8
1
62
256
6
ByLayer
370
18
48
1
60
0
100
AcDbEllipse
10
13.364147
20
8.362856
30
0
11
1.37113041984706
21
-1.35456160592679
31
0
210
0
220
0
230
1
40
0.989121
41
0
42
6.28318530717959
0
POINT
5
6C
100
AcDbEntity
8
80
62
256
6
ByLayer
370
18
48
1
60
0
100
AcDbPoint
10
0
20
0
30
0
39
0
210
0
220
0
230
1
50
360
0
POINT
5
6E
100
AcDbEntity
8
81
62
256
6
ByLayer
370
18
48
1
60
0
100
AcDbPoint
10
32
20
19.5
30
0
39
0
210
0
220
0
230
1
50
360
0
POINT
5
70
100
AcDbEntity
8
2
62
256
6
ByLayer
370
18
48
1
60
0
100
AcDbPoint
10
25.19742
20
12.632412
30
0
39
0
210
0
220
0
230
1
50
360
0
POINT
5
72
100
AcDbEntity
8
2
62
256
6
ByLayer
370
18
48
1
60
0
100
AcDbPoint
10
25.19742
20
12.632412
30
0
39
0
210
0
220
0
230
1
50
360
0
POINT
5
73
100
AcDbEntity
8
2
62
256
6
ByLayer
370
18
48
1
60
0
100
AcDbPoint
10
24.377054
20
11.802011
30
0
39
0
210
0
220
0
230
1
50
360
0
POINT
5
74
100
AcDbEntity
8
2
62
256
6
ByLayer
370
18
48
1
60
0
100
AcDbPoint
10
13.236835
20
8.233987
30
0
39
0
210
0
220
0
230
1
50
360
0
SPLINE
5
F1
100
AcDbEntity
8
1
62
256
6
ByLayer
370
18
48
1
60
0
100
AcDbSpline
70
4
71
3
72
14
73
10
40
0
40
0
40
0
40
0
40
0.177106147711977
40
0.177106147711977
40
0.53171217738828
40
0.53171217738828
40
0.858191112404107
40
0.858191112404107
40
1
40
1
40
1
40
1
41
1
10
26.9162633021999
20
-1.43404892898832
30
0
41
1
10
26.8484598570828
20
-1.62109270568664
30
0
41
1
10
26.7813610286495
20
-1.80619271440324
30
0
41
1
10
26.5848189887099
20
-2.34837704392811
30
0
41
1
10
26.4598211579054
20
-2.69319825931623
30
0
41
1
10
26.2261944122919
20
-3.33768511041652
30
0
41
1
10
26.1158687343185
20
-3.64203146684898
30
0
41
1
10
25.9435049397325
20
-4.11751726332639
30
0
41
1
10
25.8891098567875
20
-4.2675724962173
30
0
41
1
10
25.8346518944647
20
-4.41780118926602
30
0
0
SPLINE
5
F2
100
AcDbEntity
8
1
62
256
6
ByLayer
370
18
48
1
60
0
100
AcDbSpline
70
4
71
3
72
10
73
6
40
0
40
0
40
0
40
0
40
0.530543621234404
40
0.530543621234404
40
1
40
1
40
1
40
1
41
1
10
2.31775814129617
20
12.520855682695
30
0
41
1
10
2.27155428571518
20
12.5040997504771
30
0
41
1
10
2.1954530928829
20
12.4785909124673
30
0
41
1
10
2.00649823004926
20
12.4396423088448
30
0
41
1
10
1.8963506595853
20
12.425
30
0
41
1
10
1.77227681923367
20
12.425
30
0
0
SPLINE
5
F3
100
AcDbEntity
8
1
62
256
6
ByLayer
370
18
48
1
60
0
100
AcDbSpline
70
4
71
3
72
8
73
4
40
0
40
0
40
0
40
0
40
1
40
1
40
1
40
1
41
1
10
21.5621230551218
20
1.09597549105536
30
0
41
1
10
22.6633764407453
20
0.646929841551867
30
0
41
1
10
23.7448410575052
20
0.145130570801541
30
0
41
1
10
24.7947284094788
20
-0.403952462482238
30
0
0
SPLINE
5
F4
100
AcDbEntity
8
1
62
256
6
ByLayer
370
18
48
1
60
0
100
AcDbSpline
70
4
71
3
72
10
73
6
40
0
40
0
40
0
40
0
40
0.0478390320789136
40
0.0478390320789136
40
1
40
1
40
1
40
1
41
1
10
21.179783013942
20
1.93643354980054
30
0
41
1
10
21.1828882940105
20
1.9361155628734
30
0
41
1
10
21.1859937724355
20
1.93580321493144
30
0
41
1
10
21.2508311504018
20
1.92940013846695
30
0
41
1
10
21.3126733515285
20
1.92553183279361
30
0
41
1
10
21.3744413634377
20
1.9239499644851
30
0
0
SPLINE
5
F5
100
AcDbEntity
8
1
62
256
6
ByLayer
370
18
48
1
60
0
100
AcDbSpline
70
4
71
3
72
10
73
6
40
0
40
0
40
0
40
0
40
0.99107467309418
40
0.99107467309418
40
1
40
1
40
1
40
1
41
1
10
24.3735669398163
20
10.2349917989295
30
0
41
1
10
24.4221972368061
20
10.5890842261635
30
0
41
1
10
24.4188975894259
20
10.9400700261197
30
0
41
1
10
24.3657940289659
20
11.272112492243
30
0
41
1
10
24.3653135874151
20
11.2750896120068
30
0
41
1
10
24.3648290605679
20
11.2780652919417
30
0
0
SPLINE
5
F6
100
AcDbEntity
8
1
62
256
6
ByLayer
370
18
48
1
60
0
100
AcDbSpline
70
4
71
3
72
12
73
8
40
0
40
0
40
0
40
0
40
0.154194473010812
40
0.154194473010812
40
0.728703087218411
40
0.728703087218411
40
1
40
1
40
1
40
1
41
1
10
21.4806631715473
20
-12.5
30
0
41
1
10
21.2738389159298
20
-12.5
30
0
41
1
10
21.0674973404268
20
-12.5
30
0
41
1
10
20.0928815525555
20
-12.5
30
0
41
1
10
19.322890948945
20
-12.5
30
0
41
1
10
18.1848755429447
20
-12.5
30
0
41
1
10
17.819341932479
20
-12.5
30
0
41
1
10
17.455110308697
20
-12.5
30
0
0
SPLINE
5
F7
100
AcDbEntity
8
1
62
256
6
ByLayer
370
18
48
1
60
0
100
AcDbSpline
70
4
71
3
72
8
73
4
40
0
40
0
40
0
40
0
40
1
40
1
40
1
40
1
41
1
10
23.9687132203376
20
-9.56521244681218
30
0
41
1
10
23.739544529812
20
-10.1974012287079
30
0
41
1
10
23.5085900390085
20
-10.8345163506713
30
0
41
1
10
23.2819724743478
20
-11.459667551869
30
0
0
SPLINE
5
F8
100
AcDbEntity
8
1
62
256
6
ByLayer
370
18
48
1
60
0
100
AcDbSpline
70
4
71
3
72
10
73
6
40
0
40
0
40
0
40
0
40
0.691096122149003
40
0.691096122149003
40
1
40
1
40
1
40
1
41
1
10
21.3744413634377
20
1.92394996448513
30
0
41
1
10
21.5325762431805
20
1.91990015703624
30
0
41
1
10
21.6915991111584
20
1.93109441698533
30
0
41
1
10
21.9182823255806
20
1.97012234488102
30
0
41
1
10
21.9882485910756
20
1.98541897501647
30
0
41
1
10
22.0575040567988
20
2.00389136489832
30
0
0
SPLINE
5
F9
100
AcDbEntity
8
1
62
256
6
ByLayer
370
18
48
1
60
0
100
AcDbSpline
70
4
71
3
72
16
73
12
40
0
40
0
40
0
40
0
40
0.200866016619224
40
0.200866016619224
40
0.427171288909809
40
0.427171288909809
40
0.653316951557458
40
0.653316951557458
40
0.878440796857599
40
0.878440796857599
40
1
40
1
40
1
40
1
41
1
10
24.7947284094788
20
-0.403952462482238
30
0
41
1
10
24.9935128899102
20
-0.507915221229524
30
0
41
1
10
25.1789287693222
20
-0.643402421350572
30
0
41
1
10
25.5190361346079
20
-0.979593274617088
30
0
41
1
10
25.6714175774705
20
-1.19121562357691
30
0
41
1
10
25.8953486347689
20
-1.64623388358908
30
0
41
1
10
25.9700556664748
20
-1.89592633829099
30
0
41
1
10
26.032326420533
20
-2.39693584281096
30
0
41
1
10
26.0211271018763
20
-2.65518585257919
30
0
41
1
10
25.9400830950056
20
-3.03264177501626
30
0
41
1
10
25.8993822722366
20
-3.16293517318167
30
0
41
1
10
25.8474814518391
20
-3.28763247818077
30
0
0
SPLINE
5
FA
100
AcDbEntity
8
1
62
256
6
ByLayer
370
18
48
1
60
0
100
AcDbSpline
70
4
71
3
72
8
73
4
40
0
40
0
40
0
40
0
40
1
40
1
40
1
40
1
41
1
10
16.6066992054171
20
-5.21788011925278
30
0
41
1
10
16.6366256924771
20
-5.06465076689557
30
0
41
1
10
16.676498696955
20
-4.91304529420427
30
0
41
1
10
16.7258604260298
20
-4.76488665443995
30
0
0
SPLINE
5
FB
100
AcDbEntity
8
1
62
256
6
ByLayer
370
18
48
1
60
0
100
AcDbSpline
70
4
71
3
72
10
73
6
40
0
40
0
40
0
40
0
40
0.551823725316716
40
0.551823725316716
40
1
40
1
40
1
40
1
41
1
10
25.8346518944647
20
-4.41780118926602
30
0
41
1
10
25.4917931697158
20
-5.36361729994064
30
0
41
1
10
25.1482625954919
20
-6.31128678639834
30
0
41
1
10
24.5261470655844
20
-8.0274656332931
30
0
41
1
10
24.2472990264326
20
-8.79670074041505
30
0
41
1
10
23.9687132203376
20
-9.56521244681218
30
0
0
SPLINE
5
FC
100
AcDbEntity
8
1
62
256
6
ByLayer
370
18
48
1
60
0
100
AcDbSpline
70
4
71
3
72
18
73
14
40
0
40
0
40
0
40
0
40
0.0785097399853497
40
0.0785097399853497
40
0.301952014161957
40
0.301952014161957
40
0.525568683508748
40
0.525568683508748
40
0.750433166428639
40
0.750433166428639
40
0.97650816931709
40
0.97650816931709
40
1
40
1
40
1
40
1
41
1
10
18.6977147837422
20
0.0298571969184138
30
0
41
1
10
18.7364164540479
20
0.108218251199986
30
0
41
1
10
18.7799260181019
20
0.184424877814138
30
0
41
1
10
18.9631811646711
20
0.464894319719775
30
0
41
1
10
19.1368047114296
20
0.651735856227646
30
0
41
1
10
19.5316981830184
20
0.953904825693371
30
0
41
1
10
19.7583957063631
20
1.0733280669983
30
0
41
1
10
20.2339668961862
20
1.22972070117436
30
0
41
1
10
20.4894807679895
20
1.26838788810508
30
0
41
1
10
20.9939443458742
20
1.25991607539351
30
0
41
1
10
21.2498084506739
20
1.21219620513864
30
0
41
1
10
21.5125376108349
20
1.11568793720983
30
0
41
1
10
21.5374205148131
20
1.10604816679202
30
0
41
1
10
21.5621230551218
20
1.09597549105533
30
0
0
SPLINE
5
FD
100
AcDbEntity
8
1
62
256
6
ByLayer
370
18
48
1
60
0
100
AcDbSpline
70
4
71
3
72
18
73
14
40
0
40
0
40
0
40
0
40
0.0643182970604026
40
0.0643182970604026
40
0.264651150054737
40
0.264651150054737
40
0.48098742665607
40
0.48098742665607
40
0.695974774432245
40
0.695974774432245
40
0.909118877427673
40
0.909118877427673
40
1
40
1
40
1
40
1
41
1
10
24.8462670093228
20
10.1332194342845
30
0
41
1
10
24.8563838317144
20
10.2187823134978
30
0
41
1
10
24.8621635105237
20
10.3050436282314
30
0
41
1
10
24.8678251098457
20
10.6606408386546
30
0
41
1
10
24.8295717215362
20
10.9379964215779
30
0
41
1
10
24.6737937274572
20
11.4941824429933
30
0
41
1
10
24.5486398763773
20
11.7799720628731
30
0
41
1
10
24.2304914980512
20
12.2890261444975
30
0
41
1
10
24.032215546
20
12.5201196706237
30
0
41
1
10
23.5834894707837
20
12.8952638228066
30
0
41
1
10
23.3274483138441
20
13.0451518055827
30
0
41
1
10
22.9442346810947
20
13.1880845249478
30
0
41
1
10
22.8260819080134
20
13.2222665753655
30
0
41
1
10
22.7061932180223
20
13.2475554053281
30
0
0
SPLINE
5
FE
100
AcDbEntity
8
1
62
256
6
ByLayer
370
18
48
1
60
0
100
AcDbSpline
70
4
71
3
72
8
73
4
40
0
40
0
40
0
40
0
40
1
40
1
40
1
40
1
41
1
10
25.8474814518391
20
-3.28763247818077
30
0
41
1
10
25.1810491932852
20
-4.88880768060838
30
0
41
1
10
24.4106676598561
20
-6.43446986662491
30
0
41
1
10
23.5365403851066
20
-7.92504019419968
30
0
0
SPLINE
5
FF
100
AcDbEntity
8
1
62
256
6
ByLayer
370
18
48
1
60
0
100
AcDbSpline
70
4
71
3
72
10
73
6
40
0
40
0
40
0
40
0
40
0.529985986836594
40
0.529985986836594
40
1
40
1
40
1
40
1
41
1
10
23.5365403851066
20
-7.92504019419968
30
0
41
1
10
23.3315103428329
20
-8.27465941568221
30
0
41
1
10
23.0648139567391
20
-8.59252312405073
30
0
41
1
10
22.4844976106696
20
-9.08619548277701
30
0
41
1
10
22.1733929724181
20
-9.27923954638206
30
0
41
1
10
21.8437450208309
20
-9.42125425343124
30
0
0
SPLINE
5
100
100
AcDbEntity
8
1
62
256
6
ByLayer
370
18
48
1
60
0
100
AcDbSpline
70
4
71
3
72
14
73
10
40
0
40
0
40
0
40
0
40
0.217310863046047
40
0.217310863046047
40
0.616381562575316
40
0.616381562575316
40
0.9661058093259
40
0.9661058093259
40
1
40
1
40
1
40
1
41
1
10
21.1797830139419
20
1.93643354980077
30
0
41
1
10
21.0260086565826
20
1.91685253112098
30
0
41
1
10
20.8693273340022
20
1.91151992492058
30
0
41
1
10
20.4263387405393
20
1.9349642799763
30
0
41
1
10
20.1318118729299
20
1.99658081820346
30
0
41
1
10
19.6215173821352
20
2.19030763313034
30
0
41
1
10
19.3925591775352
20
2.31612632154872
30
0
41
1
10
19.1717196530515
20
2.49040367397001
30
0
41
1
10
19.1522231576231
20
2.50631024521502
30
0
41
1
10
19.1330001197971
20
2.52252885762246
30
0
0
SPLINE
5
101
100
AcDbEntity
8
1
62
256
6
ByLayer
370
18
48
1
60
0
100
AcDbSpline
70
4
71
3
72
8
73
4
40
0
40
0
40
0
40
0
40
1
40
1
40
1
40
1
41
1
10
16.7258604260298
20
-4.76488665443998
30
0
41
1
10
17.2729714132445
20
-3.12273956629838
30
0
41
1
10
17.9300350166109
20
-1.52449938325012
30
0
41
1
10
18.6977147837422
20
0.0298571969184138
30
0
0
SPLINE
5
102
100
AcDbEntity
8
1
62
256
6
ByLayer
370
18
48
1
60
0
100
AcDbSpline
70
4
71
3
72
14
73
10
40
0
40
0
40
0
40
0
40
0.0042643541461797
40
0.0042643541461797
40
0.49309049285856
40
0.49309049285856
40
0.871540816565351
40
0.871540816565351
40
1
40
1
40
1
40
1
41
1
10
24.3648290605679
20
11.2780652919417
30
0
41
1
10
24.3633192137182
20
11.2804100814684
30
0
41
1
10
24.3618052816846
20
11.2827534308666
30
0
41
1
10
24.1871587156968
20
11.5521891633431
30
0
41
1
10
23.9584080663873
20
11.8040662889186
30
0
41
1
10
23.4716763150443
20
12.1989058274004
30
0
41
1
10
23.2261688879354
20
12.3575640526254
30
0
41
1
10
22.8677867515964
20
12.5346932758228
30
0
41
1
10
22.7731666779953
20
12.5770360954462
30
0
41
1
10
22.6765892521514
20
12.6159467345169
30
0
0
SPLINE
5
103
100
AcDbEntity
8
1
62
256
6
ByLayer
370
18
48
1
60
0
100
AcDbSpline
70
4
71
3
72
8
73
4
40
0
40
0
40
0
40
0
40
1
40
1
40
1
40
1
41
1
10
12.492425750012
20
9.64189086670405
30
0
41
1
10
12.3264125677259
20
9.58277914673391
30
0
41
1
10
12.1637583857654
20
9.52605880355935
30
0
41
1
10
12.0068992954453
20
9.47211753920666
30
0
0
SPLINE
5
104
100
AcDbEntity
8
1
62
256
6
ByLayer
370
18
48
1
60
0
100
AcDbSpline
70
4
71
3
72
10
73
6
40
0
40
0
40
0
40
0
40
0.300940878612917
40
0.300940878612917
40
1
40
1
40
1
40
1
41
1
10
14.9843109918056
20
8.94793403093624
30
0
41
1
10
14.9420877217845
20
8.98013511574806
30
0
41
1
10
14.8997416791167
20
9.01261983968098
30
0
41
1
10
14.7592651819415
20
9.12111988153734
30
0
41
1
10
14.6604896261416
20
9.19860697430178
30
0
41
1
10
14.5618777557235
20
9.27755676609002
30
0
0
SPLINE
5
105
100
AcDbEntity
8
1
62
256
6
ByLayer
370
18
48
1
60
0
100
AcDbSpline
70
4
71
3
72
8
73
4
40
0
40
0
40
0
40
0
40
1
40
1
40
1
40
1
41
1
10
11.797839652607
20
8.26782370792111
30
0
41
1
10
11.770940205803
20
8.09335421468498
30
0
41
1
10
11.7461319122681
20
7.92255069606659
30
0
41
1
10
11.7230066003174
20
7.75654421140945
30
0
0
SPLINE
5
106
100
AcDbEntity
8
1
62
256
6
ByLayer
370
18
48
1
60
0
100
AcDbSpline
70
4
71
3
72
8
73
4
40
0
40
0
40
0
40
0
40
1
40
1
40
1
40
1
41
1
10
13.5552925555003
20
6.80643912087302
30
0
41
1
10
13.3892793732142
20
6.74732740090289
30
0
41
1
10
13.2266251912538
20
6.6906070577283
30
0
41
1
10
13.0697661009336
20
6.63666579337561
30
0
0
SPLINE
5
107
100
AcDbEntity
8
1
62
256
6
ByLayer
370
18
48
1
60
0
100
AcDbSpline
70
4
71
3
72
8
73
4
40
0
40
0
40
0
40
0
40
1
40
1
40
1
40
1
41
1
10
13.6375514911894
20
10.0678124489701
30
0
41
1
10
13.4698223553183
20
10.0031684904498
30
0
41
1
10
13.2982359753763
20
9.93778717262617
30
0
41
1
10
13.1285453690127
20
9.87427225375174
30
0
0
SPLINE
5
108
100
AcDbEntity
8
1
62
256
6
ByLayer
370
18
48
1
60
0
100
AcDbSpline
70
4
71
3
72
8
73
4
40
0
40
0
40
0
40
0
40
1
40
1
40
1
40
1
41
1
10
12.6473328648515
20
6.96628852852942
30
0
41
1
10
12.7885453947542
20
6.85323216131476
30
0
41
1
10
12.9300802349059
20
6.74319559120312
30
0
41
1
10
13.0697661009336
20
6.63666579337561
30
0
0
SPLINE
5
109
100
AcDbEntity
8
1
62
256
6
ByLayer
370
18
48
1
60
0
100
AcDbSpline
70
4
71
3
72
8
73
4
40
0
40
0
40
0
40
0
40
1
40
1
40
1
40
1
41
1
10
14.885998271906
20
8.41288766670363
30
0
41
1
10
14.9176346211168
20
8.59215200349459
30
0
41
1
10
14.9507462208142
20
8.77136039319075
30
0
41
1
10
14.9843109918056
20
8.94793403093624
30
0
0
SPLINE
5
10A
100
AcDbEntity
8
1
62
256
6
ByLayer
370
18
48
1
60
0
100
AcDbSpline
70
4
71
3
72
8
73
4
40
0
40
0
40
0
40
0
40
1
40
1
40
1
40
1
41
1
10
14.7004182966777
20
7.23236070313902
30
0
41
1
10
14.5326891608067
20
7.16771674461876
30
0
41
1
10
14.3611027808647
20
7.10233542679512
30
0
41
1
10
14.191412174501
20
7.03882050792066
30
0
0
SPLINE
5
10B
100
AcDbEntity
8
1
62
256
6
ByLayer
370
18
48
1
60
0
100
AcDbSpline
70
4
71
3
72
10
73
6
40
0
40
0
40
0
40
0
40
0.300940878612911
40
0.300940878612911
40
1
40
1
40
1
40
1
41
1
10
11.7230066003174
20
7.75654421140945
30
0
41
1
10
11.7620743034191
20
7.72114896121147
30
0
41
1
10
11.8014617121394
20
7.68566941372171
30
0
41
1
10
11.9329227976833
20
7.56804368494116
30
0
41
1
10
12.026656183349
20
7.48545274690119
30
0
41
1
10
12.1219601687895
20
7.40315460853472
30
0
0
SPLINE
5
10C
100
AcDbEntity
8
1
62
256
6
ByLayer
370
18
48
1
60
0
100
AcDbSpline
70
4
71
3
72
10
73
6
40
0
40
0
40
0
40
0
40
0.300940878612912
40
0.300940878612912
40
1
40
1
40
1
40
1
41
1
10
12.0068992954453
20
9.47211753920666
30
0
41
1
10
11.9967535704047
20
9.41874409064556
30
0
41
1
10
11.9866596753322
20
9.365188486916
30
0
41
1
10
11.9534901730973
20
9.18742142119851
30
0
41
1
10
11.930678946322
20
9.06225547386308
30
0
41
1
10
11.9085865755457
20
8.93707117497408
30
0
0
SPLINE
5
10D
100
AcDbEntity
8
1
62
256
6
ByLayer
370
18
48
1
60
0
100
AcDbSpline
70
4
71
3
72
10
73
6
40
0
40
0
40
0
40
0
40
0.300940878612905
40
0.300940878612905
40
1
40
1
40
1
40
1
41
1
10
14.7004182966777
20
7.23236070313902
30
0
41
1
10
14.7074084547989
20
7.28253998631396
30
0
41
1
10
14.7145437159239
20
7.3331007664867
30
0
41
1
10
14.7386978065274
20
7.50174214527999
30
0
41
1
10
14.7564668631687
20
7.6218042473399
30
0
41
1
10
14.7752513489674
20
7.74364019965069
30
0
0
SPLINE
5
10E
100
AcDbEntity
8
1
62
256
6
ByLayer
370
18
48
1
60
0
100
AcDbSpline
70
4
71
3
72
8
73
4
40
0
40
0
40
0
40
0
40
1
40
1
40
1
40
1
41
1
10
14.0365050596615
20
9.71442284609532
30
0
41
1
10
13.9000294321655
20
9.83227405686478
30
0
41
1
10
13.7667978981765
20
9.95071549805422
30
0
41
1
10
13.6375514911894
20
10.0678124489701
30
0
0
LINE
5
75
100
AcDbEntity
8
80
62
256
6
ByLayer
370
18
48
1
60
0
100
AcDbLine
10
0
20
0
30
0
11
-5
21
0
31
0
39
0
210
0
220
0
230
1
0
LINE
5
76
100
AcDbEntity
8
1
62
256
6
ByLayer
370
13
48
1
60
0
100
AcDbLine
10
30.426099
20
6.475176
30
0
11
30.918474
21
6.973574
31
0
39
0
210
0
220
0
230
1
0
LINE
5
78
100
AcDbEntity
8
1
62
256
6
ByLayer
370
18
48
1
60
0
100
AcDbLine
10
25.875164
20
-3.572711
30
0
11
25.994979
21
-2.753358
31
0
39
0
210
0
220
0
230
1
0
LINE
5
79
100
AcDbEntity
8
1
62
256
6
ByLayer
370
18
48
1
60
0
100
AcDbLine
10
20.347751
20
1.236529
30
0
11
19.523643
21
1.105767
31
0
39
0
210
0
220
0
230
1
0
LINE
5
7A
100
AcDbEntity
8
1
62
256
6
ByLayer
370
13
48
1
60
0
100
AcDbLine
10
19.476367
20
18.29125
30
0
11
18.983992
21
17.792853
31
0
39
0
210
0
220
0
230
1
0
LINE
5
7B
100
AcDbEntity
8
81
62
256
6
ByLayer
370
18
48
1
60
0
100
AcDbLine
10
32
20
19.5
30
0
11
37
21
19.5
31
0
39
0
210
0
220
0
230
1
0
LINE
5
7C
100
AcDbEntity
8
SK1
62
256
6
ByLayer
370
18
48
1
60
0
100
AcDbLine
10
-81
20
-12.5
30
0
11
-84
21
-9.5
31
0
39
0
210
0
220
0
230
1
0
LINE
5
7E
100
AcDbEntity
8
SK1
62
256
6
ByLayer
370
18
48
1
60
0
100
AcDbLine
10
-81
20
-12.5
30
0
11
0
21
-12.5
31
0
39
0
210
0
220
0
230
1
0
LINE
5
7F
100
AcDbEntity
8
SK1
62
256
6
ByLayer
370
18
48
1
60
0
100
AcDbLine
10
-81
20
12.425
30
0
11
0
21
12.425
31
0
39
0
210
0
220
0
230
1
0
LINE
5
80
100
AcDbEntity
8
SK1
62
256
6
ByLayer
370
18
48
1
60
0
100
AcDbLine
10
-81
20
12.425
30
0
11
-84
21
9.425
31
0
39
0
210
0
220
0
230
1
0
LINE
5
81
100
AcDbEntity
8
SK1
62
256
6
ByLayer
370
18
48
1
60
0
100
AcDbLine
10
0
20
-12.5
30
0
11
0
21
12.425
31
0
39
0
210
0
220
0
230
1
0
LINE
5
82
100
AcDbEntity
8
SK1
62
256
6
ByLayer
370
18
48
1
60
0
100
AcDbLine
10
-84
20
9.425
30
0
11
-84
21
-9.5
31
0
39
0
210
0
220
0
230
1
0
LINE
5
83
100
AcDbEntity
8
1
62
256
6
ByLayer
370
18
48
1
60
0
100
AcDbLine
10
29.522556
20
6.640415
30
0
11
29.436585
21
5.518554
31
0
39
0
210
0
220
0
230
1
0
LINE
5
84
100
AcDbEntity
8
1
62
256
6
ByLayer
370
18
48
1
60
0
100
AcDbLine
10
18.209566
20
4.716668
30
0
11
18.582342
21
9.581094
31
0
39
0
210
0
220
0
230
1
0
LINE
5
85
100
AcDbEntity
8
1
62
256
6
ByLayer
370
13
48
1
60
0
100
AcDbLine
10
16.72586
20
-4.764887
30
0
11
15.414792
21
-5.300834
31
0
39
0
210
0
220
0
230
1
0
LINE
5
86
100
AcDbEntity
8
1
62
256
6
ByLayer
370
18
48
1
60
0
100
AcDbLine
10
0.772277
20
-12.5
30
0
11
2.317758
21
-12.5
31
0
39
0
210
0
220
0
230
1
0
LINE
5
87
100
AcDbEntity
8
1
62
256
6
ByLayer
370
18
48
1
60
0
100
AcDbLine
10
0
20
-12.5
30
0
11
0.772277
21
-12.5
31
0
39
0
210
0
220
0
230
1
0
LINE
5
88
100
AcDbEntity
8
1
62
256
6
ByLayer
370
13
48
1
60
0
100
AcDbLine
10
25.688205
20
-4.249838
30
0
11
25.847481
21
-3.287632
31
0
39
0
210
0
220
0
230
1
0
LINE
5
89
100
AcDbEntity
8
1
62
256
6
ByLayer
370
13
48
1
60
0
100
AcDbLine
10
2.317758
20
12.520856
30
0
11
2.317758
21
-12.5
31
0
39
0
210
0
220
0
230
1
0
LINE
5
8A
100
AcDbEntity
8
1
62
256
6
ByLayer
370
13
48
1
60
0
100
AcDbLine
10
23.53654
20
-7.92504
30
0
11
23.338102
21
-8.977248
31
0
39
0
210
0
220
0
230
1
0
LINE
5
8B
100
AcDbEntity
8
1
62
256
6
ByLayer
370
18
48
1
60
0
100
AcDbLine
10
23.394051
20
5.674006
30
0
11
23.223275
21
3.445512
31
0
39
0
210
0
220
0
230
1
0
LINE
5
8C
100
AcDbEntity
8
1
62
256
6
ByLayer
370
18
48
1
60
0
100
AcDbLine
10
18.926268
20
14.069046
30
0
11
19.142441
21
16.889916
31
0
39
0
210
0
220
0
230
1
0
LINE
5
8D
100
AcDbEntity
8
1
62
256
6
ByLayer
370
18
48
1
60
0
100
AcDbLine
10
2.317758
20
-12.5
30
0
11
3.6047
21
-12.5
31
0
39
0
210
0
220
0
230
1
0
LINE
5
8E
100
AcDbEntity
8
1
62
256
6
ByLayer
370
18
48
1
60
0
100
AcDbLine
10
18.49966
20
10.456373
30
0
11
18.711429
21
13.219793
31
0
39
0
210
0
220
0
230
1
0
LINE
5
8F
100
AcDbEntity
8
1
62
256
6
ByLayer
370
13
48
1
60
0
100
AcDbLine
10
0.772277
20
-12.5
30
0
11
0.772277
21
12.425
31
0
39
0
210
0
220
0
230
1
0
LINE
5
90
100
AcDbEntity
8
1
62
256
6
ByLayer
370
18
48
1
60
0
100
AcDbLine
10
0
20
-12.5
30
0
11
0
21
12.425
31
0
39
0
210
0
220
0
230
1
0
LINE
5
91
100
AcDbEntity
8
1
62
256
6
ByLayer
370
13
48
1
60
0
100
AcDbLine
10
23.223275
20
3.445512
30
0
11
23.895943
21
4.219248
31
0
39
0
210
0
220
0
230
1
0
LINE
5
92
100
AcDbEntity
8
1
62
256
6
ByLayer
370
18
48
1
60
0
100
AcDbLine
10
0.772277
20
12.425
30
0
11
1.772277
21
12.425
31
0
39
0
210
0
220
0
230
1
0
LINE
5
93
100
AcDbEntity
8
1
62
256
6
ByLayer
370
18
48
1
60
0
100
AcDbLine
10
23.531499
20
5.500174
30
0
11
23.528766
21
5.658013
31
0
39
0
210
0
220
0
230
1
0
LINE
5
94
100
AcDbEntity
8
1
62
256
6
ByLayer
370
18
48
1
60
0
100
AcDbLine
10
17.45511
20
-12.5
30
0
11
3.6047
21
-12.5
31
0
39
0
210
0
220
0
230
1
0
LINE
5
95
100
AcDbEntity
8
1
62
256
6
ByLayer
370
18
48
1
60
0
100
AcDbLine
10
29.436585
20
5.518554
30
0
11
26.916263
21
-1.434049
31
0
39
0
210
0
220
0
230
1
0
LINE
5
96
100
AcDbEntity
8
1
62
256
6
ByLayer
370
13
48
1
60
0
100
AcDbLine
10
18.697715
20
0.029857
30
0
11
17.43999
21
-0.422668
31
0
39
0
210
0
220
0
230
1
0
LINE
5
97
100
AcDbEntity
8
1
62
256
6
ByLayer
370
18
48
1
60
0
100
AcDbLine
10
22.904852
20
-12.5
30
0
11
21.480663
21
-12.5
31
0
39
0
210
0
220
0
230
1
0
LINE
5
98
100
AcDbEntity
8
1
62
256
6
ByLayer
370
18
48
1
60
0
100
AcDbLine
10
3.6047
20
-12.5
30
0
11
2.904397
21
12.894379
31
0
39
0
210
0
220
0
230
1
0
LINE
5
99
100
AcDbEntity
8
1
62
256
6
ByLayer
370
18
48
1
60
0
100
AcDbLine
10
23.531499
20
5.500174
30
0
11
24.042896
21
6.136859
31
0
39
0
210
0
220
0
230
1
0
LINE
5
9A
100
AcDbEntity
8
1
62
256
6
ByLayer
370
18
48
1
60
0
100
AcDbLine
10
3.837586
20
15.550915
30
0
11
19.142441
21
16.889916
31
0
39
0
210
0
220
0
230
1
0
LINE
5
9B
100
AcDbEntity
8
1
62
256
6
ByLayer
370
18
48
1
60
0
100
AcDbLine
10
23.528766
20
5.658013
30
0
11
23.668651
21
5.670868
31
0
39
0
210
0
220
0
230
1
0
LINE
5
9C
100
AcDbEntity
8
1
62
256
6
ByLayer
370
18
48
1
60
0
100
AcDbLine
10
0
20
12.425
30
0
11
0.772277
21
12.425
31
0
39
0
210
0
220
0
230
1
0
LINE
5
9D
100
AcDbEntity
8
1
62
256
6
ByLayer
370
13
48
1
60
0
100
AcDbLine
10
23.031429
20
3.442166
30
0
11
23.223275
21
3.445512
31
0
39
0
210
0
220
0
230
1
0
LINE
5
9E
100
AcDbEntity
8
1
62
256
6
ByLayer
370
18
48
1
60
0
100
AcDbLine
10
3.837586
20
15.550915
30
0
11
3.317758
21
13.61089
31
0
39
0
210
0
220
0
230
1
0
LINE
5
9F
100
AcDbEntity
8
1
62
256
6
ByLayer
370
18
48
1
60
0
100
AcDbLine
10
23.895943
20
4.219248
30
0
11
24.042896
21
6.136859
31
0
39
0
210
0
220
0
230
1
0
LINE
5
A0
100
AcDbEntity
8
1
62
256
6
ByLayer
370
18
48
1
60
0
100
AcDbLine
10
23.281972
20
-11.459668
30
0
11
22.904852
21
-12.5
31
0
39
0
210
0
220
0
230
1
0
LINE
5
A1
100
AcDbEntity
8
1
62
256
6
ByLayer
370
18
48
1
60
0
100
AcDbLine
10
23.031429
20
3.442166
30
0
11
23.201169
21
5.657129
31
0
39
0
210
0
220
0
230
1
0
LINE
5
A2
100
AcDbEntity
8
1
62
256
6
ByLayer
370
18
48
1
60
0
100
AcDbLine
10
23.528766
20
5.658013
30
0
11
23.530912
21
5.686018
31
0
39
0
210
0
220
0
230
1
0
LINE
5
A3
100
AcDbEntity
8
1
62
256
6
ByLayer
370
18
48
1
60
0
100
AcDbLine
10
18.224063
20
4.182318
30
0
11
18.314811
21
5.366506
31
0
39
0
210
0
220
0
230
1
0
LINE
5
A4
100
AcDbEntity
8
1
62
256
6
ByLayer
370
13
48
1
60
0
100
AcDbLine
10
19.261685
20
5.767823
30
0
11
30.431154
21
6.745024
31
0
39
0
210
0
220
0
230
1
0
LINE
5
A5
100
AcDbEntity
8
1
62
256
6
ByLayer
370
13
48
1
60
0
100
AcDbLine
10
31.133156
20
19.497001
30
0
11
19.963687
21
18.519799
31
0
39
0
210
0
220
0
230
1
0
LINE
5
A6
100
AcDbEntity
8
1
62
256
6
ByLayer
370
13
48
1
60
0
100
AcDbLine
10
19.253841
20
17.802267
30
0
11
18.761466
21
17.303869
31
0
39
0
210
0
220
0
230
1
0
LINE
5
A7
100
AcDbEntity
8
1
62
256
6
ByLayer
370
13
48
1
60
0
100
AcDbLine
10
18.352169
20
6.57755
30
0
11
18.397144
21
6.623076
31
0
39
0
210
0
220
0
230
1
0
LINE
5
A8
100
AcDbEntity
8
1
62
256
6
ByLayer
370
13
48
1
60
0
100
AcDbLine
10
29.938779
20
6.246627
30
0
11
29.489208
21
6.207295
31
0
39
0
210
0
220
0
230
1
0
LINE
5
A9
100
AcDbEntity
8
1
62
256
6
ByLayer
370
13
48
1
60
0
100
AcDbLine
10
23.692254
20
5.700127
30
0
11
18.76931
21
5.269425
31
0
39
0
210
0
220
0
230
1
0
LINE
5
AA
100
AcDbEntity
8
1
62
256
6
ByLayer
370
13
48
1
60
0
100
AcDbLine
10
31.141
20
7.462557
30
0
11
31.997697
21
18.641748
31
0
39
0
210
0
220
0
230
1
0
LINE
5
AB
100
AcDbEntity
8
1
62
256
6
ByLayer
370
13
48
1
60
0
100
AcDbLine
10
29.938779
20
6.246627
30
0
11
30.431154
21
6.745024
31
0
39
0
210
0
220
0
230
1
0
LINE
5
AC
100
AcDbEntity
8
1
62
256
6
ByLayer
370
13
48
1
60
0
100
AcDbLine
10
18.726958
20
16.853558
30
0
11
18.761466
21
17.303869
31
0
39
0
210
0
220
0
230
1
0
LINE
5
AD
100
AcDbEntity
8
1
62
256
6
ByLayer
370
13
48
1
60
0
100
AcDbLine
10
19.261685
20
5.767823
30
0
11
18.76931
21
5.269425
31
0
39
0
210
0
220
0
230
1
0
LINE
5
AE
100
AcDbEntity
8
1
62
256
6
ByLayer
370
13
48
1
60
0
100
AcDbLine
10
19.253841
20
17.802267
30
0
11
18.397144
21
6.623076
31
0
39
0
210
0
220
0
230
1
0
LINE
5
AF
100
AcDbEntity
8
1
62
256
6
ByLayer
370
18
48
1
60
0
100
AcDbLine
10
14.581256
20
8.539949
30
0
11
14.984311
21
8.947934
31
0
39
0
210
0
220
0
230
1
0
LINE
5
B0
100
AcDbEntity
8
1
62
256
6
ByLayer
370
18
48
1
60
0
100
AcDbLine
10
14.036505
20
9.714423
30
0
11
13.64519
21
9.318321
31
0
39
0
210
0
220
0
230
1
0
LINE
5
B1
100
AcDbEntity
8
1
62
256
6
ByLayer
370
18
48
1
60
0
100
AcDbLine
10
13.64519
20
9.318321
30
0
11
13.234496
21
9.659827
31
0
39
0
210
0
220
0
230
1
0
LINE
5
B2
100
AcDbEntity
8
1
62
256
6
ByLayer
370
18
48
1
60
0
100
AcDbLine
10
14.494683
20
8.016786
30
0
11
14.581256
21
8.539949
31
0
39
0
210
0
220
0
230
1
0
LINE
5
B3
100
AcDbEntity
8
1
62
256
6
ByLayer
370
18
48
1
60
0
100
AcDbLine
10
12.73723
20
9.478171
30
0
11
13.128545
21
9.874272
31
0
39
0
210
0
220
0
230
1
0
LINE
5
B4
100
AcDbEntity
8
1
62
256
6
ByLayer
370
18
48
1
60
0
100
AcDbLine
10
14.342261
20
7.095693
30
0
11
14.383936
21
7.347539
31
0
39
0
210
0
220
0
230
1
0
LINE
5
B5
100
AcDbEntity
8
1
62
256
6
ByLayer
370
18
48
1
60
0
100
AcDbLine
10
14.885998
20
8.412888
30
0
11
14.494683
21
8.016786
31
0
39
0
210
0
220
0
230
1
0
LINE
5
B6
100
AcDbEntity
8
1
62
256
6
ByLayer
370
18
48
1
60
0
100
AcDbLine
10
13.234496
20
9.659827
30
0
11
13.637551
21
10.067812
31
0
39
0
210
0
220
0
230
1
0
LINE
5
B7
100
AcDbEntity
8
1
62
256
6
ByLayer
370
18
48
1
60
0
100
AcDbLine
10
14.170563
20
8.881455
30
0
11
14.561878
21
9.277557
31
0
39
0
210
0
220
0
230
1
0
LINE
5
B8
100
AcDbEntity
8
1
62
256
6
ByLayer
370
18
48
1
60
0
100
AcDbLine
10
13.234496
20
9.659827
30
0
11
12.73723
21
9.478171
31
0
39
0
210
0
220
0
230
1
0
LINE
5
B9
100
AcDbEntity
8
1
62
256
6
ByLayer
370
18
48
1
60
0
100
AcDbLine
10
12.492426
20
9.641891
30
0
11
12.101111
21
9.245789
31
0
39
0
210
0
220
0
230
1
0
LINE
5
BA
100
AcDbEntity
8
1
62
256
6
ByLayer
370
18
48
1
60
0
100
AcDbLine
10
14.383936
20
7.347539
30
0
11
14.775251
21
7.74364
31
0
39
0
210
0
220
0
230
1
0
LINE
5
BB
100
AcDbEntity
8
1
62
256
6
ByLayer
370
18
48
1
60
0
100
AcDbLine
10
12.101111
20
9.245789
30
0
11
11.954992
21
9.19241
31
0
39
0
210
0
220
0
230
1
0
LINE
5
BC
100
AcDbEntity
8
1
62
256
6
ByLayer
370
18
48
1
60
0
100
AcDbLine
10
14.581256
20
8.539949
30
0
11
14.170563
21
8.881455
31
0
39
0
210
0
220
0
230
1
0
MTEXT
5
10F
100
AcDbEntity
8
SK6
62
256
6
ByLayer
370
18
48
1
60
0
100
AcDbMText
10
-43.694104
20
-51.125025
30
0
210
0
220
0
230
1
1
\W0.7565;QS-PCLNR2525-12C
40
3.5
41
0
44
1.084337
50
0
71
7
72
5
7
iso_b_vert
0
DIMENSION
5
120
100
AcDbEntity
8
2
62
256
6
ByLayer
370
13
48
1
60
0
100
AcDbDimension
2
DimnDraft3D1
10
34.522884
20
19.5
30
0
11
34.522884
21
-0.607895
31
0
70
32
71
5
72
1
41
1
210
0
220
0
230
1
3
Standard
100
AcDbAlignedDimension
13
27
23
-12.5
33
0
14
34
24
19.5
34
0
50
90
100
AcDbRotatedDimension
1001
ACAD
1000
DSTYLE
1002
{
1070
    74
1070
     0
1070
   279
1070
     0
1070
   172
1070
     1
1070
   173
1070
     1
1070
   340
1005
110
1070
   271
1070
     1
1070
    77
1070
     1
1070
    73
1070
     0
1070
   171
1070
     3
1070
   274
1070
     4
1070
   177
1070
     2
1070
   176
1070
     2
1070
   178
1070
     7
1070
    78
1070
     8
1070
    41
1041
3.175
1070
   147
1041
1.75
1070
    42
1041
2.0
1070
    44
1041
2.0
1070
   140
1041
3.5
1070
   343
1005
121
1070
   344
1005
121
1002
}
0
DIMENSION
5
136
100
AcDbEntity
8
SK2
62
256
6
ByLayer
370
13
48
1
60
0
100
AcDbDimension
2
DimnDraft3D2
10
-98.60005
20
-12.5
30
0
11
-98.60005
21
-4.107895
31
0
70
32
71
5
72
1
41
1
210
0
220
0
230
1
3
Standard
100
AcDbAlignedDimension
13
-2
23
12.5
33
0
14
-86
24
-12.5
34
0
50
90
100
AcDbRotatedDimension
1001
ACAD
1000
DSTYLE
1002
{
1070
    74
1070
     0
1070
   279
1070
     0
1070
   172
1070
     1
1070
   173
1070
     1
1070
   340
1005
110
1070
   271
1070
     1
1070
    77
1070
     1
1070
    73
1070
     0
1070
   171
1070
     3
1070
   274
1070
     4
1070
   177
1070
     2
1070
   176
1070
     2
1070
   178
1070
     7
1070
    78
1070
     8
1070
    41
1041
3.175
1070
   147
1041
1.75
1070
    42
1041
2.0
1070
    44
1041
2.0
1070
   140
1041
3.5
1070
   343
1005
121
1070
   344
1005
121
1002
}
0
DIMENSION
5
144
100
AcDbEntity
8
2
62
256
6
ByLayer
370
13
48
1
60
0
100
AcDbDimension
2
DimnDraft3D3
10
37
20
19.5
30
0
11
25.556998
21
27.295799
31
0
70
34
71
5
72
1
41
1
210
0
220
0
230
1
3
Standard
100
AcDb2LineAngularDimension
13
32
23
19.5
33
0
14
31.562557
24
14.5
34
0
15
32
25
19.5
35
0
16
27.19406
26
24.744763
36
0
40
0
0
DIMENSION
5
152
100
AcDbEntity
8
SK2
62
256
6
ByLayer
370
13
48
1
60
0
100
AcDbDimension
2
DimnDraft3D4
10
32
20
-40.344955
30
0
11
-30.540789
21
-40.344955
31
0
70
32
71
5
72
1
41
1
210
0
220
0
230
1
3
Standard
100
AcDbAlignedDimension
13
-84
23
-14.5
33
0
14
32
24
17.5
34
0
50
0
100
AcDbRotatedDimension
1001
ACAD
1000
DSTYLE
1002
{
1070
   279
1070
     0
1070
   172
1070
     1
1070
   173
1070
     1
1070
   340
1005
110
1070
   271
1070
     1
1070
    77
1070
     1
1070
    73
1070
     0
1070
   171
1070
     3
1070
   274
1070
     4
1070
   177
1070
     2
1070
   176
1070
     2
1070
   178
1070
     7
1070
    78
1070
     8
1070
    41
1041
3.175
1070
   147
1041
1.75
1070
    42
1041
2.0
1070
    44
1041
2.0
1070
   140
1041
3.5
1070
   343
1005
121
1070
   344
1005
121
1002
}
0
DIMENSION
5
160
100
AcDbEntity
8
2
62
256
6
ByLayer
370
13
48
1
60
0
100
AcDbDimension
2
DimnDraft3D5
10
32
20
-25.60005
30
0
11
11.892105
21
-25.60005
31
0
70
32
71
5
72
1
41
1
210
0
220
0
230
1
3
Standard
100
AcDbAlignedDimension
13
0
23
10.5
33
0
14
32
24
17.5
34
0
50
0
100
AcDbRotatedDimension
1001
ACAD
1000
DSTYLE
1002
{
1070
   279
1070
     0
1070
   172
1070
     1
1070
   173
1070
     1
1070
   340
1005
110
1070
   271
1070
     1
1070
    77
1070
     1
1070
    73
1070
     0
1070
   171
1070
     3
1070
   274
1070
     4
1070
   177
1070
     2
1070
   176
1070
     2
1070
   178
1070
     7
1070
    78
1070
     8
1070
    41
1041
3.175
1070
   147
1041
1.75
1070
    42
1041
2.0
1070
    44
1041
2.0
1070
   140
1041
3.5
1070
   343
1005
121
1070
   344
1005
121
1002
}
0
DIMENSION
5
16E
100
AcDbEntity
8
SK2
62
256
6
ByLayer
370
13
48
1
60
0
100
AcDbDimension
2
DimnDraft3D6
10
-81
20
-25.60005
30
0
11
-65.145
21
-25.60005
31
0
70
32
71
5
72
1
41
1
210
0
220
0
230
1
3
Standard
100
AcDbAlignedDimension
13
-84
23
-14.5
33
0
14
-81
24
-14.5
34
0
50
0
100
AcDbRotatedDimension
1001
ACAD
1000
DSTYLE
1002
{
1070
   279
1070
     0
1070
   172
1070
     1
1070
   173
1070
     1
1070
   340
1005
110
1070
    77
1070
     1
1070
    73
1070
     0
1070
   171
1070
     3
1070
   274
1070
     4
1070
   177
1070
     2
1070
   176
1070
     2
1070
   178
1070
     7
1070
    78
1070
     8
1070
    41
1041
3.175
1070
   147
1041
1.75
1070
    42
1041
2.0
1070
    44
1041
2.0
1070
   140
1041
3.5
1070
   343
1005
121
1070
   344
1005
121
1002
}
0
ENDSEC
0
SECTION
2
OBJECTS
0
DICTIONARY
5
1d8
330
0
100
AcDbDictionary
280
0
281
1
3
ACAD_GROUP
350
1d9
3
ACAD_MLINESTYLE
350
1da
0
DICTIONARY
5
1d9
330
0
100
AcDbDictionary
280
0
281
1
0
DICTIONARY
5
1da
330
0
100
AcDbDictionary
280
0
281
1
3
Standard
350
18
0
MLINESTYLE
5
18
330
1da
100
AcDbMlineStyle
2
Standard
70
0
3

62
256
51
90
52
90
71
2
49
-0.5
62
256
6
ByLayer
49
0.5
62
256
6
ByLayer
0
RASTERVARIABLES
5
1c7
330

100
AcDbRasterVariables
90
0
70
1
71
1
72
1
0
ENDSEC
0
EOF
