0
SECTION
2
HEADER
9
$ACADVER
1
AC1015
9
$DWGCODEPAGE
3
ANSI_1252
9
$HANDSEED
5
1e6
9
$ANGBASE
50
0
9
$ANGDIR
70
0
9
$ATTMODE
70
1
9
$AUNITS
70
0
9
$AUPREC
70
0
9
$CECOLOR
62
256
9
$CELTSCALE
40
1
9
$CELTYPE
6
ByLayer
9
$CELWEIGHT
370
18
9
$CLAYER
8
0
9
$CMLJUST
70
0
9
$CMLSCALE
40
1
9
$CMLSTYLE
2
Standard
9
$DIMSTYLE
2
Standard
9
$TEXTSIZE
40
0.2
9
$TEXTSTYLE
7
Standard
9
$LUNITS
70
2
9
$LUPREC
70
4
9
$EXTNAMES
290
1
9
$INSUNITS
70
4
9
$LTSCALE
40
1
9
$LWDISPLAY
290
1
9
$PDMODE
70
0
9
$PDSIZE
40
0
9
$PLINEGEN
70
0
0
ENDSEC
0
SECTION
2
CLASSES
0
CLASS
1
RASTERVARIABLES
2
AcDbRasterVariables
3
ISM
90
0
280
0
281
0
0
ENDSEC
0
SECTION
2
TABLES
0
TABLE
2
VPORT
5
1dc
100
AcDbSymbolTable
0
VPORT
5
1
100
AcDbSymbolTableRecord
100
AcDbViewportTableRecord
2
*Active
70
0
10
0
20
0
11
1
21
1
12
-1
22
1
13
0
23
0
14
0.5
24
0.5
15
10
25
10
16
0
26
0
36
1
17
0
27
0
37
0
0
ENDTAB
0
TABLE
2
LTYPE
5
1dd
100
AcDbSymbolTable
0
LTYPE
5
14
100
AcDbSymbolTableRecord
100
AcDbLinetypeTableRecord
70
0
2
ByBlock
3

72
65
73
0
40
0
0
LTYPE
5
15
100
AcDbSymbolTableRecord
100
AcDbLinetypeTableRecord
70
0
2
ByLayer
3

72
65
73
0
40
0
0
LTYPE
5
16
100
AcDbSymbolTableRecord
100
AcDbLinetypeTableRecord
70
0
2
CONTINUOUS
3
Solid line
72
65
73
0
40
0
0
LTYPE
5
6A
100
AcDbSymbolTableRecord
100
AcDbLinetypeTableRecord
70
0
2
CENTER
3
____ _ ____ _ ____ _ ____
72
65
73
4
40
47.5
49
22
74
0
49
-8.5
74
0
49
8.5
74
0
49
-8.5
74
0
0
LTYPE
5
6B
100
AcDbSymbolTableRecord
100
AcDbLinetypeTableRecord
70
0
2
DASHED
3
__ __ __ __ __ __ __ __ __
72
65
73
2
40
25.72
49
12.86
74
0
49
-12.86
74
0
0
ENDTAB
0
TABLE
2
LAYER
5
1de
100
AcDbSymbolTable
0
LAYER
5
10
100
AcDbSymbolTableRecord
100
AcDbLayerTableRecord
2
0
70
0
62
7
6
CONTINUOUS
290
1
370
-3
390
0
0
LAYER
5
6D
100
AcDbSymbolTableRecord
100
AcDbLayerTableRecord
2
80
70
0
62
-6
6
CONTINUOUS
290
1
370
-3
390
0
0
LAYER
5
6F
100
AcDbSymbolTableRecord
100
AcDbLayerTableRecord
2
81
70
0
62
-3
6
CONTINUOUS
290
1
370
-3
390
0
0
LAYER
5
71
100
AcDbSymbolTableRecord
100
AcDbLayerTableRecord
2
2
70
0
62
7
6
CONTINUOUS
290
1
370
-3
390
0
0
LAYER
5
78
100
AcDbSymbolTableRecord
100
AcDbLayerTableRecord
2
1
70
0
62
4
6
CONTINUOUS
290
1
370
-3
390
0
0
LAYER
5
1c9
100
AcDbSymbolTableRecord
100
AcDbLayerTableRecord
2
SK1
70
0
62
4
6
CONTINUOUS
290
1
370
-3
390
0
0
LAYER
5
1ca
100
AcDbSymbolTableRecord
100
AcDbLayerTableRecord
2
SK6
70
0
62
5
6
CONTINUOUS
290
1
370
-3
390
0
0
LAYER
5
1cb
100
AcDbSymbolTableRecord
100
AcDbLayerTableRecord
2
SK2
70
0
62
7
6
CONTINUOUS
290
1
370
-3
390
0
0
ENDTAB
0
TABLE
2
STYLE
5
1df
100
AcDbSymbolTable
0
STYLE
5
11
100
AcDbSymbolTableRecord
100
AcDbTextStyleTableRecord
2
Standard
3
txt
70
0
71
0
40
0
41
1
42
0
50
0
0
STYLE
5
111
100
AcDbSymbolTableRecord
100
AcDbTextStyleTableRecord
2
iso_b_vert
3
simplex.shx
70
0
71
0
40
0
41
1
42
0
50
0
0
STYLE
5
112
100
AcDbSymbolTableRecord
100
AcDbTextStyleTableRecord
2
DWGDirectTextStyle
3
simplex
70
0
71
0
40
0
41
1
42
0
50
0
0
ENDTAB
0
TABLE
2
DIMSTYLE
5
1e0
100
AcDbSymbolTable
100
AcDbDimStyleTable
0
DIMSTYLE
105
27
100
AcDbSymbolTableRecord
100
AcDbDimStyleTableRecord
2
Standard
70
0
3
<>
41
0.18
42
0.0625
44
0.18
140
0.18
147
0.09
73
0
74
0
77
1
271
2
275
0
278
52
280
0
340
11
0
ENDTAB
0
TABLE
2
VIEW
5
1e1
100
AcDbSymbolTable
0
ENDTAB
0
TABLE
2
UCS
5
1e2
100
AcDbSymbolTable
0
ENDTAB
0
TABLE
2
APPID
5
1e3
100
AcDbSymbolTable
0
APPID
5
12
100
AcDbSymbolTableRecord
100
AcDbRegAppTableRecord
2
ACAD
70
0
0
ENDTAB
0
TABLE
2
BLOCK_RECORD
5
1e4
100
AcDbSymbolTable
0
BLOCK_RECORD
5
1F
100
AcDbSymbolTableRecord
100
AcDbBlockTableRecord
2
*Model_Space
340
0
70
0
0
BLOCK_RECORD
5
1B
100
AcDbSymbolTableRecord
100
AcDbBlockTableRecord
2
*Paper_Space
340
0
70
0
0
BLOCK_RECORD
5
23
100
AcDbSymbolTableRecord
100
AcDbBlockTableRecord
2
*Paper_Space0
340
0
70
0
0
BLOCK_RECORD
5
114
100
AcDbSymbolTableRecord
100
AcDbBlockTableRecord
2
DimnDraft3D1
340
0
70
0
0
BLOCK_RECORD
5
122
100
AcDbSymbolTableRecord
100
AcDbBlockTableRecord
2
_CLOSED
340
0
70
0
0
BLOCK_RECORD
5
129
100
AcDbSymbolTableRecord
100
AcDbBlockTableRecord
2
DimnDraft3D2
340
0
70
0
0
BLOCK_RECORD
5
138
100
AcDbSymbolTableRecord
100
AcDbBlockTableRecord
2
DimnDraft3D3
340
0
70
0
0
BLOCK_RECORD
5
146
100
AcDbSymbolTableRecord
100
AcDbBlockTableRecord
2
DimnDraft3D4
340
0
70
0
0
BLOCK_RECORD
5
154
100
AcDbSymbolTableRecord
100
AcDbBlockTableRecord
2
DimnDraft3D5
340
0
70
0
0
BLOCK_RECORD
5
162
100
AcDbSymbolTableRecord
100
AcDbBlockTableRecord
2
DimnDraft3D6
340
0
70
0
0
ENDTAB
0
ENDSEC
0
SECTION
2
BLOCKS
0
BLOCK
5
20
100
AcDbEntity
8
0
100
AcDbBlockBegin
2
*Model_Space
70
0
10
0
20
0
30
0
3
*Model_Space
0
ENDBLK
5
21
100
AcDbEntity
8
0
100
AcDbBlockEnd
0
BLOCK
5
1C
100
AcDbEntity
8
0
100
AcDbBlockBegin
2
*Paper_Space
70
0
10
0
20
0
30
0
3
*Paper_Space
0
ENDBLK
5
1D
100
AcDbEntity
8
0
100
AcDbBlockEnd
0
BLOCK
5
24
100
AcDbEntity
8
0
100
AcDbBlockBegin
2
*Paper_Space0
70
0
10
0
20
0
30
0
3
*Paper_Space0
0
ENDBLK
5
25
100
AcDbEntity
8
0
100
AcDbBlockEnd
0
BLOCK
5
11F
100
AcDbEntity
8
0
100
AcDbBlockBegin
2
DimnDraft3D1
70
0
10
0
20
0
30
0
3
DimnDraft3D1
0
MTEXT
5
115
100
AcDbEntity
8
2
62
256
6
ByLayer
370
18
48
1
60
0
100
AcDbMText
10
33.647884
20
-0.732895
30
0
210
0
220
0
230
1
1
\W0.7346;25.0
40
3.5
41
0
44
1.084337
50
90
71
7
72
5
7
iso_b_vert
0
LINE
5
116
100
AcDbEntity
8
2
62
256
6
ByLayer
370
13
48
1
60
0
100
AcDbLine
10
31
20
-10
30
0
11
36.522884
21
-10
31
0
39
0
210
0
220
0
230
1
0
LINE
5
117
100
AcDbEntity
8
2
62
256
6
ByLayer
370
13
48
1
60
0
100
AcDbLine
10
34
20
15
30
0
11
32.522884
21
15
31
0
39
0
210
0
220
0
230
1
0
LINE
5
118
100
AcDbEntity
8
2
62
256
6
ByLayer
370
13
48
1
60
0
100
AcDbLine
10
34.522884
20
-10
30
0
11
34.522884
21
15
31
0
39
0
210
0
220
0
230
1
0
LINE
5
119
100
AcDbEntity
8
2
62
256
6
ByLayer
370
13
48
1
60
0
100
AcDbLine
10
34.522884
20
-10
30
0
11
34.104888
21
-6.825002
31
0
39
0
210
0
220
0
230
1
0
LINE
5
11A
100
AcDbEntity
8
2
62
256
6
ByLayer
370
13
48
1
60
0
100
AcDbLine
10
34.522884
20
-10
30
0
11
34.940881
21
-6.824998
31
0
39
0
210
0
220
0
230
1
0
LINE
5
11B
100
AcDbEntity
8
2
62
256
6
ByLayer
370
13
48
1
60
0
100
AcDbLine
10
34.104888
20
-6.825002
30
0
11
34.940881
21
-6.824998
31
0
39
0
210
0
220
0
230
1
0
LINE
5
11C
100
AcDbEntity
8
2
62
256
6
ByLayer
370
13
48
1
60
0
100
AcDbLine
10
34.522884
20
15
30
0
11
34.940881
21
11.825002
31
0
39
0
210
0
220
0
230
1
0
LINE
5
11D
100
AcDbEntity
8
2
62
256
6
ByLayer
370
13
48
1
60
0
100
AcDbLine
10
34.522884
20
15
30
0
11
34.104888
21
11.824998
31
0
39
0
210
0
220
0
230
1
0
LINE
5
11E
100
AcDbEntity
8
2
62
256
6
ByLayer
370
13
48
1
60
0
100
AcDbLine
10
34.940881
20
11.825002
30
0
11
34.104888
21
11.824998
31
0
39
0
210
0
220
0
230
1
0
ENDBLK
5
120
100
AcDbEntity
8
0
100
AcDbBlockEnd
0
BLOCK
5
123
100
AcDbEntity
8
0
100
AcDbBlockBegin
2
_CLOSED
70
0
10
0
20
0
30
0
3
_CLOSED
0
LINE
5
125
100
AcDbEntity
8
0
62
256
6
ByLayer
370
-2
48
1
60
0
100
AcDbLine
10
-1
20
0.166667
30
0
11
0
21
0
31
0
39
0
210
0
220
0
230
1
0
LINE
5
126
100
AcDbEntity
8
0
62
256
6
ByLayer
370
-2
48
1
60
0
100
AcDbLine
10
0
20
0
30
0
11
-1
21
-0.166667
31
0
39
0
210
0
220
0
230
1
0
LINE
5
127
100
AcDbEntity
8
0
62
256
6
ByLayer
370
-2
48
1
60
0
100
AcDbLine
10
-1
20
0.166667
30
0
11
-1
21
-0.166667
31
0
39
0
210
0
220
0
230
1
0
LINE
5
128
100
AcDbEntity
8
0
62
256
6
ByLayer
370
-2
48
1
60
0
100
AcDbLine
10
0
20
0
30
0
11
-1
21
0
31
0
39
0
210
0
220
0
230
1
0
ENDBLK
5
124
100
AcDbEntity
8
0
100
AcDbBlockEnd
0
BLOCK
5
135
100
AcDbEntity
8
0
100
AcDbBlockBegin
2
DimnDraft3D2
70
0
10
0
20
0
30
0
3
DimnDraft3D2
0
MTEXT
5
12A
100
AcDbEntity
8
SK2
62
256
6
ByLayer
370
18
48
1
60
0
100
AcDbMText
10
-84.47505
20
-3.232895
30
0
210
0
220
0
230
1
1
\W0.7346;20.0
40
3.5
41
0
44
1.084337
50
90
71
7
72
5
7
iso_b_vert
0
LINE
5
12C
100
AcDbEntity
8
SK2
62
256
6
ByLayer
370
13
48
1
60
0
100
AcDbLine
10
-2
20
10
30
0
11
-85.60005
21
10
31
0
39
0
210
0
220
0
230
1
0
LINE
5
12D
100
AcDbEntity
8
SK2
62
256
6
ByLayer
370
13
48
1
60
0
100
AcDbLine
10
-71
20
-10
30
0
11
-85.60005
21
-10
31
0
39
0
210
0
220
0
230
1
0
LINE
5
12E
100
AcDbEntity
8
SK2
62
256
6
ByLayer
370
13
48
1
60
0
100
AcDbLine
10
-83.60005
20
10
30
0
11
-83.60005
21
-10
31
0
39
0
210
0
220
0
230
1
0
LINE
5
12F
100
AcDbEntity
8
SK2
62
256
6
ByLayer
370
13
48
1
60
0
100
AcDbLine
10
-83.60005
20
10
30
0
11
-83.182053
21
6.825002
31
0
39
0
210
0
220
0
230
1
0
LINE
5
130
100
AcDbEntity
8
SK2
62
256
6
ByLayer
370
13
48
1
60
0
100
AcDbLine
10
-83.60005
20
10
30
0
11
-84.018047
21
6.824998
31
0
39
0
210
0
220
0
230
1
0
LINE
5
131
100
AcDbEntity
8
SK2
62
256
6
ByLayer
370
13
48
1
60
0
100
AcDbLine
10
-83.182053
20
6.825002
30
0
11
-84.018047
21
6.824998
31
0
39
0
210
0
220
0
230
1
0
LINE
5
132
100
AcDbEntity
8
SK2
62
256
6
ByLayer
370
13
48
1
60
0
100
AcDbLine
10
-83.60005
20
-10
30
0
11
-84.018047
21
-6.825002
31
0
39
0
210
0
220
0
230
1
0
LINE
5
133
100
AcDbEntity
8
SK2
62
256
6
ByLayer
370
13
48
1
60
0
100
AcDbLine
10
-83.60005
20
-10
30
0
11
-83.182053
21
-6.824998
31
0
39
0
210
0
220
0
230
1
0
LINE
5
134
100
AcDbEntity
8
SK2
62
256
6
ByLayer
370
13
48
1
60
0
100
AcDbLine
10
-84.018047
20
-6.825002
30
0
11
-83.182053
21
-6.824998
31
0
39
0
210
0
220
0
230
1
0
ENDBLK
5
136
100
AcDbEntity
8
0
100
AcDbBlockEnd
0
BLOCK
5
143
100
AcDbEntity
8
0
100
AcDbBlockBegin
2
DimnDraft3D3
70
0
10
0
20
0
30
0
3
DimnDraft3D3
0
MTEXT
5
139
100
AcDbEntity
8
2
62
256
6
ByLayer
370
18
48
1
60
0
100
AcDbMText
10
28.180447
20
18.739136
30
0
210
0
220
0
230
1
1
\W0.8292;93%%d0'
40
3
41
0
44
1.084337
50
39.5727452227697
71
7
72
5
7
iso_b_vert
0
LINE
5
13A
100
AcDbEntity
8
2
62
256
6
ByLayer
370
13
48
1
60
0
100
AcDbLine
10
36.104672
20
16.997259
30
0
11
36.476974
21
24.101201
31
0
39
0
210
0
220
0
230
1
0
LINE
5
13B
100
AcDbEntity
8
2
62
256
6
ByLayer
370
13
48
1
60
0
100
AcDbLine
10
34
20
15
30
0
11
26.886309
21
15
31
0
39
0
210
0
220
0
230
1
0
ARC
5
13C
100
AcDbEntity
8
2
62
256
6
ByLayer
370
13
48
1
60
0
100
AcDbCircle
39
0
10
36
20
15
30
0
40
7.11369128120759
210
0
220
0
230
1
100
AcDbArc
50
87
51
180
0
LINE
5
13D
100
AcDbEntity
8
2
62
256
6
ByLayer
370
13
48
1
60
0
100
AcDbLine
10
36.372302
20
22.103942
30
0
11
33.226525
21
21.50442
31
0
39
0
210
0
220
0
230
1
0
LINE
5
13E
100
AcDbEntity
8
2
62
256
6
ByLayer
370
13
48
1
60
0
100
AcDbLine
10
36.372302
20
22.103942
30
0
11
33.178544
21
22.339035
31
0
39
0
210
0
220
0
230
1
0
LINE
5
13F
100
AcDbEntity
8
2
62
256
6
ByLayer
370
13
48
1
60
0
100
AcDbLine
10
33.226525
20
21.50442
30
0
11
33.178544
21
22.339035
31
0
39
0
210
0
220
0
230
1
0
LINE
5
140
100
AcDbEntity
8
2
62
256
6
ByLayer
370
13
48
1
60
0
100
AcDbLine
10
28.886309
20
15
30
0
11
28.818686
21
18.201681
31
0
39
0
210
0
220
0
230
1
0
LINE
5
141
100
AcDbEntity
8
2
62
256
6
ByLayer
370
13
48
1
60
0
100
AcDbLine
10
28.886309
20
15
30
0
11
29.649647
21
18.110092
31
0
39
0
210
0
220
0
230
1
0
LINE
5
142
100
AcDbEntity
8
2
62
256
6
ByLayer
370
13
48
1
60
0
100
AcDbLine
10
28.818686
20
18.201681
30
0
11
29.649647
21
18.110092
31
0
39
0
210
0
220
0
230
1
0
ENDBLK
5
144
100
AcDbEntity
8
0
100
AcDbBlockEnd
0
BLOCK
5
151
100
AcDbEntity
8
0
100
AcDbBlockBegin
2
DimnDraft3D4
70
0
10
0
20
0
30
0
3
DimnDraft3D4
0
MTEXT
5
147
100
AcDbEntity
8
SK2
62
256
6
ByLayer
370
18
48
1
60
0
100
AcDbMText
10
-20.603289
20
-36.969955
30
0
210
0
220
0
230
1
1
\W0.6864;105.0
40
3.5
41
0
44
1.084337
50
0
71
7
72
5
7
iso_b_vert
0
LINE
5
148
100
AcDbEntity
8
SK2
62
256
6
ByLayer
370
13
48
1
60
0
100
AcDbLine
10
-69
20
-12
30
0
11
-69
21
-39.844955
31
0
39
0
210
0
220
0
230
1
0
LINE
5
149
100
AcDbEntity
8
SK2
62
256
6
ByLayer
370
13
48
1
60
0
100
AcDbLine
10
36
20
13
30
0
11
36
21
-39.844955
31
0
39
0
210
0
220
0
230
1
0
LINE
5
14A
100
AcDbEntity
8
SK2
62
256
6
ByLayer
370
13
48
1
60
0
100
AcDbLine
10
-69
20
-37.844955
30
0
11
36
21
-37.844955
31
0
39
0
210
0
220
0
230
1
0
LINE
5
14B
100
AcDbEntity
8
SK2
62
256
6
ByLayer
370
13
48
1
60
0
100
AcDbLine
10
-69
20
-37.844955
30
0
11
-65.825002
21
-37.426958
31
0
39
0
210
0
220
0
230
1
0
LINE
5
14C
100
AcDbEntity
8
SK2
62
256
6
ByLayer
370
13
48
1
60
0
100
AcDbLine
10
-69
20
-37.844955
30
0
11
-65.824998
21
-38.262951
31
0
39
0
210
0
220
0
230
1
0
LINE
5
14D
100
AcDbEntity
8
SK2
62
256
6
ByLayer
370
13
48
1
60
0
100
AcDbLine
10
-65.825002
20
-37.426958
30
0
11
-65.824998
21
-38.262951
31
0
39
0
210
0
220
0
230
1
0
LINE
5
14E
100
AcDbEntity
8
SK2
62
256
6
ByLayer
370
13
48
1
60
0
100
AcDbLine
10
36
20
-37.844955
30
0
11
32.825002
21
-38.262951
31
0
39
0
210
0
220
0
230
1
0
LINE
5
14F
100
AcDbEntity
8
SK2
62
256
6
ByLayer
370
13
48
1
60
0
100
AcDbLine
10
36
20
-37.844955
30
0
11
32.824998
21
-37.426958
31
0
39
0
210
0
220
0
230
1
0
LINE
5
150
100
AcDbEntity
8
SK2
62
256
6
ByLayer
370
13
48
1
60
0
100
AcDbLine
10
32.825002
20
-38.262951
30
0
11
32.824998
21
-37.426958
31
0
39
0
210
0
220
0
230
1
0
ENDBLK
5
152
100
AcDbEntity
8
0
100
AcDbBlockEnd
0
BLOCK
5
15F
100
AcDbEntity
8
0
100
AcDbBlockBegin
2
DimnDraft3D5
70
0
10
0
20
0
30
0
3
DimnDraft3D5
0
MTEXT
5
155
100
AcDbEntity
8
2
62
256
6
ByLayer
370
18
48
1
60
0
100
AcDbMText
10
14.767105
20
-26.225
30
0
210
0
220
0
230
1
1
\W0.7346;36.0
40
3.5
41
0
44
1.084337
50
0
71
7
72
5
7
iso_b_vert
0
LINE
5
156
100
AcDbEntity
8
2
62
256
6
ByLayer
370
13
48
1
60
0
100
AcDbLine
10
0
20
8
30
0
11
0
21
-29.1
31
0
39
0
210
0
220
0
230
1
0
LINE
5
157
100
AcDbEntity
8
2
62
256
6
ByLayer
370
13
48
1
60
0
100
AcDbLine
10
36
20
13
30
0
11
36
21
-29.1
31
0
39
0
210
0
220
0
230
1
0
LINE
5
158
100
AcDbEntity
8
2
62
256
6
ByLayer
370
13
48
1
60
0
100
AcDbLine
10
0
20
-27.1
30
0
11
36
21
-27.1
31
0
39
0
210
0
220
0
230
1
0
LINE
5
159
100
AcDbEntity
8
2
62
256
6
ByLayer
370
13
48
1
60
0
100
AcDbLine
10
0
20
-27.1
30
0
11
3.174998
21
-26.682003
31
0
39
0
210
0
220
0
230
1
0
LINE
5
15A
100
AcDbEntity
8
2
62
256
6
ByLayer
370
13
48
1
60
0
100
AcDbLine
10
0
20
-27.1
30
0
11
3.175002
21
-27.517997
31
0
39
0
210
0
220
0
230
1
0
LINE
5
15B
100
AcDbEntity
8
2
62
256
6
ByLayer
370
13
48
1
60
0
100
AcDbLine
10
3.174998
20
-26.682003
30
0
11
3.175002
21
-27.517997
31
0
39
0
210
0
220
0
230
1
0
LINE
5
15C
100
AcDbEntity
8
2
62
256
6
ByLayer
370
13
48
1
60
0
100
AcDbLine
10
36
20
-27.1
30
0
11
32.825002
21
-27.517997
31
0
39
0
210
0
220
0
230
1
0
LINE
5
15D
100
AcDbEntity
8
2
62
256
6
ByLayer
370
13
48
1
60
0
100
AcDbLine
10
36
20
-27.1
30
0
11
32.824998
21
-26.682003
31
0
39
0
210
0
220
0
230
1
0
LINE
5
15E
100
AcDbEntity
8
2
62
256
6
ByLayer
370
13
48
1
60
0
100
AcDbLine
10
32.825002
20
-27.517997
30
0
11
32.824998
21
-26.682003
31
0
39
0
210
0
220
0
230
1
0
ENDBLK
5
160
100
AcDbEntity
8
0
100
AcDbBlockEnd
0
BLOCK
5
16D
100
AcDbEntity
8
0
100
AcDbBlockBegin
2
DimnDraft3D6
70
0
10
0
20
0
30
0
3
DimnDraft3D6
0
MTEXT
5
163
100
AcDbEntity
8
SK2
62
256
6
ByLayer
370
18
48
1
60
0
100
AcDbMText
10
-54.87
20
-26.225
30
0
210
0
220
0
230
1
1
\W0.7121;3.0
40
3.5
41
0
44
1.084337
50
0
71
7
72
5
7
iso_b_vert
0
LINE
5
164
100
AcDbEntity
8
SK2
62
256
6
ByLayer
370
13
48
1
60
0
100
AcDbLine
10
-69
20
-12
30
0
11
-69
21
-29.1
31
0
39
0
210
0
220
0
230
1
0
LINE
5
165
100
AcDbEntity
8
SK2
62
256
6
ByLayer
370
13
48
1
60
0
100
AcDbLine
10
-66
20
-12
30
0
11
-66
21
-29.1
31
0
39
0
210
0
220
0
230
1
0
LINE
5
166
100
AcDbEntity
8
SK2
62
256
6
ByLayer
370
13
48
1
60
0
100
AcDbLine
10
-50.145
20
-27.1
30
0
11
-77.75
21
-27.1
31
0
39
0
210
0
220
0
230
1
0
LINE
5
167
100
AcDbEntity
8
SK2
62
256
6
ByLayer
370
13
48
1
60
0
100
AcDbLine
10
-69
20
-27.1
30
0
11
-72.174998
21
-27.517997
31
0
39
0
210
0
220
0
230
1
0
LINE
5
168
100
AcDbEntity
8
SK2
62
256
6
ByLayer
370
13
48
1
60
0
100
AcDbLine
10
-69
20
-27.1
30
0
11
-72.175002
21
-26.682003
31
0
39
0
210
0
220
0
230
1
0
LINE
5
169
100
AcDbEntity
8
SK2
62
256
6
ByLayer
370
13
48
1
60
0
100
AcDbLine
10
-72.174998
20
-27.517997
30
0
11
-72.175002
21
-26.682003
31
0
39
0
210
0
220
0
230
1
0
LINE
5
16A
100
AcDbEntity
8
SK2
62
256
6
ByLayer
370
13
48
1
60
0
100
AcDbLine
10
-66
20
-27.1
30
0
11
-62.825002
21
-26.682003
31
0
39
0
210
0
220
0
230
1
0
LINE
5
16B
100
AcDbEntity
8
SK2
62
256
6
ByLayer
370
13
48
1
60
0
100
AcDbLine
10
-66
20
-27.1
30
0
11
-62.824998
21
-27.517997
31
0
39
0
210
0
220
0
230
1
0
LINE
5
16C
100
AcDbEntity
8
SK2
62
256
6
ByLayer
370
13
48
1
60
0
100
AcDbLine
10
-62.825002
20
-26.682003
30
0
11
-62.824998
21
-27.517997
31
0
39
0
210
0
220
0
230
1
0
ENDBLK
5
16E
100
AcDbEntity
8
0
100
AcDbBlockEnd
0
ENDSEC
0
SECTION
2
ENTITIES
0
ARC
5
BF
100
AcDbEntity
8
1
62
256
6
ByLayer
370
18
48
1
60
0
100
AcDbCircle
39
0
10
-1.772277
20
11.525
30
0
40
1.60000000000328
210
0
220
0
230
-1
100
AcDbArc
50
217.280876
51
250.06671
0
ARC
5
C0
100
AcDbEntity
8
1
62
256
6
ByLayer
370
18
48
1
60
0
100
AcDbCircle
39
0
10
1.227723
20
-11.6
30
0
40
1.6
210
0
220
0
230
-1
100
AcDbArc
50
140.114458
51
165
0
ARC
5
C1
100
AcDbEntity
8
1
62
256
6
ByLayer
370
18
48
1
60
0
100
AcDbCircle
39
0
10
-1.772277
20
11.525
30
0
40
1.59999999997279
210
0
220
0
230
-1
100
AcDbArc
50
195
51
217.280876
0
ARC
5
C2
100
AcDbEntity
8
SK1
62
256
6
ByLayer
370
18
48
1
60
0
100
AcDbCircle
39
0
10
1.227723
20
-11.6
30
0
40
1.6
210
0
220
0
230
-1
100
AcDbArc
50
90
51
140.114458
0
ELLIPSE
5
C3
100
AcDbEntity
8
1
62
256
6
ByLayer
370
18
48
1
60
0
100
AcDbEllipse
10
9.358495
20
5.908354
30
0
11
-1.08513576494
21
1.11377976801883
31
0
210
0
220
0
230
1
40
0.987534
41
-3.05435365761912
42
-2.95990967702283
0
ELLIPSE
5
C4
100
AcDbEntity
8
1
62
256
6
ByLayer
370
18
48
1
60
0
100
AcDbEllipse
10
9.358495
20
5.908354
30
0
11
-1.08513576494
21
1.11377976801883
31
0
210
0
220
0
230
1
40
0.987534
41
-0.422457169419443
42
-0.210139572740126
0
ELLIPSE
5
C5
100
AcDbEntity
8
1
62
256
6
ByLayer
370
18
48
1
60
0
100
AcDbEllipse
10
9.24575
20
5.798509
30
0
11
-1.08513576494
21
1.11377976801883
31
0
210
0
220
0
230
1
40
0.987534
41
-2.96374544851272
42
-0.247838350432263
0
ELLIPSE
5
C6
100
AcDbEntity
8
1
62
256
6
ByLayer
370
13
48
1
60
0
100
AcDbEllipse
10
23.050119
20
-4.423985
30
0
11
1.03732386351553
21
1.21817864132532
31
0
210
0
220
0
230
1
40
0.014807
41
1.72817245389212
42
2.35547401949738
0
ELLIPSE
5
C7
100
AcDbEntity
8
1
62
256
6
ByLayer
370
13
48
1
60
0
100
AcDbEllipse
10
20.07454
20
-2.112353
30
0
11
0.923855234641638
21
1.30632748781661
31
0
210
0
220
0
230
1
40
0.028974
41
1.72620452253059
42
2.39043159300368
0
ELLIPSE
5
C8
100
AcDbEntity
8
1
62
256
6
ByLayer
370
13
48
1
60
0
100
AcDbEllipse
10
20.017887
20
-7.964775
30
0
11
3.11662846427604
21
-3.19889717037772
31
0
210
0
220
0
230
1
40
0.987534
41
1.35633394211869
42
1.66500223066314
0
ELLIPSE
5
C9
100
AcDbEntity
8
1
62
256
6
ByLayer
370
13
48
1
60
0
100
AcDbEllipse
10
17.362795
20
-5.902119
30
0
11
3.11662846427604
21
-3.19889717037772
31
0
210
0
220
0
230
1
40
0.987534
41
1.75592434716848
42
2.16002118868764
0
ELLIPSE
5
CA
100
AcDbEntity
8
1
62
256
6
ByLayer
370
13
48
1
60
0
100
AcDbEllipse
10
24.270013
20
7.443824
30
0
11
-1.79902250933461
21
1.84651076652896
31
0
210
0
220
0
230
1
40
0.987534
41
-2.94391430902232
42
-0.197671534419113
0
ELLIPSE
5
CB
100
AcDbEntity
8
1
62
256
6
ByLayer
370
13
48
1
60
0
100
AcDbEllipse
10
14.044643
20
1.374112
30
0
11
0.55390772567269
21
-0.568529061649419
31
0
210
0
220
0
230
1
40
0.987534
41
-2.08885885131958
42
-0.713799042104322
0
ELLIPSE
5
CC
100
AcDbEntity
8
1
62
256
6
ByLayer
370
13
48
1
60
0
100
AcDbEllipse
10
27.495676
20
2.07905
30
0
11
0.55390772567269
21
-0.568529061649419
31
0
210
0
220
0
230
1
40
0.987534
41
-0.713799042104322
42
7.55184426723644E-08
0
ELLIPSE
5
CD
100
AcDbEntity
8
1
62
256
6
ByLayer
370
13
48
1
60
0
100
AcDbEllipse
10
21.04435
20
12.808598
30
0
11
0.55390772567269
21
-0.568529061649419
31
0
210
0
220
0
230
1
40
0.987534
41
3.14159224323667
42
-2.89546060709724
0
ELLIPSE
5
CE
100
AcDbEntity
8
1
62
256
6
ByLayer
370
13
48
1
60
0
100
AcDbEllipse
10
15.965202
20
-10.519509
30
0
11
-3.06702639584448
21
3.14798577103406
31
0
210
0
220
0
230
1
40
0.987534
41
3.02441608428743
42
3.0251769603859
0
ELLIPSE
5
CF
100
AcDbEntity
8
1
62
256
6
ByLayer
370
13
48
1
60
0
100
AcDbEllipse
10
15.965202
20
-10.519509
30
0
11
-3.06702639584448
21
3.14798577103406
31
0
210
0
220
0
230
1
40
0.987534
41
0.240189184471144
42
1.72656234829732
0
ELLIPSE
5
D0
100
AcDbEntity
8
1
62
256
6
ByLayer
370
13
48
1
60
0
100
AcDbEllipse
10
45.981277
20
-29.384819
30
0
11
-27.824289499383
21
28.5587589177148
31
0
210
0
220
0
230
1
40
0.987534
41
0.106422348000067
42
0.240189184471147
0
ELLIPSE
5
D1
100
AcDbEntity
8
1
62
256
6
ByLayer
370
13
48
1
60
0
100
AcDbEllipse
10
17.527464
20
-5.741684
30
0
11
-2.00433882235402
21
2.05724675263654
31
0
210
0
220
0
230
1
40
0.987534
41
-0.581035259008144
42
0.106422348000072
0
ELLIPSE
5
D2
100
AcDbEntity
8
1
62
256
6
ByLayer
370
13
48
1
60
0
100
AcDbEllipse
10
10.913859
20
-7.319506
30
0
11
1.35957088242163
21
-0.843544317550224
31
0
210
0
220
0
230
1
40
0.152889
41
-1.60869610833606
42
-0.12516624414088
0
ELLIPSE
5
D3
100
AcDbEntity
8
1
62
256
6
ByLayer
370
13
48
1
60
0
100
AcDbEllipse
10
15.800532
20
-10.679944
30
0
11
4.1793160377665
21
-4.28963618877524
31
0
210
0
220
0
230
1
40
0.987534
41
-2.90140346911865
42
-1.7452421296566
0
ELLIPSE
5
D4
100
AcDbEntity
8
1
62
256
6
ByLayer
370
13
48
1
60
0
100
AcDbEllipse
10
-3.608407
20
-35.842692
30
0
11
28.9365791413051
21
-29.7004093354559
31
0
210
0
220
0
230
1
40
0.987534
41
1.66500223066314
42
1.75592434716848
0
ELLIPSE
5
D5
100
AcDbEntity
8
1
62
256
6
ByLayer
370
13
48
1
60
0
100
AcDbEllipse
10
17.362795
20
-5.902119
30
0
11
3.11662846427604
21
-3.19889717037772
31
0
210
0
220
0
230
1
40
0.987534
41
3.02938815869811
42
-3.03517030558972
0
ELLIPSE
5
D6
100
AcDbEntity
8
1
62
256
6
ByLayer
370
13
48
1
60
0
100
AcDbEllipse
10
45.816608
20
-29.545253
30
0
11
28.936579141305
21
-29.7004093354559
31
0
210
0
220
0
230
1
40
0.987534
41
-3.03517030558973
42
-2.90140346911865
0
ELLIPSE
5
D7
100
AcDbEntity
8
1
62
256
6
ByLayer
370
13
48
1
60
0
100
AcDbEllipse
10
14.108634
20
-2.872493
30
0
11
1.233312644952
21
-1.01928402312678
31
0
210
0
220
0
230
1
40
0.156518
41
-1.58772591445721
42
-0.10419605026203
0
ELLIPSE
5
D8
100
AcDbEntity
8
1
62
256
6
ByLayer
370
18
48
1
60
0
100
AcDbEllipse
10
23.13411
20
6.337135
30
0
11
-2.2243538590008
21
2.2830694601672
31
0
210
0
220
0
230
1
40
0.987534
41
-2.47126685979847
42
-0.670309162819359
0
ELLIPSE
5
D9
100
AcDbEntity
8
1
62
256
6
ByLayer
370
13
48
1
60
0
100
AcDbEllipse
10
35.211311
20
14.211053
30
0
11
-0.553907725672689
21
0.568529061649419
31
0
210
0
220
0
230
1
40
0.987534
41
-2.89546060709723
42
-0.713799042104323
0
ELLIPSE
5
DA
100
AcDbEntity
8
1
62
256
6
ByLayer
370
13
48
1
60
0
100
AcDbEllipse
10
14.760572
20
2.071628
30
0
11
-0.553907725672689
21
0.568529061649419
31
0
210
0
220
0
230
1
40
0.987534
41
0.246132046492564
42
2.42779361148547
0
ELLIPSE
5
DB
100
AcDbEntity
8
1
62
256
6
ByLayer
370
13
48
1
60
0
100
AcDbEllipse
10
21.760278
20
13.506114
30
0
11
-0.553907725672689
21
0.568529061649419
31
0
210
0
220
0
230
1
40
0.987534
41
-0.713799042104308
42
0.246132046492559
0
ELLIPSE
5
DC
100
AcDbEntity
8
1
62
256
6
ByLayer
370
13
48
1
60
0
100
AcDbEllipse
10
24.985941
20
8.141341
30
0
11
-1.79902250933461
21
1.84651076652896
31
0
210
0
220
0
230
1
40
0.987534
41
0
42
6.28318530717959
0
ELLIPSE
5
DD
100
AcDbEntity
8
1
62
256
6
ByLayer
370
13
48
1
60
0
100
AcDbEllipse
10
28.211604
20
2.776567
30
0
11
-0.553907725672689
21
0.568529061649419
31
0
210
0
220
0
230
1
40
0.987534
41
2.42779361148547
42
-2.89546060709723
0
ELLIPSE
5
DE
100
AcDbEntity
8
1
62
256
6
ByLayer
370
18
48
1
60
0
100
AcDbEllipse
10
9.358495
20
5.908354
30
0
11
-1.08513576494
21
1.11377976801883
31
0
210
0
220
0
230
1
40
0.987534
41
-2.51685227181265
42
-1.91271212582624
0
ELLIPSE
5
DF
100
AcDbEntity
8
1
62
256
6
ByLayer
370
18
48
1
60
0
100
AcDbEllipse
10
9.785233
20
6.324117
30
0
11
-1.08513576494
21
1.11377976801883
31
0
210
0
220
0
230
1
40
0.987534
41
-1.91271212582624
42
-1.46965472061604
0
ELLIPSE
5
E0
100
AcDbEntity
8
1
62
256
6
ByLayer
370
18
48
1
60
0
100
AcDbEllipse
10
9.809473
20
6.347734
30
0
11
2.25750109297808
21
-2.31709167173049
31
0
210
0
220
0
230
1
40
0.987534
41
0
42
6.28318530717959
0
ELLIPSE
5
E1
100
AcDbEntity
8
1
62
256
6
ByLayer
370
18
48
1
60
0
100
AcDbEllipse
10
9.785233
20
6.324117
30
0
11
-1.08513576494
21
1.11377976801883
31
0
210
0
220
0
230
1
40
0.987534
41
-0.865514574629653
42
-0.422457169419444
0
ELLIPSE
5
E2
100
AcDbEntity
8
1
62
256
6
ByLayer
370
18
48
1
60
0
100
AcDbEllipse
10
9.809473
20
6.347734
30
0
11
1.34500374549758
21
-1.38050740565866
31
0
210
0
220
0
230
1
40
0.987534
41
0
42
6.28318530717959
0
ELLIPSE
5
E3
100
AcDbEntity
8
1
62
256
6
ByLayer
370
18
48
1
60
0
100
AcDbEllipse
10
9.358495
20
5.908354
30
0
11
-1.08513576494
21
1.11377976801883
31
0
210
0
220
0
230
1
40
0.987534
41
-1.46965472061604
42
-0.865514574629653
0
ELLIPSE
5
E4
100
AcDbEntity
8
1
62
256
6
ByLayer
370
18
48
1
60
0
100
AcDbEllipse
10
9.785233
20
6.324117
30
0
11
-1.08513576494
21
1.11377976801883
31
0
210
0
220
0
230
1
40
0.987534
41
-2.95990967702283
42
-2.51685227181265
0
ELLIPSE
5
E5
100
AcDbEntity
8
1
62
256
6
ByLayer
370
18
48
1
60
0
100
AcDbEllipse
10
9.785233
20
6.324117
30
0
11
-1.08513576494
21
1.11377976801883
31
0
210
0
220
0
230
1
40
0.987534
41
2.27607807896016
42
2.71913548417034
0
ELLIPSE
5
E6
100
AcDbEntity
8
1
62
256
6
ByLayer
370
18
48
1
60
0
100
AcDbEllipse
10
9.785233
20
6.324117
30
0
11
-1.08513576494
21
1.11377976801883
31
0
210
0
220
0
230
1
40
0.987534
41
1.22888052776356
42
1.67193793297374
0
ELLIPSE
5
E7
100
AcDbEntity
8
1
62
256
6
ByLayer
370
18
48
1
60
0
100
AcDbEllipse
10
9.785233
20
6.324117
30
0
11
-1.08513576494
21
1.11377976801883
31
0
210
0
220
0
230
1
40
0.987534
41
0.181682976566963
42
0.624740381777148
0
ELLIPSE
5
E8
100
AcDbEntity
8
1
62
256
6
ByLayer
370
18
48
1
60
0
100
AcDbEllipse
10
9.723224
20
6.263703
30
0
11
2.79134601913827
21
-2.86502834217062
31
0
210
0
220
0
230
1
40
0.987534
41
0
42
6.28318530717959
0
ELLIPSE
5
E9
100
AcDbEntity
8
1
62
256
6
ByLayer
370
18
48
1
60
0
100
AcDbEllipse
10
16.841175
20
-9.666064
30
0
11
-2.67423655357332
21
-2.60546098207024
31
0
210
0
220
0
230
1
40
0.987438
41
-1.05739182098675
42
1.20349698572574
0
ELLIPSE
5
EA
100
AcDbEntity
8
1
62
256
6
ByLayer
370
18
48
1
60
0
100
AcDbEllipse
10
-70.174806
20
-121.686482
30
0
11
85.6387944866312
21
111.726544624176
31
0
210
0
220
0
230
1
40
0.284147
41
-0.103340156066531
42
0.0632341521980509
0
ELLIPSE
5
EB
100
AcDbEntity
8
1
62
256
6
ByLayer
370
18
48
1
60
0
100
AcDbEllipse
10
18.205577
20
4.560967
30
0
11
1.81437491243988
21
-1.8622684224109
31
0
210
0
220
0
230
1
40
0.987534
41
-2.89546060709722
42
-2.55412283489782
0
ELLIPSE
5
EC
100
AcDbEntity
8
1
62
256
6
ByLayer
370
18
48
1
60
0
100
AcDbEllipse
10
15.443729
20
0.145
30
0
11
1.67480761148296
21
-1.71901700530237
31
0
210
0
220
0
230
1
40
0.987534
41
-2.89546060709722
42
-1.43827488114077
0
ELLIPSE
5
ED
100
AcDbEntity
8
1
62
256
6
ByLayer
370
18
48
1
60
0
100
AcDbEllipse
10
16.054467
20
-0.350161
30
0
11
-1.75515773520013
21
1.80148810711785
31
0
210
0
220
0
230
1
40
0.987534
41
1.38535746035329
42
1.75132054519387
0
ELLIPSE
5
EE
100
AcDbEntity
8
1
62
256
6
ByLayer
370
18
48
1
60
0
100
AcDbEllipse
10
19.835717
20
7.223909
30
0
11
1.81437491243987
21
-1.86226842241089
31
0
210
0
220
0
230
1
40
0.987534
41
3.04638692788296
42
-2.89546060709723
0
POINT
5
6C
100
AcDbEntity
8
80
62
256
6
ByLayer
370
18
48
1
60
0
100
AcDbPoint
10
0
20
0
30
0
39
0
210
0
220
0
230
1
50
360
0
POINT
5
6E
100
AcDbEntity
8
81
62
256
6
ByLayer
370
18
48
1
60
0
100
AcDbPoint
10
36
20
15
30
0
39
0
210
0
220
0
230
1
50
360
0
POINT
5
70
100
AcDbEntity
8
2
62
256
6
ByLayer
370
18
48
1
60
0
100
AcDbPoint
10
24.985941
20
8.141341
30
0
39
0
210
0
220
0
230
1
50
360
0
POINT
5
72
100
AcDbEntity
8
2
62
256
6
ByLayer
370
18
48
1
60
0
100
AcDbPoint
10
24.985941
20
8.141341
30
0
39
0
210
0
220
0
230
1
50
360
0
POINT
5
73
100
AcDbEntity
8
2
62
256
6
ByLayer
370
18
48
1
60
0
100
AcDbPoint
10
24.985941
20
8.141341
30
0
39
0
210
0
220
0
230
1
50
360
0
POINT
5
74
100
AcDbEntity
8
2
62
256
6
ByLayer
370
18
48
1
60
0
100
AcDbPoint
10
23.912049
20
7.095066
30
0
39
0
210
0
220
0
230
1
50
360
0
POINT
5
75
100
AcDbEntity
8
2
62
256
6
ByLayer
370
18
48
1
60
0
100
AcDbPoint
10
9.676275
20
6.217961
30
0
39
0
210
0
220
0
230
1
50
360
0
SPLINE
5
EF
100
AcDbEntity
8
1
62
256
6
ByLayer
370
18
48
1
60
0
100
AcDbSpline
70
4
71
3
72
10
73
6
40
0
40
0
40
0
40
0
40
0.982540564695941
40
0.982540564695941
40
1
40
1
40
1
40
1
41
1
10
23.9765629925574
20
5.83784696817048
30
0
41
1
10
24.0136207761142
20
6.01178448917523
30
0
41
1
10
24.0372125474142
20
6.18571234163829
30
0
41
1
10
24.0473378451885
20
6.36013280665745
30
0
41
1
10
24.0475111987618
20
6.36319288491376
30
0
41
1
10
24.0476802339759
20
6.36625250751754
30
0
0
SPLINE
5
F0
100
AcDbEntity
8
1
62
256
6
ByLayer
370
18
48
1
60
0
100
AcDbSpline
70
4
71
3
72
14
73
10
40
0
40
0
40
0
40
0
40
0.257376676833894
40
0.257376676833894
40
0.519953009069279
40
0.519953009069279
40
0.779388151500705
40
0.779388151500705
40
1
40
1
40
1
40
1
41
1
10
24.0960499887835
20
5.79326186002834
30
0
41
1
10
24.1125299365166
20
6.0805092733882
30
0
41
1
10
24.085516646146
20
6.38176603226179
30
0
41
1
10
23.9510349557887
20
6.96460287497158
30
0
41
1
10
23.8391837784631
20
7.25358918750732
30
0
41
1
10
23.539313667878
20
7.76668960333004
30
0
41
1
10
23.3478724937404
20
7.99888475996281
30
0
41
1
10
22.940656259845
20
8.35058962839051
30
0
41
1
10
22.7285517311476
20
8.485457074441
30
0
41
1
10
22.5044085069196
20
8.58558013548003
30
0
0
SPLINE
5
F1
100
AcDbEntity
8
1
62
256
6
ByLayer
370
18
48
1
60
0
100
AcDbSpline
70
4
71
3
72
10
73
6
40
0
40
0
40
0
40
0
40
0.453790533483937
40
0.453790533483937
40
1
40
1
40
1
40
1
41
1
10
23.7678235228719
20
-5.63830432195039
30
0
41
1
10
23.6733020314979
20
-5.79271146464603
30
0
41
1
10
23.5800258007616
20
-5.94508439126912
30
0
41
1
10
23.3877977269857
20
-6.25910173469202
30
0
41
1
10
23.2889720258371
20
-6.42054009032373
30
0
41
1
10
23.2040540610655
20
-6.55925923359291
30
0
0
SPLINE
5
F2
100
AcDbEntity
8
1
62
256
6
ByLayer
370
18
48
1
60
0
100
AcDbSpline
70
4
71
3
72
8
73
4
40
0
40
0
40
0
40
0
40
1
40
1
40
1
40
1
41
1
10
10.4580533646128
20
7.93922634204236
30
0
41
1
10
10.2804737479205
20
7.91255267690639
30
0
41
1
10
10.0988483622273
20
7.88634550187834
30
0
41
1
10
9.91928769657926
20
7.86207678414183
30
0
0
SPLINE
5
F3
100
AcDbEntity
8
1
62
256
6
ByLayer
370
18
48
1
60
0
100
AcDbSpline
70
4
71
3
72
8
73
4
40
0
40
0
40
0
40
0
40
1
40
1
40
1
40
1
41
1
10
8.26174947980519
20
6.60075159258
30
0
41
1
10
8.196287877283
20
6.43804441398555
30
0
41
1
10
8.13348685006272
20
6.27897030016038
30
0
41
1
10
8.07328016853643
20
6.12450226634246
30
0
0
SPLINE
5
F4
100
AcDbEntity
8
1
62
256
6
ByLayer
370
18
48
1
60
0
100
AcDbSpline
70
4
71
3
72
8
73
4
40
0
40
0
40
0
40
0
40
1
40
1
40
1
40
1
41
1
10
8.8005246546596
20
5.14552826241518
30
0
41
1
10
8.91287662680585
20
5.00468633267218
30
0
41
1
10
9.02601825282051
20
4.86724740560783
30
0
41
1
10
9.13801844268701
20
4.73395517967717
30
0
0
SPLINE
5
F5
100
AcDbEntity
8
1
62
256
6
ByLayer
370
18
48
1
60
0
100
AcDbSpline
70
4
71
3
72
10
73
6
40
0
40
0
40
0
40
0
40
0.300940878612909
40
0.300940878612909
40
1
40
1
40
1
40
1
41
1
10
8.07328016853643
20
6.12450226634246
30
0
41
1
10
8.10369358434707
20
6.08085890105798
30
0
41
1
10
8.13438929025938
20
6.0370917218971
30
0
41
1
10
8.23696946791705
20
5.89191279942958
30
0
41
1
10
8.31031824959874
20
5.78985018164039
30
0
41
1
10
8.38516881908913
20
5.6879825548024
30
0
0
SPLINE
5
F6
100
AcDbEntity
8
1
62
256
6
ByLayer
370
18
48
1
60
0
100
AcDbSpline
70
4
71
3
72
8
73
4
40
0
40
0
40
0
40
0
40
1
40
1
40
1
40
1
41
1
10
9.65117897324586
20
4.78615810877568
30
0
41
1
10
9.47566315910024
20
4.76677780746576
30
0
41
1
10
9.3037592486489
20
4.74951250464366
30
0
41
1
10
9.13801844268701
20
4.7339551796772
30
0
0
SPLINE
5
F7
100
AcDbEntity
8
1
62
256
6
ByLayer
370
18
48
1
60
0
100
AcDbSpline
70
4
71
3
72
10
73
6
40
0
40
0
40
0
40
0
40
0.300940878612905
40
0.300940878612905
40
1
40
1
40
1
40
1
41
1
10
8.7332976294993
20
7.72713784752506
30
0
41
1
10
8.71165755244706
20
7.67709360662042
30
0
41
1
10
8.69001643097198
20
7.62689071096793
30
0
41
1
10
8.61846533085767
20
7.46029934162507
30
0
41
1
10
8.56854381049158
20
7.34307851201046
30
0
41
1
10
8.51922318075583
20
7.22594189248548
30
0
0
SPLINE
5
F8
100
AcDbEntity
8
1
62
256
6
ByLayer
370
18
48
1
60
0
100
AcDbSpline
70
4
71
3
72
8
73
4
40
0
40
0
40
0
40
0
40
1
40
1
40
1
40
1
41
1
10
10.8627741778005
20
4.9460436741945
30
0
41
1
10
10.6851945611082
20
4.91937000905853
30
0
41
1
10
10.503569175415
20
4.89316283403048
30
0
41
1
10
10.3240085097669
20
4.86889411629394
30
0
0
SPLINE
5
F9
100
AcDbEntity
8
1
62
256
6
ByLayer
370
18
48
1
60
0
100
AcDbSpline
70
4
71
3
72
8
73
4
40
0
40
0
40
0
40
0
40
1
40
1
40
1
40
1
41
1
10
10.7699420151655
20
7.5027066305023
30
0
41
1
10
10.6627557480601
20
7.64858141454192
30
0
41
1
10
10.5586690754339
20
7.79484242120751
30
0
41
1
10
10.4580533646128
20
7.93922634204236
30
0
0
SPLINE
5
FA
100
AcDbEntity
8
1
62
256
6
ByLayer
370
18
48
1
60
0
100
AcDbSpline
70
4
71
3
72
8
73
4
40
0
40
0
40
0
40
0
40
1
40
1
40
1
40
1
41
1
10
9.24645816005813
20
7.77934077662354
30
0
41
1
10
9.0709423459125
20
7.75996047531362
30
0
41
1
10
8.89903843546119
20
7.74269517249155
30
0
41
1
10
8.7332976294993
20
7.72713784752506
30
0
0
SPLINE
5
FB
100
AcDbEntity
8
1
62
256
6
ByLayer
370
18
48
1
60
0
100
AcDbSpline
70
4
71
3
72
10
73
6
40
0
40
0
40
0
40
0
40
0.300940878612908
40
0.300940878612908
40
1
40
1
40
1
40
1
41
1
10
10.8627741778005
20
4.9460436741945
30
0
41
1
10
10.8809730338727
20
4.99273519486874
30
0
41
1
10
10.8993876944702
20
5.03979460722857
30
0
41
1
10
10.9611072731999
20
5.19680730062075
30
0
41
1
10
11.0055301867885
20
5.30867093571371
30
0
41
1
10
11.0512434890693
20
5.42229300043203
30
0
0
SPLINE
5
FC
100
AcDbEntity
8
1
62
256
6
ByLayer
370
18
48
1
60
0
100
AcDbSpline
70
4
71
3
72
10
73
6
40
0
40
0
40
0
40
0
40
0.300940878612919
40
0.300940878612919
40
1
40
1
40
1
40
1
41
1
10
11.5227916387634
20
6.5486792553771
30
0
41
1
10
11.4889370019727
20
6.58896990043115
30
0
41
1
10
11.4550148351828
20
6.6295935962994
30
0
41
1
10
11.3426031361405
20
6.76519384281625
30
0
41
1
10
11.2637557476813
20
6.86189926608375
30
0
41
1
10
11.185297850736
20
6.96025233811511
30
0
0
SPLINE
5
FD
100
AcDbEntity
8
1
62
256
6
ByLayer
370
18
48
1
60
0
100
AcDbSpline
70
4
71
3
72
8
73
4
40
0
40
0
40
0
40
0
40
1
40
1
40
1
40
1
41
1
10
11.3087171900199
20
6.04748330033752
30
0
41
1
10
11.3793444975829
20
6.21522333322855
30
0
41
1
10
11.4512004781917
20
6.38311952665495
30
0
41
1
10
11.5227916387634
20
6.5486792553771
30
0
0
SPLINE
5
FE
100
AcDbEntity
8
1
62
256
6
ByLayer
370
18
48
1
60
0
100
AcDbSpline
70
4
71
3
72
8
73
4
40
0
40
0
40
0
40
0
40
1
40
1
40
1
40
1
41
1
10
18.2043831316819
20
9.2480718826958
30
0
41
1
10
18.1508499737079
20
9.20314608881969
30
0
41
1
10
18.0973161234515
20
9.15821916431381
30
0
41
1
10
18.0437815871807
20
9.11329111941399
30
0
0
SPLINE
5
FF
100
AcDbEntity
8
1
62
256
6
ByLayer
370
18
48
1
60
0
100
AcDbSpline
70
4
71
3
72
8
73
4
40
0
40
0
40
0
40
0
40
1
40
1
40
1
40
1
41
1
10
26.543922629409
20
0.810538534519935
30
0
41
1
10
25.7547324214315
20
-0.478656158516884
30
0
41
1
10
25.2714023295075
20
-1.91804418499032
30
0
41
1
10
25.1204167406635
20
-3.42875334097269
30
0
0
SPLINE
5
100
100
AcDbEntity
8
1
62
256
6
ByLayer
370
18
48
1
60
0
100
AcDbSpline
70
4
71
3
72
11
73
7
40
0
40
0
40
0
40
0
40
0.789273244446747
40
0.789273244446747
40
0.789273244446747
40
1
40
1
40
1
40
1
41
1
10
19.5285036782171
20
-12.2463369799747
30
0
41
1
10
19.2541119016132
20
-12.5288867291869
30
0
41
1
10
18.9276986063593
20
-12.7656642869428
30
0
41
1
10
18.5748218095678
20
-12.9388523591742
30
0
41
1
10
18.4793473701696
20
-12.9857101697673
30
0
41
1
10
18.3815540452903
20
-13.0282337207608
30
0
41
1
10
18.2819974990354
20
-13.0661873226734
30
0
0
SPLINE
5
101
100
AcDbEntity
8
1
62
256
6
ByLayer
370
18
48
1
60
0
100
AcDbSpline
70
4
71
3
72
12
73
8
40
0
40
0
40
0
40
0
40
0.387334430761841
40
0.387334430761841
40
0.887622256215548
40
0.887622256215548
40
1
40
1
40
1
40
1
41
1
10
22.4029412026416
20
-5.34189084093575
30
0
41
1
10
22.5512830020885
20
-5.46892159608737
30
0
41
1
10
22.6847705964782
20
-5.61631152422285
30
0
41
1
10
22.9411418281983
20
-5.98369544162722
30
0
41
1
10
23.0528397121174
20
-6.21773067605415
30
0
41
1
10
23.1383181349797
20
-6.51402094470279
30
0
41
1
10
23.1520809681126
20
-6.56940186713982
30
0
41
1
10
23.1637380491476
20
-6.62511812044107
30
0
0
SPLINE
5
102
100
AcDbEntity
8
1
62
256
6
ByLayer
370
18
48
1
60
0
100
AcDbSpline
70
4
71
3
72
8
73
4
40
0
40
0
40
0
40
0
40
1
40
1
40
1
40
1
41
1
10
13.6742836932909
20
-7.69838243144753
30
0
41
1
10
14.5396382381095
20
-6.24452561891292
30
0
41
1
10
15.5030132166789
20
-4.85592782610536
30
0
41
1
10
16.5656785867828
20
-3.53269393036928
30
0
0
SPLINE
5
103
100
AcDbEntity
8
1
62
256
6
ByLayer
370
18
48
1
60
0
100
AcDbSpline
70
4
71
3
72
8
73
4
40
0
40
0
40
0
40
0
40
1
40
1
40
1
40
1
41
1
10
18.6503790143596
20
-13.9979902830725
30
0
41
1
10
18.6499777950199
20
-13.9986457015486
30
0
41
1
10
18.6495676691532
20
-13.999315669429
30
0
41
1
10
18.6491487510576
20
-14
30
0
0
SPLINE
5
104
100
AcDbEntity
8
1
62
256
6
ByLayer
370
18
48
1
60
0
100
AcDbSpline
70
4
71
3
72
8
73
4
40
0
40
0
40
0
40
0
40
1
40
1
40
1
40
1
41
1
10
18.1906758125526
20
-1.67449607324764
30
0
41
1
10
18.2126323947227
20
-1.63846730662021
30
0
41
1
10
18.2348183565878
20
-1.60214384906536
30
0
41
1
10
18.2571506012256
20
-1.56566264215272
30
0
0
SPLINE
5
105
100
AcDbEntity
8
1
62
256
6
ByLayer
370
18
48
1
60
0
100
AcDbSpline
70
4
71
3
72
8
73
4
40
0
40
0
40
0
40
0
40
1
40
1
40
1
40
1
41
1
10
20.0743205104514
20
-11.6718871441841
30
0
41
1
10
19.8944352804083
20
-11.8653918946483
30
0
41
1
10
19.7124769041147
20
-12.0568940255155
30
0
41
1
10
19.5285036782171
20
-12.2463369799747
30
0
0
SPLINE
5
106
100
AcDbEntity
8
1
62
256
6
ByLayer
370
18
48
1
60
0
100
AcDbSpline
70
4
71
3
72
8
73
4
40
0
40
0
40
0
40
0
40
1
40
1
40
1
40
1
41
1
10
19.3538074068206
20
-12.8488932196204
30
0
41
1
10
19.5874485195486
20
-12.4672249227264
30
0
41
1
10
19.8269214678239
20
-12.076029934596
30
0
41
1
10
20.0743205104514
20
-11.671887144184
30
0
0
SPLINE
5
107
100
AcDbEntity
8
1
62
256
6
ByLayer
370
18
48
1
60
0
100
AcDbSpline
70
4
71
3
72
16
73
12
40
0
40
0
40
0
40
0
40
0.100624088517869
40
0.100624088517869
40
0.273433647513454
40
0.273433647513454
40
0.594520629803133
40
0.594520629803133
40
0.859332600308665
40
0.859332600308665
40
1
40
1
40
1
40
1
41
1
10
13.3699063774046
20
-14
30
0
41
1
10
13.3323785827977
20
-14
30
0
41
1
10
13.2828810476893
20
-14
30
0
41
1
10
13.1283491827934
20
-14
30
0
41
1
10
13.0076024678727
20
-14
30
0
41
1
10
12.6365488651441
20
-14
30
0
41
1
10
12.3552562567293
20
-14
30
0
41
1
10
11.8215410717001
20
-14
30
0
41
1
10
11.5660128032876
20
-14
30
0
41
1
10
11.174942311347
20
-14
30
0
41
1
10
11.0382266095756
20
-14
30
0
41
1
10
10.9032930369177
20
-14
30
0
0
SPLINE
5
108
100
AcDbEntity
8
1
62
256
6
ByLayer
370
18
48
1
60
0
100
AcDbSpline
70
4
71
3
72
22
73
18
40
0
40
0
40
0
40
0
40
0.0458147039552372
40
0.0458147039552372
40
0.182042289438401
40
0.182042289438401
40
0.396605318343337
40
0.396605318343337
40
0.496959260995626
40
0.496959260995626
40
0.598773119108168
40
0.598773119108168
40
0.759125652770096
40
0.759125652770096
40
0.952343257581864
40
0.952343257581864
40
1
40
1
40
1
40
1
41
1
10
14.6194773757971
20
-2.37872125423385
30
0
41
1
10
14.6732662585389
20
-2.41712993918412
30
0
41
1
10
14.7291172220071
20
-2.45304983077119
30
0
41
1
10
14.9549226733025
20
-2.58368249087161
30
0
41
1
10
15.1373342289073
20
-2.65706688855568
30
0
41
1
10
15.6049395953833
20
-2.78366304213617
30
0
41
1
10
15.8977384072575
20
-2.80705158112383
30
0
41
1
10
16.3363582406483
20
-2.77946965252869
30
0
41
1
10
16.4817493701031
20
-2.76059119219576
30
0
41
1
10
16.7650333183921
20
-2.70415618388139
30
0
41
1
10
16.90482810603
20
-2.66579257918249
30
0
41
1
10
17.2275412750386
20
-2.55081700450134
30
0
41
1
10
17.4001472780507
20
-2.46282456195931
30
0
41
1
10
17.7496287712266
20
-2.2206621158131
30
0
41
1
10
17.9276782732139
20
-2.04982547177039
30
0
41
1
10
18.1189038513552
20
-1.7870384600451
30
0
41
1
10
18.1557566459165
20
-1.73179526926114
30
0
41
1
10
18.1906758125525
20
-1.67449607324761
30
0
0
SPLINE
5
109
100
AcDbEntity
8
1
62
256
6
ByLayer
370
18
48
1
60
0
100
AcDbSpline
70
4
71
3
72
8
73
4
40
0
40
0
40
0
40
0
40
1
40
1
40
1
40
1
41
1
10
19.5843825123569
20
-3.15224356960368
30
0
41
1
10
20.5577598612408
20
-3.83670336583714
30
0
41
1
10
21.5003970564067
20
-4.5690077770831
30
0
41
1
10
22.4029412026416
20
-5.34189084093575
30
0
0
SPLINE
5
10A
100
AcDbEntity
8
1
62
256
6
ByLayer
370
18
48
1
60
0
100
AcDbSpline
70
4
71
3
72
14
73
10
40
0
40
0
40
0
40
0
40
0.0037640506256402
40
0.0037640506256402
40
0.43524001865676
40
0.43524001865676
40
0.769289707986411
40
0.769289707986411
40
1
40
1
40
1
40
1
41
1
10
24.0476802339759
20
6.36625250751754
30
0
41
1
10
24.0467517766591
20
6.3688093222238
30
0
41
1
10
24.0458190010256
20
6.37136568096025
30
0
41
1
10
23.9380073845117
20
6.66542118886343
30
0
41
1
10
23.7733582632349
20
6.95486481261949
30
0
41
1
10
23.3899591007368
20
7.43795681629135
30
0
41
1
10
23.1870885550897
20
7.64350287896386
30
0
41
1
10
22.7967189624306
20
7.95841348252151
30
0
41
1
10
22.6197972781936
20
8.08058054228385
30
0
41
1
10
22.4374438251158
20
8.18702945359325
30
0
0
SPLINE
5
10B
100
AcDbEntity
8
1
62
256
6
ByLayer
370
18
48
1
60
0
100
AcDbSpline
70
4
71
3
72
8
73
4
40
0
40
0
40
0
40
0
40
1
40
1
40
1
40
1
41
1
10
18.6491487510591
20
-14
30
0
41
1
10
18.6486754228998
20
-14
30
0
41
1
10
18.6482117511984
20
-14
30
0
41
1
10
18.6477578227442
20
-14
30
0
0
SPLINE
5
10C
100
AcDbEntity
8
1
62
256
6
ByLayer
370
18
48
1
60
0
100
AcDbSpline
70
4
71
3
72
8
73
4
40
0
40
0
40
0
40
0
40
1
40
1
40
1
40
1
41
1
10
13.2866882923615
20
-8.64552114007091
30
0
41
1
10
13.3681253163752
20
-8.31364704389375
30
0
41
1
10
13.4997427889629
20
-7.99162349008938
30
0
41
1
10
13.6742836932908
20
-7.6983824314475
30
0
0
SPLINE
5
10D
100
AcDbEntity
8
1
62
256
6
ByLayer
370
18
48
1
60
0
100
AcDbSpline
70
4
71
3
72
10
73
6
40
0
40
0
40
0
40
0
40
0.530543621234422
40
0.530543621234422
40
1
40
1
40
1
40
1
41
1
10
2.31775814129617
20
10.020855682695
30
0
41
1
10
2.27155428571518
20
10.0040997504771
30
0
41
1
10
2.1954530928829
20
9.97859091246724
30
0
41
1
10
2.00649823004926
20
9.93964230884481
30
0
41
1
10
1.89635065958532
20
9.92500000000001
30
0
41
1
10
1.7722768192337
20
9.92500000000001
30
0
0
SPLINE
5
10E
100
AcDbEntity
8
1
62
256
6
ByLayer
370
18
48
1
60
0
100
AcDbSpline
70
4
71
3
72
8
73
4
40
0
40
0
40
0
40
0
40
1
40
1
40
1
40
1
41
1
10
18.6503790143607
20
-13.9979902830708
30
0
41
1
10
18.8625552192838
20
-13.6513863406872
30
0
41
1
10
19.0781772492981
20
-13.2991534138384
30
0
41
1
10
19.3538074068205
20
-12.8488932196205
30
0
0
SPLINE
5
10F
100
AcDbEntity
8
1
62
256
6
ByLayer
370
18
48
1
60
0
100
AcDbSpline
70
4
71
3
72
18
73
14
40
0
40
0
40
0
40
0
40
0.0883441489968335
40
0.0883441489968335
40
0.313514631729822
40
0.313514631729822
40
0.53664179426602
40
0.53664179426602
40
0.758683584073075
40
0.758683584073075
40
0.981137707792292
40
0.981137707792292
40
1
40
1
40
1
40
1
41
1
10
16.5656785867828
20
-3.53269393036928
30
0
41
1
10
16.625897344187
20
-3.4577093649566
30
0
41
1
10
16.6915249244933
20
-3.38659733925766
30
0
41
1
10
16.9396598183383
20
-3.15231038493059
30
0
41
1
10
17.1512253605375
20
-3.01279994037094
30
0
41
1
10
17.6041479040026
20
-2.81612361588267
30
0
41
1
10
17.8514638208187
20
-2.75553125440317
30
0
41
1
10
18.3470525672073
20
-2.71977322131437
30
0
41
1
10
18.6021082344505
20
-2.74369881182176
30
0
41
1
10
19.0860324941177
20
-2.87139414921845
30
0
41
1
10
19.321493617591
20
-2.97705302666302
30
0
41
1
10
19.5488949633356
20
-3.12765747587818
30
0
41
1
10
19.566726539755
20
-3.13982823712934
30
0
41
1
10
19.5843825123569
20
-3.15224356960368
30
0
0
LINE
5
76
100
AcDbEntity
8
80
62
256
6
ByLayer
370
18
48
1
60
0
100
AcDbLine
10
0
20
0
30
0
11
-5
21
0
31
0
39
0
210
0
220
0
230
1
0
LINE
5
77
100
AcDbEntity
8
1
62
256
6
ByLayer
370
18
48
1
60
0
100
AcDbLine
10
17.84925
20
-2.769995
30
0
11
16.967136
21
-2.935603
31
0
39
0
210
0
220
0
230
1
0
LINE
5
79
100
AcDbEntity
8
1
62
256
6
ByLayer
370
13
48
1
60
0
100
AcDbLine
10
21.206371
20
14.074644
30
0
11
20.490442
21
13.377127
31
0
39
0
210
0
220
0
230
1
0
LINE
5
7A
100
AcDbEntity
8
1
62
256
6
ByLayer
370
13
48
1
60
0
100
AcDbLine
10
28.049584
20
1.510521
30
0
11
28.765512
21
2.208038
31
0
39
0
210
0
220
0
230
1
0
LINE
5
7B
100
AcDbEntity
8
81
62
256
6
ByLayer
370
18
48
1
60
0
100
AcDbLine
10
36
20
15
30
0
11
41
21
15
31
0
39
0
210
0
220
0
230
1
0
LINE
5
7C
100
AcDbEntity
8
1
62
256
6
ByLayer
370
18
48
1
60
0
100
AcDbLine
10
8.81972
20
7.363577
30
0
11
8.564422
21
7.332184
31
0
39
0
210
0
220
0
230
1
0
LINE
5
7D
100
AcDbEntity
8
1
62
256
6
ByLayer
370
18
48
1
60
0
100
AcDbLine
10
10.582697
20
4.905012
30
0
11
10.624505
21
5.006529
31
0
39
0
210
0
220
0
230
1
0
LINE
5
7E
100
AcDbEntity
8
1
62
256
6
ByLayer
370
13
48
1
60
0
100
AcDbLine
10
17.671411
20
-2.259857
30
0
11
18.190676
21
-1.674496
31
0
39
0
210
0
220
0
230
1
0
LINE
5
7F
100
AcDbEntity
8
1
62
256
6
ByLayer
370
13
48
1
60
0
100
AcDbLine
10
27.546782
20
1.291183
30
0
11
26.814542
21
1.252808
31
0
39
0
210
0
220
0
230
1
0
LINE
5
80
100
AcDbEntity
8
1
62
256
6
ByLayer
370
13
48
1
60
0
100
AcDbLine
10
19.587134
20
0.874035
30
0
11
14.09575
21
0.586244
31
0
39
0
210
0
220
0
230
1
0
LINE
5
81
100
AcDbEntity
8
1
62
256
6
ByLayer
370
13
48
1
60
0
100
AcDbLine
10
0.772277
20
-12.882176
30
0
11
0.772277
21
9.925
31
0
39
0
210
0
220
0
230
1
0
LINE
5
82
100
AcDbEntity
8
1
62
256
6
ByLayer
370
13
48
1
60
0
100
AcDbLine
10
19.858266
20
12.390209
30
0
11
20.370338
21
13.226713
31
0
39
0
210
0
220
0
230
1
0
LINE
5
83
100
AcDbEntity
8
1
62
256
6
ByLayer
370
13
48
1
60
0
100
AcDbLine
10
14.811678
20
1.28376
30
0
11
14.09575
21
0.586244
31
0
39
0
210
0
220
0
230
1
0
LINE
5
84
100
AcDbEntity
8
1
62
256
6
ByLayer
370
13
48
1
60
0
100
AcDbLine
10
22.437444
20
8.187029
30
0
11
22.544204
21
7.397464
31
0
39
0
210
0
220
0
230
1
0
LINE
5
85
100
AcDbEntity
8
1
62
256
6
ByLayer
370
13
48
1
60
0
100
AcDbLine
10
14.038638
20
2.443053
30
0
11
14.08656
21
2.489743
31
0
39
0
210
0
220
0
230
1
0
LINE
5
86
100
AcDbEntity
8
1
62
256
6
ByLayer
370
13
48
1
60
0
100
AcDbLine
10
27.546782
20
1.291183
30
0
11
28.262711
21
1.988699
31
0
39
0
210
0
220
0
230
1
0
LINE
5
87
100
AcDbEntity
8
1
62
256
6
ByLayer
370
13
48
1
60
0
100
AcDbLine
10
13.674284
20
-7.698382
30
0
11
12.246693
21
-8.182401
31
0
39
0
210
0
220
0
230
1
0
LINE
5
88
100
AcDbEntity
8
1
62
256
6
ByLayer
370
13
48
1
60
0
100
AcDbLine
10
19.528504
20
-12.246337
30
0
11
19.353807
21
-12.848893
31
0
39
0
210
0
220
0
230
1
0
LINE
5
89
100
AcDbEntity
8
1
62
256
6
ByLayer
370
13
48
1
60
0
100
AcDbLine
10
16.565679
20
-3.532694
30
0
11
15.318665
21
-3.906326
31
0
39
0
210
0
220
0
230
1
0
LINE
5
8A
100
AcDbEntity
8
1
62
256
6
ByLayer
370
13
48
1
60
0
100
AcDbLine
10
2.317758
20
10.020856
30
0
11
2.317758
21
-14
31
0
39
0
210
0
220
0
230
1
0
LINE
5
8B
100
AcDbEntity
8
1
62
256
6
ByLayer
370
18
48
1
60
0
100
AcDbLine
10
19.462106
20
0.867445
30
0
11
17.460189
21
-2.402819
31
0
39
0
210
0
220
0
230
1
0
LINE
5
8C
100
AcDbEntity
8
1
62
256
6
ByLayer
370
18
48
1
60
0
100
AcDbLine
10
19.469238
20
0.794567
30
0
11
19.51559
21
0.870287
31
0
39
0
210
0
220
0
230
1
0
LINE
5
8D
100
AcDbEntity
8
1
62
256
6
ByLayer
370
18
48
1
60
0
100
AcDbLine
10
13.061329
20
0.279103
30
0
11
13.432158
21
0.884878
31
0
39
0
210
0
220
0
230
1
0
LINE
5
8E
100
AcDbEntity
8
1
62
256
6
ByLayer
370
18
48
1
60
0
100
AcDbLine
10
19.469238
20
0.794567
30
0
11
19.519914
21
0.797445
31
0
39
0
210
0
220
0
230
1
0
LINE
5
8F
100
AcDbEntity
8
1
62
256
6
ByLayer
370
18
48
1
60
0
100
AcDbLine
10
17.151083
20
-2.559696
30
0
11
19.241977
21
0.855919
31
0
39
0
210
0
220
0
230
1
0
LINE
5
90
100
AcDbEntity
8
1
62
256
6
ByLayer
370
18
48
1
60
0
100
AcDbLine
10
13.492233
20
0.818007
30
0
11
13.059883
21
0.111734
31
0
39
0
210
0
220
0
230
1
0
LINE
5
91
100
AcDbEntity
8
1
62
256
6
ByLayer
370
13
48
1
60
0
100
AcDbLine
10
21.086267
20
13.92423
30
0
11
20.370338
21
13.226713
31
0
39
0
210
0
220
0
230
1
0
LINE
5
92
100
AcDbEntity
8
1
62
256
6
ByLayer
370
13
48
1
60
0
100
AcDbLine
10
35.160205
20
14.998921
30
0
11
21.709172
21
14.293982
31
0
39
0
210
0
220
0
230
1
0
LINE
5
93
100
AcDbEntity
8
1
62
256
6
ByLayer
370
13
48
1
60
0
100
AcDbLine
10
14.811678
20
1.28376
30
0
11
28.262711
21
1.988699
31
0
39
0
210
0
220
0
230
1
0
LINE
5
94
100
AcDbEntity
8
1
62
256
6
ByLayer
370
13
48
1
60
0
100
AcDbLine
10
21.086267
20
13.92423
30
0
11
14.08656
21
2.489743
31
0
39
0
210
0
220
0
230
1
0
LINE
5
95
100
AcDbEntity
8
1
62
256
6
ByLayer
370
13
48
1
60
0
100
AcDbLine
10
28.885616
20
2.358452
30
0
11
35.885323
21
13.792938
31
0
39
0
210
0
220
0
230
1
0
LINE
5
96
100
AcDbEntity
8
1
62
256
6
ByLayer
370
18
48
1
60
0
100
AcDbLine
10
10.769942
20
7.502707
30
0
11
10.343203
21
7.086943
31
0
39
0
210
0
220
0
230
1
0
LINE
5
97
100
AcDbEntity
8
1
62
256
6
ByLayer
370
18
48
1
60
0
100
AcDbLine
10
10.624505
20
5.006529
30
0
11
11.051243
21
5.422293
31
0
39
0
210
0
220
0
230
1
0
LINE
5
98
100
AcDbEntity
8
1
62
256
6
ByLayer
370
18
48
1
60
0
100
AcDbLine
10
10.018512
20
7.510989
30
0
11
9.492549
21
7.446313
31
0
39
0
210
0
220
0
230
1
0
LINE
5
99
100
AcDbEntity
8
1
62
256
6
ByLayer
370
18
48
1
60
0
100
AcDbLine
10
10.758559
20
6.544489
30
0
11
11.185298
21
6.960252
31
0
39
0
210
0
220
0
230
1
0
LINE
5
9A
100
AcDbEntity
8
1
62
256
6
ByLayer
370
18
48
1
60
0
100
AcDbLine
10
10.881979
20
5.63172
30
0
11
11.083251
21
6.120442
31
0
39
0
210
0
220
0
230
1
0
LINE
5
9B
100
AcDbEntity
8
1
62
256
6
ByLayer
370
18
48
1
60
0
100
AcDbLine
10
11.083251
20
6.120442
30
0
11
10.758559
21
6.544489
31
0
39
0
210
0
220
0
230
1
0
LINE
5
9C
100
AcDbEntity
8
1
62
256
6
ByLayer
370
18
48
1
60
0
100
AcDbLine
10
9.492549
20
7.446313
30
0
11
9.919288
21
7.862077
31
0
39
0
210
0
220
0
230
1
0
LINE
5
9D
100
AcDbEntity
8
1
62
256
6
ByLayer
370
18
48
1
60
0
100
AcDbLine
10
11.308717
20
6.047483
30
0
11
10.881979
21
5.63172
31
0
39
0
210
0
220
0
230
1
0
LINE
5
9E
100
AcDbEntity
8
1
62
256
6
ByLayer
370
18
48
1
60
0
100
AcDbLine
10
9.246458
20
7.779341
30
0
11
8.81972
21
7.363577
31
0
39
0
210
0
220
0
230
1
0
LINE
5
9F
100
AcDbEntity
8
1
62
256
6
ByLayer
370
18
48
1
60
0
100
AcDbLine
10
10.343203
20
7.086943
30
0
11
10.018512
21
7.510989
31
0
39
0
210
0
220
0
230
1
0
LINE
5
A0
100
AcDbEntity
8
1
62
256
6
ByLayer
370
18
48
1
60
0
100
AcDbLine
10
11.083251
20
6.120442
30
0
11
11.522792
21
6.548679
31
0
39
0
210
0
220
0
230
1
0
LINE
5
A1
100
AcDbEntity
8
1
62
256
6
ByLayer
370
18
48
1
60
0
100
AcDbLine
10
10.018512
20
7.510989
30
0
11
10.458053
21
7.939226
31
0
39
0
210
0
220
0
230
1
0
LINE
5
A2
100
AcDbEntity
8
1
62
256
6
ByLayer
370
18
48
1
60
0
100
AcDbLine
10
20.074321
20
-11.671887
30
0
11
23.163738
21
-6.625118
31
0
39
0
210
0
220
0
230
1
0
LINE
5
A3
100
AcDbEntity
8
1
62
256
6
ByLayer
370
18
48
1
60
0
100
AcDbLine
10
0.317758
20
-11.18589
30
0
11
0.772277
21
-12.882176
31
0
39
0
210
0
220
0
230
1
0
LINE
5
A4
100
AcDbEntity
8
1
62
256
6
ByLayer
370
18
48
1
60
0
100
AcDbLine
10
18.204383
20
9.248072
30
0
11
20.136857
21
12.404896
31
0
39
0
210
0
220
0
230
1
0
LINE
5
A5
100
AcDbEntity
8
1
62
256
6
ByLayer
370
18
48
1
60
0
100
AcDbLine
10
3.755507
20
-14
30
0
11
3.045358
21
10.555843
31
0
39
0
210
0
220
0
230
1
0
LINE
5
A6
100
AcDbEntity
8
1
62
256
6
ByLayer
370
18
48
1
60
0
100
AcDbLine
10
18.257151
20
-1.565663
30
0
11
20.131025
21
1.495436
31
0
39
0
210
0
220
0
230
1
0
LINE
5
A7
100
AcDbEntity
8
1
62
256
6
ByLayer
370
18
48
1
60
0
100
AcDbLine
10
3.429876
20
11.52932
30
0
11
20.136857
21
12.404896
31
0
39
0
210
0
220
0
230
1
0
LINE
5
A8
100
AcDbEntity
8
1
62
256
6
ByLayer
370
18
48
1
60
0
100
AcDbLine
10
2.317758
20
-14
30
0
11
1.071797
21
-14
31
0
39
0
210
0
220
0
230
1
0
LINE
5
A9
100
AcDbEntity
8
1
62
256
6
ByLayer
370
18
48
1
60
0
100
AcDbLine
10
19.376136
20
0.633259
30
0
11
19.469238
21
0.794567
31
0
39
0
210
0
220
0
230
1
0
LINE
5
AA
100
AcDbEntity
8
1
62
256
6
ByLayer
370
18
48
1
60
0
100
AcDbLine
10
0
20
9.925
30
0
11
0.772277
21
9.925
31
0
39
0
210
0
220
0
230
1
0
LINE
5
AB
100
AcDbEntity
8
1
62
256
6
ByLayer
370
18
48
1
60
0
100
AcDbLine
10
13.369906
20
-14
30
0
11
18.647758
21
-14
31
0
39
0
210
0
220
0
230
1
0
LINE
5
AC
100
AcDbEntity
8
1
62
256
6
ByLayer
370
18
48
1
60
0
100
AcDbLine
10
27.209267
20
1.897422
30
0
11
20.131025
21
1.495436
31
0
39
0
210
0
220
0
230
1
0
LINE
5
AD
100
AcDbEntity
8
1
62
256
6
ByLayer
370
18
48
1
60
0
100
AcDbLine
10
3.429876
20
11.52932
30
0
11
3.317758
21
11.11089
31
0
39
0
210
0
220
0
230
1
0
LINE
5
AE
100
AcDbEntity
8
1
62
256
6
ByLayer
370
18
48
1
60
0
100
AcDbLine
10
13.405772
20
1.409222
30
0
11
15.676083
21
5.117925
31
0
39
0
210
0
220
0
230
1
0
LINE
5
AF
100
AcDbEntity
8
1
62
256
6
ByLayer
370
18
48
1
60
0
100
AcDbLine
10
25.120417
20
-3.428753
30
0
11
23.767824
21
-5.638304
31
0
39
0
210
0
220
0
230
1
0
LINE
5
B0
100
AcDbEntity
8
1
62
256
6
ByLayer
370
18
48
1
60
0
100
AcDbLine
10
19.376136
20
0.633259
30
0
11
20.131025
21
1.495436
31
0
39
0
210
0
220
0
230
1
0
LINE
5
B1
100
AcDbEntity
8
1
62
256
6
ByLayer
370
18
48
1
60
0
100
AcDbLine
10
10.903293
20
-14
30
0
11
3.755507
21
-14
31
0
39
0
210
0
220
0
230
1
0
LINE
5
B2
100
AcDbEntity
8
1
62
256
6
ByLayer
370
18
48
1
60
0
100
AcDbLine
10
15.997791
20
5.930541
30
0
11
17.627931
21
8.593483
31
0
39
0
210
0
220
0
230
1
0
LINE
5
B3
100
AcDbEntity
8
1
62
256
6
ByLayer
370
18
48
1
60
0
100
AcDbLine
10
0.772277
20
9.925
30
0
11
1.772277
21
9.925
31
0
39
0
210
0
220
0
230
1
0
LINE
5
B4
100
AcDbEntity
8
1
62
256
6
ByLayer
370
18
48
1
60
0
100
AcDbLine
10
27.209267
20
1.897422
30
0
11
26.543923
21
0.810539
31
0
39
0
210
0
220
0
230
1
0
LINE
5
B5
100
AcDbEntity
8
1
62
256
6
ByLayer
370
18
48
1
60
0
100
AcDbLine
10
0.772277
20
-12.882176
30
0
11
1.071797
21
-14
31
0
39
0
210
0
220
0
230
1
0
LINE
5
B6
100
AcDbEntity
8
1
62
256
6
ByLayer
370
18
48
1
60
0
100
AcDbLine
10
3.755507
20
-14
30
0
11
2.317758
21
-14
31
0
39
0
210
0
220
0
230
1
0
LINE
5
B7
100
AcDbEntity
8
1
62
256
6
ByLayer
370
18
48
1
60
0
100
AcDbLine
10
0
20
-10.57399
30
0
11
0
21
9.925
31
0
39
0
210
0
220
0
230
1
0
LINE
5
B8
100
AcDbEntity
8
SK1
62
256
6
ByLayer
370
18
48
1
60
0
100
AcDbLine
10
-66
20
9.925
30
0
11
0
21
9.925
31
0
39
0
210
0
220
0
230
1
0
LINE
5
BA
100
AcDbEntity
8
SK1
62
256
6
ByLayer
370
18
48
1
60
0
100
AcDbLine
10
-66
20
9.925
30
0
11
-69
21
6.925
31
0
39
0
210
0
220
0
230
1
0
LINE
5
BB
100
AcDbEntity
8
SK1
62
256
6
ByLayer
370
18
48
1
60
0
100
AcDbLine
10
-66
20
-10
30
0
11
-1.227723
21
-10
31
0
39
0
210
0
220
0
230
1
0
LINE
5
BC
100
AcDbEntity
8
SK1
62
256
6
ByLayer
370
18
48
1
60
0
100
AcDbLine
10
-66
20
-10
30
0
11
-69
21
-7
31
0
39
0
210
0
220
0
230
1
0
LINE
5
BD
100
AcDbEntity
8
SK1
62
256
6
ByLayer
370
18
48
1
60
0
100
AcDbLine
10
0
20
-10.57399
30
0
11
0
21
9.925
31
0
39
0
210
0
220
0
230
1
0
LINE
5
BE
100
AcDbEntity
8
SK1
62
256
6
ByLayer
370
18
48
1
60
0
100
AcDbLine
10
-69
20
6.925
30
0
11
-69
21
-7
31
0
39
0
210
0
220
0
230
1
0
MTEXT
5
110
100
AcDbEntity
8
SK6
62
256
6
ByLayer
370
18
48
1
60
0
100
AcDbMText
10
-34.171078
20
-54.125
30
0
210
0
220
0
230
1
1
\W0.7577;QS-PDJNR2020-15C
40
3.5
41
0
44
1.084337
50
0
71
7
72
5
7
iso_b_vert
0
DIMENSION
5
121
100
AcDbEntity
8
2
62
256
6
ByLayer
370
13
48
1
60
0
100
AcDbDimension
2
DimnDraft3D1
10
34.522884
20
15
30
0
11
34.522884
21
-1.607895
31
0
70
32
71
5
72
1
41
1
210
0
220
0
230
1
3
Standard
100
AcDbAlignedDimension
13
31
23
-10
33
0
14
34
24
15
34
0
50
90
100
AcDbRotatedDimension
1001
ACAD
1000
DSTYLE
1002
{
1070
    74
1070
     0
1070
   279
1070
     0
1070
   172
1070
     1
1070
   173
1070
     1
1070
   340
1005
111
1070
   271
1070
     1
1070
    77
1070
     1
1070
    73
1070
     0
1070
   171
1070
     3
1070
   274
1070
     4
1070
   177
1070
     2
1070
   176
1070
     2
1070
   178
1070
     7
1070
    78
1070
     8
1070
    41
1041
3.175
1070
   147
1041
1.75
1070
    42
1041
2.0
1070
    44
1041
2.0
1070
   140
1041
3.5
1070
   343
1005
122
1070
   344
1005
122
1002
}
0
DIMENSION
5
137
100
AcDbEntity
8
SK2
62
256
6
ByLayer
370
13
48
1
60
0
100
AcDbDimension
2
DimnDraft3D2
10
-83.60005
20
-10
30
0
11
-83.60005
21
-4.107895
31
0
70
32
71
5
72
1
41
1
210
0
220
0
230
1
3
Standard
100
AcDbAlignedDimension
13
-2
23
10
33
0
14
-71
24
-10
34
0
50
90
100
AcDbRotatedDimension
1001
ACAD
1000
DSTYLE
1002
{
1070
    74
1070
     0
1070
   279
1070
     0
1070
   172
1070
     1
1070
   173
1070
     1
1070
   340
1005
111
1070
   271
1070
     1
1070
    77
1070
     1
1070
    73
1070
     0
1070
   171
1070
     3
1070
   274
1070
     4
1070
   177
1070
     2
1070
   176
1070
     2
1070
   178
1070
     7
1070
    78
1070
     8
1070
    41
1041
3.175
1070
   147
1041
1.75
1070
    42
1041
2.0
1070
    44
1041
2.0
1070
   140
1041
3.5
1070
   343
1005
122
1070
   344
1005
122
1002
}
0
DIMENSION
5
145
100
AcDbEntity
8
2
62
256
6
ByLayer
370
13
48
1
60
0
100
AcDbDimension
2
DimnDraft3D3
10
41
20
15
30
0
11
29.556998
21
22.795799
31
0
70
34
71
5
72
1
41
1
210
0
220
0
230
1
3
Standard
100
AcDb2LineAngularDimension
13
36
23
15
33
0
14
35.737961
24
10
34
0
15
36
25
15
35
0
16
31.103258
26
20.160089
36
0
40
0
0
DIMENSION
5
153
100
AcDbEntity
8
SK2
62
256
6
ByLayer
370
13
48
1
60
0
100
AcDbDimension
2
DimnDraft3D4
10
36
20
-37.844955
30
0
11
-21.478289
21
-37.844955
31
0
70
32
71
5
72
1
41
1
210
0
220
0
230
1
3
Standard
100
AcDbAlignedDimension
13
-69
23
-12
33
0
14
36
24
13
34
0
50
0
100
AcDbRotatedDimension
1001
ACAD
1000
DSTYLE
1002
{
1070
   279
1070
     0
1070
   172
1070
     1
1070
   173
1070
     1
1070
   340
1005
111
1070
   271
1070
     1
1070
    77
1070
     1
1070
    73
1070
     0
1070
   171
1070
     3
1070
   274
1070
     4
1070
   177
1070
     2
1070
   176
1070
     2
1070
   178
1070
     7
1070
    78
1070
     8
1070
    41
1041
3.175
1070
   147
1041
1.75
1070
    42
1041
2.0
1070
    44
1041
2.0
1070
   140
1041
3.5
1070
   343
1005
122
1070
   344
1005
122
1002
}
0
DIMENSION
5
161
100
AcDbEntity
8
2
62
256
6
ByLayer
370
13
48
1
60
0
100
AcDbDimension
2
DimnDraft3D5
10
36
20
-27.1
30
0
11
13.892105
21
-27.1
31
0
70
32
71
5
72
1
41
1
210
0
220
0
230
1
3
Standard
100
AcDbAlignedDimension
13
0
23
8
33
0
14
36
24
13
34
0
50
0
100
AcDbRotatedDimension
1001
ACAD
1000
DSTYLE
1002
{
1070
   279
1070
     0
1070
   172
1070
     1
1070
   173
1070
     1
1070
   340
1005
111
1070
   271
1070
     1
1070
    77
1070
     1
1070
    73
1070
     0
1070
   171
1070
     3
1070
   274
1070
     4
1070
   177
1070
     2
1070
   176
1070
     2
1070
   178
1070
     7
1070
    78
1070
     8
1070
    41
1041
3.175
1070
   147
1041
1.75
1070
    42
1041
2.0
1070
    44
1041
2.0
1070
   140
1041
3.5
1070
   343
1005
122
1070
   344
1005
122
1002
}
0
DIMENSION
5
16F
100
AcDbEntity
8
SK2
62
256
6
ByLayer
370
13
48
1
60
0
100
AcDbDimension
2
DimnDraft3D6
10
-66
20
-27.1
30
0
11
-50.145
21
-27.1
31
0
70
32
71
5
72
1
41
1
210
0
220
0
230
1
3
Standard
100
AcDbAlignedDimension
13
-69
23
-12
33
0
14
-66
24
-12
34
0
50
0
100
AcDbRotatedDimension
1001
ACAD
1000
DSTYLE
1002
{
1070
   279
1070
     0
1070
   172
1070
     1
1070
   173
1070
     1
1070
   340
1005
111
1070
    77
1070
     1
1070
    73
1070
     0
1070
   171
1070
     3
1070
   274
1070
     4
1070
   177
1070
     2
1070
   176
1070
     2
1070
   178
1070
     7
1070
    78
1070
     8
1070
    41
1041
3.175
1070
   147
1041
1.75
1070
    42
1041
2.0
1070
    44
1041
2.0
1070
   140
1041
3.5
1070
   343
1005
122
1070
   344
1005
122
1002
}
0
ENDSEC
0
SECTION
2
OBJECTS
0
DICTIONARY
5
1d9
330
0
100
AcDbDictionary
280
0
281
1
3
ACAD_GROUP
350
1da
3
ACAD_MLINESTYLE
350
1db
0
DICTIONARY
5
1da
330
0
100
AcDbDictionary
280
0
281
1
0
DICTIONARY
5
1db
330
0
100
AcDbDictionary
280
0
281
1
3
Standard
350
18
0
MLINESTYLE
5
18
330
1db
100
AcDbMlineStyle
2
Standard
70
0
3

62
256
51
90
52
90
71
2
49
-0.5
62
256
6
ByLayer
49
0.5
62
256
6
ByLayer
0
RASTERVARIABLES
5
1c8
330

100
AcDbRasterVariables
90
0
70
1
71
1
72
1
0
ENDSEC
0
EOF
