0
SECTION
2
HEADER
9
$ACADVER
1
AC1015
9
$DWGCODEPAGE
3
ANSI_1252
9
$HANDSEED
5
1e6
9
$ANGBASE
50
0
9
$ANGDIR
70
0
9
$ATTMODE
70
1
9
$AUNITS
70
0
9
$AUPREC
70
0
9
$CECOLOR
62
256
9
$CELTSCALE
40
1
9
$CELTYPE
6
ByLayer
9
$CELWEIGHT
370
18
9
$CLAYER
8
0
9
$CMLJUST
70
0
9
$CMLSCALE
40
1
9
$CMLSTYLE
2
Standard
9
$DIMSTYLE
2
Standard
9
$TEXTSIZE
40
0.2
9
$TEXTSTYLE
7
Standard
9
$LUNITS
70
2
9
$LUPREC
70
4
9
$EXTNAMES
290
1
9
$INSUNITS
70
4
9
$LTSCALE
40
1
9
$LWDISPLAY
290
1
9
$PDMODE
70
0
9
$PDSIZE
40
0
9
$PLINEGEN
70
0
0
ENDSEC
0
SECTION
2
CLASSES
0
CLASS
1
RASTERVARIABLES
2
AcDbRasterVariables
3
ISM
90
0
280
0
281
0
0
ENDSEC
0
SECTION
2
TABLES
0
TABLE
2
VPORT
5
1dc
100
AcDbSymbolTable
0
VPORT
5
1
100
AcDbSymbolTableRecord
100
AcDbViewportTableRecord
2
*Active
70
0
10
0
20
0
11
1
21
1
12
-1
22
1
13
0
23
0
14
0.5
24
0.5
15
10
25
10
16
0
26
0
36
1
17
0
27
0
37
0
0
ENDTAB
0
TABLE
2
LTYPE
5
1dd
100
AcDbSymbolTable
0
LTYPE
5
14
100
AcDbSymbolTableRecord
100
AcDbLinetypeTableRecord
70
0
2
ByBlock
3

72
65
73
0
40
0
0
LTYPE
5
15
100
AcDbSymbolTableRecord
100
AcDbLinetypeTableRecord
70
0
2
ByLayer
3

72
65
73
0
40
0
0
LTYPE
5
16
100
AcDbSymbolTableRecord
100
AcDbLinetypeTableRecord
70
0
2
CONTINUOUS
3
Solid line
72
65
73
0
40
0
0
LTYPE
5
6A
100
AcDbSymbolTableRecord
100
AcDbLinetypeTableRecord
70
0
2
CENTER
3
____ _ ____ _ ____ _ ____
72
65
73
4
40
47.5
49
22
74
0
49
-8.5
74
0
49
8.5
74
0
49
-8.5
74
0
0
LTYPE
5
6B
100
AcDbSymbolTableRecord
100
AcDbLinetypeTableRecord
70
0
2
DASHED
3
__ __ __ __ __ __ __ __ __
72
65
73
2
40
25.72
49
12.86
74
0
49
-12.86
74
0
0
ENDTAB
0
TABLE
2
LAYER
5
1de
100
AcDbSymbolTable
0
LAYER
5
10
100
AcDbSymbolTableRecord
100
AcDbLayerTableRecord
2
0
70
0
62
7
6
CONTINUOUS
290
1
370
-3
390
0
0
LAYER
5
6D
100
AcDbSymbolTableRecord
100
AcDbLayerTableRecord
2
80
70
0
62
-6
6
CONTINUOUS
290
1
370
-3
390
0
0
LAYER
5
6F
100
AcDbSymbolTableRecord
100
AcDbLayerTableRecord
2
81
70
0
62
-3
6
CONTINUOUS
290
1
370
-3
390
0
0
LAYER
5
71
100
AcDbSymbolTableRecord
100
AcDbLayerTableRecord
2
2
70
0
62
7
6
CONTINUOUS
290
1
370
-3
390
0
0
LAYER
5
78
100
AcDbSymbolTableRecord
100
AcDbLayerTableRecord
2
1
70
0
62
4
6
CONTINUOUS
290
1
370
-3
390
0
0
LAYER
5
1c9
100
AcDbSymbolTableRecord
100
AcDbLayerTableRecord
2
SK1
70
0
62
4
6
CONTINUOUS
290
1
370
-3
390
0
0
LAYER
5
1ca
100
AcDbSymbolTableRecord
100
AcDbLayerTableRecord
2
SK6
70
0
62
5
6
CONTINUOUS
290
1
370
-3
390
0
0
LAYER
5
1cb
100
AcDbSymbolTableRecord
100
AcDbLayerTableRecord
2
SK2
70
0
62
7
6
CONTINUOUS
290
1
370
-3
390
0
0
ENDTAB
0
TABLE
2
STYLE
5
1df
100
AcDbSymbolTable
0
STYLE
5
11
100
AcDbSymbolTableRecord
100
AcDbTextStyleTableRecord
2
Standard
3
txt
70
0
71
0
40
0
41
1
42
0
50
0
0
STYLE
5
111
100
AcDbSymbolTableRecord
100
AcDbTextStyleTableRecord
2
iso_b_vert
3
simplex.shx
70
0
71
0
40
0
41
1
42
0
50
0
0
STYLE
5
112
100
AcDbSymbolTableRecord
100
AcDbTextStyleTableRecord
2
DWGDirectTextStyle
3
simplex
70
0
71
0
40
0
41
1
42
0
50
0
0
ENDTAB
0
TABLE
2
DIMSTYLE
5
1e0
100
AcDbSymbolTable
100
AcDbDimStyleTable
0
DIMSTYLE
105
27
100
AcDbSymbolTableRecord
100
AcDbDimStyleTableRecord
2
Standard
70
0
3
<>
41
0.18
42
0.0625
44
0.18
140
0.18
147
0.09
73
0
74
0
77
1
271
2
275
0
278
52
280
0
340
11
0
ENDTAB
0
TABLE
2
VIEW
5
1e1
100
AcDbSymbolTable
0
ENDTAB
0
TABLE
2
UCS
5
1e2
100
AcDbSymbolTable
0
ENDTAB
0
TABLE
2
APPID
5
1e3
100
AcDbSymbolTable
0
APPID
5
12
100
AcDbSymbolTableRecord
100
AcDbRegAppTableRecord
2
ACAD
70
0
0
ENDTAB
0
TABLE
2
BLOCK_RECORD
5
1e4
100
AcDbSymbolTable
0
BLOCK_RECORD
5
1F
100
AcDbSymbolTableRecord
100
AcDbBlockTableRecord
2
*Model_Space
340
0
70
0
0
BLOCK_RECORD
5
1B
100
AcDbSymbolTableRecord
100
AcDbBlockTableRecord
2
*Paper_Space
340
0
70
0
0
BLOCK_RECORD
5
23
100
AcDbSymbolTableRecord
100
AcDbBlockTableRecord
2
*Paper_Space0
340
0
70
0
0
BLOCK_RECORD
5
114
100
AcDbSymbolTableRecord
100
AcDbBlockTableRecord
2
DimnDraft3D1
340
0
70
0
0
BLOCK_RECORD
5
122
100
AcDbSymbolTableRecord
100
AcDbBlockTableRecord
2
_CLOSED
340
0
70
0
0
BLOCK_RECORD
5
129
100
AcDbSymbolTableRecord
100
AcDbBlockTableRecord
2
DimnDraft3D2
340
0
70
0
0
BLOCK_RECORD
5
138
100
AcDbSymbolTableRecord
100
AcDbBlockTableRecord
2
DimnDraft3D3
340
0
70
0
0
BLOCK_RECORD
5
146
100
AcDbSymbolTableRecord
100
AcDbBlockTableRecord
2
DimnDraft3D4
340
0
70
0
0
BLOCK_RECORD
5
154
100
AcDbSymbolTableRecord
100
AcDbBlockTableRecord
2
DimnDraft3D5
340
0
70
0
0
BLOCK_RECORD
5
162
100
AcDbSymbolTableRecord
100
AcDbBlockTableRecord
2
DimnDraft3D6
340
0
70
0
0
ENDTAB
0
ENDSEC
0
SECTION
2
BLOCKS
0
BLOCK
5
20
100
AcDbEntity
8
0
100
AcDbBlockBegin
2
*Model_Space
70
0
10
0
20
0
30
0
3
*Model_Space
0
ENDBLK
5
21
100
AcDbEntity
8
0
100
AcDbBlockEnd
0
BLOCK
5
1C
100
AcDbEntity
8
0
100
AcDbBlockBegin
2
*Paper_Space
70
0
10
0
20
0
30
0
3
*Paper_Space
0
ENDBLK
5
1D
100
AcDbEntity
8
0
100
AcDbBlockEnd
0
BLOCK
5
24
100
AcDbEntity
8
0
100
AcDbBlockBegin
2
*Paper_Space0
70
0
10
0
20
0
30
0
3
*Paper_Space0
0
ENDBLK
5
25
100
AcDbEntity
8
0
100
AcDbBlockEnd
0
BLOCK
5
11F
100
AcDbEntity
8
0
100
AcDbBlockBegin
2
DimnDraft3D1
70
0
10
0
20
0
30
0
3
DimnDraft3D1
0
MTEXT
5
115
100
AcDbEntity
8
2
62
256
6
ByLayer
370
18
48
1
60
0
100
AcDbMText
10
33.647884
20
0.267105
30
0
210
0
220
0
230
1
1
\W0.7346;32.0
40
3.5
41
0
44
1.084337
50
90
71
7
72
5
7
iso_b_vert
0
LINE
5
116
100
AcDbEntity
8
2
62
256
6
ByLayer
370
13
48
1
60
0
100
AcDbLine
10
31
20
-12.5
30
0
11
36.522884
21
-12.5
31
0
39
0
210
0
220
0
230
1
0
LINE
5
117
100
AcDbEntity
8
2
62
256
6
ByLayer
370
13
48
1
60
0
100
AcDbLine
10
34
20
19.5
30
0
11
32.522884
21
19.5
31
0
39
0
210
0
220
0
230
1
0
LINE
5
118
100
AcDbEntity
8
2
62
256
6
ByLayer
370
13
48
1
60
0
100
AcDbLine
10
34.522884
20
-12.5
30
0
11
34.522884
21
19.5
31
0
39
0
210
0
220
0
230
1
0
LINE
5
119
100
AcDbEntity
8
2
62
256
6
ByLayer
370
13
48
1
60
0
100
AcDbLine
10
34.522884
20
-12.5
30
0
11
34.104888
21
-9.325002
31
0
39
0
210
0
220
0
230
1
0
LINE
5
11A
100
AcDbEntity
8
2
62
256
6
ByLayer
370
13
48
1
60
0
100
AcDbLine
10
34.522884
20
-12.5
30
0
11
34.940881
21
-9.324998
31
0
39
0
210
0
220
0
230
1
0
LINE
5
11B
100
AcDbEntity
8
2
62
256
6
ByLayer
370
13
48
1
60
0
100
AcDbLine
10
34.104888
20
-9.325002
30
0
11
34.940881
21
-9.324998
31
0
39
0
210
0
220
0
230
1
0
LINE
5
11C
100
AcDbEntity
8
2
62
256
6
ByLayer
370
13
48
1
60
0
100
AcDbLine
10
34.522884
20
19.5
30
0
11
34.940881
21
16.325002
31
0
39
0
210
0
220
0
230
1
0
LINE
5
11D
100
AcDbEntity
8
2
62
256
6
ByLayer
370
13
48
1
60
0
100
AcDbLine
10
34.522884
20
19.5
30
0
11
34.104888
21
16.324998
31
0
39
0
210
0
220
0
230
1
0
LINE
5
11E
100
AcDbEntity
8
2
62
256
6
ByLayer
370
13
48
1
60
0
100
AcDbLine
10
34.940881
20
16.325002
30
0
11
34.104888
21
16.324998
31
0
39
0
210
0
220
0
230
1
0
ENDBLK
5
120
100
AcDbEntity
8
0
100
AcDbBlockEnd
0
BLOCK
5
123
100
AcDbEntity
8
0
100
AcDbBlockBegin
2
_CLOSED
70
0
10
0
20
0
30
0
3
_CLOSED
0
LINE
5
125
100
AcDbEntity
8
0
62
256
6
ByLayer
370
-2
48
1
60
0
100
AcDbLine
10
-1
20
0.166667
30
0
11
0
21
0
31
0
39
0
210
0
220
0
230
1
0
LINE
5
126
100
AcDbEntity
8
0
62
256
6
ByLayer
370
-2
48
1
60
0
100
AcDbLine
10
0
20
0
30
0
11
-1
21
-0.166667
31
0
39
0
210
0
220
0
230
1
0
LINE
5
127
100
AcDbEntity
8
0
62
256
6
ByLayer
370
-2
48
1
60
0
100
AcDbLine
10
-1
20
0.166667
30
0
11
-1
21
-0.166667
31
0
39
0
210
0
220
0
230
1
0
LINE
5
128
100
AcDbEntity
8
0
62
256
6
ByLayer
370
-2
48
1
60
0
100
AcDbLine
10
0
20
0
30
0
11
-1
21
0
31
0
39
0
210
0
220
0
230
1
0
ENDBLK
5
124
100
AcDbEntity
8
0
100
AcDbBlockEnd
0
BLOCK
5
135
100
AcDbEntity
8
0
100
AcDbBlockBegin
2
DimnDraft3D2
70
0
10
0
20
0
30
0
3
DimnDraft3D2
0
MTEXT
5
12A
100
AcDbEntity
8
SK2
62
256
6
ByLayer
370
18
48
1
60
0
100
AcDbMText
10
-99.47505
20
-3.232895
30
0
210
0
220
0
230
1
1
\W0.7346;25.0
40
3.5
41
0
44
1.084337
50
90
71
7
72
5
7
iso_b_vert
0
LINE
5
12C
100
AcDbEntity
8
SK2
62
256
6
ByLayer
370
13
48
1
60
0
100
AcDbLine
10
-2
20
12.5
30
0
11
-100.60005
21
12.5
31
0
39
0
210
0
220
0
230
1
0
LINE
5
12D
100
AcDbEntity
8
SK2
62
256
6
ByLayer
370
13
48
1
60
0
100
AcDbLine
10
-86
20
-12.5
30
0
11
-100.60005
21
-12.5
31
0
39
0
210
0
220
0
230
1
0
LINE
5
12E
100
AcDbEntity
8
SK2
62
256
6
ByLayer
370
13
48
1
60
0
100
AcDbLine
10
-98.60005
20
12.5
30
0
11
-98.60005
21
-12.5
31
0
39
0
210
0
220
0
230
1
0
LINE
5
12F
100
AcDbEntity
8
SK2
62
256
6
ByLayer
370
13
48
1
60
0
100
AcDbLine
10
-98.60005
20
12.5
30
0
11
-98.182053
21
9.325002
31
0
39
0
210
0
220
0
230
1
0
LINE
5
130
100
AcDbEntity
8
SK2
62
256
6
ByLayer
370
13
48
1
60
0
100
AcDbLine
10
-98.60005
20
12.5
30
0
11
-99.018047
21
9.324998
31
0
39
0
210
0
220
0
230
1
0
LINE
5
131
100
AcDbEntity
8
SK2
62
256
6
ByLayer
370
13
48
1
60
0
100
AcDbLine
10
-98.182053
20
9.325002
30
0
11
-99.018047
21
9.324998
31
0
39
0
210
0
220
0
230
1
0
LINE
5
132
100
AcDbEntity
8
SK2
62
256
6
ByLayer
370
13
48
1
60
0
100
AcDbLine
10
-98.60005
20
-12.5
30
0
11
-99.018047
21
-9.325002
31
0
39
0
210
0
220
0
230
1
0
LINE
5
133
100
AcDbEntity
8
SK2
62
256
6
ByLayer
370
13
48
1
60
0
100
AcDbLine
10
-98.60005
20
-12.5
30
0
11
-98.182053
21
-9.324998
31
0
39
0
210
0
220
0
230
1
0
LINE
5
134
100
AcDbEntity
8
SK2
62
256
6
ByLayer
370
13
48
1
60
0
100
AcDbLine
10
-99.018047
20
-9.325002
30
0
11
-98.182053
21
-9.324998
31
0
39
0
210
0
220
0
230
1
0
ENDBLK
5
136
100
AcDbEntity
8
0
100
AcDbBlockEnd
0
BLOCK
5
143
100
AcDbEntity
8
0
100
AcDbBlockBegin
2
DimnDraft3D3
70
0
10
0
20
0
30
0
3
DimnDraft3D3
0
MTEXT
5
139
100
AcDbEntity
8
2
62
256
6
ByLayer
370
18
48
1
60
0
100
AcDbMText
10
28.180447
20
23.239136
30
0
210
0
220
0
230
1
1
\W0.8292;93%%d0'
40
3
41
0
44
1.084337
50
39.5727452227697
71
7
72
5
7
iso_b_vert
0
LINE
5
13A
100
AcDbEntity
8
2
62
256
6
ByLayer
370
13
48
1
60
0
100
AcDbLine
10
36.104672
20
21.497259
30
0
11
36.476974
21
28.601201
31
0
39
0
210
0
220
0
230
1
0
LINE
5
13B
100
AcDbEntity
8
2
62
256
6
ByLayer
370
13
48
1
60
0
100
AcDbLine
10
34
20
19.5
30
0
11
26.886309
21
19.5
31
0
39
0
210
0
220
0
230
1
0
ARC
5
13C
100
AcDbEntity
8
2
62
256
6
ByLayer
370
13
48
1
60
0
100
AcDbCircle
39
0
10
36
20
19.5
30
0
40
7.11369128120759
210
0
220
0
230
1
100
AcDbArc
50
87
51
180
0
LINE
5
13D
100
AcDbEntity
8
2
62
256
6
ByLayer
370
13
48
1
60
0
100
AcDbLine
10
36.372302
20
26.603942
30
0
11
33.226525
21
26.00442
31
0
39
0
210
0
220
0
230
1
0
LINE
5
13E
100
AcDbEntity
8
2
62
256
6
ByLayer
370
13
48
1
60
0
100
AcDbLine
10
36.372302
20
26.603942
30
0
11
33.178544
21
26.839035
31
0
39
0
210
0
220
0
230
1
0
LINE
5
13F
100
AcDbEntity
8
2
62
256
6
ByLayer
370
13
48
1
60
0
100
AcDbLine
10
33.226525
20
26.00442
30
0
11
33.178544
21
26.839035
31
0
39
0
210
0
220
0
230
1
0
LINE
5
140
100
AcDbEntity
8
2
62
256
6
ByLayer
370
13
48
1
60
0
100
AcDbLine
10
28.886309
20
19.5
30
0
11
28.818686
21
22.701681
31
0
39
0
210
0
220
0
230
1
0
LINE
5
141
100
AcDbEntity
8
2
62
256
6
ByLayer
370
13
48
1
60
0
100
AcDbLine
10
28.886309
20
19.5
30
0
11
29.649647
21
22.610092
31
0
39
0
210
0
220
0
230
1
0
LINE
5
142
100
AcDbEntity
8
2
62
256
6
ByLayer
370
13
48
1
60
0
100
AcDbLine
10
28.818686
20
22.701681
30
0
11
29.649647
21
22.610092
31
0
39
0
210
0
220
0
230
1
0
ENDBLK
5
144
100
AcDbEntity
8
0
100
AcDbBlockEnd
0
BLOCK
5
151
100
AcDbEntity
8
0
100
AcDbBlockBegin
2
DimnDraft3D4
70
0
10
0
20
0
30
0
3
DimnDraft3D4
0
MTEXT
5
147
100
AcDbEntity
8
SK2
62
256
6
ByLayer
370
18
48
1
60
0
100
AcDbMText
10
-28.103289
20
-39.469955
30
0
210
0
220
0
230
1
1
\W0.6864;120.0
40
3.5
41
0
44
1.084337
50
0
71
7
72
5
7
iso_b_vert
0
LINE
5
148
100
AcDbEntity
8
SK2
62
256
6
ByLayer
370
13
48
1
60
0
100
AcDbLine
10
-84
20
-14.5
30
0
11
-84
21
-42.344955
31
0
39
0
210
0
220
0
230
1
0
LINE
5
149
100
AcDbEntity
8
SK2
62
256
6
ByLayer
370
13
48
1
60
0
100
AcDbLine
10
36
20
17.5
30
0
11
36
21
-42.344955
31
0
39
0
210
0
220
0
230
1
0
LINE
5
14A
100
AcDbEntity
8
SK2
62
256
6
ByLayer
370
13
48
1
60
0
100
AcDbLine
10
-84
20
-40.344955
30
0
11
36
21
-40.344955
31
0
39
0
210
0
220
0
230
1
0
LINE
5
14B
100
AcDbEntity
8
SK2
62
256
6
ByLayer
370
13
48
1
60
0
100
AcDbLine
10
-84
20
-40.344955
30
0
11
-80.825002
21
-39.926958
31
0
39
0
210
0
220
0
230
1
0
LINE
5
14C
100
AcDbEntity
8
SK2
62
256
6
ByLayer
370
13
48
1
60
0
100
AcDbLine
10
-84
20
-40.344955
30
0
11
-80.824998
21
-40.762951
31
0
39
0
210
0
220
0
230
1
0
LINE
5
14D
100
AcDbEntity
8
SK2
62
256
6
ByLayer
370
13
48
1
60
0
100
AcDbLine
10
-80.825002
20
-39.926958
30
0
11
-80.824998
21
-40.762951
31
0
39
0
210
0
220
0
230
1
0
LINE
5
14E
100
AcDbEntity
8
SK2
62
256
6
ByLayer
370
13
48
1
60
0
100
AcDbLine
10
36
20
-40.344955
30
0
11
32.825002
21
-40.762951
31
0
39
0
210
0
220
0
230
1
0
LINE
5
14F
100
AcDbEntity
8
SK2
62
256
6
ByLayer
370
13
48
1
60
0
100
AcDbLine
10
36
20
-40.344955
30
0
11
32.824998
21
-39.926958
31
0
39
0
210
0
220
0
230
1
0
LINE
5
150
100
AcDbEntity
8
SK2
62
256
6
ByLayer
370
13
48
1
60
0
100
AcDbLine
10
32.825002
20
-40.762951
30
0
11
32.824998
21
-39.926958
31
0
39
0
210
0
220
0
230
1
0
ENDBLK
5
152
100
AcDbEntity
8
0
100
AcDbBlockEnd
0
BLOCK
5
15F
100
AcDbEntity
8
0
100
AcDbBlockBegin
2
DimnDraft3D5
70
0
10
0
20
0
30
0
3
DimnDraft3D5
0
MTEXT
5
155
100
AcDbEntity
8
2
62
256
6
ByLayer
370
18
48
1
60
0
100
AcDbMText
10
14.767105
20
-24.72505
30
0
210
0
220
0
230
1
1
\W0.7346;36.0
40
3.5
41
0
44
1.084337
50
0
71
7
72
5
7
iso_b_vert
0
LINE
5
156
100
AcDbEntity
8
2
62
256
6
ByLayer
370
13
48
1
60
0
100
AcDbLine
10
0
20
10.5
30
0
11
0
21
-27.60005
31
0
39
0
210
0
220
0
230
1
0
LINE
5
157
100
AcDbEntity
8
2
62
256
6
ByLayer
370
13
48
1
60
0
100
AcDbLine
10
36
20
17.5
30
0
11
36
21
-27.60005
31
0
39
0
210
0
220
0
230
1
0
LINE
5
158
100
AcDbEntity
8
2
62
256
6
ByLayer
370
13
48
1
60
0
100
AcDbLine
10
0
20
-25.60005
30
0
11
36
21
-25.60005
31
0
39
0
210
0
220
0
230
1
0
LINE
5
159
100
AcDbEntity
8
2
62
256
6
ByLayer
370
13
48
1
60
0
100
AcDbLine
10
0
20
-25.60005
30
0
11
3.174998
21
-25.182053
31
0
39
0
210
0
220
0
230
1
0
LINE
5
15A
100
AcDbEntity
8
2
62
256
6
ByLayer
370
13
48
1
60
0
100
AcDbLine
10
0
20
-25.60005
30
0
11
3.175002
21
-26.018047
31
0
39
0
210
0
220
0
230
1
0
LINE
5
15B
100
AcDbEntity
8
2
62
256
6
ByLayer
370
13
48
1
60
0
100
AcDbLine
10
3.174998
20
-25.182053
30
0
11
3.175002
21
-26.018047
31
0
39
0
210
0
220
0
230
1
0
LINE
5
15C
100
AcDbEntity
8
2
62
256
6
ByLayer
370
13
48
1
60
0
100
AcDbLine
10
36
20
-25.60005
30
0
11
32.825002
21
-26.018047
31
0
39
0
210
0
220
0
230
1
0
LINE
5
15D
100
AcDbEntity
8
2
62
256
6
ByLayer
370
13
48
1
60
0
100
AcDbLine
10
36
20
-25.60005
30
0
11
32.824998
21
-25.182053
31
0
39
0
210
0
220
0
230
1
0
LINE
5
15E
100
AcDbEntity
8
2
62
256
6
ByLayer
370
13
48
1
60
0
100
AcDbLine
10
32.825002
20
-26.018047
30
0
11
32.824998
21
-25.182053
31
0
39
0
210
0
220
0
230
1
0
ENDBLK
5
160
100
AcDbEntity
8
0
100
AcDbBlockEnd
0
BLOCK
5
16D
100
AcDbEntity
8
0
100
AcDbBlockBegin
2
DimnDraft3D6
70
0
10
0
20
0
30
0
3
DimnDraft3D6
0
MTEXT
5
163
100
AcDbEntity
8
SK2
62
256
6
ByLayer
370
18
48
1
60
0
100
AcDbMText
10
-69.87
20
-24.72505
30
0
210
0
220
0
230
1
1
\W0.7121;3.0
40
3.5
41
0
44
1.084337
50
0
71
7
72
5
7
iso_b_vert
0
LINE
5
164
100
AcDbEntity
8
SK2
62
256
6
ByLayer
370
13
48
1
60
0
100
AcDbLine
10
-84
20
-14.5
30
0
11
-84
21
-27.60005
31
0
39
0
210
0
220
0
230
1
0
LINE
5
165
100
AcDbEntity
8
SK2
62
256
6
ByLayer
370
13
48
1
60
0
100
AcDbLine
10
-81
20
-14.5
30
0
11
-81
21
-27.60005
31
0
39
0
210
0
220
0
230
1
0
LINE
5
166
100
AcDbEntity
8
SK2
62
256
6
ByLayer
370
13
48
1
60
0
100
AcDbLine
10
-65.145
20
-25.60005
30
0
11
-92.75
21
-25.60005
31
0
39
0
210
0
220
0
230
1
0
LINE
5
167
100
AcDbEntity
8
SK2
62
256
6
ByLayer
370
13
48
1
60
0
100
AcDbLine
10
-84
20
-25.60005
30
0
11
-87.174998
21
-26.018047
31
0
39
0
210
0
220
0
230
1
0
LINE
5
168
100
AcDbEntity
8
SK2
62
256
6
ByLayer
370
13
48
1
60
0
100
AcDbLine
10
-84
20
-25.60005
30
0
11
-87.175002
21
-25.182053
31
0
39
0
210
0
220
0
230
1
0
LINE
5
169
100
AcDbEntity
8
SK2
62
256
6
ByLayer
370
13
48
1
60
0
100
AcDbLine
10
-87.174998
20
-26.018047
30
0
11
-87.175002
21
-25.182053
31
0
39
0
210
0
220
0
230
1
0
LINE
5
16A
100
AcDbEntity
8
SK2
62
256
6
ByLayer
370
13
48
1
60
0
100
AcDbLine
10
-81
20
-25.60005
30
0
11
-77.825002
21
-25.182053
31
0
39
0
210
0
220
0
230
1
0
LINE
5
16B
100
AcDbEntity
8
SK2
62
256
6
ByLayer
370
13
48
1
60
0
100
AcDbLine
10
-81
20
-25.60005
30
0
11
-77.824998
21
-26.018047
31
0
39
0
210
0
220
0
230
1
0
LINE
5
16C
100
AcDbEntity
8
SK2
62
256
6
ByLayer
370
13
48
1
60
0
100
AcDbLine
10
-77.825002
20
-25.182053
30
0
11
-77.824998
21
-26.018047
31
0
39
0
210
0
220
0
230
1
0
ENDBLK
5
16E
100
AcDbEntity
8
0
100
AcDbBlockEnd
0
ENDSEC
0
SECTION
2
ENTITIES
0
ARC
5
BF
100
AcDbEntity
8
1
62
256
6
ByLayer
370
18
48
1
60
0
100
AcDbCircle
39
0
10
-1.772277
20
14.025
30
0
40
1.60000000004468
210
0
220
0
230
-1
100
AcDbArc
50
195
51
213.858059
0
ARC
5
C0
100
AcDbEntity
8
1
62
256
6
ByLayer
370
18
48
1
60
0
100
AcDbCircle
39
0
10
-1.772277
20
14.025
30
0
40
1.60000000000108
210
0
220
0
230
-1
100
AcDbArc
50
213.858059
51
250.06671
0
ELLIPSE
5
C1
100
AcDbEntity
8
1
62
256
6
ByLayer
370
13
48
1
60
0
100
AcDbEllipse
10
11.461014
20
0.994787
30
0
11
1.17236469781617
21
-1.08883470523051
31
0
210
0
220
0
230
1
40
0.157217
41
-1.57865558833354
42
-0.0951257241383713
0
ELLIPSE
5
C2
100
AcDbEntity
8
1
62
256
6
ByLayer
370
13
48
1
60
0
100
AcDbEllipse
10
20.299181
20
-1.068157
30
0
11
1.10672248382274
21
1.15549354987435
31
0
210
0
220
0
230
1
40
0.005511
41
1.72876649336016
42
2.35537221439099
0
ELLIPSE
5
C3
100
AcDbEntity
8
1
62
256
6
ByLayer
370
13
48
1
60
0
100
AcDbEllipse
10
20.699497
20
-7.093213
30
0
11
1.23835490439648
21
-1.0131520768163
31
0
210
0
220
0
230
1
40
0.156434
41
-3.07203217765251
42
-2.77381230083323
0
ELLIPSE
5
C4
100
AcDbEntity
8
1
62
256
6
ByLayer
370
18
48
1
60
0
100
AcDbEllipse
10
15.443729
20
4.645
30
0
11
1.67480761148296
21
-1.71901700530238
31
0
210
0
220
0
230
1
40
0.987534
41
-2.89546060709722
42
-1.43827488114089
0
ELLIPSE
5
C5
100
AcDbEntity
8
1
62
256
6
ByLayer
370
18
48
1
60
0
100
AcDbEllipse
10
19.835717
20
11.723909
30
0
11
1.81437491243987
21
-1.8622684224109
31
0
210
0
220
0
230
1
40
0.987534
41
3.04638692788296
42
-2.89546060709723
0
ELLIPSE
5
C6
100
AcDbEntity
8
1
62
256
6
ByLayer
370
13
48
1
60
0
100
AcDbEllipse
10
12.802856
20
-6.776866
30
0
11
4.17865654168239
21
-4.28895928417095
31
0
210
0
220
0
230
1
40
0.987534
41
-2.96283849759687
42
-1.04418684779687
0
ELLIPSE
5
C7
100
AcDbEntity
8
1
62
256
6
ByLayer
370
13
48
1
60
0
100
AcDbEllipse
10
-8.180303
20
-30.842058
30
0
11
28.9365791413051
21
-29.700409335456
31
0
210
0
220
0
230
1
40
0.987534
41
1.60581384237959
42
1.69643034631641
0
ELLIPSE
5
C8
100
AcDbEntity
8
1
62
256
6
ByLayer
370
13
48
1
60
0
100
AcDbEllipse
10
12.802856
20
-6.776866
30
0
11
4.17865654168239
21
-4.28895928417095
31
0
210
0
220
0
230
1
40
0.987534
41
-0.488020026800147
42
-0.195776361239712
0
ELLIPSE
5
C9
100
AcDbEntity
8
1
62
256
6
ByLayer
370
18
48
1
60
0
100
AcDbEllipse
10
-61.889611
20
-92.287324
30
0
11
74.7883094638406
21
86.2455862692485
31
0
210
0
220
0
230
1
40
0.350398
41
-0.0967736484441999
42
0.0721452016868028
0
ELLIPSE
5
CA
100
AcDbEntity
8
1
62
256
6
ByLayer
370
18
48
1
60
0
100
AcDbEllipse
10
14.713894
20
-2.063779
30
0
11
-2.00433882235401
21
2.05724675263655
31
0
210
0
220
0
230
1
40
0.987534
41
-0.581043581576873
42
-0.517807920766559
0
ELLIPSE
5
CB
100
AcDbEntity
8
1
62
256
6
ByLayer
370
13
48
1
60
0
100
AcDbEllipse
10
14.713894
20
-2.063779
30
0
11
-2.00433882235401
21
2.05724675263655
31
0
210
0
220
0
230
1
40
0.987534
41
-0.517807920766561
42
0.0493277936269345
0
ELLIPSE
5
CC
100
AcDbEntity
8
1
62
256
6
ByLayer
370
18
48
1
60
0
100
AcDbEllipse
10
16.054467
20
4.149839
30
0
11
-1.7551577352002
21
1.80148810711793
31
0
210
0
220
0
230
1
40
0.987534
41
2.57346981073074
42
-2.89546060709723
0
ELLIPSE
5
CD
100
AcDbEntity
8
1
62
256
6
ByLayer
370
13
48
1
60
0
100
AcDbEllipse
10
17.070822
20
-4.431792
30
0
11
3.11662846427604
21
-3.19889717037773
31
0
210
0
220
0
230
1
40
0.987534
41
1.08183157565703
42
1.60581384237959
0
ELLIPSE
5
CE
100
AcDbEntity
8
1
62
256
6
ByLayer
370
13
48
1
60
0
100
AcDbEllipse
10
41.792879
20
-27.275802
30
0
11
-27.824289499383
21
28.5587589177149
31
0
210
0
220
0
230
1
40
0.987534
41
0.0493277936269283
42
0.178754155992927
0
ELLIPSE
5
CF
100
AcDbEntity
8
1
62
256
6
ByLayer
370
18
48
1
60
0
100
AcDbEllipse
10
16.054467
20
4.149839
30
0
11
-1.7551577352002
21
1.80148810711793
31
0
210
0
220
0
230
1
40
0.987534
41
1.38535746035319
42
1.68983291498953
0
ELLIPSE
5
D0
100
AcDbEntity
8
1
62
256
6
ByLayer
370
13
48
1
60
0
100
AcDbEllipse
10
8.118087
20
-3.114214
30
0
11
1.30456099000011
21
-0.926348003382057
31
0
210
0
220
0
230
1
40
0.1549
41
-1.59912979472743
42
-0.115599930532244
0
ELLIPSE
5
D1
100
AcDbEntity
8
1
62
256
6
ByLayer
370
13
48
1
60
0
100
AcDbEllipse
10
14.549224
20
-2.224213
30
0
11
3.11662846427604
21
-3.19889717037773
31
0
210
0
220
0
230
1
40
0.987534
41
2.37483914792889
42
-3.09226485996286
0
ELLIPSE
5
D2
100
AcDbEntity
8
1
62
256
6
ByLayer
370
13
48
1
60
0
100
AcDbEllipse
10
41.628209
20
-27.436236
30
0
11
28.9365791413051
21
-29.700409335456
31
0
210
0
220
0
230
1
40
0.987534
41
-3.09226485996286
42
-2.96283849759686
0
ELLIPSE
5
D3
100
AcDbEntity
8
1
62
256
6
ByLayer
370
13
48
1
60
0
100
AcDbEllipse
10
14.549224
20
-2.224213
30
0
11
3.11662846427604
21
-3.19889717037773
31
0
210
0
220
0
230
1
40
0.987534
41
1.69643034631642
42
1.88846357779137
0
ELLIPSE
5
D4
100
AcDbEntity
8
1
62
256
6
ByLayer
370
13
48
1
60
0
100
AcDbEllipse
10
12.967525
20
-6.616432
30
0
11
-3.06636689976036
21
3.14730886642977
31
0
210
0
220
0
230
1
40
0.987534
41
0.178754155992924
42
3.12349003270307
0
ELLIPSE
5
D5
100
AcDbEntity
8
1
62
256
6
ByLayer
370
18
48
1
60
0
100
AcDbEllipse
10
23.13411
20
10.837135
30
0
11
-2.2243538590008
21
2.28306946016721
31
0
210
0
220
0
230
1
40
0.987534
41
-2.47126685979845
42
-0.670309162819347
0
ELLIPSE
5
D6
100
AcDbEntity
8
1
62
256
6
ByLayer
370
13
48
1
60
0
100
AcDbEllipse
10
17.235491
20
-4.271358
30
0
11
-2.00433882235401
21
2.05724675263655
31
0
210
0
220
0
230
1
40
0.987534
41
-3.03026891211051
42
-2.56055541028926
0
ELLIPSE
5
D7
100
AcDbEntity
8
1
62
256
6
ByLayer
370
13
48
1
60
0
100
AcDbEllipse
10
17.473211
20
1.40589
30
0
11
0.999010940020389
21
1.24979083918853
31
0
210
0
220
0
230
1
40
0.019724
41
1.72763639415534
42
2.3624716640884
0
ELLIPSE
5
D8
100
AcDbEntity
8
1
62
256
6
ByLayer
370
18
48
1
60
0
100
AcDbEllipse
10
13.917054
20
-5.691323
30
0
11
-2.63247218560236
21
-2.56477070317783
31
0
210
0
220
0
230
1
40
0.987438
41
-1.1468399776094
42
1.24345941099694
0
ELLIPSE
5
D9
100
AcDbEntity
8
1
62
256
6
ByLayer
370
18
48
1
60
0
100
AcDbEllipse
10
18.205577
20
9.060967
30
0
11
1.81437491243988
21
-1.8622684224109
31
0
210
0
220
0
230
1
40
0.987534
41
-2.89546060709722
42
-2.55412283489783
0
ELLIPSE
5
DA
100
AcDbEntity
8
1
62
256
6
ByLayer
370
13
48
1
60
0
100
AcDbEllipse
10
-11.332087
20
19.233426
30
0
11
-27.824289499383
21
28.5587589177148
31
0
210
0
220
0
230
1
40
0.987534
41
3.12349003270307
42
-3.03026891211051
0
ELLIPSE
5
DB
100
AcDbEntity
8
1
62
256
6
ByLayer
370
13
48
1
60
0
100
AcDbEllipse
10
17.08455
20
-10.964068
30
0
11
-1.09534435486251
21
1.16628501845425
31
0
210
0
220
0
230
1
40
0.157382
41
0.0901517671533331
42
1.33229809765204
0
ELLIPSE
5
DC
100
AcDbEntity
8
1
62
256
6
ByLayer
370
13
48
1
60
0
100
AcDbEllipse
10
24.985941
20
12.641341
30
0
11
-1.79902250933461
21
1.84651076652897
31
0
210
0
220
0
230
1
40
0.987534
41
0
42
6.28318530717959
0
ELLIPSE
5
DD
100
AcDbEntity
8
1
62
256
6
ByLayer
370
13
48
1
60
0
100
AcDbEllipse
10
21.04435
20
17.308598
30
0
11
0.553907725672644
21
-0.568529061649373
31
0
210
0
220
0
230
1
40
0.987534
41
3.14159224323664
42
-2.89546060709725
0
ELLIPSE
5
DE
100
AcDbEntity
8
1
62
256
6
ByLayer
370
13
48
1
60
0
100
AcDbEllipse
10
27.495676
20
6.57905
30
0
11
0.553907725672644
21
-0.568529061649373
31
0
210
0
220
0
230
1
40
0.987534
41
-0.713799042104343
42
7.55184749654366E-08
0
ELLIPSE
5
DF
100
AcDbEntity
8
1
62
256
6
ByLayer
370
13
48
1
60
0
100
AcDbEllipse
10
14.044643
20
5.874112
30
0
11
0.553907725672644
21
-0.568529061649373
31
0
210
0
220
0
230
1
40
0.987534
41
-2.08885885131971
42
-0.713799042104336
0
ELLIPSE
5
E0
100
AcDbEntity
8
1
62
256
6
ByLayer
370
13
48
1
60
0
100
AcDbEllipse
10
21.760278
20
18.006114
30
0
11
-0.553907725672643
21
0.568529061649374
31
0
210
0
220
0
230
1
40
0.987534
41
-0.713799042104342
42
0.246132046492552
0
ELLIPSE
5
E1
100
AcDbEntity
8
1
62
256
6
ByLayer
370
13
48
1
60
0
100
AcDbEllipse
10
35.211311
20
18.711053
30
0
11
-0.553907725672643
21
0.568529061649374
31
0
210
0
220
0
230
1
40
0.987534
41
-2.89546060709725
42
-0.713799042104335
0
ELLIPSE
5
E2
100
AcDbEntity
8
1
62
256
6
ByLayer
370
13
48
1
60
0
100
AcDbEllipse
10
14.760572
20
6.571628
30
0
11
-0.553907725672643
21
0.568529061649374
31
0
210
0
220
0
230
1
40
0.987534
41
0.246132046492553
42
2.42779361148546
0
ELLIPSE
5
E3
100
AcDbEntity
8
1
62
256
6
ByLayer
370
13
48
1
60
0
100
AcDbEllipse
10
28.211604
20
7.276567
30
0
11
-0.553907725672643
21
0.568529061649374
31
0
210
0
220
0
230
1
40
0.987534
41
2.42779361148545
42
-2.89546060709724
0
ELLIPSE
5
E4
100
AcDbEntity
8
1
62
256
6
ByLayer
370
13
48
1
60
0
100
AcDbEllipse
10
24.270013
20
11.943824
30
0
11
-1.79902250933461
21
1.84651076652897
31
0
210
0
220
0
230
1
40
0.987534
41
-2.9439143090223
42
-0.197671534419105
0
ELLIPSE
5
E5
100
AcDbEntity
8
1
62
256
6
ByLayer
370
18
48
1
60
0
100
AcDbEllipse
10
9.24575
20
10.298509
30
0
11
-1.08513576494
21
1.11377976801883
31
0
210
0
220
0
230
1
40
0.987534
41
-2.96374544851272
42
-0.247838350432258
0
ELLIPSE
5
E6
100
AcDbEntity
8
1
62
256
6
ByLayer
370
18
48
1
60
0
100
AcDbEllipse
10
9.358495
20
10.408354
30
0
11
-1.08513576494
21
1.11377976801883
31
0
210
0
220
0
230
1
40
0.987534
41
-1.46965472061604
42
-0.865514574629653
0
ELLIPSE
5
E7
100
AcDbEntity
8
1
62
256
6
ByLayer
370
18
48
1
60
0
100
AcDbEllipse
10
9.358495
20
10.408354
30
0
11
-1.08513576494
21
1.11377976801883
31
0
210
0
220
0
230
1
40
0.987534
41
-0.422457169419442
42
-0.210139572740124
0
ELLIPSE
5
E8
100
AcDbEntity
8
1
62
256
6
ByLayer
370
18
48
1
60
0
100
AcDbEllipse
10
9.785233
20
10.824117
30
0
11
-1.08513576494
21
1.11377976801883
31
0
210
0
220
0
230
1
40
0.987534
41
-2.95990967702282
42
-2.51685227181265
0
ELLIPSE
5
E9
100
AcDbEntity
8
1
62
256
6
ByLayer
370
18
48
1
60
0
100
AcDbEllipse
10
9.809473
20
10.847734
30
0
11
1.34500374549758
21
-1.38050740565866
31
0
210
0
220
0
230
1
40
0.987534
41
0
42
6.28318530717959
0
ELLIPSE
5
EA
100
AcDbEntity
8
1
62
256
6
ByLayer
370
18
48
1
60
0
100
AcDbEllipse
10
9.785233
20
10.824117
30
0
11
-1.08513576494
21
1.11377976801883
31
0
210
0
220
0
230
1
40
0.987534
41
1.22888052776356
42
1.67193793297375
0
ELLIPSE
5
EB
100
AcDbEntity
8
1
62
256
6
ByLayer
370
18
48
1
60
0
100
AcDbEllipse
10
9.358495
20
10.408354
30
0
11
-1.08513576494
21
1.11377976801883
31
0
210
0
220
0
230
1
40
0.987534
41
-3.05435365761912
42
-2.95990967702283
0
ELLIPSE
5
EC
100
AcDbEntity
8
1
62
256
6
ByLayer
370
18
48
1
60
0
100
AcDbEllipse
10
9.358495
20
10.408354
30
0
11
-1.08513576494
21
1.11377976801883
31
0
210
0
220
0
230
1
40
0.987534
41
-2.51685227181265
42
-1.91271212582624
0
ELLIPSE
5
ED
100
AcDbEntity
8
1
62
256
6
ByLayer
370
18
48
1
60
0
100
AcDbEllipse
10
9.785233
20
10.824117
30
0
11
-1.08513576494
21
1.11377976801883
31
0
210
0
220
0
230
1
40
0.987534
41
0.181682976566963
42
0.624740381777149
0
ELLIPSE
5
EE
100
AcDbEntity
8
1
62
256
6
ByLayer
370
18
48
1
60
0
100
AcDbEllipse
10
9.785233
20
10.824117
30
0
11
-1.08513576494
21
1.11377976801883
31
0
210
0
220
0
230
1
40
0.987534
41
-1.91271212582624
42
-1.46965472061604
0
ELLIPSE
5
EF
100
AcDbEntity
8
1
62
256
6
ByLayer
370
18
48
1
60
0
100
AcDbEllipse
10
9.785233
20
10.824117
30
0
11
-1.08513576494
21
1.11377976801883
31
0
210
0
220
0
230
1
40
0.987534
41
-0.865514574629653
42
-0.422457169419442
0
ELLIPSE
5
F0
100
AcDbEntity
8
1
62
256
6
ByLayer
370
18
48
1
60
0
100
AcDbEllipse
10
9.723224
20
10.763703
30
0
11
2.79134601913826
21
-2.86502834217063
31
0
210
0
220
0
230
1
40
0.987534
41
0
42
6.28318530717959
0
ELLIPSE
5
F1
100
AcDbEntity
8
1
62
256
6
ByLayer
370
18
48
1
60
0
100
AcDbEllipse
10
9.785233
20
10.824117
30
0
11
-1.08513576494
21
1.11377976801883
31
0
210
0
220
0
230
1
40
0.987534
41
2.27607807896016
42
2.71913548417034
0
ELLIPSE
5
F2
100
AcDbEntity
8
1
62
256
6
ByLayer
370
18
48
1
60
0
100
AcDbEllipse
10
9.809473
20
10.847734
30
0
11
2.25750109297807
21
-2.31709167173049
31
0
210
0
220
0
230
1
40
0.987534
41
0
42
6.28318530717959
0
POINT
5
6C
100
AcDbEntity
8
80
62
256
6
ByLayer
370
18
48
1
60
0
100
AcDbPoint
10
0
20
0
30
0
39
0
210
0
220
0
230
1
50
360
0
POINT
5
6E
100
AcDbEntity
8
81
62
256
6
ByLayer
370
18
48
1
60
0
100
AcDbPoint
10
36
20
19.5
30
0
39
0
210
0
220
0
230
1
50
360
0
POINT
5
70
100
AcDbEntity
8
2
62
256
6
ByLayer
370
18
48
1
60
0
100
AcDbPoint
10
24.985941
20
12.641341
30
0
39
0
210
0
220
0
230
1
50
360
0
POINT
5
72
100
AcDbEntity
8
2
62
256
6
ByLayer
370
18
48
1
60
0
100
AcDbPoint
10
24.985941
20
12.641341
30
0
39
0
210
0
220
0
230
1
50
360
0
POINT
5
73
100
AcDbEntity
8
2
62
256
6
ByLayer
370
18
48
1
60
0
100
AcDbPoint
10
24.985941
20
12.641341
30
0
39
0
210
0
220
0
230
1
50
360
0
POINT
5
74
100
AcDbEntity
8
2
62
256
6
ByLayer
370
18
48
1
60
0
100
AcDbPoint
10
23.912049
20
11.595066
30
0
39
0
210
0
220
0
230
1
50
360
0
POINT
5
75
100
AcDbEntity
8
2
62
256
6
ByLayer
370
18
48
1
60
0
100
AcDbPoint
10
9.676275
20
10.717961
30
0
39
0
210
0
220
0
230
1
50
360
0
SPLINE
5
F3
100
AcDbEntity
8
1
62
256
6
ByLayer
370
18
48
1
60
0
100
AcDbSpline
70
4
71
3
72
8
73
4
40
0
40
0
40
0
40
0
40
1
40
1
40
1
40
1
41
1
10
10.525793692578
20
-4.37711888934365
30
0
41
1
10
10.6207655393291
20
-4.09178927175364
30
0
41
1
10
10.7549097437764
20
-3.81817847412054
30
0
41
1
10
10.9222841833192
20
-3.56910345445465
30
0
0
SPLINE
5
F4
100
AcDbEntity
8
1
62
256
6
ByLayer
370
18
48
1
60
0
100
AcDbSpline
70
4
71
3
72
14
73
10
40
0
40
0
40
0
40
0
40
0.25737667683389
40
0.25737667683389
40
0.51995300906927
40
0.51995300906927
40
0.779388151500693
40
0.779388151500693
40
1
40
1
40
1
40
1
41
1
10
24.0960499887836
20
10.2932618600284
30
0
41
1
10
24.1125299365168
20
10.5805092733882
30
0
41
1
10
24.0855166461461
20
10.8817660322619
30
0
41
1
10
23.9510349557889
20
11.4646028749716
30
0
41
1
10
23.8391837784632
20
11.7535891875073
30
0
41
1
10
23.5393136678782
20
12.2666896033301
30
0
41
1
10
23.3478724937405
20
12.4988847599628
30
0
41
1
10
22.940656259845
20
12.8505896283905
30
0
41
1
10
22.7285517311477
20
12.9854570744411
30
0
41
1
10
22.5044085069197
20
13.0855801354801
30
0
0
SPLINE
5
F5
100
AcDbEntity
8
1
62
256
6
ByLayer
370
18
48
1
60
0
100
AcDbSpline
70
4
71
3
72
18
73
14
40
0
40
0
40
0
40
0
40
0.163167606419927
40
0.163167606419927
40
0.471896101029106
40
0.471896101029106
40
0.771798216040953
40
0.771798216040953
40
0.872050692652644
40
0.872050692652644
40
0.974690490619293
40
0.974690490619293
40
1
40
1
40
1
40
1
41
1
10
21.3235834994401
20
-3.21723263417755
30
0
41
1
10
21.2137008201463
20
-3.39673329899858
30
0
41
1
10
21.1053137290773
20
-3.57379082098427
30
0
41
1
10
20.8028652970934
20
-4.06786045019354
30
0
41
1
10
20.6163936064454
20
-4.37247435892544
30
0
41
1
10
20.269709111762
20
-4.93880653865347
30
0
41
1
10
20.1107451881551
20
-5.19848468040794
30
0
41
1
10
19.8752946422666
20
-5.5831088067132
30
0
41
1
10
19.8127055560874
20
-5.68535224172877
30
0
41
1
10
19.6791857426686
20
-5.90346573722684
30
0
41
1
10
19.6070509540302
20
-6.02130271208534
30
0
41
1
10
19.5210895102612
20
-6.16172644769748
30
0
41
1
10
19.5039821437402
20
-6.18967246870449
30
0
41
1
10
19.4869691122358
20
-6.21746438718793
30
0
0
SPLINE
5
F6
100
AcDbEntity
8
1
62
256
6
ByLayer
370
18
48
1
60
0
100
AcDbSpline
70
4
71
3
72
8
73
4
40
0
40
0
40
0
40
0
40
1
40
1
40
1
40
1
41
1
10
19.7803776525543
20
-4.89814444202145
30
0
41
1
10
18.7352455095539
20
-6.13786942949886
30
0
41
1
10
17.613467940597
20
-7.29737886987013
30
0
41
1
10
16.4152997044662
20
-8.37806499118088
30
0
0
SPLINE
5
F7
100
AcDbEntity
8
1
62
256
6
ByLayer
370
18
48
1
60
0
100
AcDbSpline
70
4
71
3
72
12
73
8
40
0
40
0
40
0
40
0
40
0.143186233374762
40
0.143186233374762
40
0.809975418152169
40
0.809975418152169
40
1
40
1
40
1
40
1
41
1
10
14.5077796588259
20
-12.5
30
0
41
1
10
14.3518993326534
20
-12.5
30
0
41
1
10
14.1962151457205
20
-12.5
30
0
41
1
10
13.3158046643407
20
-12.5
30
0
41
1
10
12.590003802233
20
-12.5
30
0
41
1
10
11.6555666111809
20
-12.5
30
0
41
1
10
11.4483262967786
20
-12.5
30
0
41
1
10
11.2414190314544
20
-12.5
30
0
0
SPLINE
5
F8
100
AcDbEntity
8
1
62
256
6
ByLayer
370
18
48
1
60
0
100
AcDbSpline
70
4
71
3
72
14
73
10
40
0
40
0
40
0
40
0
40
0.0037640506256407
40
0.0037640506256407
40
0.435240018656756
40
0.435240018656756
40
0.76928970798641
40
0.76928970798641
40
1
40
1
40
1
40
1
41
1
10
24.047680233976
20
10.8662525075176
30
0
41
1
10
24.0467517766592
20
10.8688093222238
30
0
41
1
10
24.0458190010258
20
10.8713656809603
30
0
41
1
10
23.9380073845118
20
11.1654211888637
30
0
41
1
10
23.773358263235
20
11.4548648126195
30
0
41
1
10
23.3899591007369
20
11.9379568162914
30
0
41
1
10
23.1870885550898
20
12.1435028789639
30
0
41
1
10
22.7967189624307
20
12.4584134825215
30
0
41
1
10
22.6197972781937
20
12.5805805422839
30
0
41
1
10
22.4374438251159
20
12.6870294535933
30
0
0
SPLINE
5
F9
100
AcDbEntity
8
1
62
256
6
ByLayer
370
18
48
1
60
0
100
AcDbSpline
70
4
71
3
72
8
73
4
40
0
40
0
40
0
40
0
40
1
40
1
40
1
40
1
41
1
10
16.8884343767051
20
0.450922102340797
30
0
41
1
10
17.8162801350028
20
-0.286846850067235
30
0
41
1
10
18.7110328917209
20
-1.07017461882586
30
0
41
1
10
19.5643320184864
20
-1.8917417379491
30
0
0
SPLINE
5
FA
100
AcDbEntity
8
1
62
256
6
ByLayer
370
18
48
1
60
0
100
AcDbSpline
70
4
71
3
72
12
73
8
40
0
40
0
40
0
40
0
40
0.365923848937032
40
0.365923848937032
40
0.740378289109029
40
0.740378289109029
40
1
40
1
40
1
40
1
41
1
10
14.4964615205905
20
2.21488980044813
30
0
41
1
10
14.7065403170466
20
2.0447090439497
30
0
41
1
10
14.9495747026237
20
1.91023549369166
30
0
41
1
10
15.4620058433034
20
1.72074289364034
30
0
41
1
10
15.7388183098636
20
1.66470059495148
30
0
41
1
10
16.1997621845511
20
1.64685909347588
30
0
41
1
10
16.3902861032334
20
1.66124422779245
30
0
41
1
10
16.5767033131294
20
1.69875062727087
30
0
0
SPLINE
5
FB
100
AcDbEntity
8
1
62
256
6
ByLayer
370
18
48
1
60
0
100
AcDbSpline
70
4
71
3
72
16
73
12
40
0
40
0
40
0
40
0
40
0.158712817692538
40
0.158712817692538
40
0.378208399630146
40
0.378208399630146
40
0.597103599961413
40
0.597103599961413
40
0.816557015842401
40
0.816557015842401
40
1
40
1
40
1
40
1
41
1
10
19.5643320184864
20
-1.8917417379491
30
0
41
1
10
19.693174570861
20
-2.01579296600576
30
0
41
1
10
19.8085776504527
20
-2.15609556321297
30
0
41
1
10
20.0392890970921
20
-2.51431504697897
30
0
41
1
10
20.1405038746475
20
-2.7466961335858
30
0
41
1
10
20.2610726980961
20
-3.22101717922971
30
0
41
1
10
20.2823098497476
20
-3.46941202312277
30
0
41
1
10
20.2444655237094
20
-3.94857868878032
30
0
41
1
10
20.1847125409049
20
-4.18579142809582
30
0
41
1
10
20.0105390296498
20
-4.58129526018527
30
0
41
1
10
19.9053030708059
20
-4.74995919710804
30
0
41
1
10
19.7803776525544
20
-4.8981444420215
30
0
0
SPLINE
5
FC
100
AcDbEntity
8
1
62
256
6
ByLayer
370
18
48
1
60
0
100
AcDbSpline
70
4
71
3
72
8
73
4
40
0
40
0
40
0
40
0
40
1
40
1
40
1
40
1
41
1
10
10.9222841833192
20
-3.56910345445465
30
0
41
1
10
11.8232927854809
20
-2.22828501219044
30
0
41
1
10
12.8126590431273
20
-0.95285399532213
30
0
41
1
10
13.8918427356137
20
0.257081829271385
30
0
0
SPLINE
5
FD
100
AcDbEntity
8
1
62
256
6
ByLayer
370
18
48
1
60
0
100
AcDbSpline
70
4
71
3
72
10
73
6
40
0
40
0
40
0
40
0
40
0.530543621234422
40
0.530543621234422
40
1
40
1
40
1
40
1
41
1
10
2.3177581412962
20
12.520855682695
30
0
41
1
10
2.27155428571518
20
12.5040997504771
30
0
41
1
10
2.19545309288293
20
12.4785909124673
30
0
41
1
10
2.00649823004929
20
12.4396423088448
30
0
41
1
10
1.89635065958532
20
12.425
30
0
41
1
10
1.7722768192337
20
12.425
30
0
0
SPLINE
5
FE
100
AcDbEntity
8
1
62
256
6
ByLayer
370
18
48
1
60
0
100
AcDbSpline
70
4
71
3
72
10
73
6
40
0
40
0
40
0
40
0
40
0.982540564695434
40
0.982540564695434
40
1
40
1
40
1
40
1
41
1
10
23.9765629925696
20
10.3378469681694
30
0
41
1
10
24.0136207761277
20
10.5117844891658
30
0
41
1
10
24.0372125474264
20
10.6857123416251
30
0
41
1
10
24.0473378451877
20
10.8601328066588
30
0
41
1
10
24.0475111987617
20
10.8631928849141
30
0
41
1
10
24.047680233976
20
10.8662525075176
30
0
0
SPLINE
5
FF
100
AcDbEntity
8
1
62
256
6
ByLayer
370
18
48
1
60
0
100
AcDbSpline
70
4
71
3
72
8
73
4
40
0
40
0
40
0
40
0
40
1
40
1
40
1
40
1
41
1
10
18.204383131682
20
13.7480718826958
30
0
41
1
10
18.1508499737072
20
13.703146088819
30
0
41
1
10
18.0973161234499
20
13.6582191643125
30
0
41
1
10
18.0437815871783
20
13.613291119412
30
0
0
SPLINE
5
100
100
AcDbEntity
8
1
62
256
6
ByLayer
370
18
48
1
60
0
100
AcDbSpline
70
4
71
3
72
8
73
4
40
0
40
0
40
0
40
0
40
1
40
1
40
1
40
1
41
1
10
16.647424778786
20
-10.8560489113268
30
0
41
1
10
16.4569210344477
20
-11.1672494479298
30
0
41
1
10
16.2664962332858
20
-11.4783210256041
30
0
41
1
10
16.077765023421
20
-11.7866260092551
30
0
0
SPLINE
5
101
100
AcDbEntity
8
1
62
256
6
ByLayer
370
18
48
1
60
0
100
AcDbSpline
70
4
71
3
72
18
73
14
40
0
40
0
40
0
40
0
40
0.0868332610340204
40
0.0868332610340204
40
0.315049134222154
40
0.315049134222154
40
0.539378068526634
40
0.539378068526634
40
0.759928055698978
40
0.759928055698978
40
0.97895460187469
40
0.97895460187469
40
1
40
1
40
1
40
1
41
1
10
13.8918427356137
20
0.257081829271414
30
0
41
1
10
13.9531513147697
20
0.325818455660652
30
0
41
1
10
14.0194278187329
20
0.390646899549637
30
0
41
1
10
14.2739793071327
20
0.607695852830744
30
0
41
1
10
14.4910576527155
20
0.734551588847069
30
0
41
1
10
14.9507627217146
20
0.902984590439758
30
0
41
1
10
15.1993215788365
20
0.948261445969223
30
0
41
1
10
15.690937582884
20
0.953011417474386
30
0
41
1
10
15.9407941818207
20
0.913957543725132
30
0
41
1
10
16.4088040446716
20
0.759416544911034
30
0
41
1
10
16.6335846317377
20
0.642342690380616
30
0
41
1
10
16.8506011117414
20
0.480528158936266
30
0
41
1
10
16.8696358980633
20
0.465869558607522
30
0
41
1
10
16.8884343767051
20
0.450922102340797
30
0
0
SPLINE
5
102
100
AcDbEntity
8
1
62
256
6
ByLayer
370
18
48
1
60
0
100
AcDbSpline
70
4
71
3
72
10
73
6
40
0
40
0
40
0
40
0
40
0.5
40
0.5
40
1
40
1
40
1
40
1
41
1
10
19.4869691122358
20
-6.21746438718793
30
0
41
1
10
19.0191421014551
20
-6.98169092403677
30
0
41
1
10
18.545124275564
20
-7.75603056911405
30
0
41
1
10
17.5956715755863
20
-9.30702470174222
30
0
41
1
10
17.1205776829897
20
-10.0831221733511
30
0
41
1
10
16.647424778786
20
-10.8560489113268
30
0
0
SPLINE
5
103
100
AcDbEntity
8
1
62
256
6
ByLayer
370
18
48
1
60
0
100
AcDbSpline
70
4
71
3
72
8
73
4
40
0
40
0
40
0
40
0
40
1
40
1
40
1
40
1
41
1
10
16.4152997044662
20
-8.37806499118088
30
0
41
1
10
16.1375890278812
20
-8.62854573743601
30
0
41
1
10
15.8142842523849
20
-8.83304270186173
30
0
41
1
10
15.4687322870944
20
-8.97733336328977
30
0
0
SPLINE
5
104
100
AcDbEntity
8
1
62
256
6
ByLayer
370
18
48
1
60
0
100
AcDbSpline
70
4
71
3
72
10
73
6
40
0
40
0
40
0
40
0
40
0.300940878612909
40
0.300940878612909
40
1
40
1
40
1
40
1
41
1
10
8.07328016853648
20
10.6245022663425
30
0
41
1
10
8.10369358434713
20
10.580858901058
30
0
41
1
10
8.13438929025943
20
10.5370917218971
30
0
41
1
10
8.23696946791711
20
10.3919127994296
30
0
41
1
10
8.31031824959879
20
10.2898501816404
30
0
41
1
10
8.38516881908919
20
10.1879825548024
30
0
0
SPLINE
5
105
100
AcDbEntity
8
1
62
256
6
ByLayer
370
18
48
1
60
0
100
AcDbSpline
70
4
71
3
72
8
73
4
40
0
40
0
40
0
40
0
40
1
40
1
40
1
40
1
41
1
10
10.4580533646128
20
12.4392263420424
30
0
41
1
10
10.2804737479206
20
12.4125526769064
30
0
41
1
10
10.0988483622274
20
12.3863455018784
30
0
41
1
10
9.91928769657932
20
12.3620767841418
30
0
0
SPLINE
5
106
100
AcDbEntity
8
1
62
256
6
ByLayer
370
18
48
1
60
0
100
AcDbSpline
70
4
71
3
72
8
73
4
40
0
40
0
40
0
40
0
40
1
40
1
40
1
40
1
41
1
10
8.80052465465965
20
9.64552826241521
30
0
41
1
10
8.91287662680591
20
9.50468633267221
30
0
41
1
10
9.02601825282056
20
9.36724740560786
30
0
41
1
10
9.13801844268707
20
9.2339551796772
30
0
0
SPLINE
5
107
100
AcDbEntity
8
1
62
256
6
ByLayer
370
18
48
1
60
0
100
AcDbSpline
70
4
71
3
72
10
73
6
40
0
40
0
40
0
40
0
40
0.300940878612911
40
0.300940878612911
40
1
40
1
40
1
40
1
41
1
10
8.73329762949936
20
12.2271378475251
30
0
41
1
10
8.71165755244715
20
12.1770936066204
30
0
41
1
10
8.69001643097204
20
12.126890710968
30
0
41
1
10
8.61846533085773
20
11.9602993416251
30
0
41
1
10
8.56854381049163
20
11.8430785120105
30
0
41
1
10
8.51922318075589
20
11.7259418924855
30
0
0
SPLINE
5
108
100
AcDbEntity
8
1
62
256
6
ByLayer
370
18
48
1
60
0
100
AcDbSpline
70
4
71
3
72
8
73
4
40
0
40
0
40
0
40
0
40
1
40
1
40
1
40
1
41
1
10
10.8627741778006
20
9.44604367419453
30
0
41
1
10
10.6851945611083
20
9.41937000905853
30
0
41
1
10
10.5035691754151
20
9.39316283403051
30
0
41
1
10
10.324008509767
20
9.36889411629397
30
0
0
SPLINE
5
109
100
AcDbEntity
8
1
62
256
6
ByLayer
370
18
48
1
60
0
100
AcDbSpline
70
4
71
3
72
10
73
6
40
0
40
0
40
0
40
0
40
0.300940878612906
40
0.300940878612906
40
1
40
1
40
1
40
1
41
1
10
10.8627741778006
20
9.44604367419453
30
0
41
1
10
10.8809730338728
20
9.49273519486877
30
0
41
1
10
10.8993876944703
20
9.5397946072286
30
0
41
1
10
10.9611072731999
20
9.69680730062078
30
0
41
1
10
11.0055301867885
20
9.80867093571371
30
0
41
1
10
11.0512434890693
20
9.92229300043206
30
0
0
SPLINE
5
10A
100
AcDbEntity
8
1
62
256
6
ByLayer
370
18
48
1
60
0
100
AcDbSpline
70
4
71
3
72
8
73
4
40
0
40
0
40
0
40
0
40
1
40
1
40
1
40
1
41
1
10
11.30871719002
20
10.5474833003375
30
0
41
1
10
11.379344497583
20
10.7152233332286
30
0
41
1
10
11.4512004781917
20
10.883119526655
30
0
41
1
10
11.5227916387634
20
11.0486792553771
30
0
0
SPLINE
5
10B
100
AcDbEntity
8
1
62
256
6
ByLayer
370
18
48
1
60
0
100
AcDbSpline
70
4
71
3
72
8
73
4
40
0
40
0
40
0
40
0
40
1
40
1
40
1
40
1
41
1
10
8.26174947980525
20
11.10075159258
30
0
41
1
10
8.19628787728308
20
10.9380444139856
30
0
41
1
10
8.13348685006278
20
10.7789703001604
30
0
41
1
10
8.07328016853648
20
10.6245022663425
30
0
0
SPLINE
5
10C
100
AcDbEntity
8
1
62
256
6
ByLayer
370
18
48
1
60
0
100
AcDbSpline
70
4
71
3
72
8
73
4
40
0
40
0
40
0
40
0
40
1
40
1
40
1
40
1
41
1
10
9.65117897324592
20
9.28615810877571
30
0
41
1
10
9.47566315910029
20
9.26677780746579
30
0
41
1
10
9.30375924864896
20
9.24951250464369
30
0
41
1
10
9.13801844268707
20
9.2339551796772
30
0
0
SPLINE
5
10D
100
AcDbEntity
8
1
62
256
6
ByLayer
370
18
48
1
60
0
100
AcDbSpline
70
4
71
3
72
8
73
4
40
0
40
0
40
0
40
0
40
1
40
1
40
1
40
1
41
1
10
9.24645816005818
20
12.2793407766236
30
0
41
1
10
9.07094234591258
20
12.2599604753136
30
0
41
1
10
8.89903843546125
20
12.2426951724915
30
0
41
1
10
8.73329762949936
20
12.2271378475251
30
0
0
SPLINE
5
10E
100
AcDbEntity
8
1
62
256
6
ByLayer
370
18
48
1
60
0
100
AcDbSpline
70
4
71
3
72
8
73
4
40
0
40
0
40
0
40
0
40
1
40
1
40
1
40
1
41
1
10
10.7699420151655
20
12.0027066305023
30
0
41
1
10
10.6627557480601
20
12.1485814145419
30
0
41
1
10
10.558669075434
20
12.2948424212075
30
0
41
1
10
10.4580533646128
20
12.4392263420424
30
0
0
SPLINE
5
10F
100
AcDbEntity
8
1
62
256
6
ByLayer
370
18
48
1
60
0
100
AcDbSpline
70
4
71
3
72
10
73
6
40
0
40
0
40
0
40
0
40
0.300940878612922
40
0.300940878612922
40
1
40
1
40
1
40
1
41
1
10
11.5227916387634
20
11.0486792553771
30
0
41
1
10
11.4889370019728
20
11.0889699004312
30
0
41
1
10
11.4550148351829
20
11.1295935962994
30
0
41
1
10
11.3426031361405
20
11.2651938428163
30
0
41
1
10
11.2637557476814
20
11.3618992660838
30
0
41
1
10
11.185297850736
20
11.4602523381151
30
0
0
LINE
5
76
100
AcDbEntity
8
80
62
256
6
ByLayer
370
18
48
1
60
0
100
AcDbLine
10
0
20
0
30
0
11
-5
21
0
31
0
39
0
210
0
220
0
230
1
0
LINE
5
77
100
AcDbEntity
8
1
62
256
6
ByLayer
370
18
48
1
60
0
100
AcDbLine
10
20.026024
20
-4.904589
30
0
11
20.222112
21
-3.991912
31
0
39
0
210
0
220
0
230
1
0
LINE
5
79
100
AcDbEntity
8
1
62
256
6
ByLayer
370
18
48
1
60
0
100
AcDbLine
10
15.065443
20
0.913498
30
0
11
14.153566
21
0.742302
31
0
39
0
210
0
220
0
230
1
0
LINE
5
7A
100
AcDbEntity
8
1
62
256
6
ByLayer
370
13
48
1
60
0
100
AcDbLine
10
21.206371
20
18.574644
30
0
11
20.490442
21
17.877127
31
0
39
0
210
0
220
0
230
1
0
LINE
5
7B
100
AcDbEntity
8
1
62
256
6
ByLayer
370
13
48
1
60
0
100
AcDbLine
10
28.049584
20
6.010521
30
0
11
28.765512
21
6.708038
31
0
39
0
210
0
220
0
230
1
0
LINE
5
7C
100
AcDbEntity
8
81
62
256
6
ByLayer
370
18
48
1
60
0
100
AcDbLine
10
36
20
19.5
30
0
11
41
21
19.5
31
0
39
0
210
0
220
0
230
1
0
LINE
5
7D
100
AcDbEntity
8
1
62
256
6
ByLayer
370
18
48
1
60
0
100
AcDbLine
10
0
20
12.425
30
0
11
0.772277
21
12.425
31
0
39
0
210
0
220
0
230
1
0
LINE
5
7E
100
AcDbEntity
8
SK1
62
256
6
ByLayer
370
18
48
1
60
0
100
AcDbLine
10
-81
20
-12.5
30
0
11
0
21
-12.5
31
0
39
0
210
0
220
0
230
1
0
LINE
5
80
100
AcDbEntity
8
SK1
62
256
6
ByLayer
370
18
48
1
60
0
100
AcDbLine
10
-81
20
-12.5
30
0
11
-84
21
-9.5
31
0
39
0
210
0
220
0
230
1
0
LINE
5
81
100
AcDbEntity
8
SK1
62
256
6
ByLayer
370
18
48
1
60
0
100
AcDbLine
10
0
20
-12.5
30
0
11
0
21
12.425
31
0
39
0
210
0
220
0
230
1
0
LINE
5
82
100
AcDbEntity
8
SK1
62
256
6
ByLayer
370
18
48
1
60
0
100
AcDbLine
10
-84
20
9.425
30
0
11
-84
21
-9.5
31
0
39
0
210
0
220
0
230
1
0
LINE
5
83
100
AcDbEntity
8
SK1
62
256
6
ByLayer
370
18
48
1
60
0
100
AcDbLine
10
-81
20
12.425
30
0
11
-84
21
9.425
31
0
39
0
210
0
220
0
230
1
0
LINE
5
84
100
AcDbEntity
8
SK1
62
256
6
ByLayer
370
18
48
1
60
0
100
AcDbLine
10
-81
20
12.425
30
0
11
0
21
12.425
31
0
39
0
210
0
220
0
230
1
0
LINE
5
85
100
AcDbEntity
8
1
62
256
6
ByLayer
370
18
48
1
60
0
100
AcDbLine
10
19.376136
20
5.133259
30
0
11
20.131025
21
5.995436
31
0
39
0
210
0
220
0
230
1
0
LINE
5
86
100
AcDbEntity
8
1
62
256
6
ByLayer
370
13
48
1
60
0
100
AcDbLine
10
13.891843
20
0.257082
30
0
11
12.611819
21
-0.106632
31
0
39
0
210
0
220
0
230
1
0
LINE
5
87
100
AcDbEntity
8
1
62
256
6
ByLayer
370
13
48
1
60
0
100
AcDbLine
10
16.4153
20
-8.378065
30
0
11
15.977128
21
-9.818039
31
0
39
0
210
0
220
0
230
1
0
LINE
5
88
100
AcDbEntity
8
1
62
256
6
ByLayer
370
18
48
1
60
0
100
AcDbLine
10
13.492233
20
5.318007
30
0
11
13.059883
21
4.611734
31
0
39
0
210
0
220
0
230
1
0
LINE
5
89
100
AcDbEntity
8
1
62
256
6
ByLayer
370
18
48
1
60
0
100
AcDbLine
10
11.241419
20
-12.5
30
0
11
3.842267
21
-12.5
31
0
39
0
210
0
220
0
230
1
0
LINE
5
8A
100
AcDbEntity
8
1
62
256
6
ByLayer
370
18
48
1
60
0
100
AcDbLine
10
2.317758
20
-12.5
30
0
11
3.842267
21
-12.5
31
0
39
0
210
0
220
0
230
1
0
LINE
5
8B
100
AcDbEntity
8
1
62
256
6
ByLayer
370
18
48
1
60
0
100
AcDbLine
10
3.973407
20
16.057806
30
0
11
3.317758
21
13.61089
31
0
39
0
210
0
220
0
230
1
0
LINE
5
8C
100
AcDbEntity
8
1
62
256
6
ByLayer
370
18
48
1
60
0
100
AcDbLine
10
3.973407
20
16.057806
30
0
11
20.136857
21
16.904896
31
0
39
0
210
0
220
0
230
1
0
LINE
5
8D
100
AcDbEntity
8
1
62
256
6
ByLayer
370
18
48
1
60
0
100
AcDbLine
10
13.405772
20
5.909222
30
0
11
15.676083
21
9.617925
31
0
39
0
210
0
220
0
230
1
0
LINE
5
8E
100
AcDbEntity
8
1
62
256
6
ByLayer
370
18
48
1
60
0
100
AcDbLine
10
13.061329
20
4.779103
30
0
11
13.432158
21
5.384878
31
0
39
0
210
0
220
0
230
1
0
LINE
5
8F
100
AcDbEntity
8
1
62
256
6
ByLayer
370
18
48
1
60
0
100
AcDbLine
10
15.641068
20
-12.5
30
0
11
14.50778
21
-12.5
31
0
39
0
210
0
220
0
230
1
0
LINE
5
90
100
AcDbEntity
8
1
62
256
6
ByLayer
370
18
48
1
60
0
100
AcDbLine
10
18.204383
20
13.748072
30
0
11
20.136857
21
16.904896
31
0
39
0
210
0
220
0
230
1
0
LINE
5
91
100
AcDbEntity
8
1
62
256
6
ByLayer
370
18
48
1
60
0
100
AcDbLine
10
19.462106
20
5.367445
30
0
11
17.427707
21
2.044119
31
0
39
0
210
0
220
0
230
1
0
LINE
5
92
100
AcDbEntity
8
1
62
256
6
ByLayer
370
18
48
1
60
0
100
AcDbLine
10
0.772277
20
12.425
30
0
11
1.772277
21
12.425
31
0
39
0
210
0
220
0
230
1
0
LINE
5
93
100
AcDbEntity
8
1
62
256
6
ByLayer
370
13
48
1
60
0
100
AcDbLine
10
2.317758
20
12.520856
30
0
11
2.317758
21
-12.5
31
0
39
0
210
0
220
0
230
1
0
LINE
5
94
100
AcDbEntity
8
1
62
256
6
ByLayer
370
13
48
1
60
0
100
AcDbLine
10
10.922284
20
-3.569103
30
0
11
9.397391
21
-4.057687
31
0
39
0
210
0
220
0
230
1
0
LINE
5
95
100
AcDbEntity
8
1
62
256
6
ByLayer
370
18
48
1
60
0
100
AcDbLine
10
15.997791
20
10.430541
30
0
11
17.627931
21
13.093483
31
0
39
0
210
0
220
0
230
1
0
LINE
5
96
100
AcDbEntity
8
1
62
256
6
ByLayer
370
18
48
1
60
0
100
AcDbLine
10
18.190197
20
2.824964
30
0
11
20.131025
21
5.995436
31
0
39
0
210
0
220
0
230
1
0
LINE
5
97
100
AcDbEntity
8
1
62
256
6
ByLayer
370
18
48
1
60
0
100
AcDbLine
10
3.842267
20
-12.5
30
0
11
3.100949
21
13.13358
31
0
39
0
210
0
220
0
230
1
0
LINE
5
98
100
AcDbEntity
8
1
62
256
6
ByLayer
370
18
48
1
60
0
100
AcDbLine
10
19.469238
20
5.294567
30
0
11
19.519914
21
5.297445
31
0
39
0
210
0
220
0
230
1
0
LINE
5
99
100
AcDbEntity
8
1
62
256
6
ByLayer
370
18
48
1
60
0
100
AcDbLine
10
0
20
-12.5
30
0
11
0
21
12.425
31
0
39
0
210
0
220
0
230
1
0
LINE
5
9A
100
AcDbEntity
8
1
62
256
6
ByLayer
370
13
48
1
60
0
100
AcDbLine
10
22.437444
20
12.687029
30
0
11
22.544204
21
11.897464
31
0
39
0
210
0
220
0
230
1
0
LINE
5
9B
100
AcDbEntity
8
1
62
256
6
ByLayer
370
18
48
1
60
0
100
AcDbLine
10
27.209267
20
6.397422
30
0
11
21.323583
21
-3.217233
31
0
39
0
210
0
220
0
230
1
0
LINE
5
9C
100
AcDbEntity
8
1
62
256
6
ByLayer
370
18
48
1
60
0
100
AcDbLine
10
19.376136
20
5.133259
30
0
11
19.469238
21
5.294567
31
0
39
0
210
0
220
0
230
1
0
LINE
5
9D
100
AcDbEntity
8
1
62
256
6
ByLayer
370
18
48
1
60
0
100
AcDbLine
10
27.209267
20
6.397422
30
0
11
20.131025
21
5.995436
31
0
39
0
210
0
220
0
230
1
0
LINE
5
9E
100
AcDbEntity
8
1
62
256
6
ByLayer
370
18
48
1
60
0
100
AcDbLine
10
19.469238
20
5.294567
30
0
11
19.51559
21
5.370287
31
0
39
0
210
0
220
0
230
1
0
LINE
5
9F
100
AcDbEntity
8
1
62
256
6
ByLayer
370
13
48
1
60
0
100
AcDbLine
10
19.453121
20
-6.095976
30
0
11
19.780378
21
-4.898144
31
0
39
0
210
0
220
0
230
1
0
LINE
5
A0
100
AcDbEntity
8
1
62
256
6
ByLayer
370
18
48
1
60
0
100
AcDbLine
10
17.107983
20
1.869898
30
0
11
19.241977
21
5.355919
31
0
39
0
210
0
220
0
230
1
0
LINE
5
A1
100
AcDbEntity
8
1
62
256
6
ByLayer
370
18
48
1
60
0
100
AcDbLine
10
0
20
-12.5
30
0
11
0.772277
21
-12.5
31
0
39
0
210
0
220
0
230
1
0
LINE
5
A2
100
AcDbEntity
8
1
62
256
6
ByLayer
370
13
48
1
60
0
100
AcDbLine
10
0.772277
20
-12.5
30
0
11
0.772277
21
12.425
31
0
39
0
210
0
220
0
230
1
0
LINE
5
A3
100
AcDbEntity
8
1
62
256
6
ByLayer
370
13
48
1
60
0
100
AcDbLine
10
17.618665
20
2.180683
30
0
11
18.190197
21
2.824964
31
0
39
0
210
0
220
0
230
1
0
LINE
5
A4
100
AcDbEntity
8
1
62
256
6
ByLayer
370
18
48
1
60
0
100
AcDbLine
10
0.772277
20
-12.5
30
0
11
2.317758
21
-12.5
31
0
39
0
210
0
220
0
230
1
0
LINE
5
A5
100
AcDbEntity
8
1
62
256
6
ByLayer
370
18
48
1
60
0
100
AcDbLine
10
16.077765
20
-11.786626
30
0
11
15.641068
21
-12.5
31
0
39
0
210
0
220
0
230
1
0
LINE
5
A6
100
AcDbEntity
8
1
62
256
6
ByLayer
370
13
48
1
60
0
100
AcDbLine
10
35.160205
20
19.498921
30
0
11
21.709172
21
18.793982
31
0
39
0
210
0
220
0
230
1
0
LINE
5
A7
100
AcDbEntity
8
1
62
256
6
ByLayer
370
13
48
1
60
0
100
AcDbLine
10
14.811678
20
5.78376
30
0
11
14.09575
21
5.086244
31
0
39
0
210
0
220
0
230
1
0
LINE
5
A8
100
AcDbEntity
8
1
62
256
6
ByLayer
370
13
48
1
60
0
100
AcDbLine
10
14.811678
20
5.78376
30
0
11
28.262711
21
6.488699
31
0
39
0
210
0
220
0
230
1
0
LINE
5
A9
100
AcDbEntity
8
1
62
256
6
ByLayer
370
13
48
1
60
0
100
AcDbLine
10
14.038638
20
6.943053
30
0
11
14.08656
21
6.989743
31
0
39
0
210
0
220
0
230
1
0
LINE
5
AA
100
AcDbEntity
8
1
62
256
6
ByLayer
370
13
48
1
60
0
100
AcDbLine
10
21.086267
20
18.42423
30
0
11
14.08656
21
6.989743
31
0
39
0
210
0
220
0
230
1
0
LINE
5
AB
100
AcDbEntity
8
1
62
256
6
ByLayer
370
13
48
1
60
0
100
AcDbLine
10
28.885616
20
6.858452
30
0
11
35.885323
21
18.292938
31
0
39
0
210
0
220
0
230
1
0
LINE
5
AC
100
AcDbEntity
8
1
62
256
6
ByLayer
370
13
48
1
60
0
100
AcDbLine
10
21.086267
20
18.42423
30
0
11
20.370338
21
17.726713
31
0
39
0
210
0
220
0
230
1
0
LINE
5
AD
100
AcDbEntity
8
1
62
256
6
ByLayer
370
13
48
1
60
0
100
AcDbLine
10
27.546782
20
5.791183
30
0
11
26.814542
21
5.752808
31
0
39
0
210
0
220
0
230
1
0
LINE
5
AE
100
AcDbEntity
8
1
62
256
6
ByLayer
370
13
48
1
60
0
100
AcDbLine
10
19.587134
20
5.374035
30
0
11
14.09575
21
5.086244
31
0
39
0
210
0
220
0
230
1
0
LINE
5
AF
100
AcDbEntity
8
1
62
256
6
ByLayer
370
13
48
1
60
0
100
AcDbLine
10
19.858266
20
16.890209
30
0
11
20.370338
21
17.726713
31
0
39
0
210
0
220
0
230
1
0
LINE
5
B0
100
AcDbEntity
8
1
62
256
6
ByLayer
370
13
48
1
60
0
100
AcDbLine
10
27.546782
20
5.791183
30
0
11
28.262711
21
6.488699
31
0
39
0
210
0
220
0
230
1
0
LINE
5
B1
100
AcDbEntity
8
1
62
256
6
ByLayer
370
18
48
1
60
0
100
AcDbLine
10
10.769942
20
12.002707
30
0
11
10.343203
21
11.586943
31
0
39
0
210
0
220
0
230
1
0
LINE
5
B2
100
AcDbEntity
8
1
62
256
6
ByLayer
370
18
48
1
60
0
100
AcDbLine
10
10.758559
20
11.044489
30
0
11
11.185298
21
11.460252
31
0
39
0
210
0
220
0
230
1
0
LINE
5
B3
100
AcDbEntity
8
1
62
256
6
ByLayer
370
18
48
1
60
0
100
AcDbLine
10
11.083251
20
10.620442
30
0
11
11.522792
21
11.048679
31
0
39
0
210
0
220
0
230
1
0
LINE
5
B4
100
AcDbEntity
8
1
62
256
6
ByLayer
370
18
48
1
60
0
100
AcDbLine
10
9.492549
20
11.946313
30
0
11
9.919288
21
12.362077
31
0
39
0
210
0
220
0
230
1
0
LINE
5
B5
100
AcDbEntity
8
1
62
256
6
ByLayer
370
18
48
1
60
0
100
AcDbLine
10
10.018512
20
12.010989
30
0
11
10.458053
21
12.439226
31
0
39
0
210
0
220
0
230
1
0
LINE
5
B6
100
AcDbEntity
8
1
62
256
6
ByLayer
370
18
48
1
60
0
100
AcDbLine
10
10.624505
20
9.506529
30
0
11
11.051243
21
9.922293
31
0
39
0
210
0
220
0
230
1
0
LINE
5
B7
100
AcDbEntity
8
1
62
256
6
ByLayer
370
18
48
1
60
0
100
AcDbLine
10
10.582697
20
9.405012
30
0
11
10.624505
21
9.506529
31
0
39
0
210
0
220
0
230
1
0
LINE
5
B8
100
AcDbEntity
8
1
62
256
6
ByLayer
370
18
48
1
60
0
100
AcDbLine
10
8.81972
20
11.863577
30
0
11
8.564422
21
11.832184
31
0
39
0
210
0
220
0
230
1
0
LINE
5
B9
100
AcDbEntity
8
1
62
256
6
ByLayer
370
18
48
1
60
0
100
AcDbLine
10
10.881979
20
10.13172
30
0
11
11.083251
21
10.620442
31
0
39
0
210
0
220
0
230
1
0
LINE
5
BA
100
AcDbEntity
8
1
62
256
6
ByLayer
370
18
48
1
60
0
100
AcDbLine
10
10.018512
20
12.010989
30
0
11
9.492549
21
11.946313
31
0
39
0
210
0
220
0
230
1
0
LINE
5
BB
100
AcDbEntity
8
1
62
256
6
ByLayer
370
18
48
1
60
0
100
AcDbLine
10
9.246458
20
12.279341
30
0
11
8.81972
21
11.863577
31
0
39
0
210
0
220
0
230
1
0
LINE
5
BC
100
AcDbEntity
8
1
62
256
6
ByLayer
370
18
48
1
60
0
100
AcDbLine
10
11.308717
20
10.547483
30
0
11
10.881979
21
10.13172
31
0
39
0
210
0
220
0
230
1
0
LINE
5
BD
100
AcDbEntity
8
1
62
256
6
ByLayer
370
18
48
1
60
0
100
AcDbLine
10
10.343203
20
11.586943
30
0
11
10.018512
21
12.010989
31
0
39
0
210
0
220
0
230
1
0
LINE
5
BE
100
AcDbEntity
8
1
62
256
6
ByLayer
370
18
48
1
60
0
100
AcDbLine
10
11.083251
20
10.620442
30
0
11
10.758559
21
11.044489
31
0
39
0
210
0
220
0
230
1
0
MTEXT
5
110
100
AcDbEntity
8
SK6
62
256
6
ByLayer
370
18
48
1
60
0
100
AcDbMText
10
-41.671078
20
-51.125025
30
0
210
0
220
0
230
1
1
\W0.7577;QS-PDJNR2525-15C
40
3.5
41
0
44
1.084337
50
0
71
7
72
5
7
iso_b_vert
0
DIMENSION
5
121
100
AcDbEntity
8
2
62
256
6
ByLayer
370
13
48
1
60
0
100
AcDbDimension
2
DimnDraft3D1
10
34.522884
20
19.5
30
0
11
34.522884
21
-0.607895
31
0
70
32
71
5
72
1
41
1
210
0
220
0
230
1
3
Standard
100
AcDbAlignedDimension
13
31
23
-12.5
33
0
14
34
24
19.5
34
0
50
90
100
AcDbRotatedDimension
1001
ACAD
1000
DSTYLE
1002
{
1070
    74
1070
     0
1070
   279
1070
     0
1070
   172
1070
     1
1070
   173
1070
     1
1070
   340
1005
111
1070
   271
1070
     1
1070
    77
1070
     1
1070
    73
1070
     0
1070
   171
1070
     3
1070
   274
1070
     4
1070
   177
1070
     2
1070
   176
1070
     2
1070
   178
1070
     7
1070
    78
1070
     8
1070
    41
1041
3.175
1070
   147
1041
1.75
1070
    42
1041
2.0
1070
    44
1041
2.0
1070
   140
1041
3.5
1070
   343
1005
122
1070
   344
1005
122
1002
}
0
DIMENSION
5
137
100
AcDbEntity
8
SK2
62
256
6
ByLayer
370
13
48
1
60
0
100
AcDbDimension
2
DimnDraft3D2
10
-98.60005
20
-12.5
30
0
11
-98.60005
21
-4.107895
31
0
70
32
71
5
72
1
41
1
210
0
220
0
230
1
3
Standard
100
AcDbAlignedDimension
13
-2
23
12.5
33
0
14
-86
24
-12.5
34
0
50
90
100
AcDbRotatedDimension
1001
ACAD
1000
DSTYLE
1002
{
1070
    74
1070
     0
1070
   279
1070
     0
1070
   172
1070
     1
1070
   173
1070
     1
1070
   340
1005
111
1070
   271
1070
     1
1070
    77
1070
     1
1070
    73
1070
     0
1070
   171
1070
     3
1070
   274
1070
     4
1070
   177
1070
     2
1070
   176
1070
     2
1070
   178
1070
     7
1070
    78
1070
     8
1070
    41
1041
3.175
1070
   147
1041
1.75
1070
    42
1041
2.0
1070
    44
1041
2.0
1070
   140
1041
3.5
1070
   343
1005
122
1070
   344
1005
122
1002
}
0
DIMENSION
5
145
100
AcDbEntity
8
2
62
256
6
ByLayer
370
13
48
1
60
0
100
AcDbDimension
2
DimnDraft3D3
10
41
20
19.5
30
0
11
29.556998
21
27.295799
31
0
70
34
71
5
72
1
41
1
210
0
220
0
230
1
3
Standard
100
AcDb2LineAngularDimension
13
36
23
19.5
33
0
14
35.737961
24
14.5
34
0
15
36
25
19.5
35
0
16
31.103258
26
24.660089
36
0
40
0
0
DIMENSION
5
153
100
AcDbEntity
8
SK2
62
256
6
ByLayer
370
13
48
1
60
0
100
AcDbDimension
2
DimnDraft3D4
10
36
20
-40.344955
30
0
11
-28.978289
21
-40.344955
31
0
70
32
71
5
72
1
41
1
210
0
220
0
230
1
3
Standard
100
AcDbAlignedDimension
13
-84
23
-14.5
33
0
14
36
24
17.5
34
0
50
0
100
AcDbRotatedDimension
1001
ACAD
1000
DSTYLE
1002
{
1070
   279
1070
     0
1070
   172
1070
     1
1070
   173
1070
     1
1070
   340
1005
111
1070
   271
1070
     1
1070
    77
1070
     1
1070
    73
1070
     0
1070
   171
1070
     3
1070
   274
1070
     4
1070
   177
1070
     2
1070
   176
1070
     2
1070
   178
1070
     7
1070
    78
1070
     8
1070
    41
1041
3.175
1070
   147
1041
1.75
1070
    42
1041
2.0
1070
    44
1041
2.0
1070
   140
1041
3.5
1070
   343
1005
122
1070
   344
1005
122
1002
}
0
DIMENSION
5
161
100
AcDbEntity
8
2
62
256
6
ByLayer
370
13
48
1
60
0
100
AcDbDimension
2
DimnDraft3D5
10
36
20
-25.60005
30
0
11
13.892105
21
-25.60005
31
0
70
32
71
5
72
1
41
1
210
0
220
0
230
1
3
Standard
100
AcDbAlignedDimension
13
0
23
10.5
33
0
14
36
24
17.5
34
0
50
0
100
AcDbRotatedDimension
1001
ACAD
1000
DSTYLE
1002
{
1070
   279
1070
     0
1070
   172
1070
     1
1070
   173
1070
     1
1070
   340
1005
111
1070
   271
1070
     1
1070
    77
1070
     1
1070
    73
1070
     0
1070
   171
1070
     3
1070
   274
1070
     4
1070
   177
1070
     2
1070
   176
1070
     2
1070
   178
1070
     7
1070
    78
1070
     8
1070
    41
1041
3.175
1070
   147
1041
1.75
1070
    42
1041
2.0
1070
    44
1041
2.0
1070
   140
1041
3.5
1070
   343
1005
122
1070
   344
1005
122
1002
}
0
DIMENSION
5
16F
100
AcDbEntity
8
SK2
62
256
6
ByLayer
370
13
48
1
60
0
100
AcDbDimension
2
DimnDraft3D6
10
-81
20
-25.60005
30
0
11
-65.145
21
-25.60005
31
0
70
32
71
5
72
1
41
1
210
0
220
0
230
1
3
Standard
100
AcDbAlignedDimension
13
-84
23
-14.5
33
0
14
-81
24
-14.5
34
0
50
0
100
AcDbRotatedDimension
1001
ACAD
1000
DSTYLE
1002
{
1070
   279
1070
     0
1070
   172
1070
     1
1070
   173
1070
     1
1070
   340
1005
111
1070
    77
1070
     1
1070
    73
1070
     0
1070
   171
1070
     3
1070
   274
1070
     4
1070
   177
1070
     2
1070
   176
1070
     2
1070
   178
1070
     7
1070
    78
1070
     8
1070
    41
1041
3.175
1070
   147
1041
1.75
1070
    42
1041
2.0
1070
    44
1041
2.0
1070
   140
1041
3.5
1070
   343
1005
122
1070
   344
1005
122
1002
}
0
ENDSEC
0
SECTION
2
OBJECTS
0
DICTIONARY
5
1d9
330
0
100
AcDbDictionary
280
0
281
1
3
ACAD_GROUP
350
1da
3
ACAD_MLINESTYLE
350
1db
0
DICTIONARY
5
1da
330
0
100
AcDbDictionary
280
0
281
1
0
DICTIONARY
5
1db
330
0
100
AcDbDictionary
280
0
281
1
3
Standard
350
18
0
MLINESTYLE
5
18
330
1db
100
AcDbMlineStyle
2
Standard
70
0
3

62
256
51
90
52
90
71
2
49
-0.5
62
256
6
ByLayer
49
0.5
62
256
6
ByLayer
0
RASTERVARIABLES
5
1c8
330

100
AcDbRasterVariables
90
0
70
1
71
1
72
1
0
ENDSEC
0
EOF
