0
SECTION
2
HEADER
9
$ACADVER
1
AC1015
9
$DWGCODEPAGE
3
ANSI_1252
9
$HANDSEED
5
1e2
9
$ANGBASE
50
0
9
$ANGDIR
70
0
9
$ATTMODE
70
1
9
$AUNITS
70
0
9
$AUPREC
70
0
9
$CECOLOR
62
256
9
$CELTSCALE
40
1
9
$CELTYPE
6
ByLayer
9
$CELWEIGHT
370
18
9
$CLAYER
8
0
9
$CMLJUST
70
0
9
$CMLSCALE
40
1
9
$CMLSTYLE
2
Standard
9
$DIMSTYLE
2
Standard
9
$TEXTSIZE
40
0.2
9
$TEXTSTYLE
7
Standard
9
$LUNITS
70
2
9
$LUPREC
70
4
9
$EXTNAMES
290
1
9
$INSUNITS
70
4
9
$LTSCALE
40
1
9
$LWDISPLAY
290
1
9
$PDMODE
70
0
9
$PDSIZE
40
0
9
$PLINEGEN
70
0
0
ENDSEC
0
SECTION
2
CLASSES
0
CLASS
1
RASTERVARIABLES
2
AcDbRasterVariables
3
ISM
90
0
280
0
281
0
0
ENDSEC
0
SECTION
2
TABLES
0
TABLE
2
VPORT
5
1d8
100
AcDbSymbolTable
0
VPORT
5
1
100
AcDbSymbolTableRecord
100
AcDbViewportTableRecord
2
*Active
70
0
10
0
20
0
11
1
21
1
12
-1
22
1
13
0
23
0
14
0.5
24
0.5
15
10
25
10
16
0
26
0
36
1
17
0
27
0
37
0
0
ENDTAB
0
TABLE
2
LTYPE
5
1d9
100
AcDbSymbolTable
0
LTYPE
5
14
100
AcDbSymbolTableRecord
100
AcDbLinetypeTableRecord
70
0
2
ByBlock
3

72
65
73
0
40
0
0
LTYPE
5
15
100
AcDbSymbolTableRecord
100
AcDbLinetypeTableRecord
70
0
2
ByLayer
3

72
65
73
0
40
0
0
LTYPE
5
16
100
AcDbSymbolTableRecord
100
AcDbLinetypeTableRecord
70
0
2
CONTINUOUS
3
Solid line
72
65
73
0
40
0
0
LTYPE
5
6A
100
AcDbSymbolTableRecord
100
AcDbLinetypeTableRecord
70
0
2
CENTER
3
____ _ ____ _ ____ _ ____
72
65
73
4
40
47.5
49
22
74
0
49
-8.5
74
0
49
8.5
74
0
49
-8.5
74
0
0
LTYPE
5
6B
100
AcDbSymbolTableRecord
100
AcDbLinetypeTableRecord
70
0
2
DASHED
3
__ __ __ __ __ __ __ __ __
72
65
73
2
40
25.72
49
12.86
74
0
49
-12.86
74
0
0
ENDTAB
0
TABLE
2
LAYER
5
1da
100
AcDbSymbolTable
0
LAYER
5
10
100
AcDbSymbolTableRecord
100
AcDbLayerTableRecord
2
0
70
0
62
7
6
CONTINUOUS
290
1
370
-3
390
0
0
LAYER
5
6D
100
AcDbSymbolTableRecord
100
AcDbLayerTableRecord
2
80
70
0
62
-6
6
CONTINUOUS
290
1
370
-3
390
0
0
LAYER
5
6F
100
AcDbSymbolTableRecord
100
AcDbLayerTableRecord
2
81
70
0
62
-3
6
CONTINUOUS
290
1
370
-3
390
0
0
LAYER
5
71
100
AcDbSymbolTableRecord
100
AcDbLayerTableRecord
2
2
70
0
62
7
6
CONTINUOUS
290
1
370
-3
390
0
0
LAYER
5
77
100
AcDbSymbolTableRecord
100
AcDbLayerTableRecord
2
1
70
0
62
4
6
CONTINUOUS
290
1
370
-3
390
0
0
LAYER
5
1c5
100
AcDbSymbolTableRecord
100
AcDbLayerTableRecord
2
SK1
70
0
62
4
6
CONTINUOUS
290
1
370
-3
390
0
0
LAYER
5
1c6
100
AcDbSymbolTableRecord
100
AcDbLayerTableRecord
2
SK2
70
0
62
7
6
CONTINUOUS
290
1
370
-3
390
0
0
LAYER
5
1c7
100
AcDbSymbolTableRecord
100
AcDbLayerTableRecord
2
SK6
70
0
62
5
6
CONTINUOUS
290
1
370
-3
390
0
0
ENDTAB
0
TABLE
2
STYLE
5
1db
100
AcDbSymbolTable
0
STYLE
5
11
100
AcDbSymbolTableRecord
100
AcDbTextStyleTableRecord
2
Standard
3
txt
70
0
71
0
40
0
41
1
42
0
50
0
0
STYLE
5
11B
100
AcDbSymbolTableRecord
100
AcDbTextStyleTableRecord
2
iso_b_vert
3
simplex.shx
70
0
71
0
40
0
41
1
42
0
50
0
0
STYLE
5
11C
100
AcDbSymbolTableRecord
100
AcDbTextStyleTableRecord
2
DWGDirectTextStyle
3
simplex
70
0
71
0
40
0
41
1
42
0
50
0
0
ENDTAB
0
TABLE
2
DIMSTYLE
5
1dc
100
AcDbSymbolTable
100
AcDbDimStyleTable
0
DIMSTYLE
105
27
100
AcDbSymbolTableRecord
100
AcDbDimStyleTableRecord
2
Standard
70
0
3
<>
41
0.18
42
0.0625
44
0.18
140
0.18
147
0.09
73
0
74
0
77
1
271
2
275
0
278
52
280
0
340
11
0
ENDTAB
0
TABLE
2
VIEW
5
1dd
100
AcDbSymbolTable
0
ENDTAB
0
TABLE
2
UCS
5
1de
100
AcDbSymbolTable
0
ENDTAB
0
TABLE
2
APPID
5
1df
100
AcDbSymbolTable
0
APPID
5
12
100
AcDbSymbolTableRecord
100
AcDbRegAppTableRecord
2
ACAD
70
0
0
ENDTAB
0
TABLE
2
BLOCK_RECORD
5
1e0
100
AcDbSymbolTable
0
BLOCK_RECORD
5
1F
100
AcDbSymbolTableRecord
100
AcDbBlockTableRecord
2
*Model_Space
340
0
70
0
0
BLOCK_RECORD
5
1B
100
AcDbSymbolTableRecord
100
AcDbBlockTableRecord
2
*Paper_Space
340
0
70
0
0
BLOCK_RECORD
5
23
100
AcDbSymbolTableRecord
100
AcDbBlockTableRecord
2
*Paper_Space0
340
0
70
0
0
BLOCK_RECORD
5
11F
100
AcDbSymbolTableRecord
100
AcDbBlockTableRecord
2
DimnDraft3D1
340
0
70
0
0
BLOCK_RECORD
5
12D
100
AcDbSymbolTableRecord
100
AcDbBlockTableRecord
2
_CLOSED
340
0
70
0
0
BLOCK_RECORD
5
134
100
AcDbSymbolTableRecord
100
AcDbBlockTableRecord
2
DimnDraft3D2
340
0
70
0
0
BLOCK_RECORD
5
142
100
AcDbSymbolTableRecord
100
AcDbBlockTableRecord
2
DimnDraft3D3
340
0
70
0
0
BLOCK_RECORD
5
150
100
AcDbSymbolTableRecord
100
AcDbBlockTableRecord
2
DimnDraft3D4
340
0
70
0
0
BLOCK_RECORD
5
15E
100
AcDbSymbolTableRecord
100
AcDbBlockTableRecord
2
DimnDraft3D5
340
0
70
0
0
ENDTAB
0
ENDSEC
0
SECTION
2
BLOCKS
0
BLOCK
5
20
100
AcDbEntity
8
0
100
AcDbBlockBegin
2
*Model_Space
70
0
10
0
20
0
30
0
3
*Model_Space
0
ENDBLK
5
21
100
AcDbEntity
8
0
100
AcDbBlockEnd
0
BLOCK
5
1C
100
AcDbEntity
8
0
100
AcDbBlockBegin
2
*Paper_Space
70
0
10
0
20
0
30
0
3
*Paper_Space
0
ENDBLK
5
1D
100
AcDbEntity
8
0
100
AcDbBlockEnd
0
BLOCK
5
24
100
AcDbEntity
8
0
100
AcDbBlockBegin
2
*Paper_Space0
70
0
10
0
20
0
30
0
3
*Paper_Space0
0
ENDBLK
5
25
100
AcDbEntity
8
0
100
AcDbBlockEnd
0
BLOCK
5
12A
100
AcDbEntity
8
0
100
AcDbBlockBegin
2
DimnDraft3D1
70
0
10
0
20
0
30
0
3
DimnDraft3D1
0
MTEXT
5
120
100
AcDbEntity
8
2
62
256
6
ByLayer
370
18
48
1
60
0
100
AcDbMText
10
12.767105
20
-31.725
30
0
210
0
220
0
230
1
1
\W0.7346;32.0
40
3.5
41
0
44
1.084337
50
0
71
7
72
5
7
iso_b_vert
0
LINE
5
121
100
AcDbEntity
8
2
62
256
6
ByLayer
370
13
48
1
60
0
100
AcDbLine
10
0
20
10.5
30
0
11
0
21
-34.6
31
0
39
0
210
0
220
0
230
1
0
LINE
5
122
100
AcDbEntity
8
2
62
256
6
ByLayer
370
13
48
1
60
0
100
AcDbLine
10
32
20
-21.5
30
0
11
32
21
-34.6
31
0
39
0
210
0
220
0
230
1
0
LINE
5
123
100
AcDbEntity
8
2
62
256
6
ByLayer
370
13
48
1
60
0
100
AcDbLine
10
0
20
-32.6
30
0
11
32
21
-32.6
31
0
39
0
210
0
220
0
230
1
0
LINE
5
124
100
AcDbEntity
8
2
62
256
6
ByLayer
370
13
48
1
60
0
100
AcDbLine
10
0
20
-32.6
30
0
11
3.174998
21
-32.182003
31
0
39
0
210
0
220
0
230
1
0
LINE
5
125
100
AcDbEntity
8
2
62
256
6
ByLayer
370
13
48
1
60
0
100
AcDbLine
10
0
20
-32.6
30
0
11
3.175002
21
-33.017997
31
0
39
0
210
0
220
0
230
1
0
LINE
5
126
100
AcDbEntity
8
2
62
256
6
ByLayer
370
13
48
1
60
0
100
AcDbLine
10
3.174998
20
-32.182003
30
0
11
3.175002
21
-33.017997
31
0
39
0
210
0
220
0
230
1
0
LINE
5
127
100
AcDbEntity
8
2
62
256
6
ByLayer
370
13
48
1
60
0
100
AcDbLine
10
32
20
-32.6
30
0
11
28.825002
21
-33.017997
31
0
39
0
210
0
220
0
230
1
0
LINE
5
128
100
AcDbEntity
8
2
62
256
6
ByLayer
370
13
48
1
60
0
100
AcDbLine
10
32
20
-32.6
30
0
11
28.824998
21
-32.182003
31
0
39
0
210
0
220
0
230
1
0
LINE
5
129
100
AcDbEntity
8
2
62
256
6
ByLayer
370
13
48
1
60
0
100
AcDbLine
10
28.825002
20
-33.017997
30
0
11
28.824998
21
-32.182003
31
0
39
0
210
0
220
0
230
1
0
ENDBLK
5
12B
100
AcDbEntity
8
0
100
AcDbBlockEnd
0
BLOCK
5
12E
100
AcDbEntity
8
0
100
AcDbBlockBegin
2
_CLOSED
70
0
10
0
20
0
30
0
3
_CLOSED
0
LINE
5
130
100
AcDbEntity
8
0
62
256
6
ByLayer
370
-2
48
1
60
0
100
AcDbLine
10
-1
20
0.166667
30
0
11
0
21
0
31
0
39
0
210
0
220
0
230
1
0
LINE
5
131
100
AcDbEntity
8
0
62
256
6
ByLayer
370
-2
48
1
60
0
100
AcDbLine
10
0
20
0
30
0
11
-1
21
-0.166667
31
0
39
0
210
0
220
0
230
1
0
LINE
5
132
100
AcDbEntity
8
0
62
256
6
ByLayer
370
-2
48
1
60
0
100
AcDbLine
10
-1
20
0.166667
30
0
11
-1
21
-0.166667
31
0
39
0
210
0
220
0
230
1
0
LINE
5
133
100
AcDbEntity
8
0
62
256
6
ByLayer
370
-2
48
1
60
0
100
AcDbLine
10
0
20
0
30
0
11
-1
21
0
31
0
39
0
210
0
220
0
230
1
0
ENDBLK
5
12F
100
AcDbEntity
8
0
100
AcDbBlockEnd
0
BLOCK
5
13F
100
AcDbEntity
8
0
100
AcDbBlockBegin
2
DimnDraft3D2
70
0
10
0
20
0
30
0
3
DimnDraft3D2
0
MTEXT
5
135
100
AcDbEntity
8
2
62
256
6
ByLayer
370
18
48
1
60
0
100
AcDbMText
10
33.953087
20
-6.732895
30
0
210
0
220
0
230
1
1
\W0.7346;32.0
40
3.5
41
0
44
1.084337
50
90
71
7
72
5
7
iso_b_vert
0
LINE
5
136
100
AcDbEntity
8
2
62
256
6
ByLayer
370
13
48
1
60
0
100
AcDbLine
10
2
20
12.5
30
0
11
36.828087
21
12.5
31
0
39
0
210
0
220
0
230
1
0
LINE
5
137
100
AcDbEntity
8
2
62
256
6
ByLayer
370
13
48
1
60
0
100
AcDbLine
10
34
20
-19.5
30
0
11
36.828087
21
-19.5
31
0
39
0
210
0
220
0
230
1
0
LINE
5
138
100
AcDbEntity
8
2
62
256
6
ByLayer
370
13
48
1
60
0
100
AcDbLine
10
34.828087
20
12.5
30
0
11
34.828087
21
-19.5
31
0
39
0
210
0
220
0
230
1
0
LINE
5
139
100
AcDbEntity
8
2
62
256
6
ByLayer
370
13
48
1
60
0
100
AcDbLine
10
34.828087
20
12.5
30
0
11
35.246084
21
9.325002
31
0
39
0
210
0
220
0
230
1
0
LINE
5
13A
100
AcDbEntity
8
2
62
256
6
ByLayer
370
13
48
1
60
0
100
AcDbLine
10
34.828087
20
12.5
30
0
11
34.41009
21
9.324998
31
0
39
0
210
0
220
0
230
1
0
LINE
5
13B
100
AcDbEntity
8
2
62
256
6
ByLayer
370
13
48
1
60
0
100
AcDbLine
10
35.246084
20
9.325002
30
0
11
34.41009
21
9.324998
31
0
39
0
210
0
220
0
230
1
0
LINE
5
13C
100
AcDbEntity
8
2
62
256
6
ByLayer
370
13
48
1
60
0
100
AcDbLine
10
34.828087
20
-19.5
30
0
11
34.41009
21
-16.325002
31
0
39
0
210
0
220
0
230
1
0
LINE
5
13D
100
AcDbEntity
8
2
62
256
6
ByLayer
370
13
48
1
60
0
100
AcDbLine
10
34.828087
20
-19.5
30
0
11
35.246084
21
-16.324998
31
0
39
0
210
0
220
0
230
1
0
LINE
5
13E
100
AcDbEntity
8
2
62
256
6
ByLayer
370
13
48
1
60
0
100
AcDbLine
10
34.41009
20
-16.325002
30
0
11
35.246084
21
-16.324998
31
0
39
0
210
0
220
0
230
1
0
ENDBLK
5
140
100
AcDbEntity
8
0
100
AcDbBlockEnd
0
BLOCK
5
14D
100
AcDbEntity
8
0
100
AcDbBlockBegin
2
DimnDraft3D3
70
0
10
0
20
0
30
0
3
DimnDraft3D3
0
MTEXT
5
143
100
AcDbEntity
8
2
62
256
6
ByLayer
370
18
48
1
60
0
100
AcDbMText
10
34.325502
20
-12.218432
30
0
210
0
220
0
230
1
1
\W0.8292;95%%d0'
40
3
41
0
44
1.084337
50
313.80487463824
71
7
72
5
7
iso_b_vert
0
LINE
5
144
100
AcDbEntity
8
2
62
256
6
ByLayer
370
13
48
1
60
0
100
AcDbLine
10
39
20
-19.5
30
0
11
39.968653
21
-19.5
31
0
39
0
210
0
220
0
230
1
0
LINE
5
145
100
AcDbEntity
8
2
62
256
6
ByLayer
370
13
48
1
60
0
100
AcDbLine
10
31.388245
20
-12.507611
30
0
11
31.305486
21
-11.56167
31
0
39
0
210
0
220
0
230
1
0
ARC
5
146
100
AcDbEntity
8
2
62
256
6
ByLayer
370
13
48
1
60
0
100
AcDbCircle
39
0
10
32
20
-19.5
30
0
40
5.96865271337743
210
0
220
0
230
1
100
AcDbArc
50
0
51
95
0
LINE
5
147
100
AcDbEntity
8
2
62
256
6
ByLayer
370
13
48
1
60
0
100
AcDbLine
10
37.968653
20
-19.5
30
0
11
37.142665
21
-16.40596
31
0
39
0
210
0
220
0
230
1
0
LINE
5
148
100
AcDbEntity
8
2
62
256
6
ByLayer
370
13
48
1
60
0
100
AcDbLine
10
37.968653
20
-19.5
30
0
11
37.971606
21
-16.297603
31
0
39
0
210
0
220
0
230
1
0
LINE
5
149
100
AcDbEntity
8
2
62
256
6
ByLayer
370
13
48
1
60
0
100
AcDbLine
10
37.142665
20
-16.40596
30
0
11
37.971606
21
-16.297603
31
0
39
0
210
0
220
0
230
1
0
LINE
5
14A
100
AcDbEntity
8
2
62
256
6
ByLayer
370
13
48
1
60
0
100
AcDbLine
10
31.479798
20
-13.55406
30
0
11
34.669748
21
-13.27201
31
0
39
0
210
0
220
0
230
1
0
LINE
5
14B
100
AcDbEntity
8
2
62
256
6
ByLayer
370
13
48
1
60
0
100
AcDbLine
10
31.479798
20
-13.55406
30
0
11
34.634056
21
-14.107241
31
0
39
0
210
0
220
0
230
1
0
LINE
5
14C
100
AcDbEntity
8
2
62
256
6
ByLayer
370
13
48
1
60
0
100
AcDbLine
10
34.669748
20
-13.27201
30
0
11
34.634056
21
-14.107241
31
0
39
0
210
0
220
0
230
1
0
ENDBLK
5
14E
100
AcDbEntity
8
0
100
AcDbBlockEnd
0
BLOCK
5
15B
100
AcDbEntity
8
0
100
AcDbBlockBegin
2
DimnDraft3D4
70
0
10
0
20
0
30
0
3
DimnDraft3D4
0
MTEXT
5
151
100
AcDbEntity
8
SK2
62
256
6
ByLayer
370
18
48
1
60
0
100
AcDbMText
10
-29.665789
20
26.696295
30
0
210
0
220
0
230
1
1
\W0.6261;116.0
40
3.5
41
0
44
1.084337
50
0
71
7
72
5
7
iso_b_vert
0
LINE
5
152
100
AcDbEntity
8
SK2
62
256
6
ByLayer
370
13
48
1
60
0
100
AcDbLine
10
-84
20
14.5
30
0
11
-84
21
27.821295
31
0
39
0
210
0
220
0
230
1
0
LINE
5
153
100
AcDbEntity
8
SK2
62
256
6
ByLayer
370
13
48
1
60
0
100
AcDbLine
10
32
20
-17.5
30
0
11
32
21
27.821295
31
0
39
0
210
0
220
0
230
1
0
LINE
5
154
100
AcDbEntity
8
SK2
62
256
6
ByLayer
370
13
48
1
60
0
100
AcDbLine
10
-84
20
25.821295
30
0
11
32
21
25.821295
31
0
39
0
210
0
220
0
230
1
0
LINE
5
155
100
AcDbEntity
8
SK2
62
256
6
ByLayer
370
13
48
1
60
0
100
AcDbLine
10
-84
20
25.821295
30
0
11
-80.825002
21
26.239291
31
0
39
0
210
0
220
0
230
1
0
LINE
5
156
100
AcDbEntity
8
SK2
62
256
6
ByLayer
370
13
48
1
60
0
100
AcDbLine
10
-84
20
25.821295
30
0
11
-80.824998
21
25.403298
31
0
39
0
210
0
220
0
230
1
0
LINE
5
157
100
AcDbEntity
8
SK2
62
256
6
ByLayer
370
13
48
1
60
0
100
AcDbLine
10
-80.825002
20
26.239291
30
0
11
-80.824998
21
25.403298
31
0
39
0
210
0
220
0
230
1
0
LINE
5
158
100
AcDbEntity
8
SK2
62
256
6
ByLayer
370
13
48
1
60
0
100
AcDbLine
10
32
20
25.821295
30
0
11
28.825002
21
25.403298
31
0
39
0
210
0
220
0
230
1
0
LINE
5
159
100
AcDbEntity
8
SK2
62
256
6
ByLayer
370
13
48
1
60
0
100
AcDbLine
10
32
20
25.821295
30
0
11
28.824998
21
26.239291
31
0
39
0
210
0
220
0
230
1
0
LINE
5
15A
100
AcDbEntity
8
SK2
62
256
6
ByLayer
370
13
48
1
60
0
100
AcDbLine
10
28.825002
20
25.403298
30
0
11
28.824998
21
26.239291
31
0
39
0
210
0
220
0
230
1
0
ENDBLK
5
15C
100
AcDbEntity
8
0
100
AcDbBlockEnd
0
BLOCK
5
169
100
AcDbEntity
8
0
100
AcDbBlockBegin
2
DimnDraft3D5
70
0
10
0
20
0
30
0
3
DimnDraft3D5
0
MTEXT
5
15F
100
AcDbEntity
8
SK2
62
256
6
ByLayer
370
18
48
1
60
0
100
AcDbMText
10
-84.355921
20
-31.725
30
0
210
0
220
0
230
1
1
\W0.7121;3.0
40
3.5
41
0
44
1.084337
50
0
71
7
72
5
7
iso_b_vert
0
LINE
5
160
100
AcDbEntity
8
SK2
62
256
6
ByLayer
370
13
48
1
60
0
100
AcDbLine
10
-84
20
10.5
30
0
11
-84
21
-34.6
31
0
39
0
210
0
220
0
230
1
0
LINE
5
161
100
AcDbEntity
8
SK2
62
256
6
ByLayer
370
13
48
1
60
0
100
AcDbLine
10
-81
20
-14.5
30
0
11
-81
21
-34.6
31
0
39
0
210
0
220
0
230
1
0
LINE
5
162
100
AcDbEntity
8
SK2
62
256
6
ByLayer
370
13
48
1
60
0
100
AcDbLine
10
-92.75
20
-32.6
30
0
11
-72.25
21
-32.6
31
0
39
0
210
0
220
0
230
1
0
LINE
5
163
100
AcDbEntity
8
SK2
62
256
6
ByLayer
370
13
48
1
60
0
100
AcDbLine
10
-84
20
-32.6
30
0
11
-87.174998
21
-33.017997
31
0
39
0
210
0
220
0
230
1
0
LINE
5
164
100
AcDbEntity
8
SK2
62
256
6
ByLayer
370
13
48
1
60
0
100
AcDbLine
10
-84
20
-32.6
30
0
11
-87.175002
21
-32.182003
31
0
39
0
210
0
220
0
230
1
0
LINE
5
165
100
AcDbEntity
8
SK2
62
256
6
ByLayer
370
13
48
1
60
0
100
AcDbLine
10
-87.174998
20
-33.017997
30
0
11
-87.175002
21
-32.182003
31
0
39
0
210
0
220
0
230
1
0
LINE
5
166
100
AcDbEntity
8
SK2
62
256
6
ByLayer
370
13
48
1
60
0
100
AcDbLine
10
-81
20
-32.6
30
0
11
-77.825002
21
-32.182003
31
0
39
0
210
0
220
0
230
1
0
LINE
5
167
100
AcDbEntity
8
SK2
62
256
6
ByLayer
370
13
48
1
60
0
100
AcDbLine
10
-81
20
-32.6
30
0
11
-77.824998
21
-33.017997
31
0
39
0
210
0
220
0
230
1
0
LINE
5
168
100
AcDbEntity
8
SK2
62
256
6
ByLayer
370
13
48
1
60
0
100
AcDbLine
10
-77.825002
20
-32.182003
30
0
11
-77.824998
21
-33.017997
31
0
39
0
210
0
220
0
230
1
0
ENDBLK
5
16A
100
AcDbEntity
8
0
100
AcDbBlockEnd
0
ENDSEC
0
SECTION
2
ENTITIES
0
ARC
5
C8
100
AcDbEntity
8
1
62
256
6
ByLayer
370
18
48
1
60
0
100
AcDbCircle
39
0
10
-1.772277
20
-14.025
30
0
40
1.60000000000553
210
0
220
0
230
-1
100
AcDbArc
50
109.93329
51
135.037978
0
ARC
5
C9
100
AcDbEntity
8
1
62
256
6
ByLayer
370
18
48
1
60
0
100
AcDbCircle
39
0
10
-1.772277
20
-14.025
30
0
40
1.60000000000395
210
0
220
0
230
-1
100
AcDbArc
50
135.037978
51
165
0
ELLIPSE
5
CA
100
AcDbEntity
8
1
62
256
6
ByLayer
370
13
48
1
60
0
100
AcDbEllipse
10
19.557565
20
6.741413
30
0
11
3.1266117956261
21
3.08882965011114
31
0
210
0
220
0
230
1
40
0.989121
41
-0.247831522587345
42
2.69266452200816
0
ELLIPSE
5
CB
100
AcDbEntity
8
1
62
256
6
ByLayer
370
18
48
1
60
0
100
AcDbEllipse
10
20.626042
20
-3.672707
30
0
11
-1.86304025640729
21
-1.8405271775001
31
0
210
0
220
0
230
1
40
0.989121
41
2.44414697610637
42
2.8527992835807
0
ELLIPSE
5
CC
100
AcDbEntity
8
1
62
256
6
ByLayer
370
18
48
1
60
0
100
AcDbEllipse
10
21.078182
20
-10.230815
30
0
11
-1.84961911353872
21
-1.82726821644559
31
0
210
0
220
0
230
1
40
0.989121
41
-1.03878344968275
42
-0.697445677483363
0
ELLIPSE
5
CD
100
AcDbEntity
8
1
62
256
6
ByLayer
370
18
48
1
60
0
100
AcDbEllipse
10
-86.721425
20
236.662699
30
0
11
104.919565285207
21
-230.958975955355
31
0
210
0
220
0
230
1
40
0.157683
41
-0.0412588397535801
42
0.12171898244751
0
ELLIPSE
5
CE
100
AcDbEntity
8
1
62
256
6
ByLayer
370
13
48
1
60
0
100
AcDbEllipse
10
25.07822
20
-0.821191
30
0
11
-0.738141556405686
21
1.41955874929747
31
0
210
0
220
0
230
1
40
0.043883
41
0.687278391406185
42
1.42978529254054
0
ELLIPSE
5
CF
100
AcDbEntity
8
1
62
256
6
ByLayer
370
13
48
1
60
0
100
AcDbEllipse
10
24.723567
20
9.773501
30
0
11
1.38140116479773
21
0.807298471381844
31
0
210
0
220
0
230
1
40
0.142612
41
2.06350113306557
42
3.0907924865809
0
ELLIPSE
5
D0
100
AcDbEntity
8
1
62
256
6
ByLayer
370
13
48
1
60
0
100
AcDbEllipse
10
21.663601
20
-2.405573
30
0
11
-0.607321784795247
21
1.48025681883689
31
0
210
0
220
0
230
1
40
0.056451
41
0.562735504684248
42
1.21633461919558
0
ELLIPSE
5
D1
100
AcDbEntity
8
1
62
256
6
ByLayer
370
13
48
1
60
0
100
AcDbEllipse
10
52.84723
20
18.522685
30
0
11
-29.4986716875459
21
-29.1422081484061
31
0
210
0
220
0
230
1
40
0.989121
41
-0.448928131581643
42
-0.315107229364642
0
ELLIPSE
5
D2
100
AcDbEntity
8
1
62
256
6
ByLayer
370
13
48
1
60
0
100
AcDbEllipse
10
16.032949
20
-0.309372
30
0
11
-1.43299094751913
21
-0.711714088892609
31
0
210
0
220
0
230
1
40
0.139863
41
-3.00826632294057
42
-1.52473645874539
0
ELLIPSE
5
D3
100
AcDbEntity
8
1
62
256
6
ByLayer
370
18
48
1
60
0
100
AcDbEllipse
10
21.383132
20
-4.439058
30
0
11
1.80248286993622
21
1.78070156975196
31
0
210
0
220
0
230
1
40
0.989121
41
-0.697445677483357
42
0.526054039917101
0
ELLIPSE
5
D4
100
AcDbEntity
8
1
62
256
6
ByLayer
370
13
48
1
60
0
100
AcDbEllipse
10
19.406565
20
6.894261
30
0
11
-4.26050764448524
21
-4.20902344039728
31
0
210
0
220
0
230
1
40
0.989121
41
-2.01088844232471
42
-0.448928131581636
0
ELLIPSE
5
D5
100
AcDbEntity
8
1
62
256
6
ByLayer
370
13
48
1
60
0
100
AcDbEllipse
10
22.897294
20
3.282086
30
0
11
-3.17716891795637
21
-3.13877583744971
31
0
210
0
220
0
230
1
40
0.989121
41
1.26787945941517
42
1.92768031000035
0
ELLIPSE
5
D6
100
AcDbEntity
8
1
62
256
6
ByLayer
370
13
48
1
60
0
100
AcDbEllipse
10
6.199657
20
35.888827
30
0
11
-29.4986716875459
21
-29.1422081484061
31
0
210
0
220
0
230
1
40
0.989121
41
1.19159994554145
42
1.26787945941517
0
ELLIPSE
5
D7
100
AcDbEntity
8
1
62
256
6
ByLayer
370
13
48
1
60
0
100
AcDbEllipse
10
52.99823
20
18.369838
30
0
11
28.3647758386884
21
28.0220143581183
31
0
210
0
220
0
230
1
40
0.989121
41
2.69266452200815
42
2.82648542422515
0
ELLIPSE
5
D8
100
AcDbEntity
8
1
62
256
6
ByLayer
370
18
48
1
60
0
100
AcDbEllipse
10
21.289952
20
-12.994235
30
0
11
-1.84961911353872
21
-1.82726821644558
31
0
210
0
220
0
230
1
40
0.989121
41
-0.697445677483351
42
-0.356107905283965
0
ELLIPSE
5
D9
100
AcDbEntity
8
1
62
256
6
ByLayer
370
13
48
1
60
0
100
AcDbEllipse
10
23.048294
20
3.129239
30
0
11
2.04327306909716
21
2.01858204716364
31
0
210
0
220
0
230
1
40
0.989121
41
-0.628914849820399
42
-0.381652424804354
0
ELLIPSE
5
DA
100
AcDbEntity
8
1
62
256
6
ByLayer
370
18
48
1
60
0
100
AcDbEllipse
10
-10.959116
20
-11.306352
30
0
11
28.3647758386884
21
28.0220143581183
31
0
210
0
220
0
230
1
40
0.989121
41
-0.381652424804339
42
-0.263200023663247
0
ELLIPSE
5
DB
100
AcDbEntity
8
1
62
256
6
ByLayer
370
13
48
1
60
0
100
AcDbEllipse
10
-10.959116
20
-11.306352
30
0
11
28.3647758386884
21
28.0220143581183
31
0
210
0
220
0
230
1
40
0.989121
41
-0.263200028823006
42
-0.247831522587337
0
ELLIPSE
5
DC
100
AcDbEntity
8
1
62
256
6
ByLayer
370
18
48
1
60
0
100
AcDbEllipse
10
20.607739
20
-3.65418
30
0
11
1.73855507260098
21
1.7175462793665
31
0
210
0
220
0
230
1
40
0.989121
41
-0.697445677483355
42
-0.146685352771008
0
ELLIPSE
5
DD
100
AcDbEntity
8
1
62
256
6
ByLayer
370
18
48
1
60
0
100
AcDbEllipse
10
23.772248
20
-11.189807
30
0
11
2.26756189400193
21
2.24016055381534
31
0
210
0
220
0
230
1
40
0.989121
41
-2.47118567919691
42
-0.670429338316407
0
ELLIPSE
5
DE
100
AcDbEntity
8
1
62
256
6
ByLayer
370
18
48
1
60
0
100
AcDbEllipse
10
20.285482
20
6.004593
30
0
11
-2.66473142944178
21
2.69732606301823
31
0
210
0
220
0
230
1
40
0.989037
41
-1.21086508044842
42
1.00714516140082
0
ELLIPSE
5
DF
100
AcDbEntity
8
1
62
256
6
ByLayer
370
13
48
1
60
0
100
AcDbEllipse
10
19.406565
20
6.894261
30
0
11
-4.26050764448524
21
-4.20902344039728
31
0
210
0
220
0
230
1
40
0.989121
41
-3.05299079971199
42
-2.70028183162327
0
ELLIPSE
5
E0
100
AcDbEntity
8
1
62
256
6
ByLayer
370
13
48
1
60
0
100
AcDbEllipse
10
27.167617
20
4.857111
30
0
11
-1.47748868440503
21
-0.614025396425181
31
0
210
0
220
0
230
1
40
0.136522
41
-0.506015078665819
42
-0.0319298971383595
0
ELLIPSE
5
E1
100
AcDbEntity
8
1
62
256
6
ByLayer
370
13
48
1
60
0
100
AcDbEllipse
10
13.926793
20
4.763801
30
0
11
-1.51567841510713
21
-0.512561159256478
31
0
210
0
220
0
230
1
40
0.13253
41
-2.98986914738554
42
-1.50633928319037
0
ELLIPSE
5
E2
100
AcDbEntity
8
1
62
256
6
ByLayer
370
18
48
1
60
0
100
AcDbEllipse
10
20.788089
20
-4.49111
30
0
11
-1.84961911353872
21
-1.82726821644558
31
0
210
0
220
0
230
1
40
0.989121
41
-1.65014620933684
42
-0.697445677483365
0
ELLIPSE
5
E3
100
AcDbEntity
8
1
62
256
6
ByLayer
370
13
48
1
60
0
100
AcDbEllipse
10
20.001448
20
1.715503
30
0
11
2.04327306909716
21
2.01858204716364
31
0
210
0
220
0
230
1
40
0.989121
41
2.82648542422515
42
-2.51269182987985
0
ELLIPSE
5
E4
100
AcDbEntity
8
1
62
256
6
ByLayer
370
13
48
1
60
0
100
AcDbEllipse
10
19.850448
20
1.86835
30
0
11
-3.17716891795637
21
-3.13877583744971
31
0
210
0
220
0
230
1
40
0.989121
41
-0.315107229364642
42
0.634727471519433
0
ELLIPSE
5
E5
100
AcDbEntity
8
1
62
256
6
ByLayer
370
18
48
1
60
0
100
AcDbEllipse
10
18.691963
20
-6.055818
30
0
11
-0.56466737360466
21
-0.557843902617087
31
0
210
0
220
0
230
1
40
0.989121
41
-2.44277492947767
42
-1.76845075161626
0
ELLIPSE
5
E6
100
AcDbEntity
8
1
62
256
6
ByLayer
370
18
48
1
60
0
100
AcDbEllipse
10
20.041034
20
-17.733406
30
0
11
0.564667373604696
21
0.557843902617051
31
0
210
0
220
0
230
1
40
0.989121
41
2.44414697610646
42
-2.44277492947767
0
ELLIPSE
5
E7
100
AcDbEntity
8
1
62
256
6
ByLayer
370
18
48
1
60
0
100
AcDbEllipse
10
25.19742
20
-12.632412
30
0
11
1.83396849031801
21
1.81180671619946
31
0
210
0
220
0
230
1
40
0.989121
41
0
42
6.28318530717959
0
ELLIPSE
5
E8
100
AcDbEntity
8
1
62
256
6
ByLayer
370
18
48
1
60
0
100
AcDbEllipse
10
29.861432
20
-7.03302
30
0
11
-0.56466737360466
21
-0.557843902617087
31
0
210
0
220
0
230
1
40
0.989121
41
-3.14158334503786
42
-2.44277492947767
0
ELLIPSE
5
E9
100
AcDbEntity
8
1
62
256
6
ByLayer
370
18
48
1
60
0
100
AcDbEllipse
10
24.705046
20
-12.134015
30
0
11
1.83396849031807
21
1.81180671619952
31
0
210
0
220
0
230
1
40
0.989121
41
-3.00373500251617
42
-0.137817238013661
0
ELLIPSE
5
EA
100
AcDbEntity
8
1
62
256
6
ByLayer
370
18
48
1
60
0
100
AcDbEllipse
10
31.210503
20
-18.710608
30
0
11
0.564667373604696
21
0.557843902617051
31
0
210
0
220
0
230
1
40
0.989121
41
-2.44277492947767
42
-0.697445677483355
0
ELLIPSE
5
EB
100
AcDbEntity
8
1
62
256
6
ByLayer
370
18
48
1
60
0
100
AcDbEllipse
10
30.353807
20
-7.531417
30
0
11
0.564667373604696
21
0.557843902617051
31
0
210
0
220
0
230
1
40
0.989121
41
-0.697445677483349
42
0.698817724112128
0
ELLIPSE
5
EC
100
AcDbEntity
8
1
62
256
6
ByLayer
370
18
48
1
60
0
100
AcDbEllipse
10
19.54866
20
-17.235009
30
0
11
-0.56466737360466
21
-0.557843902617087
31
0
210
0
220
0
230
1
40
0.989121
41
-0.697445677483332
42
9.95600726539142E-06
0
ELLIPSE
5
ED
100
AcDbEntity
8
1
62
256
6
ByLayer
370
18
48
1
60
0
100
AcDbEllipse
10
19.184338
20
-6.554215
30
0
11
0.564667373604696
21
0.557843902617051
31
0
210
0
220
0
230
1
40
0.989121
41
0.698817724112133
42
2.44414697610646
0
ELLIPSE
5
EE
100
AcDbEntity
8
1
62
256
6
ByLayer
370
18
48
1
60
0
100
AcDbEllipse
10
13.364147
20
-8.362856
30
0
11
-2.30135301242222
21
-2.27354333853902
31
0
210
0
220
0
230
1
40
0.989121
41
0
42
6.28318530717959
0
ELLIPSE
5
EF
100
AcDbEntity
8
1
62
256
6
ByLayer
370
18
48
1
60
0
100
AcDbEllipse
10
12.950604
20
-7.944254
30
0
11
1.10621450828958
21
1.09284695252796
31
0
210
0
220
0
230
1
40
0.989121
41
-2.48304561467172
42
-1.87890546868534
0
ELLIPSE
5
F0
100
AcDbEntity
8
1
62
256
6
ByLayer
370
18
48
1
60
0
100
AcDbEllipse
10
13.341919
20
-8.340356
30
0
11
1.10621450828958
21
1.09284695252796
31
0
210
0
220
0
230
1
40
0.989121
41
-0.831707917488731
42
-0.38865051227855
0
ELLIPSE
5
F1
100
AcDbEntity
8
1
62
256
6
ByLayer
370
18
48
1
60
0
100
AcDbEllipse
10
13.341919
20
-8.340356
30
0
11
1.10621450828958
21
1.09284695252796
31
0
210
0
220
0
230
1
40
0.989121
41
1.26268718490447
42
1.70574459011465
0
ELLIPSE
5
F2
100
AcDbEntity
8
1
62
256
6
ByLayer
370
18
48
1
60
0
100
AcDbEllipse
10
12.950604
20
-7.944254
30
0
11
1.10621450828958
21
1.09284695252796
31
0
210
0
220
0
230
1
40
0.989121
41
-1.43584806347514
42
-0.831707917488729
0
ELLIPSE
5
F3
100
AcDbEntity
8
1
62
256
6
ByLayer
370
18
48
1
60
0
100
AcDbEllipse
10
13.341919
20
-8.340356
30
0
11
1.10621450828958
21
1.09284695252796
31
0
210
0
220
0
230
1
40
0.989121
41
-1.87890546868533
42
-1.43584806347514
0
ELLIPSE
5
F4
100
AcDbEntity
8
1
62
256
6
ByLayer
370
18
48
1
60
0
100
AcDbEllipse
10
13.341919
20
-8.340356
30
0
11
1.10621450828958
21
1.09284695252796
31
0
210
0
220
0
230
1
40
0.989121
41
0.215489633707873
42
0.658547038918055
0
ELLIPSE
5
F5
100
AcDbEntity
8
1
62
256
6
ByLayer
370
18
48
1
60
0
100
AcDbEllipse
10
13.341919
20
-8.340356
30
0
11
1.10621450828958
21
1.09284695252796
31
0
210
0
220
0
230
1
40
0.989121
41
2.30988473610105
42
2.75294214131125
0
ELLIPSE
5
F6
100
AcDbEntity
8
1
62
256
6
ByLayer
370
18
48
1
60
0
100
AcDbEllipse
10
13.341919
20
-8.340356
30
0
11
1.10621450828958
21
1.09284695252796
31
0
210
0
220
0
230
1
40
0.989121
41
-2.92610301988193
42
-2.48304561467172
0
ELLIPSE
5
F7
100
AcDbEntity
8
1
62
256
6
ByLayer
370
18
48
1
60
0
100
AcDbEllipse
10
13.364147
20
-8.362856
30
0
11
-1.37113041984697
21
-1.35456160592688
31
0
210
0
220
0
230
1
40
0.989121
41
0
42
6.28318530717959
0
ELLIPSE
5
F8
100
AcDbEntity
8
1
62
256
6
ByLayer
370
18
48
1
60
0
100
AcDbEllipse
10
13.285057
20
-8.282798
30
0
11
-2.84556786698265
21
-2.81118187145475
31
0
210
0
220
0
230
1
40
0.989121
41
0
42
6.28318530717959
0
ELLIPSE
5
F9
100
AcDbEntity
8
1
62
256
6
ByLayer
370
18
48
1
60
0
100
AcDbEllipse
10
12.950604
20
-7.944254
30
0
11
1.10621450828958
21
1.09284695252796
31
0
210
0
220
0
230
1
40
0.989121
41
-0.38865051227855
42
-0.163211571156249
0
ELLIPSE
5
FA
100
AcDbEntity
8
1
62
256
6
ByLayer
370
18
48
1
60
0
100
AcDbEllipse
10
12.950604
20
-7.944254
30
0
11
1.10621450828958
21
1.09284695252796
31
0
210
0
220
0
230
1
40
0.989121
41
-3.05948592539539
42
-2.92610301988193
0
ELLIPSE
5
FB
100
AcDbEntity
8
1
62
256
6
ByLayer
370
18
48
1
60
0
100
AcDbEllipse
10
12.847218
20
-7.839604
30
0
11
1.10621450828958
21
1.09284695252796
31
0
210
0
220
0
230
1
40
0.989121
41
-2.9861614875224
42
-0.230886791583872
0
POINT
5
6C
100
AcDbEntity
8
80
62
256
6
ByLayer
370
18
48
1
60
0
100
AcDbPoint
10
0
20
0
30
0
39
0
210
0
220
0
230
1
50
360
0
POINT
5
6E
100
AcDbEntity
8
81
62
256
6
ByLayer
370
18
48
1
60
0
100
AcDbPoint
10
32
20
-19.5
30
0
39
0
210
0
220
0
230
1
50
360
0
POINT
5
70
100
AcDbEntity
8
2
62
256
6
ByLayer
370
18
48
1
60
0
100
AcDbPoint
10
25.19742
20
37.632412
30
0
39
0
210
0
220
0
230
1
50
360
0
POINT
5
72
100
AcDbEntity
8
2
62
256
6
ByLayer
370
18
48
1
60
0
100
AcDbPoint
10
25.19742
20
37.632412
30
0
39
0
210
0
220
0
230
1
50
360
0
POINT
5
73
100
AcDbEntity
8
2
62
256
6
ByLayer
370
18
48
1
60
0
100
AcDbPoint
10
24.377054
20
36.802011
30
0
39
0
210
0
220
0
230
1
50
360
0
POINT
5
74
100
AcDbEntity
8
2
62
256
6
ByLayer
370
18
48
1
60
0
100
AcDbPoint
10
13.236835
20
33.233987
30
0
39
0
210
0
220
0
230
1
50
360
0
SPLINE
5
FC
100
AcDbEntity
8
1
62
256
6
ByLayer
370
18
48
1
60
0
100
AcDbSpline
70
4
71
3
72
10
73
6
40
0
40
0
40
0
40
0
40
0.0088392060141403
40
0.0088392060141403
40
1
40
1
40
1
40
1
41
1
10
24.3648290605679
20
-11.2780652919417
30
0
41
1
10
24.3653135874151
20
-11.2750896120068
30
0
41
1
10
24.3657940289659
20
-11.272112492243
30
0
41
1
10
24.4194149569404
20
-10.9368350643977
30
0
41
1
10
24.4222573459129
20
-10.5821811647606
30
0
41
1
10
24.3721176568446
20
-10.2245478800344
30
0
0
SPLINE
5
FD
100
AcDbEntity
8
1
62
256
6
ByLayer
370
18
48
1
60
0
100
AcDbSpline
70
4
71
3
72
8
73
4
40
0
40
0
40
0
40
0
40
1
40
1
40
1
40
1
41
1
10
18.6977147837422
20
-0.0298571969184138
30
0
41
1
10
17.9300350166109
20
1.52449938325009
30
0
41
1
10
17.2729714132445
20
3.12273956629835
30
0
41
1
10
16.7258604260298
20
4.76488665443998
30
0
0
SPLINE
5
FE
100
AcDbEntity
8
1
62
256
6
ByLayer
370
18
48
1
60
0
100
AcDbSpline
70
4
71
3
72
14
73
10
40
0
40
0
40
0
40
0
40
0.0338941906740997
40
0.0338941906740997
40
0.383618437424684
40
0.383618437424684
40
0.782689136953953
40
0.782689136953953
40
1
40
1
40
1
40
1
41
1
10
19.1330001197971
20
-2.52252885762246
30
0
41
1
10
19.1522231576231
20
-2.50631024521502
30
0
41
1
10
19.1717196530515
20
-2.49040367397001
30
0
41
1
10
19.3925591775352
20
-2.31612632154872
30
0
41
1
10
19.6215173821352
20
-2.19030763313034
30
0
41
1
10
20.1318118729299
20
-1.99658081820346
30
0
41
1
10
20.4263387405393
20
-1.9349642799763
30
0
41
1
10
20.8693273340022
20
-1.91151992492058
30
0
41
1
10
21.0260086565826
20
-1.91685253112098
30
0
41
1
10
21.1797830139419
20
-1.93643354980077
30
0
0
SPLINE
5
FF
100
AcDbEntity
8
1
62
256
6
ByLayer
370
18
48
1
60
0
100
AcDbSpline
70
4
71
3
72
14
73
10
40
0
40
0
40
0
40
0
40
0.127661298363883
40
0.127661298363883
40
0.506458088762277
40
0.506458088762277
40
0.995731741889204
40
0.995731741889204
40
1
40
1
40
1
40
1
41
1
10
22.6786518954152
20
-12.615115062317
30
0
41
1
10
22.7745139175206
20
-12.5764329852244
30
0
41
1
10
22.8684349716408
20
-12.5343728951416
30
0
41
1
10
23.2261688879354
20
-12.3575640526254
30
0
41
1
10
23.4716763150443
20
-12.1989058274004
30
0
41
1
10
23.9584080663873
20
-11.8040662889186
30
0
41
1
10
24.1871587156968
20
-11.5521891633431
30
0
41
1
10
24.3618052816845
20
-11.2827534308666
30
0
41
1
10
24.3633192137182
20
-11.2804100814684
30
0
41
1
10
24.3648290605679
20
-11.2780652919417
30
0
0
SPLINE
5
100
100
AcDbEntity
8
1
62
256
6
ByLayer
370
18
48
1
60
0
100
AcDbSpline
70
4
71
3
72
14
73
10
40
0
40
0
40
0
40
0
40
0.141808887595893
40
0.141808887595893
40
0.46828782261172
40
0.46828782261172
40
0.822893852288023
40
0.822893852288023
40
1
40
1
40
1
40
1
41
1
10
25.8346518944647
20
4.41780118926599
30
0
41
1
10
25.8891098567875
20
4.2675724962173
30
0
41
1
10
25.9435049397325
20
4.11751726332636
30
0
41
1
10
26.1158687343185
20
3.64203146684898
30
0
41
1
10
26.2261944122919
20
3.33768511041652
30
0
41
1
10
26.4598211579054
20
2.69319825931621
30
0
41
1
10
26.5848189887099
20
2.34837704392808
30
0
41
1
10
26.7813610286495
20
1.80619271440324
30
0
41
1
10
26.8484598570828
20
1.62109270568664
30
0
41
1
10
26.9162633021999
20
1.43404892898832
30
0
0
SPLINE
5
101
100
AcDbEntity
8
1
62
256
6
ByLayer
370
18
48
1
60
0
100
AcDbSpline
70
4
71
3
72
10
73
6
40
0
40
0
40
0
40
0
40
0.470014013163406
40
0.470014013163406
40
1
40
1
40
1
40
1
41
1
10
21.8437450208309
20
9.42125425343121
30
0
41
1
10
22.1733929724181
20
9.27923954638206
30
0
41
1
10
22.4844976106696
20
9.08619548277699
30
0
41
1
10
23.0648139567391
20
8.5925231240507
30
0
41
1
10
23.3315103428329
20
8.27465941568221
30
0
41
1
10
23.5365403851066
20
7.92504019419968
30
0
0
SPLINE
5
102
100
AcDbEntity
8
1
62
256
6
ByLayer
370
18
48
1
60
0
100
AcDbSpline
70
4
71
3
72
10
73
6
40
0
40
0
40
0
40
0
40
0.952160967921086
40
0.952160967921086
40
1
40
1
40
1
40
1
41
1
10
21.3744413634377
20
-1.92394996448513
30
0
41
1
10
21.3126733515285
20
-1.92553183279361
30
0
41
1
10
21.2508311504018
20
-1.92940013846695
30
0
41
1
10
21.1859937724355
20
-1.93580321493144
30
0
41
1
10
21.1828882940105
20
-1.9361155628734
30
0
41
1
10
21.179783013942
20
-1.93643354980054
30
0
0
SPLINE
5
103
100
AcDbEntity
8
1
62
256
6
ByLayer
370
18
48
1
60
0
100
AcDbSpline
70
4
71
3
72
10
73
6
40
0
40
0
40
0
40
0
40
0.448176274683284
40
0.448176274683284
40
1
40
1
40
1
40
1
41
1
10
23.9687132203376
20
9.56521244681218
30
0
41
1
10
24.2472990264326
20
8.79670074041505
30
0
41
1
10
24.5261470655844
20
8.0274656332931
30
0
41
1
10
25.1482625954919
20
6.31128678639834
30
0
41
1
10
25.4917931697158
20
5.36361729994064
30
0
41
1
10
25.8346518944647
20
4.41780118926599
30
0
0
SPLINE
5
104
100
AcDbEntity
8
1
62
256
6
ByLayer
370
18
48
1
60
0
100
AcDbSpline
70
4
71
3
72
8
73
4
40
0
40
0
40
0
40
0
40
1
40
1
40
1
40
1
41
1
10
23.5365403851066
20
7.92504019419968
30
0
41
1
10
24.4106676598561
20
6.43446986662488
30
0
41
1
10
25.1810491932852
20
4.88880768060838
30
0
41
1
10
25.8474814518391
20
3.28763247818077
30
0
0
SPLINE
5
105
100
AcDbEntity
8
1
62
256
6
ByLayer
370
18
48
1
60
0
100
AcDbSpline
70
4
71
3
72
18
73
14
40
0
40
0
40
0
40
0
40
0.0234918306829104
40
0.0234918306829104
40
0.249566833571361
40
0.249566833571361
40
0.474431316491252
40
0.474431316491252
40
0.698047985838043
40
0.698047985838043
40
0.92149026001465
40
0.92149026001465
40
1
40
1
40
1
40
1
41
1
10
21.5621230551218
20
-1.09597549105536
30
0
41
1
10
21.5374205148131
20
-1.10604816679202
30
0
41
1
10
21.5125376108349
20
-1.11568793720983
30
0
41
1
10
21.2498084506739
20
-1.21219620513864
30
0
41
1
10
20.9939443458742
20
-1.25991607539351
30
0
41
1
10
20.4894807679895
20
-1.26838788810508
30
0
41
1
10
20.2339668961862
20
-1.22972070117436
30
0
41
1
10
19.7583957063631
20
-1.0733280669983
30
0
41
1
10
19.5316981830184
20
-0.9539048256934
30
0
41
1
10
19.1368047114295
20
-0.651735856227646
30
0
41
1
10
18.9631811646711
20
-0.464894319719775
30
0
41
1
10
18.7799260181019
20
-0.184424877814138
30
0
41
1
10
18.7364164540478
20
-0.108218251199986
30
0
41
1
10
18.6977147837422
20
-0.0298571969184138
30
0
0
SPLINE
5
106
100
AcDbEntity
8
1
62
256
6
ByLayer
370
18
48
1
60
0
100
AcDbSpline
70
4
71
3
72
8
73
4
40
0
40
0
40
0
40
0
40
1
40
1
40
1
40
1
41
1
10
16.7258604260298
20
4.76488665443995
30
0
41
1
10
16.676498696955
20
4.91304529420427
30
0
41
1
10
16.6366256924771
20
5.06465076689557
30
0
41
1
10
16.6066992054171
20
5.21788011925278
30
0
0
SPLINE
5
107
100
AcDbEntity
8
1
62
256
6
ByLayer
370
18
48
1
60
0
100
AcDbSpline
70
4
71
3
72
8
73
4
40
0
40
0
40
0
40
0
40
1
40
1
40
1
40
1
41
1
10
23.2819724743478
20
11.459667551869
30
0
41
1
10
23.5085900390085
20
10.8345163506713
30
0
41
1
10
23.739544529812
20
10.1974012287079
30
0
41
1
10
23.9687132203376
20
9.56521244681218
30
0
0
SPLINE
5
108
100
AcDbEntity
8
1
62
256
6
ByLayer
370
18
48
1
60
0
100
AcDbSpline
70
4
71
3
72
10
73
6
40
0
40
0
40
0
40
0
40
0.308903877850997
40
0.308903877850997
40
1
40
1
40
1
40
1
41
1
10
22.0575040567988
20
-2.00389136489832
30
0
41
1
10
21.9882485910756
20
-1.98541897501647
30
0
41
1
10
21.9182823255806
20
-1.97012234488102
30
0
41
1
10
21.6915991111584
20
-1.93109441698536
30
0
41
1
10
21.5325762431805
20
-1.91990015703627
30
0
41
1
10
21.3744413634377
20
-1.92394996448513
30
0
0
SPLINE
5
109
100
AcDbEntity
8
1
62
256
6
ByLayer
370
18
48
1
60
0
100
AcDbSpline
70
4
71
3
72
10
73
6
40
0
40
0
40
0
40
0
40
0.469456378765596
40
0.469456378765596
40
1
40
1
40
1
40
1
41
1
10
1.77227681923367
20
-12.425
30
0
41
1
10
1.8963506595853
20
-12.425
30
0
41
1
10
2.00649823004926
20
-12.4396423088448
30
0
41
1
10
2.1954530928829
20
-12.4785909124673
30
0
41
1
10
2.27155428571516
20
-12.5040997504771
30
0
41
1
10
2.31775814129617
20
-12.520855682695
30
0
0
SPLINE
5
10A
100
AcDbEntity
8
1
62
256
6
ByLayer
370
18
48
1
60
0
100
AcDbSpline
70
4
71
3
72
8
73
4
40
0
40
0
40
0
40
0
40
1
40
1
40
1
40
1
41
1
10
24.7947284094788
20
0.403952462482238
30
0
41
1
10
23.7448410575052
20
-0.145130570801541
30
0
41
1
10
22.6633764407453
20
-0.646929841551895
30
0
41
1
10
21.5621230551218
20
-1.09597549105536
30
0
0
SPLINE
5
10B
100
AcDbEntity
8
1
62
256
6
ByLayer
370
18
48
1
60
0
100
AcDbSpline
70
4
71
3
72
16
73
12
40
0
40
0
40
0
40
0
40
0.1215592031424
40
0.1215592031424
40
0.346683048442542
40
0.346683048442542
40
0.572828711090191
40
0.572828711090191
40
0.799133983380776
40
0.799133983380776
40
1
40
1
40
1
40
1
41
1
10
25.8474814518391
20
3.28763247818077
30
0
41
1
10
25.8993822722366
20
3.16293517318164
30
0
41
1
10
25.9400830950056
20
3.03264177501623
30
0
41
1
10
26.0211271018763
20
2.65518585257917
30
0
41
1
10
26.032326420533
20
2.39693584281096
30
0
41
1
10
25.9700556664748
20
1.89592633829096
30
0
41
1
10
25.8953486347689
20
1.64623388358905
30
0
41
1
10
25.6714175774705
20
1.19121562357691
30
0
41
1
10
25.5190361346079
20
0.979593274617059
30
0
41
1
10
25.1789287693222
20
0.643402421350572
30
0
41
1
10
24.9935128899102
20
0.507915221229524
30
0
41
1
10
24.7947284094788
20
0.403952462482238
30
0
0
SPLINE
5
10C
100
AcDbEntity
8
1
62
256
6
ByLayer
370
18
48
1
60
0
100
AcDbSpline
70
4
71
3
72
12
73
8
40
0
40
0
40
0
40
0
40
0.271296912781589
40
0.271296912781589
40
0.845805526989188
40
0.845805526989188
40
1
40
1
40
1
40
1
41
1
10
17.455110308697
20
12.5
30
0
41
1
10
17.819341932479
20
12.5
30
0
41
1
10
18.1848755429447
20
12.5
30
0
41
1
10
19.322890948945
20
12.5
30
0
41
1
10
20.0928815525555
20
12.5
30
0
41
1
10
21.0674973404268
20
12.5
30
0
41
1
10
21.2738389159298
20
12.5
30
0
41
1
10
21.4806631715473
20
12.5
30
0
0
SPLINE
5
10D
100
AcDbEntity
8
1
62
256
6
ByLayer
370
18
48
1
60
0
100
AcDbSpline
70
4
71
3
72
18
73
14
40
0
40
0
40
0
40
0
40
0.0887061287388001
40
0.0887061287388001
40
0.302513841250055
40
0.302513841250055
40
0.518170537358001
40
0.518170537358001
40
0.735180362088293
40
0.735180362088293
40
0.93613693765206
40
0.93613693765206
40
1
40
1
40
1
40
1
41
1
10
22.7158866339219
20
-13.2454905219965
30
0
41
1
10
22.8324505008847
20
-13.2204171494556
30
0
41
1
10
22.9473228974165
20
-13.1869326683354
30
0
41
1
10
23.3274483138441
20
-13.0451518055827
30
0
41
1
10
23.5834894707837
20
-12.8952638228066
30
0
41
1
10
24.032215546
20
-12.5201196706237
30
0
41
1
10
24.2304914980512
20
-12.2890261444975
30
0
41
1
10
24.5486398763773
20
-11.7799720628731
30
0
41
1
10
24.6737937274572
20
-11.4941824429933
30
0
41
1
10
24.8295717215362
20
-10.9379964215779
30
0
41
1
10
24.8678251098457
20
-10.6606408386546
30
0
41
1
10
24.8621774807222
20
-10.3059210770508
30
0
41
1
10
24.8565008160065
20
-10.22053509237
30
0
41
1
10
24.8465740160979
20
-10.1358275144541
30
0
0
SPLINE
5
10E
100
AcDbEntity
8
1
62
256
6
ByLayer
370
18
48
1
60
0
100
AcDbSpline
70
4
71
3
72
8
73
4
40
0
40
0
40
0
40
0
40
1
40
1
40
1
40
1
41
1
10
12.0068992954453
20
-9.47211753920669
30
0
41
1
10
12.1637583857654
20
-9.52605880355935
30
0
41
1
10
12.3264125677259
20
-9.58277914673394
30
0
41
1
10
12.492425750012
20
-9.64189086670407
30
0
0
SPLINE
5
10F
100
AcDbEntity
8
1
62
256
6
ByLayer
370
18
48
1
60
0
100
AcDbSpline
70
4
71
3
72
10
73
6
40
0
40
0
40
0
40
0
40
0.699059121387088
40
0.699059121387088
40
1
40
1
40
1
40
1
41
1
10
11.9085865755457
20
-8.93707117497408
30
0
41
1
10
11.930678946322
20
-9.06225547386308
30
0
41
1
10
11.9534901730973
20
-9.18742142119854
30
0
41
1
10
11.9866596753322
20
-9.365188486916
30
0
41
1
10
11.9967535704047
20
-9.41874409064556
30
0
41
1
10
12.0068992954453
20
-9.47211753920669
30
0
0
SPLINE
5
110
100
AcDbEntity
8
1
62
256
6
ByLayer
370
18
48
1
60
0
100
AcDbSpline
70
4
71
3
72
8
73
4
40
0
40
0
40
0
40
0
40
1
40
1
40
1
40
1
41
1
10
13.1285453690127
20
-9.87427225375174
30
0
41
1
10
13.2982359753763
20
-9.93778717262617
30
0
41
1
10
13.4698223553183
20
-10.0031684904498
30
0
41
1
10
13.6375514911894
20
-10.0678124489701
30
0
0
SPLINE
5
111
100
AcDbEntity
8
1
62
256
6
ByLayer
370
18
48
1
60
0
100
AcDbSpline
70
4
71
3
72
8
73
4
40
0
40
0
40
0
40
0
40
1
40
1
40
1
40
1
41
1
10
14.191412174501
20
-7.03882050792066
30
0
41
1
10
14.3611027808646
20
-7.10233542679512
30
0
41
1
10
14.5326891608066
20
-7.16771674461876
30
0
41
1
10
14.7004182966777
20
-7.23236070313902
30
0
0
SPLINE
5
112
100
AcDbEntity
8
1
62
256
6
ByLayer
370
18
48
1
60
0
100
AcDbSpline
70
4
71
3
72
8
73
4
40
0
40
0
40
0
40
0
40
1
40
1
40
1
40
1
41
1
10
11.7230066003174
20
-7.75654421140945
30
0
41
1
10
11.7461319122681
20
-7.92255069606662
30
0
41
1
10
11.770940205803
20
-8.09335421468498
30
0
41
1
10
11.797839652607
20
-8.26782370792111
30
0
0
SPLINE
5
113
100
AcDbEntity
8
1
62
256
6
ByLayer
370
18
48
1
60
0
100
AcDbSpline
70
4
71
3
72
10
73
6
40
0
40
0
40
0
40
0
40
0.699059121387095
40
0.699059121387095
40
1
40
1
40
1
40
1
41
1
10
14.7752513489674
20
-7.74364019965069
30
0
41
1
10
14.7564668631687
20
-7.6218042473399
30
0
41
1
10
14.7386978065274
20
-7.50174214527999
30
0
41
1
10
14.7145437159239
20
-7.33310076648672
30
0
41
1
10
14.7074084547989
20
-7.28253998631396
30
0
41
1
10
14.7004182966777
20
-7.23236070313902
30
0
0
SPLINE
5
114
100
AcDbEntity
8
1
62
256
6
ByLayer
370
18
48
1
60
0
100
AcDbSpline
70
4
71
3
72
10
73
6
40
0
40
0
40
0
40
0
40
0.699059121387089
40
0.699059121387089
40
1
40
1
40
1
40
1
41
1
10
12.1219601687895
20
-7.40315460853472
30
0
41
1
10
12.026656183349
20
-7.48545274690119
30
0
41
1
10
11.9329227976833
20
-7.56804368494116
30
0
41
1
10
11.8014617121394
20
-7.68566941372174
30
0
41
1
10
11.7620743034191
20
-7.72114896121147
30
0
41
1
10
11.7230066003174
20
-7.75654421140948
30
0
0
SPLINE
5
115
100
AcDbEntity
8
1
62
256
6
ByLayer
370
18
48
1
60
0
100
AcDbSpline
70
4
71
3
72
8
73
4
40
0
40
0
40
0
40
0
40
1
40
1
40
1
40
1
41
1
10
14.9843109918056
20
-8.94793403093624
30
0
41
1
10
14.9507462208142
20
-8.77136039319075
30
0
41
1
10
14.9176346211168
20
-8.59215200349459
30
0
41
1
10
14.885998271906
20
-8.41288766670363
30
0
0
SPLINE
5
116
100
AcDbEntity
8
1
62
256
6
ByLayer
370
18
48
1
60
0
100
AcDbSpline
70
4
71
3
72
10
73
6
40
0
40
0
40
0
40
0
40
0.699059121387083
40
0.699059121387083
40
1
40
1
40
1
40
1
41
1
10
14.5618777557235
20
-9.27755676609004
30
0
41
1
10
14.6604896261416
20
-9.19860697430178
30
0
41
1
10
14.7592651819414
20
-9.12111988153734
30
0
41
1
10
14.8997416791167
20
-9.01261983968098
30
0
41
1
10
14.9420877217845
20
-8.98013511574806
30
0
41
1
10
14.9843109918056
20
-8.94793403093624
30
0
0
SPLINE
5
117
100
AcDbEntity
8
1
62
256
6
ByLayer
370
18
48
1
60
0
100
AcDbSpline
70
4
71
3
72
8
73
4
40
0
40
0
40
0
40
0
40
1
40
1
40
1
40
1
41
1
10
13.0697661009336
20
-6.63666579337561
30
0
41
1
10
12.9300802349059
20
-6.74319559120315
30
0
41
1
10
12.7885453947542
20
-6.85323216131476
30
0
41
1
10
12.6473328648515
20
-6.96628852852942
30
0
0
SPLINE
5
118
100
AcDbEntity
8
1
62
256
6
ByLayer
370
18
48
1
60
0
100
AcDbSpline
70
4
71
3
72
8
73
4
40
0
40
0
40
0
40
0
40
1
40
1
40
1
40
1
41
1
10
13.6375514911894
20
-10.0678124489701
30
0
41
1
10
13.7667978981765
20
-9.95071549805422
30
0
41
1
10
13.9000294321655
20
-9.8322740568648
30
0
41
1
10
14.0365050596615
20
-9.71442284609535
30
0
0
SPLINE
5
119
100
AcDbEntity
8
1
62
256
6
ByLayer
370
18
48
1
60
0
100
AcDbSpline
70
4
71
3
72
8
73
4
40
0
40
0
40
0
40
0
40
1
40
1
40
1
40
1
41
1
10
13.0697661009336
20
-6.63666579337564
30
0
41
1
10
13.2266251912538
20
-6.6906070577283
30
0
41
1
10
13.3892793732142
20
-6.74732740090289
30
0
41
1
10
13.5552925555003
20
-6.80643912087302
30
0
0
LINE
5
75
100
AcDbEntity
8
80
62
256
6
ByLayer
370
18
48
1
60
0
100
AcDbLine
10
0
20
0
30
0
11
-5
21
0
31
0
39
0
210
0
220
0
230
1
0
LINE
5
76
100
AcDbEntity
8
1
62
256
6
ByLayer
370
18
48
1
60
0
100
AcDbLine
10
30.918474
20
-6.973574
30
0
11
30.426099
21
-6.475176
31
0
39
0
210
0
220
0
230
1
0
LINE
5
78
100
AcDbEntity
8
1
62
256
6
ByLayer
370
18
48
1
60
0
100
AcDbLine
10
25.994979
20
2.753358
30
0
11
25.875164
21
3.572711
31
0
39
0
210
0
220
0
230
1
0
LINE
5
79
100
AcDbEntity
8
1
62
256
6
ByLayer
370
18
48
1
60
0
100
AcDbLine
10
19.523643
20
-1.105767
30
0
11
20.347751
21
-1.236529
31
0
39
0
210
0
220
0
230
1
0
LINE
5
7A
100
AcDbEntity
8
1
62
256
6
ByLayer
370
18
48
1
60
0
100
AcDbLine
10
18.983992
20
-17.792853
30
0
11
19.476367
21
-18.29125
31
0
39
0
210
0
220
0
230
1
0
LINE
5
7B
100
AcDbEntity
8
81
62
256
6
ByLayer
370
18
48
1
60
0
100
AcDbLine
10
32
20
-19.5
30
0
11
37
21
-19.5
31
0
39
0
210
0
220
0
230
1
0
LINE
5
7C
100
AcDbEntity
8
SK1
62
256
6
ByLayer
370
18
48
1
60
0
100
AcDbLine
10
0
20
-12.425
30
0
11
0
21
12.5
31
0
39
0
210
0
220
0
230
1
0
LINE
5
7E
100
AcDbEntity
8
SK1
62
256
6
ByLayer
370
18
48
1
60
0
100
AcDbLine
10
0
20
12.5
30
0
11
-81
21
12.5
31
0
39
0
210
0
220
0
230
1
0
LINE
5
7F
100
AcDbEntity
8
SK1
62
256
6
ByLayer
370
18
48
1
60
0
100
AcDbLine
10
-84
20
-9.425
30
0
11
-81
21
-12.425
31
0
39
0
210
0
220
0
230
1
0
LINE
5
80
100
AcDbEntity
8
SK1
62
256
6
ByLayer
370
18
48
1
60
0
100
AcDbLine
10
-84
20
9.5
30
0
11
-81
21
12.5
31
0
39
0
210
0
220
0
230
1
0
LINE
5
81
100
AcDbEntity
8
SK1
62
256
6
ByLayer
370
18
48
1
60
0
100
AcDbLine
10
0
20
-12.425
30
0
11
-81
21
-12.425
31
0
39
0
210
0
220
0
230
1
0
LINE
5
82
100
AcDbEntity
8
SK1
62
256
6
ByLayer
370
18
48
1
60
0
100
AcDbLine
10
-84
20
9.5
30
0
11
-84
21
-9.425
31
0
39
0
210
0
220
0
230
1
0
LINE
5
83
100
AcDbEntity
8
1
62
256
6
ByLayer
370
18
48
1
60
0
100
AcDbLine
10
23.668651
20
-5.670868
30
0
11
23.528766
21
-5.658013
31
0
39
0
210
0
220
0
230
1
0
LINE
5
84
100
AcDbEntity
8
1
62
256
6
ByLayer
370
13
48
1
60
0
100
AcDbLine
10
23.338102
20
8.977248
30
0
11
23.53654
21
7.92504
31
0
39
0
210
0
220
0
230
1
0
LINE
5
85
100
AcDbEntity
8
1
62
256
6
ByLayer
370
18
48
1
60
0
100
AcDbLine
10
2.904397
20
-12.894379
30
0
11
3.6047
21
12.5
31
0
39
0
210
0
220
0
230
1
0
LINE
5
86
100
AcDbEntity
8
1
62
256
6
ByLayer
370
13
48
1
60
0
100
AcDbLine
10
23.895943
20
-4.219248
30
0
11
23.223275
21
-3.445512
31
0
39
0
210
0
220
0
230
1
0
LINE
5
87
100
AcDbEntity
8
1
62
256
6
ByLayer
370
18
48
1
60
0
100
AcDbLine
10
21.480663
20
12.5
30
0
11
22.904852
21
12.5
31
0
39
0
210
0
220
0
230
1
0
LINE
5
88
100
AcDbEntity
8
1
62
256
6
ByLayer
370
13
48
1
60
0
100
AcDbLine
10
23.223275
20
-3.445512
30
0
11
23.031429
21
-3.442166
31
0
39
0
210
0
220
0
230
1
0
LINE
5
89
100
AcDbEntity
8
1
62
256
6
ByLayer
370
18
48
1
60
0
100
AcDbLine
10
23.530912
20
-5.686018
30
0
11
23.528766
21
-5.658013
31
0
39
0
210
0
220
0
230
1
0
LINE
5
8A
100
AcDbEntity
8
1
62
256
6
ByLayer
370
18
48
1
60
0
100
AcDbLine
10
29.436585
20
-5.518554
30
0
11
29.522556
21
-6.640415
31
0
39
0
210
0
220
0
230
1
0
LINE
5
8B
100
AcDbEntity
8
1
62
256
6
ByLayer
370
18
48
1
60
0
100
AcDbLine
10
19.142441
20
-16.889916
30
0
11
3.837586
21
-15.550915
31
0
39
0
210
0
220
0
230
1
0
LINE
5
8C
100
AcDbEntity
8
1
62
256
6
ByLayer
370
18
48
1
60
0
100
AcDbLine
10
22.904852
20
12.5
30
0
11
23.281972
21
11.459668
31
0
39
0
210
0
220
0
230
1
0
LINE
5
8D
100
AcDbEntity
8
1
62
256
6
ByLayer
370
18
48
1
60
0
100
AcDbLine
10
24.042896
20
-6.136859
30
0
11
23.531499
21
-5.500174
31
0
39
0
210
0
220
0
230
1
0
LINE
5
8E
100
AcDbEntity
8
1
62
256
6
ByLayer
370
13
48
1
60
0
100
AcDbLine
10
25.847481
20
3.287632
30
0
11
25.688205
21
4.249838
31
0
39
0
210
0
220
0
230
1
0
LINE
5
8F
100
AcDbEntity
8
1
62
256
6
ByLayer
370
13
48
1
60
0
100
AcDbLine
10
2.317758
20
12.5
30
0
11
2.317758
21
-12.520856
31
0
39
0
210
0
220
0
230
1
0
LINE
5
90
100
AcDbEntity
8
1
62
256
6
ByLayer
370
18
48
1
60
0
100
AcDbLine
10
23.201169
20
-5.657129
30
0
11
23.031429
21
-3.442166
31
0
39
0
210
0
220
0
230
1
0
LINE
5
91
100
AcDbEntity
8
1
62
256
6
ByLayer
370
18
48
1
60
0
100
AcDbLine
10
0.772277
20
12.5
30
0
11
0
21
12.5
31
0
39
0
210
0
220
0
230
1
0
LINE
5
92
100
AcDbEntity
8
1
62
256
6
ByLayer
370
18
48
1
60
0
100
AcDbLine
10
24.042896
20
-6.136859
30
0
11
23.895943
21
-4.219248
31
0
39
0
210
0
220
0
230
1
0
LINE
5
93
100
AcDbEntity
8
1
62
256
6
ByLayer
370
13
48
1
60
0
100
AcDbLine
10
15.414792
20
5.300834
30
0
11
16.72586
21
4.764887
31
0
39
0
210
0
220
0
230
1
0
LINE
5
94
100
AcDbEntity
8
1
62
256
6
ByLayer
370
18
48
1
60
0
100
AcDbLine
10
1.772277
20
-12.425
30
0
11
0.772277
21
-12.425
31
0
39
0
210
0
220
0
230
1
0
LINE
5
95
100
AcDbEntity
8
1
62
256
6
ByLayer
370
18
48
1
60
0
100
AcDbLine
10
2.317758
20
12.5
30
0
11
0.772277
21
12.5
31
0
39
0
210
0
220
0
230
1
0
LINE
5
96
100
AcDbEntity
8
1
62
256
6
ByLayer
370
18
48
1
60
0
100
AcDbLine
10
0
20
-12.425
30
0
11
0
21
12.5
31
0
39
0
210
0
220
0
230
1
0
LINE
5
97
100
AcDbEntity
8
1
62
256
6
ByLayer
370
13
48
1
60
0
100
AcDbLine
10
17.43999
20
0.422668
30
0
11
18.697715
21
-0.029857
31
0
39
0
210
0
220
0
230
1
0
LINE
5
98
100
AcDbEntity
8
1
62
256
6
ByLayer
370
13
48
1
60
0
100
AcDbLine
10
0.772277
20
-12.425
30
0
11
0.772277
21
12.5
31
0
39
0
210
0
220
0
230
1
0
LINE
5
99
100
AcDbEntity
8
1
62
256
6
ByLayer
370
18
48
1
60
0
100
AcDbLine
10
23.528766
20
-5.658013
30
0
11
23.531499
21
-5.500174
31
0
39
0
210
0
220
0
230
1
0
LINE
5
9A
100
AcDbEntity
8
1
62
256
6
ByLayer
370
18
48
1
60
0
100
AcDbLine
10
18.314811
20
-5.366506
30
0
11
18.224063
21
-4.182318
31
0
39
0
210
0
220
0
230
1
0
LINE
5
9B
100
AcDbEntity
8
1
62
256
6
ByLayer
370
18
48
1
60
0
100
AcDbLine
10
26.916263
20
1.434049
30
0
11
29.436585
21
-5.518554
31
0
39
0
210
0
220
0
230
1
0
LINE
5
9C
100
AcDbEntity
8
1
62
256
6
ByLayer
370
18
48
1
60
0
100
AcDbLine
10
18.711429
20
-13.219793
30
0
11
18.49966
21
-10.456373
31
0
39
0
210
0
220
0
230
1
0
LINE
5
9D
100
AcDbEntity
8
1
62
256
6
ByLayer
370
18
48
1
60
0
100
AcDbLine
10
3.6047
20
12.5
30
0
11
2.317758
21
12.5
31
0
39
0
210
0
220
0
230
1
0
LINE
5
9E
100
AcDbEntity
8
1
62
256
6
ByLayer
370
18
48
1
60
0
100
AcDbLine
10
3.317758
20
-13.61089
30
0
11
3.837586
21
-15.550915
31
0
39
0
210
0
220
0
230
1
0
LINE
5
9F
100
AcDbEntity
8
1
62
256
6
ByLayer
370
18
48
1
60
0
100
AcDbLine
10
19.142441
20
-16.889916
30
0
11
18.926268
21
-14.069046
31
0
39
0
210
0
220
0
230
1
0
LINE
5
A0
100
AcDbEntity
8
1
62
256
6
ByLayer
370
18
48
1
60
0
100
AcDbLine
10
3.6047
20
12.5
30
0
11
17.45511
21
12.5
31
0
39
0
210
0
220
0
230
1
0
LINE
5
A1
100
AcDbEntity
8
1
62
256
6
ByLayer
370
18
48
1
60
0
100
AcDbLine
10
18.582342
20
-9.581094
30
0
11
18.209566
21
-4.716668
31
0
39
0
210
0
220
0
230
1
0
LINE
5
A2
100
AcDbEntity
8
1
62
256
6
ByLayer
370
18
48
1
60
0
100
AcDbLine
10
24.042896
20
-6.136859
30
0
11
29.522556
21
-6.640415
31
0
39
0
210
0
220
0
230
1
0
LINE
5
A3
100
AcDbEntity
8
1
62
256
6
ByLayer
370
18
48
1
60
0
100
AcDbLine
10
0.772277
20
-12.425
30
0
11
0
21
-12.425
31
0
39
0
210
0
220
0
230
1
0
LINE
5
A4
100
AcDbEntity
8
1
62
256
6
ByLayer
370
18
48
1
60
0
100
AcDbLine
10
23.223275
20
-3.445512
30
0
11
23.394051
21
-5.674006
31
0
39
0
210
0
220
0
230
1
0
LINE
5
A5
100
AcDbEntity
8
1
62
256
6
ByLayer
370
13
48
1
60
0
100
AcDbLine
10
18.397144
20
-6.623076
30
0
11
18.352169
21
-6.57755
31
0
39
0
210
0
220
0
230
1
0
LINE
5
A6
100
AcDbEntity
8
1
62
256
6
ByLayer
370
18
48
1
60
0
100
AcDbLine
10
19.963687
20
-18.519799
30
0
11
31.133156
21
-19.497001
31
0
39
0
210
0
220
0
230
1
0
LINE
5
A7
100
AcDbEntity
8
1
62
256
6
ByLayer
370
18
48
1
60
0
100
AcDbLine
10
30.431154
20
-6.745024
30
0
11
19.261685
21
-5.767823
31
0
39
0
210
0
220
0
230
1
0
LINE
5
A8
100
AcDbEntity
8
1
62
256
6
ByLayer
370
18
48
1
60
0
100
AcDbLine
10
18.76931
20
-5.269425
30
0
11
23.692254
21
-5.700127
31
0
39
0
210
0
220
0
230
1
0
LINE
5
A9
100
AcDbEntity
8
1
62
256
6
ByLayer
370
18
48
1
60
0
100
AcDbLine
10
29.489208
20
-6.207295
30
0
11
29.938779
21
-6.246627
31
0
39
0
210
0
220
0
230
1
0
LINE
5
AA
100
AcDbEntity
8
1
62
256
6
ByLayer
370
18
48
1
60
0
100
AcDbLine
10
18.397144
20
-6.623076
30
0
11
19.253841
21
-17.802267
31
0
39
0
210
0
220
0
230
1
0
LINE
5
AB
100
AcDbEntity
8
1
62
256
6
ByLayer
370
13
48
1
60
0
100
AcDbLine
10
30.431154
20
-6.745024
30
0
11
29.938779
21
-6.246627
31
0
39
0
210
0
220
0
230
1
0
LINE
5
AC
100
AcDbEntity
8
1
62
256
6
ByLayer
370
18
48
1
60
0
100
AcDbLine
10
18.761466
20
-17.303869
30
0
11
18.726958
21
-16.853558
31
0
39
0
210
0
220
0
230
1
0
LINE
5
AD
100
AcDbEntity
8
1
62
256
6
ByLayer
370
18
48
1
60
0
100
AcDbLine
10
31.997697
20
-18.641748
30
0
11
31.141
21
-7.462557
31
0
39
0
210
0
220
0
230
1
0
LINE
5
AE
100
AcDbEntity
8
1
62
256
6
ByLayer
370
13
48
1
60
0
100
AcDbLine
10
18.76931
20
-5.269425
30
0
11
19.261685
21
-5.767823
31
0
39
0
210
0
220
0
230
1
0
LINE
5
AF
100
AcDbEntity
8
1
62
256
6
ByLayer
370
13
48
1
60
0
100
AcDbLine
10
18.761466
20
-17.303869
30
0
11
19.253841
21
-17.802267
31
0
39
0
210
0
220
0
230
1
0
LINE
5
B0
100
AcDbEntity
8
1
62
256
6
ByLayer
370
18
48
1
60
0
100
AcDbLine
10
12.101111
20
-9.245789
30
0
11
12.492426
21
-9.641891
31
0
39
0
210
0
220
0
230
1
0
LINE
5
B1
100
AcDbEntity
8
1
62
256
6
ByLayer
370
18
48
1
60
0
100
AcDbLine
10
14.775251
20
-7.74364
30
0
11
14.383936
21
-7.347539
31
0
39
0
210
0
220
0
230
1
0
LINE
5
B2
100
AcDbEntity
8
1
62
256
6
ByLayer
370
18
48
1
60
0
100
AcDbLine
10
13.637551
20
-10.067812
30
0
11
13.234496
21
-9.659827
31
0
39
0
210
0
220
0
230
1
0
LINE
5
B3
100
AcDbEntity
8
1
62
256
6
ByLayer
370
18
48
1
60
0
100
AcDbLine
10
14.170563
20
-8.881455
30
0
11
14.581256
21
-8.539949
31
0
39
0
210
0
220
0
230
1
0
LINE
5
B4
100
AcDbEntity
8
1
62
256
6
ByLayer
370
18
48
1
60
0
100
AcDbLine
10
14.383936
20
-7.347539
30
0
11
14.342261
21
-7.095693
31
0
39
0
210
0
220
0
230
1
0
LINE
5
B5
100
AcDbEntity
8
1
62
256
6
ByLayer
370
18
48
1
60
0
100
AcDbLine
10
14.561878
20
-9.277557
30
0
11
14.170563
21
-8.881455
31
0
39
0
210
0
220
0
230
1
0
LINE
5
B6
100
AcDbEntity
8
1
62
256
6
ByLayer
370
18
48
1
60
0
100
AcDbLine
10
13.128545
20
-9.874272
30
0
11
12.73723
21
-9.478171
31
0
39
0
210
0
220
0
230
1
0
LINE
5
B7
100
AcDbEntity
8
1
62
256
6
ByLayer
370
18
48
1
60
0
100
AcDbLine
10
14.984311
20
-8.947934
30
0
11
14.581256
21
-8.539949
31
0
39
0
210
0
220
0
230
1
0
LINE
5
B8
100
AcDbEntity
8
1
62
256
6
ByLayer
370
18
48
1
60
0
100
AcDbLine
10
11.954992
20
-9.19241
30
0
11
12.101111
21
-9.245789
31
0
39
0
210
0
220
0
230
1
0
LINE
5
B9
100
AcDbEntity
8
1
62
256
6
ByLayer
370
18
48
1
60
0
100
AcDbLine
10
13.234496
20
-9.659827
30
0
11
13.64519
21
-9.318321
31
0
39
0
210
0
220
0
230
1
0
LINE
5
BA
100
AcDbEntity
8
1
62
256
6
ByLayer
370
18
48
1
60
0
100
AcDbLine
10
14.494683
20
-8.016786
30
0
11
14.885998
21
-8.412888
31
0
39
0
210
0
220
0
230
1
0
LINE
5
BB
100
AcDbEntity
8
1
62
256
6
ByLayer
370
18
48
1
60
0
100
AcDbLine
10
12.73723
20
-9.478171
30
0
11
13.234496
21
-9.659827
31
0
39
0
210
0
220
0
230
1
0
LINE
5
BC
100
AcDbEntity
8
1
62
256
6
ByLayer
370
18
48
1
60
0
100
AcDbLine
10
14.581256
20
-8.539949
30
0
11
14.494683
21
-8.016786
31
0
39
0
210
0
220
0
230
1
0
LINE
5
BD
100
AcDbEntity
8
1
62
256
6
ByLayer
370
18
48
1
60
0
100
AcDbLine
10
13.64519
20
-9.318321
30
0
11
14.036505
21
-9.714423
31
0
39
0
210
0
220
0
230
1
0
LINE
5
BE
100
AcDbEntity
8
SK2
62
256
6
ByLayer
370
13
48
1
60
0
100
AcDbLine
10
-98.60005
20
-12.5
30
0
11
-98.60005
21
12.5
31
0
39
0
210
0
220
0
230
1
0
LINE
5
C0
100
AcDbEntity
8
SK2
62
256
6
ByLayer
370
13
48
1
60
0
100
AcDbLine
10
-2
20
12.5
30
0
11
-100.60005
21
12.5
31
0
39
0
210
0
220
0
230
1
0
LINE
5
C1
100
AcDbEntity
8
SK2
62
256
6
ByLayer
370
13
48
1
60
0
100
AcDbLine
10
-2
20
-12.5
30
0
11
-100.60005
21
-12.5
31
0
39
0
210
0
220
0
230
1
0
LINE
5
C2
100
AcDbEntity
8
SK2
62
256
6
ByLayer
370
18
48
1
60
0
100
AcDbLine
10
-98.60005
20
12.5
30
0
11
-98.182053
21
9.325002
31
0
39
0
210
0
220
0
230
1
0
LINE
5
C3
100
AcDbEntity
8
SK2
62
256
6
ByLayer
370
18
48
1
60
0
100
AcDbLine
10
-98.60005
20
12.5
30
0
11
-99.018047
21
9.324998
31
0
39
0
210
0
220
0
230
1
0
LINE
5
C4
100
AcDbEntity
8
SK2
62
256
6
ByLayer
370
18
48
1
60
0
100
AcDbLine
10
-98.182053
20
9.325002
30
0
11
-99.018047
21
9.324998
31
0
39
0
210
0
220
0
230
1
0
LINE
5
C5
100
AcDbEntity
8
SK2
62
256
6
ByLayer
370
18
48
1
60
0
100
AcDbLine
10
-98.60005
20
-12.5
30
0
11
-99.018047
21
-9.325002
31
0
39
0
210
0
220
0
230
1
0
LINE
5
C6
100
AcDbEntity
8
SK2
62
256
6
ByLayer
370
18
48
1
60
0
100
AcDbLine
10
-98.60005
20
-12.5
30
0
11
-98.182053
21
-9.324998
31
0
39
0
210
0
220
0
230
1
0
LINE
5
C7
100
AcDbEntity
8
SK2
62
256
6
ByLayer
370
18
48
1
60
0
100
AcDbLine
10
-99.018047
20
-9.325002
30
0
11
-98.182053
21
-9.324998
31
0
39
0
210
0
220
0
230
1
0
MTEXT
5
11A
100
AcDbEntity
8
SK6
62
256
6
ByLayer
370
18
48
1
60
0
100
AcDbMText
10
-43.509893
20
-44.579709
30
0
210
0
220
0
230
1
1
\W0.7587;QS-PCLNL2525-12C
40
3.5
41
0
44
1.084337
50
0
71
7
72
5
7
iso_b_vert
0
MTEXT
5
11E
100
AcDbEntity
8
SK2
62
256
6
ByLayer
370
18
48
1
60
0
100
AcDbMText
10
-99.47505
20
-3.140789
30
0
210
0
220
0
230
1
1
\W0.7346;25.0
40
3.5
41
0
44
1.084337
50
89.9999999999999
71
7
72
5
7
iso_b_vert
0
DIMENSION
5
12C
100
AcDbEntity
8
2
62
256
6
ByLayer
370
13
48
1
60
0
100
AcDbDimension
2
DimnDraft3D1
10
32
20
-32.6
30
0
11
11.892105
21
-32.6
31
0
70
32
71
5
72
1
41
1
210
0
220
0
230
1
3
Standard
100
AcDbAlignedDimension
13
0
23
10.5
33
0
14
32
24
-21.5
34
0
50
0
100
AcDbRotatedDimension
1001
ACAD
1000
DSTYLE
1002
{
1070
   279
1070
     0
1070
   172
1070
     1
1070
   173
1070
     1
1070
   340
1005
11B
1070
   271
1070
     1
1070
    77
1070
     1
1070
    73
1070
     0
1070
   171
1070
     3
1070
   274
1070
     4
1070
   177
1070
     2
1070
   176
1070
     2
1070
   178
1070
     7
1070
    78
1070
     8
1070
    41
1041
3.175
1070
   147
1041
1.75
1070
    42
1041
2.0
1070
    44
1041
2.0
1070
   140
1041
3.5
1070
   343
1005
12D
1070
   344
1005
12D
1002
}
0
DIMENSION
5
141
100
AcDbEntity
8
2
62
256
6
ByLayer
370
13
48
1
60
0
100
AcDbDimension
2
DimnDraft3D2
10
34.828087
20
-19.5
30
0
11
34.828087
21
-7.607895
31
0
70
32
71
5
72
1
41
1
210
0
220
0
230
1
3
Standard
100
AcDbAlignedDimension
13
2
23
12.5
33
0
14
34
24
-19.5
34
0
50
90
100
AcDbRotatedDimension
1001
ACAD
1000
DSTYLE
1002
{
1070
    74
1070
     0
1070
   279
1070
     0
1070
   172
1070
     1
1070
   173
1070
     1
1070
   340
1005
11B
1070
   271
1070
     1
1070
    77
1070
     1
1070
    73
1070
     0
1070
   171
1070
     3
1070
   274
1070
     4
1070
   177
1070
     2
1070
   176
1070
     2
1070
   178
1070
     7
1070
    78
1070
     8
1070
    41
1041
3.175
1070
   147
1041
1.75
1070
    42
1041
2.0
1070
    44
1041
2.0
1070
   140
1041
3.5
1070
   343
1005
12D
1070
   344
1005
12D
1002
}
0
DIMENSION
5
14F
100
AcDbEntity
8
2
62
256
6
ByLayer
370
13
48
1
60
0
100
AcDbDimension
2
DimnDraft3D3
10
31.562557
20
-14.5
30
0
11
38.472689
21
-13.291858
31
0
70
34
71
5
72
1
41
1
210
0
220
0
230
1
3
Standard
100
AcDb2LineAngularDimension
13
32
23
-19.5
33
0
14
37
24
-19.5
34
0
15
32
25
-19.5
35
0
16
36.032363
26
-15.099448
36
0
40
0
0
DIMENSION
5
15D
100
AcDbEntity
8
SK2
62
256
6
ByLayer
370
13
48
1
60
0
100
AcDbDimension
2
DimnDraft3D4
10
32
20
25.821295
30
0
11
-30.540789
21
25.821295
31
0
70
32
71
5
72
1
41
1
210
0
220
0
230
1
3
Standard
100
AcDbAlignedDimension
13
-84
23
14.5
33
0
14
32
24
-17.5
34
0
50
0
100
AcDbRotatedDimension
1001
ACAD
1000
DSTYLE
1002
{
1070
   279
1070
     0
1070
   172
1070
     1
1070
   173
1070
     1
1070
   340
1005
11B
1070
   271
1070
     1
1070
    77
1070
     1
1070
    73
1070
     0
1070
   171
1070
     3
1070
   274
1070
     4
1070
   177
1070
     2
1070
   176
1070
     2
1070
   178
1070
     7
1070
    78
1070
     8
1070
    41
1041
3.175
1070
   147
1041
1.75
1070
    42
1041
2.0
1070
    44
1041
2.0
1070
   140
1041
3.5
1070
   343
1005
12D
1070
   344
1005
12D
1002
}
0
DIMENSION
5
16B
100
AcDbEntity
8
SK2
62
256
6
ByLayer
370
13
48
1
60
0
100
AcDbDimension
2
DimnDraft3D5
10
-81
20
-32.6
30
0
11
-85.230921
21
-32.6
31
0
70
32
71
5
72
1
41
1
210
0
220
0
230
1
3
Standard
100
AcDbAlignedDimension
13
-84
23
10.5
33
0
14
-81
24
-14.5
34
0
50
0
100
AcDbRotatedDimension
1001
ACAD
1000
DSTYLE
1002
{
1070
   279
1070
     0
1070
   172
1070
     1
1070
   173
1070
     1
1070
   340
1005
11B
1070
    77
1070
     1
1070
    73
1070
     0
1070
   171
1070
     3
1070
   274
1070
     4
1070
   177
1070
     2
1070
   176
1070
     2
1070
   178
1070
     7
1070
    78
1070
     8
1070
    41
1041
3.175
1070
   147
1041
1.75
1070
    42
1041
2.0
1070
    44
1041
2.0
1070
   140
1041
3.5
1070
   343
1005
12D
1070
   344
1005
12D
1002
}
0
ENDSEC
0
SECTION
2
OBJECTS
0
DICTIONARY
5
1d5
330
0
100
AcDbDictionary
280
0
281
1
3
ACAD_GROUP
350
1d6
3
ACAD_MLINESTYLE
350
1d7
0
DICTIONARY
5
1d6
330
0
100
AcDbDictionary
280
0
281
1
0
DICTIONARY
5
1d7
330
0
100
AcDbDictionary
280
0
281
1
3
Standard
350
18
0
MLINESTYLE
5
18
330
1d7
100
AcDbMlineStyle
2
Standard
70
0
3

62
256
51
90
52
90
71
2
49
-0.5
62
256
6
ByLayer
49
0.5
62
256
6
ByLayer
0
RASTERVARIABLES
5
1c4
330

100
AcDbRasterVariables
90
0
70
1
71
1
72
1
0
ENDSEC
0
EOF
