0
SECTION
2
HEADER
9
$ACADVER
1
AC1015
9
$DWGCODEPAGE
3
ANSI_1252
9
$HANDSEED
5
1e0
9
$ANGBASE
50
0
9
$ANGDIR
70
0
9
$ATTMODE
70
1
9
$AUNITS
70
0
9
$AUPREC
70
0
9
$CECOLOR
62
256
9
$CELTSCALE
40
1
9
$CELTYPE
6
ByLayer
9
$CELWEIGHT
370
18
9
$CLAYER
8
0
9
$CMLJUST
70
0
9
$CMLSCALE
40
1
9
$CMLSTYLE
2
Standard
9
$DIMSTYLE
2
Standard
9
$TEXTSIZE
40
0.2
9
$TEXTSTYLE
7
Standard
9
$LUNITS
70
2
9
$LUPREC
70
4
9
$EXTNAMES
290
1
9
$INSUNITS
70
4
9
$LTSCALE
40
1
9
$LWDISPLAY
290
1
9
$PDMODE
70
0
9
$PDSIZE
40
0
9
$PLINEGEN
70
0
0
ENDSEC
0
SECTION
2
CLASSES
0
CLASS
1
RASTERVARIABLES
2
AcDbRasterVariables
3
ISM
90
0
280
0
281
0
0
ENDSEC
0
SECTION
2
TABLES
0
TABLE
2
VPORT
5
1d6
100
AcDbSymbolTable
0
VPORT
5
1
100
AcDbSymbolTableRecord
100
AcDbViewportTableRecord
2
*Active
70
0
10
0
20
0
11
1
21
1
12
-1
22
1
13
0
23
0
14
0.5
24
0.5
15
10
25
10
16
0
26
0
36
1
17
0
27
0
37
0
0
ENDTAB
0
TABLE
2
LTYPE
5
1d7
100
AcDbSymbolTable
0
LTYPE
5
14
100
AcDbSymbolTableRecord
100
AcDbLinetypeTableRecord
70
0
2
ByBlock
3

72
65
73
0
40
0
0
LTYPE
5
15
100
AcDbSymbolTableRecord
100
AcDbLinetypeTableRecord
70
0
2
ByLayer
3

72
65
73
0
40
0
0
LTYPE
5
16
100
AcDbSymbolTableRecord
100
AcDbLinetypeTableRecord
70
0
2
CONTINUOUS
3
Solid line
72
65
73
0
40
0
0
LTYPE
5
6A
100
AcDbSymbolTableRecord
100
AcDbLinetypeTableRecord
70
0
2
CENTER
3
____ _ ____ _ ____ _ ____
72
65
73
4
40
47.5
49
22
74
0
49
-8.5
74
0
49
8.5
74
0
49
-8.5
74
0
0
LTYPE
5
6B
100
AcDbSymbolTableRecord
100
AcDbLinetypeTableRecord
70
0
2
DASHED
3
__ __ __ __ __ __ __ __ __
72
65
73
2
40
25.72
49
12.86
74
0
49
-12.86
74
0
0
ENDTAB
0
TABLE
2
LAYER
5
1d8
100
AcDbSymbolTable
0
LAYER
5
10
100
AcDbSymbolTableRecord
100
AcDbLayerTableRecord
2
0
70
0
62
7
6
CONTINUOUS
290
1
370
-3
390
0
0
LAYER
5
6D
100
AcDbSymbolTableRecord
100
AcDbLayerTableRecord
2
80
70
0
62
-6
6
CONTINUOUS
290
1
370
-3
390
0
0
LAYER
5
6F
100
AcDbSymbolTableRecord
100
AcDbLayerTableRecord
2
81
70
0
62
-3
6
CONTINUOUS
290
1
370
-3
390
0
0
LAYER
5
71
100
AcDbSymbolTableRecord
100
AcDbLayerTableRecord
2
2
70
0
62
7
6
CONTINUOUS
290
1
370
-3
390
0
0
LAYER
5
77
100
AcDbSymbolTableRecord
100
AcDbLayerTableRecord
2
1
70
0
62
4
6
CONTINUOUS
290
1
370
-3
390
0
0
LAYER
5
1c3
100
AcDbSymbolTableRecord
100
AcDbLayerTableRecord
2
SK1
70
0
62
4
6
CONTINUOUS
290
1
370
-3
390
0
0
LAYER
5
1c4
100
AcDbSymbolTableRecord
100
AcDbLayerTableRecord
2
SK2
70
0
62
7
6
CONTINUOUS
290
1
370
-3
390
0
0
LAYER
5
1c5
100
AcDbSymbolTableRecord
100
AcDbLayerTableRecord
2
SK6
70
0
62
5
6
CONTINUOUS
290
1
370
-3
390
0
0
ENDTAB
0
TABLE
2
STYLE
5
1d9
100
AcDbSymbolTable
0
STYLE
5
11
100
AcDbSymbolTableRecord
100
AcDbTextStyleTableRecord
2
Standard
3
txt
70
0
71
0
40
0
41
1
42
0
50
0
0
STYLE
5
119
100
AcDbSymbolTableRecord
100
AcDbTextStyleTableRecord
2
iso_b_vert
3
simplex.shx
70
0
71
0
40
0
41
1
42
0
50
0
0
STYLE
5
11A
100
AcDbSymbolTableRecord
100
AcDbTextStyleTableRecord
2
DWGDirectTextStyle
3
simplex
70
0
71
0
40
0
41
1
42
0
50
0
0
ENDTAB
0
TABLE
2
DIMSTYLE
5
1da
100
AcDbSymbolTable
100
AcDbDimStyleTable
0
DIMSTYLE
105
27
100
AcDbSymbolTableRecord
100
AcDbDimStyleTableRecord
2
Standard
70
0
3
<>
41
0.18
42
0.0625
44
0.18
140
0.18
147
0.09
73
0
74
0
77
1
271
2
275
0
278
52
280
0
340
11
0
ENDTAB
0
TABLE
2
VIEW
5
1db
100
AcDbSymbolTable
0
ENDTAB
0
TABLE
2
UCS
5
1dc
100
AcDbSymbolTable
0
ENDTAB
0
TABLE
2
APPID
5
1dd
100
AcDbSymbolTable
0
APPID
5
12
100
AcDbSymbolTableRecord
100
AcDbRegAppTableRecord
2
ACAD
70
0
0
ENDTAB
0
TABLE
2
BLOCK_RECORD
5
1de
100
AcDbSymbolTable
0
BLOCK_RECORD
5
1F
100
AcDbSymbolTableRecord
100
AcDbBlockTableRecord
2
*Model_Space
340
0
70
0
0
BLOCK_RECORD
5
1B
100
AcDbSymbolTableRecord
100
AcDbBlockTableRecord
2
*Paper_Space
340
0
70
0
0
BLOCK_RECORD
5
23
100
AcDbSymbolTableRecord
100
AcDbBlockTableRecord
2
*Paper_Space0
340
0
70
0
0
BLOCK_RECORD
5
11D
100
AcDbSymbolTableRecord
100
AcDbBlockTableRecord
2
DimnDraft3D1
340
0
70
0
0
BLOCK_RECORD
5
12B
100
AcDbSymbolTableRecord
100
AcDbBlockTableRecord
2
_CLOSED
340
0
70
0
0
BLOCK_RECORD
5
132
100
AcDbSymbolTableRecord
100
AcDbBlockTableRecord
2
DimnDraft3D2
340
0
70
0
0
BLOCK_RECORD
5
140
100
AcDbSymbolTableRecord
100
AcDbBlockTableRecord
2
DimnDraft3D3
340
0
70
0
0
BLOCK_RECORD
5
14E
100
AcDbSymbolTableRecord
100
AcDbBlockTableRecord
2
DimnDraft3D4
340
0
70
0
0
BLOCK_RECORD
5
15C
100
AcDbSymbolTableRecord
100
AcDbBlockTableRecord
2
DimnDraft3D5
340
0
70
0
0
ENDTAB
0
ENDSEC
0
SECTION
2
BLOCKS
0
BLOCK
5
20
100
AcDbEntity
8
0
100
AcDbBlockBegin
2
*Model_Space
70
0
10
0
20
0
30
0
3
*Model_Space
0
ENDBLK
5
21
100
AcDbEntity
8
0
100
AcDbBlockEnd
0
BLOCK
5
1C
100
AcDbEntity
8
0
100
AcDbBlockBegin
2
*Paper_Space
70
0
10
0
20
0
30
0
3
*Paper_Space
0
ENDBLK
5
1D
100
AcDbEntity
8
0
100
AcDbBlockEnd
0
BLOCK
5
24
100
AcDbEntity
8
0
100
AcDbBlockBegin
2
*Paper_Space0
70
0
10
0
20
0
30
0
3
*Paper_Space0
0
ENDBLK
5
25
100
AcDbEntity
8
0
100
AcDbBlockEnd
0
BLOCK
5
128
100
AcDbEntity
8
0
100
AcDbBlockBegin
2
DimnDraft3D1
70
0
10
0
20
0
30
0
3
DimnDraft3D1
0
MTEXT
5
11E
100
AcDbEntity
8
2
62
256
6
ByLayer
370
18
48
1
60
0
100
AcDbMText
10
12.767105
20
-27.225
30
0
210
0
220
0
230
1
1
\W0.7346;32.0
40
3.5
41
0
44
1.084337
50
0
71
7
72
5
7
iso_b_vert
0
LINE
5
11F
100
AcDbEntity
8
2
62
256
6
ByLayer
370
13
48
1
60
0
100
AcDbLine
10
0
20
8
30
0
11
0
21
-30.1
31
0
39
0
210
0
220
0
230
1
0
LINE
5
120
100
AcDbEntity
8
2
62
256
6
ByLayer
370
13
48
1
60
0
100
AcDbLine
10
32
20
-17
30
0
11
32
21
-30.1
31
0
39
0
210
0
220
0
230
1
0
LINE
5
121
100
AcDbEntity
8
2
62
256
6
ByLayer
370
13
48
1
60
0
100
AcDbLine
10
0
20
-28.1
30
0
11
32
21
-28.1
31
0
39
0
210
0
220
0
230
1
0
LINE
5
122
100
AcDbEntity
8
2
62
256
6
ByLayer
370
13
48
1
60
0
100
AcDbLine
10
0
20
-28.1
30
0
11
3.174998
21
-27.682003
31
0
39
0
210
0
220
0
230
1
0
LINE
5
123
100
AcDbEntity
8
2
62
256
6
ByLayer
370
13
48
1
60
0
100
AcDbLine
10
0
20
-28.1
30
0
11
3.175002
21
-28.517997
31
0
39
0
210
0
220
0
230
1
0
LINE
5
124
100
AcDbEntity
8
2
62
256
6
ByLayer
370
13
48
1
60
0
100
AcDbLine
10
3.174998
20
-27.682003
30
0
11
3.175002
21
-28.517997
31
0
39
0
210
0
220
0
230
1
0
LINE
5
125
100
AcDbEntity
8
2
62
256
6
ByLayer
370
13
48
1
60
0
100
AcDbLine
10
32
20
-28.1
30
0
11
28.825002
21
-28.517997
31
0
39
0
210
0
220
0
230
1
0
LINE
5
126
100
AcDbEntity
8
2
62
256
6
ByLayer
370
13
48
1
60
0
100
AcDbLine
10
32
20
-28.1
30
0
11
28.824998
21
-27.682003
31
0
39
0
210
0
220
0
230
1
0
LINE
5
127
100
AcDbEntity
8
2
62
256
6
ByLayer
370
13
48
1
60
0
100
AcDbLine
10
28.825002
20
-28.517997
30
0
11
28.824998
21
-27.682003
31
0
39
0
210
0
220
0
230
1
0
ENDBLK
5
129
100
AcDbEntity
8
0
100
AcDbBlockEnd
0
BLOCK
5
12C
100
AcDbEntity
8
0
100
AcDbBlockBegin
2
_CLOSED
70
0
10
0
20
0
30
0
3
_CLOSED
0
LINE
5
12E
100
AcDbEntity
8
0
62
256
6
ByLayer
370
-2
48
1
60
0
100
AcDbLine
10
-1
20
0.166667
30
0
11
0
21
0
31
0
39
0
210
0
220
0
230
1
0
LINE
5
12F
100
AcDbEntity
8
0
62
256
6
ByLayer
370
-2
48
1
60
0
100
AcDbLine
10
0
20
0
30
0
11
-1
21
-0.166667
31
0
39
0
210
0
220
0
230
1
0
LINE
5
130
100
AcDbEntity
8
0
62
256
6
ByLayer
370
-2
48
1
60
0
100
AcDbLine
10
-1
20
0.166667
30
0
11
-1
21
-0.166667
31
0
39
0
210
0
220
0
230
1
0
LINE
5
131
100
AcDbEntity
8
0
62
256
6
ByLayer
370
-2
48
1
60
0
100
AcDbLine
10
0
20
0
30
0
11
-1
21
0
31
0
39
0
210
0
220
0
230
1
0
ENDBLK
5
12D
100
AcDbEntity
8
0
100
AcDbBlockEnd
0
BLOCK
5
13D
100
AcDbEntity
8
0
100
AcDbBlockBegin
2
DimnDraft3D2
70
0
10
0
20
0
30
0
3
DimnDraft3D2
0
MTEXT
5
133
100
AcDbEntity
8
2
62
256
6
ByLayer
370
18
48
1
60
0
100
AcDbMText
10
33.953087
20
-5.732895
30
0
210
0
220
0
230
1
1
\W0.7346;25.0
40
3.5
41
0
44
1.084337
50
90
71
7
72
5
7
iso_b_vert
0
LINE
5
134
100
AcDbEntity
8
2
62
256
6
ByLayer
370
13
48
1
60
0
100
AcDbLine
10
2
20
10
30
0
11
36.828087
21
10
31
0
39
0
210
0
220
0
230
1
0
LINE
5
135
100
AcDbEntity
8
2
62
256
6
ByLayer
370
13
48
1
60
0
100
AcDbLine
10
34
20
-15
30
0
11
36.828087
21
-15
31
0
39
0
210
0
220
0
230
1
0
LINE
5
136
100
AcDbEntity
8
2
62
256
6
ByLayer
370
13
48
1
60
0
100
AcDbLine
10
34.828087
20
10
30
0
11
34.828087
21
-15
31
0
39
0
210
0
220
0
230
1
0
LINE
5
137
100
AcDbEntity
8
2
62
256
6
ByLayer
370
13
48
1
60
0
100
AcDbLine
10
34.828087
20
10
30
0
11
35.246084
21
6.825002
31
0
39
0
210
0
220
0
230
1
0
LINE
5
138
100
AcDbEntity
8
2
62
256
6
ByLayer
370
13
48
1
60
0
100
AcDbLine
10
34.828087
20
10
30
0
11
34.41009
21
6.824998
31
0
39
0
210
0
220
0
230
1
0
LINE
5
139
100
AcDbEntity
8
2
62
256
6
ByLayer
370
13
48
1
60
0
100
AcDbLine
10
35.246084
20
6.825002
30
0
11
34.41009
21
6.824998
31
0
39
0
210
0
220
0
230
1
0
LINE
5
13A
100
AcDbEntity
8
2
62
256
6
ByLayer
370
13
48
1
60
0
100
AcDbLine
10
34.828087
20
-15
30
0
11
34.41009
21
-11.825002
31
0
39
0
210
0
220
0
230
1
0
LINE
5
13B
100
AcDbEntity
8
2
62
256
6
ByLayer
370
13
48
1
60
0
100
AcDbLine
10
34.828087
20
-15
30
0
11
35.246084
21
-11.824998
31
0
39
0
210
0
220
0
230
1
0
LINE
5
13C
100
AcDbEntity
8
2
62
256
6
ByLayer
370
13
48
1
60
0
100
AcDbLine
10
34.41009
20
-11.825002
30
0
11
35.246084
21
-11.824998
31
0
39
0
210
0
220
0
230
1
0
ENDBLK
5
13E
100
AcDbEntity
8
0
100
AcDbBlockEnd
0
BLOCK
5
14B
100
AcDbEntity
8
0
100
AcDbBlockBegin
2
DimnDraft3D3
70
0
10
0
20
0
30
0
3
DimnDraft3D3
0
MTEXT
5
141
100
AcDbEntity
8
2
62
256
6
ByLayer
370
18
48
1
60
0
100
AcDbMText
10
34.325502
20
-7.718432
30
0
210
0
220
0
230
1
1
\W0.8292;95%%d0'
40
3
41
0
44
1.084337
50
313.80487463824
71
7
72
5
7
iso_b_vert
0
LINE
5
142
100
AcDbEntity
8
2
62
256
6
ByLayer
370
13
48
1
60
0
100
AcDbLine
10
39
20
-15
30
0
11
39.968653
21
-15
31
0
39
0
210
0
220
0
230
1
0
LINE
5
143
100
AcDbEntity
8
2
62
256
6
ByLayer
370
13
48
1
60
0
100
AcDbLine
10
31.388245
20
-8.007611
30
0
11
31.305486
21
-7.06167
31
0
39
0
210
0
220
0
230
1
0
ARC
5
144
100
AcDbEntity
8
2
62
256
6
ByLayer
370
13
48
1
60
0
100
AcDbCircle
39
0
10
32
20
-15
30
0
40
5.96865271337741
210
0
220
0
230
1
100
AcDbArc
50
0
51
95
0
LINE
5
145
100
AcDbEntity
8
2
62
256
6
ByLayer
370
13
48
1
60
0
100
AcDbLine
10
37.968653
20
-15
30
0
11
37.142665
21
-11.90596
31
0
39
0
210
0
220
0
230
1
0
LINE
5
146
100
AcDbEntity
8
2
62
256
6
ByLayer
370
13
48
1
60
0
100
AcDbLine
10
37.968653
20
-15
30
0
11
37.971606
21
-11.797603
31
0
39
0
210
0
220
0
230
1
0
LINE
5
147
100
AcDbEntity
8
2
62
256
6
ByLayer
370
13
48
1
60
0
100
AcDbLine
10
37.142665
20
-11.90596
30
0
11
37.971606
21
-11.797603
31
0
39
0
210
0
220
0
230
1
0
LINE
5
148
100
AcDbEntity
8
2
62
256
6
ByLayer
370
13
48
1
60
0
100
AcDbLine
10
31.479798
20
-9.05406
30
0
11
34.669748
21
-8.77201
31
0
39
0
210
0
220
0
230
1
0
LINE
5
149
100
AcDbEntity
8
2
62
256
6
ByLayer
370
13
48
1
60
0
100
AcDbLine
10
31.479798
20
-9.05406
30
0
11
34.634056
21
-9.607241
31
0
39
0
210
0
220
0
230
1
0
LINE
5
14A
100
AcDbEntity
8
2
62
256
6
ByLayer
370
13
48
1
60
0
100
AcDbLine
10
34.669748
20
-8.77201
30
0
11
34.634056
21
-9.607241
31
0
39
0
210
0
220
0
230
1
0
ENDBLK
5
14C
100
AcDbEntity
8
0
100
AcDbBlockEnd
0
BLOCK
5
159
100
AcDbEntity
8
0
100
AcDbBlockBegin
2
DimnDraft3D4
70
0
10
0
20
0
30
0
3
DimnDraft3D4
0
MTEXT
5
14F
100
AcDbEntity
8
SK2
62
256
6
ByLayer
370
18
48
1
60
0
100
AcDbMText
10
-22.165789
20
24.196295
30
0
210
0
220
0
230
1
1
\W0.6261;101.0
40
3.5
41
0
44
1.084337
50
0
71
7
72
5
7
iso_b_vert
0
LINE
5
150
100
AcDbEntity
8
SK2
62
256
6
ByLayer
370
13
48
1
60
0
100
AcDbLine
10
-69
20
12
30
0
11
-69
21
25.321295
31
0
39
0
210
0
220
0
230
1
0
LINE
5
151
100
AcDbEntity
8
SK2
62
256
6
ByLayer
370
13
48
1
60
0
100
AcDbLine
10
32
20
-13
30
0
11
32
21
25.321295
31
0
39
0
210
0
220
0
230
1
0
LINE
5
152
100
AcDbEntity
8
SK2
62
256
6
ByLayer
370
13
48
1
60
0
100
AcDbLine
10
-69
20
23.321295
30
0
11
32
21
23.321295
31
0
39
0
210
0
220
0
230
1
0
LINE
5
153
100
AcDbEntity
8
SK2
62
256
6
ByLayer
370
13
48
1
60
0
100
AcDbLine
10
-69
20
23.321295
30
0
11
-65.825002
21
23.739291
31
0
39
0
210
0
220
0
230
1
0
LINE
5
154
100
AcDbEntity
8
SK2
62
256
6
ByLayer
370
13
48
1
60
0
100
AcDbLine
10
-69
20
23.321295
30
0
11
-65.824998
21
22.903298
31
0
39
0
210
0
220
0
230
1
0
LINE
5
155
100
AcDbEntity
8
SK2
62
256
6
ByLayer
370
13
48
1
60
0
100
AcDbLine
10
-65.825002
20
23.739291
30
0
11
-65.824998
21
22.903298
31
0
39
0
210
0
220
0
230
1
0
LINE
5
156
100
AcDbEntity
8
SK2
62
256
6
ByLayer
370
13
48
1
60
0
100
AcDbLine
10
32
20
23.321295
30
0
11
28.825002
21
22.903298
31
0
39
0
210
0
220
0
230
1
0
LINE
5
157
100
AcDbEntity
8
SK2
62
256
6
ByLayer
370
13
48
1
60
0
100
AcDbLine
10
32
20
23.321295
30
0
11
28.824998
21
23.739291
31
0
39
0
210
0
220
0
230
1
0
LINE
5
158
100
AcDbEntity
8
SK2
62
256
6
ByLayer
370
13
48
1
60
0
100
AcDbLine
10
28.825002
20
22.903298
30
0
11
28.824998
21
23.739291
31
0
39
0
210
0
220
0
230
1
0
ENDBLK
5
15A
100
AcDbEntity
8
0
100
AcDbBlockEnd
0
BLOCK
5
167
100
AcDbEntity
8
0
100
AcDbBlockBegin
2
DimnDraft3D5
70
0
10
0
20
0
30
0
3
DimnDraft3D5
0
MTEXT
5
15D
100
AcDbEntity
8
SK2
62
256
6
ByLayer
370
18
48
1
60
0
100
AcDbMText
10
-69.355921
20
-27.225
30
0
210
0
220
0
230
1
1
\W0.7121;3.0
40
3.5
41
0
44
1.084337
50
0
71
7
72
5
7
iso_b_vert
0
LINE
5
15E
100
AcDbEntity
8
SK2
62
256
6
ByLayer
370
13
48
1
60
0
100
AcDbLine
10
-69
20
8
30
0
11
-69
21
-30.1
31
0
39
0
210
0
220
0
230
1
0
LINE
5
15F
100
AcDbEntity
8
SK2
62
256
6
ByLayer
370
13
48
1
60
0
100
AcDbLine
10
-66
20
-12
30
0
11
-66
21
-30.1
31
0
39
0
210
0
220
0
230
1
0
LINE
5
160
100
AcDbEntity
8
SK2
62
256
6
ByLayer
370
13
48
1
60
0
100
AcDbLine
10
-77.75
20
-28.1
30
0
11
-57.25
21
-28.1
31
0
39
0
210
0
220
0
230
1
0
LINE
5
161
100
AcDbEntity
8
SK2
62
256
6
ByLayer
370
13
48
1
60
0
100
AcDbLine
10
-69
20
-28.1
30
0
11
-72.174998
21
-28.517997
31
0
39
0
210
0
220
0
230
1
0
LINE
5
162
100
AcDbEntity
8
SK2
62
256
6
ByLayer
370
13
48
1
60
0
100
AcDbLine
10
-69
20
-28.1
30
0
11
-72.175002
21
-27.682003
31
0
39
0
210
0
220
0
230
1
0
LINE
5
163
100
AcDbEntity
8
SK2
62
256
6
ByLayer
370
13
48
1
60
0
100
AcDbLine
10
-72.174998
20
-28.517997
30
0
11
-72.175002
21
-27.682003
31
0
39
0
210
0
220
0
230
1
0
LINE
5
164
100
AcDbEntity
8
SK2
62
256
6
ByLayer
370
13
48
1
60
0
100
AcDbLine
10
-66
20
-28.1
30
0
11
-62.825002
21
-27.682003
31
0
39
0
210
0
220
0
230
1
0
LINE
5
165
100
AcDbEntity
8
SK2
62
256
6
ByLayer
370
13
48
1
60
0
100
AcDbLine
10
-66
20
-28.1
30
0
11
-62.824998
21
-28.517997
31
0
39
0
210
0
220
0
230
1
0
LINE
5
166
100
AcDbEntity
8
SK2
62
256
6
ByLayer
370
13
48
1
60
0
100
AcDbLine
10
-62.825002
20
-27.682003
30
0
11
-62.824998
21
-28.517997
31
0
39
0
210
0
220
0
230
1
0
ENDBLK
5
168
100
AcDbEntity
8
0
100
AcDbBlockEnd
0
ENDSEC
0
SECTION
2
ENTITIES
0
ARC
5
C7
100
AcDbEntity
8
SK1
62
256
6
ByLayer
370
18
48
1
60
0
100
AcDbCircle
39
0
10
1.227723
20
11.6
30
0
40
1.6
210
0
220
0
230
-1
100
AcDbArc
50
219.885542
51
270
0
ARC
5
C8
100
AcDbEntity
8
1
62
256
6
ByLayer
370
18
48
1
60
0
100
AcDbCircle
39
0
10
-1.772277
20
-11.525
30
0
40
1.59999999997778
210
0
220
0
230
-1
100
AcDbArc
50
109.93329
51
132.375713
0
ARC
5
C9
100
AcDbEntity
8
1
62
256
6
ByLayer
370
18
48
1
60
0
100
AcDbCircle
39
0
10
1.227723
20
11.6
30
0
40
1.6
210
0
220
0
230
-1
100
AcDbArc
50
195
51
219.885542
0
ARC
5
CA
100
AcDbEntity
8
1
62
256
6
ByLayer
370
18
48
1
60
0
100
AcDbCircle
39
0
10
-1.772277
20
-11.525
30
0
40
1.60000000001464
210
0
220
0
230
-1
100
AcDbArc
50
132.375713
51
160.940961
0
ELLIPSE
5
CB
100
AcDbEntity
8
1
62
256
6
ByLayer
370
13
48
1
60
0
100
AcDbEllipse
10
21.143904
20
10.58186
30
0
11
3.12606239710323
21
3.08828689054963
31
0
210
0
220
0
230
1
40
0.989121
41
1.45868820662385
42
2.65073851160826
0
ELLIPSE
5
CC
100
AcDbEntity
8
1
62
256
6
ByLayer
370
13
48
1
60
0
100
AcDbEllipse
10
21.324719
20
5.658268
30
0
11
2.04327306909717
21
2.01858204716363
31
0
210
0
220
0
230
1
40
0.989121
41
2.78102040759156
42
-2.51270543559494
0
ELLIPSE
5
CD
100
AcDbEntity
8
1
62
256
6
ByLayer
370
18
48
1
60
0
100
AcDbEllipse
10
20.788089
20
0.00889
30
0
11
-1.84961911353884
21
-1.82726821644545
31
0
210
0
220
0
230
1
40
0.989121
41
-1.60135976102066
42
-0.697445677483351
0
ELLIPSE
5
CE
100
AcDbEntity
8
1
62
256
6
ByLayer
370
13
48
1
60
0
100
AcDbEllipse
10
24.42039
20
6.934935
30
0
11
2.04327306909717
21
2.01858204716363
31
0
210
0
220
0
230
1
40
0.989121
41
-0.628927900796167
42
-0.423453870770456
0
ELLIPSE
5
CF
100
AcDbEntity
8
1
62
256
6
ByLayer
370
13
48
1
60
0
100
AcDbEllipse
10
17.270931
20
3.815478
30
0
11
-1.46410791457081
21
-0.645281345221687
31
0
210
0
220
0
230
1
40
0.137647
41
-3.00190280916714
42
-1.51837294497196
0
ELLIPSE
5
D0
100
AcDbEntity
8
1
62
256
6
ByLayer
370
18
48
1
60
0
100
AcDbEllipse
10
21.289952
20
-8.494235
30
0
11
-1.84961911353885
21
-1.82726821644546
31
0
210
0
220
0
230
1
40
0.989121
41
-0.69744567748335
42
-0.356107905283967
0
ELLIPSE
5
D1
100
AcDbEntity
8
1
62
256
6
ByLayer
370
18
48
1
60
0
100
AcDbEllipse
10
-10.145138
20
-6.073603
30
0
11
28.3647758386884
21
28.0220143581183
31
0
210
0
220
0
230
1
40
0.989121
41
-0.423453870770456
42
-0.293171974787156
0
ELLIPSE
5
D2
100
AcDbEntity
8
1
62
256
6
ByLayer
370
18
48
1
60
0
100
AcDbEllipse
10
20.626042
20
0.827293
30
0
11
-1.86304025640742
21
-1.84052717749998
31
0
210
0
220
0
230
1
40
0.989121
41
2.44414697610637
42
2.86394210447712
0
ELLIPSE
5
D3
100
AcDbEntity
8
1
62
256
6
ByLayer
370
13
48
1
60
0
100
AcDbEllipse
10
26.27522
20
2.89823
30
0
11
-0.67588968693202
21
1.45023209559675
31
0
210
0
220
0
230
1
40
0.049983
41
0.674572575354383
42
1.43182145054054
0
ELLIPSE
5
D4
100
AcDbEntity
8
1
62
256
6
ByLayer
370
13
48
1
60
0
100
AcDbEllipse
10
28.607081
20
8.490553
30
0
11
-1.50203235470604
21
-0.551270174611541
31
0
210
0
220
0
230
1
40
0.134113
41
-0.291784042217767
42
-0.0262297276303471
0
ELLIPSE
5
D5
100
AcDbEntity
8
1
62
256
6
ByLayer
370
13
48
1
60
0
100
AcDbEllipse
10
55.028074
20
20.8041
30
0
11
28.3647758386884
21
28.0220143581183
31
0
210
0
220
0
230
1
40
0.989121
41
2.65073851160826
42
2.78102040759156
0
ELLIPSE
5
D6
100
AcDbEntity
8
1
62
256
6
ByLayer
370
13
48
1
60
0
100
AcDbEllipse
10
54.877073
20
20.956947
30
0
11
-29.4986716875479
21
-29.1422081484041
31
0
210
0
220
0
230
1
40
0.989121
41
-0.490854141981537
42
-0.360572245998236
0
ELLIPSE
5
D7
100
AcDbEntity
8
1
62
256
6
ByLayer
370
13
48
1
60
0
100
AcDbEllipse
10
22.805882
20
1.467461
30
0
11
-0.542846378145827
21
1.50509727583766
31
0
210
0
220
0
230
1
40
0.062306
41
0.548423051820044
42
0.912108439674196
0
ELLIPSE
5
D8
100
AcDbEntity
8
1
62
256
6
ByLayer
370
13
48
1
60
0
100
AcDbEllipse
10
24.26939
20
7.087782
30
0
11
-3.17716891795659
21
-3.13877583744949
31
0
210
0
220
0
230
1
40
0.989121
41
1.22412166368153
42
1.78451126730788
0
ELLIPSE
5
D9
100
AcDbEntity
8
1
62
256
6
ByLayer
370
18
48
1
60
0
100
AcDbEllipse
10
21.078182
20
-5.730815
30
0
11
-1.84961911353885
21
-1.82726821644546
31
0
210
0
220
0
230
1
40
0.989121
41
-1.03878344968275
42
-0.697445677483357
0
ELLIPSE
5
DA
100
AcDbEntity
8
1
62
256
6
ByLayer
370
18
48
1
60
0
100
AcDbEllipse
10
21.383132
20
0.060942
30
0
11
1.80248286993622
21
1.78070156975197
31
0
210
0
220
0
230
1
40
0.989121
41
-0.697445677483358
42
-0.00237677425755766
0
ELLIPSE
5
DB
100
AcDbEntity
8
1
62
256
6
ByLayer
370
13
48
1
60
0
100
AcDbEllipse
10
15.439125
20
8.841889
30
0
11
-1.53595077160973
21
-0.448168748566279
31
0
210
0
220
0
230
1
40
0.129738
41
-2.98433503838804
42
-1.50080517419286
0
ELLIPSE
5
DC
100
AcDbEntity
8
1
62
256
6
ByLayer
370
13
48
1
60
0
100
AcDbEllipse
10
20.992904
20
10.734708
30
0
11
-4.25995824596266
21
-4.20848068083548
31
0
210
0
220
0
230
1
40
0.989121
41
-1.36511693227197
42
-0.490854141981532
0
ELLIPSE
5
DD
100
AcDbEntity
8
1
62
256
6
ByLayer
370
13
48
1
60
0
100
AcDbEllipse
10
26.439494
20
13.378487
30
0
11
1.41688918801402
21
0.743253004628293
31
0
210
0
220
0
230
1
40
0.14083
41
1.93662940196335
42
3.09727969897702
0
ELLIPSE
5
DE
100
AcDbEntity
8
1
62
256
6
ByLayer
370
18
48
1
60
0
100
AcDbEllipse
10
23.772248
20
-6.689807
30
0
11
2.26756189400194
21
2.24016055381534
31
0
210
0
220
0
230
1
40
0.989121
41
-2.4711856791969
42
-0.670429338316403
0
ELLIPSE
5
DF
100
AcDbEntity
8
1
62
256
6
ByLayer
370
13
48
1
60
0
100
AcDbEllipse
10
21.173718
20
5.811115
30
0
11
-3.17716891795659
21
-3.13877583744949
31
0
210
0
220
0
230
1
40
0.989121
41
-0.360572245998236
42
0.29541865833465
0
ELLIPSE
5
E0
100
AcDbEntity
8
1
62
256
6
ByLayer
370
13
48
1
60
0
100
AcDbEllipse
10
9.022344
20
40.409279
30
0
11
-29.4986716875479
21
-29.1422081484041
31
0
210
0
220
0
230
1
40
0.989121
41
1.14759080382451
42
1.22412166368153
0
ELLIPSE
5
E1
100
AcDbEntity
8
1
62
256
6
ByLayer
370
13
48
1
60
0
100
AcDbEllipse
10
21.143904
20
10.58186
30
0
11
3.12606239710323
21
3.08828689054963
31
0
210
0
220
0
230
1
40
0.989121
41
-0.293171974787163
42
0.113326826607765
0
ELLIPSE
5
E2
100
AcDbEntity
8
1
62
256
6
ByLayer
370
18
48
1
60
0
100
AcDbEllipse
10
20.607739
20
0.84582
30
0
11
1.73855507260098
21
1.7175462793665
31
0
210
0
220
0
230
1
40
0.989121
41
-0.697445677483351
42
-0.137506033554504
0
ELLIPSE
5
E3
100
AcDbEntity
8
1
62
256
6
ByLayer
370
18
48
1
60
0
100
AcDbEllipse
10
25.19742
20
-8.132412
30
0
11
1.83396849024033
21
1.81180671612272
31
0
210
0
220
0
230
1
40
0.989121
41
0
42
6.28318530717959
0
ELLIPSE
5
E4
100
AcDbEntity
8
1
62
256
6
ByLayer
370
18
48
1
60
0
100
AcDbEllipse
10
29.861432
20
-2.53302
30
0
11
-0.564667373604451
21
-0.557843902616804
31
0
210
0
220
0
230
1
40
0.989121
41
-3.14158334503815
42
-2.44277492947766
0
ELLIPSE
5
E5
100
AcDbEntity
8
1
62
256
6
ByLayer
370
18
48
1
60
0
100
AcDbEllipse
10
18.691963
20
-1.555818
30
0
11
-0.564667373604451
21
-0.557843902616804
31
0
210
0
220
0
230
1
40
0.989121
41
-2.44277492947766
42
-1.76845075161596
0
ELLIPSE
5
E6
100
AcDbEntity
8
1
62
256
6
ByLayer
370
18
48
1
60
0
100
AcDbEllipse
10
30.353807
20
-3.031417
30
0
11
0.564667373604449
21
0.557843902616806
31
0
210
0
220
0
230
1
40
0.989121
41
-0.697445677483334
42
0.698817724112135
0
ELLIPSE
5
E7
100
AcDbEntity
8
1
62
256
6
ByLayer
370
18
48
1
60
0
100
AcDbEllipse
10
31.210503
20
-14.210608
30
0
11
0.564667373604449
21
0.557843902616806
31
0
210
0
220
0
230
1
40
0.989121
41
-2.44277492947767
42
-0.697445677483345
0
ELLIPSE
5
E8
100
AcDbEntity
8
1
62
256
6
ByLayer
370
18
48
1
60
0
100
AcDbEllipse
10
19.54866
20
-12.735009
30
0
11
-0.564667373604451
21
-0.557843902616804
31
0
210
0
220
0
230
1
40
0.989121
41
-0.697445677483333
42
9.95600757762687E-06
0
ELLIPSE
5
E9
100
AcDbEntity
8
1
62
256
6
ByLayer
370
18
48
1
60
0
100
AcDbEllipse
10
19.184338
20
-2.054215
30
0
11
0.564667373604449
21
0.557843902616806
31
0
210
0
220
0
230
1
40
0.989121
41
0.698817724112129
42
2.44414697610646
0
ELLIPSE
5
EA
100
AcDbEntity
8
1
62
256
6
ByLayer
370
18
48
1
60
0
100
AcDbEllipse
10
20.041034
20
-13.233406
30
0
11
0.564667373604449
21
0.557843902616806
31
0
210
0
220
0
230
1
40
0.989121
41
2.44414697610646
42
-2.44277492947766
0
ELLIPSE
5
EB
100
AcDbEntity
8
1
62
256
6
ByLayer
370
18
48
1
60
0
100
AcDbEllipse
10
24.705046
20
-7.634015
30
0
11
1.83396849024028
21
1.81180671612267
31
0
210
0
220
0
230
1
40
0.989121
41
-3.0037350026443
42
-0.137817238019503
0
ELLIPSE
5
EC
100
AcDbEntity
8
1
62
256
6
ByLayer
370
18
48
1
60
0
100
AcDbEllipse
10
12.950604
20
-3.444254
30
0
11
1.10621450828958
21
1.09284695252796
31
0
210
0
220
0
230
1
40
0.989121
41
-3.05948592539539
42
-2.92610301988193
0
ELLIPSE
5
ED
100
AcDbEntity
8
1
62
256
6
ByLayer
370
18
48
1
60
0
100
AcDbEllipse
10
13.341919
20
-3.840356
30
0
11
1.10621450828958
21
1.09284695252796
31
0
210
0
220
0
230
1
40
0.989121
41
-2.92610301988193
42
-2.48304561467172
0
ELLIPSE
5
EE
100
AcDbEntity
8
1
62
256
6
ByLayer
370
18
48
1
60
0
100
AcDbEllipse
10
12.950604
20
-3.444254
30
0
11
1.10621450828958
21
1.09284695252796
31
0
210
0
220
0
230
1
40
0.989121
41
-2.48304561467172
42
-1.87890546868533
0
ELLIPSE
5
EF
100
AcDbEntity
8
1
62
256
6
ByLayer
370
18
48
1
60
0
100
AcDbEllipse
10
12.950604
20
-3.444254
30
0
11
1.10621450828958
21
1.09284695252796
31
0
210
0
220
0
230
1
40
0.989121
41
-1.43584806347514
42
-0.831707917488729
0
ELLIPSE
5
F0
100
AcDbEntity
8
1
62
256
6
ByLayer
370
18
48
1
60
0
100
AcDbEllipse
10
13.364147
20
-3.862856
30
0
11
-2.30135301242238
21
-2.27354333853887
31
0
210
0
220
0
230
1
40
0.989121
41
0
42
6.28318530717959
0
ELLIPSE
5
F1
100
AcDbEntity
8
1
62
256
6
ByLayer
370
18
48
1
60
0
100
AcDbEllipse
10
13.364147
20
-3.862856
30
0
11
-1.37113041984706
21
-1.35456160592678
31
0
210
0
220
0
230
1
40
0.989121
41
0
42
6.28318530717959
0
ELLIPSE
5
F2
100
AcDbEntity
8
1
62
256
6
ByLayer
370
18
48
1
60
0
100
AcDbEllipse
10
13.341919
20
-3.840356
30
0
11
1.10621450828958
21
1.09284695252796
31
0
210
0
220
0
230
1
40
0.989121
41
1.26268718490447
42
1.70574459011466
0
ELLIPSE
5
F3
100
AcDbEntity
8
1
62
256
6
ByLayer
370
18
48
1
60
0
100
AcDbEllipse
10
12.950604
20
-3.444254
30
0
11
1.10621450828958
21
1.09284695252796
31
0
210
0
220
0
230
1
40
0.989121
41
-0.388650512278549
42
-0.163211571156253
0
ELLIPSE
5
F4
100
AcDbEntity
8
1
62
256
6
ByLayer
370
18
48
1
60
0
100
AcDbEllipse
10
13.341919
20
-3.840356
30
0
11
1.10621450828958
21
1.09284695252796
31
0
210
0
220
0
230
1
40
0.989121
41
-0.831707917488728
42
-0.388650512278553
0
ELLIPSE
5
F5
100
AcDbEntity
8
1
62
256
6
ByLayer
370
18
48
1
60
0
100
AcDbEllipse
10
13.285057
20
-3.782798
30
0
11
-2.84556786698285
21
-2.81118187145455
31
0
210
0
220
0
230
1
40
0.989121
41
0
42
6.28318530717959
0
ELLIPSE
5
F6
100
AcDbEntity
8
1
62
256
6
ByLayer
370
18
48
1
60
0
100
AcDbEllipse
10
13.341919
20
-3.840356
30
0
11
1.10621450828958
21
1.09284695252796
31
0
210
0
220
0
230
1
40
0.989121
41
0.215489633707871
42
0.658547038918054
0
ELLIPSE
5
F7
100
AcDbEntity
8
1
62
256
6
ByLayer
370
18
48
1
60
0
100
AcDbEllipse
10
13.341919
20
-3.840356
30
0
11
1.10621450828958
21
1.09284695252796
31
0
210
0
220
0
230
1
40
0.989121
41
-1.87890546868533
42
-1.43584806347514
0
ELLIPSE
5
F8
100
AcDbEntity
8
1
62
256
6
ByLayer
370
18
48
1
60
0
100
AcDbEllipse
10
13.341919
20
-3.840356
30
0
11
1.10621450828958
21
1.09284695252796
31
0
210
0
220
0
230
1
40
0.989121
41
2.30988473610106
42
2.75294214131126
0
ELLIPSE
5
F9
100
AcDbEntity
8
1
62
256
6
ByLayer
370
18
48
1
60
0
100
AcDbEllipse
10
12.847218
20
-3.339604
30
0
11
1.10621450828958
21
1.09284695252796
31
0
210
0
220
0
230
1
40
0.989121
41
-2.9861614875224
42
-0.230886791583872
0
POINT
5
6C
100
AcDbEntity
8
80
62
256
6
ByLayer
370
18
48
1
60
0
100
AcDbPoint
10
0
20
0
30
0
39
0
210
0
220
0
230
1
50
360
0
POINT
5
6E
100
AcDbEntity
8
81
62
256
6
ByLayer
370
18
48
1
60
0
100
AcDbPoint
10
32
20
-15
30
0
39
0
210
0
220
0
230
1
50
360
0
POINT
5
70
100
AcDbEntity
8
2
62
256
6
ByLayer
370
18
48
1
60
0
100
AcDbPoint
10
25.19742
20
28.132412
30
0
39
0
210
0
220
0
230
1
50
360
0
POINT
5
72
100
AcDbEntity
8
2
62
256
6
ByLayer
370
18
48
1
60
0
100
AcDbPoint
10
25.19742
20
28.132412
30
0
39
0
210
0
220
0
230
1
50
360
0
POINT
5
73
100
AcDbEntity
8
2
62
256
6
ByLayer
370
18
48
1
60
0
100
AcDbPoint
10
24.377054
20
27.302011
30
0
39
0
210
0
220
0
230
1
50
360
0
POINT
5
74
100
AcDbEntity
8
2
62
256
6
ByLayer
370
18
48
1
60
0
100
AcDbPoint
10
13.236835
20
23.733987
30
0
39
0
210
0
220
0
230
1
50
360
0
SPLINE
5
FA
100
AcDbEntity
8
1
62
256
6
ByLayer
370
18
48
1
60
0
100
AcDbSpline
70
4
71
3
72
16
73
12
40
0
40
0
40
0
40
0
40
0.161130069290149
40
0.161130069290149
40
0.493287603310854
40
0.493287603310854
40
0.774116603330075
40
0.774116603330075
40
0.970483788303458
40
0.970483788303458
40
1
40
1
40
1
40
1
41
1
10
19.038065997425
20
1.89337081159795
30
0
41
1
10
19.132800530843
20
1.9814639870942
30
0
41
1
10
19.2363470180075
20
2.0613079879798
30
0
41
1
10
19.5634531593232
20
2.27162492425575
30
0
41
1
10
19.8035708149045
20
2.37104900293255
30
0
41
1
10
20.2533144036826
20
2.48851089244712
30
0
41
1
10
20.469021065869
20
2.51900806174459
30
0
41
1
10
20.8468721131544
20
2.53421489297068
30
0
41
1
10
21.0093833340869
20
2.52953069008748
30
0
41
1
10
21.18436319614
20
2.5120132088355
30
0
41
1
10
21.2073850224643
20
2.50944950739492
30
0
41
1
10
21.2301936959986
20
2.50665050929754
30
0
0
SPLINE
5
FB
100
AcDbEntity
8
1
62
256
6
ByLayer
370
18
48
1
60
0
100
AcDbSpline
70
4
71
3
72
8
73
4
40
0
40
0
40
0
40
0
40
1
40
1
40
1
40
1
41
1
10
26.0788136822769
20
4.16590722337628
30
0
41
1
10
25.0098030787459
20
3.66461339632792
30
0
41
1
10
23.9108978934822
20
3.21142034062794
30
0
41
1
10
22.7944529971353
20
2.81142325616946
30
0
0
SPLINE
5
FC
100
AcDbEntity
8
1
62
256
6
ByLayer
370
18
48
1
60
0
100
AcDbSpline
70
4
71
3
72
16
73
12
40
0
40
0
40
0
40
0
40
0.0461388341372303
40
0.0461388341372303
40
0.216039527998961
40
0.216039527998961
40
0.586514689281749
40
0.586514689281749
40
0.908829791248445
40
0.908829791248445
40
1
40
1
40
1
40
1
41
1
10
23.904476430233
20
14
30
0
41
1
10
23.9107129190781
20
14
30
0
41
1
10
23.9189388843604
20
14
30
0
41
1
10
23.9654578811239
20
14
30
0
41
1
10
24.0258676956603
20
14
30
0
41
1
10
24.2581327178609
20
14
30
0
41
1
10
24.4817890327053
20
14
30
0
41
1
10
24.9450863707197
20
14
30
0
41
1
10
25.1871997657123
20
14
30
0
41
1
10
25.5129971526769
20
14
30
0
41
1
10
25.5863822241436
20
14
30
0
41
1
10
25.6605830864823
20
14
30
0
0
SPLINE
5
FD
100
AcDbEntity
8
1
62
256
6
ByLayer
370
18
48
1
60
0
100
AcDbSpline
70
4
71
3
72
8
73
4
40
0
40
0
40
0
40
0
40
1
40
1
40
1
40
1
41
1
10
25.6605830864823
20
14
30
0
41
1
10
25.7186264660839
20
13.766548741592
30
0
41
1
10
25.7767716631446
20
13.5326879719854
30
0
41
1
10
25.8348886011562
20
13.2989408606565
30
0
0
SPLINE
5
FE
100
AcDbEntity
8
1
62
256
6
ByLayer
370
18
48
1
60
0
100
AcDbSpline
70
4
71
3
72
16
73
12
40
0
40
0
40
0
40
0
40
0.134984861729155
40
0.134984861729155
40
0.361105001910353
40
0.361105001910353
40
0.587618400474477
40
0.587618400474477
40
0.813684203201652
40
0.813684203201652
40
1
40
1
40
1
40
1
41
1
10
27.2519929329046
20
7.01694896365154
30
0
41
1
10
27.304015335907
20
6.87493002497192
30
0
41
1
10
27.3418939346826
20
6.72661408190927
30
0
41
1
10
27.4022550939808
20
6.32583248181769
30
0
41
1
10
27.3974268007431
20
6.06452196665037
30
0
41
1
10
27.3035935128738
20
5.56422508630817
30
0
41
1
10
27.2131530385913
20
5.31829811984702
30
0
41
1
10
26.9605885576061
20
4.87662204331866
30
0
41
1
10
26.7951170025659
20
4.67467834926563
30
0
41
1
10
26.446142074978
20
4.3708186042237
30
0
41
1
10
26.2677844858381
20
4.25452177687527
30
0
41
1
10
26.0788136822769
20
4.16590722337628
30
0
0
SPLINE
5
FF
100
AcDbEntity
8
1
62
256
6
ByLayer
370
18
48
1
60
0
100
AcDbSpline
70
4
71
3
72
18
73
14
40
0
40
0
40
0
40
0
40
0.0236831011238239
40
0.0236831011238239
40
0.250366007970444
40
0.250366007970444
40
0.476214205078573
40
0.476214205078573
40
0.700510134974308
40
0.700510134974308
40
0.924012475792339
40
0.924012475792339
40
1
40
1
40
1
40
1
41
1
10
22.7944529971353
20
2.81142325616946
30
0
41
1
10
22.7690547029073
20
2.80232361885223
30
0
41
1
10
22.7434906622638
20
2.79367530122656
30
0
41
1
10
22.4750710212479
20
2.70816512900893
30
0
41
1
10
22.2156850228266
20
2.67176561605012
30
0
41
1
10
21.707633818295
20
2.68651366874707
30
0
41
1
10
21.4519537006557
20
2.73752820878329
30
0
41
1
10
20.9801223597369
20
2.91775865374637
30
0
41
1
10
20.7573048316265
20
3.04889147610066
30
0
41
1
10
20.3736644583328
20
3.37197828480967
30
0
41
1
10
20.2074264639755
20
3.5681289324001
30
0
41
1
10
20.0368236798003
20
3.8566940749721
30
0
41
1
10
19.9975371718566
20
3.93285368981844
30
0
41
1
10
19.9628414003714
20
4.01087264261201
30
0
0
SPLINE
5
100
100
AcDbEntity
8
1
62
256
6
ByLayer
370
18
48
1
60
0
100
AcDbSpline
70
4
71
3
72
16
73
12
40
0
40
0
40
0
40
0
40
0.254963336965348
40
0.254963336965348
40
0.579537616624057
40
0.579537616624057
40
0.826354836477624
40
0.826354836477624
40
0.986616719544307
40
0.986616719544307
40
1
40
1
40
1
40
1
41
1
10
16.0479271731382
20
14
30
0
41
1
10
16.289470225578
20
14
30
0
41
1
10
16.5372139497031
20
14
30
0
41
1
10
17.078802158761
20
14
30
0
41
1
10
17.3761025703165
20
14
30
0
41
1
10
17.8460479245652
20
14
30
0
41
1
10
18.037349410411
20
14
30
0
41
1
10
18.2949940729198
20
14
30
0
41
1
10
18.3833927250659
20
14
30
0
41
1
10
18.4485555742461
20
14
30
0
41
1
10
18.4534388963599
20
14
30
0
41
1
10
18.4581150288525
20
14
30
0
0
SPLINE
5
101
100
AcDbEntity
8
1
62
256
6
ByLayer
370
18
48
1
60
0
100
AcDbSpline
70
4
71
3
72
12
73
8
40
0
40
0
40
0
40
0
40
0.352410328949998
40
0.352410328949998
40
0.768918297686981
40
0.768918297686981
40
1
40
1
40
1
40
1
41
1
10
22.3994589057803
20
2.36195370840486
30
0
41
1
10
22.2757776711044
20
2.40967447412493
30
0
41
1
10
22.1494965055845
20
2.44545056010068
30
0
41
1
10
21.864126947087
20
2.50072013999917
30
0
41
1
10
21.6993649420527
20
2.51657067353511
30
0
41
1
10
21.4293529678496
20
2.51864081332695
30
0
41
1
10
21.3292177605702
20
2.51483356641981
30
0
41
1
10
21.2301936959987
20
2.50665050929749
30
0
0
SPLINE
5
102
100
AcDbEntity
8
1
62
256
6
ByLayer
370
18
48
1
60
0
100
AcDbSpline
70
4
71
3
72
10
73
6
40
0
40
0
40
0
40
0
40
0.469456378765605
40
0.469456378765605
40
1
40
1
40
1
40
1
41
1
10
1.77227681923364
20
-9.92500000000001
30
0
41
1
10
1.8963506595853
20
-9.92500000000001
30
0
41
1
10
2.00649823004926
20
-9.93964230884481
30
0
41
1
10
2.1954530928829
20
-9.97859091246727
30
0
41
1
10
2.27155428571518
20
-10.0040997504771
30
0
41
1
10
2.31775814129617
20
-10.020855682695
30
0
0
SPLINE
5
103
100
AcDbEntity
8
1
62
256
6
ByLayer
370
18
48
1
60
0
100
AcDbSpline
70
4
71
3
72
10
73
6
40
0
40
0
40
0
40
0
40
0.374151093203409
40
0.374151093203409
40
1
40
1
40
1
40
1
41
1
10
23.1897964942467
20
1.83740079604874
30
0
41
1
10
23.1009842820575
20
1.92773247081865
30
0
41
1
10
23.0058465556623
20
2.01016223098549
30
0
41
1
10
22.7457733769883
20
2.20171195695696
30
0
41
1
10
22.572890398107
20
2.29503746492216
30
0
41
1
10
22.3994589057803
20
2.36195370840486
30
0
0
SPLINE
5
104
100
AcDbEntity
8
1
62
256
6
ByLayer
370
18
48
1
60
0
100
AcDbSpline
70
4
71
3
72
8
73
4
40
0
40
0
40
0
40
0
40
1
40
1
40
1
40
1
41
1
10
19.9628414003714
20
4.01087264261201
30
0
41
1
10
19.2729274501354
20
5.56225373635803
30
0
41
1
10
18.6892876234809
20
7.15141840470287
30
0
41
1
10
18.2115012478642
20
8.77839069235222
30
0
0
SPLINE
5
105
100
AcDbEntity
8
1
62
256
6
ByLayer
370
18
48
1
60
0
100
AcDbSpline
70
4
71
3
72
10
73
6
40
0
40
0
40
0
40
0
40
0.5
40
0.5
40
1
40
1
40
1
40
1
41
1
10
25.8348886011562
20
13.2989408606565
30
0
41
1
10
26.0542875892992
20
12.4165151606545
30
0
41
1
10
26.2740695265327
20
11.532549234227
30
0
41
1
10
26.7126894580643
20
9.76841393263501
30
0
41
1
10
26.9318929151053
20
8.8867746613717
30
0
41
1
10
27.1472684800635
20
8.0205312238779
30
0
0
SPLINE
5
106
100
AcDbEntity
8
1
62
256
6
ByLayer
370
18
48
1
60
0
100
AcDbSpline
70
4
71
3
72
24
73
20
40
0
40
0
40
0
40
0
40
0.0924277987328689
40
0.0924277987328689
40
0.207170549020586
40
0.207170549020586
40
0.322079707949637
40
0.322079707949637
40
0.436938850561605
40
0.436938850561605
40
0.551841661740569
40
0.551841661740569
40
0.666585414023297
40
0.666585414023297
40
0.780660871990684
40
0.780660871990684
40
0.894169707212858
40
0.894169707212858
40
1
40
1
40
1
40
1
41
1
10
18.2115012478642
20
8.77839069235222
30
0
41
1
10
18.1152564322178
20
9.10612638319196
30
0
41
1
10
18.064398945487
20
9.45032521979223
30
0
41
1
10
18.0581469701096
20
10.2144525374647
30
0
41
1
10
18.1288585311435
20
10.6437104401971
30
0
41
1
10
18.4057008067153
20
11.4451034183906
30
0
41
1
10
18.6158340270245
20
11.8283591825059
30
0
41
1
10
19.1432264396543
20
12.4967038287189
30
0
41
1
10
19.4677179217534
20
12.7910977481388
30
0
41
1
10
20.1843119279912
20
13.2524906917793
30
0
41
1
10
20.5863235923531
20
13.4258063269619
30
0
41
1
10
21.4104440144397
20
13.6287613589271
30
0
41
1
10
21.8438640505809
20
13.6613919402422
30
0
41
1
10
22.6804993561571
20
13.5833422045403
30
0
41
1
10
23.0953040809549
20
13.4724150109504
30
0
41
1
10
23.8511906067747
20
13.1243491323616
30
0
41
1
10
24.2029143314866
20
12.8830561148751
30
0
41
1
10
24.7783208398794
20
12.3229969936593
30
0
41
1
10
25.0160582955732
20
12.0040226332831
30
0
41
1
10
25.1967570522234
20
11.6591391547992
30
0
0
SPLINE
5
107
100
AcDbEntity
8
1
62
256
6
ByLayer
370
18
48
1
60
0
100
AcDbSpline
70
4
71
3
72
14
73
10
40
0
40
0
40
0
40
0
40
0.127661298359679
40
0.127661298359679
40
0.506458088759937
40
0.506458088759937
40
0.995731741889182
40
0.995731741889182
40
1
40
1
40
1
40
1
41
1
10
22.6786518954269
20
-8.11511506231292
30
0
41
1
10
22.7745139175286
20
-8.07643298522152
30
0
41
1
10
22.868434971645
20
-8.03437289514028
30
0
41
1
10
23.2261688879362
20
-7.85756405262569
30
0
41
1
10
23.4716763150452
20
-7.69890582740067
30
0
41
1
10
23.9584080663881
20
-7.30406628891882
30
0
41
1
10
24.1871587157044
20
-7.05218916356952
30
0
41
1
10
24.3618052816851
20
-6.78275343085875
30
0
41
1
10
24.363319213719
20
-6.78041008146673
30
0
41
1
10
24.3648290605687
20
-6.778065291942
30
0
0
SPLINE
5
108
100
AcDbEntity
8
1
62
256
6
ByLayer
370
18
48
1
60
0
100
AcDbSpline
70
4
71
3
72
18
73
14
40
0
40
0
40
0
40
0
40
0.0325425769188328
40
0.0325425769188328
40
0.105802249563827
40
0.105802249563827
40
0.193830811862052
40
0.193830811862052
40
0.331251223275892
40
0.331251223275892
40
0.755304904147441
40
0.755304904147441
40
1
40
1
40
1
40
1
41
1
10
27.1472684800635
20
8.0205312238779
30
0
41
1
10
27.157034499078
20
7.98125216321304
30
0
41
1
10
27.1669080124087
20
7.94154075895321
30
0
41
1
10
27.1990981899066
20
7.81207142934414
30
0
41
1
10
27.2222178860069
20
7.71908369869033
30
0
41
1
10
27.2702858628936
20
7.52575364502476
30
0
41
1
10
27.2951100415697
20
7.42591046237979
30
0
41
1
10
27.355042195586
20
7.18486252771015
30
0
41
1
10
27.3893858520852
20
7.04673187640967
30
0
41
1
10
27.5300071520857
20
6.48115110441762
30
0
41
1
10
27.6394805132384
20
6.0408477640768
30
0
41
1
10
27.8291891163168
20
5.27783719468096
30
0
41
1
10
27.9026550729205
20
4.9823561228169
30
0
41
1
10
27.9772380075214
20
4.68238255032963
30
0
0
SPLINE
5
109
100
AcDbEntity
8
1
62
256
6
ByLayer
370
18
48
1
60
0
100
AcDbSpline
70
4
71
3
72
18
73
14
40
0
40
0
40
0
40
0
40
0.0887061287387691
40
0.0887061287387691
40
0.302513841250032
40
0.302513841250032
40
0.518170537357985
40
0.518170537357985
40
0.735180362088277
40
0.735180362088277
40
0.936136937652097
40
0.936136937652097
40
1
40
1
40
1
40
1
41
1
10
22.7158866339228
20
-8.74549052199677
30
0
41
1
10
22.8324505008855
20
-8.72041714945587
30
0
41
1
10
22.9473228974173
20
-8.68693266833563
30
0
41
1
10
23.3274483138448
20
-8.54515180558298
30
0
41
1
10
23.5834894707844
20
-8.39526382280684
30
0
41
1
10
24.0322155460007
20
-8.02011967062396
30
0
41
1
10
24.230491498052
20
-7.78902614449777
30
0
41
1
10
24.548639876378
20
-7.27997206287336
30
0
41
1
10
24.673793727458
20
-6.99418244299358
30
0
41
1
10
24.829571721537
20
-6.43799642157811
30
0
41
1
10
24.8678251098464
20
-6.16064083865479
30
0
41
1
10
24.862177480723
20
-5.80592107705095
30
0
41
1
10
24.8565008160072
20
-5.7205350923702
30
0
41
1
10
24.8465740160986
20
-5.63582751445441
30
0
0
SPLINE
5
10A
100
AcDbEntity
8
1
62
256
6
ByLayer
370
18
48
1
60
0
100
AcDbSpline
70
4
71
3
72
8
73
4
40
0
40
0
40
0
40
0
40
1
40
1
40
1
40
1
41
1
10
25.1967570522234
20
11.6591391547992
30
0
41
1
10
25.9827518611319
20
10.158981495765
30
0
41
1
10
26.6678429203311
20
8.61165355296995
30
0
41
1
10
27.2519929329046
20
7.01694896365152
30
0
0
SPLINE
5
10B
100
AcDbEntity
8
1
62
256
6
ByLayer
370
18
48
1
60
0
100
AcDbSpline
70
4
71
3
72
10
73
6
40
0
40
0
40
0
40
0
40
0.0088392060142571
40
0.0088392060142571
40
1
40
1
40
1
40
1
41
1
10
24.3648290605687
20
-6.778065291942
30
0
41
1
10
24.3653135874144
20
-6.77508961200851
30
0
41
1
10
24.3657940289608
20
-6.77211249224894
30
0
41
1
10
24.4194149571014
20
-6.43683506424915
30
0
41
1
10
24.4222573459206
20
-6.0821811647622
30
0
41
1
10
24.3721176568473
20
-5.72454788004646
30
0
0
SPLINE
5
10C
100
AcDbEntity
8
1
62
256
6
ByLayer
370
18
48
1
60
0
100
AcDbSpline
70
4
71
3
72
10
73
6
40
0
40
0
40
0
40
0
40
0.699059121387083
40
0.699059121387083
40
1
40
1
40
1
40
1
41
1
10
14.5618777557235
20
-4.77755676609004
30
0
41
1
10
14.6604896261416
20
-4.69860697430181
30
0
41
1
10
14.7592651819414
20
-4.62111988153737
30
0
41
1
10
14.8997416791167
20
-4.51261983968101
30
0
41
1
10
14.9420877217844
20
-4.48013511574808
30
0
41
1
10
14.9843109918056
20
-4.44793403093627
30
0
0
SPLINE
5
10D
100
AcDbEntity
8
1
62
256
6
ByLayer
370
18
48
1
60
0
100
AcDbSpline
70
4
71
3
72
8
73
4
40
0
40
0
40
0
40
0
40
1
40
1
40
1
40
1
41
1
10
13.0697661009336
20
-2.13666579337564
30
0
41
1
10
13.2266251912538
20
-2.19060705772833
30
0
41
1
10
13.3892793732142
20
-2.24732740090289
30
0
41
1
10
13.5552925555003
20
-2.30643912087302
30
0
0
SPLINE
5
10E
100
AcDbEntity
8
1
62
256
6
ByLayer
370
18
48
1
60
0
100
AcDbSpline
70
4
71
3
72
8
73
4
40
0
40
0
40
0
40
0
40
1
40
1
40
1
40
1
41
1
10
13.0697661009336
20
-2.13666579337564
30
0
41
1
10
12.9300802349059
20
-2.24319559120315
30
0
41
1
10
12.7885453947542
20
-2.35323216131479
30
0
41
1
10
12.6473328648515
20
-2.46628852852942
30
0
0
SPLINE
5
10F
100
AcDbEntity
8
1
62
256
6
ByLayer
370
18
48
1
60
0
100
AcDbSpline
70
4
71
3
72
8
73
4
40
0
40
0
40
0
40
0
40
1
40
1
40
1
40
1
41
1
10
14.191412174501
20
-2.53882050792069
30
0
41
1
10
14.3611027808646
20
-2.60233542679512
30
0
41
1
10
14.5326891608066
20
-2.66771674461879
30
0
41
1
10
14.7004182966777
20
-2.73236070313902
30
0
0
SPLINE
5
110
100
AcDbEntity
8
1
62
256
6
ByLayer
370
18
48
1
60
0
100
AcDbSpline
70
4
71
3
72
8
73
4
40
0
40
0
40
0
40
0
40
1
40
1
40
1
40
1
41
1
10
12.0068992954452
20
-4.97211753920669
30
0
41
1
10
12.1637583857654
20
-5.02605880355938
30
0
41
1
10
12.3264125677259
20
-5.08277914673394
30
0
41
1
10
12.492425750012
20
-5.14189086670407
30
0
0
SPLINE
5
111
100
AcDbEntity
8
1
62
256
6
ByLayer
370
18
48
1
60
0
100
AcDbSpline
70
4
71
3
72
10
73
6
40
0
40
0
40
0
40
0
40
0.699059121387095
40
0.699059121387095
40
1
40
1
40
1
40
1
41
1
10
14.7752513489673
20
-3.24364019965069
30
0
41
1
10
14.7564668631687
20
-3.12180424733992
30
0
41
1
10
14.7386978065274
20
-3.00174214528002
30
0
41
1
10
14.7145437159239
20
-2.83310076648672
30
0
41
1
10
14.7074084547988
20
-2.78253998631399
30
0
41
1
10
14.7004182966777
20
-2.73236070313902
30
0
0
SPLINE
5
112
100
AcDbEntity
8
1
62
256
6
ByLayer
370
18
48
1
60
0
100
AcDbSpline
70
4
71
3
72
8
73
4
40
0
40
0
40
0
40
0
40
1
40
1
40
1
40
1
41
1
10
13.6375514911894
20
-5.56781244897007
30
0
41
1
10
13.7667978981764
20
-5.45071549805422
30
0
41
1
10
13.9000294321655
20
-5.3322740568648
30
0
41
1
10
14.0365050596615
20
-5.21442284609535
30
0
0
SPLINE
5
113
100
AcDbEntity
8
1
62
256
6
ByLayer
370
18
48
1
60
0
100
AcDbSpline
70
4
71
3
72
10
73
6
40
0
40
0
40
0
40
0
40
0.699059121387091
40
0.699059121387091
40
1
40
1
40
1
40
1
41
1
10
11.9085865755456
20
-4.43707117497408
30
0
41
1
10
11.930678946322
20
-4.56225547386308
30
0
41
1
10
11.9534901730972
20
-4.68742142119854
30
0
41
1
10
11.9866596753322
20
-4.86518848691603
30
0
41
1
10
11.9967535704047
20
-4.91874409064556
30
0
41
1
10
12.0068992954452
20
-4.97211753920669
30
0
0
SPLINE
5
114
100
AcDbEntity
8
1
62
256
6
ByLayer
370
18
48
1
60
0
100
AcDbSpline
70
4
71
3
72
10
73
6
40
0
40
0
40
0
40
0
40
0.699059121387091
40
0.699059121387091
40
1
40
1
40
1
40
1
41
1
10
12.1219601687895
20
-2.90315460853472
30
0
41
1
10
12.026656183349
20
-2.98545274690119
30
0
41
1
10
11.9329227976833
20
-3.06804368494119
30
0
41
1
10
11.8014617121394
20
-3.18566941372174
30
0
41
1
10
11.7620743034191
20
-3.22114896121147
30
0
41
1
10
11.7230066003173
20
-3.25654421140948
30
0
0
SPLINE
5
115
100
AcDbEntity
8
1
62
256
6
ByLayer
370
18
48
1
60
0
100
AcDbSpline
70
4
71
3
72
8
73
4
40
0
40
0
40
0
40
0
40
1
40
1
40
1
40
1
41
1
10
14.9843109918056
20
-4.44793403093627
30
0
41
1
10
14.9507462208142
20
-4.27136039319078
30
0
41
1
10
14.9176346211168
20
-4.09215200349459
30
0
41
1
10
14.885998271906
20
-3.91288766670363
30
0
0
SPLINE
5
116
100
AcDbEntity
8
1
62
256
6
ByLayer
370
18
48
1
60
0
100
AcDbSpline
70
4
71
3
72
8
73
4
40
0
40
0
40
0
40
0
40
1
40
1
40
1
40
1
41
1
10
11.7230066003173
20
-3.25654421140948
30
0
41
1
10
11.7461319122681
20
-3.42255069606662
30
0
41
1
10
11.770940205803
20
-3.59335421468498
30
0
41
1
10
11.797839652607
20
-3.76782370792111
30
0
0
SPLINE
5
117
100
AcDbEntity
8
1
62
256
6
ByLayer
370
18
48
1
60
0
100
AcDbSpline
70
4
71
3
72
8
73
4
40
0
40
0
40
0
40
0
40
1
40
1
40
1
40
1
41
1
10
13.1285453690127
20
-5.37427225375174
30
0
41
1
10
13.2982359753763
20
-5.43778717262617
30
0
41
1
10
13.4698223553183
20
-5.50316849044981
30
0
41
1
10
13.6375514911894
20
-5.56781244897007
30
0
0
LINE
5
75
100
AcDbEntity
8
80
62
256
6
ByLayer
370
18
48
1
60
0
100
AcDbLine
10
0
20
0
30
0
11
-5
21
0
31
0
39
0
210
0
220
0
230
1
0
LINE
5
76
100
AcDbEntity
8
1
62
256
6
ByLayer
370
18
48
1
60
0
100
AcDbLine
10
27.365924
20
6.566923
30
0
11
27.24726
21
7.378407
31
0
39
0
210
0
220
0
230
1
0
LINE
5
78
100
AcDbEntity
8
1
62
256
6
ByLayer
370
18
48
1
60
0
100
AcDbLine
10
18.983992
20
-13.292853
30
0
11
19.476367
21
-13.79125
31
0
39
0
210
0
220
0
230
1
0
LINE
5
79
100
AcDbEntity
8
1
62
256
6
ByLayer
370
18
48
1
60
0
100
AcDbLine
10
20.846913
20
2.836998
30
0
11
21.6707
21
2.706287
31
0
39
0
210
0
220
0
230
1
0
LINE
5
7A
100
AcDbEntity
8
1
62
256
6
ByLayer
370
18
48
1
60
0
100
AcDbLine
10
30.918474
20
-2.473574
30
0
11
30.426099
21
-1.975176
31
0
39
0
210
0
220
0
230
1
0
LINE
5
7B
100
AcDbEntity
8
81
62
256
6
ByLayer
370
18
48
1
60
0
100
AcDbLine
10
32
20
-15
30
0
11
37
21
-15
31
0
39
0
210
0
220
0
230
1
0
LINE
5
7C
100
AcDbEntity
8
SK1
62
256
6
ByLayer
370
18
48
1
60
0
100
AcDbLine
10
-1.227723
20
10
30
0
11
-66
21
10
31
0
39
0
210
0
220
0
230
1
0
LINE
5
7E
100
AcDbEntity
8
SK1
62
256
6
ByLayer
370
18
48
1
60
0
100
AcDbLine
10
-69
20
7
30
0
11
-66
21
10
31
0
39
0
210
0
220
0
230
1
0
LINE
5
7F
100
AcDbEntity
8
SK1
62
256
6
ByLayer
370
18
48
1
60
0
100
AcDbLine
10
-69
20
7
30
0
11
-69
21
-6.925
31
0
39
0
210
0
220
0
230
1
0
LINE
5
80
100
AcDbEntity
8
SK1
62
256
6
ByLayer
370
18
48
1
60
0
100
AcDbLine
10
-69
20
-6.925
30
0
11
-66
21
-9.925
31
0
39
0
210
0
220
0
230
1
0
LINE
5
81
100
AcDbEntity
8
SK1
62
256
6
ByLayer
370
18
48
1
60
0
100
AcDbLine
10
0
20
-9.925
30
0
11
-66
21
-9.925
31
0
39
0
210
0
220
0
230
1
0
LINE
5
82
100
AcDbEntity
8
SK1
62
256
6
ByLayer
370
18
48
1
60
0
100
AcDbLine
10
0
20
-9.925
30
0
11
0
21
10.57399
31
0
39
0
210
0
220
0
230
1
0
LINE
5
83
100
AcDbEntity
8
1
62
256
6
ByLayer
370
13
48
1
60
0
100
AcDbLine
10
25.019359
20
12.644803
30
0
11
25.196757
21
11.659139
31
0
39
0
210
0
220
0
230
1
0
LINE
5
84
100
AcDbEntity
8
1
62
256
6
ByLayer
370
18
48
1
60
0
100
AcDbLine
10
18.711429
20
-8.719793
30
0
11
18.49966
21
-5.956373
31
0
39
0
210
0
220
0
230
1
0
LINE
5
85
100
AcDbEntity
8
1
62
256
6
ByLayer
370
18
48
1
60
0
100
AcDbLine
10
1.071797
20
14
30
0
11
2.317758
21
14
31
0
39
0
210
0
220
0
230
1
0
LINE
5
86
100
AcDbEntity
8
1
62
256
6
ByLayer
370
18
48
1
60
0
100
AcDbLine
10
1.071797
20
14
30
0
11
0.772277
21
12.882176
31
0
39
0
210
0
220
0
230
1
0
LINE
5
87
100
AcDbEntity
8
1
62
256
6
ByLayer
370
18
48
1
60
0
100
AcDbLine
10
2.85066
20
-10.343014
30
0
11
3.521968
21
14
31
0
39
0
210
0
220
0
230
1
0
LINE
5
88
100
AcDbEntity
8
1
62
256
6
ByLayer
370
18
48
1
60
0
100
AcDbLine
10
23.528766
20
-1.158013
30
0
11
23.531499
21
-1.000174
31
0
39
0
210
0
220
0
230
1
0
LINE
5
89
100
AcDbEntity
8
1
62
256
6
ByLayer
370
18
48
1
60
0
100
AcDbLine
10
18.582342
20
-5.081094
30
0
11
18.209566
21
-0.216668
31
0
39
0
210
0
220
0
230
1
0
LINE
5
8A
100
AcDbEntity
8
1
62
256
6
ByLayer
370
18
48
1
60
0
100
AcDbLine
10
1.772277
20
-9.925
30
0
11
0.772277
21
-9.925
31
0
39
0
210
0
220
0
230
1
0
LINE
5
8B
100
AcDbEntity
8
1
62
256
6
ByLayer
370
13
48
1
60
0
100
AcDbLine
10
18.708411
20
4.482534
30
0
11
19.962841
21
4.010873
31
0
39
0
210
0
220
0
230
1
0
LINE
5
8C
100
AcDbEntity
8
1
62
256
6
ByLayer
370
13
48
1
60
0
100
AcDbLine
10
23.895943
20
0.280752
30
0
11
23.223275
21
1.054488
31
0
39
0
210
0
220
0
230
1
0
LINE
5
8D
100
AcDbEntity
8
1
62
256
6
ByLayer
370
13
48
1
60
0
100
AcDbLine
10
0.772277
20
-9.925
30
0
11
0.772277
21
12.882176
31
0
39
0
210
0
220
0
230
1
0
LINE
5
8E
100
AcDbEntity
8
1
62
256
6
ByLayer
370
18
48
1
60
0
100
AcDbLine
10
27.977238
20
4.682383
30
0
11
29.455259
21
-1.262238
31
0
39
0
210
0
220
0
230
1
0
LINE
5
8F
100
AcDbEntity
8
1
62
256
6
ByLayer
370
18
48
1
60
0
100
AcDbLine
10
0
20
-9.925
30
0
11
0
21
10.57399
31
0
39
0
210
0
220
0
230
1
0
LINE
5
90
100
AcDbEntity
8
1
62
256
6
ByLayer
370
13
48
1
60
0
100
AcDbLine
10
23.223275
20
1.054488
30
0
11
23.031429
21
1.057834
31
0
39
0
210
0
220
0
230
1
0
LINE
5
91
100
AcDbEntity
8
1
62
256
6
ByLayer
370
18
48
1
60
0
100
AcDbLine
10
23.223275
20
1.054488
30
0
11
23.394051
21
-1.174006
31
0
39
0
210
0
220
0
230
1
0
LINE
5
92
100
AcDbEntity
8
1
62
256
6
ByLayer
370
18
48
1
60
0
100
AcDbLine
10
24.042896
20
-1.636859
30
0
11
23.531499
21
-1.000174
31
0
39
0
210
0
220
0
230
1
0
LINE
5
93
100
AcDbEntity
8
1
62
256
6
ByLayer
370
18
48
1
60
0
100
AcDbLine
10
19.142441
20
-12.389916
30
0
11
18.926268
21
-9.569046
31
0
39
0
210
0
220
0
230
1
0
LINE
5
94
100
AcDbEntity
8
1
62
256
6
ByLayer
370
13
48
1
60
0
100
AcDbLine
10
27.251993
20
7.016949
30
0
11
27.103626
21
7.944756
31
0
39
0
210
0
220
0
230
1
0
LINE
5
95
100
AcDbEntity
8
1
62
256
6
ByLayer
370
18
48
1
60
0
100
AcDbLine
10
29.455259
20
-1.262238
30
0
11
29.522556
21
-2.140415
31
0
39
0
210
0
220
0
230
1
0
LINE
5
96
100
AcDbEntity
8
1
62
256
6
ByLayer
370
18
48
1
60
0
100
AcDbLine
10
18.314811
20
-0.866506
30
0
11
18.224063
21
0.317682
31
0
39
0
210
0
220
0
230
1
0
LINE
5
97
100
AcDbEntity
8
1
62
256
6
ByLayer
370
18
48
1
60
0
100
AcDbLine
10
23.668651
20
-1.170868
30
0
11
23.528766
21
-1.158013
31
0
39
0
210
0
220
0
230
1
0
LINE
5
98
100
AcDbEntity
8
1
62
256
6
ByLayer
370
18
48
1
60
0
100
AcDbLine
10
23.201169
20
-1.157129
30
0
11
23.031429
21
1.057834
31
0
39
0
210
0
220
0
230
1
0
LINE
5
99
100
AcDbEntity
8
1
62
256
6
ByLayer
370
18
48
1
60
0
100
AcDbLine
10
0.772277
20
12.882176
30
0
11
0.317758
21
11.18589
31
0
39
0
210
0
220
0
230
1
0
LINE
5
9A
100
AcDbEntity
8
1
62
256
6
ByLayer
370
18
48
1
60
0
100
AcDbLine
10
0.772277
20
-9.925
30
0
11
0
21
-9.925
31
0
39
0
210
0
220
0
230
1
0
LINE
5
9B
100
AcDbEntity
8
1
62
256
6
ByLayer
370
18
48
1
60
0
100
AcDbLine
10
24.042896
20
-1.636859
30
0
11
23.895943
21
0.280752
31
0
39
0
210
0
220
0
230
1
0
LINE
5
9C
100
AcDbEntity
8
1
62
256
6
ByLayer
370
18
48
1
60
0
100
AcDbLine
10
3.521968
20
14
30
0
11
16.047927
21
14
31
0
39
0
210
0
220
0
230
1
0
LINE
5
9D
100
AcDbEntity
8
1
62
256
6
ByLayer
370
18
48
1
60
0
100
AcDbLine
10
24.042896
20
-1.636859
30
0
11
29.522556
21
-2.140415
31
0
39
0
210
0
220
0
230
1
0
LINE
5
9E
100
AcDbEntity
8
1
62
256
6
ByLayer
370
18
48
1
60
0
100
AcDbLine
10
2.317758
20
14
30
0
11
3.521968
21
14
31
0
39
0
210
0
220
0
230
1
0
LINE
5
9F
100
AcDbEntity
8
1
62
256
6
ByLayer
370
18
48
1
60
0
100
AcDbLine
10
23.904476
20
14
30
0
11
18.458115
21
14
31
0
39
0
210
0
220
0
230
1
0
LINE
5
A0
100
AcDbEntity
8
1
62
256
6
ByLayer
370
13
48
1
60
0
100
AcDbLine
10
16.947017
20
9.315736
30
0
11
18.211501
21
8.778391
31
0
39
0
210
0
220
0
230
1
0
LINE
5
A1
100
AcDbEntity
8
1
62
256
6
ByLayer
370
18
48
1
60
0
100
AcDbLine
10
23.530912
20
-1.186018
30
0
11
23.528766
21
-1.158013
31
0
39
0
210
0
220
0
230
1
0
LINE
5
A2
100
AcDbEntity
8
1
62
256
6
ByLayer
370
13
48
1
60
0
100
AcDbLine
10
2.317758
20
14
30
0
11
2.317758
21
-10.020856
31
0
39
0
210
0
220
0
230
1
0
LINE
5
A3
100
AcDbEntity
8
1
62
256
6
ByLayer
370
18
48
1
60
0
100
AcDbLine
10
19.142441
20
-12.389916
30
0
11
3.284569
21
-11.002532
31
0
39
0
210
0
220
0
230
1
0
LINE
5
A4
100
AcDbEntity
8
1
62
256
6
ByLayer
370
18
48
1
60
0
100
AcDbLine
10
31.997697
20
-14.141748
30
0
11
31.141
21
-2.962557
31
0
39
0
210
0
220
0
230
1
0
LINE
5
A5
100
AcDbEntity
8
1
62
256
6
ByLayer
370
18
48
1
60
0
100
AcDbLine
10
18.397144
20
-2.123076
30
0
11
19.253841
21
-13.302267
31
0
39
0
210
0
220
0
230
1
0
LINE
5
A6
100
AcDbEntity
8
1
62
256
6
ByLayer
370
13
48
1
60
0
100
AcDbLine
10
18.761466
20
-12.803869
30
0
11
19.253841
21
-13.302267
31
0
39
0
210
0
220
0
230
1
0
LINE
5
A7
100
AcDbEntity
8
1
62
256
6
ByLayer
370
18
48
1
60
0
100
AcDbLine
10
30.431154
20
-2.245024
30
0
11
19.261685
21
-1.267823
31
0
39
0
210
0
220
0
230
1
0
LINE
5
A8
100
AcDbEntity
8
1
62
256
6
ByLayer
370
13
48
1
60
0
100
AcDbLine
10
30.431154
20
-2.245024
30
0
11
29.938779
21
-1.746627
31
0
39
0
210
0
220
0
230
1
0
LINE
5
A9
100
AcDbEntity
8
1
62
256
6
ByLayer
370
13
48
1
60
0
100
AcDbLine
10
18.76931
20
-0.769425
30
0
11
19.261685
21
-1.267823
31
0
39
0
210
0
220
0
230
1
0
LINE
5
AA
100
AcDbEntity
8
1
62
256
6
ByLayer
370
18
48
1
60
0
100
AcDbLine
10
18.76931
20
-0.769425
30
0
11
23.692254
21
-1.200127
31
0
39
0
210
0
220
0
230
1
0
LINE
5
AB
100
AcDbEntity
8
1
62
256
6
ByLayer
370
18
48
1
60
0
100
AcDbLine
10
29.489208
20
-1.707295
30
0
11
29.938779
21
-1.746627
31
0
39
0
210
0
220
0
230
1
0
LINE
5
AC
100
AcDbEntity
8
1
62
256
6
ByLayer
370
13
48
1
60
0
100
AcDbLine
10
18.397144
20
-2.123076
30
0
11
18.352169
21
-2.07755
31
0
39
0
210
0
220
0
230
1
0
LINE
5
AD
100
AcDbEntity
8
1
62
256
6
ByLayer
370
18
48
1
60
0
100
AcDbLine
10
18.761466
20
-12.803869
30
0
11
18.726958
21
-12.353558
31
0
39
0
210
0
220
0
230
1
0
LINE
5
AE
100
AcDbEntity
8
1
62
256
6
ByLayer
370
18
48
1
60
0
100
AcDbLine
10
19.963687
20
-14.019799
30
0
11
31.133156
21
-14.997001
31
0
39
0
210
0
220
0
230
1
0
LINE
5
AF
100
AcDbEntity
8
1
62
256
6
ByLayer
370
18
48
1
60
0
100
AcDbLine
10
14.494683
20
-3.516786
30
0
11
14.885998
21
-3.912888
31
0
39
0
210
0
220
0
230
1
0
LINE
5
B0
100
AcDbEntity
8
1
62
256
6
ByLayer
370
18
48
1
60
0
100
AcDbLine
10
14.561878
20
-4.777557
30
0
11
14.170563
21
-4.381455
31
0
39
0
210
0
220
0
230
1
0
LINE
5
B1
100
AcDbEntity
8
1
62
256
6
ByLayer
370
18
48
1
60
0
100
AcDbLine
10
13.64519
20
-4.818321
30
0
11
14.036505
21
-5.214423
31
0
39
0
210
0
220
0
230
1
0
LINE
5
B2
100
AcDbEntity
8
1
62
256
6
ByLayer
370
18
48
1
60
0
100
AcDbLine
10
11.954992
20
-4.69241
30
0
11
12.101111
21
-4.745789
31
0
39
0
210
0
220
0
230
1
0
LINE
5
B3
100
AcDbEntity
8
1
62
256
6
ByLayer
370
18
48
1
60
0
100
AcDbLine
10
14.581256
20
-4.039949
30
0
11
14.494683
21
-3.516786
31
0
39
0
210
0
220
0
230
1
0
LINE
5
B4
100
AcDbEntity
8
1
62
256
6
ByLayer
370
18
48
1
60
0
100
AcDbLine
10
13.234496
20
-5.159827
30
0
11
13.64519
21
-4.818321
31
0
39
0
210
0
220
0
230
1
0
LINE
5
B5
100
AcDbEntity
8
1
62
256
6
ByLayer
370
18
48
1
60
0
100
AcDbLine
10
14.984311
20
-4.447934
30
0
11
14.581256
21
-4.039949
31
0
39
0
210
0
220
0
230
1
0
LINE
5
B6
100
AcDbEntity
8
1
62
256
6
ByLayer
370
18
48
1
60
0
100
AcDbLine
10
12.101111
20
-4.745789
30
0
11
12.492426
21
-5.141891
31
0
39
0
210
0
220
0
230
1
0
LINE
5
B7
100
AcDbEntity
8
1
62
256
6
ByLayer
370
18
48
1
60
0
100
AcDbLine
10
13.637551
20
-5.567812
30
0
11
13.234496
21
-5.159827
31
0
39
0
210
0
220
0
230
1
0
LINE
5
B8
100
AcDbEntity
8
1
62
256
6
ByLayer
370
18
48
1
60
0
100
AcDbLine
10
13.128545
20
-5.374272
30
0
11
12.73723
21
-4.978171
31
0
39
0
210
0
220
0
230
1
0
LINE
5
B9
100
AcDbEntity
8
1
62
256
6
ByLayer
370
18
48
1
60
0
100
AcDbLine
10
14.383936
20
-2.847539
30
0
11
14.342261
21
-2.595693
31
0
39
0
210
0
220
0
230
1
0
LINE
5
BA
100
AcDbEntity
8
1
62
256
6
ByLayer
370
18
48
1
60
0
100
AcDbLine
10
14.170563
20
-4.381455
30
0
11
14.581256
21
-4.039949
31
0
39
0
210
0
220
0
230
1
0
LINE
5
BB
100
AcDbEntity
8
1
62
256
6
ByLayer
370
18
48
1
60
0
100
AcDbLine
10
14.775251
20
-3.24364
30
0
11
14.383936
21
-2.847539
31
0
39
0
210
0
220
0
230
1
0
LINE
5
BC
100
AcDbEntity
8
1
62
256
6
ByLayer
370
18
48
1
60
0
100
AcDbLine
10
12.73723
20
-4.978171
30
0
11
13.234496
21
-5.159827
31
0
39
0
210
0
220
0
230
1
0
LINE
5
BD
100
AcDbEntity
8
SK2
62
256
6
ByLayer
370
13
48
1
60
0
100
AcDbLine
10
-83.60005
20
-10
30
0
11
-83.60005
21
10
31
0
39
0
210
0
220
0
230
1
0
LINE
5
BF
100
AcDbEntity
8
SK2
62
256
6
ByLayer
370
13
48
1
60
0
100
AcDbLine
10
-2
20
10
30
0
11
-85.60005
21
10
31
0
39
0
210
0
220
0
230
1
0
LINE
5
C0
100
AcDbEntity
8
SK2
62
256
6
ByLayer
370
13
48
1
60
0
100
AcDbLine
10
-2
20
-10
30
0
11
-85.60005
21
-10
31
0
39
0
210
0
220
0
230
1
0
LINE
5
C1
100
AcDbEntity
8
SK2
62
256
6
ByLayer
370
18
48
1
60
0
100
AcDbLine
10
-83.60005
20
10
30
0
11
-83.182053
21
6.825002
31
0
39
0
210
0
220
0
230
1
0
LINE
5
C2
100
AcDbEntity
8
SK2
62
256
6
ByLayer
370
18
48
1
60
0
100
AcDbLine
10
-83.60005
20
10
30
0
11
-84.018047
21
6.824998
31
0
39
0
210
0
220
0
230
1
0
LINE
5
C3
100
AcDbEntity
8
SK2
62
256
6
ByLayer
370
18
48
1
60
0
100
AcDbLine
10
-83.182053
20
6.825002
30
0
11
-84.018047
21
6.824998
31
0
39
0
210
0
220
0
230
1
0
LINE
5
C4
100
AcDbEntity
8
SK2
62
256
6
ByLayer
370
18
48
1
60
0
100
AcDbLine
10
-83.60005
20
-10
30
0
11
-84.018047
21
-6.825002
31
0
39
0
210
0
220
0
230
1
0
LINE
5
C5
100
AcDbEntity
8
SK2
62
256
6
ByLayer
370
18
48
1
60
0
100
AcDbLine
10
-83.60005
20
-10
30
0
11
-83.182053
21
-6.824998
31
0
39
0
210
0
220
0
230
1
0
LINE
5
C6
100
AcDbEntity
8
SK2
62
256
6
ByLayer
370
18
48
1
60
0
100
AcDbLine
10
-84.018047
20
-6.825002
30
0
11
-83.182053
21
-6.824998
31
0
39
0
210
0
220
0
230
1
0
MTEXT
5
118
100
AcDbEntity
8
SK6
62
256
6
ByLayer
370
18
48
1
60
0
100
AcDbMText
10
-36.009893
20
-47.079709
30
0
210
0
220
0
230
1
1
\W0.7587;QS-PCLNL2020-12C
40
3.5
41
0
44
1.084337
50
0
71
7
72
5
7
iso_b_vert
0
MTEXT
5
11C
100
AcDbEntity
8
SK2
62
256
6
ByLayer
370
18
48
1
60
0
100
AcDbMText
10
-84.47505
20
-3.140789
30
0
210
0
220
0
230
1
1
\W0.7346;20.0
40
3.5
41
0
44
1.084337
50
89.9999999999999
71
7
72
5
7
iso_b_vert
0
DIMENSION
5
12A
100
AcDbEntity
8
2
62
256
6
ByLayer
370
13
48
1
60
0
100
AcDbDimension
2
DimnDraft3D1
10
32
20
-28.1
30
0
11
11.892105
21
-28.1
31
0
70
32
71
5
72
1
41
1
210
0
220
0
230
1
3
Standard
100
AcDbAlignedDimension
13
0
23
8
33
0
14
32
24
-17
34
0
50
0
100
AcDbRotatedDimension
1001
ACAD
1000
DSTYLE
1002
{
1070
   279
1070
     0
1070
   172
1070
     1
1070
   173
1070
     1
1070
   340
1005
119
1070
   271
1070
     1
1070
    77
1070
     1
1070
    73
1070
     0
1070
   171
1070
     3
1070
   274
1070
     4
1070
   177
1070
     2
1070
   176
1070
     2
1070
   178
1070
     7
1070
    78
1070
     8
1070
    41
1041
3.175
1070
   147
1041
1.75
1070
    42
1041
2.0
1070
    44
1041
2.0
1070
   140
1041
3.5
1070
   343
1005
12B
1070
   344
1005
12B
1002
}
0
DIMENSION
5
13F
100
AcDbEntity
8
2
62
256
6
ByLayer
370
13
48
1
60
0
100
AcDbDimension
2
DimnDraft3D2
10
34.828087
20
-15
30
0
11
34.828087
21
-6.607895
31
0
70
32
71
5
72
1
41
1
210
0
220
0
230
1
3
Standard
100
AcDbAlignedDimension
13
2
23
10
33
0
14
34
24
-15
34
0
50
90
100
AcDbRotatedDimension
1001
ACAD
1000
DSTYLE
1002
{
1070
    74
1070
     0
1070
   279
1070
     0
1070
   172
1070
     1
1070
   173
1070
     1
1070
   340
1005
119
1070
   271
1070
     1
1070
    77
1070
     1
1070
    73
1070
     0
1070
   171
1070
     3
1070
   274
1070
     4
1070
   177
1070
     2
1070
   176
1070
     2
1070
   178
1070
     7
1070
    78
1070
     8
1070
    41
1041
3.175
1070
   147
1041
1.75
1070
    42
1041
2.0
1070
    44
1041
2.0
1070
   140
1041
3.5
1070
   343
1005
12B
1070
   344
1005
12B
1002
}
0
DIMENSION
5
14D
100
AcDbEntity
8
2
62
256
6
ByLayer
370
13
48
1
60
0
100
AcDbDimension
2
DimnDraft3D3
10
31.562557
20
-10
30
0
11
38.472689
21
-8.791858
31
0
70
34
71
5
72
1
41
1
210
0
220
0
230
1
3
Standard
100
AcDb2LineAngularDimension
13
32
23
-15
33
0
14
37
24
-15
34
0
15
32
25
-15
35
0
16
36.032363
26
-10.599448
36
0
40
0
0
DIMENSION
5
15B
100
AcDbEntity
8
SK2
62
256
6
ByLayer
370
13
48
1
60
0
100
AcDbDimension
2
DimnDraft3D4
10
32
20
23.321295
30
0
11
-23.040789
21
23.321295
31
0
70
32
71
5
72
1
41
1
210
0
220
0
230
1
3
Standard
100
AcDbAlignedDimension
13
-69
23
12
33
0
14
32
24
-13
34
0
50
0
100
AcDbRotatedDimension
1001
ACAD
1000
DSTYLE
1002
{
1070
   279
1070
     0
1070
   172
1070
     1
1070
   173
1070
     1
1070
   340
1005
119
1070
   271
1070
     1
1070
    77
1070
     1
1070
    73
1070
     0
1070
   171
1070
     3
1070
   274
1070
     4
1070
   177
1070
     2
1070
   176
1070
     2
1070
   178
1070
     7
1070
    78
1070
     8
1070
    41
1041
3.175
1070
   147
1041
1.75
1070
    42
1041
2.0
1070
    44
1041
2.0
1070
   140
1041
3.5
1070
   343
1005
12B
1070
   344
1005
12B
1002
}
0
DIMENSION
5
169
100
AcDbEntity
8
SK2
62
256
6
ByLayer
370
13
48
1
60
0
100
AcDbDimension
2
DimnDraft3D5
10
-66
20
-28.1
30
0
11
-70.230921
21
-28.1
31
0
70
32
71
5
72
1
41
1
210
0
220
0
230
1
3
Standard
100
AcDbAlignedDimension
13
-69
23
8
33
0
14
-66
24
-12
34
0
50
0
100
AcDbRotatedDimension
1001
ACAD
1000
DSTYLE
1002
{
1070
   279
1070
     0
1070
   172
1070
     1
1070
   173
1070
     1
1070
   340
1005
119
1070
    77
1070
     1
1070
    73
1070
     0
1070
   171
1070
     3
1070
   274
1070
     4
1070
   177
1070
     2
1070
   176
1070
     2
1070
   178
1070
     7
1070
    78
1070
     8
1070
    41
1041
3.175
1070
   147
1041
1.75
1070
    42
1041
2.0
1070
    44
1041
2.0
1070
   140
1041
3.5
1070
   343
1005
12B
1070
   344
1005
12B
1002
}
0
ENDSEC
0
SECTION
2
OBJECTS
0
DICTIONARY
5
1d3
330
0
100
AcDbDictionary
280
0
281
1
3
ACAD_GROUP
350
1d4
3
ACAD_MLINESTYLE
350
1d5
0
DICTIONARY
5
1d4
330
0
100
AcDbDictionary
280
0
281
1
0
DICTIONARY
5
1d5
330
0
100
AcDbDictionary
280
0
281
1
3
Standard
350
18
0
MLINESTYLE
5
18
330
1d5
100
AcDbMlineStyle
2
Standard
70
0
3

62
256
51
90
52
90
71
2
49
-0.5
62
256
6
ByLayer
49
0.5
62
256
6
ByLayer
0
RASTERVARIABLES
5
1c2
330

100
AcDbRasterVariables
90
0
70
1
71
1
72
1
0
ENDSEC
0
EOF
