0
SECTION
2
HEADER
9
$ACADVER
1
AC1015
9
$DWGCODEPAGE
3
ANSI_1252
9
$HANDSEED
5
1e3
9
$ANGBASE
50
0
9
$ANGDIR
70
0
9
$ATTMODE
70
1
9
$AUNITS
70
0
9
$AUPREC
70
0
9
$CECOLOR
62
256
9
$CELTSCALE
40
1
9
$CELTYPE
6
ByLayer
9
$CELWEIGHT
370
18
9
$CLAYER
8
0
9
$CMLJUST
70
0
9
$CMLSCALE
40
1
9
$CMLSTYLE
2
Standard
9
$DIMSTYLE
2
Standard
9
$TEXTSIZE
40
0.2
9
$TEXTSTYLE
7
Standard
9
$LUNITS
70
2
9
$LUPREC
70
4
9
$EXTNAMES
290
1
9
$INSUNITS
70
4
9
$LTSCALE
40
1
9
$LWDISPLAY
290
1
9
$PDMODE
70
0
9
$PDSIZE
40
0
9
$PLINEGEN
70
0
0
ENDSEC
0
SECTION
2
CLASSES
0
CLASS
1
RASTERVARIABLES
2
AcDbRasterVariables
3
ISM
90
0
280
0
281
0
0
ENDSEC
0
SECTION
2
TABLES
0
TABLE
2
VPORT
5
1d9
100
AcDbSymbolTable
0
VPORT
5
1
100
AcDbSymbolTableRecord
100
AcDbViewportTableRecord
2
*Active
70
0
10
0
20
0
11
1
21
1
12
-1
22
1
13
0
23
0
14
0.5
24
0.5
15
10
25
10
16
0
26
0
36
1
17
0
27
0
37
0
0
ENDTAB
0
TABLE
2
LTYPE
5
1da
100
AcDbSymbolTable
0
LTYPE
5
14
100
AcDbSymbolTableRecord
100
AcDbLinetypeTableRecord
70
0
2
ByBlock
3

72
65
73
0
40
0
0
LTYPE
5
15
100
AcDbSymbolTableRecord
100
AcDbLinetypeTableRecord
70
0
2
ByLayer
3

72
65
73
0
40
0
0
LTYPE
5
16
100
AcDbSymbolTableRecord
100
AcDbLinetypeTableRecord
70
0
2
CONTINUOUS
3
Solid line
72
65
73
0
40
0
0
LTYPE
5
6A
100
AcDbSymbolTableRecord
100
AcDbLinetypeTableRecord
70
0
2
CENTER
3
____ _ ____ _ ____ _ ____
72
65
73
4
40
47.5
49
22
74
0
49
-8.5
74
0
49
8.5
74
0
49
-8.5
74
0
0
LTYPE
5
6B
100
AcDbSymbolTableRecord
100
AcDbLinetypeTableRecord
70
0
2
DASHED
3
__ __ __ __ __ __ __ __ __
72
65
73
2
40
25.72
49
12.86
74
0
49
-12.86
74
0
0
ENDTAB
0
TABLE
2
LAYER
5
1db
100
AcDbSymbolTable
0
LAYER
5
10
100
AcDbSymbolTableRecord
100
AcDbLayerTableRecord
2
0
70
0
62
7
6
CONTINUOUS
290
1
370
-3
390
0
0
LAYER
5
6D
100
AcDbSymbolTableRecord
100
AcDbLayerTableRecord
2
80
70
0
62
-6
6
CONTINUOUS
290
1
370
-3
390
0
0
LAYER
5
6F
100
AcDbSymbolTableRecord
100
AcDbLayerTableRecord
2
81
70
0
62
-3
6
CONTINUOUS
290
1
370
-3
390
0
0
LAYER
5
71
100
AcDbSymbolTableRecord
100
AcDbLayerTableRecord
2
2
70
0
62
7
6
CONTINUOUS
290
1
370
-3
390
0
0
LAYER
5
78
100
AcDbSymbolTableRecord
100
AcDbLayerTableRecord
2
1
70
0
62
4
6
CONTINUOUS
290
1
370
-3
390
0
0
LAYER
5
1c6
100
AcDbSymbolTableRecord
100
AcDbLayerTableRecord
2
SK1
70
0
62
4
6
CONTINUOUS
290
1
370
-3
390
0
0
LAYER
5
1c7
100
AcDbSymbolTableRecord
100
AcDbLayerTableRecord
2
SK2
70
0
62
7
6
CONTINUOUS
290
1
370
-3
390
0
0
LAYER
5
1c8
100
AcDbSymbolTableRecord
100
AcDbLayerTableRecord
2
SK6
70
0
62
5
6
CONTINUOUS
290
1
370
-3
390
0
0
ENDTAB
0
TABLE
2
STYLE
5
1dc
100
AcDbSymbolTable
0
STYLE
5
11
100
AcDbSymbolTableRecord
100
AcDbTextStyleTableRecord
2
Standard
3
txt
70
0
71
0
40
0
41
1
42
0
50
0
0
STYLE
5
11C
100
AcDbSymbolTableRecord
100
AcDbTextStyleTableRecord
2
iso_b_vert
3
simplex.shx
70
0
71
0
40
0
41
1
42
0
50
0
0
STYLE
5
11D
100
AcDbSymbolTableRecord
100
AcDbTextStyleTableRecord
2
DWGDirectTextStyle
3
simplex
70
0
71
0
40
0
41
1
42
0
50
0
0
ENDTAB
0
TABLE
2
DIMSTYLE
5
1dd
100
AcDbSymbolTable
100
AcDbDimStyleTable
0
DIMSTYLE
105
27
100
AcDbSymbolTableRecord
100
AcDbDimStyleTableRecord
2
Standard
70
0
3
<>
41
0.18
42
0.0625
44
0.18
140
0.18
147
0.09
73
0
74
0
77
1
271
2
275
0
278
52
280
0
340
11
0
ENDTAB
0
TABLE
2
VIEW
5
1de
100
AcDbSymbolTable
0
ENDTAB
0
TABLE
2
UCS
5
1df
100
AcDbSymbolTable
0
ENDTAB
0
TABLE
2
APPID
5
1e0
100
AcDbSymbolTable
0
APPID
5
12
100
AcDbSymbolTableRecord
100
AcDbRegAppTableRecord
2
ACAD
70
0
0
ENDTAB
0
TABLE
2
BLOCK_RECORD
5
1e1
100
AcDbSymbolTable
0
BLOCK_RECORD
5
1F
100
AcDbSymbolTableRecord
100
AcDbBlockTableRecord
2
*Model_Space
340
0
70
0
0
BLOCK_RECORD
5
1B
100
AcDbSymbolTableRecord
100
AcDbBlockTableRecord
2
*Paper_Space
340
0
70
0
0
BLOCK_RECORD
5
23
100
AcDbSymbolTableRecord
100
AcDbBlockTableRecord
2
*Paper_Space0
340
0
70
0
0
BLOCK_RECORD
5
120
100
AcDbSymbolTableRecord
100
AcDbBlockTableRecord
2
DimnDraft3D1
340
0
70
0
0
BLOCK_RECORD
5
12E
100
AcDbSymbolTableRecord
100
AcDbBlockTableRecord
2
_CLOSED
340
0
70
0
0
BLOCK_RECORD
5
135
100
AcDbSymbolTableRecord
100
AcDbBlockTableRecord
2
DimnDraft3D2
340
0
70
0
0
BLOCK_RECORD
5
143
100
AcDbSymbolTableRecord
100
AcDbBlockTableRecord
2
DimnDraft3D3
340
0
70
0
0
BLOCK_RECORD
5
151
100
AcDbSymbolTableRecord
100
AcDbBlockTableRecord
2
DimnDraft3D4
340
0
70
0
0
BLOCK_RECORD
5
15F
100
AcDbSymbolTableRecord
100
AcDbBlockTableRecord
2
DimnDraft3D5
340
0
70
0
0
ENDTAB
0
ENDSEC
0
SECTION
2
BLOCKS
0
BLOCK
5
20
100
AcDbEntity
8
0
100
AcDbBlockBegin
2
*Model_Space
70
0
10
0
20
0
30
0
3
*Model_Space
0
ENDBLK
5
21
100
AcDbEntity
8
0
100
AcDbBlockEnd
0
BLOCK
5
1C
100
AcDbEntity
8
0
100
AcDbBlockBegin
2
*Paper_Space
70
0
10
0
20
0
30
0
3
*Paper_Space
0
ENDBLK
5
1D
100
AcDbEntity
8
0
100
AcDbBlockEnd
0
BLOCK
5
24
100
AcDbEntity
8
0
100
AcDbBlockBegin
2
*Paper_Space0
70
0
10
0
20
0
30
0
3
*Paper_Space0
0
ENDBLK
5
25
100
AcDbEntity
8
0
100
AcDbBlockEnd
0
BLOCK
5
12B
100
AcDbEntity
8
0
100
AcDbBlockBegin
2
DimnDraft3D1
70
0
10
0
20
0
30
0
3
DimnDraft3D1
0
MTEXT
5
121
100
AcDbEntity
8
2
62
256
6
ByLayer
370
18
48
1
60
0
100
AcDbMText
10
14.767105
20
-27.225
30
0
210
0
220
0
230
1
1
\W0.7346;36.0
40
3.5
41
0
44
1.084337
50
0
71
7
72
5
7
iso_b_vert
0
LINE
5
122
100
AcDbEntity
8
2
62
256
6
ByLayer
370
13
48
1
60
0
100
AcDbLine
10
0
20
8
30
0
11
0
21
-30.1
31
0
39
0
210
0
220
0
230
1
0
LINE
5
123
100
AcDbEntity
8
2
62
256
6
ByLayer
370
13
48
1
60
0
100
AcDbLine
10
36
20
-17
30
0
11
36
21
-30.1
31
0
39
0
210
0
220
0
230
1
0
LINE
5
124
100
AcDbEntity
8
2
62
256
6
ByLayer
370
13
48
1
60
0
100
AcDbLine
10
0
20
-28.1
30
0
11
36
21
-28.1
31
0
39
0
210
0
220
0
230
1
0
LINE
5
125
100
AcDbEntity
8
2
62
256
6
ByLayer
370
13
48
1
60
0
100
AcDbLine
10
0
20
-28.1
30
0
11
3.174998
21
-27.682003
31
0
39
0
210
0
220
0
230
1
0
LINE
5
126
100
AcDbEntity
8
2
62
256
6
ByLayer
370
13
48
1
60
0
100
AcDbLine
10
0
20
-28.1
30
0
11
3.175002
21
-28.517997
31
0
39
0
210
0
220
0
230
1
0
LINE
5
127
100
AcDbEntity
8
2
62
256
6
ByLayer
370
13
48
1
60
0
100
AcDbLine
10
3.174998
20
-27.682003
30
0
11
3.175002
21
-28.517997
31
0
39
0
210
0
220
0
230
1
0
LINE
5
128
100
AcDbEntity
8
2
62
256
6
ByLayer
370
13
48
1
60
0
100
AcDbLine
10
36
20
-28.1
30
0
11
32.825002
21
-28.517997
31
0
39
0
210
0
220
0
230
1
0
LINE
5
129
100
AcDbEntity
8
2
62
256
6
ByLayer
370
13
48
1
60
0
100
AcDbLine
10
36
20
-28.1
30
0
11
32.824998
21
-27.682003
31
0
39
0
210
0
220
0
230
1
0
LINE
5
12A
100
AcDbEntity
8
2
62
256
6
ByLayer
370
13
48
1
60
0
100
AcDbLine
10
32.825002
20
-28.517997
30
0
11
32.824998
21
-27.682003
31
0
39
0
210
0
220
0
230
1
0
ENDBLK
5
12C
100
AcDbEntity
8
0
100
AcDbBlockEnd
0
BLOCK
5
12F
100
AcDbEntity
8
0
100
AcDbBlockBegin
2
_CLOSED
70
0
10
0
20
0
30
0
3
_CLOSED
0
LINE
5
131
100
AcDbEntity
8
0
62
256
6
ByLayer
370
-2
48
1
60
0
100
AcDbLine
10
-1
20
0.166667
30
0
11
0
21
0
31
0
39
0
210
0
220
0
230
1
0
LINE
5
132
100
AcDbEntity
8
0
62
256
6
ByLayer
370
-2
48
1
60
0
100
AcDbLine
10
0
20
0
30
0
11
-1
21
-0.166667
31
0
39
0
210
0
220
0
230
1
0
LINE
5
133
100
AcDbEntity
8
0
62
256
6
ByLayer
370
-2
48
1
60
0
100
AcDbLine
10
-1
20
0.166667
30
0
11
-1
21
-0.166667
31
0
39
0
210
0
220
0
230
1
0
LINE
5
134
100
AcDbEntity
8
0
62
256
6
ByLayer
370
-2
48
1
60
0
100
AcDbLine
10
0
20
0
30
0
11
-1
21
0
31
0
39
0
210
0
220
0
230
1
0
ENDBLK
5
130
100
AcDbEntity
8
0
100
AcDbBlockEnd
0
BLOCK
5
140
100
AcDbEntity
8
0
100
AcDbBlockBegin
2
DimnDraft3D2
70
0
10
0
20
0
30
0
3
DimnDraft3D2
0
MTEXT
5
136
100
AcDbEntity
8
2
62
256
6
ByLayer
370
18
48
1
60
0
100
AcDbMText
10
33.953087
20
-5.732895
30
0
210
0
220
0
230
1
1
\W0.7346;25.0
40
3.5
41
0
44
1.084337
50
90
71
7
72
5
7
iso_b_vert
0
LINE
5
137
100
AcDbEntity
8
2
62
256
6
ByLayer
370
13
48
1
60
0
100
AcDbLine
10
2
20
10
30
0
11
36.828087
21
10
31
0
39
0
210
0
220
0
230
1
0
LINE
5
138
100
AcDbEntity
8
2
62
256
6
ByLayer
370
13
48
1
60
0
100
AcDbLine
10
34
20
-15
30
0
11
32.828087
21
-15
31
0
39
0
210
0
220
0
230
1
0
LINE
5
139
100
AcDbEntity
8
2
62
256
6
ByLayer
370
13
48
1
60
0
100
AcDbLine
10
34.828087
20
10
30
0
11
34.828087
21
-15
31
0
39
0
210
0
220
0
230
1
0
LINE
5
13A
100
AcDbEntity
8
2
62
256
6
ByLayer
370
13
48
1
60
0
100
AcDbLine
10
34.828087
20
10
30
0
11
35.246084
21
6.825002
31
0
39
0
210
0
220
0
230
1
0
LINE
5
13B
100
AcDbEntity
8
2
62
256
6
ByLayer
370
13
48
1
60
0
100
AcDbLine
10
34.828087
20
10
30
0
11
34.41009
21
6.824998
31
0
39
0
210
0
220
0
230
1
0
LINE
5
13C
100
AcDbEntity
8
2
62
256
6
ByLayer
370
13
48
1
60
0
100
AcDbLine
10
35.246084
20
6.825002
30
0
11
34.41009
21
6.824998
31
0
39
0
210
0
220
0
230
1
0
LINE
5
13D
100
AcDbEntity
8
2
62
256
6
ByLayer
370
13
48
1
60
0
100
AcDbLine
10
34.828087
20
-15
30
0
11
34.41009
21
-11.825002
31
0
39
0
210
0
220
0
230
1
0
LINE
5
13E
100
AcDbEntity
8
2
62
256
6
ByLayer
370
13
48
1
60
0
100
AcDbLine
10
34.828087
20
-15
30
0
11
35.246084
21
-11.824998
31
0
39
0
210
0
220
0
230
1
0
LINE
5
13F
100
AcDbEntity
8
2
62
256
6
ByLayer
370
13
48
1
60
0
100
AcDbLine
10
34.41009
20
-11.825002
30
0
11
35.246084
21
-11.824998
31
0
39
0
210
0
220
0
230
1
0
ENDBLK
5
141
100
AcDbEntity
8
0
100
AcDbBlockEnd
0
BLOCK
5
14E
100
AcDbEntity
8
0
100
AcDbBlockBegin
2
DimnDraft3D3
70
0
10
0
20
0
30
0
3
DimnDraft3D3
0
MTEXT
5
144
100
AcDbEntity
8
2
62
256
6
ByLayer
370
18
48
1
60
0
100
AcDbMText
10
38.325502
20
-7.718432
30
0
210
0
220
0
230
1
1
\W0.8292;93%%d0'
40
3
41
0
44
1.084337
50
313.80487463824
71
7
72
5
7
iso_b_vert
0
LINE
5
145
100
AcDbEntity
8
2
62
256
6
ByLayer
370
13
48
1
60
0
100
AcDbLine
10
43
20
-15
30
0
11
43.968653
21
-15
31
0
39
0
210
0
220
0
230
1
0
LINE
5
146
100
AcDbEntity
8
2
62
256
6
ByLayer
370
13
48
1
60
0
100
AcDbLine
10
35.633289
20
-8.002741
30
0
11
35.582953
21
-7.042268
31
0
39
0
210
0
220
0
230
1
0
ARC
5
147
100
AcDbEntity
8
2
62
256
6
ByLayer
370
13
48
1
60
0
100
AcDbCircle
39
0
10
36
20
-15
30
0
40
5.96865271337743
210
0
220
0
230
1
100
AcDbArc
50
0
51
93
0
LINE
5
148
100
AcDbEntity
8
2
62
256
6
ByLayer
370
13
48
1
60
0
100
AcDbLine
10
41.968653
20
-15
30
0
11
41.142665
21
-11.90596
31
0
39
0
210
0
220
0
230
1
0
LINE
5
149
100
AcDbEntity
8
2
62
256
6
ByLayer
370
13
48
1
60
0
100
AcDbLine
10
41.968653
20
-15
30
0
11
41.971606
21
-11.797603
31
0
39
0
210
0
220
0
230
1
0
LINE
5
14A
100
AcDbEntity
8
2
62
256
6
ByLayer
370
13
48
1
60
0
100
AcDbLine
10
41.142665
20
-11.90596
30
0
11
41.971606
21
-11.797603
31
0
39
0
210
0
220
0
230
1
0
LINE
5
14B
100
AcDbEntity
8
2
62
256
6
ByLayer
370
13
48
1
60
0
100
AcDbLine
10
35.687625
20
-9.039527
30
0
11
38.885476
21
-8.868977
31
0
39
0
210
0
220
0
230
1
0
LINE
5
14C
100
AcDbEntity
8
2
62
256
6
ByLayer
370
13
48
1
60
0
100
AcDbLine
10
35.687625
20
-9.039527
30
0
11
38.820656
21
-9.702453
31
0
39
0
210
0
220
0
230
1
0
LINE
5
14D
100
AcDbEntity
8
2
62
256
6
ByLayer
370
13
48
1
60
0
100
AcDbLine
10
38.885476
20
-8.868977
30
0
11
38.820656
21
-9.702453
31
0
39
0
210
0
220
0
230
1
0
ENDBLK
5
14F
100
AcDbEntity
8
0
100
AcDbBlockEnd
0
BLOCK
5
15C
100
AcDbEntity
8
0
100
AcDbBlockBegin
2
DimnDraft3D4
70
0
10
0
20
0
30
0
3
DimnDraft3D4
0
MTEXT
5
152
100
AcDbEntity
8
SK2
62
256
6
ByLayer
370
18
48
1
60
0
100
AcDbMText
10
-20.603289
20
24.196295
30
0
210
0
220
0
230
1
1
\W0.6864;105.0
40
3.5
41
0
44
1.084337
50
0
71
7
72
5
7
iso_b_vert
0
LINE
5
153
100
AcDbEntity
8
SK2
62
256
6
ByLayer
370
13
48
1
60
0
100
AcDbLine
10
-69
20
12
30
0
11
-69
21
25.321295
31
0
39
0
210
0
220
0
230
1
0
LINE
5
154
100
AcDbEntity
8
SK2
62
256
6
ByLayer
370
13
48
1
60
0
100
AcDbLine
10
36
20
-13
30
0
11
36
21
25.321295
31
0
39
0
210
0
220
0
230
1
0
LINE
5
155
100
AcDbEntity
8
SK2
62
256
6
ByLayer
370
13
48
1
60
0
100
AcDbLine
10
-69
20
23.321295
30
0
11
36
21
23.321295
31
0
39
0
210
0
220
0
230
1
0
LINE
5
156
100
AcDbEntity
8
SK2
62
256
6
ByLayer
370
13
48
1
60
0
100
AcDbLine
10
-69
20
23.321295
30
0
11
-65.825002
21
23.739291
31
0
39
0
210
0
220
0
230
1
0
LINE
5
157
100
AcDbEntity
8
SK2
62
256
6
ByLayer
370
13
48
1
60
0
100
AcDbLine
10
-69
20
23.321295
30
0
11
-65.824998
21
22.903298
31
0
39
0
210
0
220
0
230
1
0
LINE
5
158
100
AcDbEntity
8
SK2
62
256
6
ByLayer
370
13
48
1
60
0
100
AcDbLine
10
-65.825002
20
23.739291
30
0
11
-65.824998
21
22.903298
31
0
39
0
210
0
220
0
230
1
0
LINE
5
159
100
AcDbEntity
8
SK2
62
256
6
ByLayer
370
13
48
1
60
0
100
AcDbLine
10
36
20
23.321295
30
0
11
32.825002
21
22.903298
31
0
39
0
210
0
220
0
230
1
0
LINE
5
15A
100
AcDbEntity
8
SK2
62
256
6
ByLayer
370
13
48
1
60
0
100
AcDbLine
10
36
20
23.321295
30
0
11
32.824998
21
23.739291
31
0
39
0
210
0
220
0
230
1
0
LINE
5
15B
100
AcDbEntity
8
SK2
62
256
6
ByLayer
370
13
48
1
60
0
100
AcDbLine
10
32.825002
20
22.903298
30
0
11
32.824998
21
23.739291
31
0
39
0
210
0
220
0
230
1
0
ENDBLK
5
15D
100
AcDbEntity
8
0
100
AcDbBlockEnd
0
BLOCK
5
16A
100
AcDbEntity
8
0
100
AcDbBlockBegin
2
DimnDraft3D5
70
0
10
0
20
0
30
0
3
DimnDraft3D5
0
MTEXT
5
160
100
AcDbEntity
8
SK2
62
256
6
ByLayer
370
18
48
1
60
0
100
AcDbMText
10
-69.355921
20
-27.225
30
0
210
0
220
0
230
1
1
\W0.7121;3.0
40
3.5
41
0
44
1.084337
50
0
71
7
72
5
7
iso_b_vert
0
LINE
5
161
100
AcDbEntity
8
SK2
62
256
6
ByLayer
370
13
48
1
60
0
100
AcDbLine
10
-69
20
8
30
0
11
-69
21
-30.1
31
0
39
0
210
0
220
0
230
1
0
LINE
5
162
100
AcDbEntity
8
SK2
62
256
6
ByLayer
370
13
48
1
60
0
100
AcDbLine
10
-66
20
-12
30
0
11
-66
21
-30.1
31
0
39
0
210
0
220
0
230
1
0
LINE
5
163
100
AcDbEntity
8
SK2
62
256
6
ByLayer
370
13
48
1
60
0
100
AcDbLine
10
-77.75
20
-28.1
30
0
11
-57.25
21
-28.1
31
0
39
0
210
0
220
0
230
1
0
LINE
5
164
100
AcDbEntity
8
SK2
62
256
6
ByLayer
370
13
48
1
60
0
100
AcDbLine
10
-69
20
-28.1
30
0
11
-72.174998
21
-28.517997
31
0
39
0
210
0
220
0
230
1
0
LINE
5
165
100
AcDbEntity
8
SK2
62
256
6
ByLayer
370
13
48
1
60
0
100
AcDbLine
10
-69
20
-28.1
30
0
11
-72.175002
21
-27.682003
31
0
39
0
210
0
220
0
230
1
0
LINE
5
166
100
AcDbEntity
8
SK2
62
256
6
ByLayer
370
13
48
1
60
0
100
AcDbLine
10
-72.174998
20
-28.517997
30
0
11
-72.175002
21
-27.682003
31
0
39
0
210
0
220
0
230
1
0
LINE
5
167
100
AcDbEntity
8
SK2
62
256
6
ByLayer
370
13
48
1
60
0
100
AcDbLine
10
-66
20
-28.1
30
0
11
-62.825002
21
-27.682003
31
0
39
0
210
0
220
0
230
1
0
LINE
5
168
100
AcDbEntity
8
SK2
62
256
6
ByLayer
370
13
48
1
60
0
100
AcDbLine
10
-66
20
-28.1
30
0
11
-62.824998
21
-28.517997
31
0
39
0
210
0
220
0
230
1
0
LINE
5
169
100
AcDbEntity
8
SK2
62
256
6
ByLayer
370
13
48
1
60
0
100
AcDbLine
10
-62.825002
20
-27.682003
30
0
11
-62.824998
21
-28.517997
31
0
39
0
210
0
220
0
230
1
0
ENDBLK
5
16B
100
AcDbEntity
8
0
100
AcDbBlockEnd
0
ENDSEC
0
SECTION
2
ENTITIES
0
ARC
5
C9
100
AcDbEntity
8
SK1
62
256
6
ByLayer
370
18
48
1
60
0
100
AcDbCircle
39
0
10
1.227723
20
11.6
30
0
40
1.6
210
0
220
0
230
-1
100
AcDbArc
50
219.885542
51
270
0
ARC
5
CA
100
AcDbEntity
8
1
62
256
6
ByLayer
370
18
48
1
60
0
100
AcDbCircle
39
0
10
1.227723
20
11.6
30
0
40
1.6
210
0
220
0
230
-1
100
AcDbArc
50
195
51
219.885542
0
ARC
5
CB
100
AcDbEntity
8
1
62
256
6
ByLayer
370
18
48
1
60
0
100
AcDbCircle
39
0
10
-1.772277
20
-11.525
30
0
40
1.59999999999709
210
0
220
0
230
-1
100
AcDbArc
50
109.93329
51
142.719124
0
ARC
5
CC
100
AcDbEntity
8
1
62
256
6
ByLayer
370
18
48
1
60
0
100
AcDbCircle
39
0
10
-1.772277
20
-11.525
30
0
40
1.5999999999741
210
0
220
0
230
-1
100
AcDbArc
50
142.719124
51
165
0
ELLIPSE
5
CD
100
AcDbEntity
8
1
62
256
6
ByLayer
370
13
48
1
60
0
100
AcDbEllipse
10
15.965202
20
10.519509
30
0
11
3.06702639584449
21
3.14798577103406
31
0
210
0
220
0
230
1
40
0.987534
41
1.41503030529247
42
2.90140346911865
0
ELLIPSE
5
CE
100
AcDbEntity
8
1
62
256
6
ByLayer
370
13
48
1
60
0
100
AcDbEllipse
10
14.108634
20
2.872493
30
0
11
-1.233312644952
21
-1.01928402312678
31
0
210
0
220
0
230
1
40
0.156518
41
-3.03739660332776
42
-1.55386673913259
0
ELLIPSE
5
CF
100
AcDbEntity
8
1
62
256
6
ByLayer
370
13
48
1
60
0
100
AcDbEllipse
10
20.017887
20
7.964775
30
0
11
-3.11662846427604
21
-3.19889717037772
31
0
210
0
220
0
230
1
40
0.987534
41
1.47659042292665
42
1.7852587114711
0
ELLIPSE
5
D0
100
AcDbEntity
8
1
62
256
6
ByLayer
370
18
48
1
60
0
100
AcDbEllipse
10
18.205577
20
-4.560967
30
0
11
-1.81437491243988
21
-1.8622684224109
31
0
210
0
220
0
230
1
40
0.987534
41
-0.587469818691975
42
-0.246132046492575
0
ELLIPSE
5
D1
100
AcDbEntity
8
1
62
256
6
ByLayer
370
18
48
1
60
0
100
AcDbEllipse
10
19.835717
20
-7.223909
30
0
11
-1.81437491243987
21
-1.86226842241089
31
0
210
0
220
0
230
1
40
0.987534
41
-0.246132046492563
42
0.0952057257068277
0
ELLIPSE
5
D2
100
AcDbEntity
8
1
62
256
6
ByLayer
370
13
48
1
60
0
100
AcDbEllipse
10
15.965202
20
10.519509
30
0
11
3.06702639584449
21
3.14798577103406
31
0
210
0
220
0
230
1
40
0.987534
41
0.116415693203898
42
0.117176569302358
0
ELLIPSE
5
D3
100
AcDbEntity
8
1
62
256
6
ByLayer
370
18
48
1
60
0
100
AcDbEllipse
10
15.443729
20
-0.145
30
0
11
-1.67480761148296
21
-1.71901700530237
31
0
210
0
220
0
230
1
40
0.987534
41
-1.70331777244903
42
-0.246132046492577
0
ELLIPSE
5
D4
100
AcDbEntity
8
1
62
256
6
ByLayer
370
13
48
1
60
0
100
AcDbEllipse
10
23.050119
20
4.423985
30
0
11
-1.03732386351553
21
1.21817864132533
31
0
210
0
220
0
230
1
40
0.014807
41
0.775525562937066
42
1.41342019969769
0
ELLIPSE
5
D5
100
AcDbEntity
8
1
62
256
6
ByLayer
370
13
48
1
60
0
100
AcDbEllipse
10
-3.608407
20
35.842692
30
0
11
-28.9365791413051
21
-29.7004093354559
31
0
210
0
220
0
230
1
40
0.987534
41
1.38566830642132
42
1.47659042292666
0
ELLIPSE
5
D6
100
AcDbEntity
8
1
62
256
6
ByLayer
370
13
48
1
60
0
100
AcDbEllipse
10
17.362795
20
5.902119
30
0
11
-3.11662846427604
21
-3.19889717037772
31
0
210
0
220
0
230
1
40
0.987534
41
-0.106422348000066
42
0.112204494891689
0
ELLIPSE
5
D7
100
AcDbEntity
8
1
62
256
6
ByLayer
370
18
48
1
60
0
100
AcDbEllipse
10
23.13411
20
-6.337135
30
0
11
2.2243538590008
21
2.2830694601672
31
0
210
0
220
0
230
1
40
0.987534
41
-2.47128333283069
42
-0.670325635851619
0
ELLIPSE
5
D8
100
AcDbEntity
8
1
62
256
6
ByLayer
370
13
48
1
60
0
100
AcDbEllipse
10
17.362795
20
5.902119
30
0
11
-3.11662846427604
21
-3.19889717037772
31
0
210
0
220
0
230
1
40
0.987534
41
0.981571464902152
42
1.38566830642131
0
ELLIPSE
5
D9
100
AcDbEntity
8
1
62
256
6
ByLayer
370
18
48
1
60
0
100
AcDbEllipse
10
-70.174806
20
121.686482
30
0
11
85.6387944866311
21
-111.726544624176
31
0
210
0
220
0
230
1
40
0.284147
41
-0.063234152198053
42
0.103340156066534
0
ELLIPSE
5
DA
100
AcDbEntity
8
1
62
256
6
ByLayer
370
13
48
1
60
0
100
AcDbEllipse
10
45.981277
20
29.384819
30
0
11
27.824289499383
21
28.5587589177148
31
0
210
0
220
0
230
1
40
0.987534
41
2.90140346911865
42
3.03517030558973
0
ELLIPSE
5
DB
100
AcDbEntity
8
1
62
256
6
ByLayer
370
13
48
1
60
0
100
AcDbEllipse
10
20.07454
20
2.112353
30
0
11
-0.92385523464164
21
1.3063274878166
31
0
210
0
220
0
230
1
40
0.028974
41
0.736881417452916
42
1.4153881310592
0
ELLIPSE
5
DC
100
AcDbEntity
8
1
62
256
6
ByLayer
370
13
48
1
60
0
100
AcDbEllipse
10
10.913859
20
7.319506
30
0
11
-1.35957088242163
21
-0.843544317550225
31
0
210
0
220
0
230
1
40
0.152889
41
-3.01642640944891
42
-1.53289654525373
0
ELLIPSE
5
DD
100
AcDbEntity
8
1
62
256
6
ByLayer
370
18
48
1
60
0
100
AcDbEllipse
10
16.054467
20
0.350161
30
0
11
1.75515773520013
21
1.80148810711785
31
0
210
0
220
0
230
1
40
0.987534
41
1.39027210839593
42
1.7562351932365
0
ELLIPSE
5
DE
100
AcDbEntity
8
1
62
256
6
ByLayer
370
18
48
1
60
0
100
AcDbEllipse
10
16.841175
20
9.666064
30
0
11
-2.67423655357332
21
2.60546098207025
31
0
210
0
220
0
230
1
40
0.987438
41
-1.20349698572573
42
1.05739182098675
0
ELLIPSE
5
DF
100
AcDbEntity
8
1
62
256
6
ByLayer
370
13
48
1
60
0
100
AcDbEllipse
10
15.800532
20
10.679944
30
0
11
-4.17931603776651
21
-4.28963618877524
31
0
210
0
220
0
230
1
40
0.987534
41
-1.39635052393319
42
-0.240189184471145
0
ELLIPSE
5
E0
100
AcDbEntity
8
1
62
256
6
ByLayer
370
13
48
1
60
0
100
AcDbEllipse
10
45.816608
20
29.545253
30
0
11
-28.9365791413051
21
-29.7004093354559
31
0
210
0
220
0
230
1
40
0.987534
41
-0.24018918447115
42
-0.106422348000068
0
ELLIPSE
5
E1
100
AcDbEntity
8
1
62
256
6
ByLayer
370
13
48
1
60
0
100
AcDbEllipse
10
17.527464
20
5.741684
30
0
11
2.00433882235402
21
2.05724675263654
31
0
210
0
220
0
230
1
40
0.987534
41
3.03517030558972
42
-2.57419619978636
0
ELLIPSE
5
E2
100
AcDbEntity
8
1
62
256
6
ByLayer
370
18
48
1
60
0
100
AcDbEllipse
10
17.527464
20
5.741684
30
0
11
2.00433882235402
21
2.05724675263654
31
0
210
0
220
0
230
1
40
0.987534
41
-2.57419625214286
42
-2.56055744692993
0
ELLIPSE
5
E3
100
AcDbEntity
8
1
62
256
6
ByLayer
370
18
48
1
60
0
100
AcDbEllipse
10
24.985941
20
-8.141341
30
0
11
1.79902250933461
21
1.84651076652896
31
0
210
0
220
0
230
1
40
0.987534
41
0
42
6.28318530717959
0
ELLIPSE
5
E4
100
AcDbEntity
8
1
62
256
6
ByLayer
370
18
48
1
60
0
100
AcDbEllipse
10
14.044643
20
-1.374112
30
0
11
-0.55390772567269
21
-0.568529061649419
31
0
210
0
220
0
230
1
40
0.987534
41
-2.42779361148547
42
-1.05273380227021
0
ELLIPSE
5
E5
100
AcDbEntity
8
1
62
256
6
ByLayer
370
18
48
1
60
0
100
AcDbEllipse
10
21.760278
20
-13.506114
30
0
11
0.553907725672689
21
0.568529061649419
31
0
210
0
220
0
230
1
40
0.987534
41
2.89546060709723
42
-2.42779361148549
0
ELLIPSE
5
E6
100
AcDbEntity
8
1
62
256
6
ByLayer
370
18
48
1
60
0
100
AcDbEllipse
10
24.270013
20
-7.443824
30
0
11
1.79902250933461
21
1.84651076652896
31
0
210
0
220
0
230
1
40
0.987534
41
-2.94392098325628
42
-0.197678208653078
0
ELLIPSE
5
E7
100
AcDbEntity
8
1
62
256
6
ByLayer
370
18
48
1
60
0
100
AcDbEllipse
10
27.495676
20
-2.07905
30
0
11
-0.55390772567269
21
-0.568529061649419
31
0
210
0
220
0
230
1
40
0.987534
41
3.14159257807135
42
-2.42779361148547
0
ELLIPSE
5
E8
100
AcDbEntity
8
1
62
256
6
ByLayer
370
18
48
1
60
0
100
AcDbEllipse
10
21.04435
20
-12.808598
30
0
11
-0.55390772567269
21
-0.568529061649419
31
0
210
0
220
0
230
1
40
0.987534
41
-0.246132046492552
42
4.10353126107642E-07
0
ELLIPSE
5
E9
100
AcDbEntity
8
1
62
256
6
ByLayer
370
18
48
1
60
0
100
AcDbEllipse
10
28.211604
20
-2.776567
30
0
11
0.553907725672689
21
0.568529061649419
31
0
210
0
220
0
230
1
40
0.987534
41
-0.246132046492562
42
0.713799042104321
0
ELLIPSE
5
EA
100
AcDbEntity
8
1
62
256
6
ByLayer
370
18
48
1
60
0
100
AcDbEllipse
10
35.211311
20
-14.211053
30
0
11
0.553907725672689
21
0.568529061649419
31
0
210
0
220
0
230
1
40
0.987534
41
-2.42779361148548
42
-0.246132046492559
0
ELLIPSE
5
EB
100
AcDbEntity
8
1
62
256
6
ByLayer
370
18
48
1
60
0
100
AcDbEllipse
10
14.760572
20
-2.071628
30
0
11
0.553907725672689
21
0.568529061649419
31
0
210
0
220
0
230
1
40
0.987534
41
0.713799042104321
42
2.89546060709723
0
ELLIPSE
5
EC
100
AcDbEntity
8
1
62
256
6
ByLayer
370
18
48
1
60
0
100
AcDbEllipse
10
9.785233
20
-6.324117
30
0
11
1.08513576494
21
1.11377976801883
31
0
210
0
220
0
230
1
40
0.987534
41
1.46965472061605
42
1.91271212582623
0
ELLIPSE
5
ED
100
AcDbEntity
8
1
62
256
6
ByLayer
370
18
48
1
60
0
100
AcDbEllipse
10
9.785233
20
-6.324117
30
0
11
1.08513576494
21
1.11377976801883
31
0
210
0
220
0
230
1
40
0.987534
41
0.422457169419453
42
0.865514574629635
0
ELLIPSE
5
EE
100
AcDbEntity
8
1
62
256
6
ByLayer
370
18
48
1
60
0
100
AcDbEllipse
10
9.358495
20
-5.908354
30
0
11
1.08513576494
21
1.11377976801883
31
0
210
0
220
0
230
1
40
0.987534
41
-2.9463677641674
42
-2.71913548417035
0
ELLIPSE
5
EF
100
AcDbEntity
8
1
62
256
6
ByLayer
370
18
48
1
60
0
100
AcDbEllipse
10
9.358495
20
-5.908354
30
0
11
1.08513576494
21
1.11377976801883
31
0
210
0
220
0
230
1
40
0.987534
41
-1.22888052776356
42
-0.624740381777142
0
ELLIPSE
5
F0
100
AcDbEntity
8
1
62
256
6
ByLayer
370
18
48
1
60
0
100
AcDbEllipse
10
9.358495
20
-5.908354
30
0
11
1.08513576494
21
1.11377976801883
31
0
210
0
220
0
230
1
40
0.987534
41
-2.27607807896014
42
-1.67193793297375
0
ELLIPSE
5
F1
100
AcDbEntity
8
1
62
256
6
ByLayer
370
18
48
1
60
0
100
AcDbEllipse
10
9.785233
20
-6.324117
30
0
11
1.08513576494
21
1.11377976801883
31
0
210
0
220
0
230
1
40
0.987534
41
-1.67193793297375
42
-1.22888052776356
0
ELLIPSE
5
F2
100
AcDbEntity
8
1
62
256
6
ByLayer
370
18
48
1
60
0
100
AcDbEllipse
10
9.809473
20
-6.347734
30
0
11
-1.34500374549758
21
-1.38050740565866
31
0
210
0
220
0
230
1
40
0.987534
41
0
42
6.28318530717959
0
ELLIPSE
5
F3
100
AcDbEntity
8
1
62
256
6
ByLayer
370
18
48
1
60
0
100
AcDbEllipse
10
9.785233
20
-6.324117
30
0
11
1.08513576494
21
1.11377976801883
31
0
210
0
220
0
230
1
40
0.987534
41
-2.71913548417035
42
-2.27607807896014
0
ELLIPSE
5
F4
100
AcDbEntity
8
1
62
256
6
ByLayer
370
18
48
1
60
0
100
AcDbEllipse
10
9.723224
20
-6.263703
30
0
11
-2.79134601913827
21
-2.86502834217062
31
0
210
0
220
0
230
1
40
0.987534
41
0
42
6.28318530717959
0
ELLIPSE
5
F5
100
AcDbEntity
8
1
62
256
6
ByLayer
370
18
48
1
60
0
100
AcDbEllipse
10
9.785233
20
-6.324117
30
0
11
1.08513576494
21
1.11377976801883
31
0
210
0
220
0
230
1
40
0.987534
41
2.51685227181265
42
2.95990967702283
0
ELLIPSE
5
F6
100
AcDbEntity
8
1
62
256
6
ByLayer
370
18
48
1
60
0
100
AcDbEllipse
10
9.358495
20
-5.908354
30
0
11
1.08513576494
21
1.11377976801883
31
0
210
0
220
0
230
1
40
0.987534
41
-0.181682976566969
42
-0.0737497442195873
0
ELLIPSE
5
F7
100
AcDbEntity
8
1
62
256
6
ByLayer
370
18
48
1
60
0
100
AcDbEllipse
10
9.24575
20
-5.798509
30
0
11
1.08513576494
21
1.11377976801883
31
0
210
0
220
0
230
1
40
0.987534
41
-2.89375355746273
42
-0.1661636320186
0
ELLIPSE
5
F8
100
AcDbEntity
8
1
62
256
6
ByLayer
370
18
48
1
60
0
100
AcDbEllipse
10
9.785233
20
-6.324117
30
0
11
1.08513576494
21
1.11377976801883
31
0
210
0
220
0
230
1
40
0.987534
41
-0.624740381777142
42
-0.181682976566969
0
ELLIPSE
5
F9
100
AcDbEntity
8
1
62
256
6
ByLayer
370
18
48
1
60
0
100
AcDbEllipse
10
9.809473
20
-6.347734
30
0
11
-2.25750109297808
21
-2.31709167173049
31
0
210
0
220
0
230
1
40
0.987534
41
0
42
6.28318530717959
0
POINT
5
6C
100
AcDbEntity
8
80
62
256
6
ByLayer
370
18
48
1
60
0
100
AcDbPoint
10
0
20
0
30
0
39
0
210
0
220
0
230
1
50
360
0
POINT
5
6E
100
AcDbEntity
8
81
62
256
6
ByLayer
370
18
48
1
60
0
100
AcDbPoint
10
36
20
-15
30
0
39
0
210
0
220
0
230
1
50
360
0
POINT
5
70
100
AcDbEntity
8
2
62
256
6
ByLayer
370
18
48
1
60
0
100
AcDbPoint
10
24.985941
20
28.141341
30
0
39
0
210
0
220
0
230
1
50
360
0
POINT
5
72
100
AcDbEntity
8
2
62
256
6
ByLayer
370
18
48
1
60
0
100
AcDbPoint
10
24.985941
20
28.141341
30
0
39
0
210
0
220
0
230
1
50
360
0
POINT
5
73
100
AcDbEntity
8
2
62
256
6
ByLayer
370
18
48
1
60
0
100
AcDbPoint
10
24.985941
20
28.141341
30
0
39
0
210
0
220
0
230
1
50
360
0
POINT
5
74
100
AcDbEntity
8
2
62
256
6
ByLayer
370
18
48
1
60
0
100
AcDbPoint
10
23.912049
20
27.095066
30
0
39
0
210
0
220
0
230
1
50
360
0
POINT
5
75
100
AcDbEntity
8
2
62
256
6
ByLayer
370
18
48
1
60
0
100
AcDbPoint
10
9.676275
20
26.217961
30
0
39
0
210
0
220
0
230
1
50
360
0
SPLINE
5
FA
100
AcDbEntity
8
1
62
256
6
ByLayer
370
18
48
1
60
0
100
AcDbSpline
70
4
71
3
72
8
73
4
40
0
40
0
40
0
40
0
40
1
40
1
40
1
40
1
41
1
10
22.4029412026416
20
5.34189084093575
30
0
41
1
10
21.5003970564067
20
4.5690077770831
30
0
41
1
10
20.5577598612408
20
3.83670336583714
30
0
41
1
10
19.5843825123569
20
3.15224356960368
30
0
0
SPLINE
5
FB
100
AcDbEntity
8
1
62
256
6
ByLayer
370
18
48
1
60
0
100
AcDbSpline
70
4
71
3
72
22
73
18
40
0
40
0
40
0
40
0
40
0.0476567424181149
40
0.0476567424181149
40
0.240874347229891
40
0.240874347229891
40
0.401226880891827
40
0.401226880891827
40
0.503040739004369
40
0.503040739004369
40
0.603394681656659
40
0.603394681656659
40
0.817957710561596
40
0.817957710561596
40
0.954185296044761
40
0.954185296044761
40
1
40
1
40
1
40
1
41
1
10
18.1906758125525
20
1.67449607324761
30
0
41
1
10
18.1557566459165
20
1.73179526926108
30
0
41
1
10
18.1189038513552
20
1.78703846004504
30
0
41
1
10
17.927678273214
20
2.04982547177033
30
0
41
1
10
17.7496287712266
20
2.22066211581304
30
0
41
1
10
17.4001472780508
20
2.46282456195928
30
0
41
1
10
17.2275412750386
20
2.55081700450134
30
0
41
1
10
16.90482810603
20
2.66579257918249
30
0
41
1
10
16.7650333183921
20
2.70415618388139
30
0
41
1
10
16.4817493701032
20
2.76059119219576
30
0
41
1
10
16.3363582406483
20
2.77946965252866
30
0
41
1
10
15.8977384072575
20
2.80705158112383
30
0
41
1
10
15.6049395953833
20
2.78366304213617
30
0
41
1
10
15.1373342289073
20
2.65706688855568
30
0
41
1
10
14.9549226733026
20
2.58368249087161
30
0
41
1
10
14.7291172220071
20
2.45304983077119
30
0
41
1
10
14.6732662585389
20
2.41712993918412
30
0
41
1
10
14.6194773757971
20
2.37872125423382
30
0
0
SPLINE
5
FC
100
AcDbEntity
8
1
62
256
6
ByLayer
370
18
48
1
60
0
100
AcDbSpline
70
4
71
3
72
14
73
10
40
0
40
0
40
0
40
0
40
0.230710292013589
40
0.230710292013589
40
0.56475998134324
40
0.56475998134324
40
0.99623594937436
40
0.99623594937436
40
1
40
1
40
1
40
1
41
1
10
22.4374438251158
20
-8.18702945359325
30
0
41
1
10
22.6197972781936
20
-8.08058054228385
30
0
41
1
10
22.7967189624306
20
-7.95841348252154
30
0
41
1
10
23.1870885550897
20
-7.64350287896386
30
0
41
1
10
23.3899591007368
20
-7.43795681629135
30
0
41
1
10
23.7733582632349
20
-6.95486481261952
30
0
41
1
10
23.9380073845117
20
-6.66542118886343
30
0
41
1
10
24.0458190010256
20
-6.37136568096025
30
0
41
1
10
24.046751776659
20
-6.3688093222238
30
0
41
1
10
24.0476802339759
20
-6.36625250751754
30
0
0
SPLINE
5
FD
100
AcDbEntity
8
1
62
256
6
ByLayer
370
18
48
1
60
0
100
AcDbSpline
70
4
71
3
72
10
73
6
40
0
40
0
40
0
40
0
40
0.469456378765578
40
0.469456378765578
40
1
40
1
40
1
40
1
41
1
10
1.77227681923367
20
-9.92500000000001
30
0
41
1
10
1.8963506595853
20
-9.92500000000001
30
0
41
1
10
2.00649823004926
20
-9.93964230884481
30
0
41
1
10
2.1954530928829
20
-9.97859091246724
30
0
41
1
10
2.27155428571516
20
-10.0040997504771
30
0
41
1
10
2.31775814129617
20
-10.020855682695
30
0
0
SPLINE
5
FE
100
AcDbEntity
8
1
62
256
6
ByLayer
370
18
48
1
60
0
100
AcDbSpline
70
4
71
3
72
8
73
4
40
0
40
0
40
0
40
0
40
1
40
1
40
1
40
1
41
1
10
18.2571506012256
20
1.56566264215272
30
0
41
1
10
18.2348183565878
20
1.60214384906536
30
0
41
1
10
18.2126323947227
20
1.63846730662019
30
0
41
1
10
18.1906758125526
20
1.67449607324764
30
0
0
SPLINE
5
FF
100
AcDbEntity
8
1
62
256
6
ByLayer
370
18
48
1
60
0
100
AcDbSpline
70
4
71
3
72
8
73
4
40
0
40
0
40
0
40
0
40
1
40
1
40
1
40
1
41
1
10
13.6742836932908
20
7.6983824314475
30
0
41
1
10
13.4997427889629
20
7.99162349008938
30
0
41
1
10
13.3681253163752
20
8.31364704389375
30
0
41
1
10
13.2866882923615
20
8.64552114007091
30
0
0
SPLINE
5
100
100
AcDbEntity
8
1
62
256
6
ByLayer
370
18
48
1
60
0
100
AcDbSpline
70
4
71
3
72
11
73
7
40
0
40
0
40
0
40
0
40
0.210726755553269
40
0.210726755553269
40
0.210726755553269
40
1
40
1
40
1
40
1
41
1
10
18.2819974990353
20
13.0661873226734
30
0
41
1
10
18.3815540452902
20
13.0282337207608
30
0
41
1
10
18.4793473701696
20
12.9857101697673
30
0
41
1
10
18.5748218095678
20
12.9388523591742
30
0
41
1
10
18.9276986063593
20
12.7656642869428
30
0
41
1
10
19.2541119016132
20
12.5288867291869
30
0
41
1
10
19.5285036782171
20
12.2463369799747
30
0
0
SPLINE
5
101
100
AcDbEntity
8
1
62
256
6
ByLayer
370
18
48
1
60
0
100
AcDbSpline
70
4
71
3
72
12
73
8
40
0
40
0
40
0
40
0
40
0.112377743784455
40
0.112377743784455
40
0.612665569238161
40
0.612665569238161
40
1
40
1
40
1
40
1
41
1
10
23.1637380491476
20
6.62511812044104
30
0
41
1
10
23.1520809681126
20
6.56940186713979
30
0
41
1
10
23.1383181349797
20
6.51402094470276
30
0
41
1
10
23.0528397121174
20
6.21773067605415
30
0
41
1
10
22.9411418281983
20
5.98369544162719
30
0
41
1
10
22.6847705964782
20
5.61631152422285
30
0
41
1
10
22.5512830020885
20
5.46892159608737
30
0
41
1
10
22.4029412026417
20
5.34189084093575
30
0
0
SPLINE
5
102
100
AcDbEntity
8
1
62
256
6
ByLayer
370
18
48
1
60
0
100
AcDbSpline
70
4
71
3
72
10
73
6
40
0
40
0
40
0
40
0
40
0.546209466516101
40
0.546209466516101
40
1
40
1
40
1
40
1
41
1
10
23.2040540610655
20
6.55925923359294
30
0
41
1
10
23.2889720258371
20
6.42054009032375
30
0
41
1
10
23.3877977269857
20
6.25910173469202
30
0
41
1
10
23.5800258007616
20
5.94508439126912
30
0
41
1
10
23.6733020314979
20
5.792711464646
30
0
41
1
10
23.7678235228719
20
5.63830432195039
30
0
0
SPLINE
5
103
100
AcDbEntity
8
1
62
256
6
ByLayer
370
18
48
1
60
0
100
AcDbSpline
70
4
71
3
72
8
73
4
40
0
40
0
40
0
40
0
40
1
40
1
40
1
40
1
41
1
10
25.1204167406635
20
3.42875334097269
30
0
41
1
10
25.2714023295075
20
1.91804418499032
30
0
41
1
10
25.7547324214315
20
0.478656158516884
30
0
41
1
10
26.543922629409
20
-0.810538534519935
30
0
0
SPLINE
5
104
100
AcDbEntity
8
1
62
256
6
ByLayer
370
18
48
1
60
0
100
AcDbSpline
70
4
71
3
72
16
73
12
40
0
40
0
40
0
40
0
40
0.140667399691337
40
0.140667399691337
40
0.405479370196869
40
0.405479370196869
40
0.72656635248655
40
0.72656635248655
40
0.899375911482135
40
0.899375911482135
40
1
40
1
40
1
40
1
41
1
10
10.9032930369177
20
14
30
0
41
1
10
11.0382266095756
20
14
30
0
41
1
10
11.174942311347
20
14
30
0
41
1
10
11.5660128032876
20
14
30
0
41
1
10
11.8215410717001
20
14
30
0
41
1
10
12.3552562567293
20
14
30
0
41
1
10
12.6365488651441
20
14
30
0
41
1
10
13.0076024678727
20
14
30
0
41
1
10
13.1283491827934
20
14
30
0
41
1
10
13.2828810476893
20
14
30
0
41
1
10
13.3323785827977
20
14
30
0
41
1
10
13.3699063774046
20
14
30
0
0
SPLINE
5
105
100
AcDbEntity
8
1
62
256
6
ByLayer
370
18
48
1
60
0
100
AcDbSpline
70
4
71
3
72
10
73
6
40
0
40
0
40
0
40
0
40
0.0172962460610781
40
0.0172962460610781
40
1
40
1
40
1
40
1
41
1
10
24.0476802339759
20
-6.36625250751754
30
0
41
1
10
24.0475111987618
20
-6.36319288491376
30
0
41
1
10
24.0473378451885
20
-6.36013280665745
30
0
41
1
10
24.0371170242169
20
-6.18406683936522
30
0
41
1
10
24.0131664329413
20
-6.00844393054459
30
0
41
1
10
23.9754917135447
20
-5.83283620646645
30
0
0
SPLINE
5
106
100
AcDbEntity
8
1
62
256
6
ByLayer
370
18
48
1
60
0
100
AcDbSpline
70
4
71
3
72
8
73
4
40
0
40
0
40
0
40
0
40
1
40
1
40
1
40
1
41
1
10
18.6491487510565
20
14.0000000000019
30
0
41
1
10
18.6495676691521
20
13.9993156694308
30
0
41
1
10
18.649977795021
20
13.998645701547
30
0
41
1
10
18.6503790143607
20
13.9979902830708
30
0
0
SPLINE
5
107
100
AcDbEntity
8
1
62
256
6
ByLayer
370
18
48
1
60
0
100
AcDbSpline
70
4
71
3
72
8
73
4
40
0
40
0
40
0
40
0
40
1
40
1
40
1
40
1
41
1
10
20.0743205104514
20
11.6718871441841
30
0
41
1
10
19.8269214678239
20
12.076029934596
30
0
41
1
10
19.5874485195486
20
12.4672249227264
30
0
41
1
10
19.3538074068206
20
12.8488932196204
30
0
0
SPLINE
5
108
100
AcDbEntity
8
1
62
256
6
ByLayer
370
18
48
1
60
0
100
AcDbSpline
70
4
71
3
72
8
73
4
40
0
40
0
40
0
40
0
40
1
40
1
40
1
40
1
41
1
10
18.0437815871807
20
-9.11329111941399
30
0
41
1
10
18.0973161234515
20
-9.15821916431381
30
0
41
1
10
18.1508499737079
20
-9.20314608881969
30
0
41
1
10
18.2043831316819
20
-9.2480718826958
30
0
0
SPLINE
5
109
100
AcDbEntity
8
1
62
256
6
ByLayer
370
18
48
1
60
0
100
AcDbSpline
70
4
71
3
72
16
73
12
40
0
40
0
40
0
40
0
40
0.220459181838156
40
0.220459181838156
40
0.479804203545916
40
0.479804203545916
40
0.742289323893595
40
0.742289323893595
40
0.999952397866539
40
0.999952397866539
40
1
40
1
40
1
40
1
41
1
10
22.5046403306243
20
-8.58547656730059
30
0
41
1
10
22.7286979792152
20
-8.48536407700101
30
0
41
1
10
22.940720774396
20
-8.35053390840736
30
0
41
1
10
23.3478724937404
20
-7.99888475996283
30
0
41
1
10
23.539313667878
20
-7.76668960333004
30
0
41
1
10
23.8391837784631
20
-7.25358918750734
30
0
41
1
10
23.9510349557887
20
-6.96460287497158
30
0
41
1
10
24.0856138290031
20
-6.38134484667526
30
0
41
1
10
24.1126087653174
20
-6.07962919350337
30
0
41
1
10
24.0959744138736
20
-5.79194994131191
30
0
41
1
10
24.0959713293848
20
-5.79189662394339
30
0
41
1
10
24.0959682433639
20
-5.7918433067467
30
0
0
SPLINE
5
10A
100
AcDbEntity
8
1
62
256
6
ByLayer
370
18
48
1
60
0
100
AcDbSpline
70
4
71
3
72
8
73
4
40
0
40
0
40
0
40
0
40
1
40
1
40
1
40
1
41
1
10
19.5285036782171
20
12.2463369799747
30
0
41
1
10
19.7124769041147
20
12.0568940255155
30
0
41
1
10
19.8944352804083
20
11.8653918946483
30
0
41
1
10
20.0743205104514
20
11.6718871441841
30
0
0
SPLINE
5
10B
100
AcDbEntity
8
1
62
256
6
ByLayer
370
18
48
1
60
0
100
AcDbSpline
70
4
71
3
72
8
73
4
40
0
40
0
40
0
40
0
40
1
40
1
40
1
40
1
41
1
10
18.6477578227461
20
14
30
0
41
1
10
18.6482117512003
20
14
30
0
41
1
10
18.6486754228984
20
14
30
0
41
1
10
18.6491487510577
20
14
30
0
0
SPLINE
5
10C
100
AcDbEntity
8
1
62
256
6
ByLayer
370
18
48
1
60
0
100
AcDbSpline
70
4
71
3
72
8
73
4
40
0
40
0
40
0
40
0
40
1
40
1
40
1
40
1
41
1
10
19.3538074068205
20
12.8488932196205
30
0
41
1
10
19.0781772492981
20
13.2991534138384
30
0
41
1
10
18.8625552192838
20
13.6513863406872
30
0
41
1
10
18.6503790143607
20
13.9979902830708
30
0
0
SPLINE
5
10D
100
AcDbEntity
8
1
62
256
6
ByLayer
370
18
48
1
60
0
100
AcDbSpline
70
4
71
3
72
8
73
4
40
0
40
0
40
0
40
0
40
1
40
1
40
1
40
1
41
1
10
16.5656785867828
20
3.53269393036925
30
0
41
1
10
15.5030132166789
20
4.85592782610536
30
0
41
1
10
14.5396382381095
20
6.24452561891292
30
0
41
1
10
13.6742836932909
20
7.6983824314475
30
0
0
SPLINE
5
10E
100
AcDbEntity
8
1
62
256
6
ByLayer
370
18
48
1
60
0
100
AcDbSpline
70
4
71
3
72
18
73
14
40
0
40
0
40
0
40
0
40
0.0188622922077072
40
0.0188622922077072
40
0.241316415926922
40
0.241316415926922
40
0.463358205733978
40
0.463358205733978
40
0.686485368270178
40
0.686485368270178
40
0.911655851003167
40
0.911655851003167
40
1
40
1
40
1
40
1
41
1
10
19.5843825123569
20
3.15224356960368
30
0
41
1
10
19.566726539755
20
3.13982823712934
30
0
41
1
10
19.5488949633356
20
3.12765747587818
30
0
41
1
10
19.321493617591
20
2.97705302666302
30
0
41
1
10
19.0860324941177
20
2.87139414921845
30
0
41
1
10
18.6021082344505
20
2.74369881182176
30
0
41
1
10
18.3470525672073
20
2.71977322131437
30
0
41
1
10
17.8514638208187
20
2.75553125440317
30
0
41
1
10
17.6041479040026
20
2.81612361588267
30
0
41
1
10
17.1512253605375
20
3.01279994037094
30
0
41
1
10
16.9396598183383
20
3.15231038493059
30
0
41
1
10
16.6915249244933
20
3.38659733925766
30
0
41
1
10
16.625897344187
20
3.45770936495657
30
0
41
1
10
16.5656785867828
20
3.53269393036925
30
0
0
SPLINE
5
10F
100
AcDbEntity
8
1
62
256
6
ByLayer
370
18
48
1
60
0
100
AcDbSpline
70
4
71
3
72
10
73
6
40
0
40
0
40
0
40
0
40
0.699059121387091
40
0.699059121387091
40
1
40
1
40
1
40
1
41
1
10
8.38516881908913
20
-5.6879825548024
30
0
41
1
10
8.31031824959874
20
-5.78985018164039
30
0
41
1
10
8.23696946791705
20
-5.89191279942958
30
0
41
1
10
8.13438929025938
20
-6.0370917218971
30
0
41
1
10
8.10369358434707
20
-6.08085890105801
30
0
41
1
10
8.0732801685364
20
-6.12450226634246
30
0
0
SPLINE
5
110
100
AcDbEntity
8
1
62
256
6
ByLayer
370
18
48
1
60
0
100
AcDbSpline
70
4
71
3
72
8
73
4
40
0
40
0
40
0
40
0
40
1
40
1
40
1
40
1
41
1
10
9.13801844268698
20
-4.7339551796772
30
0
41
1
10
9.3037592486489
20
-4.74951250464366
30
0
41
1
10
9.47566315910021
20
-4.76677780746576
30
0
41
1
10
9.65117897324583
20
-4.78615810877568
30
0
0
SPLINE
5
111
100
AcDbEntity
8
1
62
256
6
ByLayer
370
18
48
1
60
0
100
AcDbSpline
70
4
71
3
72
8
73
4
40
0
40
0
40
0
40
0
40
1
40
1
40
1
40
1
41
1
10
10.4580533646128
20
-7.93922634204236
30
0
41
1
10
10.5586690754339
20
-7.79484242120751
30
0
41
1
10
10.6627557480601
20
-7.64858141454192
30
0
41
1
10
10.7699420151655
20
-7.50270663050233
30
0
0
SPLINE
5
112
100
AcDbEntity
8
1
62
256
6
ByLayer
370
18
48
1
60
0
100
AcDbSpline
70
4
71
3
72
8
73
4
40
0
40
0
40
0
40
0
40
1
40
1
40
1
40
1
41
1
10
8.7332976294993
20
-7.72713784752506
30
0
41
1
10
8.89903843546119
20
-7.74269517249152
30
0
41
1
10
9.0709423459125
20
-7.75996047531362
30
0
41
1
10
9.24645816005813
20
-7.77934077662354
30
0
0
SPLINE
5
113
100
AcDbEntity
8
1
62
256
6
ByLayer
370
18
48
1
60
0
100
AcDbSpline
70
4
71
3
72
8
73
4
40
0
40
0
40
0
40
0
40
1
40
1
40
1
40
1
41
1
10
11.5227916387633
20
-6.5486792553771
30
0
41
1
10
11.4512004781917
20
-6.38311952665495
30
0
41
1
10
11.3793444975829
20
-6.21522333322855
30
0
41
1
10
11.3087171900199
20
-6.04748330033752
30
0
0
SPLINE
5
114
100
AcDbEntity
8
1
62
256
6
ByLayer
370
18
48
1
60
0
100
AcDbSpline
70
4
71
3
72
10
73
6
40
0
40
0
40
0
40
0
40
0.699059121387092
40
0.699059121387092
40
1
40
1
40
1
40
1
41
1
10
11.0512434890693
20
-5.42229300043203
30
0
41
1
10
11.0055301867885
20
-5.30867093571371
30
0
41
1
10
10.9611072731998
20
-5.19680730062075
30
0
41
1
10
10.8993876944702
20
-5.03979460722857
30
0
41
1
10
10.8809730338727
20
-4.99273519486874
30
0
41
1
10
10.8627741778005
20
-4.9460436741945
30
0
0
SPLINE
5
115
100
AcDbEntity
8
1
62
256
6
ByLayer
370
18
48
1
60
0
100
AcDbSpline
70
4
71
3
72
8
73
4
40
0
40
0
40
0
40
0
40
1
40
1
40
1
40
1
41
1
10
9.13801844268701
20
-4.7339551796772
30
0
41
1
10
9.02601825282051
20
-4.86724740560786
30
0
41
1
10
8.91287662680583
20
-5.00468633267218
30
0
41
1
10
8.8005246546596
20
-5.14552826241518
30
0
0
SPLINE
5
116
100
AcDbEntity
8
1
62
256
6
ByLayer
370
18
48
1
60
0
100
AcDbSpline
70
4
71
3
72
10
73
6
40
0
40
0
40
0
40
0
40
0.699059121387081
40
0.699059121387081
40
1
40
1
40
1
40
1
41
1
10
11.1852978507359
20
-6.96025233811511
30
0
41
1
10
11.2637557476813
20
-6.86189926608375
30
0
41
1
10
11.3426031361405
20
-6.76519384281627
30
0
41
1
10
11.4550148351828
20
-6.62959359629943
30
0
41
1
10
11.4889370019727
20
-6.58896990043118
30
0
41
1
10
11.5227916387633
20
-6.5486792553771
30
0
0
SPLINE
5
117
100
AcDbEntity
8
1
62
256
6
ByLayer
370
18
48
1
60
0
100
AcDbSpline
70
4
71
3
72
8
73
4
40
0
40
0
40
0
40
0
40
1
40
1
40
1
40
1
41
1
10
9.91928769657926
20
-7.86207678414183
30
0
41
1
10
10.0988483622273
20
-7.88634550187837
30
0
41
1
10
10.2804737479205
20
-7.91255267690639
30
0
41
1
10
10.4580533646128
20
-7.93922634204236
30
0
0
SPLINE
5
118
100
AcDbEntity
8
1
62
256
6
ByLayer
370
18
48
1
60
0
100
AcDbSpline
70
4
71
3
72
10
73
6
40
0
40
0
40
0
40
0
40
0.699059121387095
40
0.699059121387095
40
1
40
1
40
1
40
1
41
1
10
8.5192231807558
20
-7.22594189248548
30
0
41
1
10
8.56854381049158
20
-7.34307851201046
30
0
41
1
10
8.61846533085767
20
-7.46029934162507
30
0
41
1
10
8.69001643097198
20
-7.62689071096796
30
0
41
1
10
8.71165755244706
20
-7.67709360662042
30
0
41
1
10
8.7332976294993
20
-7.72713784752506
30
0
0
SPLINE
5
119
100
AcDbEntity
8
1
62
256
6
ByLayer
370
18
48
1
60
0
100
AcDbSpline
70
4
71
3
72
8
73
4
40
0
40
0
40
0
40
0
40
1
40
1
40
1
40
1
41
1
10
10.3240085097669
20
-4.86889411629394
30
0
41
1
10
10.503569175415
20
-4.89316283403051
30
0
41
1
10
10.6851945611082
20
-4.91937000905853
30
0
41
1
10
10.8627741778005
20
-4.9460436741945
30
0
0
SPLINE
5
11A
100
AcDbEntity
8
1
62
256
6
ByLayer
370
18
48
1
60
0
100
AcDbSpline
70
4
71
3
72
8
73
4
40
0
40
0
40
0
40
0
40
1
40
1
40
1
40
1
41
1
10
8.0732801685364
20
-6.12450226634246
30
0
41
1
10
8.13348685006272
20
-6.27897030016038
30
0
41
1
10
8.196287877283
20
-6.43804441398555
30
0
41
1
10
8.26174947980519
20
-6.60075159258
30
0
0
LINE
5
76
100
AcDbEntity
8
80
62
256
6
ByLayer
370
18
48
1
60
0
100
AcDbLine
10
0
20
0
30
0
11
-5
21
0
31
0
39
0
210
0
220
0
230
1
0
LINE
5
77
100
AcDbEntity
8
1
62
256
6
ByLayer
370
18
48
1
60
0
100
AcDbLine
10
16.967136
20
2.935603
30
0
11
17.84925
21
2.769995
31
0
39
0
210
0
220
0
230
1
0
LINE
5
79
100
AcDbEntity
8
1
62
256
6
ByLayer
370
18
48
1
60
0
100
AcDbLine
10
20.490442
20
-13.377127
30
0
11
21.206371
21
-14.074644
31
0
39
0
210
0
220
0
230
1
0
LINE
5
7A
100
AcDbEntity
8
1
62
256
6
ByLayer
370
18
48
1
60
0
100
AcDbLine
10
28.765512
20
-2.208038
30
0
11
28.049584
21
-1.510521
31
0
39
0
210
0
220
0
230
1
0
LINE
5
7B
100
AcDbEntity
8
81
62
256
6
ByLayer
370
18
48
1
60
0
100
AcDbLine
10
36
20
-15
30
0
11
41
21
-15
31
0
39
0
210
0
220
0
230
1
0
LINE
5
7C
100
AcDbEntity
8
SK1
62
256
6
ByLayer
370
18
48
1
60
0
100
AcDbLine
10
-69
20
7
30
0
11
-69
21
-6.925
31
0
39
0
210
0
220
0
230
1
0
LINE
5
7E
100
AcDbEntity
8
SK1
62
256
6
ByLayer
370
18
48
1
60
0
100
AcDbLine
10
0
20
-9.925
30
0
11
0
21
10.57399
31
0
39
0
210
0
220
0
230
1
0
LINE
5
7F
100
AcDbEntity
8
SK1
62
256
6
ByLayer
370
18
48
1
60
0
100
AcDbLine
10
-69
20
7
30
0
11
-66
21
10
31
0
39
0
210
0
220
0
230
1
0
LINE
5
80
100
AcDbEntity
8
SK1
62
256
6
ByLayer
370
18
48
1
60
0
100
AcDbLine
10
-1.227723
20
10
30
0
11
-66
21
10
31
0
39
0
210
0
220
0
230
1
0
LINE
5
81
100
AcDbEntity
8
SK1
62
256
6
ByLayer
370
18
48
1
60
0
100
AcDbLine
10
-69
20
-6.925
30
0
11
-66
21
-9.925
31
0
39
0
210
0
220
0
230
1
0
LINE
5
82
100
AcDbEntity
8
SK1
62
256
6
ByLayer
370
18
48
1
60
0
100
AcDbLine
10
0
20
-9.925
30
0
11
-66
21
-9.925
31
0
39
0
210
0
220
0
230
1
0
LINE
5
83
100
AcDbEntity
8
1
62
256
6
ByLayer
370
18
48
1
60
0
100
AcDbLine
10
0
20
-9.925
30
0
11
0
21
10.57399
31
0
39
0
210
0
220
0
230
1
0
LINE
5
84
100
AcDbEntity
8
1
62
256
6
ByLayer
370
18
48
1
60
0
100
AcDbLine
10
20.136857
20
-12.404896
30
0
11
18.204383
21
-9.248072
31
0
39
0
210
0
220
0
230
1
0
LINE
5
85
100
AcDbEntity
8
1
62
256
6
ByLayer
370
18
48
1
60
0
100
AcDbLine
10
3.317758
20
-11.11089
30
0
11
3.429876
21
-11.52932
31
0
39
0
210
0
220
0
230
1
0
LINE
5
86
100
AcDbEntity
8
1
62
256
6
ByLayer
370
18
48
1
60
0
100
AcDbLine
10
17.460189
20
2.402819
30
0
11
19.462106
21
-0.867445
31
0
39
0
210
0
220
0
230
1
0
LINE
5
87
100
AcDbEntity
8
1
62
256
6
ByLayer
370
18
48
1
60
0
100
AcDbLine
10
15.676083
20
-5.117925
30
0
11
13.405772
21
-1.409222
31
0
39
0
210
0
220
0
230
1
0
LINE
5
88
100
AcDbEntity
8
1
62
256
6
ByLayer
370
18
48
1
60
0
100
AcDbLine
10
19.469238
20
-0.794567
30
0
11
19.376136
21
-0.633259
31
0
39
0
210
0
220
0
230
1
0
LINE
5
89
100
AcDbEntity
8
1
62
256
6
ByLayer
370
18
48
1
60
0
100
AcDbLine
10
20.131025
20
-1.495436
30
0
11
18.257151
21
1.565663
31
0
39
0
210
0
220
0
230
1
0
LINE
5
8A
100
AcDbEntity
8
1
62
256
6
ByLayer
370
13
48
1
60
0
100
AcDbLine
10
15.318665
20
3.906326
30
0
11
16.565679
21
3.532694
31
0
39
0
210
0
220
0
230
1
0
LINE
5
8B
100
AcDbEntity
8
1
62
256
6
ByLayer
370
18
48
1
60
0
100
AcDbLine
10
19.519914
20
-0.797445
30
0
11
19.469238
21
-0.794567
31
0
39
0
210
0
220
0
230
1
0
LINE
5
8C
100
AcDbEntity
8
1
62
256
6
ByLayer
370
18
48
1
60
0
100
AcDbLine
10
20.131025
20
-1.495436
30
0
11
19.376136
21
-0.633259
31
0
39
0
210
0
220
0
230
1
0
LINE
5
8D
100
AcDbEntity
8
1
62
256
6
ByLayer
370
18
48
1
60
0
100
AcDbLine
10
1.071797
20
14
30
0
11
2.317758
21
14
31
0
39
0
210
0
220
0
230
1
0
LINE
5
8E
100
AcDbEntity
8
1
62
256
6
ByLayer
370
18
48
1
60
0
100
AcDbLine
10
20.136857
20
-12.404896
30
0
11
3.429876
21
-11.52932
31
0
39
0
210
0
220
0
230
1
0
LINE
5
8F
100
AcDbEntity
8
1
62
256
6
ByLayer
370
18
48
1
60
0
100
AcDbLine
10
2.317758
20
14
30
0
11
3.755507
21
14
31
0
39
0
210
0
220
0
230
1
0
LINE
5
90
100
AcDbEntity
8
1
62
256
6
ByLayer
370
13
48
1
60
0
100
AcDbLine
10
18.190676
20
1.674496
30
0
11
17.671411
21
2.259857
31
0
39
0
210
0
220
0
230
1
0
LINE
5
91
100
AcDbEntity
8
1
62
256
6
ByLayer
370
18
48
1
60
0
100
AcDbLine
10
3.045358
20
-10.555843
30
0
11
3.755507
21
14
31
0
39
0
210
0
220
0
230
1
0
LINE
5
92
100
AcDbEntity
8
1
62
256
6
ByLayer
370
18
48
1
60
0
100
AcDbLine
10
3.755507
20
14
30
0
11
10.903293
21
14
31
0
39
0
210
0
220
0
230
1
0
LINE
5
93
100
AcDbEntity
8
1
62
256
6
ByLayer
370
18
48
1
60
0
100
AcDbLine
10
18.647758
20
14
30
0
11
13.369906
21
14
31
0
39
0
210
0
220
0
230
1
0
LINE
5
94
100
AcDbEntity
8
1
62
256
6
ByLayer
370
18
48
1
60
0
100
AcDbLine
10
19.51559
20
-0.870287
30
0
11
19.469238
21
-0.794567
31
0
39
0
210
0
220
0
230
1
0
LINE
5
95
100
AcDbEntity
8
1
62
256
6
ByLayer
370
18
48
1
60
0
100
AcDbLine
10
13.059883
20
-0.111734
30
0
11
13.492233
21
-0.818007
31
0
39
0
210
0
220
0
230
1
0
LINE
5
96
100
AcDbEntity
8
1
62
256
6
ByLayer
370
13
48
1
60
0
100
AcDbLine
10
0.772277
20
-9.925
30
0
11
0.772277
21
12.882176
31
0
39
0
210
0
220
0
230
1
0
LINE
5
97
100
AcDbEntity
8
1
62
256
6
ByLayer
370
18
48
1
60
0
100
AcDbLine
10
26.543923
20
-0.810539
30
0
11
27.209267
21
-1.897422
31
0
39
0
210
0
220
0
230
1
0
LINE
5
98
100
AcDbEntity
8
1
62
256
6
ByLayer
370
13
48
1
60
0
100
AcDbLine
10
19.353807
20
12.848893
30
0
11
19.528504
21
12.246337
31
0
39
0
210
0
220
0
230
1
0
LINE
5
99
100
AcDbEntity
8
1
62
256
6
ByLayer
370
18
48
1
60
0
100
AcDbLine
10
1.772277
20
-9.925
30
0
11
0.772277
21
-9.925
31
0
39
0
210
0
220
0
230
1
0
LINE
5
9A
100
AcDbEntity
8
1
62
256
6
ByLayer
370
18
48
1
60
0
100
AcDbLine
10
0.772277
20
-9.925
30
0
11
0
21
-9.925
31
0
39
0
210
0
220
0
230
1
0
LINE
5
9B
100
AcDbEntity
8
1
62
256
6
ByLayer
370
18
48
1
60
0
100
AcDbLine
10
23.163738
20
6.625118
30
0
11
20.074321
21
11.671887
31
0
39
0
210
0
220
0
230
1
0
LINE
5
9C
100
AcDbEntity
8
1
62
256
6
ByLayer
370
18
48
1
60
0
100
AcDbLine
10
13.432158
20
-0.884878
30
0
11
13.061329
21
-0.279103
31
0
39
0
210
0
220
0
230
1
0
LINE
5
9D
100
AcDbEntity
8
1
62
256
6
ByLayer
370
13
48
1
60
0
100
AcDbLine
10
22.544204
20
-7.397464
30
0
11
22.437444
21
-8.187029
31
0
39
0
210
0
220
0
230
1
0
LINE
5
9E
100
AcDbEntity
8
1
62
256
6
ByLayer
370
18
48
1
60
0
100
AcDbLine
10
19.241977
20
-0.855919
30
0
11
17.151083
21
2.559696
31
0
39
0
210
0
220
0
230
1
0
LINE
5
9F
100
AcDbEntity
8
1
62
256
6
ByLayer
370
13
48
1
60
0
100
AcDbLine
10
12.246693
20
8.182401
30
0
11
13.674284
21
7.698382
31
0
39
0
210
0
220
0
230
1
0
LINE
5
A0
100
AcDbEntity
8
1
62
256
6
ByLayer
370
18
48
1
60
0
100
AcDbLine
10
1.071797
20
14
30
0
11
0.772277
21
12.882176
31
0
39
0
210
0
220
0
230
1
0
LINE
5
A1
100
AcDbEntity
8
1
62
256
6
ByLayer
370
18
48
1
60
0
100
AcDbLine
10
17.627931
20
-8.593483
30
0
11
15.997791
21
-5.930541
31
0
39
0
210
0
220
0
230
1
0
LINE
5
A2
100
AcDbEntity
8
1
62
256
6
ByLayer
370
18
48
1
60
0
100
AcDbLine
10
23.767824
20
5.638304
30
0
11
25.120417
21
3.428753
31
0
39
0
210
0
220
0
230
1
0
LINE
5
A3
100
AcDbEntity
8
1
62
256
6
ByLayer
370
18
48
1
60
0
100
AcDbLine
10
0.772277
20
12.882176
30
0
11
0.317758
21
11.18589
31
0
39
0
210
0
220
0
230
1
0
LINE
5
A4
100
AcDbEntity
8
1
62
256
6
ByLayer
370
18
48
1
60
0
100
AcDbLine
10
20.131025
20
-1.495436
30
0
11
27.209267
21
-1.897422
31
0
39
0
210
0
220
0
230
1
0
LINE
5
A5
100
AcDbEntity
8
1
62
256
6
ByLayer
370
13
48
1
60
0
100
AcDbLine
10
2.317758
20
14
30
0
11
2.317758
21
-10.020856
31
0
39
0
210
0
220
0
230
1
0
LINE
5
A6
100
AcDbEntity
8
1
62
256
6
ByLayer
370
13
48
1
60
0
100
AcDbLine
10
14.08656
20
-2.489743
30
0
11
14.038638
21
-2.443053
31
0
39
0
210
0
220
0
230
1
0
LINE
5
A7
100
AcDbEntity
8
1
62
256
6
ByLayer
370
18
48
1
60
0
100
AcDbLine
10
14.08656
20
-2.489743
30
0
11
21.086267
21
-13.92423
31
0
39
0
210
0
220
0
230
1
0
LINE
5
A8
100
AcDbEntity
8
1
62
256
6
ByLayer
370
18
48
1
60
0
100
AcDbLine
10
20.370338
20
-13.226713
30
0
11
19.858266
21
-12.390209
31
0
39
0
210
0
220
0
230
1
0
LINE
5
A9
100
AcDbEntity
8
1
62
256
6
ByLayer
370
13
48
1
60
0
100
AcDbLine
10
14.09575
20
-0.586244
30
0
11
14.811678
21
-1.28376
31
0
39
0
210
0
220
0
230
1
0
LINE
5
AA
100
AcDbEntity
8
1
62
256
6
ByLayer
370
13
48
1
60
0
100
AcDbLine
10
20.370338
20
-13.226713
30
0
11
21.086267
21
-13.92423
31
0
39
0
210
0
220
0
230
1
0
LINE
5
AB
100
AcDbEntity
8
1
62
256
6
ByLayer
370
18
48
1
60
0
100
AcDbLine
10
14.09575
20
-0.586244
30
0
11
19.587134
21
-0.874035
31
0
39
0
210
0
220
0
230
1
0
LINE
5
AC
100
AcDbEntity
8
1
62
256
6
ByLayer
370
18
48
1
60
0
100
AcDbLine
10
26.814542
20
-1.252808
30
0
11
27.546782
21
-1.291183
31
0
39
0
210
0
220
0
230
1
0
LINE
5
AD
100
AcDbEntity
8
1
62
256
6
ByLayer
370
18
48
1
60
0
100
AcDbLine
10
21.709172
20
-14.293982
30
0
11
35.160205
21
-14.998921
31
0
39
0
210
0
220
0
230
1
0
LINE
5
AE
100
AcDbEntity
8
1
62
256
6
ByLayer
370
13
48
1
60
0
100
AcDbLine
10
28.262711
20
-1.988699
30
0
11
27.546782
21
-1.291183
31
0
39
0
210
0
220
0
230
1
0
LINE
5
AF
100
AcDbEntity
8
1
62
256
6
ByLayer
370
18
48
1
60
0
100
AcDbLine
10
28.262711
20
-1.988699
30
0
11
14.811678
21
-1.28376
31
0
39
0
210
0
220
0
230
1
0
LINE
5
B0
100
AcDbEntity
8
1
62
256
6
ByLayer
370
18
48
1
60
0
100
AcDbLine
10
35.885323
20
-13.792938
30
0
11
28.885616
21
-2.358452
31
0
39
0
210
0
220
0
230
1
0
LINE
5
B1
100
AcDbEntity
8
1
62
256
6
ByLayer
370
18
48
1
60
0
100
AcDbLine
10
11.051243
20
-5.422293
30
0
11
10.624505
21
-5.006529
31
0
39
0
210
0
220
0
230
1
0
LINE
5
B2
100
AcDbEntity
8
1
62
256
6
ByLayer
370
18
48
1
60
0
100
AcDbLine
10
9.492549
20
-7.446313
30
0
11
10.018512
21
-7.510989
31
0
39
0
210
0
220
0
230
1
0
LINE
5
B3
100
AcDbEntity
8
1
62
256
6
ByLayer
370
18
48
1
60
0
100
AcDbLine
10
10.758559
20
-6.544489
30
0
11
11.083251
21
-6.120442
31
0
39
0
210
0
220
0
230
1
0
LINE
5
B4
100
AcDbEntity
8
1
62
256
6
ByLayer
370
18
48
1
60
0
100
AcDbLine
10
11.185298
20
-6.960252
30
0
11
10.758559
21
-6.544489
31
0
39
0
210
0
220
0
230
1
0
LINE
5
B5
100
AcDbEntity
8
1
62
256
6
ByLayer
370
18
48
1
60
0
100
AcDbLine
10
10.018512
20
-7.510989
30
0
11
10.343203
21
-7.086943
31
0
39
0
210
0
220
0
230
1
0
LINE
5
B6
100
AcDbEntity
8
1
62
256
6
ByLayer
370
18
48
1
60
0
100
AcDbLine
10
10.458053
20
-7.939226
30
0
11
10.018512
21
-7.510989
31
0
39
0
210
0
220
0
230
1
0
LINE
5
B7
100
AcDbEntity
8
1
62
256
6
ByLayer
370
18
48
1
60
0
100
AcDbLine
10
10.343203
20
-7.086943
30
0
11
10.769942
21
-7.502707
31
0
39
0
210
0
220
0
230
1
0
LINE
5
B8
100
AcDbEntity
8
1
62
256
6
ByLayer
370
18
48
1
60
0
100
AcDbLine
10
8.81972
20
-7.363577
30
0
11
9.246458
21
-7.779341
31
0
39
0
210
0
220
0
230
1
0
LINE
5
B9
100
AcDbEntity
8
1
62
256
6
ByLayer
370
18
48
1
60
0
100
AcDbLine
10
9.919288
20
-7.862077
30
0
11
9.492549
21
-7.446313
31
0
39
0
210
0
220
0
230
1
0
LINE
5
BA
100
AcDbEntity
8
1
62
256
6
ByLayer
370
18
48
1
60
0
100
AcDbLine
10
10.881979
20
-5.63172
30
0
11
11.308717
21
-6.047483
31
0
39
0
210
0
220
0
230
1
0
LINE
5
BB
100
AcDbEntity
8
1
62
256
6
ByLayer
370
18
48
1
60
0
100
AcDbLine
10
8.564422
20
-7.332184
30
0
11
8.81972
21
-7.363577
31
0
39
0
210
0
220
0
230
1
0
LINE
5
BC
100
AcDbEntity
8
1
62
256
6
ByLayer
370
18
48
1
60
0
100
AcDbLine
10
11.083251
20
-6.120442
30
0
11
10.881979
21
-5.63172
31
0
39
0
210
0
220
0
230
1
0
LINE
5
BD
100
AcDbEntity
8
1
62
256
6
ByLayer
370
18
48
1
60
0
100
AcDbLine
10
10.624505
20
-5.006529
30
0
11
10.582697
21
-4.905012
31
0
39
0
210
0
220
0
230
1
0
LINE
5
BE
100
AcDbEntity
8
1
62
256
6
ByLayer
370
18
48
1
60
0
100
AcDbLine
10
11.522792
20
-6.548679
30
0
11
11.083251
21
-6.120442
31
0
39
0
210
0
220
0
230
1
0
LINE
5
BF
100
AcDbEntity
8
SK2
62
256
6
ByLayer
370
13
48
1
60
0
100
AcDbLine
10
-83.60005
20
-10
30
0
11
-83.60005
21
10
31
0
39
0
210
0
220
0
230
1
0
LINE
5
C1
100
AcDbEntity
8
SK2
62
256
6
ByLayer
370
13
48
1
60
0
100
AcDbLine
10
-2
20
10
30
0
11
-85.60005
21
10
31
0
39
0
210
0
220
0
230
1
0
LINE
5
C2
100
AcDbEntity
8
SK2
62
256
6
ByLayer
370
13
48
1
60
0
100
AcDbLine
10
-2
20
-10
30
0
11
-85.60005
21
-10
31
0
39
0
210
0
220
0
230
1
0
LINE
5
C3
100
AcDbEntity
8
SK2
62
256
6
ByLayer
370
18
48
1
60
0
100
AcDbLine
10
-83.60005
20
10
30
0
11
-83.182053
21
6.825002
31
0
39
0
210
0
220
0
230
1
0
LINE
5
C4
100
AcDbEntity
8
SK2
62
256
6
ByLayer
370
18
48
1
60
0
100
AcDbLine
10
-83.60005
20
10
30
0
11
-84.018047
21
6.824998
31
0
39
0
210
0
220
0
230
1
0
LINE
5
C5
100
AcDbEntity
8
SK2
62
256
6
ByLayer
370
18
48
1
60
0
100
AcDbLine
10
-83.182053
20
6.825002
30
0
11
-84.018047
21
6.824998
31
0
39
0
210
0
220
0
230
1
0
LINE
5
C6
100
AcDbEntity
8
SK2
62
256
6
ByLayer
370
18
48
1
60
0
100
AcDbLine
10
-83.60005
20
-10
30
0
11
-84.018047
21
-6.825002
31
0
39
0
210
0
220
0
230
1
0
LINE
5
C7
100
AcDbEntity
8
SK2
62
256
6
ByLayer
370
18
48
1
60
0
100
AcDbLine
10
-83.60005
20
-10
30
0
11
-83.182053
21
-6.824998
31
0
39
0
210
0
220
0
230
1
0
LINE
5
C8
100
AcDbEntity
8
SK2
62
256
6
ByLayer
370
18
48
1
60
0
100
AcDbLine
10
-84.018047
20
-6.825002
30
0
11
-83.182053
21
-6.824998
31
0
39
0
210
0
220
0
230
1
0
MTEXT
5
11B
100
AcDbEntity
8
SK6
62
256
6
ByLayer
370
18
48
1
60
0
100
AcDbMText
10
-33.986867
20
-47.139223
30
0
210
0
220
0
230
1
1
\W0.7600;QS-PDJNL2020-15C
40
3.5
41
0
44
1.084337
50
0
71
7
72
5
7
iso_b_vert
0
MTEXT
5
11F
100
AcDbEntity
8
SK2
62
256
6
ByLayer
370
18
48
1
60
0
100
AcDbMText
10
-84.47505
20
-3.140789
30
0
210
0
220
0
230
1
1
\W0.7346;20.0
40
3.5
41
0
44
1.084337
50
89.9999999999999
71
7
72
5
7
iso_b_vert
0
DIMENSION
5
12D
100
AcDbEntity
8
2
62
256
6
ByLayer
370
13
48
1
60
0
100
AcDbDimension
2
DimnDraft3D1
10
36
20
-28.1
30
0
11
13.892105
21
-28.1
31
0
70
32
71
5
72
1
41
1
210
0
220
0
230
1
3
Standard
100
AcDbAlignedDimension
13
0
23
8
33
0
14
36
24
-17
34
0
50
0
100
AcDbRotatedDimension
1001
ACAD
1000
DSTYLE
1002
{
1070
   279
1070
     0
1070
   172
1070
     1
1070
   173
1070
     1
1070
   340
1005
11C
1070
   271
1070
     1
1070
    77
1070
     1
1070
    73
1070
     0
1070
   171
1070
     3
1070
   274
1070
     4
1070
   177
1070
     2
1070
   176
1070
     2
1070
   178
1070
     7
1070
    78
1070
     8
1070
    41
1041
3.175
1070
   147
1041
1.75
1070
    42
1041
2.0
1070
    44
1041
2.0
1070
   140
1041
3.5
1070
   343
1005
12E
1070
   344
1005
12E
1002
}
0
DIMENSION
5
142
100
AcDbEntity
8
2
62
256
6
ByLayer
370
13
48
1
60
0
100
AcDbDimension
2
DimnDraft3D2
10
34.828087
20
-15
30
0
11
34.828087
21
-6.607895
31
0
70
32
71
5
72
1
41
1
210
0
220
0
230
1
3
Standard
100
AcDbAlignedDimension
13
2
23
10
33
0
14
34
24
-15
34
0
50
90
100
AcDbRotatedDimension
1001
ACAD
1000
DSTYLE
1002
{
1070
    74
1070
     0
1070
   279
1070
     0
1070
   172
1070
     1
1070
   173
1070
     1
1070
   340
1005
11C
1070
   271
1070
     1
1070
    77
1070
     1
1070
    73
1070
     0
1070
   171
1070
     3
1070
   274
1070
     4
1070
   177
1070
     2
1070
   176
1070
     2
1070
   178
1070
     7
1070
    78
1070
     8
1070
    41
1041
3.175
1070
   147
1041
1.75
1070
    42
1041
2.0
1070
    44
1041
2.0
1070
   140
1041
3.5
1070
   343
1005
12E
1070
   344
1005
12E
1002
}
0
DIMENSION
5
150
100
AcDbEntity
8
2
62
256
6
ByLayer
370
13
48
1
60
0
100
AcDbDimension
2
DimnDraft3D3
10
35.737961
20
-10
30
0
11
42.472689
21
-8.791858
31
0
70
34
71
5
72
1
41
1
210
0
220
0
230
1
3
Standard
100
AcDb2LineAngularDimension
13
36
23
-15
33
0
14
41
24
-15
34
0
15
36
25
-15
35
0
16
40.108549
26
-10.670492
36
0
40
0
0
DIMENSION
5
15E
100
AcDbEntity
8
SK2
62
256
6
ByLayer
370
13
48
1
60
0
100
AcDbDimension
2
DimnDraft3D4
10
36
20
23.321295
30
0
11
-21.478289
21
23.321295
31
0
70
32
71
5
72
1
41
1
210
0
220
0
230
1
3
Standard
100
AcDbAlignedDimension
13
-69
23
12
33
0
14
36
24
-13
34
0
50
0
100
AcDbRotatedDimension
1001
ACAD
1000
DSTYLE
1002
{
1070
   279
1070
     0
1070
   172
1070
     1
1070
   173
1070
     1
1070
   340
1005
11C
1070
   271
1070
     1
1070
    77
1070
     1
1070
    73
1070
     0
1070
   171
1070
     3
1070
   274
1070
     4
1070
   177
1070
     2
1070
   176
1070
     2
1070
   178
1070
     7
1070
    78
1070
     8
1070
    41
1041
3.175
1070
   147
1041
1.75
1070
    42
1041
2.0
1070
    44
1041
2.0
1070
   140
1041
3.5
1070
   343
1005
12E
1070
   344
1005
12E
1002
}
0
DIMENSION
5
16C
100
AcDbEntity
8
SK2
62
256
6
ByLayer
370
13
48
1
60
0
100
AcDbDimension
2
DimnDraft3D5
10
-66
20
-28.1
30
0
11
-70.230921
21
-28.1
31
0
70
32
71
5
72
1
41
1
210
0
220
0
230
1
3
Standard
100
AcDbAlignedDimension
13
-69
23
8
33
0
14
-66
24
-12
34
0
50
0
100
AcDbRotatedDimension
1001
ACAD
1000
DSTYLE
1002
{
1070
   279
1070
     0
1070
   172
1070
     1
1070
   173
1070
     1
1070
   340
1005
11C
1070
    77
1070
     1
1070
    73
1070
     0
1070
   171
1070
     3
1070
   274
1070
     4
1070
   177
1070
     2
1070
   176
1070
     2
1070
   178
1070
     7
1070
    78
1070
     8
1070
    41
1041
3.175
1070
   147
1041
1.75
1070
    42
1041
2.0
1070
    44
1041
2.0
1070
   140
1041
3.5
1070
   343
1005
12E
1070
   344
1005
12E
1002
}
0
ENDSEC
0
SECTION
2
OBJECTS
0
DICTIONARY
5
1d6
330
0
100
AcDbDictionary
280
0
281
1
3
ACAD_GROUP
350
1d7
3
ACAD_MLINESTYLE
350
1d8
0
DICTIONARY
5
1d7
330
0
100
AcDbDictionary
280
0
281
1
0
DICTIONARY
5
1d8
330
0
100
AcDbDictionary
280
0
281
1
3
Standard
350
18
0
MLINESTYLE
5
18
330
1d8
100
AcDbMlineStyle
2
Standard
70
0
3

62
256
51
90
52
90
71
2
49
-0.5
62
256
6
ByLayer
49
0.5
62
256
6
ByLayer
0
RASTERVARIABLES
5
1c5
330

100
AcDbRasterVariables
90
0
70
1
71
1
72
1
0
ENDSEC
0
EOF
