0
SECTION
2
HEADER
9
$ACADVER
1
AC1015
9
$DWGCODEPAGE
3
ANSI_1252
9
$HANDSEED
5
2d6
9
$ANGBASE
50
0
9
$ANGDIR
70
0
9
$ATTMODE
70
1
9
$AUNITS
70
0
9
$AUPREC
70
0
9
$CECOLOR
62
256
9
$CELTSCALE
40
1
9
$CELTYPE
6
ByLayer
9
$CELWEIGHT
370
18
9
$CLAYER
8
0
9
$CMLJUST
70
0
9
$CMLSCALE
40
1
9
$CMLSTYLE
2
Standard
9
$DIMSTYLE
2
Standard
9
$TEXTSIZE
40
0.2
9
$TEXTSTYLE
7
Standard
9
$LUNITS
70
2
9
$LUPREC
70
4
9
$EXTNAMES
290
1
9
$INSUNITS
70
4
9
$LTSCALE
40
1
9
$LWDISPLAY
290
1
9
$PDMODE
70
0
9
$PDSIZE
40
0
9
$PLINEGEN
70
0
0
ENDSEC
0
SECTION
2
CLASSES
0
CLASS
1
RASTERVARIABLES
2
AcDbRasterVariables
3
ISM
90
0
280
0
281
0
0
ENDSEC
0
SECTION
2
TABLES
0
TABLE
2
VPORT
5
2cc
100
AcDbSymbolTable
0
VPORT
5
1
100
AcDbSymbolTableRecord
100
AcDbViewportTableRecord
2
*Active
70
0
10
0
20
0
11
1
21
1
12
-1
22
1
13
0
23
0
14
0.5
24
0.5
15
10
25
10
16
0
26
0
36
1
17
0
27
0
37
0
0
ENDTAB
0
TABLE
2
LTYPE
5
2cd
100
AcDbSymbolTable
0
LTYPE
5
14
100
AcDbSymbolTableRecord
100
AcDbLinetypeTableRecord
70
0
2
ByBlock
3

72
65
73
0
40
0
0
LTYPE
5
15
100
AcDbSymbolTableRecord
100
AcDbLinetypeTableRecord
70
0
2
ByLayer
3

72
65
73
0
40
0
0
LTYPE
5
16
100
AcDbSymbolTableRecord
100
AcDbLinetypeTableRecord
70
0
2
CONTINUOUS
3
Solid line
72
65
73
0
40
0
0
LTYPE
5
6A
100
AcDbSymbolTableRecord
100
AcDbLinetypeTableRecord
70
0
2
CENTER
3
____ _ ____ _ ____ _ ____
72
65
73
4
40
47.5
49
22
74
0
49
-8.5
74
0
49
8.5
74
0
49
-8.5
74
0
0
LTYPE
5
6B
100
AcDbSymbolTableRecord
100
AcDbLinetypeTableRecord
70
0
2
DASHED
3
__ __ __ __ __ __ __ __ __
72
65
73
2
40
25.72
49
12.86
74
0
49
-12.86
74
0
0
ENDTAB
0
TABLE
2
LAYER
5
2ce
100
AcDbSymbolTable
0
LAYER
5
10
100
AcDbSymbolTableRecord
100
AcDbLayerTableRecord
2
0
70
0
62
7
6
CONTINUOUS
290
1
370
-3
390
0
0
LAYER
5
6D
100
AcDbSymbolTableRecord
100
AcDbLayerTableRecord
2
80
70
0
62
-6
6
CONTINUOUS
290
1
370
-3
390
0
0
LAYER
5
71
100
AcDbSymbolTableRecord
100
AcDbLayerTableRecord
2
81
70
0
62
-3
6
CONTINUOUS
290
1
370
-3
390
0
0
LAYER
5
73
100
AcDbSymbolTableRecord
100
AcDbLayerTableRecord
2
2
70
0
62
7
6
CONTINUOUS
290
1
370
-3
390
0
0
LAYER
5
75
100
AcDbSymbolTableRecord
100
AcDbLayerTableRecord
2
3
70
0
62
1
6
DASHED
290
1
370
-3
390
0
0
LAYER
5
7F
100
AcDbSymbolTableRecord
100
AcDbLayerTableRecord
2
5
70
0
62
-7
6
CONTINUOUS
290
1
370
-3
390
0
0
LAYER
5
86
100
AcDbSymbolTableRecord
100
AcDbLayerTableRecord
2
4
70
0
62
-2
6
CENTER
290
1
370
-3
390
0
0
LAYER
5
8A
100
AcDbSymbolTableRecord
100
AcDbLayerTableRecord
2
1
70
0
62
4
6
CONTINUOUS
290
1
370
-3
390
0
0
LAYER
5
2b7
100
AcDbSymbolTableRecord
100
AcDbLayerTableRecord
2
2L
70
0
62
7
6
CONTINUOUS
290
1
370
-3
390
0
0
LAYER
5
2b8
100
AcDbSymbolTableRecord
100
AcDbLayerTableRecord
2
SK4
70
0
62
2
6
CENTER
290
1
370
-3
390
0
0
LAYER
5
2b9
100
AcDbSymbolTableRecord
100
AcDbLayerTableRecord
2
SK1
70
0
62
4
6
CONTINUOUS
290
1
370
-3
390
0
0
LAYER
5
2ba
100
AcDbSymbolTableRecord
100
AcDbLayerTableRecord
2
SK6
70
0
62
5
6
CONTINUOUS
290
1
370
-3
390
0
0
LAYER
5
2bb
100
AcDbSymbolTableRecord
100
AcDbLayerTableRecord
2
SK2
70
0
62
7
6
CONTINUOUS
290
1
370
-3
390
0
0
ENDTAB
0
TABLE
2
STYLE
5
2cf
100
AcDbSymbolTable
0
STYLE
5
11
100
AcDbSymbolTableRecord
100
AcDbTextStyleTableRecord
2
Standard
3
txt
70
0
71
0
40
0
41
1
42
0
50
0
0
STYLE
5
20D
100
AcDbSymbolTableRecord
100
AcDbTextStyleTableRecord
2
iso_b_vert
3
simplex.shx
70
0
71
0
40
0
41
1
42
0
50
0
0
STYLE
5
20E
100
AcDbSymbolTableRecord
100
AcDbTextStyleTableRecord
2
DWGDirectTextStyle
3
simplex
70
0
71
0
40
0
41
1
42
0
50
0
0
ENDTAB
0
TABLE
2
DIMSTYLE
5
2d0
100
AcDbSymbolTable
100
AcDbDimStyleTable
0
DIMSTYLE
105
27
100
AcDbSymbolTableRecord
100
AcDbDimStyleTableRecord
2
Standard
70
0
3
<>
41
0.18
42
0.0625
44
0.18
140
0.18
147
0.09
73
0
74
0
77
1
271
2
275
0
278
52
280
0
340
11
0
ENDTAB
0
TABLE
2
VIEW
5
2d1
100
AcDbSymbolTable
0
ENDTAB
0
TABLE
2
UCS
5
2d2
100
AcDbSymbolTable
0
ENDTAB
0
TABLE
2
APPID
5
2d3
100
AcDbSymbolTable
0
APPID
5
12
100
AcDbSymbolTableRecord
100
AcDbRegAppTableRecord
2
ACAD
70
0
0
ENDTAB
0
TABLE
2
BLOCK_RECORD
5
2d4
100
AcDbSymbolTable
0
BLOCK_RECORD
5
1F
100
AcDbSymbolTableRecord
100
AcDbBlockTableRecord
2
*Model_Space
340
0
70
0
0
BLOCK_RECORD
5
1B
100
AcDbSymbolTableRecord
100
AcDbBlockTableRecord
2
*Paper_Space
340
0
70
0
0
BLOCK_RECORD
5
23
100
AcDbSymbolTableRecord
100
AcDbBlockTableRecord
2
*Paper_Space0
340
0
70
0
0
BLOCK_RECORD
5
210
100
AcDbSymbolTableRecord
100
AcDbBlockTableRecord
2
DimnDraft3D1
340
0
70
0
0
BLOCK_RECORD
5
21E
100
AcDbSymbolTableRecord
100
AcDbBlockTableRecord
2
_CLOSED
340
0
70
0
0
BLOCK_RECORD
5
225
100
AcDbSymbolTableRecord
100
AcDbBlockTableRecord
2
DimnDraft3D2
340
0
70
0
0
BLOCK_RECORD
5
234
100
AcDbSymbolTableRecord
100
AcDbBlockTableRecord
2
DimnDraft3D3
340
0
70
0
0
BLOCK_RECORD
5
242
100
AcDbSymbolTableRecord
100
AcDbBlockTableRecord
2
DimnDraft3D4
340
0
70
0
0
BLOCK_RECORD
5
250
100
AcDbSymbolTableRecord
100
AcDbBlockTableRecord
2
DimnDraft3D5
340
0
70
0
0
ENDTAB
0
ENDSEC
0
SECTION
2
BLOCKS
0
BLOCK
5
20
100
AcDbEntity
8
0
100
AcDbBlockBegin
2
*Model_Space
70
0
10
0
20
0
30
0
3
*Model_Space
0
ENDBLK
5
21
100
AcDbEntity
8
0
100
AcDbBlockEnd
0
BLOCK
5
1C
100
AcDbEntity
8
0
100
AcDbBlockBegin
2
*Paper_Space
70
0
10
0
20
0
30
0
3
*Paper_Space
0
ENDBLK
5
1D
100
AcDbEntity
8
0
100
AcDbBlockEnd
0
BLOCK
5
24
100
AcDbEntity
8
0
100
AcDbBlockBegin
2
*Paper_Space0
70
0
10
0
20
0
30
0
3
*Paper_Space0
0
ENDBLK
5
25
100
AcDbEntity
8
0
100
AcDbBlockEnd
0
BLOCK
5
21B
100
AcDbEntity
8
0
100
AcDbBlockBegin
2
DimnDraft3D1
70
0
10
0
20
0
30
0
3
DimnDraft3D1
0
MTEXT
5
211
100
AcDbEntity
8
2
62
256
6
ByLayer
370
18
48
1
60
0
100
AcDbMText
10
89.457895
20
44.128981
30
0
210
0
220
0
230
1
1
\W0.6927;79
40
3
41
0
44
1.084337
50
0
71
7
72
5
7
iso_b_vert
0
LINE
5
212
100
AcDbEntity
8
2
62
256
6
ByLayer
370
13
48
1
60
0
100
AcDbLine
10
51
20
11.5875
30
0
11
51
21
45.378981
31
0
39
0
210
0
220
0
230
1
0
LINE
5
213
100
AcDbEntity
8
2
62
256
6
ByLayer
370
13
48
1
60
0
100
AcDbLine
10
130
20
26.5875
30
0
11
130
21
45.378981
31
0
39
0
210
0
220
0
230
1
0
LINE
5
214
100
AcDbEntity
8
2
62
256
6
ByLayer
370
13
48
1
60
0
100
AcDbLine
10
51
20
43.378981
30
0
11
130
21
43.378981
31
0
39
0
210
0
220
0
230
1
0
LINE
5
215
100
AcDbEntity
8
2
62
256
6
ByLayer
370
13
48
1
60
0
100
AcDbLine
10
51
20
43.378981
30
0
11
54.499998
21
43.839765
31
0
39
0
210
0
220
0
230
1
0
LINE
5
216
100
AcDbEntity
8
2
62
256
6
ByLayer
370
13
48
1
60
0
100
AcDbLine
10
51
20
43.378981
30
0
11
54.500002
21
42.918197
31
0
39
0
210
0
220
0
230
1
0
LINE
5
217
100
AcDbEntity
8
2
62
256
6
ByLayer
370
13
48
1
60
0
100
AcDbLine
10
54.499998
20
43.839765
30
0
11
54.500002
21
42.918197
31
0
39
0
210
0
220
0
230
1
0
LINE
5
218
100
AcDbEntity
8
2
62
256
6
ByLayer
370
13
48
1
60
0
100
AcDbLine
10
130
20
43.378981
30
0
11
126.500002
21
42.918197
31
0
39
0
210
0
220
0
230
1
0
LINE
5
219
100
AcDbEntity
8
2
62
256
6
ByLayer
370
13
48
1
60
0
100
AcDbLine
10
130
20
43.378981
30
0
11
126.499998
21
43.839765
31
0
39
0
210
0
220
0
230
1
0
LINE
5
21A
100
AcDbEntity
8
2
62
256
6
ByLayer
370
13
48
1
60
0
100
AcDbLine
10
126.500002
20
42.918197
30
0
11
126.499998
21
43.839765
31
0
39
0
210
0
220
0
230
1
0
ENDBLK
5
21C
100
AcDbEntity
8
0
100
AcDbBlockEnd
0
BLOCK
5
21F
100
AcDbEntity
8
0
100
AcDbBlockBegin
2
_CLOSED
70
0
10
0
20
0
30
0
3
_CLOSED
0
LINE
5
221
100
AcDbEntity
8
0
62
256
6
ByLayer
370
-2
48
1
60
0
100
AcDbLine
10
-1
20
0.166667
30
0
11
0
21
0
31
0
39
0
210
0
220
0
230
1
0
LINE
5
222
100
AcDbEntity
8
0
62
256
6
ByLayer
370
-2
48
1
60
0
100
AcDbLine
10
0
20
0
30
0
11
-1
21
-0.166667
31
0
39
0
210
0
220
0
230
1
0
LINE
5
223
100
AcDbEntity
8
0
62
256
6
ByLayer
370
-2
48
1
60
0
100
AcDbLine
10
-1
20
0.166667
30
0
11
-1
21
-0.166667
31
0
39
0
210
0
220
0
230
1
0
LINE
5
224
100
AcDbEntity
8
0
62
256
6
ByLayer
370
-2
48
1
60
0
100
AcDbLine
10
0
20
0
30
0
11
-1
21
0
31
0
39
0
210
0
220
0
230
1
0
ENDBLK
5
220
100
AcDbEntity
8
0
100
AcDbBlockEnd
0
BLOCK
5
231
100
AcDbEntity
8
0
100
AcDbBlockBegin
2
DimnDraft3D2
70
0
10
0
20
0
30
0
3
DimnDraft3D2
0
MTEXT
5
226
100
AcDbEntity
8
SK2
62
256
6
ByLayer
370
18
48
1
60
0
100
AcDbMText
10
63.211842
20
54.128981
30
0
210
0
220
0
230
1
1
\W0.6217;130
40
3
41
0
44
1.084337
50
0
71
7
72
5
7
iso_b_vert
0
LINE
5
228
100
AcDbEntity
8
SK2
62
256
6
ByLayer
370
13
48
1
60
0
100
AcDbLine
10
130
20
25.476956
30
0
11
130
21
54.332893
31
0
39
0
210
0
220
0
230
1
0
LINE
5
229
100
AcDbEntity
8
SK2
62
256
6
ByLayer
370
13
48
1
60
0
100
AcDbLine
10
0
20
0.476956
30
0
11
0
21
54.332893
31
0
39
0
210
0
220
0
230
1
0
LINE
5
22A
100
AcDbEntity
8
SK2
62
256
6
ByLayer
370
13
48
1
60
0
100
AcDbLine
10
130
20
53.378981
30
0
11
0
21
53.378981
31
0
39
0
210
0
220
0
230
1
0
LINE
5
22B
100
AcDbEntity
8
SK2
62
256
6
ByLayer
370
13
48
1
60
0
100
AcDbLine
10
130
20
53.378981
30
0
11
129.046088
21
53.253396
31
0
39
0
210
0
220
0
230
1
0
LINE
5
22C
100
AcDbEntity
8
SK2
62
256
6
ByLayer
370
13
48
1
60
0
100
AcDbLine
10
130
20
53.378981
30
0
11
129.046087
21
53.504566
31
0
39
0
210
0
220
0
230
1
0
LINE
5
22D
100
AcDbEntity
8
SK2
62
256
6
ByLayer
370
13
48
1
60
0
100
AcDbLine
10
129.046088
20
53.253396
30
0
11
129.046087
21
53.504566
31
0
39
0
210
0
220
0
230
1
0
LINE
5
22E
100
AcDbEntity
8
SK2
62
256
6
ByLayer
370
13
48
1
60
0
100
AcDbLine
10
0
20
53.378981
30
0
11
0.953912
21
53.504566
31
0
39
0
210
0
220
0
230
1
0
LINE
5
22F
100
AcDbEntity
8
SK2
62
256
6
ByLayer
370
13
48
1
60
0
100
AcDbLine
10
0
20
53.378981
30
0
11
0.953913
21
53.253396
31
0
39
0
210
0
220
0
230
1
0
LINE
5
230
100
AcDbEntity
8
SK2
62
256
6
ByLayer
370
13
48
1
60
0
100
AcDbLine
10
0.953912
20
53.504566
30
0
11
0.953913
21
53.253396
31
0
39
0
210
0
220
0
230
1
0
ENDBLK
5
232
100
AcDbEntity
8
0
100
AcDbBlockEnd
0
BLOCK
5
23F
100
AcDbEntity
8
0
100
AcDbBlockBegin
2
DimnDraft3D3
70
0
10
0
20
0
30
0
3
DimnDraft3D3
0
MTEXT
5
235
100
AcDbEntity
8
SK2
62
256
6
ByLayer
370
18
48
1
60
0
100
AcDbMText
10
127.078947
20
34.128981
30
0
210
0
220
0
230
1
1
\W0.5404;6
40
3
41
0
44
1.084337
50
0
71
7
72
5
7
iso_b_vert
0
LINE
5
236
100
AcDbEntity
8
SK2
62
256
6
ByLayer
370
13
48
1
60
0
100
AcDbLine
10
124
20
25.476956
30
0
11
124
21
34.332893
31
0
39
0
210
0
220
0
230
1
0
LINE
5
237
100
AcDbEntity
8
SK2
62
256
6
ByLayer
370
13
48
1
60
0
100
AcDbLine
10
130
20
25.476956
30
0
11
130
21
34.332893
31
0
39
0
210
0
220
0
230
1
0
LINE
5
238
100
AcDbEntity
8
SK2
62
256
6
ByLayer
370
13
48
1
60
0
100
AcDbLine
10
124
20
33.378981
30
0
11
130
21
33.378981
31
0
39
0
210
0
220
0
230
1
0
LINE
5
239
100
AcDbEntity
8
SK2
62
256
6
ByLayer
370
13
48
1
60
0
100
AcDbLine
10
124
20
33.378981
30
0
11
124.953912
21
33.504566
31
0
39
0
210
0
220
0
230
1
0
LINE
5
23A
100
AcDbEntity
8
SK2
62
256
6
ByLayer
370
13
48
1
60
0
100
AcDbLine
10
124
20
33.378981
30
0
11
124.953913
21
33.253396
31
0
39
0
210
0
220
0
230
1
0
LINE
5
23B
100
AcDbEntity
8
SK2
62
256
6
ByLayer
370
13
48
1
60
0
100
AcDbLine
10
124.953912
20
33.504566
30
0
11
124.953913
21
33.253396
31
0
39
0
210
0
220
0
230
1
0
LINE
5
23C
100
AcDbEntity
8
SK2
62
256
6
ByLayer
370
13
48
1
60
0
100
AcDbLine
10
130
20
33.378981
30
0
11
129.046088
21
33.253396
31
0
39
0
210
0
220
0
230
1
0
LINE
5
23D
100
AcDbEntity
8
SK2
62
256
6
ByLayer
370
13
48
1
60
0
100
AcDbLine
10
130
20
33.378981
30
0
11
129.046087
21
33.504566
31
0
39
0
210
0
220
0
230
1
0
LINE
5
23E
100
AcDbEntity
8
SK2
62
256
6
ByLayer
370
13
48
1
60
0
100
AcDbLine
10
129.046088
20
33.253396
30
0
11
129.046087
21
33.504566
31
0
39
0
210
0
220
0
230
1
0
ENDBLK
5
240
100
AcDbEntity
8
0
100
AcDbBlockEnd
0
BLOCK
5
24D
100
AcDbEntity
8
0
100
AcDbBlockBegin
2
DimnDraft3D4
70
0
10
0
20
0
30
0
3
DimnDraft3D4
0
MTEXT
5
243
100
AcDbEntity
8
SK2
62
256
6
ByLayer
370
18
48
1
60
0
100
AcDbMText
10
-19.1
20
-1.042105
30
0
210
0
220
0
230
1
1
\W0.6740;20
40
3
41
0
44
1.084337
50
90
71
7
72
5
7
iso_b_vert
0
LINE
5
244
100
AcDbEntity
8
SK2
62
256
6
ByLayer
370
13
48
1
60
0
100
AcDbLine
10
49.4125
20
10
30
0
11
-20.35
21
10
31
0
39
0
210
0
220
0
230
1
0
LINE
5
245
100
AcDbEntity
8
SK2
62
256
6
ByLayer
370
13
48
1
60
0
100
AcDbLine
10
49.4125
20
-10
30
0
11
-20.35
21
-10
31
0
39
0
210
0
220
0
230
1
0
LINE
5
246
100
AcDbEntity
8
SK2
62
256
6
ByLayer
370
13
48
1
60
0
100
AcDbLine
10
-18.35
20
10
30
0
11
-18.35
21
-10
31
0
39
0
210
0
220
0
230
1
0
LINE
5
247
100
AcDbEntity
8
SK2
62
256
6
ByLayer
370
13
48
1
60
0
100
AcDbLine
10
-18.35
20
10
30
0
11
-17.889216
21
6.500002
31
0
39
0
210
0
220
0
230
1
0
LINE
5
248
100
AcDbEntity
8
SK2
62
256
6
ByLayer
370
13
48
1
60
0
100
AcDbLine
10
-18.35
20
10
30
0
11
-18.810784
21
6.499998
31
0
39
0
210
0
220
0
230
1
0
LINE
5
249
100
AcDbEntity
8
SK2
62
256
6
ByLayer
370
13
48
1
60
0
100
AcDbLine
10
-17.889216
20
6.500002
30
0
11
-18.810784
21
6.499998
31
0
39
0
210
0
220
0
230
1
0
LINE
5
24A
100
AcDbEntity
8
SK2
62
256
6
ByLayer
370
13
48
1
60
0
100
AcDbLine
10
-18.35
20
-10
30
0
11
-18.810784
21
-6.500002
31
0
39
0
210
0
220
0
230
1
0
LINE
5
24B
100
AcDbEntity
8
SK2
62
256
6
ByLayer
370
13
48
1
60
0
100
AcDbLine
10
-18.35
20
-10
30
0
11
-17.889216
21
-6.499998
31
0
39
0
210
0
220
0
230
1
0
LINE
5
24C
100
AcDbEntity
8
SK2
62
256
6
ByLayer
370
13
48
1
60
0
100
AcDbLine
10
-18.810784
20
-6.500002
30
0
11
-17.889216
21
-6.499998
31
0
39
0
210
0
220
0
230
1
0
ENDBLK
5
24E
100
AcDbEntity
8
0
100
AcDbBlockEnd
0
BLOCK
5
25B
100
AcDbEntity
8
0
100
AcDbBlockBegin
2
DimnDraft3D5
70
0
10
0
20
0
30
0
3
DimnDraft3D5
0
MTEXT
5
251
100
AcDbEntity
8
2
62
256
6
ByLayer
370
18
48
1
60
0
100
AcDbMText
10
153.6
20
-1.042105
30
0
210
0
220
0
230
1
1
\W0.6740;50
40
3
41
0
44
1.084337
50
90
71
7
72
5
7
iso_b_vert
0
LINE
5
252
100
AcDbEntity
8
2
62
256
6
ByLayer
370
13
48
1
60
0
100
AcDbLine
10
131.5875
20
25
30
0
11
156.35
21
25
31
0
39
0
210
0
220
0
230
1
0
LINE
5
253
100
AcDbEntity
8
2
62
256
6
ByLayer
370
13
48
1
60
0
100
AcDbLine
10
131.5875
20
-25
30
0
11
156.35
21
-25
31
0
39
0
210
0
220
0
230
1
0
LINE
5
254
100
AcDbEntity
8
2
62
256
6
ByLayer
370
13
48
1
60
0
100
AcDbLine
10
154.35
20
25
30
0
11
154.35
21
-25
31
0
39
0
210
0
220
0
230
1
0
LINE
5
255
100
AcDbEntity
8
2
62
256
6
ByLayer
370
13
48
1
60
0
100
AcDbLine
10
154.35
20
25
30
0
11
154.810784
21
21.500002
31
0
39
0
210
0
220
0
230
1
0
LINE
5
256
100
AcDbEntity
8
2
62
256
6
ByLayer
370
13
48
1
60
0
100
AcDbLine
10
154.35
20
25
30
0
11
153.889216
21
21.499998
31
0
39
0
210
0
220
0
230
1
0
LINE
5
257
100
AcDbEntity
8
2
62
256
6
ByLayer
370
13
48
1
60
0
100
AcDbLine
10
154.810784
20
21.500002
30
0
11
153.889216
21
21.499998
31
0
39
0
210
0
220
0
230
1
0
LINE
5
258
100
AcDbEntity
8
2
62
256
6
ByLayer
370
13
48
1
60
0
100
AcDbLine
10
154.35
20
-25
30
0
11
153.889216
21
-21.500002
31
0
39
0
210
0
220
0
230
1
0
LINE
5
259
100
AcDbEntity
8
2
62
256
6
ByLayer
370
13
48
1
60
0
100
AcDbLine
10
154.35
20
-25
30
0
11
154.810784
21
-21.499998
31
0
39
0
210
0
220
0
230
1
0
LINE
5
25A
100
AcDbEntity
8
2
62
256
6
ByLayer
370
13
48
1
60
0
100
AcDbLine
10
153.889216
20
-21.500002
30
0
11
154.810784
21
-21.499998
31
0
39
0
210
0
220
0
230
1
0
ENDBLK
5
25C
100
AcDbEntity
8
0
100
AcDbBlockEnd
0
ENDSEC
0
SECTION
2
ENTITIES
0
ARC
5
139
100
AcDbEntity
8
1
62
256
6
ByLayer
370
18
48
1
60
0
100
AcDbCircle
39
0
10
-123.6
20
-10.55
30
0
40
0.8
210
0
220
0
230
-1
100
AcDbArc
50
90
51
180
0
ARC
5
13A
100
AcDbEntity
8
1
62
256
6
ByLayer
370
18
48
1
60
0
100
AcDbCircle
39
0
10
-123.6
20
10.55
30
0
40
0.8
210
0
220
0
230
-1
100
AcDbArc
50
237.204827
51
270
0
ARC
5
13B
100
AcDbEntity
8
1
62
256
6
ByLayer
370
18
48
1
60
0
100
AcDbCircle
39
0
10
-99.684936
20
10.55
30
0
40
0.8
210
0
220
0
230
-1
100
AcDbArc
50
270
51
309.208712
0
ARC
5
13C
100
AcDbEntity
8
1
62
256
6
ByLayer
370
18
48
1
60
0
100
AcDbCircle
39
0
10
-99.684936
20
-10.55
30
0
40
0.8
210
0
220
0
230
-1
100
AcDbArc
50
50.791288
51
90
0
ELLIPSE
5
13D
100
AcDbEntity
8
1
62
256
6
ByLayer
370
18
48
1
60
0
100
AcDbEllipse
10
127.437192
20
20.136334
30
0
11
-1.4502119577887
21
-0.4717099505911
31
0
210
0
220
0
230
1
40
0.96225
41
0
42
6.28318530717959
0
ELLIPSE
5
13E
100
AcDbEntity
8
1
62
256
6
ByLayer
370
18
48
1
60
0
100
AcDbEllipse
10
126.562808
20
9.568486
30
0
11
1.51459125294433
21
0.177871685505382
31
0
210
0
220
0
230
1
40
0.692126
41
2.95942804073948
42
0
0
ELLIPSE
5
13F
100
AcDbEntity
8
1
62
256
6
ByLayer
370
18
48
1
60
0
100
AcDbEllipse
10
126.562808
20
9.568486
30
0
11
1.51459125294433
21
0.177871685505382
31
0
210
0
220
0
230
1
40
0.692126
41
0
42
0.182161757770173
0
ELLIPSE
5
140
100
AcDbEntity
8
1
62
256
6
ByLayer
370
18
48
1
60
0
100
AcDbEllipse
10
127.435012
20
20.143037
30
0
11
0.98428976190767
21
0.320159596301192
31
0
210
0
220
0
230
1
40
0.96225
41
2.81562085774646
42
-2.42036689823652
0
ELLIPSE
5
141
100
AcDbEntity
8
1
62
256
6
ByLayer
370
18
48
1
60
0
100
AcDbEllipse
10
127.435012
20
20.143037
30
0
11
0.98428976190767
21
0.320159596301192
31
0
210
0
220
0
230
1
40
0.96225
41
-2.42036689823652
42
-1.37316934703992
0
ELLIPSE
5
142
100
AcDbEntity
8
1
62
256
6
ByLayer
370
18
48
1
60
0
100
AcDbEllipse
10
127.435012
20
20.143037
30
0
11
0.98428976190767
21
0.320159596301192
31
0
210
0
220
0
230
1
40
0.96225
41
-1.37316934703992
42
-0.32597179584333
0
ELLIPSE
5
143
100
AcDbEntity
8
1
62
256
6
ByLayer
370
18
48
1
60
0
100
AcDbEllipse
10
127.435012
20
20.143037
30
0
11
0.98428976190767
21
0.320159596301192
31
0
210
0
220
0
230
1
40
0.96225
41
-0.32597179584333
42
0.721225755353249
0
ELLIPSE
5
144
100
AcDbEntity
8
1
62
256
6
ByLayer
370
18
48
1
60
0
100
AcDbEllipse
10
127.435012
20
20.143037
30
0
11
0.98428976190767
21
0.320159596301192
31
0
210
0
220
0
230
1
40
0.96225
41
0.721225755353249
42
1.76842330654985
0
ELLIPSE
5
145
100
AcDbEntity
8
1
62
256
6
ByLayer
370
18
48
1
60
0
100
AcDbEllipse
10
127.435012
20
20.143037
30
0
11
0.98428976190767
21
0.320159596301192
31
0
210
0
220
0
230
1
40
0.96225
41
1.76842330654985
42
2.81562085774646
0
ELLIPSE
5
146
100
AcDbEntity
8
1
62
256
6
ByLayer
370
18
48
1
60
0
100
AcDbEllipse
10
126.051454
20
-18.760336
30
0
11
1.02913483598104
21
0.388434665510527
31
0
210
0
220
0
230
1
40
0.971166
41
0.350052783213765
42
2.16864191017854
0
ELLIPSE
5
147
100
AcDbEntity
8
1
62
256
6
ByLayer
370
18
48
1
60
0
100
AcDbEllipse
10
127.519198
20
19.884218
30
0
11
0.752398492460604
21
0.244732401906674
31
0
210
0
220
0
230
1
40
0.96225
41
1.24482453095159
42
2.29202208214817
0
ELLIPSE
5
148
100
AcDbEntity
8
1
62
256
6
ByLayer
370
18
48
1
60
0
100
AcDbEllipse
10
127.519198
20
19.884218
30
0
11
-0.752398492460604
21
-0.244732401906674
31
0
210
0
220
0
230
1
40
0.96225
41
-2.94396567383482
42
-1.89676812263822
0
ELLIPSE
5
149
100
AcDbEntity
8
1
62
256
6
ByLayer
370
18
48
1
60
0
100
AcDbEllipse
10
127.392689
20
20.273152
30
0
11
1.628929547093
21
0.529841360119014
31
0
210
0
220
0
230
1
40
0.96225
41
0
42
6.28318530717959
0
ELLIPSE
5
14A
100
AcDbEntity
8
1
62
256
6
ByLayer
370
18
48
1
60
0
100
AcDbEllipse
10
127
20
-13.212041
30
0
11
-1
21
1.22460635382238E-16
31
0
210
0
220
0
230
1
40
0.599026
41
-0.0457120970459709
42
2.94119502295628
0
ELLIPSE
5
14B
100
AcDbEntity
8
1
62
256
6
ByLayer
370
18
48
1
60
0
100
AcDbEllipse
10
127
20
-13.292114
30
0
11
-1.5
21
1.83690953073357E-16
31
0
210
0
220
0
230
1
40
0.599026
41
2.996245149096
42
3.05544443298073
0
ELLIPSE
5
14C
100
AcDbEntity
8
1
62
256
6
ByLayer
370
13
48
1
60
0
100
AcDbEllipse
10
127
20
-13.292114
30
0
11
-1.5
21
1.83690953073357E-16
31
0
210
0
220
0
230
1
40
0.599026
41
0
42
2.99624462103761
0
ELLIPSE
5
14D
100
AcDbEntity
8
1
62
256
6
ByLayer
370
18
48
1
60
0
100
AcDbEllipse
10
126.564988
20
9.54992
30
0
11
-1.02798536154756
21
-0.120725303660555
31
0
210
0
220
0
230
1
40
0.692126
41
-0.0584642500154804
42
0.988733301181126
0
ELLIPSE
5
14E
100
AcDbEntity
8
1
62
256
6
ByLayer
370
18
48
1
60
0
100
AcDbEllipse
10
126.564988
20
9.54992
30
0
11
-1.02798536154756
21
-0.120725303660555
31
0
210
0
220
0
230
1
40
0.692126
41
0.988733301181126
42
2.03593085237773
0
ELLIPSE
5
14F
100
AcDbEntity
8
1
62
256
6
ByLayer
370
18
48
1
60
0
100
AcDbEllipse
10
126.564988
20
9.54992
30
0
11
-1.02798536154756
21
-0.120725303660555
31
0
210
0
220
0
230
1
40
0.692126
41
2.03593085237773
42
3.08312840357432
0
ELLIPSE
5
150
100
AcDbEntity
8
1
62
256
6
ByLayer
370
18
48
1
60
0
100
AcDbEllipse
10
126.564988
20
9.54992
30
0
11
-1.02798536154756
21
-0.120725303660555
31
0
210
0
220
0
230
1
40
0.692126
41
3.08312840357432
42
-2.15285935240868
0
ELLIPSE
5
151
100
AcDbEntity
8
1
62
256
6
ByLayer
370
18
48
1
60
0
100
AcDbEllipse
10
126.564988
20
9.54992
30
0
11
-1.02798536154756
21
-0.120725303660555
31
0
210
0
220
0
230
1
40
0.692126
41
-2.15285935240868
42
-1.10566180121208
0
ELLIPSE
5
152
100
AcDbEntity
8
1
62
256
6
ByLayer
370
18
48
1
60
0
100
AcDbEllipse
10
126.564988
20
9.54992
30
0
11
-1.02798536154756
21
-0.120725303660555
31
0
210
0
220
0
230
1
40
0.692126
41
-1.10566180121208
42
-0.0584642500154804
0
ELLIPSE
5
153
100
AcDbEntity
8
1
62
256
6
ByLayer
370
13
48
1
60
0
100
AcDbEllipse
10
126.539617
20
9.765958
30
0
11
-1.64539861298663
21
-0.193233536804869
31
0
210
0
220
0
230
1
40
0.692126
41
2.58663450205963
42
2.95567340248765
0
ELLIPSE
5
154
100
AcDbEntity
8
1
62
256
6
ByLayer
370
13
48
1
60
0
100
AcDbEllipse
10
126.539617
20
9.765958
30
0
11
-1.64539861298663
21
-0.193233536804869
31
0
210
0
220
0
230
1
40
0.692126
41
0.186064749335018
42
0.555104063546784
0
ELLIPSE
5
155
100
AcDbEntity
8
1
62
256
6
ByLayer
370
18
48
1
60
0
100
AcDbEllipse
10
126.480802
20
10.26677
30
0
11
0.785799737265281
21
0.0922833295553171
31
0
210
0
220
0
230
1
40
0.692126
41
-1.62926057681039
42
-0.582063025613792
0
ELLIPSE
5
156
100
AcDbEntity
8
1
62
256
6
ByLayer
370
18
48
1
60
0
100
AcDbEllipse
10
126.480802
20
10.26677
30
0
11
0.785799737265281
21
0.0922833295553171
31
0
210
0
220
0
230
1
40
0.692126
41
-2.54894521677571
42
-1.62926057681037
0
ELLIPSE
5
157
100
AcDbEntity
8
1
62
256
6
ByLayer
370
18
48
1
60
0
100
AcDbEllipse
10
126.607311
20
9.189542
30
0
11
-1.70124265659179
21
-0.199791790817083
31
0
210
0
220
0
230
1
40
0.692126
41
0
42
6.28318530717959
0
ELLIPSE
5
158
100
AcDbEntity
8
1
62
256
6
ByLayer
370
13
48
1
60
0
100
AcDbEllipse
10
127.435012
20
20.143037
30
0
11
-1.04605452692956
21
-0.340249800426368
31
0
210
0
220
0
230
1
40
0.96225
41
0
42
6.28318530717959
0
ELLIPSE
5
159
100
AcDbEntity
8
1
62
256
6
ByLayer
370
13
48
1
60
0
100
AcDbEllipse
10
127.460383
20
20.065036
30
0
11
1.57545921333131
21
0.51244908283061
31
0
210
0
220
0
230
1
40
0.96225
41
-0.104906591470936
42
0
0
ELLIPSE
5
15A
100
AcDbEntity
8
1
62
256
6
ByLayer
370
13
48
1
60
0
100
AcDbEllipse
10
127.460383
20
20.065036
30
0
11
1.57545921333131
21
0.51244908283061
31
0
210
0
220
0
230
1
40
0.96225
41
0
42
2.81333834089169
0
ELLIPSE
5
15B
100
AcDbEntity
8
1
62
256
6
ByLayer
370
18
48
1
60
0
100
AcDbEllipse
10
127.460383
20
20.065036
30
0
11
1.57545921333131
21
0.51244908283061
31
0
210
0
220
0
230
1
40
0.96225
41
-0.183740648536976
42
-0.104906591470936
0
ELLIPSE
5
15C
100
AcDbEntity
8
1
62
256
6
ByLayer
370
18
48
1
60
0
100
AcDbEllipse
10
127.460383
20
20.065036
30
0
11
1.57545921333131
21
0.51244908283061
31
0
210
0
220
0
230
1
40
0.96225
41
2.8134366691035
42
-2.95776699514693
0
ELLIPSE
5
15D
100
AcDbEntity
8
1
62
256
6
ByLayer
370
13
48
1
60
0
100
AcDbEllipse
10
126.564988
20
9.54992
30
0
11
1.09249205130411
21
0.128300887905522
31
0
210
0
220
0
230
1
40
0.692126
41
0
42
6.28318530717959
0
ELLIPSE
5
15E
100
AcDbEntity
8
1
62
256
6
ByLayer
370
18
48
1
60
0
100
AcDbEllipse
10
126.026198
20
-18.693422
30
0
11
-0.748461698895304
21
-0.28249793855311
31
0
210
0
220
0
230
1
40
0.971166
41
-3.06603615095536
42
-0.475302011439375
0
ELLIPSE
5
15F
100
AcDbEntity
8
1
62
256
6
ByLayer
370
18
48
1
60
0
100
AcDbEllipse
10
127.519198
20
19.884218
30
0
11
-0.752398492460604
21
-0.244732401906674
31
0
210
0
220
0
230
1
40
0.96225
41
2.81264257902758
42
-2.94396567383482
0
ELLIPSE
5
160
100
AcDbEntity
8
1
62
256
6
ByLayer
370
18
48
1
60
0
100
AcDbEllipse
10
127.519198
20
19.884218
30
0
11
-0.752398492460604
21
-0.244732401906674
31
0
210
0
220
0
230
1
40
0.96225
41
0.249414270014974
42
0.743642600449175
0
ELLIPSE
5
161
100
AcDbEntity
8
1
62
256
6
ByLayer
370
18
48
1
60
0
100
AcDbEllipse
10
127.519198
20
19.884218
30
0
11
-0.752398492460604
21
-0.244732401906674
31
0
210
0
220
0
230
1
40
0.96225
41
-0.849570571441623
42
-0.118184547859149
0
ELLIPSE
5
162
100
AcDbEntity
8
1
62
256
6
ByLayer
370
13
48
1
60
0
100
AcDbEllipse
10
125.6
20
1.048151
30
0
11
0.1
21
0
31
0
210
0
220
0
230
1
40
0.063142
41
-2.91979715233652
42
-1.5707963267949
0
ELLIPSE
5
163
100
AcDbEntity
8
1
62
256
6
ByLayer
370
13
48
1
60
0
100
AcDbEllipse
10
127
20
1.041837
30
0
11
-1.4
21
1.71444889535133E-16
31
0
210
0
220
0
230
1
40
0.998005
41
0
42
0.72762203322749
0
ELLIPSE
5
164
100
AcDbEntity
8
1
62
256
6
ByLayer
370
13
48
1
60
0
100
AcDbEllipse
10
127
20
1.041837
30
0
11
-1.4
21
1.71444889535133E-16
31
0
210
0
220
0
230
1
40
0.998005
41
2.43443951577247
42
-3.14159265358979
0
ELLIPSE
5
165
100
AcDbEntity
8
1
62
256
6
ByLayer
370
13
48
1
60
0
100
AcDbEllipse
10
128.4
20
1.048151
30
0
11
-0.1
21
1.22460635382238E-17
31
0
210
0
220
0
230
1
40
0.063142
41
1.5707963267949
42
2.90410500271919
0
ELLIPSE
5
166
100
AcDbEntity
8
1
62
256
6
ByLayer
370
13
48
1
60
0
100
AcDbEllipse
10
127.474114
20
20.022822
30
0
11
-1.51617041243801
21
-0.493164234715974
31
0
210
0
220
0
230
1
40
0.96225
41
2.81333847748642
42
-2.51568598252973
0
ELLIPSE
5
167
100
AcDbEntity
8
1
62
256
6
ByLayer
370
13
48
1
60
0
100
AcDbEllipse
10
127.474114
20
20.022822
30
0
11
-1.51617041243801
21
-0.493164234715974
31
0
210
0
220
0
230
1
40
0.96225
41
-0.626017882996787
42
0
0
ELLIPSE
5
168
100
AcDbEntity
8
1
62
256
6
ByLayer
370
13
48
1
60
0
100
AcDbEllipse
10
127.474114
20
20.022822
30
0
11
-1.51617041243801
21
-0.493164234715974
31
0
210
0
220
0
230
1
40
0.96225
41
0
42
0.372320914048068
0
ELLIPSE
5
169
100
AcDbEntity
8
1
62
256
6
ByLayer
370
13
48
1
60
0
100
AcDbEllipse
10
127.474114
20
20.022822
30
0
11
-1.51617041243801
21
-0.493164234715974
31
0
210
0
220
0
230
1
40
0.96225
41
2.76935606639893
42
2.81333847748643
0
ELLIPSE
5
16A
100
AcDbEntity
8
1
62
256
6
ByLayer
370
13
48
1
60
0
100
AcDbEllipse
10
125.6
20
-13.292114
30
0
11
0.1
21
0
31
0
210
0
220
0
230
1
40
0.80073
41
1.5707963267949
42
3.14159265358979
0
ELLIPSE
5
16B
100
AcDbEntity
8
1
62
256
6
ByLayer
370
13
48
1
60
0
100
AcDbEllipse
10
127
20
-13.212041
30
0
11
1.4
21
0
31
0
210
0
220
0
230
1
40
0.599026
41
3.14159265358979
42
-0.178284841128735
0
ELLIPSE
5
16C
100
AcDbEntity
8
1
62
256
6
ByLayer
370
18
48
1
60
0
100
AcDbEllipse
10
127
20
1.041837
30
0
11
1
21
0
31
0
210
0
220
0
230
1
40
0.998005
41
0
42
6.28318530717959
0
ELLIPSE
5
16D
100
AcDbEntity
8
1
62
256
6
ByLayer
370
13
48
1
60
0
100
AcDbEllipse
10
126.525886
20
9.882879
30
0
11
1.5834778028952
21
0.18596163500469
31
0
210
0
220
0
230
1
40
0.692126
41
-2.94610273926892
42
-2.84566981287907
0
ELLIPSE
5
16E
100
AcDbEntity
8
1
62
256
6
ByLayer
370
13
48
1
60
0
100
AcDbEllipse
10
126.525886
20
9.882879
30
0
11
1.5834778028952
21
0.18596163500469
31
0
210
0
220
0
230
1
40
0.692126
41
-0.296169386936711
42
-0.195736265169503
0
ELLIPSE
5
16F
100
AcDbEntity
8
1
62
256
6
ByLayer
370
18
48
1
60
0
100
AcDbEllipse
10
128.428923
20
19.884218
30
0
11
0.00746902498669275
21
0.23343202016799
31
0
210
0
220
0
230
-1
40
0.519547
41
-0.0741929489826943
42
0.244002936546637
0
ELLIPSE
5
170
100
AcDbEntity
8
1
62
256
6
ByLayer
370
18
48
1
60
0
100
AcDbEllipse
10
126.721184
20
19.443249
30
0
11
0.116795397158426
21
-0.201548166212241
31
0
210
0
220
0
230
-1
40
0.522261
41
-1.18097936393791
42
-0.474890733661545
0
ELLIPSE
5
171
100
AcDbEntity
8
1
62
256
6
ByLayer
370
18
48
1
60
0
100
AcDbEllipse
10
126.609473
20
19.884218
30
0
11
0.00746902498669438
21
0.233432020167994
31
0
210
0
220
0
230
-1
40
0.519547
41
-1.50085871734306
42
0.040948555436694
0
ELLIPSE
5
172
100
AcDbEntity
8
1
62
256
6
ByLayer
370
18
48
1
60
0
100
AcDbEllipse
10
128.317211
20
20.325187
30
0
11
0.116795397156938
21
-0.201548166212116
31
0
210
0
220
0
230
-1
40
0.522261
41
0.226339607125732
42
1.58144022757413
0
ELLIPSE
5
173
100
AcDbEntity
8
1
62
256
6
ByLayer
370
18
48
1
60
0
100
AcDbEllipse
10
128.317211
20
20.325187
30
0
11
0.116795397157135
21
-0.201548166211497
31
0
210
0
220
0
230
-1
40
0.522261
41
1.58144022757769
42
1.96061391014186
0
ELLIPSE
5
174
100
AcDbEntity
8
1
62
256
6
ByLayer
370
18
48
1
60
0
100
AcDbEllipse
10
127.9919
20
20.648125
30
0
11
0.207364490802332
21
-0.114045397209409
31
0
210
0
220
0
230
-1
40
0.506002
41
3.10999728393257
42
-1.44884804006243
0
ELLIPSE
5
175
100
AcDbEntity
8
1
62
256
6
ByLayer
370
18
48
1
60
0
100
AcDbEllipse
10
126.74178
20
20.325187
30
0
11
0.127721475770059
21
0.20061659554018
31
0
210
0
220
0
230
-1
40
0.501052
41
0.190146085294749
42
1.54524670573914
0
ELLIPSE
5
176
100
AcDbEntity
8
1
62
256
6
ByLayer
370
18
48
1
60
0
100
AcDbEllipse
10
126.74178
20
20.325187
30
0
11
0.127721475768706
21
0.20061659554077
31
0
210
0
220
0
230
-1
40
0.501052
41
1.54524670575293
42
2.90034732619805
0
ELLIPSE
5
177
100
AcDbEntity
8
1
62
256
6
ByLayer
370
18
48
1
60
0
100
AcDbEllipse
10
127.082175
20
20.648125
30
0
11
0.211789244417281
21
0.115764204054173
31
0
210
0
220
0
230
-1
40
0.486462
41
-2.7164877511773
42
0.0481256022838618
0
ELLIPSE
5
178
100
AcDbEntity
8
1
62
256
6
ByLayer
370
18
48
1
60
0
100
AcDbEllipse
10
127.539794
20
20.766157
30
0
11
0.240794401289164
21
0.00176513383306993
31
0
210
0
220
0
230
-1
40
0.488736
41
0.230693404504656
42
1.5857940249561
0
ELLIPSE
5
179
100
AcDbEntity
8
1
62
256
6
ByLayer
370
18
48
1
60
0
100
AcDbEllipse
10
127.539794
20
20.766157
30
0
11
0.240794401289353
21
0.00176513383301485
31
0
210
0
220
0
230
-1
40
0.488736
41
1.58579402495521
42
2.94089464540544
0
ELLIPSE
5
17A
100
AcDbEntity
8
1
62
256
6
ByLayer
370
18
48
1
60
0
100
AcDbEllipse
10
127.278816
20
10.010689
30
0
11
0.139119953293345
21
0.140351960883226
31
0
210
0
220
0
230
-1
40
0.521954
41
-2.75507319215042
42
-1.8302582221369
0
ELLIPSE
5
17B
100
AcDbEntity
8
1
62
256
6
ByLayer
370
18
48
1
60
0
100
AcDbEllipse
10
126.04378
20
9.683848
30
0
11
0.218073824296347
21
-0.0536299501730466
31
0
210
0
220
0
230
-1
40
0.404183
41
0.112688091886655
42
2.27449611519031
0
ELLIPSE
5
17C
100
AcDbEntity
8
1
62
256
6
ByLayer
370
18
48
1
60
0
100
AcDbEllipse
10
126.953505
20
9.7535
30
0
11
0.212495901507232
21
0.0893976405105638
31
0
210
0
220
0
230
-1
40
0.383542
41
0.695932494655221
42
3.06174506422734
0
ELLIPSE
5
17D
100
AcDbEntity
8
1
62
256
6
ByLayer
370
18
48
1
60
0
100
AcDbEllipse
10
126.501399
20
9.633987
30
0
11
0.240695424115334
21
0.0199083469351376
31
0
210
0
220
0
230
-1
40
0.349455
41
-2.90841603782168
42
-1.55331541736855
0
ELLIPSE
5
17E
100
AcDbEntity
8
1
62
256
6
ByLayer
370
18
48
1
60
0
100
AcDbEllipse
10
127
20
1.130493
30
0
11
1.49979973955856
21
0.0259504893424042
31
0
210
0
220
0
230
-1
40
0.944492
41
1.29934084547963
42
-3.12525191115214
0
ELLIPSE
5
17F
100
AcDbEntity
8
1
62
256
6
ByLayer
370
18
48
1
60
0
100
AcDbEllipse
10
128.4
20
2.633459
30
0
11
0.0154565501034579
21
0.110709422552545
31
0
210
0
220
0
230
-1
40
0.892411
41
-0.155187654148153
42
1.41560867264619
0
ELLIPSE
5
180
100
AcDbEntity
8
1
62
256
6
ByLayer
370
18
48
1
60
0
100
AcDbEllipse
10
125.6
20
2.535906
30
0
11
0.015456550103718
21
0.110709422552298
31
0
210
0
220
0
230
-1
40
0.892411
41
-1.72598398094699
42
-0.155187654150591
0
ELLIPSE
5
181
100
AcDbEntity
8
1
62
256
6
ByLayer
370
18
48
1
60
0
100
AcDbEllipse
10
128.193345
20
-0.831974
30
0
11
1.09525709224488
21
0.203455407127581
31
0
210
0
220
0
230
-1
40
0.808483
41
-1.64216013375166
42
-2.18744392622483
0
ELLIPSE
5
182
100
AcDbEntity
8
1
62
256
6
ByLayer
370
18
48
1
60
0
100
AcDbEllipse
10
127
20
1.130493
30
0
11
1.49979973955378
21
0.0259504893629211
31
0
210
0
220
0
230
-1
40
0.944492
41
0.016340742450531
42
0.900268538166951
0
ELLIPSE
5
183
100
AcDbEntity
8
1
62
256
6
ByLayer
370
18
48
1
60
0
100
AcDbEllipse
10
-478.159454
20
-0.002633
30
0
11
1066.09167708766
21
16.6839264632336
31
0
210
0
220
0
230
-1
40
0.016256
41
0.965586596789702
42
0.969232550488711
0
ELLIPSE
5
184
100
AcDbEntity
8
1
62
256
6
ByLayer
370
18
48
1
60
0
100
AcDbEllipse
10
92.170464
20
-0.000121
30
0
11
284.817572489071
21
-23.0176417207312
31
0
210
0
220
0
230
-1
40
0.024632
41
1.44054976356566
42
1.4509705986081
0
ELLIPSE
5
185
100
AcDbEntity
8
1
62
256
6
ByLayer
370
18
48
1
60
0
100
AcDbEllipse
10
128.416267
20
0.010528
30
0
11
28.2864420275153
21
23.6576661798203
31
0
210
0
220
0
230
-1
40
0.158426
41
1.79947457728301
42
1.80519838093465
0
ELLIPSE
5
186
100
AcDbEntity
8
1
62
256
6
ByLayer
370
18
48
1
60
0
100
AcDbEllipse
10
125.199813
20
1.2E-05
30
0
11
1.78685944415098
21
24.0631418448254
31
0
210
0
220
0
230
-1
40
0.046263
41
1.98876961278675
42
2.03272837687576
0
ELLIPSE
5
187
100
AcDbEntity
8
1
62
256
6
ByLayer
370
18
48
1
60
0
100
AcDbEllipse
10
128.800187
20
-1.3E-05
30
0
11
1.84565209052037
21
-24.0631567114315
31
0
210
0
220
0
230
-1
40
0.042088
41
-2.21185805060611
42
-2.16789928113442
0
ELLIPSE
5
188
100
AcDbEntity
8
1
62
256
6
ByLayer
370
18
48
1
60
0
100
AcDbEllipse
10
125.587084
20
0.0015
30
0
11
27.275067706346
21
-21.6588189799321
31
0
210
0
220
0
230
-1
40
0.384276
41
-1.77008608785947
42
-1.76435890854259
0
ELLIPSE
5
189
100
AcDbEntity
8
1
62
256
6
ByLayer
370
18
48
1
60
0
100
AcDbEllipse
10
161.830119
20
-6.3E-05
30
0
11
284.818733490135
21
17.3707305039993
31
0
210
0
220
0
230
-1
40
0.058467
41
-1.68556424264258
42
-1.68506665067964
0
ELLIPSE
5
18A
100
AcDbEntity
8
1
62
256
6
ByLayer
370
18
48
1
60
0
100
AcDbEllipse
10
732.675192
20
-0.00557
30
0
11
1066.69232722428
21
-23.2555927528334
31
0
210
0
220
0
230
-1
40
0.005817
41
-2.17658555678025
42
-2.17294115575133
0
ELLIPSE
5
18B
100
AcDbEntity
8
1
62
256
6
ByLayer
370
18
48
1
60
0
100
AcDbEllipse
10
125.832356
20
-17.625562
30
0
11
0.318991802265856
21
-1.1809432412853
31
0
210
0
220
0
230
-1
40
0.898221
41
0
42
6.28318530717959
0
ELLIPSE
5
18C
100
AcDbEntity
8
1
62
256
6
ByLayer
370
18
48
1
60
0
100
AcDbEllipse
10
732.405715
20
-0.003235
30
0
11
1066.37850333351
21
7.10660585680258
31
0
210
0
220
0
230
-1
40
0.021556
41
2.17285360067038
42
2.17649881274377
0
ELLIPSE
5
18D
100
AcDbEntity
8
1
62
256
6
ByLayer
370
18
48
1
60
0
100
AcDbEllipse
10
127
20
-13.526277
30
0
11
0.0995416337020335
21
1.77031393025769
31
0
210
0
220
0
230
-1
40
0.84544
41
1.50438643412119
42
-1.63720621946861
0
ELLIPSE
5
18E
100
AcDbEntity
8
1
62
256
6
ByLayer
370
18
48
1
60
0
100
AcDbEllipse
10
128.800187
20
-1E-06
30
0
11
0.0784788839049725
21
24.0632656098633
31
0
210
0
220
0
230
-1
40
0.087428
41
-3.08364616992246
42
-3.03968737965661
0
ELLIPSE
5
18F
100
AcDbEntity
8
1
62
256
6
ByLayer
370
18
48
1
60
0
100
AcDbEllipse
10
125.587016
20
-0.001892
30
0
11
26.8601866183422
21
-12.5224056413065
31
0
210
0
220
0
230
-1
40
0.764925
41
1.12562928027996
42
1.13135639003261
0
ELLIPSE
5
190
100
AcDbEntity
8
1
62
256
6
ByLayer
370
18
48
1
60
0
100
AcDbEllipse
10
161.830081
20
7.9E-05
30
0
11
284.820040311124
21
5.42310094007781
31
0
210
0
220
0
230
-1
40
0.082313
41
1.69019963806319
42
1.70062039188793
0
ELLIPSE
5
191
100
AcDbEntity
8
1
62
256
6
ByLayer
370
18
48
1
60
0
100
AcDbEllipse
10
126.501399
20
9.633987
30
0
11
0.240695424115514
21
0.0199083469348346
31
0
210
0
220
0
230
-1
40
0.349455
41
-1.5533154173728
42
-0.19821479692038
0
POINT
5
6C
100
AcDbEntity
8
80
62
256
6
ByLayer
370
18
48
1
60
0
100
AcDbPoint
10
0
20
0
30
0
39
0
210
0
220
0
230
1
50
360
0
POINT
5
6E
100
AcDbEntity
8
2L
62
256
6
ByLayer
370
18
48
1
60
0
100
AcDbPoint
10
51
20
0
30
0
39
0
210
0
220
0
230
1
50
360
0
POINT
5
70
100
AcDbEntity
8
81
62
256
6
ByLayer
370
18
48
1
60
0
100
AcDbPoint
10
130
20
0
30
0
39
0
210
0
220
0
230
1
50
360
0
POINT
5
72
100
AcDbEntity
8
2
62
256
6
ByLayer
370
18
48
1
60
0
100
AcDbPoint
10
0
20
0
30
0
39
0
210
0
220
0
230
1
50
360
0
POINT
5
74
100
AcDbEntity
8
3
62
256
6
ByLayer
370
18
48
1
60
0
100
AcDbPoint
10
130
20
0
30
0
39
0
210
0
220
0
230
1
50
360
0
POINT
5
76
100
AcDbEntity
8
2
62
256
6
ByLayer
370
18
48
1
60
0
100
AcDbPoint
10
126.652426
20
11.58032
30
0
39
0
210
0
220
0
230
1
50
360
0
POINT
5
77
100
AcDbEntity
8
2
62
256
6
ByLayer
370
18
48
1
60
0
100
AcDbPoint
10
126.652426
20
11.58032
30
0
39
0
210
0
220
0
230
1
50
360
0
POINT
5
78
100
AcDbEntity
8
2
62
256
6
ByLayer
370
18
48
1
60
0
100
AcDbPoint
10
127.347574
20
20.411852
30
0
39
0
210
0
220
0
230
1
50
360
0
POINT
5
79
100
AcDbEntity
8
2
62
256
6
ByLayer
370
18
48
1
60
0
100
AcDbPoint
10
127.347574
20
20.411852
30
0
39
0
210
0
220
0
230
1
50
360
0
POINT
5
7A
100
AcDbEntity
8
2
62
256
6
ByLayer
370
18
48
1
60
0
100
AcDbPoint
10
126.266854
20
7.193486
30
0
39
0
210
0
220
0
230
1
50
360
0
POINT
5
7B
100
AcDbEntity
8
2
62
256
6
ByLayer
370
18
48
1
60
0
100
AcDbPoint
10
126.482507
20
8.155155
30
0
39
0
210
0
220
0
230
1
50
360
0
POINT
5
7C
100
AcDbEntity
8
2
62
256
6
ByLayer
370
18
48
1
60
0
100
AcDbPoint
10
127.733146
20
19.226461
30
0
39
0
210
0
220
0
230
1
50
360
0
POINT
5
7D
100
AcDbEntity
8
2
62
256
6
ByLayer
370
18
48
1
60
0
100
AcDbPoint
10
127.517493
20
19.283823
30
0
39
0
210
0
220
0
230
1
50
360
0
POINT
5
7E
100
AcDbEntity
8
5
62
256
6
ByLayer
370
18
48
1
60
0
100
AcDbPoint
10
127
20
15.165751
30
0
39
0
210
0
220
0
230
1
50
360
0
POINT
5
80
100
AcDbEntity
8
5
62
256
6
ByLayer
370
18
48
1
60
0
100
AcDbPoint
10
127
20
13.392627
30
0
39
0
210
0
220
0
230
1
50
360
0
POINT
5
81
100
AcDbEntity
8
2
62
256
6
ByLayer
370
18
48
1
60
0
100
AcDbPoint
10
0
20
0
30
0
39
0
210
0
220
0
230
1
50
360
0
POINT
5
82
100
AcDbEntity
8
2
62
256
6
ByLayer
370
18
48
1
60
0
100
AcDbPoint
10
126.652426
20
11.58032
30
0
39
0
210
0
220
0
230
1
50
360
0
POINT
5
83
100
AcDbEntity
8
2
62
256
6
ByLayer
370
18
48
1
60
0
100
AcDbPoint
10
0
20
0
30
0
39
0
210
0
220
0
230
1
50
360
0
POINT
5
84
100
AcDbEntity
8
2
62
256
6
ByLayer
370
18
48
1
60
0
100
AcDbPoint
10
127.347574
20
20.411852
30
0
39
0
210
0
220
0
230
1
50
360
0
SPLINE
5
192
100
AcDbEntity
8
1
62
256
6
ByLayer
370
18
48
1
60
0
100
AcDbSpline
70
4
71
3
72
20
73
16
40
0
40
0
40
0
40
0
40
0.125
40
0.125
40
0.249999999999999
40
0.249999999999999
40
0.374999999999999
40
0.374999999999999
40
0.499999999999999
40
0.499999999999999
40
0.624999999999998
40
0.624999999999998
40
0.749999999999998
40
0.749999999999998
40
1
40
1
40
1
40
1
41
1
10
129.390095639083
20
-10.0799088498509
30
0
41
1
10
129.409482926598
20
-10.0813453961244
30
0
41
1
10
129.428513862578
20
-10.08221148363
30
0
41
1
10
129.465895775415
20
-10.0828551586497
30
0
41
1
10
129.484416735862
20
-10.0826234386751
30
0
41
1
10
129.51988183739
20
-10.0810457047822
30
0
41
1
10
129.536695490565
20
-10.079718329104
30
0
41
1
10
129.568518230231
20
-10.0760060334364
30
0
41
1
10
129.58364732403
20
-10.0735868460823
30
0
41
1
10
129.610917381684
20
-10.0678414987453
30
0
41
1
10
129.623179990645
20
-10.0645134200018
30
0
41
1
10
129.644933572693
20
-10.056937560699
30
0
41
1
10
129.654386377674
20
-10.0526754320718
30
0
41
1
10
129.677288962786
20
-10.039026475362
30
0
41
1
10
129.685897167012
20
-10.0284560219264
30
0
41
1
10
129.68685205422
20
-10.0171128890618
30
0
0
SPLINE
5
193
100
AcDbEntity
8
1
62
256
6
ByLayer
370
18
48
1
60
0
100
AcDbSpline
70
4
71
3
72
16
73
12
40
0
40
0
40
0
40
0
40
0.127756227853367
40
0.127756227853367
40
0.345817170890026
40
0.345817170890026
40
0.563878113926684
40
0.563878113926684
40
0.781939056963342
40
0.781939056963342
40
1
40
1
40
1
40
1
41
1
10
129.610655070084
20
15.9150723166011
30
0
41
1
10
129.625617846328
20
15.9252036843179
30
0
41
1
10
129.639953643596
20
15.9360734965556
30
0
41
1
10
129.676402966965
20
15.9670123890549
30
0
41
1
10
129.697166647226
20
15.9882990655418
30
0
41
1
10
129.734173845098
20
16.0344917564384
30
0
41
1
10
129.750009873682
20
16.0589441388109
30
0
41
1
10
129.776021109134
20
16.1095739752143
30
0
41
1
10
129.786354194912
20
16.1360899791407
30
0
41
1
10
129.801076387849
20
16.1902239607531
30
0
41
1
10
129.805448237207
20
16.2175888667494
30
0
41
1
10
129.806841640028
20
16.2452506115256
30
0
0
SPLINE
5
194
100
AcDbEntity
8
1
62
256
6
ByLayer
370
13
48
1
60
0
100
AcDbSpline
70
4
71
3
72
8
73
4
40
0
40
0
40
0
40
0
40
1
40
1
40
1
40
1
41
1
10
126.108651333474
20
-9.83676258272519
30
0
41
1
10
125.868383061154
20
-10.9375771261641
30
0
41
1
10
125.628114788834
20
-12.0383916696029
30
0
41
1
10
125.387846516514
20
-13.1392062130418
30
0
0
SPLINE
5
195
100
AcDbEntity
8
1
62
256
6
ByLayer
370
13
48
1
60
0
100
AcDbSpline
70
4
71
3
72
8
73
4
40
0
40
0
40
0
40
0
40
1
40
1
40
1
40
1
41
1
10
124.909518510924
20
-12.8449562382053
30
0
41
1
10
125.205966977081
20
-11.8063119394322
30
0
41
1
10
125.502415443238
20
-10.7676676406591
30
0
41
1
10
125.798863909395
20
-9.72902334188592
30
0
0
SPLINE
5
196
100
AcDbEntity
8
1
62
256
6
ByLayer
370
13
48
1
60
0
100
AcDbSpline
70
4
71
3
72
8
73
4
40
0
40
0
40
0
40
0
40
1
40
1
40
1
40
1
41
1
10
129.521598579225
20
-13.4455062107449
30
0
41
1
10
129.477764265844
20
-12.3236404237802
30
0
41
1
10
129.433929952464
20
-11.2017746368155
30
0
41
1
10
129.390095639083
20
-10.0799088498509
30
0
0
SPLINE
5
197
100
AcDbEntity
8
1
62
256
6
ByLayer
370
13
48
1
60
0
100
AcDbSpline
70
4
71
3
72
8
73
4
40
0
40
0
40
0
40
0
40
1
40
1
40
1
40
1
41
1
10
129.68685205422
20
-10.0171128890618
30
0
41
1
10
129.791210230089
20
-11.0854558910598
30
0
41
1
10
129.895568405958
20
-12.1537988930579
30
0
41
1
10
129.999926581827
20
-13.222141895056
30
0
0
SPLINE
5
198
100
AcDbEntity
8
1
62
256
6
ByLayer
370
18
48
1
60
0
100
AcDbSpline
70
4
71
3
72
20
73
16
40
0
40
0
40
0
40
0
40
0.124999999999978
40
0.124999999999978
40
0.249999999999956
40
0.249999999999956
40
0.374999999999934
40
0.374999999999934
40
0.499999999999912
40
0.499999999999912
40
0.62499999999989
40
0.62499999999989
40
0.749999999999868
40
0.749999999999868
40
1
40
1
40
1
40
1
41
1
10
125.798863909395
20
-9.72902334188589
30
0
41
1
10
125.800218330941
20
-9.73483000766913
30
0
41
1
10
125.803423497799
20
-9.74065353776746
30
0
41
1
10
125.81336055212
20
-9.75233273405553
30
0
41
1
10
125.820186425583
20
-9.7582477134174
30
0
41
1
10
125.837112397377
20
-9.76980280680101
30
0
41
1
10
125.847121901878
20
-9.77541083807927
30
0
41
1
10
125.870174796755
20
-9.78629435344428
30
0
41
1
10
125.883356474652
20
-9.79160678049649
30
0
41
1
10
125.911783312569
20
-9.80147730004367
30
0
41
1
10
125.927103682808
20
-9.8060843779638
30
0
41
1
10
125.959981256601
20
-9.81463537173323
30
0
41
1
10
125.977489888198
20
-9.8185509828439
30
0
41
1
10
126.031227386885
20
-9.82880472959181
30
0
41
1
10
126.069883651314
20
-9.83389000092149
30
0
41
1
10
126.108651333474
20
-9.83676258272519
30
0
0
SPLINE
5
199
100
AcDbEntity
8
1
62
256
6
ByLayer
370
18
48
1
60
0
100
AcDbSpline
70
4
71
1
72
4
73
2
40
0
40
0
40
1
40
1
41
1
10
129.600001864724
20
15.5418037335305
30
0
41
1
10
129.781085709178
20
16.1245487335963
30
0
0
SPLINE
5
19A
100
AcDbEntity
8
1
62
256
6
ByLayer
370
18
48
1
60
0
100
AcDbSpline
70
4
71
3
72
24
73
20
40
0
40
0
40
0
40
0
40
0.125000000000098
40
0.125000000000098
40
0.187500000000094
40
0.187500000000094
40
0.250000000000089
40
0.250000000000089
40
0.375000000000074
40
0.375000000000074
40
0.50000000000006
40
0.50000000000006
40
0.625000000000045
40
0.625000000000045
40
0.75000000000003
40
0.75000000000003
40
0.875000000000015
40
0.875000000000015
40
1
40
1
40
1
40
1
41
1
10
125.387846516514
20
-13.1392062130418
30
0
41
1
10
125.356017698293
20
-13.1368477825408
30
0
41
1
10
125.324719701668
20
-13.1328634503775
30
0
41
1
10
125.278545113091
20
-13.1245210785796
30
0
41
1
10
125.263283229703
20
-13.1213431830578
30
0
41
1
10
125.233025906864
20
-13.1141712766828
30
0
41
1
10
125.217996458586
20
-13.1101618404781
30
0
41
1
10
125.174314907476
20
-13.0971639081095
30
0
41
1
10
125.14672363866
20
-13.0871460326036
30
0
41
1
10
125.094579938552
20
-13.064423403393
30
0
41
1
10
125.069960529891
20
-13.0516233311289
30
0
41
1
10
125.02595640593
20
-13.0244076741748
30
0
41
1
10
125.006263858278
20
-13.0098796042542
30
0
41
1
10
124.971581048505
20
-12.9789498072661
30
0
41
1
10
124.956975448924
20
-12.9628550889827
30
0
41
1
10
124.933511876034
20
-12.9300324325212
30
0
41
1
10
124.924513059439
20
-12.913086206324
30
0
41
1
10
124.912514855518
20
-12.8789617414462
30
0
41
1
10
124.90951999158
20
-12.8619392107023
30
0
41
1
10
124.909518510924
20
-12.8449562382054
30
0
0
SPLINE
5
19B
100
AcDbEntity
8
1
62
256
6
ByLayer
370
18
48
1
60
0
100
AcDbSpline
70
4
71
3
72
24
73
20
40
0
40
0
40
0
40
0
40
0.124999999999968
40
0.124999999999968
40
0.249999999999937
40
0.249999999999937
40
0.374999999999905
40
0.374999999999905
40
0.499999999999874
40
0.499999999999874
40
0.624999999999842
40
0.624999999999842
40
0.687499999999869
40
0.687499999999869
40
0.749999999999896
40
0.749999999999896
40
0.874999999999948
40
0.874999999999948
40
1
40
1
40
1
40
1
41
1
10
129.999926581827
20
-13.222141895056
30
0
41
1
10
129.999925100903
20
-13.2391277321131
30
0
41
1
10
129.996929197632
20
-13.2556196638761
30
0
41
1
10
129.985114473071
20
-13.2876430850457
30
0
41
1
10
129.976169502507
20
-13.3033220827782
30
0
41
1
10
129.952592098856
20
-13.3328988516583
30
0
41
1
10
129.938126048321
20
-13.346687316678
30
0
41
1
10
129.903865097486
20
-13.3722740612962
30
0
41
1
10
129.883809081281
20
-13.3841650976614
30
0
41
1
10
129.839773428879
20
-13.4049182650534
30
0
41
1
10
129.815724464468
20
-13.4138936219261
30
0
41
1
10
129.776555798334
20
-13.425221349754
30
0
41
1
10
129.762905313184
20
-13.4286517632171
30
0
41
1
10
129.735101568096
20
-13.434644438229
30
0
41
1
10
129.720909496015
20
-13.4372232894525
30
0
41
1
10
129.677482758429
20
-13.4437362678009
30
0
41
1
10
129.647360056943
20
-13.4464600122403
30
0
41
1
10
129.584961033282
20
-13.4485347470862
30
0
41
1
10
129.553439340045
20
-13.4478655261606
30
0
41
1
10
129.521598579225
20
-13.445506210745
30
0
0
SPLINE
5
19C
100
AcDbEntity
8
1
62
256
6
ByLayer
370
18
48
1
60
0
100
AcDbSpline
70
4
71
3
72
20
73
16
40
0
40
0
40
0
40
0
40
0.149563724447146
40
0.149563724447146
40
0.299127448894291
40
0.299127448894291
40
0.448691173341437
40
0.448691173341437
40
0.598254897788582
40
0.598254897788582
40
0.747818622235728
40
0.747818622235728
40
0.897382346682873
40
0.897382346682873
40
1
40
1
40
1
40
1
41
1
10
127.891348666526
20
14.7319318053733
30
0
41
1
10
127.910735954041
20
14.7334161675389
30
0
41
1
10
127.929850508451
20
14.7335919302678
30
0
41
1
10
127.967559211589
20
14.7314464996679
30
0
41
1
10
127.986326710263
20
14.7290867370115
30
0
41
1
10
128.022438192292
20
14.7218973504896
30
0
41
1
10
128.039647337088
20
14.7171244026467
30
0
41
1
10
128.072403048226
20
14.7052646049627
30
0
41
1
10
128.088076255294
20
14.6980852970628
30
0
41
1
10
128.116539906704
20
14.6818833184807
30
0
41
1
10
128.129453676399
20
14.6728442143623
30
0
41
1
10
128.152619369071
20
14.6528714600222
30
0
41
1
10
128.162834894494
20
14.6419077566635
30
0
41
1
10
128.177032634752
20
14.6225802886854
30
0
41
1
10
128.182043840393
20
14.6143845683813
30
0
41
1
10
128.186244019741
20
14.6059282027175
30
0
0
SPLINE
5
19D
100
AcDbEntity
8
1
62
256
6
ByLayer
370
18
48
1
60
0
100
AcDbSpline
70
4
71
3
72
8
73
4
40
0
40
0
40
0
40
0
40
1
40
1
40
1
40
1
41
1
10
128.318132754701
20
19.8946517405222
30
0
41
1
10
128.32443478683
20
19.8949083940861
30
0
41
1
10
128.330736356716
20
19.8951652769691
30
0
41
1
10
128.337037493145
20
19.8954223747856
30
0
0
SPLINE
5
19E
100
AcDbEntity
8
1
62
256
6
ByLayer
370
18
48
1
60
0
100
AcDbSpline
70
4
71
3
72
18
73
14
40
0
40
0
40
0
40
0
40
0.125
40
0.125
40
0.25
40
0.25
40
0.375
40
0.375
40
0.500000000000001
40
0.500000000000001
40
0.75
40
0.75
40
1
40
1
40
1
40
1
41
1
10
128.337037493145
20
19.8954223747856
30
0
41
1
10
128.347651341306
20
19.8958531860558
30
0
41
1
10
128.358537553893
20
19.8992470248451
30
0
41
1
10
128.379247225869
20
19.9111338643011
30
0
41
1
10
128.388886047152
20
19.9194890722593
30
0
41
1
10
128.405755259623
20
19.9382896938593
30
0
41
1
10
128.41322084511
20
19.9489258980272
30
0
41
1
10
128.426268993542
20
19.9711538622273
30
0
41
1
10
128.431910075925
20
19.982828279101
30
0
41
1
10
128.446597562938
20
20.0185332240648
30
0
41
1
10
128.453486439414
20
20.0432485590692
30
0
41
1
10
128.462975829883
20
20.0930466997178
30
0
41
1
10
128.465541343782
20
20.1181350720751
30
0
41
1
10
128.466122887103
20
20.1430370366778
30
0
0
SPLINE
5
19F
100
AcDbEntity
8
1
62
256
6
ByLayer
370
18
48
1
60
0
100
AcDbSpline
70
4
71
3
72
18
73
14
40
0
40
0
40
0
40
0
40
0.25
40
0.25
40
0.5
40
0.5
40
0.625
40
0.625
40
0.75
40
0.75
40
0.875
40
0.875
40
1
40
1
40
1
40
1
41
1
10
127.930347084015
20
19.277200836494
30
0
41
1
10
127.952868919168
20
19.2896460342717
30
0
41
1
10
127.974492531629
20
19.3036541165508
30
0
41
1
10
128.014990748566
20
19.3346552597648
30
0
41
1
10
128.033949018132
20
19.3516828818834
30
0
41
1
10
128.058581191275
20
19.3795249703663
30
0
41
1
10
128.066156973496
20
19.3892057347707
30
0
41
1
10
128.079292799162
20
19.4092803227266
30
0
41
1
10
128.084870275499
20
19.4197245730048
30
0
41
1
10
128.092545729095
20
19.4406051035558
30
0
41
1
10
128.09466784233
20
19.4511646808159
30
0
41
1
10
128.093579205773
20
19.4709064033164
30
0
41
1
10
128.090256618942
20
19.4798957736578
30
0
41
1
10
128.084305480957
20
19.4869968284353
30
0
0
SPLINE
5
1A0
100
AcDbEntity
8
1
62
256
6
ByLayer
370
18
48
1
60
0
100
AcDbSpline
70
4
71
3
72
8
73
4
40
0
40
0
40
0
40
0
40
1
40
1
40
1
40
1
41
1
10
128.084305480957
20
19.4869968284353
30
0
41
1
10
128.080773043281
20
19.4912140640876
30
0
41
1
10
128.077240329796
20
19.4954317694394
30
0
41
1
10
128.07370732217
20
19.499649975771
30
0
0
SPLINE
5
1A1
100
AcDbEntity
8
1
62
256
6
ByLayer
370
18
48
1
60
0
100
AcDbSpline
70
4
71
3
72
18
73
14
40
0
40
0
40
0
40
0
40
0.125
40
0.125
40
0.25
40
0.25
40
0.5
40
0.5
40
0.75
40
0.75
40
0.875
40
0.875
40
1
40
1
40
1
40
1
41
1
10
128.07370732217
20
19.499649975771
30
0
41
1
10
128.062974891213
20
19.5124638762807
30
0
41
1
10
128.058993529621
20
19.5296461693363
30
0
41
1
10
128.058082801292
20
19.5662696409052
30
0
41
1
10
128.061247830338
20
19.5857508119824
30
0
41
1
10
128.077192723736
20
19.6448209143445
30
0
41
1
10
128.096356176899
20
19.6854081231764
30
0
41
1
10
128.144699102681
20
19.7635347607745
30
0
41
1
10
128.173898988497
20
19.8011073865429
30
0
41
1
10
128.223925119398
20
19.8486576968432
30
0
41
1
10
128.24175067865
20
19.8630823714472
30
0
41
1
10
128.279197602844
20
19.8856006175822
30
0
41
1
10
128.298986330371
20
19.8938719923492
30
0
41
1
10
128.318132754701
20
19.8946517405222
30
0
0
SPLINE
5
1A2
100
AcDbEntity
8
1
62
256
6
ByLayer
370
18
48
1
60
0
100
AcDbSpline
70
4
71
3
72
8
73
4
40
0
40
0
40
0
40
0
40
1
40
1
40
1
40
1
41
1
10
127.655900675414
20
19.268776855693
30
0
41
1
10
127.658103872879
20
19.2638238180146
30
0
41
1
10
127.660306856933
20
19.2588713259263
30
0
41
1
10
127.662509640889
20
19.2539193453735
30
0
0
SPLINE
5
1A3
100
AcDbEntity
8
1
62
256
6
ByLayer
370
18
48
1
60
0
100
AcDbSpline
70
4
71
3
72
18
73
14
40
0
40
0
40
0
40
0
40
0.125
40
0.125
40
0.25
40
0.25
40
0.375
40
0.375
40
0.5
40
0.5
40
0.75
40
0.75
40
1
40
1
40
1
40
1
41
1
10
127.662509640889
20
19.2539193453735
30
0
41
1
10
127.666217957956
20
19.2455769126618
30
0
41
1
10
127.672809299779
20
19.2385250371723
30
0
41
1
10
127.690437530691
20
19.22788537638
30
0
41
1
10
127.701284381218
20
19.2243767845971
30
0
41
1
10
127.724127774046
20
19.2203824910929
30
0
41
1
10
127.736376558392
20
19.2198045232354
30
0
41
1
10
127.761104586995
20
19.2206714662376
30
0
41
1
10
127.773679649469
20
19.2221113880062
30
0
41
1
10
127.811222415421
20
19.2286076753816
30
0
41
1
10
127.836035059016
20
19.2357790239405
30
0
41
1
10
127.884333409335
20
19.2538347038682
30
0
41
1
10
127.90781478072
20
19.2647498541926
30
0
41
1
10
127.930347084015
20
19.277200836494
30
0
0
SPLINE
5
1A4
100
AcDbEntity
8
1
62
256
6
ByLayer
370
18
48
1
60
0
100
AcDbSpline
70
4
71
3
72
18
73
14
40
0
40
0
40
0
40
0
40
0.25
40
0.25
40
0.5
40
0.5
40
0.625
40
0.625
40
0.75
40
0.75
40
0.875
40
0.875
40
1
40
1
40
1
40
1
41
1
10
126.899235761755
20
19.277200836494
30
0
41
1
10
126.921176323763
20
19.2647556387162
30
0
41
1
10
126.944252528604
20
19.2538435225976
30
0
41
1
10
126.992170741454
20
19.2357969755389
30
0
41
1
10
127.017078350355
20
19.2286113163513
30
0
41
1
10
127.055209419115
20
19.222117907798
30
0
41
1
10
127.068065428862
20
19.2206763153758
30
0
41
1
10
127.093720248184
20
19.2198028540014
30
0
41
1
10
127.106576947286
20
19.2203816802572
30
0
41
1
10
127.130987378965
20
19.224383696034
30
0
41
1
10
127.142677643569
20
19.2278478065322
30
0
41
1
10
127.162731976559
20
19.2384473688838
30
0
41
1
10
127.170859900237
20
19.2455785437835
30
0
41
1
10
127.176121794028
20
19.2539193453735
30
0
0
SPLINE
5
1A5
100
AcDbEntity
8
1
62
256
6
ByLayer
370
18
48
1
60
0
100
AcDbSpline
70
4
71
3
72
8
73
4
40
0
40
0
40
0
40
0
40
1
40
1
40
1
40
1
41
1
10
127.176121794028
20
19.2539193453735
30
0
41
1
10
127.179247426576
20
19.2588713259263
30
0
41
1
10
127.182373162423
20
19.2638238180146
30
0
41
1
10
127.185499008376
20
19.268776855693
30
0
0
SPLINE
5
1A6
100
AcDbEntity
8
1
62
256
6
ByLayer
370
18
48
1
60
0
100
AcDbSpline
70
4
71
3
72
18
73
14
40
0
40
0
40
0
40
0
40
0.125
40
0.125
40
0.25
40
0.25
40
0.5
40
0.5
40
0.75
40
0.75
40
0.875
40
0.875
40
1
40
1
40
1
40
1
41
1
10
127.185499008376
20
19.268776855693
30
0
41
1
10
127.194994579693
20
19.2838229978307
30
0
41
1
10
127.211353358892
20
19.2955253680692
30
0
41
1
10
127.248684676533
20
19.3143367829485
30
0
41
1
10
127.269727945327
20
19.3213893624661
30
0
41
1
10
127.335265475785
20
19.3377006297485
30
0
41
1
10
127.382488178079
20
19.3423576083132
30
0
41
1
10
127.475527708593
20
19.3423587944533
30
0
41
1
10
127.521384075705
20
19.3377030972505
30
0
41
1
10
127.58281778642
20
19.3213960127353
30
0
41
1
10
127.6021552407
20
19.3143355886749
30
0
41
1
10
127.635238059296
20
19.2955725567149
30
0
41
1
10
127.649207064101
20
19.2838248527788
30
0
41
1
10
127.655900675414
20
19.268776855693
30
0
0
SPLINE
5
1A7
100
AcDbEntity
8
1
62
256
6
ByLayer
370
18
48
1
60
0
100
AcDbSpline
70
4
71
3
72
18
73
14
40
0
40
0
40
0
40
0
40
0.125
40
0.125
40
0.25
40
0.25
40
0.375
40
0.375
40
0.500000000000001
40
0.500000000000001
40
0.75
40
0.75
40
1
40
1
40
1
40
1
41
1
10
126.765212215804
20
19.4869968284353
30
0
41
1
10
126.757763223991
20
19.4798943849802
30
0
41
1
10
126.752956836189
20
19.4710212644587
30
0
41
1
10
126.748974604524
20
19.4512641297942
30
0
41
1
10
126.74980003137
20
19.4405765922239
30
0
41
1
10
126.755143329827
20
19.4197212428948
30
0
41
1
10
126.759668687475
20
19.4092997707237
30
0
41
1
10
126.770918941267
20
19.3892595809197
30
0
41
1
10
126.777679251282
20
19.379559012268
30
0
41
1
10
126.800099973603
20
19.3516863434667
30
0
41
1
10
126.817845327993
20
19.3346908641531
30
0
41
1
10
126.856421361256
20
19.3036645064563
30
0
41
1
10
126.877285001781
20
19.2896518187953
30
0
41
1
10
126.899235761755
20
19.277200836494
30
0
0
SPLINE
5
1A8
100
AcDbEntity
8
1
62
256
6
ByLayer
370
18
48
1
60
0
100
AcDbSpline
70
4
71
3
72
8
73
4
40
0
40
0
40
0
40
0
40
1
40
1
40
1
40
1
41
1
10
126.778475665116
20
19.499649975771
30
0
41
1
10
126.774054330492
20
19.4954317694394
30
0
41
1
10
126.769633184621
20
19.4912140640876
30
0
41
1
10
126.765212215804
20
19.4869968284353
30
0
0
SPLINE
5
1A9
100
AcDbEntity
8
1
62
256
6
ByLayer
370
18
48
1
60
0
100
AcDbSpline
70
4
71
1
72
4
73
2
40
0
40
0
40
1
40
1
41
1
10
124.399996866596
20
-15.5100986558991
30
0
41
1
10
124.2224779866
20
-16.0120402119681
30
0
0
SPLINE
5
1AA
100
AcDbEntity
8
1
62
256
6
ByLayer
370
18
48
1
60
0
100
AcDbSpline
70
4
71
3
72
18
73
14
40
0
40
0
40
0
40
0
40
0.125
40
0.125
40
0.25
40
0.25
40
0.375
40
0.375
40
0.5
40
0.5
40
0.75
40
0.75
40
1
40
1
40
1
40
1
41
1
10
126.531556381131
20
19.8954223747856
30
0
41
1
10
126.519797695822
20
19.8958531860557
30
0
41
1
10
126.507973513364
20
19.899247024845
30
0
41
1
10
126.485888106587
20
19.911133864301
30
0
41
1
10
126.475819384817
20
19.9194890722592
30
0
41
1
10
126.458475931502
20
19.9382896938591
30
0
41
1
10
126.450954420424
20
19.9489258980271
30
0
41
1
10
126.438023520779
20
19.9711538622272
30
0
41
1
10
126.432555432916
20
19.9828282791009
30
0
41
1
10
126.418604090503
20
20.0185332240647
30
0
41
1
10
126.412487139459
20
20.0432485590691
30
0
41
1
10
126.404824351982
20
20.0930466997178
30
0
41
1
10
126.403318699262
20
20.118135072075
30
0
41
1
10
126.403900242583
20
20.1430370366778
30
0
0
SPLINE
5
1AB
100
AcDbEntity
8
1
62
256
6
ByLayer
370
18
48
1
60
0
100
AcDbSpline
70
4
71
3
72
8
73
4
40
0
40
0
40
0
40
0
40
1
40
1
40
1
40
1
41
1
10
126.55249943061
20
19.8946517405222
30
0
41
1
10
126.545518077071
20
19.8949083940861
30
0
41
1
10
126.538537067699
20
19.8951652769691
30
0
41
1
10
126.531556381131
20
19.8954223747856
30
0
0
SPLINE
5
1AC
100
AcDbEntity
8
1
62
256
6
ByLayer
370
18
48
1
60
0
100
AcDbSpline
70
4
71
3
72
20
73
16
40
0
40
0
40
0
40
0
40
0.125
40
0.125
40
0.25
40
0.25
40
0.375
40
0.375
40
0.5
40
0.5
40
0.75
40
0.75
40
0.875
40
0.875
40
1
40
1
40
1
40
1
41
1
10
126.778475665116
20
19.499649975771
30
0
41
1
10
126.791999355171
20
19.5125523502507
30
0
41
1
10
126.798679418769
20
19.52993525229
30
0
41
1
10
126.804519416502
20
19.5663581613698
30
0
41
1
10
126.803639841348
20
19.5859174718762
30
0
41
1
10
126.797119402769
20
19.6250144905506
30
0
41
1
10
126.791365527036
20
19.64507707483
30
0
41
1
10
126.776133743069
20
19.6848855292404
30
0
41
1
10
126.766702125039
20
19.7045957606887
30
0
41
1
10
126.733194212742
20
19.7632746282659
30
0
41
1
10
126.704582349787
20
19.8009197323478
30
0
41
1
10
126.653391886746
20
19.8485591178035
30
0
41
1
10
126.634832382712
20
19.8630127422304
30
0
41
1
10
126.595090866567
20
19.8855791176371
30
0
41
1
10
126.57373832582
20
19.8938709409083
30
0
41
1
10
126.55249943061
20
19.8946517405222
30
0
0
SPLINE
5
1AD
100
AcDbEntity
8
1
62
256
6
ByLayer
370
18
48
1
60
0
100
AcDbSpline
70
4
71
3
72
18
73
14
40
0
40
0
40
0
40
0
40
0.250000000000001
40
0.250000000000001
40
0.500000000000001
40
0.500000000000001
40
0.625000000000001
40
0.625000000000001
40
0.750000000000001
40
0.750000000000001
40
0.875000000000001
40
0.875000000000001
40
1
40
1
40
1
40
1
41
1
10
128.466122887103
20
20.1430370366778
30
0
41
1
10
128.466704160248
20
20.1679274322332
30
0
41
1
10
128.465303761273
20
20.192687168679
30
0
41
1
10
128.458116393844
20
20.2410196724097
30
0
41
1
10
128.452345813521
20
20.2646833819758
30
0
41
1
10
128.439280879938
20
20.2976847182032
30
0
41
1
10
128.434173823563
20
20.3082746824529
30
0
41
1
10
128.422085023069
20
20.3279001578873
30
0
41
1
10
128.41506418522
20
20.3369712105116
30
0
41
1
10
128.39896096914
20
20.3519074537457
30
0
41
1
10
128.389770711778
20
20.357841133676
30
0
41
1
10
128.369526343197
20
20.3642206599981
30
0
41
1
10
128.358593432304
20
20.3644875615717
30
0
41
1
10
128.34792375499
20
20.3615773409092
30
0
0
SPLINE
5
1AE
100
AcDbEntity
8
1
62
256
6
ByLayer
370
18
48
1
60
0
100
AcDbSpline
70
4
71
3
72
8
73
4
40
0
40
0
40
0
40
0
40
1
40
1
40
1
40
1
41
1
10
128.102939823691
20
20.7513997454295
30
0
41
1
10
128.106716158395
20
20.7576009215823
30
0
41
1
10
128.110492184187
20
20.7638019661732
30
0
41
1
10
128.114267920316
20
20.7700028872595
30
0
0
SPLINE
5
1AF
100
AcDbEntity
8
1
62
256
6
ByLayer
370
18
48
1
60
0
100
AcDbSpline
70
4
71
3
72
10
73
6
40
0
40
0
40
0
40
0
40
0.624172899332397
40
0.624172899332397
40
1
40
1
40
1
40
1
41
1
10
124.193158360105
20
-16.1442525877511
30
0
41
1
10
124.194552015961
20
-16.1160161126244
30
0
41
1
10
124.198917798757
20
-16.0882415303886
30
0
41
1
10
124.210542084466
20
-16.0444628168989
30
0
41
1
10
124.216008888731
20
-16.0280780231806
30
0
41
1
10
124.222521213858
20
-16.0119691931928
30
0
0
SPLINE
5
1B0
100
AcDbEntity
8
1
62
256
6
ByLayer
370
18
48
1
60
0
100
AcDbSpline
70
4
71
3
72
18
73
14
40
0
40
0
40
0
40
0
40
0.125
40
0.125
40
0.25
40
0.25
40
0.375
40
0.375
40
0.5
40
0.5
40
0.75
40
0.75
40
1
40
1
40
1
40
1
41
1
10
128.114267920316
20
20.7700028872595
30
0
41
1
10
128.12062999069
20
20.7804469317682
30
0
41
1
10
128.124413344418
20
20.7924652398044
30
0
41
1
10
128.126593994879
20
20.8177611056364
30
0
41
1
10
128.12500336324
20
20.8308011675483
30
0
41
1
10
128.118398300982
20
20.8555356484276
30
0
41
1
10
128.11335726091
20
20.8675425203072
30
0
41
1
10
128.101247754361
20
20.8902243728991
30
0
41
1
10
128.094140104195
20
20.9009927944576
30
0
41
1
10
128.070850268636
20
20.9315374408332
30
0
41
1
10
128.052748088788
20
20.9496299344105
30
0
41
1
10
128.013706202351
20
20.9820884981554
30
0
41
1
10
127.992738127905
20
20.9964222545603
30
0
41
1
10
127.970787367932
20
21.0088732368616
30
0
0
SPLINE
5
1B1
100
AcDbEntity
8
1
62
256
6
ByLayer
370
18
48
1
60
0
100
AcDbSpline
70
4
71
3
72
8
73
4
40
0
40
0
40
0
40
0
40
1
40
1
40
1
40
1
41
1
10
128.34792375499
20
20.3615773409092
30
0
41
1
10
128.341588301108
20
20.3598507532917
30
0
41
1
10
128.335252411816
20
20.3581242969356
30
0
41
1
10
128.328916058197
20
20.3563979806783
30
0
0
SPLINE
5
1B2
100
AcDbEntity
8
1
62
256
6
ByLayer
370
18
48
1
60
0
100
AcDbSpline
70
4
71
3
72
18
73
14
40
0
40
0
40
0
40
0
40
0.125
40
0.125
40
0.25
40
0.25
40
0.5
40
0.5
40
0.75
40
0.75
40
0.875
40
0.875
40
1
40
1
40
1
40
1
41
1
10
128.328916058197
20
20.3563979806783
30
0
41
1
10
128.309667733558
20
20.351153845368
30
0
41
1
10
128.290220452549
20
20.353888784895
30
0
41
1
10
128.253521532672
20
20.366956697624
30
0
41
1
10
128.236290389705
20
20.3773958728321
30
0
41
1
10
128.188256228083
20
20.4153633743537
30
0
41
1
10
128.16073178033
20
20.4496494261284
30
0
41
1
10
128.116035303138
20
20.5277744854841
30
0
41
1
10
128.098844168522
20
20.5716465317607
30
0
41
1
10
128.085878453173
20
20.640294215142
30
0
41
1
10
128.083718866371
20
20.6637705593901
30
0
41
1
10
128.08654357813
20
20.7097845071074
30
0
41
1
10
128.091466809086
20
20.7325597351701
30
0
41
1
10
128.102939823691
20
20.7513997454295
30
0
0
SPLINE
5
1B3
100
AcDbEntity
8
1
62
256
6
ByLayer
370
18
48
1
60
0
100
AcDbSpline
70
4
71
3
72
18
73
14
40
0
40
0
40
0
40
0
40
0.25
40
0.25
40
0.5
40
0.5
40
0.625
40
0.625
40
0.75
40
0.75
40
0.875
40
0.875
40
1
40
1
40
1
40
1
41
1
10
126.403900242583
20
20.1430370366778
30
0
41
1
10
126.404481515729
20
20.1679274322332
30
0
41
1
10
126.407150239795
20
20.192687168679
30
0
41
1
10
126.417093716109
20
20.2410196724097
30
0
41
1
10
126.42435273503
20
20.2646833819758
30
0
41
1
10
126.439889287752
20
20.2976847182032
30
0
41
1
10
126.445862174145
20
20.3082746824529
30
0
41
1
10
126.459789773579
20
20.3279001578874
30
0
41
1
10
126.467788161886
20
20.3369712105116
30
0
41
1
10
126.485943240379
20
20.3519074537457
30
0
41
1
10
126.496220691039
20
20.357841133676
30
0
41
1
10
126.518689260968
20
20.3642206599981
30
0
41
1
10
126.530744161123
20
20.3644875615717
30
0
41
1
10
126.542442642975
20
20.3615773409092
30
0
0
SPLINE
5
1B4
100
AcDbEntity
8
1
62
256
6
ByLayer
370
18
48
1
60
0
100
AcDbSpline
70
4
71
3
72
24
73
20
40
0
40
0
40
0
40
0
40
0.125
40
0.125
40
0.25
40
0.25
40
0.375
40
0.375
40
0.5
40
0.5
40
0.625
40
0.625
40
0.75
40
0.75
40
0.8125
40
0.8125
40
0.875
40
0.875
40
1
40
1
40
1
40
1
41
1
10
126.563282734106
20
20.3563979806783
30
0
41
1
10
126.584423261566
20
20.351144624139
30
0
41
1
10
126.605956388787
20
20.3538994341285
30
0
41
1
10
126.646624620355
20
20.3670148815995
30
0
41
1
10
126.665671407689
20
20.3774321261441
30
0
41
1
10
126.701216347271
20
20.4028567842876
30
0
41
1
10
126.717656227322
20
20.417897035313
30
0
41
1
10
126.747743555975
20
20.4512512438777
30
0
41
1
10
126.761342457085
20
20.4695159113861
30
0
41
1
10
126.785508090138
20
20.5086649186617
30
0
41
1
10
126.795845809339
20
20.5291499588807
30
0
41
1
10
126.812935960589
20
20.5719702866084
30
0
41
1
10
126.819735297064
20
20.5945558530141
30
0
41
1
10
126.826131716677
20
20.6287313986908
30
0
41
1
10
126.827644449888
20
20.6402027309437
30
0
41
1
10
126.829167916116
20
20.6633423118202
30
0
41
1
10
126.829169527207
20
20.6750778497638
30
0
41
1
10
126.826223540876
20
20.7095786581185
30
0
41
1
10
126.82047875655
20
20.7324450937774
30
0
41
1
10
126.807708166637
20
20.7513997454295
30
0
0
SPLINE
5
1B5
100
AcDbEntity
8
1
62
256
6
ByLayer
370
18
48
1
60
0
100
AcDbSpline
70
4
71
3
72
8
73
4
40
0
40
0
40
0
40
0
40
1
40
1
40
1
40
1
41
1
10
126.542442642975
20
20.3615773409092
30
0
41
1
10
126.549389012091
20
20.3598507532917
30
0
41
1
10
126.556335702057
20
20.3581242969356
30
0
41
1
10
126.563282734106
20
20.3563979806783
30
0
0
SPLINE
5
1B6
100
AcDbEntity
8
1
62
256
6
ByLayer
370
18
48
1
60
0
100
AcDbSpline
70
4
71
3
72
18
73
14
40
0
40
0
40
0
40
0
40
0.25
40
0.25
40
0.5
40
0.5
40
0.625
40
0.625
40
0.75
40
0.75
40
0.875
40
0.875
40
1
40
1
40
1
40
1
41
1
10
126.939676045672
20
21.0088732368616
30
0
41
1
10
126.917154210518
20
20.9964280390839
30
0
41
1
10
126.895634984867
20
20.9820990329007
30
0
41
1
10
126.855602024896
20
20.9496675166028
30
0
41
1
10
126.837001273357
20
20.931540751004
30
0
41
1
10
126.813237024279
20
20.9010303409035
30
0
41
1
10
126.806007584364
20
20.8902847913452
30
0
41
1
10
126.79373214502
20
20.8675650555977
30
0
41
1
10
126.788671438512
20
20.8555320625231
30
0
41
1
10
126.782259508924
20
20.8307669888919
30
0
41
1
10
126.780893183705
20
20.8178838379685
30
0
41
1
10
126.783779022194
20
20.7926168478143
30
0
41
1
10
126.788136808255
20
20.7804448897369
30
0
41
1
10
126.795174655163
20
20.7700028872595
30
0
0
SPLINE
5
1B7
100
AcDbEntity
8
1
62
256
6
ByLayer
370
18
48
1
60
0
100
AcDbSpline
70
4
71
3
72
8
73
4
40
0
40
0
40
0
40
0
40
1
40
1
40
1
40
1
41
1
10
126.795174655163
20
20.7700028872595
30
0
41
1
10
126.799352325527
20
20.7638019661732
30
0
41
1
10
126.803530159092
20
20.7576009215823
30
0
41
1
10
126.807708166637
20
20.7513997454295
30
0
0
SPLINE
5
1B8
100
AcDbEntity
8
1
62
256
6
ByLayer
370
18
48
1
60
0
100
AcDbSpline
70
4
71
3
72
18
73
14
40
0
40
0
40
0
40
0
40
0.25
40
0.25
40
0.5
40
0.5
40
0.625
40
0.625
40
0.75
40
0.75
40
0.875
40
0.875
40
1
40
1
40
1
40
1
41
1
10
127.970787367932
20
21.0088732368616
30
0
41
1
10
127.948846805924
20
21.0213184346393
30
0
41
1
10
127.925874987892
20
21.0319096268539
30
0
41
1
10
127.878422032009
20
21.0485258008287
30
0
41
1
10
127.853871941133
20
21.0546123165361
30
0
41
1
10
127.81660879644
20
21.0584374034717
30
0
41
1
10
127.804099128997
20
21.0588142107401
30
0
41
1
10
127.779304695998
20
21.0570425243229
30
0
41
1
10
127.766964766726
20
21.0548749552708
30
0
41
1
10
127.743817859054
20
21.0469883964137
30
0
41
1
10
127.732883382466
20
21.0412007122522
30
0
41
1
10
127.714626251407
20
21.025075882247
30
0
41
1
10
127.707533526961
20
21.0147621196112
30
0
41
1
10
127.703358342093
20
21.0030803703213
30
0
0
SPLINE
5
1B9
100
AcDbEntity
8
1
62
256
6
ByLayer
370
18
48
1
60
0
100
AcDbSpline
70
4
71
3
72
8
73
4
40
0
40
0
40
0
40
0
40
1
40
1
40
1
40
1
41
1
10
127.225514813394
20
20.9822728655075
30
0
41
1
10
127.222666616009
20
20.9892088730071
30
0
41
1
10
127.219818511874
20
20.9961447043345
30
0
41
1
10
127.216970495231
20
21.0030803703213
30
0
0
SPLINE
5
1BA
100
AcDbEntity
8
1
62
256
6
ByLayer
370
18
48
1
60
0
100
AcDbSpline
70
4
71
3
72
18
73
14
40
0
40
0
40
0
40
0
40
0.125
40
0.125
40
0.25
40
0.25
40
0.375
40
0.375
40
0.5
40
0.5
40
0.75
40
0.75
40
1
40
1
40
1
40
1
41
1
10
127.216970495231
20
21.0030803703213
30
0
41
1
10
127.212175256725
20
21.0147644040865
30
0
41
1
10
127.204560880829
20
21.0249614670908
30
0
41
1
10
127.185131068712
20
21.0411398590506
30
0
41
1
10
127.173519013393
20
21.047000975175
30
0
41
1
10
127.149413856764
20
21.0548744002296
30
0
41
1
10
127.136649389993
20
21.0570377677955
30
0
41
1
10
127.111062108633
20
21.0588124875812
30
0
41
1
10
127.098139706007
20
21.0584404187194
30
0
41
1
10
127.059727826818
20
21.0546161089184
30
0
41
1
10
127.034558357766
20
21.0485417746231
30
0
41
1
10
126.985794154272
20
21.0319183007434
30
0
41
1
10
126.962208348966
20
21.021324219163
30
0
41
1
10
126.939676045672
20
21.0088732368616
30
0
0
SPLINE
5
1BB
100
AcDbEntity
8
1
62
256
6
ByLayer
370
18
48
1
60
0
100
AcDbSpline
70
4
71
3
72
8
73
4
40
0
40
0
40
0
40
0
40
1
40
1
40
1
40
1
41
1
10
127.703358342093
20
21.0030803703213
30
0
41
1
10
127.700877942231
20
20.9961447043345
30
0
41
1
10
127.698397326464
20
20.9892088730071
30
0
41
1
10
127.695916480431
20
20.9822728655075
30
0
0
SPLINE
5
1BC
100
AcDbEntity
8
1
62
256
6
ByLayer
370
18
48
1
60
0
100
AcDbSpline
70
4
71
3
72
18
73
14
40
0
40
0
40
0
40
0
40
0.125
40
0.125
40
0.25
40
0.25
40
0.5
40
0.5
40
0.75
40
0.75
40
0.875
40
0.875
40
1
40
1
40
1
40
1
41
1
10
127.695916480431
20
20.9822728655075
30
0
41
1
10
127.688380264383
20
20.9612029360052
30
0
41
1
10
127.673807204747
20
20.9440105991866
30
0
41
1
10
127.639562139294
20
20.9157108963861
30
0
41
1
10
127.61981306406
20
20.9046794841655
30
0
41
1
10
127.557392484478
20
20.878785549767
30
0
41
1
10
127.511239384943
20
20.8708402142171
30
0
41
1
10
127.418200109507
20
20.8708382438725
30
0
41
1
10
127.371274435753
20
20.8787813876859
30
0
41
1
10
127.306724453971
20
20.9046690493329
30
0
41
1
10
127.286091616142
20
20.9157119645609
30
0
41
1
10
127.249930009868
20
20.9439403357654
30
0
41
1
10
127.234168021532
20
20.9612003384207
30
0
41
1
10
127.225514813394
20
20.9822728655075
30
0
0
SPLINE
5
1BD
100
AcDbEntity
8
1
62
256
6
ByLayer
370
18
48
1
60
0
100
AcDbSpline
70
4
71
3
72
8
73
4
40
0
40
0
40
0
40
0
40
1
40
1
40
1
40
1
41
1
10
126.783029504769
20
10.2363066170004
30
0
41
1
10
126.780181488126
20
10.2345851007525
30
0
41
1
10
126.777333383991
20
10.2328628506365
30
0
41
1
10
126.774485186606
20
10.2311398176189
30
0
0
SPLINE
5
1BE
100
AcDbEntity
8
1
62
256
6
ByLayer
370
13
48
1
60
0
100
AcDbSpline
70
4
71
3
72
8
73
4
40
0
40
0
40
0
40
0
40
1
40
1
40
1
40
1
41
1
10
129.806841640028
20
-5.44898943937713
30
0
41
1
10
129.737895543863
20
-5.96078329798871
30
0
41
1
10
129.668949447698
20
-6.47257715660029
30
0
41
1
10
129.600003351532
20
-6.98437101521191
30
0
0
SPLINE
5
1BF
100
AcDbEntity
8
1
62
256
6
ByLayer
370
18
48
1
60
0
100
AcDbSpline
70
4
71
3
72
16
73
12
40
0
40
0
40
0
40
0
40
0.0712791903125614
40
0.0712791903125614
40
0.303459392734421
40
0.303459392734421
40
0.535639595156281
40
0.535639595156281
40
0.76781979757814
40
0.76781979757814
40
1
40
1
40
1
40
1
41
1
10
124.159483575251
20
13.0138502091554
30
0
41
1
10
124.152269297625
20
13.0110212867939
30
0
41
1
10
124.145267995695
20
13.0080694997605
30
0
41
1
10
124.116511313179
20
12.9950340302836
30
0
41
1
10
124.096818765527
20
12.9838283353554
30
0
41
1
10
124.062135955754
20
12.9589083079651
30
0
41
1
10
124.047530356173
20
12.94543539859
30
0
41
1
10
124.024066783282
20
12.9170311098781
30
0
41
1
10
124.015067966688
20
12.9019085946628
30
0
41
1
10
124.003069762766
20
12.8705574339817
30
0
41
1
10
124.000074898828
20
12.8544792171972
30
0
41
1
10
124.000073418173
20
12.8379998187516
30
0
0
SPLINE
5
1C0
100
AcDbEntity
8
1
62
256
6
ByLayer
370
18
48
1
60
0
100
AcDbSpline
70
4
71
3
72
12
73
8
40
0
40
0
40
0
40
0
40
0.22367781188214
40
0.22367781188214
40
0.482451874588093
40
0.482451874588093
40
1
40
1
40
1
40
1
41
1
10
129.60275434119
20
-14.0398748950167
30
0
41
1
10
129.614218125168
20
-14.0310051544538
30
0
41
1
10
129.624655156208
20
-14.0216005876629
30
0
41
1
10
129.644933572693
20
-14.0001525360918
30
0
41
1
10
129.654386377674
20
-13.9879027370895
30
0
41
1
10
129.677288962786
20
-13.9505114628674
30
0
41
1
10
129.685897167012
20
-13.9238297503827
30
0
41
1
10
129.68685205422
20
-13.8972626970899
30
0
0
SPLINE
5
1C1
100
AcDbEntity
8
1
62
256
6
ByLayer
370
18
48
1
60
0
100
AcDbSpline
70
4
71
3
72
16
73
12
40
0
40
0
40
0
40
0
40
0.15072054320353
40
0.15072054320353
40
0.363040407402647
40
0.363040407402647
40
0.575360271601765
40
0.575360271601765
40
0.787680135800882
40
0.787680135800882
40
1
40
1
40
1
40
1
41
1
10
129.601072447259
20
-5.13515343361951
30
0
41
1
10
129.619510485436
20
-5.14537595957458
30
0
41
1
10
129.637103637426
20
-5.15678047401394
30
0
41
1
10
129.676402966965
20
-5.18642908893961
30
0
41
1
10
129.697166647226
20
-5.20568232501989
30
0
41
1
10
129.734173845098
20
-5.24808497397768
30
0
41
1
10
129.750009873681
20
-5.27082138217204
30
0
41
1
10
129.776021109134
20
-5.31842238148408
30
0
41
1
10
129.786354194912
20
-5.34360651074397
30
0
41
1
10
129.801076387849
20
-5.39551427159972
30
0
41
1
10
129.805448237207
20
-5.42199125101189
30
0
41
1
10
129.806841640028
20
-5.44898943937713
30
0
0
SPLINE
5
1C2
100
AcDbEntity
8
1
62
256
6
ByLayer
370
13
48
1
60
0
100
AcDbSpline
70
4
71
3
72
8
73
4
40
0
40
0
40
0
40
0
40
1
40
1
40
1
40
1
41
1
10
129.68685205422
20
-13.8972626970899
30
0
41
1
10
129.705354448048
20
-13.7417625947374
30
0
41
1
10
129.723856841877
20
-13.586262492385
30
0
41
1
10
129.742359235705
20
-13.4307623900326
30
0
0
SPLINE
5
1C3
100
AcDbEntity
8
1
62
256
6
ByLayer
370
13
48
1
60
0
100
AcDbSpline
70
4
71
3
72
8
73
4
40
0
40
0
40
0
40
0
40
1
40
1
40
1
40
1
41
1
10
129.948137200326
20
-11.7013378162715
30
0
41
1
10
129.965400327493
20
-11.5562529117849
30
0
41
1
10
129.98266345466
20
-11.4111680072984
30
0
41
1
10
129.999926581827
20
-11.2660831028119
30
0
0
SPLINE
5
1C4
100
AcDbEntity
8
1
62
256
6
ByLayer
370
18
48
1
60
0
100
AcDbSpline
70
4
71
3
72
20
73
16
40
0
40
0
40
0
40
0
40
0.12500000000001
40
0.12500000000001
40
0.25000000000002
40
0.25000000000002
40
0.37500000000003
40
0.37500000000003
40
0.50000000000004
40
0.50000000000004
40
0.62500000000005
40
0.62500000000005
40
0.75000000000006
40
0.75000000000006
40
1
40
1
40
1
40
1
41
1
10
124.313147945779
20
14.2572949451592
30
0
41
1
10
124.313625336094
20
14.2708377157099
30
0
41
1
10
124.315971956778
20
14.284238932848
30
0
41
1
10
124.324227143278
20
14.3107716275043
30
0
41
1
10
124.330221649301
20
14.3240335895666
30
0
41
1
10
124.34556441983
20
14.3495894776894
30
0
41
1
10
124.354825989747
20
14.361816718051
30
0
41
1
10
124.376468677409
20
14.3851908547223
30
0
41
1
10
124.388983979597
20
14.3964112118159
30
0
41
1
10
124.41621750335
20
14.4168732656494
30
0
41
1
10
124.431004262839
20
14.4262229627801
30
0
41
1
10
124.462942013815
20
14.4431414405163
30
0
41
1
10
124.480048230487
20
14.4506483172717
30
0
41
1
10
124.532821762674
20
14.4695338702223
30
0
41
1
10
124.571136678757
20
14.4777241420935
30
0
41
1
10
124.609904360917
20
14.4806923386812
30
0
0
SPLINE
5
1C5
100
AcDbEntity
8
1
62
256
6
ByLayer
370
18
48
1
60
0
100
AcDbSpline
70
4
71
3
72
24
73
20
40
0
40
0
40
0
40
0
40
0.125
40
0.125
40
0.249999999999999
40
0.249999999999999
40
0.374999999999998
40
0.374999999999998
40
0.499999999999998
40
0.499999999999998
40
0.624999999999997
40
0.624999999999997
40
0.687499999999998
40
0.687499999999998
40
0.749999999999998
40
0.749999999999998
40
0.874999999999999
40
0.874999999999999
40
1
40
1
40
1
40
1
41
1
10
124.193158360105
20
5.73472052671397
30
0
41
1
10
124.194552015961
20
5.7074072992703
30
0
41
1
10
124.198917798757
20
5.68076075360261
30
0
41
1
10
124.213428926984
20
5.62876408371247
30
0
41
1
10
124.22371327764
20
5.60317139462634
30
0
41
1
10
124.249857991664
20
5.55460802427649
30
0
41
1
10
124.265542003256
20
5.53182019219662
30
0
41
1
10
124.302108122173
20
5.48921781227409
30
0
41
1
10
124.323260533553
20
5.46924299238211
30
0
41
1
10
124.36926455435
20
5.43399673578074
30
0
41
1
10
124.394195193049
20
5.41854028001066
30
0
41
1
10
124.434530157381
20
5.39865735449138
30
0
41
1
10
124.448544700611
20
5.39255996223514
30
0
41
1
10
124.477008461157
20
5.38173975241065
30
0
41
1
10
124.491498086022
20
5.37698860590817
30
0
41
1
10
124.535722362495
20
5.36466645200602
30
0
41
1
10
124.566251239725
20
5.35900391895649
30
0
41
1
10
124.629199261654
20
5.35301051812894
30
0
41
1
10
124.66085753799
20
5.35274428563747
30
0
41
1
10
124.692698298808
20
5.35518213160464
30
0
0
SPLINE
5
1C6
100
AcDbEntity
8
1
62
256
6
ByLayer
370
18
48
1
60
0
100
AcDbSpline
70
4
71
3
72
8
73
4
40
0
40
0
40
0
40
0
40
1
40
1
40
1
40
1
41
1
10
126.304083519569
20
10.1951241327708
30
0
41
1
10
126.301602673536
20
10.1964391545891
30
0
41
1
10
126.299122057769
20
10.1977534182756
30
0
41
1
10
126.296641657908
20
10.1990669713231
30
0
0
SPLINE
5
1C7
100
AcDbEntity
8
1
62
256
6
ByLayer
370
18
48
1
60
0
100
AcDbSpline
70
4
71
3
72
18
73
14
40
0
40
0
40
0
40
0
40
0.125
40
0.125
40
0.25
40
0.25
40
0.375
40
0.375
40
0.5
40
0.5
40
0.75
40
0.75
40
1
40
1
40
1
40
1
41
1
10
126.296641657908
20
10.1990669713231
30
0
41
1
10
126.292465656543
20
10.2012803271399
30
0
41
1
10
126.285471494897
20
10.2025534545082
30
0
41
1
10
126.267216973661
20
10.203061378437
30
0
41
1
10
126.256151309434
20
10.2022966835098
30
0
41
1
10
126.233030766084
20
10.1993742770666
30
0
41
1
10
126.220717962479
20
10.1972021762972
30
0
41
1
10
126.195968734283
20
10.1919425606103
30
0
41
1
10
126.18343598779
20
10.1888392331704
30
0
41
1
10
126.146134241952
20
10.1785380264118
30
0
41
1
10
126.121630928906
20
10.1703654353783
30
0
41
1
10
126.074142451648
20
10.1522563321909
30
0
41
1
10
126.051163392042
20
10.1423127749347
30
0
41
1
10
126.029212632069
20
10.1316764172828
30
0
0
SPLINE
5
1C8
100
AcDbEntity
8
1
62
256
6
ByLayer
370
18
48
1
60
0
100
AcDbSpline
70
4
71
3
72
18
73
14
40
0
40
0
40
0
40
0
40
0.25
40
0.25
40
0.5
40
0.5
40
0.625
40
0.625
40
0.75
40
0.75
40
0.875
40
0.875
40
1
40
1
40
1
40
1
41
1
10
127.060323954328
20
10.2106220992991
30
0
41
1
10
127.037802119175
20
10.2178493105217
30
0
41
1
10
127.01422374089
20
10.2242259260552
30
0
41
1
10
126.965496038739
20
10.2349598929603
30
0
41
1
10
126.940278480611
20
10.2393381736327
30
0
41
1
10
126.901906440819
20
10.2438396522209
30
0
41
1
10
126.889007965418
20
10.2449938899885
30
0
41
1
10
126.863374122625
20
10.2464042968998
30
0
41
1
10
126.850581560947
20
10.2466570899645
30
0
41
1
10
126.826448766847
20
10.2459616676513
30
0
41
1
10
126.81497456228
20
10.2450025806317
30
0
41
1
10
126.795544332332
20
10.2416242446953
30
0
41
1
10
126.787823805705
20
10.2392062769412
30
0
41
1
10
126.783029504769
20
10.2363066170004
30
0
0
SPLINE
5
1C9
100
AcDbEntity
8
1
62
256
6
ByLayer
370
18
48
1
60
0
100
AcDbSpline
70
4
71
3
72
34
73
30
40
0
40
0
40
0
40
0
40
0.0624999999999999
40
0.0624999999999999
40
0.125
40
0.125
40
0.25
40
0.25
40
0.375
40
0.375
40
0.4375
40
0.4375
40
0.5
40
0.5
40
0.5625
40
0.5625
40
0.625
40
0.625
40
0.750000000000001
40
0.750000000000001
40
0.812500000000001
40
0.812500000000001
40
0.875000000000001
40
0.875000000000001
40
0.937500000000001
40
0.937500000000001
40
0.96875
40
0.96875
40
1
40
1
40
1
40
1
41
1
10
126.774485186606
20
10.2311398176189
30
0
41
1
10
126.770159115873
20
10.2285227368119
30
0
41
1
10
126.76407073568
20
10.2262596956631
30
0
41
1
10
126.749492077284
20
10.2221639386307
30
0
41
1
10
126.74109127375
20
10.2203695356267
30
0
41
1
10
126.713917935953
20
10.2155252753393
30
0
41
1
10
126.69329698824
20
10.2130023679939
30
0
41
1
10
126.650262388732
20
10.2085149542598
30
0
41
1
10
126.627684790633
20
10.2065488086375
30
0
41
1
10
126.593308685412
20
10.2037156471152
30
0
41
1
10
126.581715913387
20
10.2027899376678
30
0
41
1
10
126.558536781214
20
10.2009678108184
30
0
41
1
10
126.546926896143
20
10.2000694638846
30
0
41
1
10
126.523667031943
20
10.1982885931225
30
0
41
1
10
126.512105012374
20
10.1974128043069
30
0
41
1
10
126.489116199269
20
10.1957001050519
30
0
41
1
10
126.477663813029
20
10.194861371716
30
0
41
1
10
126.443847017689
20
10.1924733103688
30
0
41
1
10
126.421820277967
20
10.1910242881691
30
0
41
1
10
126.390610729097
20
10.1895287448483
30
0
41
1
10
126.380472846065
20
10.1891447512184
30
0
41
1
10
126.36115399904
20
10.1887452724752
30
0
41
1
10
126.351902263089
20
10.1887275209315
30
0
41
1
10
126.334812151368
20
10.1892560580272
30
0
41
1
10
126.326915763795
20
10.189806277053
30
0
41
1
10
126.316855473399
20
10.1912512523954
30
0
41
1
10
126.313786825959
20
10.1918369186508
30
0
41
1
10
126.308342798798
20
10.1932720986188
30
0
41
1
10
126.305967805855
20
10.1941253293206
30
0
41
1
10
126.304083519569
20
10.1951241327708
30
0
0
SPLINE
5
1CA
100
AcDbEntity
8
1
62
256
6
ByLayer
370
18
48
1
60
0
100
AcDbSpline
70
4
71
3
72
16
73
12
40
0
40
0
40
0
40
0
40
0.290163667630819
40
0.290163667630819
40
0.580327335261639
40
0.580327335261639
40
0.725409169077049
40
0.725409169077049
40
0.870491002892458
40
0.870491002892458
40
1
40
1
40
1
40
1
41
1
10
126.029212632069
20
10.1316764172828
30
0
41
1
10
126.007272070061
20
10.1210450011095
30
0
41
1
10
125.986310222436
20
10.1096973795112
30
0
41
1
10
125.947293368117
20
10.0858958849181
30
0
41
1
10
125.929156069896
20
10.0734001584361
30
0
41
1
10
125.905886620794
20
10.054361154718
30
0
41
1
10
125.898787860633
20
10.0479593654926
30
0
41
1
10
125.886651424112
20
10.0353356974896
30
0
41
1
10
125.881598865827
20
10.0290851041875
30
0
41
1
10
125.875344113245
20
10.0182078551907
30
0
41
1
10
125.873772713605
20
10.0134301199016
30
0
41
1
10
125.87423037153
20
10.0095106786021
30
0
0
SPLINE
5
1CB
100
AcDbEntity
8
1
62
256
6
ByLayer
370
18
48
1
60
0
100
AcDbSpline
70
4
71
3
72
24
73
20
40
0
40
0
40
0
40
0
40
0.125
40
0.125
40
0.25
40
0.25
40
0.375
40
0.375
40
0.5
40
0.5
40
0.625
40
0.625
40
0.75
40
0.75
40
0.8125
40
0.8125
40
0.875
40
0.875
40
1
40
1
40
1
40
1
41
1
10
125.671083941803
20
9.69648086788521
30
0
41
1
10
125.690366112481
20
9.70478059424644
30
0
41
1
10
125.709853116653
20
9.71791738001099
30
0
41
1
10
125.746597973962
20
9.74684963383783
30
0
41
1
10
125.763775749311
20
9.76262483979221
30
0
41
1
10
125.795900776724
20
9.7946224536266
30
0
41
1
10
125.810794296868
20
9.81083375598215
30
0
41
1
10
125.83819653656
20
9.8426035778358
30
0
41
1
10
125.850660542738
20
9.85811550013761
30
0
41
1
10
125.87300490179
20
9.88794880773256
30
0
41
1
10
125.882672589584
20
9.90197830560035
30
0
41
1
10
125.898884845229
20
9.92836434298565
30
0
41
1
10
125.905477879399
20
9.94083783019161
30
0
41
1
10
125.911940083478
20
9.95753839220097
30
0
41
1
10
125.913536016082
20
9.96279218903433
30
0
41
1
10
125.915357605619
20
9.9726263097368
30
0
41
1
10
125.915576201695
20
9.97722826677713
30
0
41
1
10
125.913490376298
20
9.98942836923899
30
0
41
1
10
125.908603004166
20
9.99579803087076
30
0
41
1
10
125.897060176309
20
9.99789880404344
30
0
0
SPLINE
5
1CC
100
AcDbEntity
8
1
62
256
6
ByLayer
370
18
48
1
60
0
100
AcDbSpline
70
4
71
3
72
8
73
4
40
0
40
0
40
0
40
0
40
1
40
1
40
1
40
1
41
1
10
125.65207624501
20
9.68829719168204
30
0
41
1
10
125.658411698892
20
9.69102557498681
30
0
41
1
10
125.664747588184
20
9.69375347779817
30
0
41
1
10
125.671083941803
20
9.69648086788521
30
0
0
SPLINE
5
1CD
100
AcDbEntity
8
1
62
256
6
ByLayer
370
18
48
1
60
0
100
AcDbSpline
70
4
71
3
72
26
73
22
40
0
40
0
40
0
40
0
40
0.25
40
0.25
40
0.375000000000001
40
0.375000000000001
40
0.500000000000001
40
0.500000000000001
40
0.625000000000001
40
0.625000000000001
40
0.687500000000001
40
0.687500000000001
40
0.750000000000001
40
0.750000000000001
40
0.812500000000001
40
0.812500000000001
40
0.875
40
0.875
40
0.9375
40
0.9375
40
1
40
1
40
1
40
1
41
1
10
125.533877112897
20
9.4709741526363
30
0
41
1
10
125.533295839752
20
9.48883278003228
30
0
41
1
10
125.534696238727
20
9.50731299512142
30
0
41
1
10
125.540086764299
20
9.53568392887084
30
0
41
1
10
125.542440730282
20
9.54526252185772
30
0
41
1
10
125.548396851967
20
9.56457399442144
30
0
41
1
10
125.55200916434
20
9.57434316764571
30
0
41
1
10
125.560719120062
20
9.59396019296807
30
0
41
1
10
125.565826176437
20
9.60383910705266
30
0
41
1
10
125.574892776807
20
9.61860594301876
30
0
41
1
10
125.578148098042
20
9.62351404105647
30
0
41
1
10
125.585167694064
20
9.63323414535762
30
0
41
1
10
125.5889616188
20
9.63808199068123
30
0
41
1
10
125.59701322684
20
9.64748256603667
30
0
41
1
10
125.601278423987
20
9.65205138177103
30
0
41
1
10
125.610381947871
20
9.66088290633829
30
0
41
1
10
125.615290380367
20
9.66519839229895
30
0
41
1
10
125.625412564658
20
9.67312149334015
30
0
41
1
10
125.63061966166
20
9.67673800213703
30
0
41
1
10
125.641346870257
20
9.68321808641525
30
0
41
1
10
125.646741406353
20
9.68600044514235
30
0
41
1
10
125.65207624501
20
9.68829719168204
30
0
0
SPLINE
5
1CE
100
AcDbEntity
8
1
62
256
6
ByLayer
370
18
48
1
60
0
100
AcDbSpline
70
4
71
3
72
8
73
4
40
0
40
0
40
0
40
0
40
1
40
1
40
1
40
1
41
1
10
125.885732079684
20
9.99995854674646
30
0
41
1
10
125.889507815814
20
9.99927265578665
30
0
41
1
10
125.893283841605
20
9.99858608992662
30
0
41
1
10
125.897060176309
20
9.99789880404344
30
0
0
SPLINE
5
1CF
100
AcDbEntity
8
1
62
256
6
ByLayer
370
18
48
1
60
0
100
AcDbSpline
70
4
71
3
72
18
73
14
40
0
40
0
40
0
40
0
40
0.125
40
0.125
40
0.25
40
0.25
40
0.375
40
0.375
40
0.5
40
0.5
40
0.75
40
0.75
40
1
40
1
40
1
40
1
41
1
10
127.204825344837
20
10.1009531873953
30
0
41
1
10
127.211864568061
20
10.1031333242468
30
0
41
1
10
127.216183071838
20
10.1065825737539
30
0
41
1
10
127.219113166776
20
10.1152704748725
30
0
41
1
10
127.217733621922
20
10.1204110478574
30
0
41
1
10
127.211325649987
20
10.1308960160806
30
0
41
1
10
127.206276516248
20
10.1363602718046
30
0
41
1
10
127.194028561319
20
10.1470958553459
30
0
41
1
10
127.186790232612
20
10.1524110057085
30
0
41
1
10
127.163005272569
20
10.167865552617
30
0
41
1
10
127.144440497839
20
10.1775303229321
30
0
41
1
10
127.104381881469
20
10.1952937423775
30
0
41
1
10
127.082856257623
20
10.2033915288711
30
0
41
1
10
127.060323954328
20
10.2106220992991
30
0
0
SPLINE
5
1D0
100
AcDbEntity
8
1
62
256
6
ByLayer
370
18
48
1
60
0
100
AcDbSpline
70
4
71
3
72
8
73
4
40
0
40
0
40
0
40
0
40
1
40
1
40
1
40
1
41
1
10
127.192291833363
20
10.0970665120568
30
0
41
1
10
127.196469840909
20
10.0983628116909
30
0
41
1
10
127.200647674473
20
10.0996583543296
30
0
41
1
10
127.204825344837
20
10.1009531873953
30
0
0
SPLINE
5
1D1
100
AcDbEntity
8
1
62
256
6
ByLayer
370
18
48
1
60
0
100
AcDbSpline
70
4
71
3
72
26
73
22
40
0
40
0
40
0
40
0
40
0.249999999999999
40
0.249999999999999
40
0.374999999999999
40
0.374999999999999
40
0.499999999999998
40
0.499999999999998
40
0.624999999999998
40
0.624999999999998
40
0.687499999999998
40
0.687499999999998
40
0.749999999999999
40
0.749999999999999
40
0.812499999999999
40
0.812499999999999
40
0.874999999999999
40
0.874999999999999
40
0.9375
40
0.9375
40
1
40
1
40
1
40
1
41
1
10
127.596099757417
20
9.62886551666881
30
0
41
1
10
127.595518484271
20
9.64672414406479
30
0
41
1
10
127.592849760205
20
9.66489281210096
30
0
41
1
10
127.58539215297
20
9.69228004546298
30
0
41
1
10
127.582320285986
20
9.70144321668624
30
0
41
1
10
127.574864831214
20
9.71972784954073
30
0
41
1
10
127.570468414063
20
9.72888384492401
30
0
41
1
10
127.560110712248
20
9.74704098012953
30
0
41
1
10
127.554137825855
20
9.75607157297119
30
0
41
1
10
127.54369212628
20
9.76934447535933
30
0
41
1
10
127.539964032429
20
9.77371789740738
30
0
41
1
10
127.531971244145
20
9.78228859825214
30
0
41
1
10
127.527673068491
20
9.78651688255405
30
0
41
1
10
127.518595529244
20
9.79460598728005
30
0
41
1
10
127.513807328849
20
9.7984816415408
30
0
41
1
10
127.503629500037
20
9.80583691470252
30
0
41
1
10
127.498162166479
20
9.80935799378403
30
0
41
1
10
127.486927881514
20
9.81564596485001
30
0
41
1
10
127.48116767624
20
9.81842277657506
30
0
41
1
10
127.46933771299
20
9.82317580066351
30
0
41
1
10
127.463406597951
20
9.82509102580977
30
0
41
1
10
127.457557357025
20
9.82653147800823
30
0
0
SPLINE
5
1D2
100
AcDbEntity
8
1
62
256
6
ByLayer
370
18
48
1
60
0
100
AcDbSpline
70
4
71
3
72
8
73
4
40
0
40
0
40
0
40
0
40
1
40
1
40
1
40
1
41
1
10
127.457557357025
20
9.82653147800823
30
0
41
1
10
127.450610987909
20
9.8282429560067
30
0
41
1
10
127.443664297943
20
9.82995389560975
30
0
41
1
10
127.436717265894
20
9.83166426074672
30
0
0
SPLINE
5
1D3
100
AcDbEntity
8
1
62
256
6
ByLayer
370
18
48
1
60
0
100
AcDbSpline
70
4
71
3
72
18
73
14
40
0
40
0
40
0
40
0
40
0.125
40
0.125
40
0.25
40
0.25
40
0.5
40
0.5
40
0.75
40
0.75
40
0.875
40
0.875
40
1
40
1
40
1
40
1
41
1
10
127.436717265894
20
9.83166426074672
30
0
41
1
10
127.415613846451
20
9.83685994037384
30
0
41
1
10
127.394124897196
20
9.84682739030436
30
0
41
1
10
127.353507784138
20
9.8697874140457
30
0
41
1
10
127.334401950084
20
9.88282384598855
30
0
41
1
10
127.281253716849
20
9.92290000384463
30
0
41
1
10
127.250981486663
20
9.95102092208694
30
0
41
1
10
127.20263577848
20
10.0035144668859
30
0
41
1
10
127.184541608197
20
10.0279094948688
30
0
41
1
10
127.171709600729
20
10.0594713521864
30
0
41
1
10
127.169841901098
20
10.0692173928862
30
0
41
1
10
127.173817291494
20
10.0859885881352
30
0
41
1
10
127.179598482443
20
10.093128178779
30
0
41
1
10
127.192291833363
20
10.0970665120568
30
0
0
SPLINE
5
1D4
100
AcDbEntity
8
1
62
256
6
ByLayer
370
18
48
1
60
0
100
AcDbSpline
70
4
71
3
72
18
73
14
40
0
40
0
40
0
40
0
40
0.125
40
0.125
40
0.25
40
0.25
40
0.375
40
0.375
40
0.5
40
0.5
40
0.75
40
0.75
40
1
40
1
40
1
40
1
41
1
10
125.662962506855
20
9.3538353375003
30
0
41
1
10
125.652348658694
20
9.3474615845945
30
0
41
1
10
125.641462446107
20
9.34354330780948
30
0
41
1
10
125.620752774131
20
9.34077643396751
30
0
41
1
10
125.611113952848
20
9.34191493057062
30
0
41
1
10
125.594244740377
20
9.34733084897718
30
0
41
1
10
125.58677915489
20
9.35162420013711
30
0
41
1
10
125.573731006458
20
9.36197204565485
30
0
41
1
10
125.568089924075
20
9.36806115023003
30
0
41
1
10
125.553402437063
20
9.38792392614789
30
0
41
1
10
125.546513560586
20
9.40324631514605
30
0
41
1
10
125.537024170117
20
9.4358222158092
30
0
41
1
10
125.534458656218
20
9.45310722455642
30
0
41
1
10
125.533877112897
20
9.4709741526363
30
0
0
SPLINE
5
1D5
100
AcDbEntity
8
1
62
256
6
ByLayer
370
18
48
1
60
0
100
AcDbSpline
70
4
71
3
72
18
73
14
40
0
40
0
40
0
40
0
40
0.125
40
0.125
40
0.25
40
0.25
40
0.375
40
0.375
40
0.500000000000001
40
0.500000000000001
40
0.75
40
0.75
40
1
40
1
40
1
40
1
41
1
10
127.46844361887
20
9.49206962382652
30
0
41
1
10
127.480202304178
20
9.48740879451586
30
0
41
1
10
127.492026486636
20
9.48522930925313
30
0
41
1
10
127.514111893413
20
9.48573898432124
30
0
41
1
10
127.524180615184
20
9.48838636303407
30
0
41
1
10
127.541524068498
20
9.49642172919152
30
0
41
1
10
127.549045579576
20
9.50186254768525
30
0
41
1
10
127.561976479222
20
9.51419944484499
30
0
41
1
10
127.567444567085
20
9.52113910842655
30
0
41
1
10
127.581395909497
20
9.54319457864642
30
0
41
1
10
127.587512860541
20
9.55951274172023
30
0
41
1
10
127.595175648018
20
9.59340187632492
30
0
41
1
10
127.596681300738
20
9.61099858858893
30
0
41
1
10
127.596099757417
20
9.62886551666881
30
0
0
SPLINE
5
1D6
100
AcDbEntity
8
1
62
256
6
ByLayer
370
18
48
1
60
0
100
AcDbSpline
70
4
71
3
72
8
73
4
40
0
40
0
40
0
40
0
40
1
40
1
40
1
40
1
41
1
10
125.92629267783
20
9.09977998228558
30
0
41
1
10
125.922759670204
20
9.09299145810894
30
0
41
1
10
125.919226956719
20
9.08620266775205
30
0
41
1
10
125.915694519043
20
9.07941362811326
30
0
0
SPLINE
5
1D7
100
AcDbEntity
8
1
62
256
6
ByLayer
370
18
48
1
60
0
100
AcDbSpline
70
4
71
3
72
18
73
14
40
0
40
0
40
0
40
0
40
0.125
40
0.125
40
0.25
40
0.25
40
0.375
40
0.375
40
0.500000000000001
40
0.500000000000001
40
0.75
40
0.75
40
1
40
1
40
1
40
1
41
1
10
125.915694519043
20
9.07941362811326
30
0
41
1
10
125.909742217257
20
9.06797827057116
30
0
41
1
10
125.906446747555
20
9.05581780626105
30
0
41
1
10
125.905318233821
20
9.03178930089891
30
0
41
1
10
125.907462983467
20
9.0201329495155
30
0
41
1
10
125.915132719203
20
8.99890396427443
30
0
41
1
10
125.920697535367
20
8.98904863255126
30
0
41
1
10
125.933804743054
20
8.97099644487298
30
0
41
1
10
125.941390411912
20
8.9627236660684
30
0
41
1
10
125.966044485193
20
8.93986855226547
30
0
41
1
10
125.98496608538
20
8.92716538540068
30
0
41
1
10
126.025490554924
20
8.9054351898989
30
0
41
1
10
126.047120612691
20
8.89644814043396
30
0
41
1
10
126.069652915985
20
8.88921757000605
30
0
0
SPLINE
5
1D8
100
AcDbEntity
8
1
62
256
6
ByLayer
370
18
48
1
60
0
100
AcDbSpline
70
4
71
3
72
8
73
4
40
0
40
0
40
0
40
0
40
1
40
1
40
1
40
1
41
1
10
125.681867245299
20
9.3651822335957
30
0
41
1
10
125.67556521317
20
9.36140037419003
30
0
41
1
10
125.669263643284
20
9.35761806607493
30
0
41
1
10
125.662962506855
20
9.3538353375003
30
0
0
SPLINE
5
1D9
100
AcDbEntity
8
1
62
256
6
ByLayer
370
18
48
1
60
0
100
AcDbSpline
70
4
71
3
72
20
73
16
40
0
40
0
40
0
40
0
40
0.125
40
0.125
40
0.25
40
0.25
40
0.375
40
0.375
40
0.5
40
0.5
40
0.75
40
0.75
40
0.875
40
0.875
40
1
40
1
40
1
40
1
41
1
10
125.92629267783
20
9.09977998228561
30
0
41
1
10
125.937099211187
20
9.12054427739236
30
0
41
1
10
125.941039253284
20
9.14306617730378
30
0
41
1
10
125.941893538917
20
9.18588266113321
30
0
41
1
10
125.93870901432
20
9.20671961468199
30
0
41
1
10
125.928151824189
20
9.24517394417819
30
0
41
1
10
125.920613090782
20
9.26329997121891
30
0
41
1
10
125.90239221269
20
9.29623196755807
30
0
41
1
10
125.891753811017
20
9.3110368776272
30
0
41
1
10
125.855495755303
20
9.35051492146297
30
0
41
1
10
125.826268786145
20
9.36959333958961
30
0
41
1
10
125.776193327832
20
9.38319252558367
30
0
41
1
10
125.758347920296
20
9.38522142965817
30
0
41
1
10
125.720855272965
20
9.38193705267784
30
0
41
1
10
125.701039487366
20
9.37668752625407
30
0
41
1
10
125.681867245299
20
9.36518223359573
30
0
0
SPLINE
5
1DA
100
AcDbEntity
8
1
62
256
6
ByLayer
370
18
48
1
60
0
100
AcDbSpline
70
4
71
3
72
8
73
4
40
0
40
0
40
0
40
0
40
1
40
1
40
1
40
1
41
1
10
127.44750056939
20
9.50036562645721
30
0
41
1
10
127.454481922929
20
9.49760079200161
30
0
41
1
10
127.461462932301
20
9.49483544709486
30
0
41
1
10
127.46844361887
20
9.49206962382652
30
0
0
SPLINE
5
1DB
100
AcDbEntity
8
1
62
256
6
ByLayer
370
18
48
1
60
0
100
AcDbSpline
70
4
71
3
72
18
73
14
40
0
40
0
40
0
40
0
40
0.25
40
0.25
40
0.5
40
0.5
40
0.625
40
0.625
40
0.75
40
0.75
40
0.875
40
0.875
40
1
40
1
40
1
40
1
41
1
10
127.100764238245
20
8.96816325202229
30
0
41
1
10
127.122704800253
20
8.97879466819563
30
0
41
1
10
127.143562261068
20
8.99103115160267
30
0
41
1
10
127.182113858421
20
9.01879434549809
30
0
41
1
10
127.199893638615
20
9.03433436581318
30
0
41
1
10
127.222295163652
20
9.06076381053521
30
0
41
1
10
127.229047581508
20
9.07011473145792
30
0
41
1
10
127.240323631705
20
9.09006465600078
30
0
41
1
10
127.244859420161
20
9.10071558464065
30
0
41
1
10
127.250205373765
20
9.12296871906244
30
0
41
1
10
127.251024233664
20
9.13470907159353
30
0
41
1
10
127.247087292717
20
9.15831500686016
30
0
41
1
10
127.242235319574
20
9.1700009988746
30
0
41
1
10
127.234787784196
20
9.18040826876211
30
0
0
SPLINE
5
1DC
100
AcDbEntity
8
1
62
256
6
ByLayer
370
18
48
1
60
0
100
AcDbSpline
70
4
71
3
72
8
73
4
40
0
40
0
40
0
40
0
40
1
40
1
40
1
40
1
41
1
10
127.234787784196
20
9.18040826876211
30
0
41
1
10
127.230366815379
20
9.18658836629498
30
0
41
1
10
127.225945669508
20
9.19276817987316
30
0
41
1
10
127.221524334884
20
9.19894769029898
30
0
0
SPLINE
5
1DD
100
AcDbEntity
8
1
62
256
6
ByLayer
370
18
48
1
60
0
100
AcDbSpline
70
4
71
3
72
18
73
14
40
0
40
0
40
0
40
0
40
0.125
40
0.125
40
0.25
40
0.25
40
0.5
40
0.5
40
0.75
40
0.75
40
0.875
40
0.875
40
1
40
1
40
1
40
1
41
1
10
127.221524334884
20
9.19894769029898
30
0
41
1
10
127.208093379275
20
9.21771956288393
30
0
41
1
10
127.201395562361
20
9.2392111503321
30
0
41
1
10
127.195466440271
20
9.2817700266398
30
0
41
1
10
127.196334457151
20
9.30283944540318
30
0
41
1
10
127.20617964774
20
9.36291726357226
30
0
41
1
10
127.222301012709
20
9.39912253457044
30
0
41
1
10
127.266994633787
20
9.45874064842209
30
0
41
1
10
127.295585708587
20
9.48217903167455
30
0
41
1
10
127.346730934393
20
9.5034643302327
30
0
41
1
10
127.365271153727
20
9.50826220306348
30
0
41
1
10
127.404966161405
20
9.51086826570602
30
0
41
1
10
127.426290274915
20
9.50876556676278
30
0
41
1
10
127.44750056939
20
9.50036562645721
30
0
0
SPLINE
5
1DE
100
AcDbEntity
8
1
62
256
6
ByLayer
370
18
48
1
60
0
100
AcDbSpline
70
4
71
3
72
18
73
14
40
0
40
0
40
0
40
0
40
0.25
40
0.25
40
0.5
40
0.5
40
0.625
40
0.625
40
0.75
40
0.75
40
0.875
40
0.875
40
1
40
1
40
1
40
1
41
1
10
126.069652915985
20
8.88921757000605
30
0
41
1
10
126.092174751139
20
8.88199035878341
30
0
41
1
10
126.115648742615
20
8.87650260505865
30
0
41
1
10
126.163911187799
20
8.86973033745585
30
0
41
1
10
126.1887712279
20
8.86839635061656
30
0
41
1
10
126.226275343627
20
8.8712853130323
30
0
41
1
10
126.238827476723
20
8.87308020696199
30
0
41
1
10
126.263600933193
20
8.87899605659058
30
0
41
1
10
126.275876725042
20
8.88314359886365
30
0
41
1
10
126.298745995134
20
8.89459802649012
30
0
41
1
10
126.309464411686
20
8.90199270731665
30
0
41
1
10
126.327097439702
20
8.92067435764963
30
0
41
1
10
126.333782767098
20
8.93190712746784
30
0
41
1
10
126.337490359111
20
8.94406019850814
30
0
0
SPLINE
5
1DF
100
AcDbEntity
8
1
62
256
6
ByLayer
370
18
48
1
60
0
100
AcDbSpline
70
4
71
3
72
18
73
14
40
0
40
0
40
0
40
0
40
0.125
40
0.125
40
0.25
40
0.25
40
0.375
40
0.375
40
0.5
40
0.5
40
0.75
40
0.75
40
1
40
1
40
1
40
1
41
1
10
126.823878205972
20
8.98129984418549
30
0
41
1
10
126.829141128776
20
8.96983126767802
30
0
41
1
10
126.837158324495
20
8.95984692550672
30
0
41
1
10
126.857214426935
20
8.94399839733444
30
0
41
1
10
126.869045295956
20
8.93824731386312
30
0
41
1
10
126.893427603106
20
8.93042570328845
30
0
41
1
10
126.906256089136
20
8.9282067280586
30
0
41
1
10
126.931864570089
20
8.92614973960855
30
0
41
1
10
126.944744656735
20
8.9262954386065
30
0
41
1
10
126.982915515809
20
8.92919607847065
30
0
41
1
10
127.007775654312
20
8.9343302729545
30
0
41
1
10
127.055729984745
20
8.94847260008558
30
0
41
1
10
127.078813478272
20
8.95752689437037
30
0
41
1
10
127.100764238245
20
8.96816325202229
30
0
0
SPLINE
5
1E0
100
AcDbEntity
8
1
62
256
6
ByLayer
370
18
48
1
60
0
100
AcDbSpline
70
4
71
3
72
8
73
4
40
0
40
0
40
0
40
0
40
1
40
1
40
1
40
1
41
1
10
126.814500991624
20
9.00172236157158
30
0
41
1
10
126.817626837577
20
8.99491511521066
30
0
41
1
10
126.820752573424
20
8.98810760380607
30
0
41
1
10
126.823878205972
20
8.98129984418549
30
0
0
SPLINE
5
1E1
100
AcDbEntity
8
1
62
256
6
ByLayer
370
18
48
1
60
0
100
AcDbSpline
70
4
71
3
72
8
73
4
40
0
40
0
40
0
40
0
40
1
40
1
40
1
40
1
41
1
10
126.337490359111
20
8.94406019850814
30
0
41
1
10
126.339693143067
20
8.95127592132911
30
0
41
1
10
126.341896127122
20
8.95849141916329
30
0
41
1
10
126.344099324587
20
8.96570667672347
30
0
0
SPLINE
5
1E2
100
AcDbEntity
8
1
62
256
6
ByLayer
370
18
48
1
60
0
100
AcDbSpline
70
4
71
3
72
18
73
14
40
0
40
0
40
0
40
0
40
0.125
40
0.125
40
0.25
40
0.25
40
0.5
40
0.5
40
0.75
40
0.75
40
0.875
40
0.875
40
1
40
1
40
1
40
1
41
1
10
126.344099324587
20
8.96570667672347
30
0
41
1
10
126.350792110786
20
8.98762490102507
30
0
41
1
10
126.364690383345
20
9.00675180911122
30
0
41
1
10
126.39783524822
20
9.03949050052748
30
0
41
1
10
126.417162002373
20
9.0530335668231
30
0
41
1
10
126.478596950759
20
9.08630576684806
30
0
41
1
10
126.524455744535
20
9.09894399499481
30
0
41
1
10
126.617494946257
20
9.10606965005167
30
0
41
1
10
126.664714844661
20
9.10056039066103
30
0
41
1
10
126.730250213468
20
9.07701618650052
30
0
41
1
10
126.751305824208
20
9.06655287273836
30
0
41
1
10
126.788564835329
20
9.03927968171658
30
0
41
1
10
126.805004249655
20
9.02240369493751
30
0
41
1
10
126.814500991624
20
9.00172236157161
30
0
0
SPLINE
5
1E3
100
AcDbEntity
8
1
62
256
6
ByLayer
370
13
48
1
60
0
100
AcDbSpline
70
4
71
3
72
8
73
4
40
0
40
0
40
0
40
0
40
1
40
1
40
1
40
1
41
1
10
124.609904360917
20
14.4806923386812
30
0
41
1
10
124.566070048532
20
13.6334911357642
30
0
41
1
10
124.522235736147
20
12.7862899328471
30
0
41
1
10
124.478401423763
20
11.93908872993
30
0
0
SPLINE
5
1E4
100
AcDbEntity
8
1
62
256
6
ByLayer
370
18
48
1
60
0
100
AcDbSpline
70
4
71
3
72
24
73
20
40
0
40
0
40
0
40
0
40
0.12500000000004
40
0.12500000000004
40
0.187500000000059
40
0.187500000000059
40
0.250000000000078
40
0.250000000000078
40
0.375000000000065
40
0.375000000000065
40
0.500000000000052
40
0.500000000000052
40
0.625000000000039
40
0.625000000000039
40
0.750000000000026
40
0.750000000000026
40
0.875000000000013
40
0.875000000000013
40
1
40
1
40
1
40
1
41
1
10
124.478401423763
20
11.93908872993
30
0
41
1
10
124.446572605542
20
11.936651798332
30
0
41
1
10
124.415274608917
20
11.9327399834482
30
0
41
1
10
124.36910002034
20
11.9247261366479
30
0
41
1
10
124.353838136951
20
11.9216946336969
30
0
41
1
10
124.323580814113
20
11.914891315577
30
0
41
1
10
124.308551365835
20
11.9111051514109
30
0
41
1
10
124.264869814724
20
11.898877048119
30
0
41
1
10
124.237278545908
20
11.8895079569173
30
0
41
1
10
124.185134845801
20
11.8683521923805
30
0
41
1
10
124.16051543714
20
11.8564781585264
30
0
41
1
10
124.116511313179
20
11.8313075992645
30
0
41
1
10
124.096818765527
20
11.8179058914957
30
0
41
1
10
124.062135955754
20
11.7894401878418
30
0
41
1
10
124.047530356173
20
11.7746591109611
30
0
41
1
10
124.024066783282
20
11.7445731293483
30
0
41
1
10
124.015067966688
20
11.729068275693
30
0
41
1
10
124.003069762766
20
11.6979021767138
30
0
41
1
10
124.000074898828
20
11.6823826820384
30
0
41
1
10
124.000073418173
20
11.6669265125447
30
0
0
SPLINE
5
1E5
100
AcDbEntity
8
1
62
256
6
ByLayer
370
18
48
1
60
0
100
AcDbSpline
70
4
71
1
72
4
73
2
40
0
40
0
40
1
40
1
41
1
10
129.685930099621
20
-13.9090781263528
30
0
41
1
10
129.742908555319
20
-13.430678306592
30
0
0
SPLINE
5
1E6
100
AcDbEntity
8
1
62
256
6
ByLayer
370
18
48
1
60
0
100
AcDbSpline
70
4
71
1
72
4
73
2
40
0
40
0
40
1
40
1
41
1
10
129.948424530026
20
-11.7051347822519
30
0
41
1
10
129.999052440278
20
-11.2800551123552
30
0
0
SPLINE
5
1E7
100
AcDbEntity
8
1
62
256
6
ByLayer
370
13
48
1
60
0
100
AcDbSpline
70
4
71
3
72
8
73
4
40
0
40
0
40
0
40
0
40
1
40
1
40
1
40
1
41
1
10
128.612153486474
20
12.2555840188785
30
0
41
1
10
128.371885213158
20
13.0810332810435
30
0
41
1
10
128.131616939842
20
13.9064825432084
30
0
41
1
10
127.891348666526
20
14.7319318053733
30
0
0
SPLINE
5
1E8
100
AcDbEntity
8
1
62
256
6
ByLayer
370
18
48
1
60
0
100
AcDbSpline
70
4
71
3
72
24
73
20
40
0
40
0
40
0
40
0
40
0.124999999999967
40
0.124999999999967
40
0.249999999999935
40
0.249999999999935
40
0.374999999999903
40
0.374999999999903
40
0.49999999999987
40
0.49999999999987
40
0.624999999999837
40
0.624999999999837
40
0.687499999999866
40
0.687499999999866
40
0.749999999999895
40
0.749999999999895
40
0.874999999999948
40
0.874999999999948
40
1
40
1
40
1
40
1
41
1
10
129.090481489076
20
12.0566669117843
30
0
41
1
10
129.090480008152
20
12.0721256612733
30
0
41
1
10
129.087484104881
20
12.0871075761124
30
0
41
1
10
129.07566938032
20
12.1161441588117
30
0
41
1
10
129.066724409756
20
12.1303319221093
30
0
41
1
10
129.043147006105
20
12.1570344447049
30
0
41
1
10
129.02868095557
20
12.1694512435263
30
0
41
1
10
128.994420004735
20
12.1924249377018
30
0
41
1
10
128.97436398853
20
12.2030638672887
30
0
41
1
10
128.930328336128
20
12.2215493137008
30
0
41
1
10
128.906279371717
20
12.2294982442315
30
0
41
1
10
128.867110705583
20
12.2394500497518
30
0
41
1
10
128.853460220433
20
12.2424474591016
30
0
41
1
10
128.825656475345
20
12.2476475858788
30
0
41
1
10
128.811464403264
20
12.2498650472486
30
0
41
1
10
128.768037665678
20
12.2553960953848
30
0
41
1
10
128.737914964192
20
12.2576000103277
30
0
41
1
10
128.675515940531
20
12.2589186481042
30
0
41
1
10
128.643994247294
20
12.2580218648459
30
0
41
1
10
128.612153486474
20
12.2555840188785
30
0
0
SPLINE
5
1E9
100
AcDbEntity
8
1
62
256
6
ByLayer
370
18
48
1
60
0
100
AcDbSpline
70
4
71
1
72
4
73
2
40
0
40
0
40
1
40
1
41
1
10
124.314164153879
20
14.270126162603
30
0
41
1
10
124.001000199612
20
11.6818011523722
30
0
0
SPLINE
5
1EA
100
AcDbEntity
8
1
62
256
6
ByLayer
370
18
48
1
60
0
100
AcDbSpline
70
4
71
3
72
26
73
22
40
0
40
0
40
0
40
0
40
0.125000000000039
40
0.125000000000039
40
0.187500000000058
40
0.187500000000058
40
0.250000000000077
40
0.250000000000077
40
0.375000000000132
40
0.375000000000132
40
0.500000000000186
40
0.500000000000186
40
0.62500000000024
40
0.62500000000024
40
0.687500000000231
40
0.687500000000231
40
0.750000000000221
40
0.750000000000221
40
0.87500000000011
40
0.87500000000011
40
1
40
1
40
1
40
1
41
1
10
124.313147945779
20
-23.9143755861081
30
0
41
1
10
124.313625336094
20
-23.9333285635536
30
0
41
1
10
124.315971956778
20
-23.9518881541192
30
0
41
1
10
124.322163346653
20
-23.9791653209473
30
0
41
1
10
124.324675626112
20
-23.988163324913
30
0
41
1
10
124.330613007647
20
-24.0059672257379
30
0
41
1
10
124.334057341933
20
-24.0148069232782
30
0
41
1
10
124.34556441983
20
-24.0405022580443
30
0
41
1
10
124.354825989747
20
-24.0566940648072
30
0
41
1
10
124.376468677409
20
-24.087236738111
30
0
41
1
10
124.388983979597
20
-24.1016767007921
30
0
41
1
10
124.41621750335
20
-24.1275507094687
30
0
41
1
10
124.431004262839
20
-24.1391291563487
30
0
41
1
10
124.454957576071
20
-24.1544378833546
30
0
41
1
10
124.46328061828
20
-24.1592129600879
30
0
41
1
10
124.480211520537
20
-24.1678796639823
30
0
41
1
10
124.488843819185
20
-24.1717919157662
30
0
41
1
10
124.515230585278
20
-24.1822923063253
30
0
41
1
10
124.533470366241
20
-24.1876555806156
30
0
41
1
10
124.571298947335
20
-24.1949773905956
30
0
41
1
10
124.590520519837
20
-24.196855370399
30
0
41
1
10
124.609904360917
20
-24.1969181047992
30
0
0
SPLINE
5
1EB
100
AcDbEntity
8
1
62
256
6
ByLayer
370
13
48
1
60
0
100
AcDbSpline
70
4
71
3
72
8
73
4
40
0
40
0
40
0
40
0
40
1
40
1
40
1
40
1
41
1
10
124.399996781656
20
-15.5471644756848
30
0
41
1
10
124.331050641139
20
-15.7461938463736
30
0
41
1
10
124.262104500622
20
-15.9452232170624
30
0
41
1
10
124.193158360105
20
-16.1442525877511
30
0
0
SPLINE
5
1EC
100
AcDbEntity
8
1
62
256
6
ByLayer
370
18
48
1
60
0
100
AcDbSpline
70
4
71
1
72
4
73
2
40
0
40
0
40
1
40
1
41
1
10
129.0743099386
20
12.1169591065939
30
0
41
1
10
128.186058892908
20
14.6064256280303
30
0
0
SPLINE
5
1ED
100
AcDbEntity
8
1
62
256
6
ByLayer
370
18
48
1
60
0
100
AcDbSpline
70
4
71
3
72
24
73
20
40
0
40
0
40
0
40
0
40
0.125000000000092
40
0.125000000000092
40
0.187500000000085
40
0.187500000000085
40
0.250000000000078
40
0.250000000000078
40
0.375000000000065
40
0.375000000000065
40
0.500000000000052
40
0.500000000000052
40
0.625000000000039
40
0.625000000000039
40
0.750000000000026
40
0.750000000000026
40
0.875000000000013
40
0.875000000000013
40
1
40
1
40
1
40
1
41
1
10
128.826450361561
20
5.67167742055648
30
0
41
1
10
128.858279179782
20
5.67411435215445
30
0
41
1
10
128.889440693157
20
5.67918833253151
30
0
41
1
10
128.935211958067
20
5.69063651176984
30
0
41
1
10
128.950306066009
20
5.6950966357133
30
0
41
1
10
128.980159330691
20
5.70534054049182
30
0
41
1
10
128.99495143853
20
5.71114767698441
30
0
41
1
10
129.03783295405
20
5.73018814562883
30
0
41
1
10
129.064770716882
20
5.74512189117482
30
0
41
1
10
129.115368732416
20
5.77943928021207
30
0
41
1
10
129.139088556899
20
5.79897334339972
30
0
41
1
10
129.181129313926
20
5.8408621249894
30
0
41
1
10
129.19975072897
20
5.86338461033006
30
0
41
1
10
129.232109150643
20
5.91164265965006
30
0
41
1
10
129.245484321221
20
5.93690093530142
30
0
41
1
10
129.26640023155
20
5.98868046201119
30
0
41
1
10
129.274064778961
20
6.01554672166407
30
0
41
1
10
129.283338993867
20
6.06990779923319
30
0
41
1
10
129.284956872385
20
6.09715243197886
30
0
41
1
10
129.283566430875
20
6.12446092710496
30
0
0
SPLINE
5
1EE
100
AcDbEntity
8
1
62
256
6
ByLayer
370
18
48
1
60
0
100
AcDbSpline
70
4
71
3
72
32
73
28
40
0
40
0
40
0
40
0
40
0.0166683180740633
40
0.0166683180740633
40
0.0722300544084669
40
0.0722300544084669
40
0.127791790742871
40
0.127791790742871
40
0.238915263411677
40
0.238915263411677
40
0.350038736080484
40
0.350038736080484
40
0.461162208749291
40
0.461162208749291
40
0.516723945083695
40
0.516723945083695
40
0.572285681418098
40
0.572285681418098
40
0.683409154086875
40
0.683409154086875
40
0.738970890421248
40
0.738970890421248
40
0.794532626755622
40
0.794532626755622
40
0.905656099424397
40
0.905656099424397
40
1
40
1
40
1
40
1
41
1
10
127.634696787285
20
0.274816247629957
30
0
41
1
10
127.628852222575
20
0.279663464565885
30
0
41
1
10
127.622945911981
20
0.284452048091339
30
0
41
1
10
127.597084083379
20
0.304948774313004
30
0
41
1
10
127.576490415319
20
0.32003479828262
30
0
41
1
10
127.534591175364
20
0.348360649147366
30
0
41
1
10
127.513201492887
20
0.361670165354042
30
0
41
1
10
127.447729739253
20
0.399076846036451
30
0
41
1
10
127.402352448178
20
0.420666731519049
30
0
41
1
10
127.308051201469
20
0.457001750905448
30
0
41
1
10
127.258926056391
20
0.471718744574446
30
0
41
1
10
127.160422866431
20
0.49315724793658
30
0
41
1
10
127.11065070723
20
0.500064861554051
30
0
41
1
10
127.035209009853
20
0.504696636006202
30
0
41
1
10
127.009930676925
20
0.505281708418295
30
0
41
1
10
126.959104733846
20
0.504482592844909
30
0
41
1
10
126.933605466219
20
0.503088809242797
30
0
41
1
10
126.858039588763
20
0.496032623776216
30
0
41
1
10
126.808461649758
20
0.487511744922727
30
0
41
1
10
126.735267611169
20
0.469121706578448
30
0
41
1
10
126.711065893439
20
0.462052934680827
30
0
41
1
10
126.663060588435
20
0.446009116747746
30
0
41
1
10
126.639157034934
20
0.436988564388543
30
0
41
1
10
126.56900793622
20
0.407392292682175
30
0
41
1
10
126.52424508738
20
0.384317404730694
30
0
41
1
10
126.44504163533
20
0.335685675232156
30
0
41
1
10
126.410062969529
20
0.311029859292688
30
0
41
1
10
126.376510495994
20
0.283978707127886
30
0
0
SPLINE
5
1EF
100
AcDbEntity
8
1
62
256
6
ByLayer
370
18
48
1
60
0
100
AcDbSpline
70
4
71
3
72
29
73
25
40
0
40
0
40
0
40
0
40
0.125000000000051
40
0.125000000000051
40
0.187500000000078
40
0.187500000000078
40
0.250000000000104
40
0.250000000000104
40
0.375000000000108
40
0.375000000000108
40
0.437500000000109
40
0.437500000000109
40
0.500000000000111
40
0.500000000000111
40
0.625000000000114
40
0.625000000000114
40
0.687500000000095
40
0.687500000000095
40
0.750000000000076
40
0.812500000000057
40
0.812500000000057
40
0.875000000000038
40
0.875000000000038
40
1
40
1
40
1
40
1
41
1
10
124.478401423763
20
-24.9761992508902
30
0
41
1
10
124.446572605542
20
-24.9760962392213
30
0
41
1
10
124.415274608918
20
-24.9728651498715
30
0
41
1
10
124.36910002034
20
-24.96346680376
30
0
41
1
10
124.353838136951
20
-24.9595700302279
30
0
41
1
10
124.323580814113
20
-24.9502063561282
30
0
41
1
10
124.308551365835
20
-24.9447150899105
30
0
41
1
10
124.264869814724
20
-24.926227525625
30
0
41
1
10
124.237278545908
20
-24.9111522122702
30
0
41
1
10
124.198170770828
20
-24.8844417384808
30
0
41
1
10
124.185464143794
20
-24.8748048932684
30
0
41
1
10
124.161096811572
20
-24.8543150827782
30
0
41
1
10
124.149514406149
20
-24.8435381066254
30
0
41
1
10
124.116511313179
20
-24.8096637590074
30
0
41
1
10
124.096818765527
20
-24.7850371125026
30
0
41
1
10
124.070806658197
20
-24.7449762635069
30
0
41
1
10
124.062778456054
20
-24.7311613457098
30
0
41
1
10
124.048228358356
20
-24.7030722312101
30
0
41
1
10
124.035100536429
20
-24.6743977181748
30
0
41
1
10
124.024764816581
20
-24.6445739958913
30
0
41
1
10
124.015837862472
20
-24.6141704357047
30
0
41
1
10
124.012068415708
20
-24.5986089440086
30
0
41
1
10
124.003069762766
20
-24.5517305055941
30
0
41
1
10
124.000074898828
20
-24.5201441689422
30
0
41
1
10
124.000073418173
20
-24.4882249948646
30
0
0
SPLINE
5
1F0
100
AcDbEntity
8
1
62
256
6
ByLayer
370
18
48
1
60
0
100
AcDbSpline
70
4
71
3
72
29
73
25
40
0
40
0
40
0
40
0
40
0.125000000000158
40
0.125000000000158
40
0.187500000000182
40
0.187500000000182
40
0.250000000000207
40
0.250000000000207
40
0.375000000000263
40
0.375000000000263
40
0.437500000000294
40
0.437500000000294
40
0.500000000000326
40
0.500000000000326
40
0.625000000000225
40
0.625000000000225
40
0.68750000000019
40
0.68750000000019
40
0.750000000000155
40
0.812500000000119
40
0.812500000000119
40
0.875000000000084
40
0.875000000000084
40
1
40
1
40
1
40
1
41
1
10
125.387846516514
20
25
30
0
41
1
10
125.356017698293
20
25
30
0
41
1
10
125.324719701668
20
24.996868060672
30
0
41
1
10
125.278545113091
20
24.9876128204532
30
0
41
1
10
125.263283229703
20
24.9837628057292
30
0
41
1
10
125.233025906864
20
24.9744907109062
30
0
41
1
10
125.217996458586
20
24.9690443586109
30
0
41
1
10
125.174314907475
20
24.9506856007055
30
0
41
1
10
125.14672363866
20
24.9356893201707
30
0
41
1
10
125.107615863579
20
24.9090872078347
30
0
41
1
10
125.094909236545
20
24.8994849143337
30
0
41
1
10
125.070541904323
20
24.879059986944
30
0
41
1
10
125.058959498901
20
24.8683131406422
30
0
41
1
10
125.02595640593
20
24.8345224768525
30
0
41
1
10
125.006263858278
20
24.8099427400528
30
0
41
1
10
124.980251750948
20
24.7699386962672
30
0
41
1
10
124.972223548805
20
24.7561403167522
30
0
41
1
10
124.957673451107
20
24.728079085853
30
0
41
1
10
124.944545660296
20
24.6994274363007
30
0
41
1
10
124.934209909332
20
24.6696167735834
30
0
41
1
10
124.925282955223
20
24.6392213004083
30
0
41
1
10
124.921513508459
20
24.6236613581245
30
0
41
1
10
124.912514855518
20
24.5767799548401
30
0
41
1
10
124.90951999158
20
24.5451816831535
30
0
41
1
10
124.909518510924
20
24.5132406515679
30
0
0
SPLINE
5
1F1
100
AcDbEntity
8
1
62
256
6
ByLayer
370
18
48
1
60
0
100
AcDbSpline
70
4
71
3
72
28
73
24
40
0
40
0
40
0
40
0
40
0.125000000000012
40
0.125000000000012
40
0.250000000000024
40
0.250000000000024
40
0.31250000000003
40
0.31250000000003
40
0.375000000000035
40
0.375000000000035
40
0.500000000000047
40
0.500000000000047
40
0.625000000000059
40
0.625000000000059
40
0.687500000000057
40
0.687500000000057
40
0.750000000000054
40
0.750000000000054
40
0.875000000000028
40
0.875000000000028
40
0.937500000000014
40
0.937500000000014
40
1
40
1
40
1
40
1
41
1
10
124.4
20
-3.99306737726275
30
0
41
1
10
124.4
20
-4.0455681282381
30
0
41
1
10
124.405150913455
20
-4.09746512999178
30
0
41
1
10
124.425806712451
20
-4.20004552301154
30
0
41
1
10
124.441303375259
20
-4.2507298780813
30
0
41
1
10
124.473113807941
20
-4.32575243792343
30
0
41
1
10
124.485156517647
20
-4.35055562399532
30
0
41
1
10
124.511805592738
20
-4.39890924450128
30
0
41
1
10
124.52645565863
20
-4.42257133915516
30
0
41
1
10
124.574513244461
20
-4.49196268419331
30
0
41
1
10
124.611974971295
20
-4.53611764645666
30
0
41
1
10
124.69947975936
20
-4.61954211599644
30
0
41
1
10
124.74838014018
20
-4.65767009509077
30
0
41
1
10
124.829564038543
20
-4.70856324332442
30
0
41
1
10
124.857966319278
20
-4.72449609509925
30
0
41
1
10
124.917698050553
20
-4.75411011448921
30
0
41
1
10
124.948860965983
20
-4.76768097338783
30
0
41
1
10
125.044361070609
20
-4.80374222791571
30
0
41
1
10
125.111396252632
20
-4.8220104421159
30
0
41
1
10
125.217510005574
20
-4.83988271913418
30
0
41
1
10
125.253880332698
20
-4.84421333277996
30
0
41
1
10
125.326599102476
20
-4.84928536908197
30
0
41
1
10
125.363184408869
20
-4.8500766529848
30
0
41
1
10
125.4
20
-4.84908950650558
30
0
0
SPLINE
5
1F2
100
AcDbEntity
8
1
62
256
6
ByLayer
370
18
48
1
60
0
100
AcDbSpline
70
4
71
3
72
31
73
27
40
0
40
0
40
0
40
0
40
0.125000000000014
40
0.125000000000014
40
0.187500000000009
40
0.187500000000009
40
0.250000000000004
40
0.250000000000004
40
0.312499999999999
40
0.312499999999999
40
0.374999999999994
40
0.374999999999994
40
0.499999999999984
40
0.499999999999984
40
0.562499999999984
40
0.562499999999984
40
0.624999999999984
40
0.687499999999984
40
0.687499999999984
40
0.749999999999984
40
0.749999999999984
40
0.874999999999993
40
0.874999999999993
40
0.937499999999997
40
0.937499999999997
40
1
40
1
40
1
40
1
41
1
10
128.6
20
-4.76314725974021
30
0
41
1
10
128.674346978096
20
-4.76114727089254
30
0
41
1
10
128.746752458324
20
-4.75202577959556
30
0
41
1
10
128.852672572679
20
-4.72848344767255
30
0
41
1
10
128.887762454445
20
-4.71889187038323
30
0
41
1
10
128.95566438879
20
-4.69681048753907
30
0
41
1
10
128.98846176687
20
-4.684358971698
30
0
41
1
10
129.051913163617
20
-4.65683463940178
30
0
41
1
10
129.082566442458
20
-4.64176091814954
30
0
41
1
10
129.141809014361
20
-4.6090892479491
30
0
41
1
10
129.170408672526
20
-4.5914587808501
30
0
41
1
10
129.251473859009
20
-4.53608473899374
30
0
41
1
10
129.299924669197
20
-4.49554227748382
30
0
41
1
10
129.365065670513
20
-4.42984253557776
30
0
41
1
10
129.385438010034
20
-4.40717752418581
30
0
41
1
10
129.42311936124
20
-4.36103972218709
30
0
41
1
10
129.457917676999
20
-4.31391661785455
30
0
41
1
10
129.487273072478
20
-4.26493334837625
30
0
41
1
10
129.513991481372
20
-4.21504886589409
30
0
41
1
10
129.526066915192
20
-4.18956022176667
30
0
41
1
10
129.557997787205
20
-4.11270194706262
30
0
41
1
10
129.57369613909
20
-4.06084965093669
30
0
41
1
10
129.589451433595
20
-3.98221591855216
30
0
41
1
10
129.59339579744
20
-3.9558611719662
30
0
41
1
10
129.59867205285
20
-3.90286492959018
30
0
41
1
10
129.6
20
-3.87612500273485
30
0
41
1
10
129.6
20
-3.84955795130867
30
0
0
SPLINE
5
1F3
100
AcDbEntity
8
1
62
256
6
ByLayer
370
18
48
1
60
0
100
AcDbSpline
70
4
71
3
72
29
73
25
40
0
40
0
40
0
40
0
40
0.125000000000038
40
0.125000000000038
40
0.187500000000044
40
0.187500000000044
40
0.250000000000051
40
0.250000000000051
40
0.375000000000042
40
0.375000000000042
40
0.437500000000028
40
0.437500000000028
40
0.500000000000015
40
0.500000000000015
40
0.625000000000002
40
0.625000000000002
40
0.687500000000002
40
0.687500000000002
40
0.750000000000003
40
0.812500000000004
40
0.812500000000004
40
0.875000000000004
40
0.875000000000004
40
1
40
1
40
1
40
1
41
1
10
128.6
20
-9.94594347986376
30
0
41
1
10
128.66651025552
20
-9.95110258752621
30
0
41
1
10
128.731820344063
20
-9.95422431738353
30
0
41
1
10
128.828070588343
20
-9.95599575405541
30
0
41
1
10
128.8598660073
20
-9.95609733742722
30
0
41
1
10
128.922869465769
20
-9.95530338138002
30
0
41
1
10
128.954153388682
20
-9.95439866013197
30
0
41
1
10
129.045093303866
20
-9.95023934058665
30
0
41
1
10
129.102532686186
20
-9.94555659859071
30
0
41
1
10
129.183976571503
20
-9.93570703330289
30
0
41
1
10
129.210430167453
20
-9.93193301419853
30
0
41
1
10
129.261250714154
20
-9.9234768348571
30
0
41
1
10
129.285429191214
20
-9.9188312616445
30
0
41
1
10
129.354387269953
20
-9.90368209658973
30
0
41
1
10
129.395623124078
20
-9.89197744878436
30
0
41
1
10
129.450216477477
20
-9.87195975436495
30
0
41
1
10
129.467158569766
20
-9.86487568089197
30
0
41
1
10
129.497870027163
20
-9.85018674904472
30
0
41
1
10
129.525616870694
20
-9.83490559330301
30
0
41
1
10
129.547520841403
20
-9.81845724039715
30
0
41
1
10
129.56646226926
20
-9.80141707731156
30
0
41
1
10
129.574480978811
20
-9.79255649270476
30
0
41
1
10
129.593679551585
20
-9.76537913558835
30
0
41
1
10
129.6
20
-9.74665031104627
30
0
41
1
10
129.6
20
-9.72732580530888
30
0
0
SPLINE
5
1F4
100
AcDbEntity
8
1
62
256
6
ByLayer
370
18
48
1
60
0
100
AcDbSpline
70
4
71
3
72
8
73
4
40
0
40
0
40
0
40
0
40
1
40
1
40
1
40
1
41
1
10
125.373600411188
20
-11.0680967127257
30
0
41
1
10
125.382404144661
20
-10.9785641790964
30
0
41
1
10
125.391204008283
20
-10.8886699990193
30
0
41
1
10
125.4
20
-10.7984139807499
30
0
0
SPLINE
5
1F5
100
AcDbEntity
8
1
62
256
6
ByLayer
370
18
48
1
60
0
100
AcDbSpline
70
4
71
3
72
8
73
4
40
0
40
0
40
0
40
0
40
1
40
1
40
1
40
1
41
1
10
125.245707782155
20
-11.5061891046697
30
0
41
1
10
125.288187974715
20
-11.3623921572222
30
0
41
1
10
125.330819212525
20
-11.2163560012659
30
0
41
1
10
125.373600411188
20
-11.0680967127257
30
0
0
SPLINE
5
1F6
100
AcDbEntity
8
1
62
256
6
ByLayer
370
18
48
1
60
0
100
AcDbSpline
70
4
71
3
72
30
73
26
40
0
40
0
40
0
40
0
40
0.0624999999999944
40
0.0624999999999944
40
0.124999999999989
40
0.124999999999989
40
0.249999999999983
40
0.249999999999983
40
0.31249999999998
40
0.31249999999998
40
0.374999999999978
40
0.374999999999978
40
0.499999999999986
40
0.499999999999986
40
0.56249999999998
40
0.56249999999998
40
0.624999999999975
40
0.624999999999975
40
0.749999999999966
40
0.749999999999966
40
0.812499999999975
40
0.812499999999975
40
0.874999999999983
40
0.874999999999983
40
1
40
1
40
1
40
1
41
1
10
124.4
20
-11.1461455679486
30
0
41
1
10
124.4
20
-11.1548241054202
30
0
41
1
10
124.401254226205
20
-11.1636085691955
30
0
41
1
10
124.406320812458
20
-11.1813935452241
30
0
41
1
10
124.410152528757
20
-11.1904271861358
30
0
41
1
10
124.425517910359
20
-11.2176368591148
30
0
41
1
10
124.440714248588
20
-11.2356756065181
30
0
41
1
10
124.470758151066
20
-11.2625858421979
30
0
41
1
10
124.481987992196
20
-11.2715311309104
30
0
41
1
10
124.506933038304
20
-11.2893710076794
30
0
41
1
10
124.520718166157
20
-11.2983059482381
30
0
41
1
10
124.56545789411
20
-11.324730938037
30
0
41
1
10
124.599464820951
20
-11.3416961993637
30
0
41
1
10
124.656604911682
20
-11.3661889582908
30
0
41
1
10
124.676679208461
20
-11.3741930901292
30
0
41
1
10
124.718932779711
20
-11.3898733551052
30
0
41
1
10
124.741237627053
20
-11.397587882483
30
0
41
1
10
124.810265788051
20
-11.4198415991107
30
0
41
1
10
124.859125445574
20
-11.4335408081461
30
0
41
1
10
124.936589154162
20
-11.4524195674406
30
0
41
1
10
124.963110208418
20
-11.4584324987321
30
0
41
1
10
125.017588103519
20
-11.4698839210159
30
0
41
1
10
125.045600396894
20
-11.4753272296092
30
0
41
1
10
125.130007026465
20
-11.490443216896
30
0
41
1
10
125.187338916797
20
-11.4990398676051
30
0
41
1
10
125.245707782155
20
-11.5061891046697
30
0
0
SPLINE
5
1F7
100
AcDbEntity
8
1
62
256
6
ByLayer
370
18
48
1
60
0
100
AcDbSpline
70
4
71
3
72
25
73
21
40
0
40
0
40
0
40
0
40
0.125000000000028
40
0.125000000000028
40
0.187500000000042
40
0.187500000000042
40
0.250000000000056
40
0.250000000000056
40
0.500000000000001
40
0.500000000000001
40
0.562500000000004
40
0.562500000000004
40
0.625000000000006
40
0.625000000000006
40
0.750000000000004
40
0.875000000000002
40
0.875000000000002
40
0.937500000000001
40
0.937500000000001
40
1
40
1
40
1
40
1
41
1
10
127.95117839841
20
0.0367612281931713
30
0
41
1
10
127.930095894491
20
0.0194565696701261
30
0
41
1
10
127.90849914736
20
0.0027525680291944
30
0
41
1
10
127.875311161769
20
-0.0213785702709401
30
0
41
1
10
127.864083777697
20
-0.0292898712945941
30
0
41
1
10
127.841531797647
20
-0.0446820555255272
30
0
41
1
10
127.830223694777
20
-0.0521533691562865
30
0
41
1
10
127.773550849464
20
-0.0884078944880571
30
0
41
1
10
127.727785288215
20
-0.113892053698294
30
0
41
1
10
127.670521834488
20
-0.141620979528085
30
0
41
1
10
127.659066611837
20
-0.146960028395284
30
0
41
1
10
127.636164610168
20
-0.157229892733795
30
0
41
1
10
127.624697535398
20
-0.162167678229366
30
0
41
1
10
127.590825672288
20
-0.176179530205871
30
0
41
1
10
127.5467570984
20
-0.192876182442689
30
0
41
1
10
127.504975402871
20
-0.206092357838997
30
0
41
1
10
127.47454297187
20
-0.214854436117122
30
0
41
1
10
127.464549596155
20
-0.21758323491224
30
0
41
1
10
127.444873672971
20
-0.2226801866112
30
0
41
1
10
127.435184222862
20
-0.225049091222871
30
0
41
1
10
127.425759666011
20
-0.227226041194882
30
0
0
SPLINE
5
1F8
100
AcDbEntity
8
1
62
256
6
ByLayer
370
18
48
1
60
0
100
AcDbSpline
70
4
71
3
72
30
73
26
40
0
40
0
40
0
40
0
40
0.0642250298064697
40
0.0642250298064697
40
0.128450059612939
40
0.128450059612939
40
0.256900119225882
40
0.256900119225882
40
0.321125149032358
40
0.321125149032358
40
0.385350178838834
40
0.385350178838834
40
0.513800238451767
40
0.513800238451767
40
0.57802526825822
40
0.57802526825822
40
0.642250298064674
40
0.642250298064674
40
0.770700357677558
40
0.770700357677558
40
0.834925387483989
40
0.834925387483989
40
0.89915041729042
40
0.89915041729042
40
1
40
1
40
1
40
1
41
1
10
129.6
20
12.276167985966
30
0
41
1
10
129.6
20
12.2967091589968
30
0
41
1
10
129.598745773795
20
12.3171850533168
30
0
41
1
10
129.593679187542
20
12.3580036987655
30
0
41
1
10
129.589847471243
20
12.378419985203
30
0
41
1
10
129.574482089641
20
12.4389511621835
30
0
41
1
10
129.559285751412
20
12.4778183254731
30
0
41
1
10
129.529241848934
20
12.5339425985346
30
0
41
1
10
129.518012007804
20
12.5522858503175
30
0
41
1
10
129.493066961696
20
12.5882261779051
30
0
41
1
10
129.479281833843
20
12.6059011471197
30
0
41
1
10
129.434542105889
20
12.657174367364
30
0
41
1
10
129.400535179048
20
12.6887614854204
30
0
41
1
10
129.343395088317
20
12.7323371220712
30
0
41
1
10
129.323320791538
20
12.7462244468299
30
0
41
1
10
129.281067220288
20
12.7726924215324
30
0
41
1
10
129.258762372946
20
12.7853323091965
30
0
41
1
10
129.189734211948
20
12.8206132414231
30
0
41
1
10
129.140874554425
20
12.8407279029815
30
0
41
1
10
129.063410845837
20
12.8658953839506
30
0
41
1
10
129.036889791581
20
12.8734455263251
30
0
41
1
10
128.98241189648
20
12.8868244340636
30
0
41
1
10
128.954399603104
20
12.8926506312337
30
0
41
1
10
128.882084122612
20
12.9050839521413
30
0
41
1
10
128.837250280217
20
12.9103548162196
30
0
41
1
10
128.791774065241
20
12.9133416199507
30
0
0
SPLINE
5
1F9
100
AcDbEntity
8
1
62
256
6
ByLayer
370
18
48
1
60
0
100
AcDbSpline
70
4
71
3
72
8
73
4
40
0
40
0
40
0
40
0
40
1
40
1
40
1
40
1
41
1
10
128.621957444716
20
13.3849208346978
30
0
41
1
10
128.614635618355
20
13.4547965290034
30
0
41
1
10
128.607316469723
20
13.5243941046925
30
0
41
1
10
128.6
20
13.593713439121
30
0
0
SPLINE
5
1FA
100
AcDbEntity
8
1
62
256
6
ByLayer
370
18
48
1
60
0
100
AcDbSpline
70
4
71
3
72
28
73
24
40
0
40
0
40
0
40
0
40
0.125000000000028
40
0.125000000000028
40
0.187500000000031
40
0.187500000000031
40
0.250000000000033
40
0.250000000000033
40
0.312500000000036
40
0.312500000000036
40
0.375000000000039
40
0.375000000000039
40
0.500000000000027
40
0.500000000000027
40
0.625000000000015
40
0.625000000000015
40
0.68750000000001
40
0.68750000000001
40
0.750000000000004
40
0.750000000000004
40
0.875000000000002
40
0.875000000000002
40
1
40
1
40
1
40
1
41
1
10
128.6
20
18.279969566511
30
0
41
1
10
128.673409717511
20
18.2786627021076
30
0
41
1
10
128.745255174487
20
18.2748856586718
30
0
41
1
10
128.850802144138
20
18.265712493216
30
0
41
1
10
128.885853392188
20
18.2620315470295
30
0
41
1
10
128.953719442273
20
18.2536514100182
30
0
41
1
10
128.986555898395
20
18.2489621244852
30
0
41
1
10
129.050174264113
20
18.2386482135701
30
0
41
1
10
129.080955573464
20
18.2330233149242
30
0
41
1
10
129.140523965378
20
18.2208656385648
30
0
41
1
10
129.169277544525
20
18.2143302376104
30
0
41
1
10
129.250788924348
20
18.1938646406643
30
0
41
1
10
129.299555598292
20
18.1789468512934
30
0
41
1
10
129.387010487164
20
18.1468077247314
30
0
41
1
10
129.424735489942
20
18.1299235887367
30
0
41
1
10
129.47298592475
20
18.1037415315464
30
0
41
1
10
129.487699453135
20
18.0948581510429
30
0
41
1
10
129.514470075912
20
18.0767888400145
30
0
41
1
10
129.526520515076
20
18.0675964610954
30
0
41
1
10
129.558298294323
20
18.0399980172933
30
0
41
1
10
129.573911179261
20
18.021431195766
30
0
41
1
10
129.594781729331
20
17.983985613946
30
0
41
1
10
129.6
20
17.9649744792968
30
0
41
1
10
129.6
20
17.9462596601662
30
0
0
SPLINE
5
1FB
100
AcDbEntity
8
1
62
256
6
ByLayer
370
18
48
1
60
0
100
AcDbSpline
70
4
71
3
72
14
73
10
40
0
40
0
40
0
40
0
40
0.451901092830249
40
0.451901092830249
40
0.677851639245376
40
0.677851639245376
40
0.903802185660502
40
0.903802185660502
40
1
40
1
40
1
40
1
41
1
10
126.25
20
0.973051461980901
30
0
41
1
10
126.222268259349
20
0.937080788748546
30
0
41
1
10
126.195022159845
20
0.897889666778184
30
0
41
1
10
126.15530565347
20
0.832074003068243
30
0
41
1
10
126.142261501737
20
0.808951306980191
30
0
41
1
10
126.116696183783
20
0.7596622814809
30
0
41
1
10
126.104123013512
20
0.733388482177077
30
0
41
1
10
126.086904342221
20
0.693374427326177
30
0
41
1
10
126.081860914177
20
0.681127106616515
30
0
41
1
10
126.076933244077
20
0.668533191177772
30
0
0
SPLINE
5
1FC
100
AcDbEntity
8
1
62
256
6
ByLayer
370
18
48
1
60
0
100
AcDbSpline
70
4
71
3
72
30
73
26
40
0
40
0
40
0
40
0
40
0.124999999999996
40
0.124999999999996
40
0.187499999999993
40
0.187499999999993
40
0.249999999999991
40
0.249999999999991
40
0.374999999999993
40
0.374999999999993
40
0.499999999999996
40
0.499999999999996
40
0.562499999999996
40
0.562499999999996
40
0.624999999999997
40
0.624999999999997
40
0.687499999999997
40
0.687499999999997
40
0.749999999999998
40
0.749999999999998
40
0.874999999999999
40
0.874999999999999
40
0.937499999999999
40
0.937499999999999
40
1
40
1
40
1
40
1
41
1
10
124.4
20
18.0373716990332
30
0
41
1
10
124.4
20
18.0563201868758
30
0
41
1
10
124.405190910082
20
18.0750332067592
30
0
41
1
10
124.420866984669
20
18.1027448467814
30
0
41
1
10
124.427414620119
20
18.1119220795172
30
0
41
1
10
124.443268332947
20
18.1301514176641
30
0
41
1
10
124.45262468377
20
18.1392387465222
30
0
41
1
10
124.484542382173
20
18.1658614625848
30
0
41
1
10
124.510960581691
20
18.1828639735706
30
0
41
1
10
124.574545204857
20
18.2153090288052
30
0
41
1
10
124.611692218699
20
18.2307543901381
30
0
41
1
10
124.676762901506
20
18.2525653761628
30
0
41
1
10
124.699963635738
20
18.259577117606
30
0
41
1
10
124.748644942756
20
18.2727953141053
30
0
41
1
10
124.77423595999
20
18.2790405379039
30
0
41
1
10
124.828045599308
20
18.2907663133872
30
0
41
1
10
124.856263225862
20
18.296247154786
30
0
41
1
10
124.91554972634
20
18.3063790821683
30
0
41
1
10
124.946738083755
20
18.3110367661553
30
0
41
1
10
125.042296681521
20
18.3233009797509
30
0
41
1
10
125.109365570988
20
18.3293652269952
30
0
41
1
10
125.215499127363
20
18.3349888943155
30
0
41
1
10
125.252053944625
20
18.3362806911334
30
0
41
1
10
125.325621812775
20
18.3375553426978
30
0
41
1
10
125.362673626056
20
18.3375503517714
30
0
41
1
10
125.4
20
18.3368870234376
30
0
0
SPLINE
5
1FD
100
AcDbEntity
8
1
62
256
6
ByLayer
370
18
48
1
60
0
100
AcDbSpline
70
4
71
3
72
38
73
34
40
0
40
0
40
0
40
0
40
0.14954947595818
40
0.14954947595818
40
0.186936844947725
40
0.186936844947725
40
0.22432421393727
40
0.22432421393727
40
0.299098951916379
40
0.299098951916379
40
0.373873689895488
40
0.373873689895488
40
0.448648427874597
40
0.448648427874597
40
0.486035796864141
40
0.486035796864141
40
0.523423165853685
40
0.523423165853685
40
0.598197903832793
40
0.598197903832793
40
0.635585272822357
40
0.635585272822357
40
0.672972641811921
40
0.672972641811921
40
0.747747379791031
40
0.747747379791031
40
0.82252211777014
40
0.82252211777014
40
0.89729685574925
40
0.89729685574925
40
0.97207159372836
40
0.97207159372836
40
1
40
1
40
1
40
1
41
1
10
126.25
20
0.973051461980901
30
0
41
1
10
126.317117329852
20
1.04836218020756
30
0
41
1
10
126.393838281937
20
1.11177310139127
30
0
41
1
10
126.501711584064
20
1.17657084611793
30
0
41
1
10
126.523967189378
20
1.18881779206768
30
0
41
1
10
126.56898777097
20
1.21141939768575
30
0
41
1
10
126.591827752152
20
1.22182548764067
30
0
41
1
10
126.661321263062
20
1.25041416045255
30
0
41
1
10
126.708942917257
20
1.26598236073869
30
0
41
1
10
126.806821993814
20
1.2900535140376
30
0
41
1
10
126.857398071793
20
1.2985319366091
30
0
41
1
10
126.957875060256
20
1.30771398781727
30
0
41
1
10
127.008132928433
20
1.3085501620499
30
0
41
1
10
127.083548643732
20
1.30420316724499
30
0
41
1
10
127.108692053755
20
1.30181664961631
30
0
41
1
10
127.158988768184
20
1.29512408647005
30
0
41
1
10
127.184164262251
20
1.29080321583263
30
0
41
1
10
127.258393899782
20
1.27517753853203
30
0
41
1
10
127.306601199465
20
1.26117992104926
30
0
41
1
10
127.377046718035
20
1.23492634851345
30
0
41
1
10
127.400216319284
20
1.22529507415172
30
0
41
1
10
127.445923946493
20
1.2042444008915
30
0
41
1
10
127.468551561757
20
1.19277341816897
30
0
41
1
10
127.534744878343
20
1.15599505005136
30
0
41
1
10
127.576477250772
20
1.12846515402026
30
0
41
1
10
127.655340445459
20
1.06755476598727
30
0
41
1
10
127.692471195663
20
1.03417447162192
30
0
41
1
10
127.761991342605
20
0.961309568920711
30
0
41
1
10
127.793724900682
20
0.922474050931442
30
0
41
1
10
127.850716231275
20
0.840904381129917
30
0
41
1
10
127.876090542342
20
0.798048284013561
30
0
41
1
10
127.906557431685
20
0.736241071575677
30
0
41
1
10
127.914416383711
20
0.719075228175342
30
0
41
1
10
127.921767871434
20
0.701723021940211
30
0
0
SPLINE
5
1FE
100
AcDbEntity
8
1
62
256
6
ByLayer
370
18
48
1
60
0
100
AcDbSpline
70
4
71
3
72
28
73
24
40
0
40
0
40
0
40
0
40
0.125000000000007
40
0.125000000000007
40
0.187499999999999
40
0.187499999999999
40
0.24999999999999
40
0.24999999999999
40
0.312499999999982
40
0.312499999999982
40
0.374999999999974
40
0.374999999999974
40
0.499999999999975
40
0.499999999999975
40
0.624999999999977
40
0.624999999999977
40
0.68749999999998
40
0.68749999999998
40
0.749999999999983
40
0.749999999999983
40
0.874999999999992
40
0.874999999999992
40
1
40
1
40
1
40
1
41
1
10
128.6
20
-22.9728549160477
30
0
41
1
10
128.673409717511
20
-22.9734529996187
30
0
41
1
10
128.745255174487
20
-22.9647842057073
30
0
41
1
10
128.850802144138
20
-22.9386222511093
30
0
41
1
10
128.885853392189
20
-22.9275831042132
30
0
41
1
10
128.953719442273
20
-22.9015669294442
30
0
41
1
10
128.986555898395
20
-22.8866282010039
30
0
41
1
10
129.050174264113
20
-22.8531334686387
30
0
41
1
10
129.080955573464
20
-22.8345764079106
30
0
41
1
10
129.140523965378
20
-22.7939512110991
30
0
41
1
10
129.169277544525
20
-22.771870874502
30
0
41
1
10
129.250788924348
20
-22.7020942579015
30
0
41
1
10
129.299555598292
20
-22.6504436297298
30
0
41
1
10
129.387010487164
20
-22.5378619147741
30
0
41
1
10
129.424735489942
20
-22.4781086445441
30
0
41
1
10
129.47298592475
20
-22.3846904100041
30
0
41
1
10
129.487699453135
20
-22.3528714706281
30
0
41
1
10
129.514470075912
20
-22.2879159371683
30
0
41
1
10
129.526520515077
20
-22.2547549613732
30
0
41
1
10
129.558298294323
20
-22.1548690328726
30
0
41
1
10
129.573911179261
20
-22.0872436745532
30
0
41
1
10
129.594781729331
20
-21.95007006239
30
0
41
1
10
129.6
20
-21.8800284984436
30
0
41
1
10
129.6
20
-21.8106979984024
30
0
0
SPLINE
5
1FF
100
AcDbEntity
8
1
62
256
6
ByLayer
370
18
48
1
60
0
100
AcDbSpline
70
4
71
3
72
30
73
26
40
0
40
0
40
0
40
0
40
0.125000000000002
40
0.125000000000002
40
0.187500000000003
40
0.187500000000003
40
0.250000000000004
40
0.250000000000004
40
0.375000000000013
40
0.375000000000013
40
0.500000000000022
40
0.500000000000022
40
0.562500000000025
40
0.562500000000025
40
0.625000000000027
40
0.625000000000027
40
0.68750000000003
40
0.68750000000003
40
0.750000000000032
40
0.750000000000032
40
0.875000000000017
40
0.875000000000017
40
0.937500000000009
40
0.937500000000009
40
1
40
1
40
1
40
1
41
1
10
124.4
20
-21.7629234933775
30
0
41
1
10
124.4
20
-21.8331196372992
30
0
41
1
10
124.405190910082
20
-21.9028281044759
30
0
41
1
10
124.420866984669
20
-22.006649581107
30
0
41
1
10
124.427414620119
20
-22.041132514394
30
0
41
1
10
124.443268332947
20
-22.1098392302682
30
0
41
1
10
124.45262468377
20
-22.1441972259768
30
0
41
1
10
124.484542382173
20
-22.2451881602688
30
0
41
1
10
124.510960581691
20
-22.3101327999772
30
0
41
1
10
124.574545204857
20
-22.435039476267
30
0
41
1
10
124.611692218699
20
-22.4950105107402
30
0
41
1
10
124.676762901506
20
-22.5806325653204
30
0
41
1
10
124.699963635738
20
-22.6083272182209
30
0
41
1
10
124.748644942756
20
-22.6609022080512
30
0
41
1
10
124.77423595999
20
-22.6859343504356
30
0
41
1
10
124.828045599308
20
-22.7333605465156
30
0
41
1
10
124.856263225862
20
-22.7557555997135
30
0
41
1
10
124.91554972634
20
-22.797683082593
30
0
41
1
10
124.946738083755
20
-22.8172488084984
30
0
41
1
10
125.042296681521
20
-22.8697631767783
30
0
41
1
10
125.109365570988
20
-22.8971982771271
30
0
41
1
10
125.215499127363
20
-22.9258958025327
30
0
41
1
10
125.252053944625
20
-22.9333899785283
30
0
41
1
10
125.325621812775
20
-22.9435632069099
30
0
41
1
10
125.362673626056
20
-22.9462901581338
30
0
41
1
10
125.4
20
-22.9465985915473
30
0
0
SPLINE
5
200
100
AcDbEntity
8
1
62
256
6
ByLayer
370
18
48
1
60
0
100
AcDbSpline
70
4
71
3
72
36
73
32
40
0
40
0
40
0
40
0
40
0.125000000000079
40
0.125000000000079
40
0.187500000000105
40
0.187500000000105
40
0.218750000000119
40
0.218750000000119
40
0.250000000000132
40
0.250000000000132
40
0.375000000000113
40
0.375000000000113
40
0.406250000000102
40
0.406250000000102
40
0.437500000000091
40
0.437500000000091
40
0.500000000000089
40
0.500000000000089
40
0.625000000000099
40
0.625000000000099
40
0.6562500000001
40
0.6562500000001
40
0.6875000000001
40
0.750000000000088
40
0.812500000000076
40
0.812500000000076
40
0.843750000000066
40
0.843750000000066
40
0.875000000000056
40
0.875000000000056
40
1
40
1
40
1
40
1
41
1
10
125.4
20
-23.9489903409493
30
0
41
1
10
125.33348974448
20
-23.9495418537187
30
0
41
1
10
125.268179655937
20
-23.943626183878
30
0
41
1
10
125.171929411657
20
-23.9255118838736
30
0
41
1
10
125.1401339927
20
-23.9179218986058
30
0
41
1
10
125.092881398849
20
-23.9041630696849
30
0
41
1
10
125.077173742741
20
-23.8991697998763
30
0
41
1
10
125.046047604163
20
-23.8884223753099
30
0
41
1
10
125.030689958788
20
-23.8826910650661
30
0
41
1
10
124.954906696134
20
-23.8522850916428
30
0
41
1
10
124.897467313814
20
-23.8224120486337
30
0
41
1
10
124.829597409383
20
-23.7782306548744
30
0
41
1
10
124.816221669735
20
-23.7690492816247
30
0
41
1
10
124.789872517421
20
-23.7499861721274
30
0
41
1
10
124.776864695872
20
-23.7400760953327
30
0
41
1
10
124.738749285846
20
-23.7095099087686
30
0
41
1
10
124.714570808786
20
-23.6880530468385
30
0
41
1
10
124.645612730047
20
-23.6205476819025
30
0
41
1
10
124.604376875922
20
-23.5713938471984
30
0
41
1
10
124.558882414756
20
-23.5046497191059
30
0
41
1
10
124.550067010498
20
-23.4909958300103
30
0
41
1
10
124.533212661731
20
-23.4633959045519
30
0
41
1
10
124.50906668284
20
-23.4215257638821
30
0
41
1
10
124.474383132825
20
-23.3494397888281
30
0
41
1
10
124.452479158597
20
-23.2893513566114
30
0
41
1
10
124.438273087704
20
-23.243364893424
30
0
41
1
10
124.433908702287
20
-23.2278824453324
30
0
41
1
10
124.42593529103
20
-23.1966047390477
30
0
41
1
10
124.42231925906
20
-23.1807685224036
30
0
41
1
10
124.406320448415
20
-23.1015631746896
30
0
41
1
10
124.4
20
-23.0377863243944
30
0
41
1
10
124.4
20
-22.9736069734373
30
0
0
SPLINE
5
201
100
AcDbEntity
8
1
62
256
6
ByLayer
370
18
48
1
60
0
100
AcDbSpline
70
4
71
3
72
38
73
34
40
0
40
0
40
0
40
0
40
0.0625000000000027
40
0.0625000000000027
40
0.0937500000000089
40
0.0937500000000089
40
0.125000000000015
40
0.125000000000015
40
0.25000000000004
40
0.25000000000004
40
0.312500000000057
40
0.312500000000057
40
0.343750000000069
40
0.343750000000069
40
0.37500000000008
40
0.37500000000008
40
0.500000000000118
40
0.500000000000118
40
0.562500000000127
40
0.562500000000127
40
0.593750000000124
40
0.593750000000124
40
0.625000000000121
40
0.625000000000121
40
0.750000000000122
40
0.750000000000122
40
0.812500000000111
40
0.812500000000111
40
0.843750000000093
40
0.843750000000093
40
0.875000000000074
40
0.875000000000074
40
1
40
1
40
1
40
1
41
1
10
129.6
20
-23.059018682679
30
0
41
1
10
129.6
20
-23.0878413035394
30
0
41
1
10
129.598745773795
20
-23.1167030117143
30
0
41
1
10
129.594945834105
20
-23.1600553661709
30
0
41
1
10
129.593358967981
20
-23.1745161304677
30
0
41
1
10
129.589532808726
20
-23.2034579916133
30
0
41
1
10
129.58728657431
20
-23.2179754681287
30
0
41
1
10
129.574482089641
20
-23.2900889039608
30
0
41
1
10
129.559285751412
20
-23.3462092637917
30
0
41
1
10
129.529241848934
20
-23.4280912082041
30
0
41
1
10
129.518012007804
20
-23.4549998790356
30
0
41
1
10
129.499303223223
20
-23.4947718519309
30
0
41
1
10
129.492755841791
20
-23.5079305281697
30
0
41
1
10
129.479026196875
20
-23.5340465760015
30
0
41
1
10
129.471825212517
20
-23.5470341112824
30
0
41
1
10
129.434542105889
20
-23.6108727408062
30
0
41
1
10
129.400535179048
20
-23.6587379759992
30
0
41
1
10
129.343395088317
20
-23.7258354192571
30
0
41
1
10
129.323320791538
20
-23.7474132440767
30
0
41
1
10
129.291630613101
20
-23.7785693686604
30
0
41
1
10
129.280803708521
20
-23.7887526760259
30
0
41
1
10
129.258611628926
20
-23.8087065313572
30
0
41
1
10
129.247257679446
20
-23.8184641715257
30
0
41
1
10
129.189734211948
20
-23.8657119171507
30
0
41
1
10
129.140874554425
20
-23.8990270012132
30
0
41
1
10
129.063410845837
20
-23.9424124132334
30
0
41
1
10
129.036889791581
20
-23.9557698555088
30
0
41
1
10
128.996031370255
20
-23.9741066903511
30
0
41
1
10
128.982198366373
20
-23.9799484200487
30
0
41
1
10
128.954332809994
20
-23.990986530689
30
0
41
1
10
128.940331831509
20
-23.9961724288735
30
0
41
1
10
128.869992973533
20
-24.0204705044596
30
0
41
1
10
128.812661083201
20
-24.0347269579279
30
0
41
1
10
128.754292217843
20
-24.0439178082418
30
0
0
SPLINE
5
202
100
AcDbEntity
8
1
62
256
6
ByLayer
370
18
48
1
60
0
100
AcDbSpline
70
4
71
3
72
8
73
4
40
0
40
0
40
0
40
0
40
1
40
1
40
1
40
1
41
1
10
128.754292217843
20
-24.0439178082418
30
0
41
1
10
128.711812025283
20
-24.0464052576269
30
0
41
1
10
128.669180787472
20
-24.0443745154247
30
0
41
1
10
128.626399588808
20
-24.0378580190378
30
0
0
SPLINE
5
203
100
AcDbEntity
8
1
62
256
6
ByLayer
370
18
48
1
60
0
100
AcDbSpline
70
4
71
3
72
8
73
4
40
0
40
0
40
0
40
0
40
1
40
1
40
1
40
1
41
1
10
128.626399588808
20
-24.0378580190378
30
0
41
1
10
128.617595591515
20
-24.0334839494497
30
0
41
1
10
128.608795728096
20
-24.0283582077061
30
0
41
1
10
128.6
20
-24.0224805304909
30
0
0
SPLINE
5
204
100
AcDbEntity
8
1
62
256
6
ByLayer
370
18
48
1
60
0
100
AcDbSpline
70
4
71
3
72
30
73
26
40
0
40
0
40
0
40
0
40
0.0840601032859746
40
0.0840601032859746
40
0.126090154928962
40
0.126090154928962
40
0.168120206571949
40
0.168120206571949
40
0.33624041314393
40
0.33624041314393
40
0.420300516429915
40
0.420300516429915
40
0.462330568072908
40
0.462330568072908
40
0.504360619715901
40
0.504360619715901
40
0.672480826287884
40
0.672480826287884
40
0.756540929573892
40
0.756540929573892
40
0.798570981216892
40
0.798570981216892
40
0.840601032859893
40
0.840601032859893
40
1
40
1
40
1
40
1
41
1
10
124.4
20
23.0268602490302
30
0
41
1
10
124.4
20
23.0554182648758
30
0
41
1
10
124.401254226205
20
23.0840190311434
30
0
41
1
10
124.405054165895
20
23.1269855762249
30
0
41
1
10
124.406641032019
20
23.1413186726336
30
0
41
1
10
124.410467191274
20
23.1700071034888
30
0
41
1
10
124.41271342569
20
23.1843985058783
30
0
41
1
10
124.425517910359
20
23.2558909672984
30
0
41
1
10
124.440714248588
20
23.31154484656
30
0
41
1
10
124.470758151066
20
23.3927714190387
30
0
41
1
10
124.481987992196
20
23.4194690667125
30
0
41
1
10
124.500696776777
20
23.4589359082229
30
0
41
1
10
124.507244158209
20
23.4719947773081
30
0
41
1
10
124.520973803125
20
23.4979150947889
30
0
41
1
10
124.528174787482
20
23.5108064899883
30
0
41
1
10
124.56545789411
20
23.5741786076399
30
0
41
1
10
124.599464820951
20
23.6217134683444
30
0
41
1
10
124.656604911682
20
23.6883781580145
30
0
41
1
10
124.676679208461
20
23.7098222609685
30
0
41
1
10
124.708369386898
20
23.7407939792879
30
0
41
1
10
124.719196291478
20
23.7509185179792
30
0
41
1
10
124.741388371073
20
23.7707603513649
30
0
41
1
10
124.752742320553
20
23.7804648207645
30
0
41
1
10
124.807878563133
20
23.8255128350629
30
0
41
1
10
124.854063898814
20
23.8571762927597
30
0
41
1
10
124.902753528696
20
23.8849321107605
30
0
0
SPLINE
5
205
100
AcDbEntity
8
1
62
256
6
ByLayer
370
13
48
1
60
0
100
AcDbSpline
70
4
71
3
72
8
73
4
40
0
40
0
40
0
40
0
40
1
40
1
40
1
40
1
41
1
10
128.612153486474
20
-24.98957784057
30
0
41
1
10
128.371885213158
20
-24.7288979810617
30
0
41
1
10
128.131616939842
20
-24.4682181215535
30
0
41
1
10
127.891348666526
20
-24.2075382620452
30
0
0
SPLINE
5
206
100
AcDbEntity
8
1
62
256
6
ByLayer
370
13
48
1
60
0
100
AcDbSpline
70
4
71
3
72
8
73
4
40
0
40
0
40
0
40
0
40
1
40
1
40
1
40
1
41
1
10
128.201136090601
20
-23.92695877868
30
0
41
1
10
128.49758455676
20
-24.1195390976372
30
0
41
1
10
128.794033022918
20
-24.3121194165945
30
0
41
1
10
129.090481489076
20
-24.5046997355518
30
0
0
SPLINE
5
207
100
AcDbEntity
8
1
62
256
6
ByLayer
370
18
48
1
60
0
100
AcDbSpline
70
4
71
3
72
30
73
26
40
0
40
0
40
0
40
0
40
0.124999999999903
40
0.124999999999903
40
0.187499999999943
40
0.187499999999943
40
0.249999999999983
40
0.249999999999983
40
0.374999999999904
40
0.374999999999904
40
0.437499999999941
40
0.437499999999941
40
0.499999999999979
40
0.499999999999979
40
0.624999999999905
40
0.624999999999905
40
0.687499999999931
40
0.687499999999931
40
0.749999999999957
40
0.749999999999957
40
0.874999999999989
40
0.874999999999989
40
0.937499999999995
40
0.937499999999995
40
1
40
1
40
1
40
1
41
1
10
127.891348666526
20
-24.2075382620452
30
0
41
1
10
127.910735954041
20
-24.2076010075995
30
0
41
1
10
127.929850508451
20
-24.2058559918097
30
0
41
1
10
127.958132035804
20
-24.2006514079567
30
0
41
1
10
127.967493693699
20
-24.198482273368
30
0
41
1
10
127.986083626571
20
-24.1932598999832
30
0
41
1
10
127.99535458077
20
-24.1901873068697
30
0
41
1
10
128.022438192292
20
-24.1797994192588
30
0
41
1
10
128.039647337088
20
-24.1713090882539
30
0
41
1
10
128.064214120442
20
-24.1562684290935
30
0
41
1
10
128.072193828191
20
-24.150868098334
30
0
41
1
10
128.087721140238
20
-24.1392686223878
30
0
41
1
10
128.095192168146
20
-24.1331231181532
30
0
41
1
10
128.116539906704
20
-24.1138482753577
30
0
41
1
10
128.129453676399
20
-24.0998193865806
30
0
41
1
10
128.146827945903
20
-24.0769902983874
30
0
41
1
10
128.152311054299
20
-24.0690353276548
30
0
41
1
10
128.162418146642
20
-24.0527622476668
30
0
41
1
10
128.167045092191
20
-24.044451604428
30
0
41
1
10
128.179675685282
20
-24.0190094282438
30
0
41
1
10
128.186440727572
20
-24.0013723986294
30
0
41
1
10
128.194013691871
20
-23.9738661148485
30
0
41
1
10
128.196095240068
20
-23.9645436459132
30
0
41
1
10
128.199312588014
20
-23.9458449024325
30
0
41
1
10
128.200458804235
20
-23.9364333606252
30
0
41
1
10
128.201136090601
20
-23.92695877868
30
0
0
SPLINE
5
208
100
AcDbEntity
8
1
62
256
6
ByLayer
370
18
48
1
60
0
100
AcDbSpline
70
4
71
3
72
28
73
24
40
0
40
0
40
0
40
0
40
0.12499999999992
40
0.12499999999992
40
0.187499999999864
40
0.187499999999864
40
0.249999999999807
40
0.249999999999807
40
0.374999999999693
40
0.374999999999693
40
0.437499999999666
40
0.437499999999666
40
0.499999999999639
40
0.499999999999639
40
0.624999999999662
40
0.624999999999662
40
0.687499999999718
40
0.687499999999718
40
0.749999999999774
40
0.749999999999774
40
0.874999999999887
40
0.874999999999887
40
1
40
1
40
1
40
1
41
1
10
129.090481489076
20
-24.5046997355518
30
0
41
1
10
129.090480008152
20
-24.5366246964105
30
0
41
1
10
129.087484104881
20
-24.5680286940069
30
0
41
1
10
129.07862306146
20
-24.6143748961826
30
0
41
1
10
129.074936511697
20
-24.6296961273076
30
0
41
1
10
129.066057191323
20
-24.6600765404442
30
0
41
1
10
129.060830058843
20
-24.6752081036672
30
0
41
1
10
129.043147006105
20
-24.719305505628
30
0
41
1
10
129.02868095557
20
-24.7471886292026
30
0
41
1
10
129.002985242443
20
-24.786751568593
30
0
41
1
10
128.993749423562
20
-24.7995597249647
30
0
41
1
10
128.973881955028
20
-24.8243861199923
30
0
41
1
10
128.963355075429
20
-24.8362654210081
30
0
41
1
10
128.930328336127
20
-24.8700120869952
30
0
41
1
10
128.906279371717
20
-24.8901525621699
30
0
41
1
10
128.867110705583
20
-24.916771019322
30
0
41
1
10
128.853460220433
20
-24.9250753184632
30
0
41
1
10
128.825656475345
20
-24.940120623365
30
0
41
1
10
128.811464403264
20
-24.9468980888763
30
0
41
1
10
128.768037665678
20
-24.9650464798834
30
0
41
1
10
128.737914964192
20
-24.9742632983952
30
0
41
1
10
128.675515940531
20
-24.9866508231269
30
0
41
1
10
128.643994247294
20
-24.9896808908903
30
0
41
1
10
128.612153486474
20
-24.98957784057
30
0
0
SPLINE
5
209
100
AcDbEntity
8
1
62
256
6
ByLayer
370
13
48
1
60
0
100
AcDbSpline
70
4
71
3
72
8
73
4
40
0
40
0
40
0
40
0
40
1
40
1
40
1
40
1
41
1
10
124.609904360917
20
-24.1969181047992
30
0
41
1
10
124.566070048532
20
-24.4566784868296
30
0
41
1
10
124.522235736148
20
-24.7164388688599
30
0
41
1
10
124.478401423763
20
-24.9761992508902
30
0
0
SPLINE
5
20A
100
AcDbEntity
8
1
62
256
6
ByLayer
370
13
48
1
60
0
100
AcDbSpline
70
4
71
3
72
8
73
4
40
0
40
0
40
0
40
0
40
1
40
1
40
1
40
1
41
1
10
124.000073418173
20
-24.4882249948646
30
0
41
1
10
124.104431594042
20
-24.2969418586124
30
0
41
1
10
124.20878976991
20
-24.1056587223602
30
0
41
1
10
124.313147945779
20
-23.9143755861081
30
0
0
SPLINE
5
20B
100
AcDbEntity
8
1
62
256
6
ByLayer
370
18
48
1
60
0
100
AcDbSpline
70
4
71
3
72
28
73
24
40
0
40
0
40
0
40
0
40
0.124999999999954
40
0.124999999999954
40
0.187499999999915
40
0.187499999999915
40
0.249999999999875
40
0.249999999999875
40
0.374999999999795
40
0.374999999999795
40
0.437499999999791
40
0.437499999999791
40
0.499999999999787
40
0.499999999999787
40
0.624999999999778
40
0.624999999999778
40
0.687499999999815
40
0.687499999999815
40
0.749999999999852
40
0.749999999999852
40
0.874999999999926
40
0.874999999999926
40
1
40
1
40
1
40
1
41
1
10
129.999926581827
20
24.5132406545733
30
0
41
1
10
129.999925100903
20
24.545187486495
30
0
41
1
10
129.996929197632
20
24.576622696202
30
0
41
1
10
129.988068154211
20
24.6230293399105
30
0
41
1
10
129.984381604449
20
24.6383730043838
30
0
41
1
10
129.975502284074
20
24.6688029828462
30
0
41
1
10
129.970275151594
20
24.6839618389085
30
0
41
1
10
129.952592098856
20
24.7281467134894
30
0
41
1
10
129.938126048321
20
24.7560957853612
30
0
41
1
10
129.912430335195
20
24.7957690417538
30
0
41
1
10
129.903194516314
20
24.8086158823106
30
0
41
1
10
129.883327047779
20
24.8335236252719
30
0
41
1
10
129.87280016818
20
24.8454451555613
30
0
41
1
10
129.839773428879
20
24.8793218974151
30
0
41
1
10
129.815724464468
20
24.8995540533888
30
0
41
1
10
129.776555798334
20
24.9263175956221
30
0
41
1
10
129.762905313184
20
24.9346717916693
30
0
41
1
10
129.735101568096
20
24.94981744795
30
0
41
1
10
129.720909496015
20
24.9566455186053
30
0
41
1
10
129.677482758429
20
24.9749469836961
30
0
41
1
10
129.647360056943
20
24.9842676717745
30
0
41
1
10
129.584961033282
20
24.9968657693057
30
0
41
1
10
129.553439340045
20
25
30
0
41
1
10
129.521598579225
20
25
30
0
0
LINE
5
85
100
AcDbEntity
8
4
62
256
6
ByLayer
370
18
48
0.05
60
0
100
AcDbLine
10
140
20
0
30
0
11
51
21
0
31
0
39
0
210
0
220
0
230
1
0
LINE
5
87
100
AcDbEntity
8
SK4
62
256
6
ByLayer
370
18
48
0.05
60
0
100
AcDbLine
10
140
20
0
30
0
11
-10
21
0
31
0
39
0
210
0
220
0
230
1
0
LINE
5
89
100
AcDbEntity
8
1
62
256
6
ByLayer
370
18
48
1
60
0
100
AcDbLine
10
129.599999
20
-7.873681
30
0
11
129.604807
21
-7.894294
31
0
39
0
210
0
220
0
230
1
0
LINE
5
8B
100
AcDbEntity
8
1
62
256
6
ByLayer
370
18
48
1
60
0
100
AcDbLine
10
129.604807
20
-7.894294
30
0
11
129.728874
21
-9.517938
31
0
39
0
210
0
220
0
230
1
0
LINE
5
8C
100
AcDbEntity
8
1
62
256
6
ByLayer
370
18
48
1
60
0
100
AcDbLine
10
129.728874
20
-9.517938
30
0
11
129.686852
21
-10.017113
31
0
39
0
210
0
220
0
230
1
0
LINE
5
8D
100
AcDbEntity
8
1
62
256
6
ByLayer
370
18
48
1
60
0
100
AcDbLine
10
126.108651
20
-9.836763
30
0
11
129.390096
21
-10.079909
31
0
39
0
210
0
220
0
230
1
0
LINE
5
8E
100
AcDbEntity
8
1
62
256
6
ByLayer
370
18
48
1
60
0
100
AcDbLine
10
125.798864
20
-9.729023
30
0
11
125.798694
21
-9.728297
31
0
39
0
210
0
220
0
230
1
0
LINE
5
8F
100
AcDbEntity
8
1
62
256
6
ByLayer
370
18
48
1
60
0
100
AcDbLine
10
125.387847
20
-13.139206
30
0
11
129.521599
21
-13.445506
31
0
39
0
210
0
220
0
230
1
0
LINE
5
90
100
AcDbEntity
8
1
62
256
6
ByLayer
370
18
48
1
60
0
100
AcDbLine
10
124.909445
20
-12.002857
30
0
11
125.055181
21
-11.475891
31
0
39
0
210
0
220
0
230
1
0
LINE
5
91
100
AcDbEntity
8
1
62
256
6
ByLayer
370
18
48
1
60
0
100
AcDbLine
10
125.484109
20
-9.924932
30
0
11
125.510813
21
-9.828372
31
0
39
0
210
0
220
0
230
1
0
LINE
5
92
100
AcDbEntity
8
1
62
256
6
ByLayer
370
18
48
1
60
0
100
AcDbLine
10
124.909445
20
-12.002857
30
0
11
124.909519
21
-12.844956
31
0
39
0
210
0
220
0
230
1
0
LINE
5
93
100
AcDbEntity
8
1
62
256
6
ByLayer
370
18
48
1
60
0
100
AcDbLine
10
130
20
-12.380054
30
0
11
129.728874
21
-9.517938
31
0
39
0
210
0
220
0
230
1
0
LINE
5
94
100
AcDbEntity
8
1
62
256
6
ByLayer
370
18
48
1
60
0
100
AcDbLine
10
129.999927
20
-13.222142
30
0
11
130
21
-12.380054
31
0
39
0
210
0
220
0
230
1
0
LINE
5
95
100
AcDbEntity
8
1
62
256
6
ByLayer
370
18
48
1
60
0
100
AcDbLine
10
124.865652
20
-11.429736
30
0
11
124.909445
21
-12.002857
31
0
39
0
210
0
220
0
230
1
0
LINE
5
96
100
AcDbEntity
8
1
62
256
6
ByLayer
370
18
48
1
60
0
100
AcDbLine
10
130
20
-12.380054
30
0
11
129.875933
21
-10.756409
31
0
39
0
210
0
220
0
230
1
0
LINE
5
97
100
AcDbEntity
8
1
62
256
6
ByLayer
370
18
48
1
60
0
100
AcDbLine
10
129.875933
20
-10.756409
30
0
11
129.604807
21
-7.894294
31
0
39
0
210
0
220
0
230
1
0
LINE
5
98
100
AcDbEntity
8
1
62
256
6
ByLayer
370
18
48
1
60
0
100
AcDbLine
10
125.98698
20
19.664624
30
0
11
126.032122
21
19.52584
31
0
39
0
210
0
220
0
230
1
0
LINE
5
99
100
AcDbEntity
8
1
62
256
6
ByLayer
370
18
48
1
60
0
100
AcDbLine
10
128.932546
20
20.46926
30
0
11
128.887404
21
20.608044
31
0
39
0
210
0
220
0
230
1
0
LINE
5
9A
100
AcDbEntity
8
1
62
256
6
ByLayer
370
13
48
1
60
0
100
AcDbLine
10
128.093891
20
19.457527
30
0
11
128.084305
21
19.486997
31
0
39
0
210
0
220
0
230
1
0
LINE
5
9B
100
AcDbEntity
8
1
62
256
6
ByLayer
370
13
48
1
60
0
100
AcDbLine
10
126.812222
20
19.34247
30
0
11
126.765212
21
19.486997
31
0
39
0
210
0
220
0
230
1
0
LINE
5
9C
100
AcDbEntity
8
1
62
256
6
ByLayer
370
18
48
1
60
0
100
AcDbLine
10
128.06297
20
19.519668
30
0
11
128.089594
21
19.437816
31
0
39
0
210
0
220
0
230
1
0
LINE
5
9D
100
AcDbEntity
8
1
62
256
6
ByLayer
370
13
48
1
60
0
100
AcDbLine
10
128.091448
20
19.445107
30
0
11
128.073707
21
19.49965
31
0
39
0
210
0
220
0
230
1
0
LINE
5
9E
100
AcDbEntity
8
1
62
256
6
ByLayer
370
13
48
1
60
0
100
AcDbLine
10
128.427381
20
20.117295
30
0
11
128.347924
21
20.361577
31
0
39
0
210
0
220
0
230
1
0
LINE
5
9F
100
AcDbEntity
8
1
62
256
6
ByLayer
370
18
48
1
60
0
100
AcDbLine
10
126.862858
20
19.423306
30
0
11
126.789862
21
19.647723
31
0
39
0
210
0
220
0
230
1
0
LINE
5
A0
100
AcDbEntity
8
1
62
256
6
ByLayer
370
13
48
1
60
0
100
AcDbLine
10
126.836959
20
19.31985
30
0
11
126.778476
21
19.49965
31
0
39
0
210
0
220
0
230
1
0
LINE
5
A1
100
AcDbEntity
8
1
62
256
6
ByLayer
370
13
48
1
60
0
100
AcDbLine
10
126.6219
20
20.117295
30
0
11
126.542443
21
20.361577
31
0
39
0
210
0
220
0
230
1
0
LINE
5
A2
100
AcDbEntity
8
1
62
256
6
ByLayer
370
18
48
1
60
0
100
AcDbLine
10
128.407406
20
20.115091
30
0
11
128.427381
21
20.117295
31
0
39
0
210
0
220
0
230
1
0
LINE
5
A3
100
AcDbEntity
8
1
62
256
6
ByLayer
370
13
48
1
60
0
100
AcDbLine
10
128.407406
20
20.115091
30
0
11
128.328916
21
20.356398
31
0
39
0
210
0
220
0
230
1
0
LINE
5
A4
100
AcDbEntity
8
1
62
256
6
ByLayer
370
18
48
1
60
0
100
AcDbLine
10
128.102493
20
20.569695
30
0
11
128.175537
21
20.34513
31
0
39
0
210
0
220
0
230
1
0
LINE
5
A5
100
AcDbEntity
8
1
62
256
6
ByLayer
370
13
48
1
60
0
100
AcDbLine
10
127.782816
20
20.758799
30
0
11
127.703358
21
21.00308
31
0
39
0
210
0
220
0
230
1
0
LINE
5
A6
100
AcDbEntity
8
1
62
256
6
ByLayer
370
18
48
1
60
0
100
AcDbLine
10
126.898202
20
20.486181
30
0
11
126.820978
21
20.723595
31
0
39
0
210
0
220
0
230
1
0
LINE
5
A7
100
AcDbEntity
8
1
62
256
6
ByLayer
370
13
48
1
60
0
100
AcDbLine
10
126.641773
20
20.115091
30
0
11
126.563283
21
20.356398
31
0
39
0
210
0
220
0
230
1
0
LINE
5
A8
100
AcDbEntity
8
1
62
256
6
ByLayer
370
13
48
1
60
0
100
AcDbLine
10
127.296428
20
20.758799
30
0
11
127.21697
21
21.00308
31
0
39
0
210
0
220
0
230
1
0
LINE
5
A9
100
AcDbEntity
8
1
62
256
6
ByLayer
370
18
48
1
60
0
100
AcDbLine
10
126.6219
20
20.117295
30
0
11
126.641773
21
20.115091
31
0
39
0
210
0
220
0
230
1
0
LINE
5
AA
100
AcDbEntity
8
1
62
256
6
ByLayer
370
13
48
1
60
0
100
AcDbLine
10
127.774406
20
20.740966
30
0
11
127.695916
21
20.982273
31
0
39
0
210
0
220
0
230
1
0
LINE
5
AB
100
AcDbEntity
8
1
62
256
6
ByLayer
370
13
48
1
60
0
100
AcDbLine
10
127.304005
20
20.740966
30
0
11
127.225515
21
20.982273
31
0
39
0
210
0
220
0
230
1
0
LINE
5
AC
100
AcDbEntity
8
1
62
256
6
ByLayer
370
18
48
1
60
0
100
AcDbLine
10
127.774406
20
20.740966
30
0
11
127.782816
21
20.758799
31
0
39
0
210
0
220
0
230
1
0
LINE
5
AD
100
AcDbEntity
8
1
62
256
6
ByLayer
370
18
48
1
60
0
100
AcDbLine
10
127.296428
20
20.758799
30
0
11
127.304005
21
20.740966
31
0
39
0
210
0
220
0
230
1
0
LINE
5
AE
100
AcDbEntity
8
1
62
256
6
ByLayer
370
18
48
1
60
0
100
AcDbLine
10
129.703431
20
-13.436004
30
0
11
129.686852
21
-13.897263
31
0
39
0
210
0
220
0
230
1
0
LINE
5
AF
100
AcDbEntity
8
1
62
256
6
ByLayer
370
18
48
1
60
0
100
AcDbLine
10
129.875933
20
-6.787692
30
0
11
129.663485
21
-8.513656
31
0
39
0
210
0
220
0
230
1
0
LINE
5
B0
100
AcDbEntity
8
1
62
256
6
ByLayer
370
18
48
1
60
0
100
AcDbLine
10
129.875933
20
-6.787692
30
0
11
129.806842
21
-5.448989
31
0
39
0
210
0
220
0
230
1
0
LINE
5
B1
100
AcDbEntity
8
1
62
256
6
ByLayer
370
18
48
1
60
0
100
AcDbLine
10
130
20
-10.525462
30
0
11
129.875933
21
-6.787692
31
0
39
0
210
0
220
0
230
1
0
LINE
5
B2
100
AcDbEntity
8
1
62
256
6
ByLayer
370
18
48
1
60
0
100
AcDbLine
10
130
20
-10.525462
30
0
11
129.912562
21
-11.235823
31
0
39
0
210
0
220
0
230
1
0
LINE
5
B3
100
AcDbEntity
8
1
62
256
6
ByLayer
370
18
48
1
60
0
100
AcDbLine
10
129.999927
20
-11.266083
30
0
11
130
21
-10.525462
31
0
39
0
210
0
220
0
230
1
0
LINE
5
B4
100
AcDbEntity
8
1
62
256
6
ByLayer
370
18
48
1
60
0
100
AcDbLine
10
128.077399
20
9.746358
30
0
11
128.058928
21
9.903644
31
0
39
0
210
0
220
0
230
1
0
LINE
5
B5
100
AcDbEntity
8
1
62
256
6
ByLayer
370
18
48
1
60
0
100
AcDbLine
10
125.029745
20
9.5479
30
0
11
125.048217
21
9.390614
31
0
39
0
210
0
220
0
230
1
0
LINE
5
B6
100
AcDbEntity
8
1
62
256
6
ByLayer
370
13
48
1
60
0
100
AcDbLine
10
125.882303
20
10.029157
30
0
11
125.885732
21
9.999959
31
0
39
0
210
0
220
0
230
1
0
LINE
5
B7
100
AcDbEntity
8
1
62
256
6
ByLayer
370
13
48
1
60
0
100
AcDbLine
10
127.200099
20
10.1412
30
0
11
127.204825
21
10.100953
31
0
39
0
210
0
220
0
230
1
0
LINE
5
B8
100
AcDbEntity
8
1
62
256
6
ByLayer
370
18
48
1
60
0
100
AcDbLine
10
125.915128
20
9.979505
30
0
11
125.906324
21
10.054471
31
0
39
0
210
0
220
0
230
1
0
LINE
5
B9
100
AcDbEntity
8
1
62
256
6
ByLayer
370
13
48
1
60
0
100
AcDbLine
10
125.892018
20
10.04083
30
0
11
125.89706
21
9.997899
31
0
39
0
210
0
220
0
230
1
0
LINE
5
BA
100
AcDbEntity
8
1
62
256
6
ByLayer
370
13
48
1
60
0
100
AcDbLine
10
127.185771
20
10.152592
30
0
11
127.192292
21
10.097067
31
0
39
0
210
0
220
0
230
1
0
LINE
5
BB
100
AcDbEntity
8
1
62
256
6
ByLayer
370
18
48
1
60
0
100
AcDbLine
10
127.159268
20
10.168576
30
0
11
127.171362
21
10.065594
31
0
39
0
210
0
220
0
230
1
0
LINE
5
BC
100
AcDbEntity
8
1
62
256
6
ByLayer
370
13
48
1
60
0
100
AcDbLine
10
125.625554
20
9.67237
30
0
11
125.662963
21
9.353835
31
0
39
0
210
0
220
0
230
1
0
LINE
5
BD
100
AcDbEntity
8
1
62
256
6
ByLayer
370
13
48
1
60
0
100
AcDbLine
10
127.428207
20
9.834687
30
0
11
127.468444
21
9.49207
31
0
39
0
210
0
220
0
230
1
0
LINE
5
BE
100
AcDbEntity
8
1
62
256
6
ByLayer
370
18
48
1
60
0
100
AcDbLine
10
125.940108
20
9.19183
30
0
11
125.86518
21
9.829854
31
0
39
0
210
0
220
0
230
1
0
LINE
5
BF
100
AcDbEntity
8
1
62
256
6
ByLayer
370
13
48
1
60
0
100
AcDbLine
10
125.644381
20
9.68438
30
0
11
125.681867
21
9.365182
31
0
39
0
210
0
220
0
230
1
0
LINE
5
C0
100
AcDbEntity
8
1
62
256
6
ByLayer
370
18
48
1
60
0
100
AcDbLine
10
127.12223
20
9.908993
30
0
11
127.19795
21
9.264227
31
0
39
0
210
0
220
0
230
1
0
LINE
5
C1
100
AcDbEntity
8
1
62
256
6
ByLayer
370
13
48
1
60
0
100
AcDbLine
10
127.407368
20
9.8421
30
0
11
127.447501
21
9.500366
31
0
39
0
210
0
220
0
230
1
0
LINE
5
C2
100
AcDbEntity
8
1
62
256
6
ByLayer
370
13
48
1
60
0
100
AcDbLine
10
126.258033
20
9.620647
30
0
11
126.33749
21
8.94406
31
0
39
0
210
0
220
0
230
1
0
LINE
5
C3
100
AcDbEntity
8
1
62
256
6
ByLayer
370
13
48
1
60
0
100
AcDbLine
10
126.744421
20
9.657886
30
0
11
126.823878
21
8.9813
31
0
39
0
210
0
220
0
230
1
0
LINE
5
C4
100
AcDbEntity
8
1
62
256
6
ByLayer
370
13
48
1
60
0
100
AcDbLine
10
126.26561
20
9.634053
30
0
11
126.344099
21
8.965707
31
0
39
0
210
0
220
0
230
1
0
LINE
5
C5
100
AcDbEntity
8
1
62
256
6
ByLayer
370
13
48
1
60
0
100
AcDbLine
10
126.736011
20
9.670069
30
0
11
126.814501
21
9.001722
31
0
39
0
210
0
220
0
230
1
0
LINE
5
C6
100
AcDbEntity
8
1
62
256
6
ByLayer
370
18
48
1
60
0
100
AcDbLine
10
126.26561
20
9.634053
30
0
11
126.258033
21
9.620647
31
0
39
0
210
0
220
0
230
1
0
LINE
5
C7
100
AcDbEntity
8
1
62
256
6
ByLayer
370
18
48
1
60
0
100
AcDbLine
10
126.744421
20
9.657886
30
0
11
126.736011
21
9.670069
31
0
39
0
210
0
220
0
230
1
0
LINE
5
C8
100
AcDbEntity
8
1
62
256
6
ByLayer
370
18
48
1
60
0
100
AcDbLine
10
129.090481
20
12.056667
30
0
11
129.090555
21
11.290285
31
0
39
0
210
0
220
0
230
1
0
LINE
5
C9
100
AcDbEntity
8
1
62
256
6
ByLayer
370
18
48
1
60
0
100
AcDbLine
10
124
20
10.900534
30
0
11
129.090555
21
11.290285
31
0
39
0
210
0
220
0
230
1
0
LINE
5
CA
100
AcDbEntity
8
1
62
256
6
ByLayer
370
18
48
1
60
0
100
AcDbLine
10
124
20
10.900534
30
0
11
124.000073
21
11.666927
31
0
39
0
210
0
220
0
230
1
0
LINE
5
CB
100
AcDbEntity
8
1
62
256
6
ByLayer
370
18
48
1
60
0
100
AcDbLine
10
124.478401
20
11.939089
30
0
11
128.612153
21
12.255584
31
0
39
0
210
0
220
0
230
1
0
LINE
5
CC
100
AcDbEntity
8
1
62
256
6
ByLayer
370
18
48
1
60
0
100
AcDbLine
10
124.609904
20
14.480692
30
0
11
127.891349
21
14.731932
31
0
39
0
210
0
220
0
230
1
0
LINE
5
CD
100
AcDbEntity
8
1
62
256
6
ByLayer
370
18
48
1
60
0
100
AcDbLine
10
129.090555
20
11.290285
30
0
11
129.214622
21
7.47855
31
0
39
0
210
0
220
0
230
1
0
LINE
5
CE
100
AcDbEntity
8
1
62
256
6
ByLayer
370
18
48
1
60
0
100
AcDbLine
10
124.124067
20
7.088798
30
0
11
129.214622
21
7.47855
31
0
39
0
210
0
220
0
230
1
0
LINE
5
CF
100
AcDbEntity
8
1
62
256
6
ByLayer
370
18
48
1
60
0
100
AcDbLine
10
124.124067
20
7.088798
30
0
11
124
21
10.900534
31
0
39
0
210
0
220
0
230
1
0
LINE
5
D0
100
AcDbEntity
8
1
62
256
6
ByLayer
370
18
48
1
60
0
100
AcDbLine
10
129.214622
20
7.47855
30
0
11
129.283566
21
6.124461
31
0
39
0
210
0
220
0
230
1
0
LINE
5
D1
100
AcDbEntity
8
1
62
256
6
ByLayer
370
18
48
1
60
0
100
AcDbLine
10
128.82645
20
5.671677
30
0
11
124.692698
21
5.355182
31
0
39
0
210
0
220
0
230
1
0
LINE
5
D2
100
AcDbEntity
8
1
62
256
6
ByLayer
370
18
48
1
60
0
100
AcDbLine
10
124.193158
20
5.734721
30
0
11
124.124067
21
7.088798
31
0
39
0
210
0
220
0
230
1
0
LINE
5
D3
100
AcDbEntity
8
1
62
256
6
ByLayer
370
18
48
1
60
0
100
AcDbLine
10
129.59993
20
17.616856
30
0
11
129.875933
21
17.616856
31
0
39
0
210
0
220
0
230
1
0
LINE
5
D4
100
AcDbEntity
8
1
62
256
6
ByLayer
370
18
48
1
60
0
100
AcDbLine
10
129.875933
20
17.616856
30
0
11
129.806842
21
16.245251
31
0
39
0
210
0
220
0
230
1
0
LINE
5
D5
100
AcDbEntity
8
1
62
256
6
ByLayer
370
18
48
1
60
0
100
AcDbLine
10
124.80086
20
18.279767
30
0
11
124.909445
21
22.929448
31
0
39
0
210
0
220
0
230
1
0
LINE
5
D6
100
AcDbEntity
8
1
62
256
6
ByLayer
370
18
48
1
60
0
100
AcDbLine
10
124.909445
20
22.929448
30
0
11
130
21
22.929448
31
0
39
0
210
0
220
0
230
1
0
LINE
5
D7
100
AcDbEntity
8
1
62
256
6
ByLayer
370
18
48
1
60
0
100
AcDbLine
10
130
20
22.929448
30
0
11
129.875933
21
17.616856
31
0
39
0
210
0
220
0
230
1
0
LINE
5
D8
100
AcDbEntity
8
1
62
256
6
ByLayer
370
18
48
1
60
0
100
AcDbLine
10
129.999927
20
24.513241
30
0
11
130
21
22.929448
31
0
39
0
210
0
220
0
230
1
0
LINE
5
D9
100
AcDbEntity
8
1
62
256
6
ByLayer
370
18
48
1
60
0
100
AcDbLine
10
124.909445
20
22.929448
30
0
11
124.909519
21
24.513241
31
0
39
0
210
0
220
0
230
1
0
LINE
5
DA
100
AcDbEntity
8
1
62
256
6
ByLayer
370
18
48
1
60
0
100
AcDbLine
10
125.387847
20
25
30
0
11
129.521599
21
25
31
0
39
0
210
0
220
0
230
1
0
LINE
5
DB
100
AcDbEntity
8
1
62
256
6
ByLayer
370
18
48
1
60
0
100
AcDbLine
10
128.5
20
1.133293
30
0
11
128.5
21
2.636943
31
0
39
0
210
0
220
0
230
1
0
LINE
5
DC
100
AcDbEntity
8
1
62
256
6
ByLayer
370
18
48
1
60
0
100
AcDbLine
10
128.4
20
2.74497
30
0
11
125.6
21
2.647417
31
0
39
0
210
0
220
0
230
1
0
LINE
5
DD
100
AcDbEntity
8
1
62
256
6
ByLayer
370
18
48
1
60
0
100
AcDbLine
10
125.5
20
2.532422
30
0
11
125.5
21
1.127692
31
0
39
0
210
0
220
0
230
1
0
LINE
5
DE
100
AcDbEntity
8
1
62
256
6
ByLayer
370
18
48
1
60
0
100
AcDbLine
10
124.4
20
3.33607
30
0
11
124.4
21
-3.993067
31
0
39
0
210
0
220
0
230
1
0
LINE
5
DF
100
AcDbEntity
8
1
62
256
6
ByLayer
370
13
48
1
60
0
100
AcDbLine
10
129.6
20
3.734201
30
0
11
124.4
21
3.33607
31
0
39
0
210
0
220
0
230
1
0
LINE
5
E0
100
AcDbEntity
8
1
62
256
6
ByLayer
370
18
48
1
60
0
100
AcDbLine
10
129.6
20
-3.849558
30
0
11
129.6
21
3.734201
31
0
39
0
210
0
220
0
230
1
0
LINE
5
E1
100
AcDbEntity
8
1
62
256
6
ByLayer
370
18
48
1
60
0
100
AcDbLine
10
129.6
20
9.942311
30
0
11
129.135596
21
9.906755
31
0
39
0
210
0
220
0
230
1
0
LINE
5
E2
100
AcDbEntity
8
1
62
256
6
ByLayer
370
18
48
1
60
0
100
AcDbLine
10
129.6
20
9.942311
30
0
11
129.6
21
12.276168
31
0
39
0
210
0
220
0
230
1
0
LINE
5
E3
100
AcDbEntity
8
1
62
256
6
ByLayer
370
18
48
1
60
0
100
AcDbLine
10
128.508098
20
14.453136
30
0
11
128.534934
21
13.628643
31
0
39
0
210
0
220
0
230
1
0
LINE
5
E4
100
AcDbEntity
8
1
62
256
6
ByLayer
370
18
48
1
60
0
100
AcDbLine
10
128.360051
20
14.118773
30
0
11
128.345589
21
14.563079
31
0
39
0
210
0
220
0
230
1
0
LINE
5
E5
100
AcDbEntity
8
1
62
256
6
ByLayer
370
18
48
1
60
0
100
AcDbLine
10
129.163038
20
9.062707
30
0
11
129.6
21
9.096162
31
0
39
0
210
0
220
0
230
1
0
LINE
5
E6
100
AcDbEntity
8
1
62
256
6
ByLayer
370
18
48
1
60
0
100
AcDbLine
10
129.6
20
9.096162
30
0
11
129.6
21
9.942327
31
0
39
0
210
0
220
0
230
1
0
LINE
5
E7
100
AcDbEntity
8
1
62
256
6
ByLayer
370
13
48
1
60
0
100
AcDbLine
10
125.6
20
2.647417
30
0
11
125.6
21
1.041837
31
0
39
0
210
0
220
0
230
1
0
LINE
5
E8
100
AcDbEntity
8
1
62
256
6
ByLayer
370
13
48
1
60
0
100
AcDbLine
10
128.4
20
1.041837
30
0
11
128.4
21
2.74497
31
0
39
0
210
0
220
0
230
1
0
LINE
5
E9
100
AcDbEntity
8
1
62
256
6
ByLayer
370
18
48
1
60
0
100
AcDbLine
10
124.4
20
4.505261
30
0
11
129.6
21
4.903392
31
0
39
0
210
0
220
0
230
1
0
LINE
5
EA
100
AcDbEntity
8
1
62
256
6
ByLayer
370
13
48
1
60
0
100
AcDbLine
10
124.4
20
4.470522
30
0
11
129.6
21
4.868653
31
0
39
0
210
0
220
0
230
1
0
LINE
5
EB
100
AcDbEntity
8
1
62
256
6
ByLayer
370
18
48
1
60
0
100
AcDbLine
10
124.4
20
4.505261
30
0
11
124.4
21
4.470522
31
0
39
0
210
0
220
0
230
1
0
LINE
5
EC
100
AcDbEntity
8
1
62
256
6
ByLayer
370
18
48
1
60
0
100
AcDbLine
10
129.6
20
4.868653
30
0
11
129.6
21
4.903392
31
0
39
0
210
0
220
0
230
1
0
LINE
5
ED
100
AcDbEntity
8
1
62
256
6
ByLayer
370
18
48
1
60
0
100
AcDbLine
10
129.255013
20
6.685218
30
0
11
129.6
21
6.711631
31
0
39
0
210
0
220
0
230
1
0
LINE
5
EE
100
AcDbEntity
8
1
62
256
6
ByLayer
370
18
48
1
60
0
100
AcDbLine
10
124.4
20
5.422999
30
0
11
124.4
21
4.505261
31
0
39
0
210
0
220
0
230
1
0
LINE
5
EF
100
AcDbEntity
8
1
62
256
6
ByLayer
370
18
48
1
60
0
100
AcDbLine
10
129.6
20
4.903392
30
0
11
129.6
21
6.711631
31
0
39
0
210
0
220
0
230
1
0
LINE
5
F0
100
AcDbEntity
8
1
62
256
6
ByLayer
370
13
48
1
60
0
100
AcDbLine
10
129.6
20
8.407098
30
0
11
129.185381
21
8.375353
31
0
39
0
210
0
220
0
230
1
0
LINE
5
F1
100
AcDbEntity
8
1
62
256
6
ByLayer
370
18
48
1
60
0
100
AcDbLine
10
129.24965
20
6.789023
30
0
11
129.6
21
6.815847
31
0
39
0
210
0
220
0
230
1
0
LINE
5
F2
100
AcDbEntity
8
1
62
256
6
ByLayer
370
18
48
1
60
0
100
AcDbLine
10
129.6
20
6.815847
30
0
11
129.6
21
8.407098
31
0
39
0
210
0
220
0
230
1
0
LINE
5
F3
100
AcDbEntity
8
1
62
256
6
ByLayer
370
18
48
1
60
0
100
AcDbLine
10
129.6
20
6.711631
30
0
11
129.6
21
6.815847
31
0
39
0
210
0
220
0
230
1
0
LINE
5
F4
100
AcDbEntity
8
1
62
256
6
ByLayer
370
13
48
1
60
0
100
AcDbLine
10
129.1762
20
8.658263
30
0
11
129.6
21
8.690711
31
0
39
0
210
0
220
0
230
1
0
LINE
5
F5
100
AcDbEntity
8
1
62
256
6
ByLayer
370
18
48
1
60
0
100
AcDbLine
10
129.6
20
8.690711
30
0
11
129.6
21
9.096161
31
0
39
0
210
0
220
0
230
1
0
LINE
5
F6
100
AcDbEntity
8
1
62
256
6
ByLayer
370
18
48
1
60
0
100
AcDbLine
10
124.4
20
-11.192196
30
0
11
124.4
21
-11.146128
31
0
39
0
210
0
220
0
230
1
0
LINE
5
F7
100
AcDbEntity
8
1
62
256
6
ByLayer
370
13
48
1
60
0
100
AcDbLine
10
124.889856
20
-11.746039
30
0
11
124.4
21
-11.709742
31
0
39
0
210
0
220
0
230
1
0
LINE
5
F8
100
AcDbEntity
8
1
62
256
6
ByLayer
370
18
48
1
60
0
100
AcDbLine
10
125.5
20
-13.147524
30
0
11
125.5
21
-13.559786
31
0
39
0
210
0
220
0
230
1
0
LINE
5
F9
100
AcDbEntity
8
1
62
256
6
ByLayer
370
18
48
1
60
0
100
AcDbLine
10
128.5
20
-13.492768
30
0
11
128.5
21
-13.369807
31
0
39
0
210
0
220
0
230
1
0
LINE
5
FA
100
AcDbEntity
8
1
62
256
6
ByLayer
370
18
48
1
60
0
100
AcDbLine
10
124.4
20
-11.709742
30
0
11
124.4
21
-21.762923
31
0
39
0
210
0
220
0
230
1
0
LINE
5
FB
100
AcDbEntity
8
1
62
256
6
ByLayer
370
18
48
1
60
0
100
AcDbLine
10
129.6
20
-21.810698
30
0
11
129.6
21
-13.447042
31
0
39
0
210
0
220
0
230
1
0
LINE
5
FC
100
AcDbEntity
8
1
62
256
6
ByLayer
370
13
48
1
60
0
100
AcDbLine
10
125.6
20
-13.154921
30
0
11
125.6
21
-13.212041
31
0
39
0
210
0
220
0
230
1
0
LINE
5
FD
100
AcDbEntity
8
1
62
256
6
ByLayer
370
18
48
1
60
0
100
AcDbLine
10
99.1
20
-9.99475
30
0
11
99.179218
21
-9.930121
31
0
39
0
210
0
220
0
230
1
0
LINE
5
FE
100
AcDbEntity
8
1
62
256
6
ByLayer
370
18
48
1
60
0
100
AcDbLine
10
99.179218
20
9.930121
30
0
11
99.1
21
9.99475
31
0
39
0
210
0
220
0
230
1
0
LINE
5
FF
100
AcDbEntity
8
1
62
256
6
ByLayer
370
18
48
1
60
0
100
AcDbLine
10
123.6
20
9.75
30
0
11
99.684936
21
9.75
31
0
39
0
210
0
220
0
230
1
0
LINE
5
100
100
AcDbEntity
8
1
62
256
6
ByLayer
370
18
48
1
60
0
100
AcDbLine
10
99.684936
20
-9.75
30
0
11
123.6
21
-9.75
31
0
39
0
210
0
220
0
230
1
0
LINE
5
101
100
AcDbEntity
8
1
62
256
6
ByLayer
370
18
48
1
60
0
100
AcDbLine
10
124.4
20
19.782142
30
0
11
124.835945
21
19.782142
31
0
39
0
210
0
220
0
230
1
0
LINE
5
102
100
AcDbEntity
8
1
62
256
6
ByLayer
370
18
48
1
60
0
100
AcDbLine
10
124.4
20
19.782142
30
0
11
124.4
21
23.02686
31
0
39
0
210
0
220
0
230
1
0
LINE
5
103
100
AcDbEntity
8
1
62
256
6
ByLayer
370
18
48
1
60
0
100
AcDbLine
10
124.4
20
19.264504
30
0
11
124.82386
21
19.264504
31
0
39
0
210
0
220
0
230
1
0
LINE
5
104
100
AcDbEntity
8
1
62
256
6
ByLayer
370
18
48
1
60
0
100
AcDbLine
10
124.4
20
19.264504
30
0
11
124.4
21
19.782142
31
0
39
0
210
0
220
0
230
1
0
LINE
5
105
100
AcDbEntity
8
1
62
256
6
ByLayer
370
18
48
1
60
0
100
AcDbLine
10
124.4
20
18.037345
30
0
11
124.4
21
19.264504
31
0
39
0
210
0
220
0
230
1
0
LINE
5
106
100
AcDbEntity
8
1
62
256
6
ByLayer
370
18
48
1
60
0
100
AcDbLine
10
124.016889
20
11.813119
30
0
11
124
21
12.02087
31
0
39
0
210
0
220
0
230
1
0
LINE
5
107
100
AcDbEntity
8
1
62
256
6
ByLayer
370
18
48
1
60
0
100
AcDbLine
10
124
20
12.02087
30
0
11
124.041679
21
12.017747
31
0
39
0
210
0
220
0
230
1
0
LINE
5
108
100
AcDbEntity
8
1
62
256
6
ByLayer
370
18
48
1
60
0
100
AcDbLine
10
124
20
12.02087
30
0
11
124.000073
21
12.838
31
0
39
0
210
0
220
0
230
1
0
LINE
5
109
100
AcDbEntity
8
1
62
256
6
ByLayer
370
18
48
1
60
0
100
AcDbLine
10
124.271126
20
-22.24607
30
0
11
124.395193
21
-16.884656
31
0
39
0
210
0
220
0
230
1
0
LINE
5
10A
100
AcDbEntity
8
1
62
256
6
ByLayer
370
18
48
1
60
0
100
AcDbLine
10
124.395193
20
-16.884656
30
0
11
124.400001
21
-16.817397
31
0
39
0
210
0
220
0
230
1
0
LINE
5
10B
100
AcDbEntity
8
1
62
256
6
ByLayer
370
18
48
1
60
0
100
AcDbLine
10
128.201306
20
-23.924587
30
0
11
128.201136
21
-23.926959
31
0
39
0
210
0
220
0
230
1
0
LINE
5
10C
100
AcDbEntity
8
1
62
256
6
ByLayer
370
18
48
1
60
0
100
AcDbLine
10
124.609904
20
-24.196918
30
0
11
127.891349
21
-24.207538
31
0
39
0
210
0
220
0
230
1
0
LINE
5
10D
100
AcDbEntity
8
1
62
256
6
ByLayer
370
18
48
1
60
0
100
AcDbLine
10
124.313148
20
-23.914376
30
0
11
124.271126
21
-22.24607
31
0
39
0
210
0
220
0
230
1
0
LINE
5
10E
100
AcDbEntity
8
1
62
256
6
ByLayer
370
18
48
1
60
0
100
AcDbLine
10
124.478401
20
-24.976199
30
0
11
128.612153
21
-24.989578
31
0
39
0
210
0
220
0
230
1
0
LINE
5
10F
100
AcDbEntity
8
1
62
256
6
ByLayer
370
18
48
1
60
0
100
AcDbLine
10
129.090481
20
-24.5047
30
0
11
129.090509
21
-23.911876
31
0
39
0
210
0
220
0
230
1
0
LINE
5
110
100
AcDbEntity
8
1
62
256
6
ByLayer
370
18
48
1
60
0
100
AcDbLine
10
124
20
-22.905516
30
0
11
124.271126
21
-22.24607
31
0
39
0
210
0
220
0
230
1
0
LINE
5
111
100
AcDbEntity
8
1
62
256
6
ByLayer
370
18
48
1
60
0
100
AcDbLine
10
124
20
-22.905516
30
0
11
124.000073
21
-24.488225
31
0
39
0
210
0
220
0
230
1
0
LINE
5
112
100
AcDbEntity
8
1
62
256
6
ByLayer
370
18
48
1
60
0
100
AcDbLine
10
124.124067
20
-17.544101
30
0
11
124
21
-22.905516
31
0
39
0
210
0
220
0
230
1
0
LINE
5
113
100
AcDbEntity
8
1
62
256
6
ByLayer
370
18
48
1
60
0
100
AcDbLine
10
124.124067
20
-17.544101
30
0
11
124.395193
21
-16.884656
31
0
39
0
210
0
220
0
230
1
0
LINE
5
114
100
AcDbEntity
8
1
62
256
6
ByLayer
370
18
48
1
60
0
100
AcDbLine
10
124.193158
20
-16.144253
30
0
11
124.124067
21
-17.544101
31
0
39
0
210
0
220
0
230
1
0
LINE
5
115
100
AcDbEntity
8
1
62
256
6
ByLayer
370
18
48
1
60
0
100
AcDbLine
10
99.1
20
9.99475
30
0
11
51
21
9.99475
31
0
39
0
210
0
220
0
230
1
0
LINE
5
116
100
AcDbEntity
8
1
62
256
6
ByLayer
370
18
48
1
60
0
100
AcDbLine
10
51
20
-9.99475
30
0
11
99.1
21
-9.99475
31
0
39
0
210
0
220
0
230
1
0
LINE
5
117
100
AcDbEntity
8
SK1
62
256
6
ByLayer
370
18
48
1
60
0
100
AcDbLine
10
51
20
9.99475
30
0
11
1
21
9.99475
31
0
39
0
210
0
220
0
230
1
0
LINE
5
119
100
AcDbEntity
8
SK1
62
256
6
ByLayer
370
18
48
1
60
0
100
AcDbLine
10
1
20
-9.99475
30
0
11
51
21
-9.99475
31
0
39
0
210
0
220
0
230
1
0
LINE
5
11A
100
AcDbEntity
8
SK1
62
256
6
ByLayer
370
18
48
1
60
0
100
AcDbLine
10
1
20
9.99475
30
0
11
0
21
8.99475
31
0
39
0
210
0
220
0
230
1
0
LINE
5
11B
100
AcDbEntity
8
SK1
62
256
6
ByLayer
370
18
48
1
60
0
100
AcDbLine
10
0
20
-8.99475
30
0
11
1
21
-9.99475
31
0
39
0
210
0
220
0
230
1
0
LINE
5
11C
100
AcDbEntity
8
80
62
256
6
ByLayer
370
18
48
1
60
0
100
AcDbLine
10
0
20
0
30
0
11
-10
21
0
31
0
39
0
210
0
220
0
230
1
0
LINE
5
11D
100
AcDbEntity
8
81
62
256
6
ByLayer
370
18
48
1
60
0
100
AcDbLine
10
130
20
0
30
0
11
140
21
0
31
0
39
0
210
0
220
0
230
1
0
LINE
5
11E
100
AcDbEntity
8
1
62
256
6
ByLayer
370
13
48
1
60
0
100
AcDbLine
10
99.684936
20
9.75
30
0
11
99.684936
21
-9.75
31
0
39
0
210
0
220
0
230
1
0
LINE
5
11F
100
AcDbEntity
8
SK1
62
256
6
ByLayer
370
18
48
1
60
0
100
AcDbLine
10
51
20
-9.99475
30
0
11
51
21
9.99475
31
0
39
0
210
0
220
0
230
1
0
LINE
5
120
100
AcDbEntity
8
SK1
62
256
6
ByLayer
370
18
48
1
60
0
100
AcDbLine
10
0
20
8.99475
30
0
11
0
21
-8.99475
31
0
39
0
210
0
220
0
230
1
0
LINE
5
121
100
AcDbEntity
8
1
62
256
6
ByLayer
370
18
48
1
60
0
100
AcDbLine
10
124.4
20
14.418527
30
0
11
124.4
21
18.037372
31
0
39
0
210
0
220
0
230
1
0
LINE
5
122
100
AcDbEntity
8
SK1
62
256
6
ByLayer
370
18
48
1
60
0
100
AcDbLine
10
1
20
9.99475
30
0
11
1
21
-9.99475
31
0
39
0
210
0
220
0
230
1
0
LINE
5
123
100
AcDbEntity
8
1
62
256
6
ByLayer
370
13
48
1
60
0
100
AcDbLine
10
125.81007
20
20.068689
30
0
11
125.810066
21
20.068532
31
0
39
0
210
0
220
0
230
1
0
LINE
5
124
100
AcDbEntity
8
1
62
256
6
ByLayer
370
18
48
1
60
0
100
AcDbLine
10
126.25
20
0.381737
30
0
11
126.25
21
0.97581
31
0
39
0
210
0
220
0
230
1
0
LINE
5
125
100
AcDbEntity
8
1
62
256
6
ByLayer
370
13
48
1
60
0
100
AcDbLine
10
128.6
20
-9.945943
30
0
11
128.6
21
-4.763147
31
0
39
0
210
0
220
0
230
1
0
LINE
5
126
100
AcDbEntity
8
1
62
256
6
ByLayer
370
13
48
1
60
0
100
AcDbLine
10
125.4
20
-4.84909
30
0
11
125.4
21
-10.798414
31
0
39
0
210
0
220
0
230
1
0
LINE
5
127
100
AcDbEntity
8
1
62
256
6
ByLayer
370
18
48
1
60
0
100
AcDbLine
10
129.6
20
-3.849558
30
0
11
129.6
21
-9.727326
31
0
39
0
210
0
220
0
230
1
0
LINE
5
128
100
AcDbEntity
8
1
62
256
6
ByLayer
370
18
48
1
60
0
100
AcDbLine
10
124.4
20
-11.146146
30
0
11
124.4
21
-3.993067
31
0
39
0
210
0
220
0
230
1
0
LINE
5
129
100
AcDbEntity
8
1
62
256
6
ByLayer
370
13
48
1
60
0
100
AcDbLine
10
128.6
20
13.593713
30
0
11
128.6
21
18.27997
31
0
39
0
210
0
220
0
230
1
0
LINE
5
12A
100
AcDbEntity
8
1
62
256
6
ByLayer
370
13
48
1
60
0
100
AcDbLine
10
125.4
20
18.336887
30
0
11
125.4
21
14.541204
31
0
39
0
210
0
220
0
230
1
0
LINE
5
12B
100
AcDbEntity
8
1
62
256
6
ByLayer
370
18
48
1
60
0
100
AcDbLine
10
129.6
20
17.94626
30
0
11
129.6
21
12.276168
31
0
39
0
210
0
220
0
230
1
0
LINE
5
12C
100
AcDbEntity
8
1
62
256
6
ByLayer
370
18
48
1
60
0
100
AcDbLine
10
99.1
20
9.99475
30
0
11
99.1
21
-9.99475
31
0
39
0
210
0
220
0
230
1
0
LINE
5
12D
100
AcDbEntity
8
1
62
256
6
ByLayer
370
18
48
1
60
0
100
AcDbLine
10
51
20
-9.99475
30
0
11
51
21
9.99475
31
0
39
0
210
0
220
0
230
1
0
LINE
5
12E
100
AcDbEntity
8
1
62
256
6
ByLayer
370
13
48
1
60
0
100
AcDbLine
10
123.6
20
-9.75
30
0
11
123.6
21
9.75
31
0
39
0
210
0
220
0
230
1
0
LINE
5
12F
100
AcDbEntity
8
1
62
256
6
ByLayer
370
13
48
1
60
0
100
AcDbLine
10
125.4
20
-22.946599
30
0
11
125.4
21
-23.94899
31
0
39
0
210
0
220
0
230
1
0
LINE
5
130
100
AcDbEntity
8
1
62
256
6
ByLayer
370
13
48
1
60
0
100
AcDbLine
10
128.6
20
-24.022481
30
0
11
128.6
21
-22.972855
31
0
39
0
210
0
220
0
230
1
0
LINE
5
131
100
AcDbEntity
8
1
62
256
6
ByLayer
370
18
48
1
60
0
100
AcDbLine
10
124.4
20
-22.973607
30
0
11
124.4
21
-21.762923
31
0
39
0
210
0
220
0
230
1
0
LINE
5
132
100
AcDbEntity
8
1
62
256
6
ByLayer
370
18
48
1
60
0
100
AcDbLine
10
129.6
20
-21.810698
30
0
11
129.6
21
-23.059019
31
0
39
0
210
0
220
0
230
1
0
LINE
5
133
100
AcDbEntity
8
1
62
256
6
ByLayer
370
13
48
1
60
0
100
AcDbLine
10
99.179218
20
-9.930121
30
0
11
99.179218
21
9.930121
31
0
39
0
210
0
220
0
230
1
0
LINE
5
134
100
AcDbEntity
8
1
62
256
6
ByLayer
370
18
48
1
60
0
100
AcDbLine
10
124.4
20
4.470522
30
0
11
124.4
21
3.33607
31
0
39
0
210
0
220
0
230
1
0
LINE
5
135
100
AcDbEntity
8
1
62
256
6
ByLayer
370
18
48
1
60
0
100
AcDbLine
10
129.6
20
3.734201
30
0
11
129.6
21
4.868653
31
0
39
0
210
0
220
0
230
1
0
LINE
5
136
100
AcDbEntity
8
1
62
256
6
ByLayer
370
18
48
1
60
0
100
AcDbLine
10
129.6
20
8.407098
30
0
11
129.6
21
8.690711
31
0
39
0
210
0
220
0
230
1
0
LINE
5
137
100
AcDbEntity
8
1
62
256
6
ByLayer
370
18
48
1
60
0
100
AcDbLine
10
124.4
20
-11.192197
30
0
11
124.4
21
-11.709742
31
0
39
0
210
0
220
0
230
1
0
LINE
5
138
100
AcDbEntity
8
1
62
256
6
ByLayer
370
18
48
1
60
0
100
AcDbLine
10
125.87862
20
10.002578
30
0
11
125.885732
21
9.999959
31
0
39
0
210
0
220
0
230
1
0
MTEXT
5
20C
100
AcDbEntity
8
SK6
62
256
6
ByLayer
370
18
48
1
60
0
100
AcDbMText
10
64.747368
20
-49.375
30
0
210
0
220
0
230
1
1
\W0.7700;R331.35C-050A20CM060
40
3.5
41
0
44
1.084337
50
0
71
7
72
5
7
iso_b_vert
0
DIMENSION
5
21D
100
AcDbEntity
8
2
62
256
6
ByLayer
370
13
48
1
60
0
100
AcDbDimension
2
DimnDraft3D1
10
130
20
43.378981
30
0
11
92.292105
21
43.378981
31
0
70
32
71
5
72
1
41
1
210
0
220
0
230
1
3
Standard
100
AcDbAlignedDimension
13
51
23
11.5875
33
0
14
130
24
26.5875
34
0
50
0
100
AcDbRotatedDimension
1001
ACAD
1000
DSTYLE
1002
{
1070
   279
1070
     0
1070
   172
1070
     1
1070
   173
1070
     1
1070
   340
1005
20D
1070
   271
1070
     2
1070
   272
1070
     3
1070
    77
1070
     1
1070
    73
1070
     0
1070
   171
1070
     3
1070
   274
1070
     4
1070
   177
1070
     2
1070
   176
1070
     2
1070
   178
1070
     7
1070
    78
1070
     8
1070
    48
1040
-0.005
1070
    41
1041
3.5
1070
   147
1041
1.5
1070
    42
1041
1.5875
1070
    44
1041
2.0
1070
   140
1041
3.0
1070
   343
1005
21E
1070
   344
1005
21E
1002
}
0
DIMENSION
5
233
100
AcDbEntity
8
SK2
62
256
6
ByLayer
370
13
48
1
60
0
100
AcDbDimension
2
DimnDraft3D2
10
0
20
53.378981
30
0
11
67.538158
21
53.378981
31
0
70
32
71
5
72
1
41
1
210
0
220
0
230
1
3
Standard
100
AcDbAlignedDimension
13
130
23
25.476956
33
0
14
0
24
0.476956
34
0
50
0
100
AcDbRotatedDimension
1001
ACAD
1000
DSTYLE
1002
{
1070
   279
1070
     0
1070
   172
1070
     1
1070
   173
1070
     1
1070
   340
1005
20D
1070
   271
1070
     3
1070
   272
1070
     3
1070
    77
1070
     1
1070
    73
1070
     0
1070
   171
1070
     3
1070
   274
1070
     4
1070
   177
1070
     2
1070
   176
1070
     2
1070
   178
1070
     7
1070
    78
1070
     8
1070
    48
1040
-0.005
1070
    41
1041
0.953912
1070
   147
1041
1.5
1070
    42
1041
0.476956
1070
    44
1041
0.953912
1070
   140
1041
3.0
1070
   343
1005
21E
1070
   344
1005
21E
1002
}
0
DIMENSION
5
241
100
AcDbEntity
8
SK2
62
256
6
ByLayer
370
13
48
1
60
0
100
AcDbDimension
2
DimnDraft3D3
10
130
20
33.378981
30
0
11
127.671053
21
33.378981
31
0
70
32
71
5
72
1
41
1
210
0
220
0
230
1
3
Standard
100
AcDbAlignedDimension
13
124
23
25.476956
33
0
14
130
24
25.476956
34
0
50
0
100
AcDbRotatedDimension
1001
ACAD
1000
DSTYLE
1002
{
1070
   279
1070
     0
1070
   172
1070
     1
1070
   173
1070
     1
1070
   340
1005
20D
1070
   271
1070
     3
1070
   272
1070
     3
1070
    77
1070
     1
1070
    73
1070
     0
1070
   171
1070
     3
1070
   274
1070
     4
1070
   177
1070
     2
1070
   176
1070
     2
1070
   178
1070
     7
1070
    78
1070
     8
1070
    48
1040
-0.005
1070
    41
1041
0.953912
1070
   147
1041
1.5
1070
    42
1041
0.476956
1070
    44
1041
0.953912
1070
   140
1041
3.0
1070
   343
1005
21E
1070
   344
1005
21E
1002
}
0
DIMENSION
5
24F
100
AcDbEntity
8
SK2
62
256
6
ByLayer
370
13
48
1
60
0
100
AcDbDimension
2
DimnDraft3D4
10
-18.35
20
-10
30
0
11
-18.35
21
1.792105
31
0
70
32
71
5
72
1
41
1
210
0
220
0
230
1
3
Standard
100
AcDbAlignedDimension
13
49.4125
23
10
33
0
14
49.4125
24
-10
34
0
50
90
100
AcDbRotatedDimension
1001
ACAD
1000
DSTYLE
1002
{
1070
    74
1070
     0
1070
   279
1070
     0
1070
   172
1070
     1
1070
   173
1070
     1
1070
   340
1005
20D
1070
   271
1070
     0
1070
   272
1070
     3
1070
    77
1070
     1
1070
    73
1070
     0
1070
   171
1070
     3
1070
   274
1070
     4
1070
   177
1070
     2
1070
   176
1070
     2
1070
   178
1070
     7
1070
    78
1070
     8
1070
    48
1040
-0.005
1070
    41
1041
3.5
1070
   147
1041
1.5
1070
    42
1041
1.5875
1070
    44
1041
2.0
1070
   140
1041
3.0
1070
   343
1005
21E
1070
   344
1005
21E
1002
}
0
DIMENSION
5
25D
100
AcDbEntity
8
2
62
256
6
ByLayer
370
13
48
1
60
0
100
AcDbDimension
2
DimnDraft3D5
10
154.35
20
-25
30
0
11
154.35
21
1.792105
31
0
70
32
71
5
72
1
41
1
210
0
220
0
230
1
3
Standard
100
AcDbAlignedDimension
13
131.5875
23
25
33
0
14
131.5875
24
-25
34
0
50
90
100
AcDbRotatedDimension
1001
ACAD
1000
DSTYLE
1002
{
1070
    74
1070
     0
1070
   279
1070
     0
1070
   172
1070
     1
1070
   173
1070
     1
1070
   340
1005
20D
1070
   271
1070
     2
1070
   272
1070
     3
1070
    77
1070
     1
1070
    73
1070
     0
1070
   171
1070
     3
1070
   274
1070
     4
1070
   177
1070
     2
1070
   176
1070
     2
1070
   178
1070
     7
1070
    78
1070
     8
1070
    48
1040
-0.005
1070
    41
1041
3.5
1070
   147
1041
1.5
1070
    42
1041
1.5875
1070
    44
1041
2.0
1070
   140
1041
3.0
1070
   343
1005
21E
1070
   344
1005
21E
1002
}
0
ENDSEC
0
SECTION
2
OBJECTS
0
DICTIONARY
5
2c9
330
0
100
AcDbDictionary
280
0
281
1
3
ACAD_GROUP
350
2ca
3
ACAD_MLINESTYLE
350
2cb
0
DICTIONARY
5
2ca
330
0
100
AcDbDictionary
280
0
281
1
0
DICTIONARY
5
2cb
330
0
100
AcDbDictionary
280
0
281
1
3
Standard
350
18
0
MLINESTYLE
5
18
330
2cb
100
AcDbMlineStyle
2
Standard
70
0
3

62
256
51
90
52
90
71
2
49
-0.5
62
256
6
ByLayer
49
0.5
62
256
6
ByLayer
0
RASTERVARIABLES
5
2b6
330

100
AcDbRasterVariables
90
0
70
1
71
1
72
1
0
ENDSEC
0
EOF
