0
SECTION
2
HEADER
9
$ACADVER
1
AC1015
9
$DWGCODEPAGE
3
ANSI_1252
9
$HANDSEED
5
2e5
9
$ANGBASE
50
0
9
$ANGDIR
70
0
9
$ATTMODE
70
1
9
$AUNITS
70
0
9
$AUPREC
70
0
9
$CECOLOR
62
256
9
$CELTSCALE
40
1
9
$CELTYPE
6
ByLayer
9
$CELWEIGHT
370
18
9
$CLAYER
8
0
9
$CMLJUST
70
0
9
$CMLSCALE
40
1
9
$CMLSTYLE
2
Standard
9
$DIMSTYLE
2
Standard
9
$TEXTSIZE
40
0.2
9
$TEXTSTYLE
7
Standard
9
$LUNITS
70
2
9
$LUPREC
70
4
9
$EXTNAMES
290
1
9
$INSUNITS
70
4
9
$LTSCALE
40
1
9
$LWDISPLAY
290
1
9
$PDMODE
70
0
9
$PDSIZE
40
0
9
$PLINEGEN
70
0
0
ENDSEC
0
SECTION
2
CLASSES
0
CLASS
1
RASTERVARIABLES
2
AcDbRasterVariables
3
ISM
90
0
280
0
281
0
0
ENDSEC
0
SECTION
2
TABLES
0
TABLE
2
VPORT
5
2db
100
AcDbSymbolTable
0
VPORT
5
1
100
AcDbSymbolTableRecord
100
AcDbViewportTableRecord
2
*Active
70
0
10
0
20
0
11
1
21
1
12
-1
22
1
13
0
23
0
14
0.5
24
0.5
15
10
25
10
16
0
26
0
36
1
17
0
27
0
37
0
0
ENDTAB
0
TABLE
2
LTYPE
5
2dc
100
AcDbSymbolTable
0
LTYPE
5
14
100
AcDbSymbolTableRecord
100
AcDbLinetypeTableRecord
70
0
2
ByBlock
3

72
65
73
0
40
0
0
LTYPE
5
15
100
AcDbSymbolTableRecord
100
AcDbLinetypeTableRecord
70
0
2
ByLayer
3

72
65
73
0
40
0
0
LTYPE
5
16
100
AcDbSymbolTableRecord
100
AcDbLinetypeTableRecord
70
0
2
CONTINUOUS
3
Solid line
72
65
73
0
40
0
0
LTYPE
5
6A
100
AcDbSymbolTableRecord
100
AcDbLinetypeTableRecord
70
0
2
CENTER
3
____ _ ____ _ ____ _ ____
72
65
73
4
40
47.5
49
22
74
0
49
-8.5
74
0
49
8.5
74
0
49
-8.5
74
0
0
LTYPE
5
6B
100
AcDbSymbolTableRecord
100
AcDbLinetypeTableRecord
70
0
2
DASHED
3
__ __ __ __ __ __ __ __ __
72
65
73
2
40
25.72
49
12.86
74
0
49
-12.86
74
0
0
ENDTAB
0
TABLE
2
LAYER
5
2dd
100
AcDbSymbolTable
0
LAYER
5
10
100
AcDbSymbolTableRecord
100
AcDbLayerTableRecord
2
0
70
0
62
7
6
CONTINUOUS
290
1
370
-3
390
0
0
LAYER
5
6D
100
AcDbSymbolTableRecord
100
AcDbLayerTableRecord
2
80
70
0
62
-6
6
CONTINUOUS
290
1
370
-3
390
0
0
LAYER
5
71
100
AcDbSymbolTableRecord
100
AcDbLayerTableRecord
2
81
70
0
62
-3
6
CONTINUOUS
290
1
370
-3
390
0
0
LAYER
5
73
100
AcDbSymbolTableRecord
100
AcDbLayerTableRecord
2
2
70
0
62
7
6
CONTINUOUS
290
1
370
-3
390
0
0
LAYER
5
75
100
AcDbSymbolTableRecord
100
AcDbLayerTableRecord
2
3
70
0
62
1
6
DASHED
290
1
370
-3
390
0
0
LAYER
5
7F
100
AcDbSymbolTableRecord
100
AcDbLayerTableRecord
2
5
70
0
62
-7
6
CONTINUOUS
290
1
370
-3
390
0
0
LAYER
5
86
100
AcDbSymbolTableRecord
100
AcDbLayerTableRecord
2
4
70
0
62
-2
6
CENTER
290
1
370
-3
390
0
0
LAYER
5
8A
100
AcDbSymbolTableRecord
100
AcDbLayerTableRecord
2
1
70
0
62
4
6
CONTINUOUS
290
1
370
-3
390
0
0
LAYER
5
2c6
100
AcDbSymbolTableRecord
100
AcDbLayerTableRecord
2
2L
70
0
62
7
6
CONTINUOUS
290
1
370
-3
390
0
0
LAYER
5
2c7
100
AcDbSymbolTableRecord
100
AcDbLayerTableRecord
2
SK4
70
0
62
2
6
CENTER
290
1
370
-3
390
0
0
LAYER
5
2c8
100
AcDbSymbolTableRecord
100
AcDbLayerTableRecord
2
SK1
70
0
62
4
6
CONTINUOUS
290
1
370
-3
390
0
0
LAYER
5
2c9
100
AcDbSymbolTableRecord
100
AcDbLayerTableRecord
2
SK6
70
0
62
5
6
CONTINUOUS
290
1
370
-3
390
0
0
LAYER
5
2ca
100
AcDbSymbolTableRecord
100
AcDbLayerTableRecord
2
SK2
70
0
62
7
6
CONTINUOUS
290
1
370
-3
390
0
0
ENDTAB
0
TABLE
2
STYLE
5
2de
100
AcDbSymbolTable
0
STYLE
5
11
100
AcDbSymbolTableRecord
100
AcDbTextStyleTableRecord
2
Standard
3
txt
70
0
71
0
40
0
41
1
42
0
50
0
0
STYLE
5
21C
100
AcDbSymbolTableRecord
100
AcDbTextStyleTableRecord
2
iso_b_vert
3
simplex.shx
70
0
71
0
40
0
41
1
42
0
50
0
0
STYLE
5
21D
100
AcDbSymbolTableRecord
100
AcDbTextStyleTableRecord
2
DWGDirectTextStyle
3
simplex
70
0
71
0
40
0
41
1
42
0
50
0
0
ENDTAB
0
TABLE
2
DIMSTYLE
5
2df
100
AcDbSymbolTable
100
AcDbDimStyleTable
0
DIMSTYLE
105
27
100
AcDbSymbolTableRecord
100
AcDbDimStyleTableRecord
2
Standard
70
0
3
<>
41
0.18
42
0.0625
44
0.18
140
0.18
147
0.09
73
0
74
0
77
1
271
2
275
0
278
52
280
0
340
11
0
ENDTAB
0
TABLE
2
VIEW
5
2e0
100
AcDbSymbolTable
0
ENDTAB
0
TABLE
2
UCS
5
2e1
100
AcDbSymbolTable
0
ENDTAB
0
TABLE
2
APPID
5
2e2
100
AcDbSymbolTable
0
APPID
5
12
100
AcDbSymbolTableRecord
100
AcDbRegAppTableRecord
2
ACAD
70
0
0
ENDTAB
0
TABLE
2
BLOCK_RECORD
5
2e3
100
AcDbSymbolTable
0
BLOCK_RECORD
5
1F
100
AcDbSymbolTableRecord
100
AcDbBlockTableRecord
2
*Model_Space
340
0
70
0
0
BLOCK_RECORD
5
1B
100
AcDbSymbolTableRecord
100
AcDbBlockTableRecord
2
*Paper_Space
340
0
70
0
0
BLOCK_RECORD
5
23
100
AcDbSymbolTableRecord
100
AcDbBlockTableRecord
2
*Paper_Space0
340
0
70
0
0
BLOCK_RECORD
5
21F
100
AcDbSymbolTableRecord
100
AcDbBlockTableRecord
2
DimnDraft3D1
340
0
70
0
0
BLOCK_RECORD
5
22D
100
AcDbSymbolTableRecord
100
AcDbBlockTableRecord
2
_CLOSED
340
0
70
0
0
BLOCK_RECORD
5
234
100
AcDbSymbolTableRecord
100
AcDbBlockTableRecord
2
DimnDraft3D2
340
0
70
0
0
BLOCK_RECORD
5
243
100
AcDbSymbolTableRecord
100
AcDbBlockTableRecord
2
DimnDraft3D3
340
0
70
0
0
BLOCK_RECORD
5
251
100
AcDbSymbolTableRecord
100
AcDbBlockTableRecord
2
DimnDraft3D4
340
0
70
0
0
BLOCK_RECORD
5
25F
100
AcDbSymbolTableRecord
100
AcDbBlockTableRecord
2
DimnDraft3D5
340
0
70
0
0
ENDTAB
0
ENDSEC
0
SECTION
2
BLOCKS
0
BLOCK
5
20
100
AcDbEntity
8
0
100
AcDbBlockBegin
2
*Model_Space
70
0
10
0
20
0
30
0
3
*Model_Space
0
ENDBLK
5
21
100
AcDbEntity
8
0
100
AcDbBlockEnd
0
BLOCK
5
1C
100
AcDbEntity
8
0
100
AcDbBlockBegin
2
*Paper_Space
70
0
10
0
20
0
30
0
3
*Paper_Space
0
ENDBLK
5
1D
100
AcDbEntity
8
0
100
AcDbBlockEnd
0
BLOCK
5
24
100
AcDbEntity
8
0
100
AcDbBlockBegin
2
*Paper_Space0
70
0
10
0
20
0
30
0
3
*Paper_Space0
0
ENDBLK
5
25
100
AcDbEntity
8
0
100
AcDbBlockEnd
0
BLOCK
5
22A
100
AcDbEntity
8
0
100
AcDbBlockBegin
2
DimnDraft3D1
70
0
10
0
20
0
30
0
3
DimnDraft3D1
0
MTEXT
5
220
100
AcDbEntity
8
2
62
256
6
ByLayer
370
18
48
1
60
0
100
AcDbMText
10
97.457895
20
50.64597
30
0
210
0
220
0
230
1
1
\W0.6740;83
40
3
41
0
44
1.084337
50
0
71
7
72
5
7
iso_b_vert
0
LINE
5
221
100
AcDbEntity
8
2
62
256
6
ByLayer
370
13
48
1
60
0
100
AcDbLine
10
57
20
14.0875
30
0
11
57
21
51.89597
31
0
39
0
210
0
220
0
230
1
0
LINE
5
222
100
AcDbEntity
8
2
62
256
6
ByLayer
370
13
48
1
60
0
100
AcDbLine
10
140
20
33.0875
30
0
11
140
21
51.89597
31
0
39
0
210
0
220
0
230
1
0
LINE
5
223
100
AcDbEntity
8
2
62
256
6
ByLayer
370
13
48
1
60
0
100
AcDbLine
10
57
20
49.89597
30
0
11
140
21
49.89597
31
0
39
0
210
0
220
0
230
1
0
LINE
5
224
100
AcDbEntity
8
2
62
256
6
ByLayer
370
13
48
1
60
0
100
AcDbLine
10
57
20
49.89597
30
0
11
60.499998
21
50.356754
31
0
39
0
210
0
220
0
230
1
0
LINE
5
225
100
AcDbEntity
8
2
62
256
6
ByLayer
370
13
48
1
60
0
100
AcDbLine
10
57
20
49.89597
30
0
11
60.500002
21
49.435187
31
0
39
0
210
0
220
0
230
1
0
LINE
5
226
100
AcDbEntity
8
2
62
256
6
ByLayer
370
13
48
1
60
0
100
AcDbLine
10
60.499998
20
50.356754
30
0
11
60.500002
21
49.435187
31
0
39
0
210
0
220
0
230
1
0
LINE
5
227
100
AcDbEntity
8
2
62
256
6
ByLayer
370
13
48
1
60
0
100
AcDbLine
10
140
20
49.89597
30
0
11
136.500002
21
49.435187
31
0
39
0
210
0
220
0
230
1
0
LINE
5
228
100
AcDbEntity
8
2
62
256
6
ByLayer
370
13
48
1
60
0
100
AcDbLine
10
140
20
49.89597
30
0
11
136.499998
21
50.356754
31
0
39
0
210
0
220
0
230
1
0
LINE
5
229
100
AcDbEntity
8
2
62
256
6
ByLayer
370
13
48
1
60
0
100
AcDbLine
10
136.500002
20
49.435187
30
0
11
136.499998
21
50.356754
31
0
39
0
210
0
220
0
230
1
0
ENDBLK
5
22B
100
AcDbEntity
8
0
100
AcDbBlockEnd
0
BLOCK
5
22E
100
AcDbEntity
8
0
100
AcDbBlockBegin
2
_CLOSED
70
0
10
0
20
0
30
0
3
_CLOSED
0
LINE
5
230
100
AcDbEntity
8
0
62
256
6
ByLayer
370
-2
48
1
60
0
100
AcDbLine
10
-1
20
0.166667
30
0
11
0
21
0
31
0
39
0
210
0
220
0
230
1
0
LINE
5
231
100
AcDbEntity
8
0
62
256
6
ByLayer
370
-2
48
1
60
0
100
AcDbLine
10
0
20
0
30
0
11
-1
21
-0.166667
31
0
39
0
210
0
220
0
230
1
0
LINE
5
232
100
AcDbEntity
8
0
62
256
6
ByLayer
370
-2
48
1
60
0
100
AcDbLine
10
-1
20
0.166667
30
0
11
-1
21
-0.166667
31
0
39
0
210
0
220
0
230
1
0
LINE
5
233
100
AcDbEntity
8
0
62
256
6
ByLayer
370
-2
48
1
60
0
100
AcDbLine
10
0
20
0
30
0
11
-1
21
0
31
0
39
0
210
0
220
0
230
1
0
ENDBLK
5
22F
100
AcDbEntity
8
0
100
AcDbBlockEnd
0
BLOCK
5
240
100
AcDbEntity
8
0
100
AcDbBlockBegin
2
DimnDraft3D2
70
0
10
0
20
0
30
0
3
DimnDraft3D2
0
MTEXT
5
235
100
AcDbEntity
8
SK2
62
256
6
ByLayer
370
18
48
1
60
0
100
AcDbMText
10
68.053947
20
60.64597
30
0
210
0
220
0
230
1
1
\W0.6620;140
40
3
41
0
44
1.084337
50
0
71
7
72
5
7
iso_b_vert
0
LINE
5
237
100
AcDbEntity
8
SK2
62
256
6
ByLayer
370
13
48
1
60
0
100
AcDbLine
10
140
20
31.976956
30
0
11
140
21
60.849882
31
0
39
0
210
0
220
0
230
1
0
LINE
5
238
100
AcDbEntity
8
SK2
62
256
6
ByLayer
370
13
48
1
60
0
100
AcDbLine
10
0
20
0.476956
30
0
11
0
21
60.849882
31
0
39
0
210
0
220
0
230
1
0
LINE
5
239
100
AcDbEntity
8
SK2
62
256
6
ByLayer
370
13
48
1
60
0
100
AcDbLine
10
140
20
59.89597
30
0
11
0
21
59.89597
31
0
39
0
210
0
220
0
230
1
0
LINE
5
23A
100
AcDbEntity
8
SK2
62
256
6
ByLayer
370
13
48
1
60
0
100
AcDbLine
10
140
20
59.89597
30
0
11
139.046088
21
59.770386
31
0
39
0
210
0
220
0
230
1
0
LINE
5
23B
100
AcDbEntity
8
SK2
62
256
6
ByLayer
370
13
48
1
60
0
100
AcDbLine
10
140
20
59.89597
30
0
11
139.046087
21
60.021555
31
0
39
0
210
0
220
0
230
1
0
LINE
5
23C
100
AcDbEntity
8
SK2
62
256
6
ByLayer
370
13
48
1
60
0
100
AcDbLine
10
139.046088
20
59.770386
30
0
11
139.046087
21
60.021555
31
0
39
0
210
0
220
0
230
1
0
LINE
5
23D
100
AcDbEntity
8
SK2
62
256
6
ByLayer
370
13
48
1
60
0
100
AcDbLine
10
0
20
59.89597
30
0
11
0.953912
21
60.021555
31
0
39
0
210
0
220
0
230
1
0
LINE
5
23E
100
AcDbEntity
8
SK2
62
256
6
ByLayer
370
13
48
1
60
0
100
AcDbLine
10
0
20
59.89597
30
0
11
0.953913
21
59.770386
31
0
39
0
210
0
220
0
230
1
0
LINE
5
23F
100
AcDbEntity
8
SK2
62
256
6
ByLayer
370
13
48
1
60
0
100
AcDbLine
10
0.953912
20
60.021555
30
0
11
0.953913
21
59.770386
31
0
39
0
210
0
220
0
230
1
0
ENDBLK
5
241
100
AcDbEntity
8
0
100
AcDbBlockEnd
0
BLOCK
5
24E
100
AcDbEntity
8
0
100
AcDbBlockBegin
2
DimnDraft3D3
70
0
10
0
20
0
30
0
3
DimnDraft3D3
0
MTEXT
5
244
100
AcDbEntity
8
SK2
62
256
6
ByLayer
370
18
48
1
60
0
100
AcDbMText
10
134.332895
20
40.64597
30
0
210
0
220
0
230
1
1
\W0.5321;10
40
3
41
0
44
1.084337
50
0
71
7
72
5
7
iso_b_vert
0
LINE
5
245
100
AcDbEntity
8
SK2
62
256
6
ByLayer
370
13
48
1
60
0
100
AcDbLine
10
130
20
31.976956
30
0
11
130
21
40.849882
31
0
39
0
210
0
220
0
230
1
0
LINE
5
246
100
AcDbEntity
8
SK2
62
256
6
ByLayer
370
13
48
1
60
0
100
AcDbLine
10
140
20
31.976956
30
0
11
140
21
40.849882
31
0
39
0
210
0
220
0
230
1
0
LINE
5
247
100
AcDbEntity
8
SK2
62
256
6
ByLayer
370
13
48
1
60
0
100
AcDbLine
10
130
20
39.89597
30
0
11
140
21
39.89597
31
0
39
0
210
0
220
0
230
1
0
LINE
5
248
100
AcDbEntity
8
SK2
62
256
6
ByLayer
370
13
48
1
60
0
100
AcDbLine
10
130
20
39.89597
30
0
11
130.953912
21
40.021555
31
0
39
0
210
0
220
0
230
1
0
LINE
5
249
100
AcDbEntity
8
SK2
62
256
6
ByLayer
370
13
48
1
60
0
100
AcDbLine
10
130
20
39.89597
30
0
11
130.953913
21
39.770386
31
0
39
0
210
0
220
0
230
1
0
LINE
5
24A
100
AcDbEntity
8
SK2
62
256
6
ByLayer
370
13
48
1
60
0
100
AcDbLine
10
130.953912
20
40.021555
30
0
11
130.953913
21
39.770386
31
0
39
0
210
0
220
0
230
1
0
LINE
5
24B
100
AcDbEntity
8
SK2
62
256
6
ByLayer
370
13
48
1
60
0
100
AcDbLine
10
140
20
39.89597
30
0
11
139.046088
21
39.770386
31
0
39
0
210
0
220
0
230
1
0
LINE
5
24C
100
AcDbEntity
8
SK2
62
256
6
ByLayer
370
13
48
1
60
0
100
AcDbLine
10
140
20
39.89597
30
0
11
139.046087
21
40.021555
31
0
39
0
210
0
220
0
230
1
0
LINE
5
24D
100
AcDbEntity
8
SK2
62
256
6
ByLayer
370
13
48
1
60
0
100
AcDbLine
10
139.046088
20
39.770386
30
0
11
139.046087
21
40.021555
31
0
39
0
210
0
220
0
230
1
0
ENDBLK
5
24F
100
AcDbEntity
8
0
100
AcDbBlockEnd
0
BLOCK
5
25C
100
AcDbEntity
8
0
100
AcDbBlockBegin
2
DimnDraft3D4
70
0
10
0
20
0
30
0
3
DimnDraft3D4
0
MTEXT
5
252
100
AcDbEntity
8
SK2
62
256
6
ByLayer
370
18
48
1
60
0
100
AcDbMText
10
-19.1
20
-1.042105
30
0
210
0
220
0
230
1
1
\W0.6740;25
40
3
41
0
44
1.084337
50
90
71
7
72
5
7
iso_b_vert
0
LINE
5
253
100
AcDbEntity
8
SK2
62
256
6
ByLayer
370
13
48
1
60
0
100
AcDbLine
10
55.4125
20
12.5
30
0
11
-20.35
21
12.5
31
0
39
0
210
0
220
0
230
1
0
LINE
5
254
100
AcDbEntity
8
SK2
62
256
6
ByLayer
370
13
48
1
60
0
100
AcDbLine
10
55.4125
20
-12.5
30
0
11
-20.35
21
-12.5
31
0
39
0
210
0
220
0
230
1
0
LINE
5
255
100
AcDbEntity
8
SK2
62
256
6
ByLayer
370
13
48
1
60
0
100
AcDbLine
10
-18.35
20
12.5
30
0
11
-18.35
21
-12.5
31
0
39
0
210
0
220
0
230
1
0
LINE
5
256
100
AcDbEntity
8
SK2
62
256
6
ByLayer
370
13
48
1
60
0
100
AcDbLine
10
-18.35
20
12.5
30
0
11
-17.889216
21
9.000002
31
0
39
0
210
0
220
0
230
1
0
LINE
5
257
100
AcDbEntity
8
SK2
62
256
6
ByLayer
370
13
48
1
60
0
100
AcDbLine
10
-18.35
20
12.5
30
0
11
-18.810784
21
8.999998
31
0
39
0
210
0
220
0
230
1
0
LINE
5
258
100
AcDbEntity
8
SK2
62
256
6
ByLayer
370
13
48
1
60
0
100
AcDbLine
10
-17.889216
20
9.000002
30
0
11
-18.810784
21
8.999998
31
0
39
0
210
0
220
0
230
1
0
LINE
5
259
100
AcDbEntity
8
SK2
62
256
6
ByLayer
370
13
48
1
60
0
100
AcDbLine
10
-18.35
20
-12.5
30
0
11
-18.810784
21
-9.000002
31
0
39
0
210
0
220
0
230
1
0
LINE
5
25A
100
AcDbEntity
8
SK2
62
256
6
ByLayer
370
13
48
1
60
0
100
AcDbLine
10
-18.35
20
-12.5
30
0
11
-17.889216
21
-8.999998
31
0
39
0
210
0
220
0
230
1
0
LINE
5
25B
100
AcDbEntity
8
SK2
62
256
6
ByLayer
370
13
48
1
60
0
100
AcDbLine
10
-18.810784
20
-9.000002
30
0
11
-17.889216
21
-8.999998
31
0
39
0
210
0
220
0
230
1
0
ENDBLK
5
25D
100
AcDbEntity
8
0
100
AcDbBlockEnd
0
BLOCK
5
26A
100
AcDbEntity
8
0
100
AcDbBlockBegin
2
DimnDraft3D5
70
0
10
0
20
0
30
0
3
DimnDraft3D5
0
MTEXT
5
260
100
AcDbEntity
8
2
62
256
6
ByLayer
370
18
48
1
60
0
100
AcDbMText
10
163.6
20
-1.042105
30
0
210
0
220
0
230
1
1
\W0.6740;63
40
3
41
0
44
1.084337
50
90
71
7
72
5
7
iso_b_vert
0
LINE
5
261
100
AcDbEntity
8
2
62
256
6
ByLayer
370
13
48
1
60
0
100
AcDbLine
10
141.5875
20
31.5
30
0
11
166.35
21
31.5
31
0
39
0
210
0
220
0
230
1
0
LINE
5
262
100
AcDbEntity
8
2
62
256
6
ByLayer
370
13
48
1
60
0
100
AcDbLine
10
141.5875
20
-31.5
30
0
11
166.35
21
-31.5
31
0
39
0
210
0
220
0
230
1
0
LINE
5
263
100
AcDbEntity
8
2
62
256
6
ByLayer
370
13
48
1
60
0
100
AcDbLine
10
164.35
20
31.5
30
0
11
164.35
21
-31.5
31
0
39
0
210
0
220
0
230
1
0
LINE
5
264
100
AcDbEntity
8
2
62
256
6
ByLayer
370
13
48
1
60
0
100
AcDbLine
10
164.35
20
31.5
30
0
11
164.810784
21
28.000002
31
0
39
0
210
0
220
0
230
1
0
LINE
5
265
100
AcDbEntity
8
2
62
256
6
ByLayer
370
13
48
1
60
0
100
AcDbLine
10
164.35
20
31.5
30
0
11
163.889216
21
27.999998
31
0
39
0
210
0
220
0
230
1
0
LINE
5
266
100
AcDbEntity
8
2
62
256
6
ByLayer
370
13
48
1
60
0
100
AcDbLine
10
164.810784
20
28.000002
30
0
11
163.889216
21
27.999998
31
0
39
0
210
0
220
0
230
1
0
LINE
5
267
100
AcDbEntity
8
2
62
256
6
ByLayer
370
13
48
1
60
0
100
AcDbLine
10
164.35
20
-31.5
30
0
11
163.889216
21
-28.000002
31
0
39
0
210
0
220
0
230
1
0
LINE
5
268
100
AcDbEntity
8
2
62
256
6
ByLayer
370
13
48
1
60
0
100
AcDbLine
10
164.35
20
-31.5
30
0
11
164.810784
21
-27.999998
31
0
39
0
210
0
220
0
230
1
0
LINE
5
269
100
AcDbEntity
8
2
62
256
6
ByLayer
370
13
48
1
60
0
100
AcDbLine
10
163.889216
20
-28.000002
30
0
11
164.810784
21
-27.999998
31
0
39
0
210
0
220
0
230
1
0
ENDBLK
5
26B
100
AcDbEntity
8
0
100
AcDbBlockEnd
0
ENDSEC
0
SECTION
2
ENTITIES
0
ARC
5
13B
100
AcDbEntity
8
1
62
256
6
ByLayer
370
18
48
1
60
0
100
AcDbCircle
39
0
10
-129.7
20
-13.05
30
0
40
0.8
210
0
220
0
230
-1
100
AcDbArc
50
90
51
180
0
ARC
5
13C
100
AcDbEntity
8
1
62
256
6
ByLayer
370
18
48
1
60
0
100
AcDbCircle
39
0
10
-129.7
20
13.05
30
0
40
0.8
210
0
220
0
230
-1
100
AcDbArc
50
243.928128
51
270
0
ARC
5
13D
100
AcDbEntity
8
1
62
256
6
ByLayer
370
18
48
1
60
0
100
AcDbCircle
39
0
10
-105.784936
20
13.05
30
0
40
0.8
210
0
220
0
230
-1
100
AcDbArc
50
270
51
309.208712
0
ARC
5
13E
100
AcDbEntity
8
1
62
256
6
ByLayer
370
18
48
1
60
0
100
AcDbCircle
39
0
10
-105.784936
20
-13.05
30
0
40
0.8
210
0
220
0
230
-1
100
AcDbArc
50
50.791288
51
90
0
ELLIPSE
5
13F
100
AcDbEntity
8
1
62
256
6
ByLayer
370
18
48
1
60
0
100
AcDbEllipse
10
135.658345
20
26.913939
30
0
11
-1.99701318777461
21
-0.649567800813973
31
0
210
0
220
0
230
1
40
0.96225
41
-1.89676799707958
42
0
0
ELLIPSE
5
140
100
AcDbEntity
8
1
62
256
6
ByLayer
370
18
48
1
60
0
100
AcDbEllipse
10
135.658345
20
26.913939
30
0
11
-1.99701318777461
21
-0.649567800813973
31
0
210
0
220
0
230
1
40
0.96225
41
0
42
0.695340252092561
0
ELLIPSE
5
141
100
AcDbEntity
8
1
62
256
6
ByLayer
370
18
48
1
60
0
100
AcDbEllipse
10
135.658345
20
26.913939
30
0
11
-1.99701318777461
21
-0.649567800813973
31
0
210
0
220
0
230
1
40
0.96225
41
1.75994733048498
42
-1.89676847508902
0
ELLIPSE
5
142
100
AcDbEntity
8
1
62
256
6
ByLayer
370
13
48
1
60
0
100
AcDbEllipse
10
134.227779
20
12.91457
30
0
11
-2.24098324222328
21
-0.263178244102948
31
0
210
0
220
0
230
1
40
0.692126
41
2.76720208024244
42
3.02245679538965
0
ELLIPSE
5
143
100
AcDbEntity
8
1
62
256
6
ByLayer
370
13
48
1
60
0
100
AcDbEllipse
10
134.227779
20
12.91457
30
0
11
-2.24098324222328
21
-0.263178244102948
31
0
210
0
220
0
230
1
40
0.692126
41
0.119330457751646
42
0.374584555638903
0
ELLIPSE
5
144
100
AcDbEntity
8
1
62
256
6
ByLayer
370
18
48
1
60
0
100
AcDbEllipse
10
134.261614
20
12.62646
30
0
11
2.08566664339875
21
0.244938058728724
31
0
210
0
220
0
230
1
40
0.692126
41
2.7011303862548
42
3.14154208349564
0
ELLIPSE
5
145
100
AcDbEntity
8
1
62
256
6
ByLayer
370
18
48
1
60
0
100
AcDbEllipse
10
134.261614
20
12.62646
30
0
11
2.08566664339875
21
0.244938058728724
31
0
210
0
220
0
230
1
40
0.692126
41
0
42
0.440460065822599
0
ELLIPSE
5
146
100
AcDbEntity
8
1
62
256
6
ByLayer
370
13
48
1
60
0
100
AcDbEllipse
10
135.772221
20
26.563843
30
0
11
2.14572789111159
21
0.697940181821107
31
0
210
0
220
0
230
1
40
0.96225
41
2.64175323845436
42
2.81562074988625
0
ELLIPSE
5
147
100
AcDbEntity
8
1
62
256
6
ByLayer
370
13
48
1
60
0
100
AcDbEllipse
10
135.772221
20
26.563843
30
0
11
2.14572789111159
21
0.697940181821107
31
0
210
0
220
0
230
1
40
0.96225
41
-0.0053329790406771
42
0
0
ELLIPSE
5
148
100
AcDbEntity
8
1
62
256
6
ByLayer
370
13
48
1
60
0
100
AcDbEllipse
10
135.772221
20
26.563843
30
0
11
2.14572789111159
21
0.697940181821107
31
0
210
0
220
0
230
1
40
0.96225
41
0
42
0.499972434443628
0
ELLIPSE
5
149
100
AcDbEntity
8
1
62
256
6
ByLayer
370
18
48
1
60
0
100
AcDbEllipse
10
135.772221
20
26.563843
30
0
11
2.14572789111159
21
0.697940181821107
31
0
210
0
220
0
230
1
40
0.96225
41
-0.200897238226144
42
-0.00533297904068201
0
ELLIPSE
5
14A
100
AcDbEntity
8
1
62
256
6
ByLayer
370
18
48
1
60
0
100
AcDbEllipse
10
135.772221
20
26.563843
30
0
11
2.14572789111159
21
0.697940181821107
31
0
210
0
220
0
230
1
40
0.96225
41
2.81562074988625
42
-2.94066071817791
0
ELLIPSE
5
14B
100
AcDbEntity
8
1
62
256
6
ByLayer
370
13
48
1
60
0
100
AcDbEllipse
10
135.6542
20
26.926684
30
0
11
-1.33134212518307
21
-0.433045200542649
31
0
210
0
220
0
230
1
40
0.96225
41
0
42
6.28318530717959
0
ELLIPSE
5
14C
100
AcDbEntity
8
1
62
256
6
ByLayer
370
18
48
1
60
0
100
AcDbEllipse
10
135.6542
20
26.926684
30
0
11
1.22583326176231
21
0.398726368399643
31
0
210
0
220
0
230
1
40
0.96225
41
2.81562085774646
42
-2.42036689823651
0
ELLIPSE
5
14D
100
AcDbEntity
8
1
62
256
6
ByLayer
370
18
48
1
60
0
100
AcDbEllipse
10
135.6542
20
26.926684
30
0
11
1.22583326176231
21
0.398726368399643
31
0
210
0
220
0
230
1
40
0.96225
41
-2.42036689823651
42
-1.37316934703992
0
ELLIPSE
5
14E
100
AcDbEntity
8
1
62
256
6
ByLayer
370
18
48
1
60
0
100
AcDbEllipse
10
135.6542
20
26.926684
30
0
11
1.22583326176231
21
0.398726368399643
31
0
210
0
220
0
230
1
40
0.96225
41
-1.37316934703992
42
-0.325971795843328
0
ELLIPSE
5
14F
100
AcDbEntity
8
1
62
256
6
ByLayer
370
18
48
1
60
0
100
AcDbEllipse
10
135.6542
20
26.926684
30
0
11
1.22583326176231
21
0.398726368399643
31
0
210
0
220
0
230
1
40
0.96225
41
-0.325971795843328
42
0.721225755353244
0
ELLIPSE
5
150
100
AcDbEntity
8
1
62
256
6
ByLayer
370
18
48
1
60
0
100
AcDbEllipse
10
135.6542
20
26.926684
30
0
11
1.22583326176231
21
0.398726368399643
31
0
210
0
220
0
230
1
40
0.96225
41
0.721225755353244
42
1.76842330654983
0
ELLIPSE
5
151
100
AcDbEntity
8
1
62
256
6
ByLayer
370
18
48
1
60
0
100
AcDbEllipse
10
135.6542
20
26.926684
30
0
11
1.22583326176231
21
0.398726368399643
31
0
210
0
220
0
230
1
40
0.96225
41
1.76842330654983
42
2.81562085774646
0
ELLIPSE
5
152
100
AcDbEntity
8
1
62
256
6
ByLayer
370
18
48
1
60
0
100
AcDbEllipse
10
135.759432
20
26.603161
30
0
11
-0.945633292344319
21
-0.307585819585436
31
0
210
0
220
0
230
1
40
0.96225
41
-0.849570571441616
42
-0.118168387111941
0
ELLIPSE
5
153
100
AcDbEntity
8
1
62
256
6
ByLayer
370
18
48
1
60
0
100
AcDbEllipse
10
135.704139
20
26.773152
30
0
11
2.19950474360004
21
0.715432160351575
31
0
210
0
220
0
230
1
40
0.96225
41
-1.14661466635505
42
-0.325971901371596
0
ELLIPSE
5
154
100
AcDbEntity
8
1
62
256
6
ByLayer
370
18
48
1
60
0
100
AcDbEllipse
10
135.704139
20
26.773152
30
0
11
2.19950474360004
21
0.715432160351575
31
0
210
0
220
0
230
1
40
0.96225
41
-0.325971901371594
42
0
0
ELLIPSE
5
155
100
AcDbEntity
8
1
62
256
6
ByLayer
370
18
48
1
60
0
100
AcDbEllipse
10
135.704139
20
26.773152
30
0
11
2.19950474360004
21
0.715432160351575
31
0
210
0
220
0
230
1
40
0.96225
41
0
42
-2.68147928502569
0
ELLIPSE
5
156
100
AcDbEntity
8
1
62
256
6
ByLayer
370
13
48
1
60
0
100
AcDbEllipse
10
135.78557
20
26.522802
30
0
11
-2.08972319633968
21
-0.679723553788327
31
0
210
0
220
0
230
1
40
0.96225
41
2.81562104913396
42
-2.81558581469891
0
ELLIPSE
5
157
100
AcDbEntity
8
1
62
256
6
ByLayer
370
13
48
1
60
0
100
AcDbEllipse
10
135.78557
20
26.522802
30
0
11
-2.08972319633968
21
-0.679723553788327
31
0
210
0
220
0
230
1
40
0.96225
41
-0.325971795090249
42
0
0
ELLIPSE
5
158
100
AcDbEntity
8
1
62
256
6
ByLayer
370
13
48
1
60
0
100
AcDbEllipse
10
135.78557
20
26.522802
30
0
11
-2.08972319633968
21
-0.679723553788327
31
0
210
0
220
0
230
1
40
0.96225
41
0
42
0.351630238870722
0
ELLIPSE
5
159
100
AcDbEntity
8
1
62
256
6
ByLayer
370
13
48
1
60
0
100
AcDbEllipse
10
135.78557
20
26.522802
30
0
11
-2.08972319633968
21
-0.679723553788327
31
0
210
0
220
0
230
1
40
0.96225
41
2.7618210822762
42
2.81562104913397
0
ELLIPSE
5
15A
100
AcDbEntity
8
1
62
256
6
ByLayer
370
18
48
1
60
0
100
AcDbEllipse
10
135.759432
20
26.603161
30
0
11
0.945633292344319
21
0.307585819585435
31
0
210
0
220
0
230
1
40
0.96225
41
1.24482453095157
42
2.29202208214818
0
ELLIPSE
5
15B
100
AcDbEntity
8
1
62
256
6
ByLayer
370
18
48
1
60
0
100
AcDbEllipse
10
135.759432
20
26.603161
30
0
11
-0.945633292344319
21
-0.307585819585436
31
0
210
0
220
0
230
1
40
0.96225
41
-2.94396567383483
42
-1.89676812263822
0
ELLIPSE
5
15C
100
AcDbEntity
8
1
62
256
6
ByLayer
370
18
48
1
60
0
100
AcDbEllipse
10
135.759432
20
26.603161
30
0
11
-0.945633292344319
21
-0.307585819585436
31
0
210
0
220
0
230
1
40
0.96225
41
2.83527230091246
42
-2.94396567383484
0
ELLIPSE
5
15D
100
AcDbEntity
8
1
62
256
6
ByLayer
370
18
48
1
60
0
100
AcDbEllipse
10
136.034164
20
25.758531
30
0
11
-1.28379419214082
21
-0.417579300523267
31
0
210
0
220
0
230
1
40
0.96225
41
2.32081974340044
42
2.50273770638117
0
ELLIPSE
5
15E
100
AcDbEntity
8
1
62
256
6
ByLayer
370
18
48
1
60
0
100
AcDbEllipse
10
134.295861
20
12.334849
30
0
11
-2.29714741184857
21
-0.269774093311003
31
0
210
0
220
0
230
1
40
0.692126
41
2.64026174598554
42
3.08312780713514
0
ELLIPSE
5
15F
100
AcDbEntity
8
1
62
256
6
ByLayer
370
18
48
1
60
0
100
AcDbEllipse
10
134.295861
20
12.334849
30
0
11
-2.29714741184857
21
-0.269774093311003
31
0
210
0
220
0
230
1
40
0.692126
41
3.08312843064992
42
0
0
ELLIPSE
5
160
100
AcDbEntity
8
1
62
256
6
ByLayer
370
18
48
1
60
0
100
AcDbEllipse
10
134.295861
20
12.334849
30
0
11
-2.29714741184857
21
-0.269774093311003
31
0
210
0
220
0
230
1
40
0.692126
41
0
42
0.501524743375463
0
ELLIPSE
5
161
100
AcDbEntity
8
1
62
256
6
ByLayer
370
18
48
1
60
0
100
AcDbEllipse
10
134.341655
20
11.94491
30
0
11
2.08566664339875
21
0.244938058728724
31
0
210
0
220
0
230
1
40
0.692126
41
0
42
6.28318530717959
0
ELLIPSE
5
162
100
AcDbEntity
8
1
62
256
6
ByLayer
370
13
48
1
60
0
100
AcDbEllipse
10
134.3458
20
11.90961
30
0
11
1.3904444289325
21
0.163292039152482
31
0
210
0
220
0
230
1
40
0.692126
41
0
42
6.28318530717959
0
ELLIPSE
5
163
100
AcDbEntity
8
1
62
256
6
ByLayer
370
18
48
1
60
0
100
AcDbEllipse
10
134.3458
20
11.90961
30
0
11
-1.2802517079396
21
-0.150351145049648
31
0
210
0
220
0
230
1
40
0.692126
41
-0.0584642500154789
42
0.988733301181136
0
ELLIPSE
5
164
100
AcDbEntity
8
1
62
256
6
ByLayer
370
18
48
1
60
0
100
AcDbEllipse
10
134.3458
20
11.90961
30
0
11
-1.2802517079396
21
-0.150351145049648
31
0
210
0
220
0
230
1
40
0.692126
41
0.988733301181137
42
2.03593085237774
0
ELLIPSE
5
165
100
AcDbEntity
8
1
62
256
6
ByLayer
370
18
48
1
60
0
100
AcDbEllipse
10
134.3458
20
11.90961
30
0
11
-1.2802517079396
21
-0.150351145049648
31
0
210
0
220
0
230
1
40
0.692126
41
2.03593085237774
42
3.08312840357432
0
ELLIPSE
5
166
100
AcDbEntity
8
1
62
256
6
ByLayer
370
18
48
1
60
0
100
AcDbEllipse
10
134.3458
20
11.90961
30
0
11
-1.2802517079396
21
-0.150351145049648
31
0
210
0
220
0
230
1
40
0.692126
41
3.08312840357432
42
-2.15285935240868
0
ELLIPSE
5
167
100
AcDbEntity
8
1
62
256
6
ByLayer
370
18
48
1
60
0
100
AcDbEllipse
10
134.3458
20
11.90961
30
0
11
-1.2802517079396
21
-0.150351145049648
31
0
210
0
220
0
230
1
40
0.692126
41
-2.15285935240868
42
-1.10566180121208
0
ELLIPSE
5
168
100
AcDbEntity
8
1
62
256
6
ByLayer
370
18
48
1
60
0
100
AcDbEllipse
10
134.3458
20
11.90961
30
0
11
-1.2802517079396
21
-0.150351145049648
31
0
210
0
220
0
230
1
40
0.692126
41
-1.10566180121208
42
-0.0584642500154789
0
ELLIPSE
5
169
100
AcDbEntity
8
1
62
256
6
ByLayer
370
18
48
1
60
0
100
AcDbEllipse
10
134.240568
20
12.805673
30
0
11
0.987612814378912
21
0.115984002666592
31
0
210
0
220
0
230
1
40
0.692126
41
-1.62926057681039
42
-0.582063025613788
0
ELLIPSE
5
16A
100
AcDbEntity
8
1
62
256
6
ByLayer
370
18
48
1
60
0
100
AcDbEllipse
10
134.240568
20
12.805673
30
0
11
0.987612814378912
21
0.115984002666592
31
0
210
0
220
0
230
1
40
0.692126
41
-2.54902696632458
42
-1.62926057681039
0
ELLIPSE
5
16B
100
AcDbEntity
8
1
62
256
6
ByLayer
370
18
48
1
60
0
100
AcDbEllipse
10
135.912002
20
25.476707
30
0
11
-1.52153385735198
21
-0.494908800620138
31
0
210
0
220
0
230
1
40
0.96225
41
2.86221509618352
42
2.90590262002984
0
ELLIPSE
5
16C
100
AcDbEntity
8
1
62
256
6
ByLayer
370
13
48
1
60
0
100
AcDbEllipse
10
133.6
20
2.065985
30
0
11
0.1
21
0
31
0
210
0
220
0
230
1
40
0.089437
41
-2.50475321914142
42
-1.5707963267949
0
ELLIPSE
5
16D
100
AcDbEntity
8
1
62
256
6
ByLayer
370
13
48
1
60
0
100
AcDbEllipse
10
135
20
2.057041
30
0
11
-1.4
21
1.71444889535133E-16
31
0
210
0
220
0
230
1
40
0.995993
41
0
42
0.280239772976421
0
ELLIPSE
5
16E
100
AcDbEntity
8
1
62
256
6
ByLayer
370
13
48
1
60
0
100
AcDbEllipse
10
135
20
2.057041
30
0
11
-1.4
21
1.71444889535133E-16
31
0
210
0
220
0
230
1
40
0.995993
41
2.87254442517166
42
3.14159265358979
0
ELLIPSE
5
16F
100
AcDbEntity
8
1
62
256
6
ByLayer
370
13
48
1
60
0
100
AcDbEllipse
10
136.4
20
2.065985
30
0
11
-0.1
21
1.22460635382238E-17
31
0
210
0
220
0
230
1
40
0.089437
41
1.5707963267949
42
2.48146969734017
0
ELLIPSE
5
170
100
AcDbEntity
8
1
62
256
6
ByLayer
370
18
48
1
60
0
100
AcDbEllipse
10
135.738386
20
26.667865
30
0
11
-1.99701318777461
21
-0.649567800813973
31
0
210
0
220
0
230
1
40
0.96225
41
6.65347633507102E-05
42
0.491529500298412
0
ELLIPSE
5
171
100
AcDbEntity
8
1
62
256
6
ByLayer
370
18
48
1
60
0
100
AcDbEllipse
10
135.738386
20
26.667865
30
0
11
-1.99701318777461
21
-0.649567800813973
31
0
210
0
220
0
230
1
40
0.96225
41
1.96375856304185
42
3.14156109276646
0
ELLIPSE
5
172
100
AcDbEntity
8
1
62
256
6
ByLayer
370
18
48
1
60
0
100
AcDbEllipse
10
135.759432
20
26.603161
30
0
11
-0.945633292344319
21
-0.307585819585436
31
0
210
0
220
0
230
1
40
0.96225
41
0.250690515686084
42
0.735837225978024
0
ELLIPSE
5
173
100
AcDbEntity
8
1
62
256
6
ByLayer
370
13
48
1
60
0
100
AcDbEllipse
10
133.6
20
-18.125537
30
0
11
0.1
21
0
31
0
210
0
220
0
230
1
40
0.784655
41
1.5707963267949
42
3.14159265358975
0
ELLIPSE
5
174
100
AcDbEntity
8
1
62
256
6
ByLayer
370
13
48
1
60
0
100
AcDbEllipse
10
135
20
-18.047071
30
0
11
1.4
21
0
31
0
210
0
220
0
230
1
40
0.619932
41
3.14159265358979
42
0
0
ELLIPSE
5
175
100
AcDbEntity
8
1
62
256
6
ByLayer
370
13
48
1
60
0
100
AcDbEllipse
10
136.4
20
-18.125537
30
0
11
-0.1
21
1.22460635382238E-17
31
0
210
0
220
0
230
1
40
0.784655
41
3.14159265358979
42
-1.5707963267949
0
ELLIPSE
5
176
100
AcDbEntity
8
1
62
256
6
ByLayer
370
18
48
1
60
0
100
AcDbEllipse
10
135
20
2.057041
30
0
11
1
21
0
31
0
210
0
220
0
230
1
40
0.995993
41
0
42
6.28318530717959
0
ELLIPSE
5
177
100
AcDbEntity
8
1
62
256
6
ByLayer
370
18
48
1
60
0
100
AcDbEllipse
10
135
20
-18.125537
30
0
11
-1.5
21
1.83690953073357E-16
31
0
210
0
220
0
230
1
40
0.619932
41
2.98539620231402
42
3.14159265358979
0
ELLIPSE
5
178
100
AcDbEntity
8
1
62
256
6
ByLayer
370
13
48
1
60
0
100
AcDbEllipse
10
135
20
-18.125537
30
0
11
-1.5
21
1.83690953073357E-16
31
0
210
0
220
0
230
1
40
0.619932
41
0
42
2.98539711091285
0
ELLIPSE
5
179
100
AcDbEntity
8
1
62
256
6
ByLayer
370
18
48
1
60
0
100
AcDbEllipse
10
135
20
-18.047071
30
0
11
-1
21
1.22460635382238E-16
31
0
210
0
220
0
230
1
40
0.619932
41
0
42
6.28318530717959
0
ELLIPSE
5
17A
100
AcDbEntity
8
1
62
256
6
ByLayer
370
13
48
1
60
0
100
AcDbEllipse
10
134.21443
20
13.028241
30
0
11
2.18249232965717
21
0.256309145140005
31
0
210
0
220
0
230
1
40
0.692126
41
-3.02942904049483
42
-2.84270049935865
0
ELLIPSE
5
17B
100
AcDbEntity
8
1
62
256
6
ByLayer
370
13
48
1
60
0
100
AcDbEllipse
10
134.21443
20
13.028241
30
0
11
2.18249232965717
21
0.256309145140005
31
0
210
0
220
0
230
1
40
0.692126
41
-0.299090471057165
42
-0.112361837311504
0
ELLIPSE
5
17C
100
AcDbEntity
8
1
62
256
6
ByLayer
370
18
48
1
60
0
100
AcDbEllipse
10
136.896837
20
26.603161
30
0
11
0.0091207139720836
21
0.292060082768712
31
0
210
0
220
0
230
-1
40
0.502001
41
-0.176548722369659
42
0.214648401708095
0
ELLIPSE
5
17D
100
AcDbEntity
8
1
62
256
6
ByLayer
370
18
48
1
60
0
100
AcDbEllipse
10
134.266322
20
12.014426
30
0
11
0.301151484366525
21
0.024769914846616
31
0
210
0
220
0
230
-1
40
0.337654
41
-1.55406060118554
42
-0.267175940626255
0
ELLIPSE
5
17E
100
AcDbEntity
8
1
62
256
6
ByLayer
370
18
48
1
60
0
100
AcDbEllipse
10
134.260395
20
-0.006934
30
0
11
33.8866152988422
21
-15.7938146911157
31
0
210
0
220
0
230
-1
40
0.764887
41
1.132943310963
42
1.13747958006141
0
ELLIPSE
5
17F
100
AcDbEntity
8
1
62
256
6
ByLayer
370
18
48
1
60
0
100
AcDbEllipse
10
177.623488
20
1.1E-05
30
0
11
359.340474529565
21
6.84199247114083
31
0
210
0
220
0
230
-1
40
0.082313
41
1.68418594150528
42
1.70107446993567
0
ELLIPSE
5
180
100
AcDbEntity
8
1
62
256
6
ByLayer
370
18
48
1
60
0
100
AcDbEllipse
10
134.761576
20
26.051762
30
0
11
0.146001645565643
21
-0.252235964902812
31
0
210
0
220
0
230
-1
40
0.504618
41
-1.16856477223645
42
-0.513278983727276
0
ELLIPSE
5
181
100
AcDbEntity
8
1
62
256
6
ByLayer
370
18
48
1
60
0
100
AcDbEllipse
10
134.622027
20
26.603161
30
0
11
0.00912071397208411
21
0.292060082768716
31
0
210
0
220
0
230
-1
40
0.502001
41
-1.48089472041744
42
0.145197401225445
0
ELLIPSE
5
182
100
AcDbEntity
8
1
62
256
6
ByLayer
370
18
48
1
60
0
100
AcDbEllipse
10
136.757288
20
27.154559
30
0
11
0.146001645567073
21
-0.252235964903517
31
0
210
0
220
0
230
-1
40
0.504618
41
0.293945937773228
42
1.58083059833414
0
ELLIPSE
5
183
100
AcDbEntity
8
1
62
256
6
ByLayer
370
18
48
1
60
0
100
AcDbEllipse
10
136.757288
20
27.154559
30
0
11
0.146001645565497
21
-0.252235964902722
31
0
210
0
220
0
230
-1
40
0.504618
41
1.58083059832697
42
1.97303056174582
0
ELLIPSE
5
184
100
AcDbEntity
8
1
62
256
6
ByLayer
370
18
48
1
60
0
100
AcDbEllipse
10
136.350439
20
27.558253
30
0
11
0.259272027218837
21
-0.142980872167992
31
0
210
0
220
0
230
-1
40
0.488927
41
3.00525684613449
42
-1.40864663240552
0
ELLIPSE
5
185
100
AcDbEntity
8
1
62
256
6
ByLayer
370
18
48
1
60
0
100
AcDbEllipse
10
134.78733
20
27.154559
30
0
11
0.1595149629973
21
0.251170963747105
31
0
210
0
220
0
230
-1
40
0.484142
41
0.259762588067899
42
1.54664724862495
0
ELLIPSE
5
186
100
AcDbEntity
8
1
62
256
6
ByLayer
370
18
48
1
60
0
100
AcDbEllipse
10
134.78733
20
27.154559
30
0
11
0.159514962995925
21
0.251170963743813
31
0
210
0
220
0
230
-1
40
0.484142
41
1.54664724862046
42
2.83353190918867
0
ELLIPSE
5
187
100
AcDbEntity
8
1
62
256
6
ByLayer
370
18
48
1
60
0
100
AcDbEllipse
10
135.213034
20
27.558253
30
0
11
0.26491998787577
21
0.144940353534812
31
0
210
0
220
0
230
-1
40
0.470028
41
-2.75131951032931
42
0.151931188684849
0
ELLIPSE
5
188
100
AcDbEntity
8
1
62
256
6
ByLayer
370
18
48
1
60
0
100
AcDbEllipse
10
135.785186
20
27.705958
30
0
11
0.30126609111494
21
0.00201962290507145
31
0
210
0
220
0
230
-1
40
0.472229
41
0.298106762686363
42
1.58499142324585
0
ELLIPSE
5
189
100
AcDbEntity
8
1
62
256
6
ByLayer
370
18
48
1
60
0
100
AcDbEllipse
10
135.785186
20
27.705958
30
0
11
0.301266091113874
21
0.00201962290490535
31
0
210
0
220
0
230
-1
40
0.472229
41
1.58499142324467
42
2.87187608380784
0
ELLIPSE
5
18A
100
AcDbEntity
8
1
62
256
6
ByLayer
370
18
48
1
60
0
100
AcDbEllipse
10
135.238424
20
12.485463
30
0
11
0.171638796707693
21
0.177229796549835
31
0
210
0
220
0
230
-1
40
0.506483
41
-2.76075300403629
42
-1.81597733624534
0
ELLIPSE
5
18B
100
AcDbEntity
8
1
62
256
6
ByLayer
370
18
48
1
60
0
100
AcDbEllipse
10
133.69417
20
12.076861
30
0
11
0.272223898453022
21
-0.068480232239632
31
0
210
0
220
0
230
-1
40
0.391263
41
0.00166254639445314
42
2.29872290236409
0
ELLIPSE
5
18C
100
AcDbEntity
8
1
62
256
6
ByLayer
370
18
48
1
60
0
100
AcDbEllipse
10
134.831575
20
12.163945
30
0
11
0.265246825477148
21
0.112845576961878
31
0
210
0
220
0
230
-1
40
0.37104
41
0.675084001215506
42
-3.11206049265787
0
ELLIPSE
5
18D
100
AcDbEntity
8
1
62
256
6
ByLayer
370
18
48
1
60
0
100
AcDbEllipse
10
134.266322
20
12.014426
30
0
11
0.301151484365754
21
0.0247699148465416
31
0
210
0
220
0
230
-1
40
0.337654
41
-2.8409452617477
42
-1.55406060118559
0
ELLIPSE
5
18E
100
AcDbEntity
8
1
62
256
6
ByLayer
370
18
48
1
60
0
100
AcDbEllipse
10
136.4
20
5.19464
30
0
11
0.0124463972676772
21
0.114686978782855
31
0
210
0
220
0
230
-1
40
0.865158
41
-0.124787584769303
42
1.44600874202695
0
ELLIPSE
5
18F
100
AcDbEntity
8
1
62
256
6
ByLayer
370
18
48
1
60
0
100
AcDbEllipse
10
133.6
20
5.094119
30
0
11
0.0124463972667938
21
0.114686978783537
31
0
210
0
220
0
230
-1
40
0.865158
41
-1.69558391155327
42
-0.12478758476235
0
ELLIPSE
5
190
100
AcDbEntity
8
1
62
256
6
ByLayer
370
18
48
1
60
0
100
AcDbEllipse
10
135
20
2.287876
30
0
11
1.49979851908967
21
0.0266021326603648
31
0
210
0
220
0
230
-1
40
0.924159
41
0.0163904614942772
42
-3.12520219209554
0
ELLIPSE
5
191
100
AcDbEntity
8
1
62
256
6
ByLayer
370
18
48
1
60
0
100
AcDbEllipse
10
-749.125767
20
-3E-05
30
0
11
1345.50283905238
21
21.0511233321299
31
0
210
0
220
0
230
-1
40
0.016258
41
0.850633643958044
42
0.857535351848386
0
ELLIPSE
5
192
100
AcDbEntity
8
1
62
256
6
ByLayer
370
18
48
1
60
0
100
AcDbEllipse
10
92.376509
20
5E-06
30
0
11
359.340213912562
21
-29.0402316692367
31
0
210
0
220
0
230
-1
40
0.024633
41
1.44009475437836
42
1.4569832823429
0
ELLIPSE
5
193
100
AcDbEntity
8
1
62
256
6
ByLayer
370
18
48
1
60
0
100
AcDbEllipse
10
135.737586
20
-0.010168
30
0
11
35.6535372980213
21
29.8150621143541
31
0
210
0
220
0
230
-1
40
0.15829
41
1.79323695122376
42
1.79777459953993
0
ELLIPSE
5
194
100
AcDbEntity
8
1
62
256
6
ByLayer
370
18
48
1
60
0
100
AcDbEllipse
10
131.925228
20
8E-06
30
0
11
2.25437705051801
21
30.3590680704409
31
0
210
0
220
0
230
-1
40
0.046263
41
1.98156485937525
42
2.02629613427684
0
ELLIPSE
5
195
100
AcDbEntity
8
1
62
256
6
ByLayer
370
18
48
1
60
0
100
AcDbEllipse
10
132.748133
20
0.000186
30
0
11
7.27250330825735
21
30.3521445002607
31
0
210
0
220
0
230
-1
40
0.091788
41
2.00774487520326
42
2.02415315652263
0
ELLIPSE
5
196
100
AcDbEntity
8
1
62
256
6
ByLayer
370
18
48
1
60
0
100
AcDbEllipse
10
201.868111
20
-0.130604
30
0
11
360.765877756654
21
21.9748320362011
31
0
210
0
220
0
230
-1
40
0.058678
41
-1.74538369065052
42
-1.74378583798006
0
ELLIPSE
5
197
100
AcDbEntity
8
1
62
256
6
ByLayer
370
18
48
1
60
0
100
AcDbEllipse
10
177.623467
20
2E-06
30
0
11
359.33854584665
21
21.9156098990266
31
0
210
0
220
0
230
-1
40
0.058466
41
-1.67971283736241
42
-1.67905286385405
0
ELLIPSE
5
198
100
AcDbEntity
8
1
62
256
6
ByLayer
370
18
48
1
60
0
100
AcDbEllipse
10
137.251875
20
-2.9E-05
30
0
11
6.2175405461139
21
-30.3440590595424
31
0
210
0
220
0
230
-1
40
0.154548
41
-2.14590328417285
42
-2.12949490538976
0
ELLIPSE
5
199
100
AcDbEntity
8
1
62
256
6
ByLayer
370
18
48
1
60
0
100
AcDbEllipse
10
138.074772
20
-3E-06
30
0
11
2.32855204722255
21
-30.3590812037234
31
0
210
0
220
0
230
-1
40
0.042088
41
-2.21906251897871
42
-2.17433123377546
0
ELLIPSE
5
19A
100
AcDbEntity
8
1
62
256
6
ByLayer
370
18
48
1
60
0
100
AcDbEllipse
10
134.258338
20
-0.007104
30
0
11
34.4189349674181
21
-27.3341069086335
31
0
210
0
220
0
230
-1
40
0.384363
41
-1.77616353028883
42
-1.77162865490782
0
ELLIPSE
5
19B
100
AcDbEntity
8
1
62
256
6
ByLayer
370
18
48
1
60
0
100
AcDbEllipse
10
1019.15842
20
-0.000651
30
0
11
1345.5384490725
21
-29.3338695876998
31
0
210
0
220
0
230
-1
40
0.005816
41
-2.29134925613864
42
-2.28444767572075
0
ELLIPSE
5
19C
100
AcDbEntity
8
1
62
256
6
ByLayer
370
18
48
1
60
0
100
AcDbEllipse
10
136.4
20
-17.159025
30
0
11
0.00225737293055591
21
-0.168630843077855
31
0
210
0
220
0
230
-1
40
0.59286
41
-3.1190170066829
42
-1.54822067988836
0
ELLIPSE
5
19D
100
AcDbEntity
8
1
62
256
6
ByLayer
370
18
48
1
60
0
100
AcDbEllipse
10
133.6
20
-17.089902
30
0
11
0.00225737293064492
21
-0.168630843077902
31
0
210
0
220
0
230
-1
40
0.59286
41
1.59337197370277
42
-3.11901700668269
0
ELLIPSE
5
19E
100
AcDbEntity
8
1
62
256
6
ByLayer
370
18
48
1
60
0
100
AcDbEllipse
10
135
20
-18.996834
30
0
11
0.107797955037854
21
1.73706766879685
31
0
210
0
220
0
230
-1
40
0.861291
41
1.49886901970728
42
-1.6427236338825
0
ELLIPSE
5
19F
100
AcDbEntity
8
1
62
256
6
ByLayer
370
18
48
1
60
0
100
AcDbEllipse
10
1019.149641
20
0.000442
30
0
11
1345.52888146369
21
8.96907137838645
31
0
210
0
220
0
230
-1
40
0.021556
41
2.28446208929007
42
2.29136370397191
0
ELLIPSE
5
1A0
100
AcDbEntity
8
1
62
256
6
ByLayer
370
18
48
1
60
0
100
AcDbEllipse
10
69.112753
20
0.236133
30
0
11
357.891694836906
21
7.86623479735476
31
0
210
0
220
0
230
-1
40
0.081248
41
-1.39379691313689
42
-1.39370499996854
0
ELLIPSE
5
1A1
100
AcDbEntity
8
1
62
256
6
ByLayer
370
18
48
1
60
0
100
AcDbEllipse
10
201.112088
20
-0.128711
30
0
11
358.553414766287
21
6.80496850677955
31
0
210
0
220
0
230
-1
40
0.082149
41
1.74787925367789
42
1.74948667688972
0
ELLIPSE
5
1A2
100
AcDbEntity
8
1
62
256
6
ByLayer
370
18
48
1
60
0
100
AcDbEllipse
10
137.251875
20
4.7E-05
30
0
11
1.12678965047239
21
-30.3579355317286
31
0
210
0
220
0
230
-1
40
0.253834
41
0.0576765557149105
42
0.0740849357065638
0
ELLIPSE
5
1A3
100
AcDbEntity
8
1
62
256
6
ByLayer
370
18
48
1
60
0
100
AcDbEllipse
10
138.074772
20
0
30
0
11
0.0990122853095449
21
30.3592345148812
31
0
210
0
220
0
230
-1
40
0.087428
41
-3.07721402863383
42
-3.03248273961839
0
POINT
5
6C
100
AcDbEntity
8
80
62
256
6
ByLayer
370
18
48
1
60
0
100
AcDbPoint
10
0
20
0
30
0
39
0
210
0
220
0
230
1
50
360
0
POINT
5
6E
100
AcDbEntity
8
2L
62
256
6
ByLayer
370
18
48
1
60
0
100
AcDbPoint
10
57
20
0
30
0
39
0
210
0
220
0
230
1
50
360
0
POINT
5
70
100
AcDbEntity
8
81
62
256
6
ByLayer
370
18
48
1
60
0
100
AcDbPoint
10
140
20
0
30
0
39
0
210
0
220
0
230
1
50
360
0
POINT
5
72
100
AcDbEntity
8
2
62
256
6
ByLayer
370
18
48
1
60
0
100
AcDbPoint
10
0
20
0
30
0
39
0
210
0
220
0
230
1
50
360
0
POINT
5
74
100
AcDbEntity
8
3
62
256
6
ByLayer
370
18
48
1
60
0
100
AcDbPoint
10
140
20
0
30
0
39
0
210
0
220
0
230
1
50
360
0
POINT
5
76
100
AcDbEntity
8
2
62
256
6
ByLayer
370
18
48
1
60
0
100
AcDbPoint
10
134.340976
20
14.9339
30
0
39
0
210
0
220
0
230
1
50
360
0
POINT
5
77
100
AcDbEntity
8
2
62
256
6
ByLayer
370
18
48
1
60
0
100
AcDbPoint
10
134.340976
20
14.9339
30
0
39
0
210
0
220
0
230
1
50
360
0
POINT
5
78
100
AcDbEntity
8
2
62
256
6
ByLayer
370
18
48
1
60
0
100
AcDbPoint
10
135.659024
20
26.911852
30
0
39
0
210
0
220
0
230
1
50
360
0
POINT
5
79
100
AcDbEntity
8
2
62
256
6
ByLayer
370
18
48
1
60
0
100
AcDbPoint
10
135.659024
20
26.911852
30
0
39
0
210
0
220
0
230
1
50
360
0
POINT
5
7A
100
AcDbEntity
8
2
62
256
6
ByLayer
370
18
48
1
60
0
100
AcDbPoint
10
133.955404
20
10.547067
30
0
39
0
210
0
220
0
230
1
50
360
0
POINT
5
7B
100
AcDbEntity
8
2
62
256
6
ByLayer
370
18
48
1
60
0
100
AcDbPoint
10
134.087998
20
10.537037
30
0
39
0
210
0
220
0
230
1
50
360
0
POINT
5
7C
100
AcDbEntity
8
2
62
256
6
ByLayer
370
18
48
1
60
0
100
AcDbPoint
10
136.044596
20
25.726461
30
0
39
0
210
0
220
0
230
1
50
360
0
POINT
5
7D
100
AcDbEntity
8
2
62
256
6
ByLayer
370
18
48
1
60
0
100
AcDbPoint
10
135.912002
20
25.476707
30
0
39
0
210
0
220
0
230
1
50
360
0
POINT
5
7E
100
AcDbEntity
8
5
62
256
6
ByLayer
370
18
48
1
60
0
100
AcDbPoint
10
135
20
21.37171
30
0
39
0
210
0
220
0
230
1
50
360
0
POINT
5
80
100
AcDbEntity
8
5
62
256
6
ByLayer
370
18
48
1
60
0
100
AcDbPoint
10
135
20
18.307756
30
0
39
0
210
0
220
0
230
1
50
360
0
POINT
5
81
100
AcDbEntity
8
2
62
256
6
ByLayer
370
18
48
1
60
0
100
AcDbPoint
10
0
20
0
30
0
39
0
210
0
220
0
230
1
50
360
0
POINT
5
82
100
AcDbEntity
8
2
62
256
6
ByLayer
370
18
48
1
60
0
100
AcDbPoint
10
134.340976
20
14.9339
30
0
39
0
210
0
220
0
230
1
50
360
0
POINT
5
83
100
AcDbEntity
8
2
62
256
6
ByLayer
370
18
48
1
60
0
100
AcDbPoint
10
0
20
0
30
0
39
0
210
0
220
0
230
1
50
360
0
POINT
5
84
100
AcDbEntity
8
2
62
256
6
ByLayer
370
18
48
1
60
0
100
AcDbPoint
10
135.659024
20
26.911852
30
0
39
0
210
0
220
0
230
1
50
360
0
SPLINE
5
1A4
100
AcDbEntity
8
1
62
256
6
ByLayer
370
18
48
1
60
0
100
AcDbSpline
70
4
71
2
72
6
73
3
40
0
40
0
40
0
40
1
40
1
40
1
41
0.50000007594463
10
131.5
20
-13.850400995756
30
0
41
0.49999992405537
10
131.783746218049
20
-13.8720677244958
30
0
41
0.50000007594463
10
132.067411180494
20
-13.8937166079247
30
0
0
SPLINE
5
1A5
100
AcDbEntity
8
1
62
256
6
ByLayer
370
18
48
1
60
0
100
AcDbSpline
70
4
71
3
72
26
73
22
40
0
40
0
40
0
40
0
40
0.157303744199877
40
0.157303744199877
40
0.235955616299748
40
0.235955616299748
40
0.31460748839962
40
0.31460748839962
40
0.471911232599483
40
0.471911232599483
40
0.550563104699477
40
0.550563104699477
40
0.629214976799471
40
0.629214976799471
40
0.78651872099947
40
0.78651872099947
40
0.865170593099477
40
0.865170593099477
40
0.943822465199483
40
0.943822465199483
40
1
40
1
40
1
40
1
41
1
10
136.815497835663
20
-30.4843148553135
30
0
41
1
10
136.847834347116
20
-30.4844195100949
30
0
41
1
10
136.879712700513
20
-30.4814977971371
30
0
41
1
10
136.926875411058
20
-30.4727898104868
30
0
41
1
10
136.942486388827
20
-30.4691610326402
30
0
41
1
10
136.973484662547
20
-30.4604259443917
30
0
41
1
10
136.988943208252
20
-30.4552872099298
30
0
41
1
10
137.034098273222
20
-30.4379178574287
30
0
41
1
10
137.062785320017
20
-30.4237254701937
30
0
41
1
10
137.103732062607
20
-30.3985926830365
30
0
41
1
10
137.117031326532
20
-30.3895700590155
30
0
41
1
10
137.14290804752
20
-30.3701932351335
30
0
41
1
10
137.15535489187
20
-30.3599311301122
30
0
41
1
10
137.190923626931
20
-30.3277456392304
30
0
41
1
10
137.212438737847
20
-30.3043248872297
30
0
41
1
10
137.241384474381
20
-30.2662205420546
30
0
41
1
10
137.250519065402
20
-30.2529441069437
30
0
41
1
10
137.267353720458
20
-30.225793580658
30
0
41
1
10
137.275060961636
20
-30.2119285011423
30
0
41
1
10
137.28708380408
20
-30.1876747924051
30
0
41
1
10
137.291741727128
20
-30.1774258792298
30
0
41
1
10
137.296043502012
20
-30.1670316068752
30
0
0
SPLINE
5
1A6
100
AcDbEntity
8
1
62
256
6
ByLayer
370
18
48
1
60
0
100
AcDbSpline
70
4
71
3
72
38
73
34
40
0
40
0
40
0
40
0
40
0.0625000000000212
40
0.0625000000000212
40
0.0937500000000331
40
0.0937500000000331
40
0.125000000000045
40
0.125000000000045
40
0.250000000000081
40
0.250000000000081
40
0.281250000000088
40
0.281250000000088
40
0.312500000000095
40
0.312500000000095
40
0.375000000000103
40
0.375000000000103
40
0.500000000000125
40
0.500000000000125
40
0.531250000000116
40
0.531250000000116
40
0.562500000000107
40
0.625000000000088
40
0.687500000000069
40
0.687500000000069
40
0.718750000000061
40
0.718750000000061
40
0.750000000000053
40
0.750000000000053
40
0.875000000000013
40
0.875000000000013
40
0.937500000000007
40
0.937500000000007
40
1
40
1
40
1
40
1
41
1
10
130.5
20
29.2563852110631
30
0
41
1
10
130.5
20
29.2879927693869
30
0
41
1
10
130.501552138099
20
29.3197033911479
30
0
41
1
10
130.506284573796
20
29.3674289668381
30
0
41
1
10
130.508270963618
20
29.3834067308891
30
0
41
1
10
130.51301919911
20
29.4151161067395
30
0
41
1
10
130.515780339638
20
29.4308647711373
30
0
41
1
10
130.531490692648
20
29.50908632087
30
0
41
1
10
130.550100362618
20
29.5700085438229
30
0
41
1
10
130.580973348895
20
29.6440763436043
30
0
41
1
10
130.587531851514
20
29.6587847340392
30
0
41
1
10
130.601432110921
20
29.6879869451893
30
0
41
1
10
130.608796802457
20
29.7025217039682
30
0
41
1
10
130.631891015981
20
29.7454200979911
30
0
41
1
10
130.648610881585
20
29.7730921936265
30
0
41
1
10
130.702639367385
20
29.8533995935086
30
0
41
1
10
130.743779463753
20
29.9033522061316
30
0
41
1
10
130.801830995634
20
29.9611533454008
30
0
41
1
10
130.813810390628
20
29.972509244909
30
0
41
1
10
130.838210462762
20
29.994524417232
30
0
41
1
10
130.875508628065
20
30.0265466867337
30
0
41
1
10
130.941092618759
20
30.075014880267
30
0
41
1
10
130.997160805246
20
30.1086283175486
30
0
41
1
10
131.040584311867
20
30.1318714535271
30
0
41
1
10
131.055287951693
20
30.1392907544744
30
0
41
1
10
131.08516239057
20
30.1534598013167
30
0
41
1
10
131.100348910672
20
30.1602132981482
30
0
41
1
10
131.176588181205
20
30.1919180545678
30
0
41
1
10
131.239211492574
20
30.2110728007539
30
0
41
1
10
131.335530995507
20
30.2307322012837
30
0
41
1
10
131.368037801684
20
30.2357622474165
30
0
41
1
10
131.43387707948
20
30.2426808351314
30
0
41
1
10
131.466931057355
20
30.2445360520069
30
0
41
1
10
131.5
20
30.2447822208432
30
0
0
SPLINE
5
1A7
100
AcDbEntity
8
1
62
256
6
ByLayer
370
18
48
1
60
0
100
AcDbSpline
70
4
71
3
72
36
73
32
40
0
40
0
40
0
40
0
40
0.125000000000068
40
0.125000000000068
40
0.187500000000092
40
0.187500000000092
40
0.218750000000099
40
0.218750000000099
40
0.250000000000107
40
0.250000000000107
40
0.375000000000138
40
0.375000000000138
40
0.406250000000134
40
0.406250000000134
40
0.437500000000131
40
0.437500000000131
40
0.500000000000117
40
0.500000000000117
40
0.625000000000102
40
0.625000000000102
40
0.656250000000075
40
0.656250000000075
40
0.687500000000048
40
0.750000000000054
40
0.81250000000006
40
0.81250000000006
40
0.843750000000028
40
0.843750000000028
40
0.874999999999995
40
0.874999999999995
40
1
40
1
40
1
40
1
41
1
10
138.467594973845
20
-30.7155903050211
30
0
41
1
10
138.467592609654
20
-30.7665562340439
30
0
41
1
10
138.462788800689
20
-30.8167538722177
30
0
41
1
10
138.448540372392
20
-30.8909234075558
30
0
41
1
10
138.442609052362
20
-30.9154574762813
30
0
41
1
10
138.431884249114
20
-30.9519661049364
30
0
41
1
10
138.427994251653
20
-30.964111629134
30
0
41
1
10
138.419675705198
20
-30.9880636356264
30
0
41
1
10
138.415241448222
20
-30.999894101492
30
0
41
1
10
138.391715478071
20
-31.0583294526506
30
0
41
1
10
138.368597262951
20
-31.1028032791175
30
0
41
1
10
138.334269099085
20
-31.155521481604
30
0
41
1
10
138.327129582923
20
-31.1659201670956
30
0
41
1
10
138.312291470725
20
-31.1864216405191
30
0
41
1
10
138.304570409021
20
-31.1965509738539
30
0
41
1
10
138.280784245572
20
-31.2261931536319
30
0
41
1
10
138.264068510776
20
-31.2450151589558
30
0
41
1
10
138.211412149701
20
-31.2987347663372
30
0
41
1
10
138.172986188049
20
-31.3309120335317
30
0
41
1
10
138.120659830977
20
-31.3664337047406
30
0
41
1
10
138.109952295112
20
-31.3733149941535
30
0
41
1
10
138.088327736329
20
-31.3864536221414
30
0
41
1
10
138.055514533731
20
-31.4052718128382
30
0
41
1
10
137.998982288951
20
-31.4322771292528
30
0
41
1
10
137.951817821971
20
-31.4492982309353
30
0
41
1
10
137.915707001298
20
-31.4603206265489
30
0
41
1
10
137.903546934483
20
-31.4637036787246
30
0
41
1
10
137.878976082017
20
-31.4698770665661
30
0
41
1
10
137.866567406933
20
-31.472664811168
30
0
41
1
10
137.804487756564
20
-31.4849851036299
30
0
41
1
10
137.754242263996
20
-31.4898331355779
30
0
41
1
10
137.703414496128
20
-31.489668635182
30
0
0
SPLINE
5
1A8
100
AcDbEntity
8
1
62
256
6
ByLayer
370
18
48
1
60
0
100
AcDbSpline
70
4
71
3
72
29
73
25
40
0
40
0
40
0
40
0
40
0.124999999999988
40
0.124999999999988
40
0.187499999999982
40
0.187499999999982
40
0.249999999999976
40
0.249999999999976
40
0.374999999999965
40
0.374999999999965
40
0.437499999999955
40
0.437499999999955
40
0.499999999999946
40
0.499999999999946
40
0.624999999999974
40
0.624999999999974
40
0.68749999999999
40
0.68749999999999
40
0.750000000000005
40
0.812500000000021
40
0.812500000000021
40
0.875000000000036
40
0.875000000000036
40
1
40
1
40
1
40
1
41
1
10
130.180493196419
20
8.99896152261408
30
0
41
1
10
130.182718068857
20
8.95535789792817
30
0
41
1
10
130.189711560301
20
8.91276590443903
30
0
41
1
10
130.207196363782
20
8.85036176550292
30
0
41
1
10
130.214198395694
20
8.82980939219831
30
0
41
1
10
130.230622895555
20
8.78921812519337
30
0
41
1
10
130.240036446377
20
8.76924102244567
30
0
41
1
10
130.271329473763
20
8.71133123650617
30
0
41
1
10
130.296390353761
20
8.6749877460357
30
0
41
1
10
130.340348668888
20
8.62390408871877
30
0
41
1
10
130.356153651035
20
8.60737527688039
30
0
41
1
10
130.389596515454
20
8.575901925452
30
0
41
1
10
130.407135394115
20
8.56103232997941
30
0
41
1
10
130.462141776298
20
8.51895839059452
30
0
41
1
10
130.501976338357
20
8.49426482850109
30
0
41
1
10
130.566635651698
20
8.46242992785091
30
0
41
1
10
130.588958357216
20
8.45273562938866
30
0
41
1
10
130.634250804914
20
8.43552874825508
30
0
41
1
10
130.680425096319
20
8.42038270068019
30
0
41
1
10
130.728338470674
20
8.40930082056727
30
0
41
1
10
130.777133908863
20
8.40028028843841
30
0
41
1
10
130.8020947463
20
8.39679251341121
30
0
41
1
10
130.877245552367
20
8.38964117524662
30
0
41
1
10
130.927709547859
20
8.38920130549153
30
0
41
1
10
130.978537315727
20
8.39309286667708
30
0
0
SPLINE
5
1A9
100
AcDbEntity
8
1
62
256
6
ByLayer
370
13
48
1
60
0
100
AcDbSpline
70
4
71
3
72
8
73
4
40
0
40
0
40
0
40
0
40
1
40
1
40
1
40
1
41
1
10
137.703414496128
20
-31.489668635182
30
0
41
1
10
137.407442275973
20
-31.1545507085592
30
0
41
1
10
137.111470055818
20
-30.8194327819363
30
0
41
1
10
136.815497835663
20
-30.4843148553135
30
0
0
SPLINE
5
1AA
100
AcDbEntity
8
1
62
256
6
ByLayer
370
13
48
1
60
0
100
AcDbSpline
70
4
71
3
72
8
73
4
40
0
40
0
40
0
40
0
40
1
40
1
40
1
40
1
41
1
10
137.577748700942
20
-30.1674195011653
30
0
41
1
10
137.874364125243
20
-30.3501431024506
30
0
41
1
10
138.170979549544
20
-30.5328667037359
30
0
41
1
10
138.467594973845
20
-30.7155903050211
30
0
0
SPLINE
5
1AB
100
AcDbEntity
8
1
62
256
6
ByLayer
370
13
48
1
60
0
100
AcDbSpline
70
4
71
3
72
8
73
4
40
0
40
0
40
0
40
0
40
1
40
1
40
1
40
1
41
1
10
130.894483252653
20
-30.4651519197062
30
0
41
1
10
130.851068980986
20
-30.799171446486
30
0
41
1
10
130.807654709319
20
-31.1331909732658
30
0
41
1
10
130.764240437652
20
-31.4672105000456
30
0
0
SPLINE
5
1AC
100
AcDbEntity
8
1
62
256
6
ByLayer
370
13
48
1
60
0
100
AcDbSpline
70
4
71
3
72
8
73
4
40
0
40
0
40
0
40
0
40
1
40
1
40
1
40
1
41
1
10
130.000059959935
20
-30.6881857401533
30
0
41
1
10
130.133330203986
20
-30.4566277756072
30
0
41
1
10
130.266600448038
20
-30.2250698110612
30
0
41
1
10
130.399870692089
20
-29.9935118465152
30
0
0
SPLINE
5
1AD
100
AcDbEntity
8
1
62
256
6
ByLayer
370
18
48
1
60
0
100
AcDbSpline
70
4
71
3
72
30
73
26
40
0
40
0
40
0
40
0
40
0.12499999999997
40
0.12499999999997
40
0.187499999999966
40
0.187499999999966
40
0.249999999999963
40
0.249999999999963
40
0.374999999999901
40
0.374999999999901
40
0.4374999999999
40
0.4374999999999
40
0.4999999999999
40
0.4999999999999
40
0.624999999999831
40
0.624999999999831
40
0.687499999999842
40
0.687499999999842
40
0.749999999999852
40
0.749999999999852
40
0.874999999999873
40
0.874999999999873
40
0.937499999999936
40
0.937499999999936
40
1
40
1
40
1
40
1
41
1
10
130.399870692089
20
-29.9935118465152
30
0
41
1
10
130.400666948897
20
-30.0251242124289
30
0
41
1
10
130.404577885958
20
-30.0560787618502
30
0
41
1
10
130.41489099937
20
-30.101571446962
30
0
41
1
10
130.419075233116
20
-30.1165780093003
30
0
41
1
10
130.428962406602
20
-30.1462703852131
30
0
41
1
10
130.434698962763
20
-30.1610173607035
30
0
41
1
10
130.453869379214
20
-30.2038965993532
30
0
41
1
10
130.469296438283
20
-30.2309144139883
30
0
41
1
10
130.496326727557
20
-30.2691363024428
30
0
41
1
10
130.505989511854
20
-30.2814901831776
30
0
41
1
10
130.526661902901
20
-30.3053998879917
30
0
41
1
10
130.537529395113
20
-30.3167887787133
30
0
41
1
10
130.571567139888
20
-30.3492018918061
30
0
41
1
10
130.596204847867
20
-30.3685400197696
30
0
41
1
10
130.636107391029
20
-30.3941095933312
30
0
41
1
10
130.649976672413
20
-30.4020893556076
30
0
41
1
10
130.678212860996
20
-30.4165838380196
30
0
41
1
10
130.692607741903
20
-30.4231262296832
30
0
41
1
10
130.736604553626
20
-30.4406851798572
30
0
41
1
10
130.767011094207
20
-30.4496527634798
30
0
41
1
10
130.814296744664
20
-30.4588365381829
30
0
41
1
10
130.830250660396
20
-30.4611592584294
30
0
41
1
10
130.862237915093
20
-30.4642861080266
30
0
41
1
10
130.878317142511
20
-30.4650995992596
30
0
41
1
10
130.894483252653
20
-30.4651519197062
30
0
0
SPLINE
5
1AE
100
AcDbEntity
8
1
62
256
6
ByLayer
370
18
48
1
60
0
100
AcDbSpline
70
4
71
3
72
32
73
28
40
0
40
0
40
0
40
0
40
0.125000000000156
40
0.125000000000156
40
0.187500000000233
40
0.187500000000233
40
0.21875000000027
40
0.21875000000027
40
0.250000000000306
40
0.250000000000306
40
0.375000000000388
40
0.375000000000388
40
0.406250000000392
40
0.406250000000392
40
0.437500000000396
40
0.437500000000396
40
0.500000000000363
40
0.500000000000363
40
0.62500000000029
40
0.62500000000029
40
0.750000000000217
40
0.750000000000217
40
0.812500000000164
40
0.812500000000164
40
0.875000000000111
40
0.875000000000111
40
1
40
1
40
1
40
1
41
1
10
130.764240437652
20
-31.4672105000456
30
0
41
1
10
130.713422935958
20
-31.4670460328754
30
0
41
1
10
130.663411822298
20
-31.4618756300377
30
0
41
1
10
130.589572076149
20
-31.4468138564381
30
0
41
1
10
130.565156372399
20
-31.440566935795
30
0
41
1
10
130.528837874667
20
-31.4293028012895
30
0
41
1
10
130.516760245314
20
-31.4252221478335
30
0
41
1
10
130.492962149962
20
-31.4165106988052
30
0
41
1
10
130.481213825869
20
-31.4118725368178
30
0
41
1
10
130.423213011927
20
-31.3872935464831
30
0
41
1
10
130.379162145169
20
-31.3632271470016
30
0
41
1
10
130.327044412921
20
-31.3276239844939
30
0
41
1
10
130.316769461278
20
-31.3202249035838
30
0
41
1
10
130.296522346509
20
-31.3048593532882
30
0
41
1
10
130.286557789138
20
-31.2968957965198
30
0
41
1
10
130.257453860014
20
-31.27242460158
30
0
41
1
10
130.238986714261
20
-31.2552525135107
30
0
41
1
10
130.186313837232
20
-31.2012337840068
30
0
41
1
10
130.154811041177
20
-31.1619081789361
30
0
41
1
10
130.099242615037
20
-31.0764360639318
30
0
41
1
10
130.076038624789
20
-31.0315962022182
30
0
41
1
10
130.047875247404
20
-30.9615596833892
30
0
41
1
10
130.039594896742
20
-30.9377357911111
30
0
41
1
10
130.025282163926
20
-30.8891169427315
30
0
41
1
10
130.019247259815
20
-30.8642540092367
30
0
41
1
10
130.004865281932
20
-30.789533367416
30
0
41
1
10
130.000062323902
20
-30.7391468590184
30
0
41
1
10
130.000059959935
20
-30.6881857401532
30
0
0
SPLINE
5
1AF
100
AcDbEntity
8
1
62
256
6
ByLayer
370
13
48
1
60
0
100
AcDbSpline
70
4
71
3
72
8
73
4
40
0
40
0
40
0
40
0
40
1
40
1
40
1
40
1
41
1
10
130.499996529959
20
-21.9461760217181
30
0
41
1
10
130.393495418779
20
-22.2610987183029
30
0
41
1
10
130.286994307599
20
-22.5760214148876
30
0
41
1
10
130.180493196419
20
-22.8909441114723
30
0
0
SPLINE
5
1B0
100
AcDbEntity
8
1
62
256
6
ByLayer
370
18
48
1
60
0
100
AcDbSpline
70
4
71
3
72
18
73
14
40
0
40
0
40
0
40
0
40
0.25
40
0.25
40
0.5
40
0.5
40
0.625
40
0.625
40
0.75
40
0.75
40
0.875
40
0.875
40
1
40
1
40
1
40
1
41
1
10
133.728910078641
20
11.0867724264678
30
0
41
1
10
133.758124996828
20
11.0773974184744
30
0
41
1
10
133.788515940697
20
11.0702693459395
30
0
41
1
10
133.851099711476
20
11.0614665727342
30
0
41
1
10
133.883279348046
20
11.0597193461716
30
0
41
1
10
133.931919050617
20
11.0637885387717
30
0
41
1
10
133.94809658193
20
11.0662798605495
30
0
41
1
10
133.979793375283
20
11.0745140480167
30
0
41
1
10
133.995625097168
20
11.0803642876981
30
0
41
1
10
134.024526425732
20
11.0968743645743
30
0
41
1
10
134.037745835909
20
11.1077320404167
30
0
41
1
10
134.057359029162
20
11.134758352143
30
0
41
1
10
134.063287363715
20
11.1504670738374
30
0
41
1
10
134.065178128977
20
11.1666639198213
30
0
0
SPLINE
5
1B1
100
AcDbEntity
8
1
62
256
6
ByLayer
370
18
48
1
60
0
100
AcDbSpline
70
4
71
3
72
11
73
7
40
0
40
0
40
0
40
0
40
0.2907075429185
40
0.629217609362499
40
0.961177102070687
40
1
40
1
40
1
40
1
41
1
10
137.608871167202
20
25.8508231726026
30
0
41
1
10
137.587319566956
20
25.776591341162
30
0
41
1
10
137.52878515659
20
25.617323476871
30
0
41
1
10
137.400271027034
20
25.383675235964
30
0
41
1
10
137.275952631705
20
25.2242144765366
30
0
41
1
10
137.203169003159
20
25.1461241684182
30
0
41
1
10
137.195464100685
20
25.1380072830225
30
0
0
SPLINE
5
1B2
100
AcDbEntity
8
1
62
256
6
ByLayer
370
18
48
1
60
0
100
AcDbSpline
70
4
71
3
72
28
73
24
40
0
40
0
40
0
40
0
40
0.125000000000068
40
0.125000000000068
40
0.18750000000007
40
0.18750000000007
40
0.250000000000071
40
0.250000000000071
40
0.375000000000074
40
0.375000000000074
40
0.437500000000049
40
0.437500000000049
40
0.500000000000024
40
0.500000000000024
40
0.625000000000017
40
0.625000000000017
40
0.75000000000001
40
0.75000000000001
40
0.812500000000006
40
0.812500000000006
40
0.875000000000003
40
0.875000000000003
40
1
40
1
40
1
40
1
41
1
10
137.917711374203
20
8.92438160034672
30
0
41
1
10
137.968528875896
20
8.92827237551614
30
0
41
1
10
138.018321578313
20
8.93638646176794
30
0
41
1
10
138.091514936112
20
8.9547215189325
30
0
41
1
10
138.115661671769
20
8.96186781058475
30
0
41
1
10
138.163438232124
20
8.97829064108504
30
0
41
1
10
138.186977334878
20
8.98755003450066
30
0
41
1
10
138.255301934173
20
9.01792042976234
30
0
41
1
10
138.298309537185
20
9.04176111331799
30
0
41
1
10
138.358996555287
20
9.08292859009748
30
0
41
1
10
138.378687435986
20
9.09764981835366
30
0
41
1
10
138.416075307535
20
9.12842848468733
30
0
41
1
10
138.433796224024
20
9.14448280914786
30
0
41
1
10
138.484120901368
20
9.19458540827193
30
0
41
1
10
138.513913243578
20
9.23055509287079
30
0
41
1
10
138.565762268293
20
9.30778124973298
30
0
41
1
10
138.587014169304
20
9.34785623720239
30
0
41
1
10
138.612127388642
20
9.40985415133417
30
0
41
1
10
138.619370002336
20
9.43084768149566
30
0
41
1
10
138.631564598074
20
9.47349964523161
30
0
41
1
10
138.636516138092
20
9.49521642283702
30
0
41
1
10
138.647641748996
20
9.56020483393127
30
0
41
1
10
138.650248144182
20
9.6036673440799
30
0
41
1
10
138.64802821033
20
9.64726720235836
30
0
0
SPLINE
5
1B3
100
AcDbEntity
8
1
62
256
6
ByLayer
370
18
48
1
60
0
100
AcDbSpline
70
4
71
3
72
8
73
4
40
0
40
0
40
0
40
0
40
1
40
1
40
1
40
1
41
1
10
136.74877336265
20
26.6154900962537
30
0
41
1
10
136.755106828405
20
26.6165510763362
30
0
41
1
10
136.761439020434
20
26.6176125569996
30
0
41
1
10
136.767770000775
20
26.6186745129728
30
0
0
SPLINE
5
1B4
100
AcDbEntity
8
1
62
256
6
ByLayer
370
18
48
1
60
0
100
AcDbSpline
70
4
71
3
72
22
73
18
40
0
40
0
40
0
40
0
40
0.0624999999999993
40
0.0624999999999993
40
0.124999999999999
40
0.124999999999999
40
0.187499999999998
40
0.187499999999998
40
0.249999999999997
40
0.249999999999997
40
0.374999999999998
40
0.374999999999998
40
0.499999999999999
40
0.499999999999999
40
0.749999999999999
40
0.749999999999999
40
1
40
1
40
1
40
1
41
1
10
136.767770000775
20
26.6186745129728
30
0
41
1
10
136.77427199685
20
26.6175331337573
30
0
41
1
10
136.780948300487
20
26.6173308209061
30
0
41
1
10
136.794680184542
20
26.6189854053738
30
0
41
1
10
136.801814117259
20
26.6209035599046
30
0
41
1
10
136.815581273983
20
26.6266508916949
30
0
41
1
10
136.822391300665
20
26.6305298081616
30
0
41
1
10
136.835329259144
20
26.6397564301083
30
0
41
1
10
136.841405064967
20
26.6450349609812
30
0
41
1
10
136.858680791574
20
26.6624528793932
30
0
41
1
10
136.868699575102
20
26.6759435749807
30
0
41
1
10
136.886059541844
20
26.7042410291138
30
0
41
1
10
136.893556418268
20
26.7193171677108
30
0
41
1
10
136.912904922103
20
26.7653205418857
30
0
41
1
10
136.921912068002
20
26.797417371584
30
0
41
1
10
136.93426274427
20
26.8618812135681
30
0
41
1
10
136.937590073863
20
26.8943816777587
30
0
41
1
10
136.938344449131
20
26.9266843894364
30
0
0
SPLINE
5
1B5
100
AcDbEntity
8
1
62
256
6
ByLayer
370
18
48
1
60
0
100
AcDbSpline
70
4
71
3
72
18
73
14
40
0
40
0
40
0
40
0
40
0.25
40
0.25
40
0.5
40
0.5
40
0.625
40
0.625
40
0.75
40
0.75
40
0.875
40
0.875
40
1
40
1
40
1
40
1
41
1
10
136.271089921359
20
25.8483730481032
30
0
41
1
10
136.300304839546
20
25.8645167341048
30
0
41
1
10
136.328297068042
20
25.8826578303598
30
0
41
1
10
136.380750967576
20
25.9229047739315
30
0
41
1
10
136.405248062849
20
25.9449791961366
30
0
41
1
10
136.436858585024
20
25.9812824339822
30
0
41
1
10
136.446456878131
20
25.9938527110061
30
0
41
1
10
136.462717518495
20
26.0198352199118
30
0
41
1
10
136.469517471688
20
26.0335161410638
30
0
41
1
10
136.477724131648
20
26.0606891221972
30
0
41
1
10
136.479096145166
20
26.0743616743947
30
0
41
1
10
136.473509621836
20
26.0985819577127
30
0
41
1
10
136.46656867968
20
26.1086120058989
30
0
41
1
10
136.456596943746
20
26.115805783656
30
0
0
SPLINE
5
1B6
100
AcDbEntity
8
1
62
256
6
ByLayer
370
18
48
1
60
0
100
AcDbSpline
70
4
71
3
72
8
73
4
40
0
40
0
40
0
40
0
40
1
40
1
40
1
40
1
41
1
10
136.456596943746
20
26.115805783656
30
0
41
1
10
136.453812603687
20
26.1204753473379
30
0
41
1
10
136.451027613486
20
26.1251462938082
30
0
41
1
10
136.448241939692
20
26.1298186945418
30
0
0
SPLINE
5
1B7
100
AcDbEntity
8
1
62
256
6
ByLayer
370
18
48
1
60
0
100
AcDbSpline
70
4
71
3
72
8
73
4
40
0
40
0
40
0
40
0
40
1
40
1
40
1
40
1
41
1
10
136.448241939692
20
26.1298186945418
30
0
41
1
10
136.44537281408
20
26.1346310687122
30
0
41
1
10
136.443117991568
20
26.1397527523595
30
0
41
1
10
136.441358983799
20
26.1451291685854
30
0
0
SPLINE
5
1B8
100
AcDbEntity
8
1
62
256
6
ByLayer
370
18
48
1
60
0
100
AcDbSpline
70
4
71
3
72
22
73
18
40
0
40
0
40
0
40
0
40
0.0582863309680388
40
0.0582863309680388
40
0.192816855115462
40
0.192816855115462
40
0.327347379262885
40
0.327347379262885
40
0.461877903410308
40
0.461877903410308
40
0.596408427557731
40
0.596408427557731
40
0.730938951705155
40
0.730938951705155
40
0.865469475852577
40
0.865469475852577
40
1
40
1
40
1
40
1
41
1
10
136.437384125648
20
26.1624348958545
30
0
41
1
10
136.436060080325
20
26.1714758354426
30
0
41
1
10
136.435706640421
20
26.1809553904095
30
0
41
1
10
136.43698216852
20
26.2129506360392
30
0
41
1
10
136.441715619613
20
26.2363737136285
30
0
41
1
10
136.455852761475
20
26.2836570936618
30
0
41
1
10
136.465324423115
20
26.3076064261641
30
0
41
1
10
136.487803003743
20
26.3553608922722
30
0
41
1
10
136.500739427217
20
26.3790201585399
30
0
41
1
10
136.529651897866
20
26.4257461045762
30
0
41
1
10
136.545489483447
20
26.4485777896923
30
0
41
1
10
136.579754326543
20
26.4925359867227
30
0
41
1
10
136.598152034347
20
26.5136298415064
30
0
41
1
10
136.63733058043
20
26.5525328491304
30
0
41
1
10
136.658158606688
20
26.5704529001134
30
0
41
1
10
136.702293531708
20
26.5999408772762
30
0
41
1
10
136.725457290411
20
26.6115841955663
30
0
41
1
10
136.74877336265
20
26.6154900962537
30
0
0
SPLINE
5
1B9
100
AcDbEntity
8
1
62
256
6
ByLayer
370
18
48
1
60
0
100
AcDbSpline
70
4
71
3
72
8
73
4
40
0
40
0
40
0
40
0
40
1
40
1
40
1
40
1
41
1
10
135.925903451176
20
25.8411829882486
30
0
41
1
10
135.928876960975
20
25.8366143826191
30
0
41
1
10
135.931849755936
20
25.8320472139879
30
0
41
1
10
135.934821871023
20
25.8274814117162
30
0
0
SPLINE
5
1BA
100
AcDbEntity
8
1
62
256
6
ByLayer
370
18
48
1
60
0
100
AcDbSpline
70
4
71
3
72
22
73
18
40
0
40
0
40
0
40
0
40
0.0624999999999994
40
0.0624999999999994
40
0.124999999999999
40
0.124999999999999
40
0.187499999999998
40
0.187499999999998
40
0.249999999999998
40
0.249999999999998
40
0.374999999999999
40
0.374999999999999
40
0.5
40
0.5
40
0.75
40
0.75
40
1
40
1
40
1
40
1
41
1
10
135.934821871023
20
25.8274814117162
30
0
41
1
10
135.935766816993
20
25.82165450934
30
0
41
1
10
135.937652840708
20
25.8161656428942
30
0
41
1
10
135.943485919415
20
25.8059318698311
30
0
41
1
10
135.94751508154
20
25.8011550034491
30
0
41
1
10
135.957213495447
20
25.7929809869038
30
0
41
1
10
135.962984432955
20
25.7894666204194
30
0
41
1
10
135.975683280234
20
25.7837402810761
30
0
41
1
10
135.982529954591
20
25.7815350388008
30
0
41
1
10
136.004231731868
20
25.7765006793251
30
0
41
1
10
136.019958794642
20
25.775320318039
30
0
41
1
10
136.051709479496
20
25.7758125067064
30
0
41
1
10
136.068033314338
20
25.7774972768501
30
0
41
1
10
136.116586237271
20
25.7855150494119
30
0
41
1
10
136.148854947594
20
25.7947739372045
30
0
41
1
10
136.211432295694
20
25.8180866352426
30
0
41
1
10
136.241861123215
20
25.8322216922643
30
0
41
1
10
136.271089921359
20
25.8483730481032
30
0
0
SPLINE
5
1BB
100
AcDbEntity
8
1
62
256
6
ByLayer
370
18
48
1
60
0
100
AcDbSpline
70
4
71
3
72
18
73
14
40
0
40
0
40
0
40
0
40
0.25
40
0.25
40
0.5
40
0.5
40
0.625
40
0.625
40
0.75
40
0.75
40
0.875
40
0.875
40
1
40
1
40
1
40
1
41
1
10
134.986945145784
20
25.8483730481031
30
0
41
1
10
135.015406046934
20
25.8322293621015
30
0
41
1
10
135.045276696764
20
25.8181088721217
30
0
41
1
10
135.107402193709
20
25.7947878804345
30
0
41
1
10
135.139633856859
20
25.7855436675297
30
0
41
1
10
135.18911419143
20
25.7775019436135
30
0
41
1
10
135.205700932252
20
25.7758289216071
30
0
41
1
10
135.238599794691
20
25.7753109369497
30
0
41
1
10
135.255239015599
20
25.7764859645776
30
0
41
1
10
135.286337086118
20
25.7831536781264
30
0
41
1
10
135.300971496872
20
25.7887632482223
30
0
41
1
10
135.324068109212
20
25.8052326231366
30
0
41
1
10
135.33200661886
20
25.8158222217239
30
0
41
1
10
135.335963056505
20
25.8274814117162
30
0
0
SPLINE
5
1BC
100
AcDbEntity
8
1
62
256
6
ByLayer
370
18
48
1
60
0
100
AcDbSpline
70
4
71
3
72
8
73
4
40
0
40
0
40
0
40
0
40
1
40
1
40
1
40
1
41
1
10
135.335963056505
20
25.8274814117162
30
0
41
1
10
135.339816522063
20
25.8320472139879
30
0
41
1
10
135.34367038845
20
25.8366143826191
30
0
41
1
10
135.347524675726
20
25.8411829882486
30
0
0
SPLINE
5
1BD
100
AcDbEntity
8
1
62
256
6
ByLayer
370
18
48
1
60
0
100
AcDbSpline
70
4
71
3
72
24
73
20
40
0
40
0
40
0
40
0
40
0.0624999999999993
40
0.0624999999999993
40
0.124999999999999
40
0.124999999999999
40
0.249999999999999
40
0.249999999999999
40
0.374999999999999
40
0.374999999999999
40
0.499999999999999
40
0.499999999999999
40
0.624999999999999
40
0.624999999999999
40
0.749999999999999
40
0.749999999999999
40
0.875
40
0.875
40
1
40
1
40
1
40
1
41
1
10
135.347524675726
20
25.8411829882486
30
0
41
1
10
135.354623042394
20
25.8495969012761
30
0
41
1
10
135.363423114347
20
25.8568998805458
30
0
41
1
10
135.38328486409
20
25.8700843743472
30
0
41
1
10
135.39432111033
20
25.8759016482212
30
0
41
1
10
135.429164416886
20
25.8913453588561
30
0
41
1
10
135.454749064255
20
25.8990774160018
30
0
41
1
10
135.507613231061
20
25.9110302790277
30
0
41
1
10
135.535007734669
20
25.9152397291453
30
0
41
1
10
135.590410790871
20
25.9208014461789
30
0
41
1
10
135.618251147855
20
25.9221378911393
30
0
41
1
10
135.673896104746
20
25.9221389498099
30
0
41
1
10
135.701422275018
20
25.9207980997936
30
0
41
1
10
135.755236796986
20
25.9152426638144
30
0
41
1
10
135.781482881515
20
25.9110357053587
30
0
41
1
10
135.83125286137
20
25.8990956092558
30
0
41
1
10
135.854897246866
20
25.8913807206445
30
0
41
1
10
135.89673552456
20
25.8707569766402
30
0
41
1
10
135.914956748069
20
25.8580018900938
30
0
41
1
10
135.925903451176
20
25.8411829882486
30
0
0
SPLINE
5
1BE
100
AcDbEntity
8
1
62
256
6
ByLayer
370
18
48
1
60
0
100
AcDbSpline
70
4
71
3
72
22
73
18
40
0
40
0
40
0
40
0
40
0.0625000000000005
40
0.0625000000000005
40
0.125000000000001
40
0.125000000000001
40
0.187500000000002
40
0.187500000000002
40
0.250000000000002
40
0.250000000000002
40
0.375000000000002
40
0.375000000000002
40
0.500000000000002
40
0.500000000000002
40
0.750000000000001
40
0.750000000000001
40
1
40
1
40
1
40
1
41
1
10
134.82765464117
20
26.115805783656
30
0
41
1
10
134.821742950972
20
26.1122105561372
30
0
41
1
10
134.816603593377
20
26.1079971972332
30
0
41
1
10
134.808018471193
20
26.0982188331013
30
0
41
1
10
134.80457331681
20
26.0925702786531
30
0
41
1
10
134.799876728704
20
26.0805791604235
30
0
41
1
10
134.798541700196
20
26.0740957051297
30
0
41
1
10
134.797763390299
20
26.060800441324
30
0
41
1
10
134.798292720136
20
26.0540592480308
30
0
41
1
10
134.802056885144
20
26.0336418530208
30
0
41
1
10
134.807415773258
20
26.0200449545338
30
0
41
1
10
134.821232226148
20
25.9940051940975
30
0
41
1
10
134.829829625799
20
25.9813195747364
30
0
41
1
10
134.858467300676
20
25.9450763557983
30
0
41
1
10
134.881502152555
20
25.9229354126347
30
0
41
1
10
134.931434334301
20
25.8826896408271
30
0
41
1
10
134.958470722908
20
25.8645244039419
30
0
41
1
10
134.986945145784
20
25.8483730481031
30
0
0
SPLINE
5
1BF
100
AcDbEntity
8
1
62
256
6
ByLayer
370
18
48
1
60
0
100
AcDbSpline
70
4
71
3
72
8
73
4
40
0
40
0
40
0
40
0
40
1
40
1
40
1
40
1
41
1
10
134.838667385973
20
26.1298186945418
30
0
41
1
10
134.834996086783
20
26.1251462938082
30
0
41
1
10
134.831325178044
20
26.1204753473379
30
0
41
1
10
134.82765464117
20
26.115805783656
30
0
0
SPLINE
5
1C0
100
AcDbEntity
8
1
62
256
6
ByLayer
370
18
48
1
60
0
100
AcDbSpline
70
4
71
3
72
22
73
18
40
0
40
0
40
0
40
0
40
0.0625000000000009
40
0.0625000000000009
40
0.125000000000002
40
0.125000000000002
40
0.187500000000003
40
0.187500000000003
40
0.250000000000004
40
0.250000000000004
40
0.375000000000003
40
0.375000000000003
40
0.500000000000002
40
0.500000000000002
40
0.750000000000001
40
0.750000000000001
40
1
40
1
40
1
40
1
41
1
10
134.539968883681
20
26.6186745129728
30
0
41
1
10
134.532653373427
20
26.6175331337573
30
0
41
1
10
134.525219339797
20
26.6173308209061
30
0
41
1
10
134.510093551458
20
26.6189854053738
30
0
41
1
10
134.502319564763
20
26.6209035599046
30
0
41
1
10
134.487475001383
20
26.6266508916949
30
0
41
1
10
134.480211772144
20
26.6305298081616
30
0
41
1
10
134.466548935162
20
26.6397564301083
30
0
41
1
10
134.460201910893
20
26.6450349609812
30
0
41
1
10
134.442320902584
20
26.6624528793932
30
0
41
1
10
134.432183271297
20
26.6759435749806
30
0
41
1
10
134.414913991825
20
26.7042410291138
30
0
41
1
10
134.407629190214
20
26.7193171677108
30
0
41
1
10
134.389214479327
20
26.7653205418856
30
0
41
1
10
134.381220488367
20
26.7974173715839
30
0
41
1
10
134.371249433335
20
26.8618812135681
30
0
41
1
10
134.369300522713
20
26.8943816777587
30
0
41
1
10
134.370054897981
20
26.9266843894364
30
0
0
SPLINE
5
1C1
100
AcDbEntity
8
1
62
256
6
ByLayer
370
18
48
1
60
0
100
AcDbSpline
70
4
71
3
72
8
73
4
40
0
40
0
40
0
40
0
40
1
40
1
40
1
40
1
41
1
10
134.56082003348
20
26.6154900962537
30
0
41
1
10
134.553868729177
20
26.6165510763362
30
0
41
1
10
134.546918360917
20
26.6176125569996
30
0
41
1
10
134.539968883681
20
26.6186745129728
30
0
0
SPLINE
5
1C2
100
AcDbEntity
8
1
62
256
6
ByLayer
370
18
48
1
60
0
100
AcDbSpline
70
4
71
3
72
24
73
20
40
0
40
0
40
0
40
0
40
0.0624999999999998
40
0.0624999999999998
40
0.125
40
0.125
40
0.25
40
0.25
40
0.374999999999999
40
0.374999999999999
40
0.499999999999999
40
0.499999999999999
40
0.624999999999999
40
0.624999999999999
40
0.749999999999999
40
0.749999999999999
40
0.875
40
0.875
40
1
40
1
40
1
40
1
41
1
10
134.838667385973
20
26.1298186945418
30
0
41
1
10
134.845467956697
20
26.1384736665281
30
0
41
1
10
134.850245495903
20
26.1481288070872
30
0
41
1
10
134.857144296985
20
26.1688062863699
30
0
41
1
10
134.859187833851
20
26.1797587185202
30
0
41
1
10
134.862163757577
20
26.2130852775106
30
0
41
1
10
134.860062748687
20
26.2366272635505
30
0
41
1
10
134.850676149922
20
26.2836406702597
30
0
41
1
10
134.84339077962
20
26.307253700104
30
0
41
1
10
134.824505051569
20
26.354890574917
30
0
41
1
10
134.812953056158
20
26.378685096594
30
0
41
1
10
134.786227166684
20
26.4254671835974
30
0
41
1
10
134.771133398433
20
26.448330311825
30
0
41
1
10
134.737640312908
20
26.4923502100723
30
0
41
1
10
134.719270857319
20
26.5134732992089
30
0
41
1
10
134.679375890797
20
26.5524337618884
30
0
41
1
10
134.657809420612
20
26.5703805340032
30
0
41
1
10
134.611257041031
20
26.5999163543987
30
0
41
1
10
134.586438641939
20
26.6115799188055
30
0
41
1
10
134.56082003348
20
26.6154900962537
30
0
0
SPLINE
5
1C3
100
AcDbEntity
8
1
62
256
6
ByLayer
370
18
48
1
60
0
100
AcDbSpline
70
4
71
3
72
18
73
14
40
0
40
0
40
0
40
0
40
0.25
40
0.25
40
0.5
40
0.5
40
0.625
40
0.625
40
0.75
40
0.75
40
0.875
40
0.875
40
1
40
1
40
1
40
1
41
1
10
136.938344449131
20
26.9266843894364
30
0
41
1
10
136.939098466167
20
26.9589717614396
30
0
41
1
10
136.937284994808
20
26.9910336672789
30
0
41
1
10
136.927907749331
20
27.0536966551347
30
0
41
1
10
136.920398873745
20
27.0843214281423
30
0
41
1
10
136.903096442121
20
27.1269220502312
30
0
41
1
10
136.89633534661
20
27.1404663839684
30
0
41
1
10
136.880269183732
20
27.1652081546391
30
0
41
1
10
136.870781016838
20
27.1766346335603
30
0
41
1
10
136.848769117971
20
27.1944359548528
30
0
41
1
10
136.836044600929
20
27.2008452930392
30
0
41
1
10
136.808627652235
20
27.2047034714067
30
0
41
1
10
136.794455223796
20
27.2019702680257
30
0
41
1
10
136.781236658162
20
27.1953232568523
30
0
0
SPLINE
5
1C4
100
AcDbEntity
8
1
62
256
6
ByLayer
370
18
48
1
60
0
100
AcDbSpline
70
4
71
3
72
8
73
4
40
0
40
0
40
0
40
0
40
1
40
1
40
1
40
1
41
1
10
136.48440720892
20
27.678432910552
30
0
41
1
10
136.487455821644
20
27.6850196812424
30
0
41
1
10
136.490503707039
20
27.6916060333614
30
0
41
1
10
136.493550900673
20
27.6981919861692
30
0
0
SPLINE
5
1C5
100
AcDbEntity
8
1
62
256
6
ByLayer
370
18
48
1
60
0
100
AcDbSpline
70
4
71
3
72
22
73
18
40
0
40
0
40
0
40
0
40
0.0624999999999992
40
0.0624999999999992
40
0.124999999999998
40
0.124999999999998
40
0.187499999999998
40
0.187499999999998
40
0.249999999999997
40
0.249999999999997
40
0.374999999999997
40
0.374999999999997
40
0.499999999999998
40
0.499999999999998
40
0.749999999999999
40
0.749999999999999
40
1
40
1
40
1
40
1
41
1
10
136.493550900673
20
27.6981919861692
30
0
41
1
10
136.498753310685
20
27.7039678049717
30
0
41
1
10
136.503194512935
20
27.7103275532571
30
0
41
1
10
136.510407001448
20
27.7243259041868
30
0
41
1
10
136.513171388249
20
27.7320673915641
30
0
41
1
10
136.516612285775
20
27.7479189700056
30
0
41
1
10
136.517355435616
20
27.7562220806139
30
0
41
1
10
136.517055348119
20
27.7728327393883
30
0
41
1
10
136.516042940887
20
27.7810590923917
30
0
41
1
10
136.510955004556
20
27.805546253157
30
0
41
1
10
136.504897334176
20
27.8212914684172
30
0
41
1
10
136.489932350843
20
27.8508622389122
30
0
41
1
10
136.480875833658
20
27.8649593564578
30
0
41
1
10
136.45110467034
20
27.9046873407458
30
0
41
1
10
136.427616393372
20
27.9282222813937
30
0
41
1
10
136.377095231452
20
27.9702787974781
30
0
41
1
10
136.349928624204
20
27.9888443749308
30
0
41
1
10
136.321454201329
20
28.0049957307696
30
0
0
SPLINE
5
1C6
100
AcDbEntity
8
1
62
256
6
ByLayer
370
18
48
1
60
0
100
AcDbSpline
70
4
71
3
72
8
73
4
40
0
40
0
40
0
40
0
40
1
40
1
40
1
40
1
41
1
10
136.781236658162
20
27.1953232568523
30
0
41
1
10
136.774910524166
20
27.1944688236997
30
0
41
1
10
136.76858317925
20
27.1936148987144
30
0
41
1
10
136.762254561413
20
27.1927615088401
30
0
0
SPLINE
5
1C7
100
AcDbEntity
8
1
62
256
6
ByLayer
370
18
48
1
60
0
100
AcDbSpline
70
4
71
3
72
24
73
20
40
0
40
0
40
0
40
0
40
0.062499999999999
40
0.062499999999999
40
0.124999999999998
40
0.124999999999998
40
0.249999999999998
40
0.249999999999998
40
0.374999999999998
40
0.374999999999998
40
0.499999999999998
40
0.499999999999998
40
0.624999999999999
40
0.624999999999999
40
0.749999999999999
40
0.749999999999999
40
0.875
40
0.875
40
1
40
1
40
1
40
1
41
1
10
136.762254561413
20
27.1927615088401
30
0
41
1
10
136.750599267788
20
27.1911898371391
30
0
41
1
10
136.739167960371
20
27.1918362796096
30
0
41
1
10
136.716560697222
20
27.1960781447989
30
0
41
1
10
136.705459554131
20
27.1997081650151
30
0
41
1
10
136.673260946527
20
27.2137228972074
30
0
41
1
10
136.653138070307
20
27.2271747907232
30
0
41
1
10
136.615580144535
20
27.2589110617376
30
0
41
1
10
136.598098930326
20
27.2772932160188
30
0
41
1
10
136.565765266848
20
27.3176695888103
30
0
41
1
10
136.551009299391
20
27.3395375073961
30
0
41
1
10
136.52427692872
20
27.3862620394555
30
0
41
1
10
136.512439906525
20
27.410890926721
30
0
41
1
10
136.49230008358
20
27.4622188822634
30
0
41
1
10
136.484010340462
20
27.4888766200694
30
0
41
1
10
136.472250970794
20
27.5433103934442
30
0
41
1
10
136.468707650419
20
27.5711802821519
30
0
41
1
10
136.469255015439
20
27.6266699482067
30
0
41
1
10
136.473184021291
20
27.6541843194709
30
0
41
1
10
136.48440720892
20
27.678432910552
30
0
0
SPLINE
5
1C8
100
AcDbEntity
8
1
62
256
6
ByLayer
370
18
48
1
60
0
100
AcDbSpline
70
4
71
3
72
20
73
16
40
0
40
0
40
0
40
0
40
0.250000000000001
40
0.250000000000001
40
0.500000000000002
40
0.500000000000002
40
0.625000000000002
40
0.625000000000002
40
0.750000000000003
40
0.750000000000003
40
0.812500000000002
40
0.812500000000002
40
0.875000000000001
40
0.875000000000001
40
1
40
1
40
1
40
1
41
1
10
134.370054897981
20
26.9266843894364
30
0
41
1
10
134.370809182097
20
26.9589831979225
30
0
41
1
10
134.374261502507
20
26.9910563509898
30
0
41
1
10
134.387205469821
20
27.0537405583176
30
0
41
1
10
134.396635067958
20
27.0843749529392
30
0
41
1
10
134.417160193214
20
27.1269858198698
30
0
41
1
10
134.42510860608
20
27.1406413018482
30
0
41
1
10
134.443702204713
20
27.1655013315771
30
0
41
1
10
134.45421587962
20
27.1766486870817
30
0
41
1
10
134.472959407632
20
27.1901059778586
30
0
41
1
10
134.479536249974
20
27.1938975010989
30
0
41
1
10
134.493479942494
20
27.1997760306114
30
0
41
1
10
134.500926831364
20
27.2018480187104
30
0
41
1
10
134.523354227893
20
27.2046697507932
30
0
41
1
10
134.539018272485
20
27.2019647637344
30
0
41
1
10
134.553435541068
20
27.1953232568523
30
0
0
SPLINE
5
1C9
100
AcDbEntity
8
1
62
256
6
ByLayer
370
18
48
1
60
0
100
AcDbSpline
70
4
71
3
72
24
73
20
40
0
40
0
40
0
40
0
40
0.0625000000000005
40
0.0625000000000005
40
0.125000000000001
40
0.125000000000001
40
0.250000000000001
40
0.250000000000001
40
0.5
40
0.5
40
0.625
40
0.625
40
0.75
40
0.75
40
0.875
40
0.875
40
0.9375
40
0.9375
40
1
40
1
40
1
40
1
41
1
10
134.574301232243
20
27.1927615088401
30
0
41
1
10
134.587125535325
20
27.1911882065248
30
0
41
1
10
134.599746620821
20
27.1918375034941
30
0
41
1
10
134.624749749528
20
27.196090133654
30
0
41
1
10
134.637048683419
20
27.1997279114721
30
0
41
1
10
134.672742608887
20
27.2137706882576
30
0
41
1
10
134.695097060227
20
27.2272579299138
30
0
41
1
10
134.757568287491
20
27.2750457146028
30
0
41
1
10
134.793222513771
20
27.3165593906884
30
0
41
1
10
134.836573141415
20
27.3867817163658
30
0
41
1
10
134.849081183429
20
27.4111859090499
30
0
41
1
10
134.870137700167
20
27.4620062926499
30
0
41
1
10
134.878767209157
20
27.4887083744814
30
0
41
1
10
134.890581650037
20
27.5430929526161
30
0
41
1
10
134.89387753166
20
27.5708084249149
30
0
41
1
10
134.892651038028
20
27.6124619445635
30
0
41
1
10
134.891204256725
20
27.6261560473363
30
0
41
1
10
134.885459488569
20
27.653041511852
30
0
41
1
10
134.881134125569
20
27.6662551073935
30
0
41
1
10
134.8748326552
20
27.678432910552
30
0
0
SPLINE
5
1CA
100
AcDbEntity
8
1
62
256
6
ByLayer
370
18
48
1
60
0
100
AcDbSpline
70
4
71
3
72
8
73
4
40
0
40
0
40
0
40
0
40
1
40
1
40
1
40
1
41
1
10
134.553435541068
20
27.1953232568523
30
0
41
1
10
134.560389864649
20
27.1944688236997
30
0
41
1
10
134.567345080022
20
27.1936148987144
30
0
41
1
10
134.574301232243
20
27.1927615088401
30
0
0
SPLINE
5
1CB
100
AcDbEntity
8
1
62
256
6
ByLayer
370
18
48
1
60
0
100
AcDbSpline
70
4
71
3
72
18
73
14
40
0
40
0
40
0
40
0
40
0.25
40
0.25
40
0.5
40
0.5
40
0.625
40
0.625
40
0.75
40
0.75
40
0.875
40
0.875
40
1
40
1
40
1
40
1
41
1
10
135.037309425754
20
28.0049957307696
30
0
41
1
10
135.008094507567
20
27.9888520447679
30
0
41
1
10
134.98023217902
20
27.9703115877217
30
0
41
1
10
134.928366983354
20
27.9282547493439
30
0
41
1
10
134.904321272661
20
27.9047926029339
30
0
41
1
10
134.873845512031
20
27.8650006857428
30
0
41
1
10
134.86470192333
20
27.8510324781326
30
0
41
1
10
134.849585401361
20
27.8215325234421
30
0
41
1
10
134.84348764981
20
27.8056927730846
30
0
41
1
10
134.837040013233
20
27.7731118993669
30
0
41
1
10
134.836743760103
20
27.756132059339
30
0
41
1
10
134.844862657385
20
27.7241263159485
30
0
41
1
10
134.853217646273
20
27.7097489618026
30
0
41
1
10
134.864608598098
20
27.6981919861692
30
0
0
SPLINE
5
1CC
100
AcDbEntity
8
1
62
256
6
ByLayer
370
18
48
1
60
0
100
AcDbSpline
70
4
71
3
72
8
73
4
40
0
40
0
40
0
40
0
40
1
40
1
40
1
40
1
41
1
10
134.864608598098
20
27.6981919861692
30
0
41
1
10
134.868016281395
20
27.6916060333614
30
0
41
1
10
134.871424294941
20
27.6850196812424
30
0
41
1
10
134.8748326552
20
27.678432910552
30
0
0
SPLINE
5
1CD
100
AcDbEntity
8
1
62
256
6
ByLayer
370
18
48
1
60
0
100
AcDbSpline
70
4
71
3
72
18
73
14
40
0
40
0
40
0
40
0
40
0.25
40
0.25
40
0.500000000000001
40
0.500000000000001
40
0.625000000000001
40
0.625000000000001
40
0.75
40
0.75
40
0.875
40
0.875
40
1
40
1
40
1
40
1
41
1
10
136.321454201329
20
28.0049957307696
30
0
41
1
10
136.292993300178
20
28.0211394167712
30
0
41
1
10
136.263252550297
20
28.0348605459598
30
0
41
1
10
136.20171575722
20
28.0563716428409
30
0
41
1
10
136.169935478651
20
28.0642281315409
30
0
41
1
10
136.121589905624
20
28.0687811761115
30
0
41
1
10
136.105457869209
20
28.0690562675316
30
0
41
1
10
136.073703125165
20
28.0660568064042
30
0
41
1
10
136.057766105899
20
28.0627229495707
30
0
41
1
10
136.028427058763
20
28.0506473434377
30
0
41
1
10
136.014868408397
20
28.0417304855114
30
0
41
1
10
135.99430417001
20
28.0174756505246
30
0
41
1
10
135.987779707093
20
28.0025387459775
30
0
41
1
10
135.985242485338
20
27.9865163581089
30
0
0
SPLINE
5
1CE
100
AcDbEntity
8
1
62
256
6
ByLayer
370
18
48
1
60
0
100
AcDbSpline
70
4
71
3
72
8
73
4
40
0
40
0
40
0
40
0
40
1
40
1
40
1
40
1
41
1
10
135.397171143716
20
27.9670686168452
30
0
41
1
10
135.393574947452
20
27.9735515924315
30
0
41
1
10
135.389979129147
20
27.9800341667115
30
0
41
1
10
135.38638367082
20
27.9865163581089
30
0
0
SPLINE
5
1CF
100
AcDbEntity
8
1
62
256
6
ByLayer
370
18
48
1
60
0
100
AcDbSpline
70
4
71
3
72
22
73
18
40
0
40
0
40
0
40
0
40
0.0624999999999993
40
0.0624999999999993
40
0.124999999999999
40
0.124999999999999
40
0.187499999999998
40
0.187499999999998
40
0.249999999999997
40
0.249999999999997
40
0.374999999999998
40
0.374999999999998
40
0.499999999999999
40
0.499999999999999
40
0.749999999999999
40
0.749999999999999
40
1
40
1
40
1
40
1
41
1
10
135.38638367082
20
27.9865163581089
30
0
41
1
10
135.384729444664
20
27.9945238517689
30
0
41
1
10
135.382145265605
20
28.0021591075961
30
0
41
1
10
135.374939553227
20
28.016612867457
30
0
41
1
10
135.370229623519
20
28.0234826667681
30
0
41
1
10
135.359275519031
20
28.0355171435253
30
0
41
1
10
135.352912702858
20
28.0408511653242
30
0
41
1
10
135.339135458184
20
28.0498928996362
30
0
41
1
10
135.331805706432
20
28.0535833016217
30
0
41
1
10
135.308780157831
20
28.0626874268526
30
0
41
1
10
135.292354312791
20
28.0660161049121
30
0
41
1
10
135.259455097495
20
28.0690549263033
30
0
41
1
10
135.242672145118
20
28.0687816543441
30
0
41
1
10
135.192985733745
20
28.0642486471321
30
0
41
1
10
135.160263598334
20
28.0563837568239
30
0
41
1
10
135.097097270058
20
28.0348818030627
30
0
41
1
10
135.066538223897
20
28.0211470866084
30
0
41
1
10
135.037309425754
20
28.0049957307696
30
0
0
SPLINE
5
1D0
100
AcDbEntity
8
1
62
256
6
ByLayer
370
18
48
1
60
0
100
AcDbSpline
70
4
71
3
72
8
73
4
40
0
40
0
40
0
40
0
40
1
40
1
40
1
40
1
41
1
10
135.985242485338
20
27.9865163581089
30
0
41
1
10
135.98201236302
20
27.9800341667115
30
0
41
1
10
135.978781519977
20
27.9735515924315
30
0
41
1
10
135.975549919167
20
27.9670686168452
30
0
0
SPLINE
5
1D1
100
AcDbEntity
8
1
62
256
6
ByLayer
370
18
48
1
60
0
100
AcDbSpline
70
4
71
3
72
24
73
20
40
0
40
0
40
0
40
0
40
0.0624999999999993
40
0.0624999999999993
40
0.124999999999999
40
0.124999999999999
40
0.249999999999999
40
0.249999999999999
40
0.374999999999999
40
0.374999999999999
40
0.499999999999999
40
0.499999999999999
40
0.624999999999999
40
0.624999999999999
40
0.75
40
0.75
40
0.875
40
0.875
40
1
40
1
40
1
40
1
41
1
10
135.975549919167
20
27.9670686168452
30
0
41
1
10
135.969598342173
20
27.9551290455258
30
0
41
1
10
135.961868159664
20
27.9445368278931
30
0
41
1
10
135.944033234881
20
27.9251211197842
30
0
41
1
10
135.933945733161
20
27.916387052135
30
0
41
1
10
135.901721972901
20
27.8928898811925
30
0
41
1
10
135.877593965642
20
27.8806795701911
30
0
41
1
10
135.827067997181
20
27.8615382151794
30
0
41
1
10
135.800556749091
20
27.8546133088546
30
0
41
1
10
135.746335317081
20
27.8454188392551
30
0
41
1
10
135.718790892204
20
27.8431725888518
30
0
41
1
10
135.663146166454
20
27.8431708195686
30
0
41
1
10
135.635323121175
20
27.8454243738511
30
0
41
1
10
135.580328311061
20
27.8546084548958
30
0
41
1
10
135.553199493746
20
27.8615292624846
30
0
41
1
10
135.501093642099
20
27.8806506978834
30
0
41
1
10
135.475995334326
20
27.8928354847214
30
0
41
1
10
135.430658492021
20
27.9242151185012
30
0
41
1
10
135.41041020983
20
27.9432021379029
30
0
41
1
10
135.397171143716
20
27.9670686168452
30
0
0
SPLINE
5
1D2
100
AcDbEntity
8
1
62
256
6
ByLayer
370
18
48
1
60
0
100
AcDbSpline
70
4
71
1
72
4
73
2
40
0
40
0
40
1
40
1
41
1
10
139.500006277569
20
21.8906676058797
30
0
41
1
10
139.779080446691
20
22.8060968115846
30
0
0
SPLINE
5
1D3
100
AcDbEntity
8
1
62
256
6
ByLayer
370
13
48
1
60
0
100
AcDbSpline
70
4
71
3
72
8
73
4
40
0
40
0
40
0
40
0
40
1
40
1
40
1
40
1
41
1
10
133.184502164337
20
-12.2424053561836
30
0
41
1
10
132.888529944182
20
-13.6586974660968
30
0
41
1
10
132.592557724027
20
-15.0749895760101
30
0
41
1
10
132.296585503872
20
-16.4912816859233
30
0
0
SPLINE
5
1D4
100
AcDbEntity
8
1
62
256
6
ByLayer
370
13
48
1
60
0
100
AcDbSpline
70
4
71
3
72
8
73
4
40
0
40
0
40
0
40
0
40
1
40
1
40
1
40
1
41
1
10
131.532405026155
20
-16.0214871633428
30
0
41
1
10
131.906806236958
20
-14.7164200472721
30
0
41
1
10
132.281207447762
20
-13.4113529312014
30
0
41
1
10
132.655608658565
20
-12.1062858151308
30
0
0
SPLINE
5
1D5
100
AcDbEntity
8
1
62
256
6
ByLayer
370
18
48
1
60
0
100
AcDbSpline
70
4
71
3
72
32
73
28
40
0
40
0
40
0
40
0
40
0.124999999999974
40
0.124999999999974
40
0.18749999999996
40
0.18749999999996
40
0.218749999999955
40
0.218749999999955
40
0.24999999999995
40
0.24999999999995
40
0.374999999999881
40
0.374999999999881
40
0.406249999999852
40
0.406249999999852
40
0.437499999999823
40
0.437499999999823
40
0.499999999999818
40
0.499999999999818
40
0.624999999999867
40
0.624999999999867
40
0.749999999999916
40
0.749999999999916
40
0.812499999999932
40
0.812499999999932
40
0.874999999999947
40
0.874999999999947
40
1
40
1
40
1
40
1
41
1
10
132.296585503872
20
31.5
30
0
41
1
10
132.245768002179
20
31.5
30
0
41
1
10
132.195756888518
20
31.494988024028
30
0
41
1
10
132.121917142369
20
31.4801550748949
30
0
41
1
10
132.097501438619
20
31.4739829493499
30
0
41
1
10
132.061182940887
20
31.4628287224348
30
0
41
1
10
132.049105311535
20
31.458784389176
30
0
41
1
10
132.025307216182
20
31.4501440470099
30
0
41
1
10
132.013558892089
20
31.4455407568644
30
0
41
1
10
131.955558078147
20
31.4211327757285
30
0
41
1
10
131.91150721139
20
31.3971925576145
30
0
41
1
10
131.859389479141
20
31.3617338003429
30
0
41
1
10
131.849114527498
20
31.3543629285175
30
0
41
1
10
131.82886741273
20
31.3390524271471
30
0
41
1
10
131.818902855358
20
31.331115687582
30
0
41
1
10
131.789798926234
20
31.3067219889382
30
0
41
1
10
131.771331780481
20
31.2895979477611
30
0
41
1
10
131.718658903452
20
31.2357128080913
30
0
41
1
10
131.687156107397
20
31.1964622942074
30
0
41
1
10
131.631587681257
20
31.111111603419
30
0
41
1
10
131.608383691009
20
31.0663161791481
30
0
41
1
10
131.580220313624
20
30.996322901583
30
0
41
1
10
131.571939962962
20
30.9725095087898
30
0
41
1
10
131.557627230146
20
30.9239037139017
30
0
41
1
10
131.551592326035
20
30.8990432960215
30
0
41
1
10
131.537210348152
20
30.8243180541301
30
0
41
1
10
131.532407390122
20
30.7739125897269
30
0
41
1
10
131.532405026155
20
30.7229165738729
30
0
0
SPLINE
5
1D6
100
AcDbEntity
8
1
62
256
6
ByLayer
370
18
48
1
60
0
100
AcDbSpline
70
4
71
3
72
16
73
12
40
0
40
0
40
0
40
0
40
0.244308171327273
40
0.244308171327273
40
0.496205447551467
40
0.496205447551467
40
0.622154085663598
40
0.622154085663598
40
0.748102723775728
40
0.748102723775728
40
1
40
1
40
1
40
1
41
1
10
130.218265095021
20
16.4334118891766
30
0
41
1
10
130.184418994114
20
16.4178723564637
30
0
41
1
10
130.153973964609
20
16.4004618127054
30
0
41
1
10
130.099242615037
20
16.3611915651726
30
0
41
1
10
130.076038624789
20
16.3398190468679
30
0
41
1
10
130.047875247404
20
16.3058177458754
30
0
41
1
10
130.039594896742
20
16.2941521456466
30
0
41
1
10
130.025282163926
20
16.2701473651823
30
0
41
1
10
130.019247259815
20
16.257773282203
30
0
41
1
10
130.004865281932
20
16.2202977435725
30
0
41
1
10
130.000062323902
20
16.1946517379549
30
0
41
1
10
130.000059959935
20
16.1683412644769
30
0
0
SPLINE
5
1D7
100
AcDbEntity
8
1
62
256
6
ByLayer
370
18
48
1
60
0
100
AcDbSpline
70
4
71
3
72
28
73
24
40
0
40
0
40
0
40
0
40
0.125000000000016
40
0.125000000000016
40
0.187500000000025
40
0.187500000000025
40
0.250000000000034
40
0.250000000000034
40
0.375000000000051
40
0.375000000000051
40
0.437500000000033
40
0.437500000000033
40
0.500000000000016
40
0.500000000000016
40
0.625000000000025
40
0.625000000000025
40
0.750000000000034
40
0.750000000000034
40
0.812500000000022
40
0.812500000000022
40
0.87500000000001
40
0.87500000000001
40
1
40
1
40
1
40
1
41
1
10
132.296585503872
20
-16.4912816859233
30
0
41
1
10
132.245768002179
20
-16.4875162446448
30
0
41
1
10
132.195756888518
20
-16.4811457157707
30
0
41
1
10
132.121917142369
20
-16.4677877938666
30
0
41
1
10
132.097501438619
20
-16.4626969717137
30
0
41
1
10
132.049076774976
20
-16.4512013156208
30
0
41
1
10
132.025159054877
20
-16.4448095605895
30
0
41
1
10
131.955558078147
20
-16.4240792141069
30
0
41
1
10
131.91150721139
20
-16.4080862861433
30
0
41
1
10
131.848965932691
20
-16.3808282835123
30
0
41
1
10
131.828604165066
20
-16.3711340296246
30
0
41
1
10
131.789798926234
20
-16.3509653459479
30
0
41
1
10
131.771331780481
20
-16.3404922255193
30
0
41
1
10
131.718658903452
20
-16.3079388870386
30
0
41
1
10
131.687156107397
20
-16.2847353414286
30
0
41
1
10
131.631587681257
20
-16.2352373979304
30
0
41
1
10
131.608383691009
20
-16.2097005747258
30
0
41
1
10
131.580220313624
20
-16.1703987204973
30
0
41
1
10
131.571939962962
20
-16.1571237246231
30
0
41
1
10
131.557627230146
20
-16.1302197677279
30
0
41
1
10
131.551592326035
20
-16.1165544562349
30
0
41
1
10
131.537210348152
20
-16.07575780872
30
0
41
1
10
131.532407390122
20
-16.048601626831
30
0
41
1
10
131.532405026155
20
-16.0214871633428
30
0
0
SPLINE
5
1D8
100
AcDbEntity
8
1
62
256
6
ByLayer
370
18
48
1
60
0
100
AcDbSpline
70
4
71
3
72
20
73
16
40
0
40
0
40
0
40
0
40
0.0582879268487222
40
0.0582879268487222
40
0.215239939040602
40
0.215239939040602
40
0.372191951232481
40
0.372191951232481
40
0.529143963424361
40
0.529143963424361
40
0.686095975616241
40
0.686095975616241
40
0.84304798780812
40
0.84304798780812
40
1
40
1
40
1
40
1
41
1
10
132.703201813717
20
-12.1101771470806
30
0
41
1
10
132.707666175127
20
-12.1138007231753
30
0
41
1
10
132.712525837245
20
-12.1174113458855
30
0
41
1
10
132.731863953606
20
-12.1306310510313
30
0
41
1
10
132.748539028012
20
-12.1399867033965
30
0
41
1
10
132.786932450679
20
-12.1581413285163
30
0
41
1
10
132.808891626325
20
-12.1670069296061
30
0
41
1
10
132.856268500222
20
-12.1834860573993
30
0
41
1
10
132.881797444755
20
-12.1911764161964
30
0
41
1
10
132.936570606392
20
-12.2054485012265
30
0
41
1
10
132.965777760827
20
-12.2119931339083
30
0
41
1
10
133.025514843862
20
-12.2234116970461
30
0
41
1
10
133.056331830648
20
-12.2283656764025
30
0
41
1
10
133.119936595248
20
-12.2367041794253
30
0
41
1
10
133.152169944053
20
-12.240009624933
30
0
41
1
10
133.184502164337
20
-12.2424053561836
30
0
0
SPLINE
5
1D9
100
AcDbEntity
8
1
62
256
6
ByLayer
370
13
48
1
60
0
100
AcDbSpline
70
4
71
3
72
8
73
4
40
0
40
0
40
0
40
0
40
1
40
1
40
1
40
1
41
1
10
139.235759562348
20
-17.005455967769
30
0
41
1
10
139.192345290681
20
-15.5640162244011
30
0
41
1
10
139.148931019014
20
-14.1225764810333
30
0
41
1
10
139.105516747347
20
-12.6811367376653
30
0
0
SPLINE
5
1DA
100
AcDbEntity
8
1
62
256
6
ByLayer
370
13
48
1
60
0
100
AcDbSpline
70
4
71
3
72
8
73
4
40
0
40
0
40
0
40
0
40
1
40
1
40
1
40
1
41
1
10
139.600129307911
20
-12.5762566212189
30
0
41
1
10
139.733399551962
20
-13.9338073854264
30
0
41
1
10
139.866669796014
20
-15.2913581496338
30
0
41
1
10
139.999940040065
20
-16.6489089138412
30
0
0
SPLINE
5
1DB
100
AcDbEntity
8
1
62
256
6
ByLayer
370
18
48
1
60
0
100
AcDbSpline
70
4
71
3
72
22
73
18
40
0
40
0
40
0
40
0
40
0.125
40
0.125
40
0.25
40
0.25
40
0.375
40
0.375
40
0.5
40
0.5
40
0.625
40
0.625
40
0.75
40
0.75
40
0.875
40
0.875
40
1
40
1
40
1
40
1
41
1
10
139.105516747347
20
-12.6811367376653
30
0
41
1
10
139.137853258801
20
-12.6835327868802
30
0
41
1
10
139.169591627076
20
-12.6849737175625
30
0
41
1
10
139.231928507079
20
-12.6860354493207
30
0
41
1
10
139.262811310353
20
-12.6856405340784
30
0
41
1
10
139.321937291521
20
-12.682989687144
30
0
41
1
10
139.349963248786
20
-12.6807650298425
30
0
41
1
10
139.402999940602
20
-12.6745516739205
30
0
41
1
10
139.428208714547
20
-12.6705059447893
30
0
41
1
10
139.473640625182
20
-12.6609046420812
30
0
41
1
10
139.494068652017
20
-12.6553453119489
30
0
41
1
10
139.53030600489
20
-12.6426950870815
30
0
41
1
10
139.546047944379
20
-12.6355820076187
30
0
41
1
10
139.57147853492
20
-12.6203987700004
30
0
41
1
10
139.581386425397
20
-12.6122631528282
30
0
41
1
10
139.595378183281
20
-12.5948633819007
30
0
41
1
10
139.599333008576
20
-12.5857158841396
30
0
41
1
10
139.600129307911
20
-12.576256621219
30
0
0
SPLINE
5
1DC
100
AcDbEntity
8
1
62
256
6
ByLayer
370
18
48
1
60
0
100
AcDbSpline
70
4
71
3
72
29
73
25
40
0
40
0
40
0
40
0
40
0.124999999999988
40
0.124999999999988
40
0.187499999999978
40
0.187499999999978
40
0.249999999999968
40
0.249999999999968
40
0.374999999999947
40
0.374999999999947
40
0.437499999999951
40
0.437499999999951
40
0.499999999999954
40
0.499999999999954
40
0.624999999999961
40
0.624999999999961
40
0.687499999999968
40
0.687499999999968
40
0.749999999999975
40
0.812499999999981
40
0.812499999999981
40
0.874999999999988
40
0.874999999999988
40
1
40
1
40
1
40
1
41
1
10
139.999940040065
20
-16.6489089138412
30
0
41
1
10
139.999937675875
20
-16.6760255944121
30
0
41
1
10
139.995133866909
20
-16.702385993059
30
0
41
1
10
139.980885438612
20
-16.7408172836871
30
0
41
1
10
139.974954118583
20
-16.7534415600934
30
0
41
1
10
139.960654380918
20
-16.7783062424361
30
0
41
1
10
139.952291708472
20
-16.7905083732262
30
0
41
1
10
139.924060544292
20
-16.8257743572143
30
0
41
1
10
139.900942329171
20
-16.8477638418517
30
0
41
1
10
139.859748532531
20
-16.8784414221004
30
0
41
1
10
139.84484419639
20
-16.8883258457016
30
0
41
1
10
139.813129311792
20
-16.9070589645392
30
0
41
1
10
139.796413576997
20
-16.915863563582
30
0
41
1
10
139.743757215921
20
-16.9406345097681
30
0
41
1
10
139.705331254269
20
-16.9549736027919
30
0
41
1
10
139.642539625782
20
-16.9731085610016
30
0
41
1
10
139.62079589829
20
-16.9785615282016
30
0
41
1
10
139.576553150996
20
-16.9880906687133
30
0
41
1
10
139.531327354593
20
-16.9963121593424
30
0
41
1
10
139.484162888192
20
-17.0019548351603
30
0
41
1
10
139.436015127293
20
-17.0062895346799
30
0
41
1
10
139.411328403227
20
-17.0078047755618
30
0
41
1
10
139.336832822784
20
-17.010279269292
30
0
41
1
10
139.286587330216
20
-17.0092221697437
30
0
41
1
10
139.235759562348
20
-17.005455967769
30
0
0
SPLINE
5
1DD
100
AcDbEntity
8
1
62
256
6
ByLayer
370
18
48
1
60
0
100
AcDbSpline
70
4
71
3
72
8
73
4
40
0
40
0
40
0
40
0
40
1
40
1
40
1
40
1
41
1
10
134.024450080834
20
12.712600836621
30
0
41
1
10
134.021218480023
20
12.7136530474864
30
0
41
1
10
134.017987636981
20
12.7147032080702
30
0
41
1
10
134.014757514662
20
12.7157514205263
30
0
0
SPLINE
5
1DE
100
AcDbEntity
8
1
62
256
6
ByLayer
370
18
48
1
60
0
100
AcDbSpline
70
4
71
3
72
22
73
18
40
0
40
0
40
0
40
0
40
0.0624999999999993
40
0.0624999999999993
40
0.124999999999999
40
0.124999999999999
40
0.187499999999998
40
0.187499999999998
40
0.249999999999997
40
0.249999999999997
40
0.374999999999998
40
0.374999999999998
40
0.499999999999999
40
0.499999999999999
40
0.749999999999999
40
0.749999999999999
40
1
40
1
40
1
40
1
41
1
10
134.014757514662
20
12.7157514205263
30
0
41
1
10
134.013489489741
20
12.7175827886313
30
0
41
1
10
134.011296974318
20
12.7191357222602
30
0
41
1
10
134.004887359981
20
12.7216269988429
30
0
41
1
10
134.00058620965
20
12.7225618307857
30
0
41
1
10
133.990415860516
20
12.7236566992747
30
0
41
1
10
133.984438283846
20
12.7238386580017
30
0
41
1
10
133.971394553152
20
12.7235185605297
30
0
41
1
10
133.964410195981
20
12.7230289042273
30
0
41
1
10
133.942378238275
20
12.720740127588
30
0
41
1
10
133.926545874504
20
12.7181477281229
30
0
41
1
10
133.894735717344
20
12.7116942137108
30
0
41
1
10
133.878457609268
20
12.7077714261272
30
0
41
1
10
133.830197788597
20
12.6946934588517
30
0
41
1
10
133.798328975188
20
12.68414724758
30
0
41
1
10
133.736798197583
20
12.6607889586073
30
0
41
1
10
133.707020221547
20
12.6479265836321
30
0
41
1
10
133.678545798672
20
12.6341291503769
30
0
0
SPLINE
5
1DF
100
AcDbEntity
8
1
62
256
6
ByLayer
370
18
48
1
60
0
100
AcDbSpline
70
4
71
3
72
18
73
14
40
0
40
0
40
0
40
0
40
0.25
40
0.25
40
0.500000000000001
40
0.500000000000001
40
0.625000000000001
40
0.625000000000001
40
0.75
40
0.75
40
0.875
40
0.875
40
1
40
1
40
1
40
1
41
1
10
134.962690574247
20
12.7324480058941
30
0
41
1
10
134.93347565606
20
12.7418230138875
30
0
41
1
10
134.902954812243
20
12.7500571946018
30
0
41
1
10
134.839782337595
20
12.7638728270891
30
0
41
1
10
134.807151316445
20
12.7694636285033
30
0
41
1
10
134.757376852329
20
12.7750570188223
30
0
41
1
10
134.740744616609
20
12.776437540475
30
0
41
1
10
134.707903704861
20
12.7779456102326
30
0
41
1
10
134.691369781334
20
12.7780746722126
30
0
41
1
10
134.660709429387
20
12.7765428164158
30
0
41
1
10
134.646414258822
20
12.7748453240504
30
0
41
1
10
134.624268691617
20
12.7693823737177
30
0
41
1
10
134.616926310332
20
12.7657143700572
30
0
41
1
10
134.61361632918
20
12.7616022578927
30
0
0
SPLINE
5
1E0
100
AcDbEntity
8
1
62
256
6
ByLayer
370
18
48
1
60
0
100
AcDbSpline
70
4
71
3
72
8
73
4
40
0
40
0
40
0
40
0
40
1
40
1
40
1
40
1
41
1
10
134.61361632918
20
12.7616022578927
30
0
41
1
10
134.610020870853
20
12.7600314538332
30
0
41
1
10
134.606425052548
20
12.7584586189034
30
0
41
1
10
134.602828856284
20
12.7568836467366
30
0
0
SPLINE
5
1E1
100
AcDbEntity
8
1
62
256
6
ByLayer
370
18
48
1
60
0
100
AcDbSpline
70
4
71
3
72
38
73
34
40
0
40
0
40
0
40
0
40
0.0625000000000011
40
0.0625000000000011
40
0.0937500000000017
40
0.0937500000000017
40
0.125000000000002
40
0.125000000000002
40
0.187500000000002
40
0.187500000000002
40
0.250000000000002
40
0.250000000000002
40
0.375000000000001
40
0.375000000000001
40
0.5
40
0.5
40
0.5625
40
0.5625
40
0.625
40
0.625
40
0.687499999999999
40
0.687499999999999
40
0.749999999999999
40
0.749999999999999
40
0.812499999999999
40
0.812499999999999
40
0.874999999999999
40
0.874999999999999
40
0.906249999999999
40
0.906249999999999
40
0.9375
40
0.9375
40
1
40
1
40
1
40
1
41
1
10
134.602828856284
20
12.7568836467366
30
0
41
1
10
134.596205810863
20
12.7539830508204
30
0
41
1
10
134.587823651007
20
12.751501517937
30
0
41
1
10
134.573498330687
20
12.748141639421
30
0
41
1
10
134.568406667975
20
12.7470822583646
30
0
41
1
10
134.557851253721
20
12.7450903038605
30
0
41
1
10
134.552371148336
20
12.7441535106603
30
0
41
1
10
134.535404194315
20
12.7414786720032
30
0
41
1
10
134.523436722499
20
12.7398819507877
30
0
41
1
10
134.498745442396
20
12.7369343860863
30
0
41
1
10
134.485939461122
20
12.7355751274582
30
0
41
1
10
134.446835950723
20
12.7317275509119
30
0
41
1
10
134.419701471202
20
12.7294399897706
30
0
41
1
10
134.364643020814
20
12.7249936521964
30
0
41
1
10
134.336886331628
20
12.7228512908317
30
0
41
1
10
134.295152663492
20
12.7196559893508
30
0
41
1
10
134.28131880186
20
12.7186037206832
30
0
41
1
10
134.253805492123
20
12.7165346702479
30
0
41
1
10
134.240091644644
20
12.7155153273115
30
0
41
1
10
134.213012275399
20
12.7135573330818
30
0
41
1
10
134.199656163325
20
12.7126190873663
30
0
41
1
10
134.173327436031
20
12.7108789356921
30
0
41
1
10
134.160342793702
20
12.7100764510125
30
0
41
1
10
134.135095108974
20
12.7087116265958
30
0
41
1
10
134.1227625079
20
12.7081446733818
30
0
41
1
10
134.098998402609
20
12.7073836328132
30
0
41
1
10
134.087598975621
20
12.7071884940264
30
0
41
1
10
134.071454202342
20
12.7073298612884
30
0
41
1
10
134.066262009846
20
12.7074499180958
30
0
41
1
10
134.056309555931
20
12.7078712936658
30
0
41
1
10
134.051531277592
20
12.7081743095551
30
0
41
1
10
134.038132103606
20
12.7094144179234
30
0
41
1
10
134.03039850156
20
12.7106640278111
30
0
41
1
10
134.024450080834
20
12.712600836621
30
0
0
SPLINE
5
1E2
100
AcDbEntity
8
1
62
256
6
ByLayer
370
18
48
1
60
0
100
AcDbSpline
70
4
71
3
72
18
73
14
40
0
40
0
40
0
40
0
40
0.25
40
0.25
40
0.5
40
0.5
40
0.625
40
0.625
40
0.75
40
0.75
40
0.875
40
0.875
40
1
40
1
40
1
40
1
41
1
10
133.678545798672
20
12.6341291503769
30
0
41
1
10
133.650084897521
20
12.6203382691454
30
0
41
1
10
133.622949304743
20
12.6056265647595
30
0
41
1
10
133.572417471015
20
12.5746869483014
30
0
41
1
10
133.548983805386
20
12.5584551054257
30
0
41
1
10
133.519150357023
20
12.5336788661314
30
0
41
1
10
133.510171825398
20
12.5254004817012
30
0
41
1
10
133.495206884255
20
12.5092159605925
30
0
41
1
10
133.489096336481
20
12.5011478515621
30
0
41
1
10
133.48228512687
20
12.4866929713921
30
0
41
1
10
133.481628948197
20
12.4802401990689
30
0
41
1
10
133.488528535409
20
12.4714259893156
30
0
41
1
10
133.49603947122
20
12.469297683035
30
0
41
1
10
133.506449099327
20
12.4694478706946
30
0
0
SPLINE
5
1E3
100
AcDbEntity
8
1
62
256
6
ByLayer
370
18
48
1
60
0
100
AcDbSpline
70
4
71
3
72
24
73
20
40
0
40
0
40
0
40
0
40
0.0625000000000005
40
0.0625000000000005
40
0.125000000000001
40
0.125000000000001
40
0.250000000000001
40
0.250000000000001
40
0.5
40
0.5
40
0.625
40
0.625
40
0.75
40
0.75
40
0.875
40
0.875
40
0.9375
40
0.9375
40
1
40
1
40
1
40
1
41
1
10
133.237745438587
20
12.0954252064441
30
0
41
1
10
133.249412824616
20
12.1013876567097
30
0
41
1
10
133.260855770847
20
12.1085153769088
30
0
41
1
10
133.28348593602
20
12.1242647633421
30
0
41
1
10
133.294597316073
20
12.1328606501371
30
0
41
1
10
133.326825738839
20
12.1595883229708
30
0
41
1
10
133.346986533532
20
12.1787135684964
30
0
41
1
10
133.403461439866
20
12.2363810808267
30
0
41
1
10
133.435905798297
20
12.2751299633761
30
0
41
1
10
133.475989172043
20
12.3286448506239
30
0
41
1
10
133.487678167017
20
12.3454765468267
30
0
41
1
10
133.507614167966
20
12.3772415845947
30
0
41
1
10
133.515941148083
20
12.3923247326706
30
0
41
1
10
133.527714134554
20
12.4197513732265
30
0
41
1
10
133.531262818509
20
12.4321603726387
30
0
41
1
10
133.530901425777
20
12.4479287584787
30
0
41
1
10
133.529820474647
20
12.4526288256964
30
0
41
1
10
133.524996881827
20
12.4606268080146
30
0
41
1
10
133.521229150294
20
12.4639220387568
30
0
41
1
10
133.515592791081
20
12.4660313267668
30
0
0
SPLINE
5
1E4
100
AcDbEntity
8
1
62
256
6
ByLayer
370
18
48
1
60
0
100
AcDbSpline
70
4
71
3
72
8
73
4
40
0
40
0
40
0
40
0
40
1
40
1
40
1
40
1
41
1
10
133.218763341838
20
12.0857188140797
30
0
41
1
10
133.225089475834
20
12.0889555704217
30
0
41
1
10
133.23141682075
20
12.0921910570801
30
0
41
1
10
133.237745438587
20
12.0954252064441
30
0
0
SPLINE
5
1E5
100
AcDbEntity
8
1
62
256
6
ByLayer
370
18
48
1
60
0
100
AcDbSpline
70
4
71
3
72
20
73
16
40
0
40
0
40
0
40
0
40
0.250000000000001
40
0.250000000000001
40
0.500000000000002
40
0.500000000000002
40
0.625000000000002
40
0.625000000000002
40
0.750000000000003
40
0.750000000000003
40
0.812500000000002
40
0.812500000000002
40
0.875000000000001
40
0.875000000000001
40
1
40
1
40
1
40
1
41
1
10
133.061655550869
20
11.8112913606638
30
0
41
1
10
133.060901266753
20
11.8344654554588
30
0
41
1
10
133.062716239282
20
11.8583760738444
30
0
41
1
10
133.072100983316
20
11.9073643397275
30
0
41
1
10
133.079615596306
20
11.9324143338461
30
0
41
1
10
133.096933104436
20
11.9705246296077
30
0
41
1
10
133.10375217987
20
11.9833459926169
30
0
41
1
10
133.119947743713
20
12.0087008585165
30
0
41
1
10
133.129206551621
20
12.0211279761665
30
0
41
1
10
133.145891844986
20
12.0392901513057
30
0
41
1
10
133.151772164561
20
12.0450852980163
30
0
41
1
10
133.164291413688
20
12.0560671031771
30
0
41
1
10
133.171003289918
20
12.0612878208137
30
0
41
1
10
133.191289823009
20
12.0749956634987
30
0
41
1
10
133.205555722302
20
12.0818251578214
30
0
41
1
10
133.218763341838
20
12.0857188140797
30
0
0
SPLINE
5
1E6
100
AcDbEntity
8
1
62
256
6
ByLayer
370
18
48
1
60
0
100
AcDbSpline
70
4
71
3
72
8
73
4
40
0
40
0
40
0
40
0
40
1
40
1
40
1
40
1
41
1
10
133.506449099327
20
12.4694478706946
30
0
41
1
10
133.509496292961
20
12.4683110191702
30
0
41
1
10
133.512544178356
20
12.4671722054838
30
0
41
1
10
133.515592791081
20
12.4660313267668
30
0
0
SPLINE
5
1E7
100
AcDbEntity
8
1
62
256
6
ByLayer
370
18
48
1
60
0
100
AcDbSpline
70
4
71
3
72
22
73
18
40
0
40
0
40
0
40
0
40
0.0624999999999992
40
0.0624999999999992
40
0.124999999999998
40
0.124999999999998
40
0.187499999999998
40
0.187499999999998
40
0.249999999999997
40
0.249999999999997
40
0.374999999999997
40
0.374999999999997
40
0.499999999999998
40
0.499999999999998
40
0.749999999999999
40
0.749999999999999
40
1
40
1
40
1
40
1
41
1
10
135.135391401903
20
12.5941656953036
30
0
41
1
10
135.141084247143
20
12.594924817045
30
0
41
1
10
135.145976687678
20
12.5961027555773
30
0
41
1
10
135.154006544843
20
12.5993720053489
30
0
41
1
10
135.157138997417
20
12.6015029679945
30
0
41
1
10
135.161185366373
20
12.6064318808092
30
0
41
1
10
135.162175079609
20
12.6092828833158
30
0
41
1
10
135.1622549872
20
12.6154117462309
30
0
41
1
10
135.1613761156
20
12.6186521614335
30
0
41
1
10
135.156563280541
20
12.6287464343495
30
0
41
1
10
135.150519156923
20
12.6358344095777
30
0
41
1
10
135.135404014015
20
12.6497429933121
30
0
41
1
10
135.126181148783
20
12.6566966964586
30
0
41
1
10
135.095769294779
20
12.6768212245036
30
0
41
1
10
135.071667759785
20
12.689454934847
30
0
41
1
10
135.019813547124
20
12.7125537740594
30
0
41
1
10
134.99191937239
20
12.7230685438506
30
0
41
1
10
134.962690574247
20
12.7324480058941
30
0
0
SPLINE
5
1E8
100
AcDbEntity
8
1
62
256
6
ByLayer
370
18
48
1
60
0
100
AcDbSpline
70
4
71
3
72
12
73
8
40
0
40
0
40
0
40
0
40
0.634066232047512
40
0.634066232047512
40
0.951099348071287
40
0.951099348071287
40
1
40
1
40
1
40
1
41
1
10
130.180493196419
20
-22.8909441114723
30
0
41
1
10
130.182718068857
20
-22.8458665875356
30
0
41
1
10
130.189711560301
20
-22.8014703845032
30
0
41
1
10
130.207196363782
20
-22.7358754351649
30
0
41
1
10
130.214198395694
20
-22.7141781546948
30
0
41
1
10
130.223677340979
20
-22.6893337671113
30
0
41
1
10
130.224972616967
20
-22.6860193929182
30
0
41
1
10
130.226295798941
20
-22.6827120566165
30
0
0
SPLINE
5
1E9
100
AcDbEntity
8
1
62
256
6
ByLayer
370
18
48
1
60
0
100
AcDbSpline
70
4
71
3
72
8
73
4
40
0
40
0
40
0
40
0
40
1
40
1
40
1
40
1
41
1
10
135.1251673448
20
12.5892662851619
30
0
41
1
10
135.128575705059
20
12.5909015335216
30
0
41
1
10
135.131983718605
20
12.592534634618
30
0
41
1
10
135.135391401903
20
12.5941656953036
30
0
0
SPLINE
5
1EA
100
AcDbEntity
8
1
62
256
6
ByLayer
370
18
48
1
60
0
100
AcDbSpline
70
4
71
3
72
18
73
14
40
0
40
0
40
0
40
0
40
0.25
40
0.25
40
0.5
40
0.5
40
0.625
40
0.625
40
0.75
40
0.75
40
0.875
40
0.875
40
1
40
1
40
1
40
1
41
1
10
135.629945102019
20
12.0079290716981
30
0
41
1
10
135.629191084983
20
12.0310949609231
30
0
41
1
10
135.625740883969
20
12.054593900113
30
0
41
1
10
135.612805891115
20
12.1018555786995
30
0
41
1
10
135.603382843304
20
12.125600010415
30
0
41
1
10
135.582874446779
20
12.1608009314878
30
0
41
1
10
135.57499339048
20
12.1723957592861
30
0
41
1
10
135.556545360678
20
12.1949594787648
30
0
41
1
10
135.545770884103
20
12.2061463006058
30
0
41
1
10
135.521042230076
20
12.2265584355187
30
0
41
1
10
135.50686535799
20
12.2358938072151
30
0
41
1
10
135.476554016597
20
12.2500267473325
30
0
41
1
10
135.460993676136
20
12.2545074089695
30
0
41
1
10
135.446564458932
20
12.2562874760551
30
0
0
SPLINE
5
1EB
100
AcDbEntity
8
1
62
256
6
ByLayer
370
18
48
1
60
0
100
AcDbSpline
70
4
71
3
72
8
73
4
40
0
40
0
40
0
40
0
40
1
40
1
40
1
40
1
41
1
10
135.446564458932
20
12.2562874760551
30
0
41
1
10
135.439610135351
20
12.2585074316324
30
0
41
1
10
135.432654919978
20
12.2607259565349
30
0
41
1
10
135.425698767757
20
12.2629429749548
30
0
0
SPLINE
5
1EC
100
AcDbEntity
8
1
62
256
6
ByLayer
370
18
48
1
60
0
100
AcDbSpline
70
4
71
3
72
24
73
20
40
0
40
0
40
0
40
0
40
0.062499999999999
40
0.062499999999999
40
0.124999999999998
40
0.124999999999998
40
0.249999999999998
40
0.249999999999998
40
0.374999999999998
40
0.374999999999998
40
0.499999999999998
40
0.499999999999998
40
0.624999999999999
40
0.624999999999999
40
0.749999999999999
40
0.749999999999999
40
0.875
40
0.875
40
1
40
1
40
1
40
1
41
1
10
135.425698767757
20
12.2629429749548
30
0
41
1
10
135.41288775614
20
12.2670260150942
30
0
41
1
10
135.400279551528
20
12.2723046496862
30
0
41
1
10
135.375301820742
20
12.2843912126358
30
0
41
1
10
135.363014270358
20
12.2911860590568
30
0
41
1
10
135.327353460699
20
12.3126856773947
30
0
41
1
10
135.305041069812
20
12.328521040456
30
0
41
1
10
135.263494776601
20
12.3607970731848
30
0
41
1
10
135.244208323653
20
12.3773132159875
30
0
41
1
10
135.208722355211
20
12.4100206717203
30
0
41
1
10
135.192627832076
20
12.4261160173184
30
0
41
1
10
135.163712868622
20
12.4575113912074
30
0
41
1
10
135.151043703978
20
12.4726528615459
30
0
41
1
10
135.129771554651
20
12.5015679835527
30
0
41
1
10
135.121182828804
20
12.5153166737323
30
0
41
1
10
135.109384621312
20
12.5409492353954
30
0
41
1
10
135.106097901785
20
12.5528904690043
30
0
41
1
10
135.10780328221
20
12.5740361272308
30
0
41
1
10
135.112619779678
20
12.5832462685784
30
0
41
1
10
135.1251673448
20
12.5892662851619
30
0
0
SPLINE
5
1ED
100
AcDbEntity
8
1
62
256
6
ByLayer
370
18
48
1
60
0
100
AcDbSpline
70
4
71
3
72
22
73
18
40
0
40
0
40
0
40
0
40
0.0625000000000009
40
0.0625000000000009
40
0.125000000000002
40
0.125000000000002
40
0.187500000000003
40
0.187500000000003
40
0.250000000000004
40
0.250000000000004
40
0.375000000000003
40
0.375000000000003
40
0.500000000000002
40
0.500000000000002
40
0.750000000000001
40
0.750000000000001
40
1
40
1
40
1
40
1
41
1
10
133.232229999225
20
11.6719787016589
30
0
41
1
10
133.22572800315
20
11.6668287480929
30
0
41
1
10
133.219051699513
20
11.6624009900229
30
0
41
1
10
133.205319815458
20
11.6551254721864
30
0
41
1
10
133.198185882741
20
11.6522818031618
30
0
41
1
10
133.184418726017
20
11.6485790772362
30
0
41
1
10
133.177608699336
20
11.647650674225
30
0
41
1
10
133.164670740856
20
11.6474716608045
30
0
41
1
10
133.158594935033
20
11.6481938738513
30
0
41
1
10
133.141319208426
20
11.6522491862918
30
0
41
1
10
133.131300424899
20
11.6574112188922
30
0
41
1
10
133.113940458156
20
11.6702320612821
30
0
41
1
10
133.106443581733
20
11.6780221014982
30
0
41
1
10
133.087095077897
20
11.7035074347895
30
0
41
1
10
133.078087931998
20
11.7234552117592
30
0
41
1
10
133.06573725573
20
11.7656956999214
30
0
41
1
10
133.062409926137
20
11.7881144653651
30
0
41
1
10
133.061655550869
20
11.8112913606638
30
0
0
SPLINE
5
1EE
100
AcDbEntity
8
1
62
256
6
ByLayer
370
18
48
1
60
0
100
AcDbSpline
70
4
71
3
72
22
73
18
40
0
40
0
40
0
40
0
40
0.0624999999999993
40
0.0624999999999993
40
0.124999999999999
40
0.124999999999999
40
0.187499999999998
40
0.187499999999998
40
0.249999999999997
40
0.249999999999997
40
0.374999999999998
40
0.374999999999998
40
0.499999999999999
40
0.499999999999999
40
0.749999999999999
40
0.749999999999999
40
1
40
1
40
1
40
1
41
1
10
135.460031116319
20
11.8425473636343
30
0
41
1
10
135.467346626573
20
11.8384553292642
30
0
41
1
10
135.474780660203
20
11.8351079106056
30
0
41
1
10
135.489906448542
20
11.8300418424952
30
0
41
1
10
135.497680435237
20
11.8283395787099
30
0
41
1
10
135.512524998617
20
11.8268274714968
30
0
41
1
10
135.519788227857
20
11.8269765688126
30
0
41
1
10
135.533451064839
20
11.8288342103046
30
0
41
1
10
135.539798089107
20
11.8305075609957
30
0
41
1
10
135.557679097416
20
11.8372546025983
30
0
41
1
10
135.567816728703
20
11.8439598845843
30
0
41
1
10
135.585086008175
20
11.8594320696577
30
0
41
1
10
135.592370809786
20
11.868353849608
30
0
41
1
10
135.610785520674
20
11.896730473759
30
0
41
1
10
135.618779511633
20
11.9179799204082
30
0
41
1
10
135.628750566665
20
11.9619294425642
30
0
41
1
10
135.630699477287
20
11.9847521763995
30
0
41
1
10
135.629945102019
20
12.0079290716981
30
0
0
SPLINE
5
1EF
100
AcDbEntity
8
1
62
256
6
ByLayer
370
18
48
1
60
0
100
AcDbSpline
70
4
71
3
72
8
73
4
40
0
40
0
40
0
40
0
40
1
40
1
40
1
40
1
41
1
10
133.551758060308
20
11.3549150248082
30
0
41
1
10
133.548972386514
20
11.3479775527089
30
0
41
1
10
133.546187396313
20
11.3410393593208
30
0
41
1
10
133.543403056255
20
11.3341004824104
30
0
0
SPLINE
5
1F0
100
AcDbEntity
8
1
62
256
6
ByLayer
370
18
48
1
60
0
100
AcDbSpline
70
4
71
3
72
22
73
18
40
0
40
0
40
0
40
0
40
0.0625000000000005
40
0.0625000000000005
40
0.125000000000001
40
0.125000000000001
40
0.187500000000002
40
0.187500000000002
40
0.250000000000002
40
0.250000000000002
40
0.375000000000002
40
0.375000000000002
40
0.500000000000002
40
0.500000000000002
40
0.750000000000001
40
0.750000000000001
40
1
40
1
40
1
40
1
41
1
10
133.543403056255
20
11.3341004824104
30
0
41
1
10
133.5384194912
20
11.327301784656
30
0
41
1
10
133.534225206009
20
11.3201789989999
30
0
41
1
10
133.527567982515
20
11.3052216666294
30
0
41
1
10
133.525116297524
20
11.2972939150076
30
0
41
1
10
133.52232561915
20
11.2816726991154
30
0
41
1
10
133.521927784579
20
11.2737818036811
30
0
41
1
10
133.522926274383
20
11.2584703029761
30
0
41
1
10
133.524288223376
20
11.2511164461455
30
0
41
1
10
133.53042482976
20
11.2297501573242
30
0
41
1
10
133.537167735644
20
11.2167119966813
30
0
41
1
10
133.553431408993
20
11.1930235868005
30
0
41
1
10
133.56311339176
20
11.1821604620945
30
0
41
1
10
133.594658734206
20
11.1523841917105
30
0
41
1
10
133.619213694287
20
11.1358895314353
30
0
41
1
10
133.671656887124
20
11.1077754801648
30
0
41
1
10
133.699681280498
20
11.0961518885113
30
0
41
1
10
133.728910078641
20
11.0867724264678
30
0
0
SPLINE
5
1F1
100
AcDbEntity
8
1
62
256
6
ByLayer
370
18
48
1
60
0
100
AcDbSpline
70
4
71
3
72
8
73
4
40
0
40
0
40
0
40
0
40
1
40
1
40
1
40
1
41
1
10
133.25122663735
20
11.6812383350153
30
0
41
1
10
133.244893171595
20
11.6781531296956
30
0
41
1
10
133.238560979567
20
11.6750665623064
30
0
41
1
10
133.232229999225
20
11.6719787016589
30
0
0
SPLINE
5
1F2
100
AcDbEntity
8
1
62
256
6
ByLayer
370
18
48
1
60
0
100
AcDbSpline
70
4
71
3
72
24
73
20
40
0
40
0
40
0
40
0
40
0.0624999999999998
40
0.0624999999999998
40
0.125
40
0.125
40
0.25
40
0.25
40
0.374999999999999
40
0.374999999999999
40
0.499999999999999
40
0.499999999999999
40
0.624999999999999
40
0.624999999999999
40
0.749999999999999
40
0.749999999999999
40
0.875
40
0.875
40
1
40
1
40
1
40
1
41
1
10
133.551758060308
20
11.3549150248082
30
0
41
1
10
133.556918133261
20
11.3677657262137
30
0
41
1
10
133.560091814129
20
11.3807636670381
30
0
41
1
10
133.563841361586
20
11.4069275950979
30
0
41
1
10
133.564354903623
20
11.4199773702026
30
0
41
1
10
133.562984334918
20
11.4579037607968
30
0
41
1
10
133.558216364013
20
11.4823710889755
30
0
41
1
10
133.544144317617
20
11.5276562009638
30
0
41
1
10
133.53482040448
20
11.5486420711474
30
0
41
1
10
133.512439221559
20
11.5875955441106
30
0
41
1
10
133.499452575738
20
11.6053453951761
30
0
41
1
10
133.47053581171
20
11.6368102189392
30
0
41
1
10
133.454690276394
20
11.6504489911801
30
0
41
1
10
133.4204035011
20
11.6731247326558
30
0
41
1
10
133.40199288803
20
11.6821438923694
30
0
41
1
10
133.362781854012
20
11.6945476801148
30
0
41
1
10
133.341936073806
20
11.6980039470293
30
0
41
1
10
133.297756757774
20
11.696954184244
30
0
41
1
10
133.274568239492
20
11.6926086712375
30
0
41
1
10
133.25122663735
20
11.6812383350153
30
0
0
SPLINE
5
1F3
100
AcDbEntity
8
1
62
256
6
ByLayer
370
18
48
1
60
0
100
AcDbSpline
70
4
71
3
72
8
73
4
40
0
40
0
40
0
40
0
40
1
40
1
40
1
40
1
41
1
10
135.439179966521
20
11.848756103526
30
0
41
1
10
135.446131270823
20
11.8466880291504
30
0
41
1
10
135.453081639083
20
11.8446184235172
30
0
41
1
10
135.460031116319
20
11.8425473636343
30
0
0
SPLINE
5
1F4
100
AcDbEntity
8
1
62
256
6
ByLayer
370
18
48
1
60
0
100
AcDbSpline
70
4
71
3
72
18
73
14
40
0
40
0
40
0
40
0
40
0.25
40
0.25
40
0.5
40
0.5
40
0.625
40
0.625
40
0.75
40
0.75
40
0.875
40
0.875
40
1
40
1
40
1
40
1
41
1
10
135.013054854217
20
11.185091281985
30
0
41
1
10
135.041515755367
20
11.1988821632165
30
0
41
1
10
135.068521448196
20
11.2146999757819
30
0
41
1
10
135.118464578055
20
11.250652451522
30
0
41
1
10
135.141446859104
20
11.2707278692492
30
0
41
1
10
135.170145545923
20
11.3051666914625
30
0
41
1
10
135.178669373141
20
11.3173169193234
30
0
41
1
10
135.192490195889
20
11.3432436976568
30
0
41
1
10
135.197898542021
20
11.3572911083486
30
0
41
1
10
135.202950728249
20
11.3867242095979
30
0
41
1
10
135.202531146533
20
11.4023371653982
30
0
41
1
10
135.19309918537
20
11.4327147365451
30
0
41
1
10
135.184174202827
20
11.4468837608596
30
0
41
1
10
135.17234535883
20
11.4588183070194
30
0
0
SPLINE
5
1F5
100
AcDbEntity
8
1
62
256
6
ByLayer
370
18
48
1
60
0
100
AcDbSpline
70
4
71
3
72
8
73
4
40
0
40
0
40
0
40
0
40
1
40
1
40
1
40
1
41
1
10
135.17234535883
20
11.4588183070194
30
0
41
1
10
135.168674821956
20
11.4652629747686
30
0
41
1
10
135.165003913217
20
11.4717068807467
30
0
41
1
10
135.161332614027
20
11.4781499832032
30
0
0
SPLINE
5
1F6
100
AcDbEntity
8
1
62
256
6
ByLayer
370
18
48
1
60
0
100
AcDbSpline
70
4
71
3
72
24
73
20
40
0
40
0
40
0
40
0
40
0.0624999999999994
40
0.0624999999999994
40
0.124999999999999
40
0.124999999999999
40
0.249999999999999
40
0.249999999999999
40
0.374999999999999
40
0.374999999999999
40
0.5
40
0.5
40
0.625
40
0.625
40
0.75
40
0.75
40
0.875
40
0.875
40
1
40
1
40
1
40
1
41
1
10
135.161332614027
20
11.4781499832032
30
0
41
1
10
135.154571252994
20
11.4900161209472
30
0
41
1
10
135.149810263516
20
11.502331384388
30
0
41
1
10
135.142919547343
20
11.5275270715398
30
0
41
1
10
135.140854048936
20
11.5403377910632
30
0
41
1
10
135.137817374172
20
11.5783399070665
30
0
41
1
10
135.139895590276
20
11.6032147653665
30
0
41
1
10
135.149318211757
20
11.6505758706481
30
0
41
1
10
135.156724610572
20
11.6731400693477
30
0
41
1
10
135.175706280421
20
11.7153246736601
30
0
41
1
10
135.187220480418
20
11.7348223230915
30
0
41
1
10
135.213950292242
20
11.7704790830454
30
0
41
1
10
135.229039676615
20
11.7864531609161
30
0
41
1
10
135.262516409852
20
11.8142591486415
30
0
41
1
10
135.280875005107
20
11.8260690423652
30
0
41
1
10
135.320740102968
20
11.8444861877609
30
0
41
1
10
135.342289453383
20
11.8511722558698
30
0
41
1
10
135.388796844856
20
11.8570456596812
30
0
41
1
10
135.413589378442
20
11.8563695293177
30
0
41
1
10
135.439179966521
20
11.848756103526
30
0
0
SPLINE
5
1F7
100
AcDbEntity
8
1
62
256
6
ByLayer
370
18
48
1
60
0
100
AcDbSpline
70
4
71
3
72
22
73
18
40
0
40
0
40
0
40
0
40
0.0624999999999994
40
0.0624999999999994
40
0.124999999999999
40
0.124999999999999
40
0.187499999999998
40
0.187499999999998
40
0.249999999999998
40
0.249999999999998
40
0.374999999999999
40
0.374999999999999
40
0.5
40
0.5
40
0.75
40
0.75
40
1
40
1
40
1
40
1
41
1
10
134.664036943495
20
11.2125147571877
30
0
41
1
10
134.666014248602
20
11.2046438130698
30
0
41
1
10
134.668904919369
20
11.197146032317
30
0
41
1
10
134.676687167378
20
11.1829666731354
30
0
41
1
10
134.681669085291
20
11.1762350522164
30
0
41
1
10
134.693095125006
20
11.1644478806499
30
0
41
1
10
134.699664580341
20
11.1592260289952
30
0
41
1
10
134.71378670843
20
11.1503634886772
30
0
41
1
10
134.721254142995
20
11.1467397033517
30
0
41
1
10
134.744609872025
20
11.1377564640857
30
0
41
1
10
134.761141018063
20
11.1343986781361
30
0
41
1
10
134.794099705664
20
11.1310723664019
30
0
41
1
10
134.810836931275
20
11.131085732426
30
0
41
1
10
134.860230240387
20
11.1345119573624
30
0
41
1
10
134.892552478884
20
11.1411972187023
30
0
41
1
10
134.954672236664
20
11.1595402956169
30
0
41
1
10
134.984580431341
20
11.1712938487298
30
0
41
1
10
135.013054854217
20
11.185091281985
30
0
0
SPLINE
5
1F8
100
AcDbEntity
8
1
62
256
6
ByLayer
370
18
48
1
60
0
100
AcDbSpline
70
4
71
3
72
8
73
4
40
0
40
0
40
0
40
0
40
1
40
1
40
1
40
1
41
1
10
134.652475324274
20
11.2315804733491
30
0
41
1
10
134.65632961155
20
11.2252260387441
30
0
41
1
10
134.660183477937
20
11.2188707858686
30
0
41
1
10
134.664036943495
20
11.2125147571877
30
0
0
SPLINE
5
1F9
100
AcDbEntity
8
1
62
256
6
ByLayer
370
18
48
1
60
0
100
AcDbSpline
70
4
71
3
72
8
73
4
40
0
40
0
40
0
40
0
40
1
40
1
40
1
40
1
41
1
10
134.065178128977
20
11.1666639198213
30
0
41
1
10
134.068150244064
20
11.1735425401056
30
0
41
1
10
134.071123039026
20
11.1804204673271
30
0
41
1
10
134.074096548824
20
11.1872976632335
30
0
0
SPLINE
5
1FA
100
AcDbEntity
8
1
62
256
6
ByLayer
370
18
48
1
60
0
100
AcDbSpline
70
4
71
3
72
24
73
20
40
0
40
0
40
0
40
0
40
0.0624999999999993
40
0.0624999999999993
40
0.124999999999999
40
0.124999999999999
40
0.249999999999999
40
0.249999999999999
40
0.374999999999999
40
0.374999999999999
40
0.499999999999999
40
0.499999999999999
40
0.624999999999999
40
0.624999999999999
40
0.749999999999999
40
0.749999999999999
40
0.875
40
0.875
40
1
40
1
40
1
40
1
41
1
10
134.074096548824
20
11.1872976632335
30
0
41
1
10
134.07957280457
20
11.1999632625263
30
0
41
1
10
134.086885074982
20
11.2115549873405
30
0
41
1
10
134.103958677115
20
11.2332933977238
30
0
41
1
10
134.113706356833
20
11.2433485875588
30
0
41
1
10
134.145020718579
20
11.2710039055754
30
0
41
1
10
134.168683005515
20
11.2862451027946
30
0
41
1
10
134.218482821036
20
11.3112851458385
30
0
41
1
10
134.244734045039
20
11.3210936964909
30
0
41
1
10
134.298610871234
20
11.3356016560761
30
0
41
1
10
134.326071628313
20
11.3402639023778
30
0
41
1
10
134.381716288021
20
11.3445262725332
30
0
41
1
10
134.40962327454
20
11.3440949231667
30
0
41
1
10
134.464962301178
20
11.3379606661446
30
0
41
1
10
134.492350988673
20
11.3322636004867
30
0
41
1
10
134.545182229921
20
11.3151031191184
30
0
41
1
10
134.570745261002
20
11.303657822916
30
0
41
1
10
134.617296554356
20
11.2734902934511
30
0
41
1
10
134.638286119815
20
11.2549737404794
30
0
41
1
10
134.652475324274
20
11.2315804733491
30
0
0
SPLINE
5
1FB
100
AcDbEntity
8
1
62
256
6
ByLayer
370
13
48
1
60
0
100
AcDbSpline
70
4
71
3
72
8
73
4
40
0
40
0
40
0
40
0
40
1
40
1
40
1
40
1
41
1
10
139.819506803581
20
-8.60334263800081
30
0
41
1
10
139.723664145266
20
-9.3044066272858
30
0
41
1
10
139.627821486952
20
-10.0054706165708
30
0
41
1
10
139.531978828637
20
-10.7065346058558
30
0
0
SPLINE
5
1FC
100
AcDbEntity
8
1
62
256
6
ByLayer
370
18
48
1
60
0
100
AcDbSpline
70
4
71
3
72
14
73
10
40
0
40
0
40
0
40
0
40
0.0437866284432586
40
0.0437866284432586
40
0.362524418962172
40
0.362524418962172
40
0.681262209481086
40
0.681262209481086
40
1
40
1
40
1
40
1
41
1
10
139.50458947472
20
-17.6159199062117
30
0
41
1
10
139.507165637463
20
-17.6133277871113
30
0
41
1
10
139.509698273887
20
-17.6107130183418
30
0
41
1
10
139.53030600489
20
-17.5888766930121
30
0
41
1
10
139.546047944379
20
-17.5684414120918
30
0
41
1
10
139.57147853492
20
-17.5268585679428
30
0
41
1
10
139.581386425397
20
-17.5055044036743
30
0
41
1
10
139.595378183281
20
-17.4616286540634
30
0
41
1
10
139.599333008576
20
-17.4394100166685
30
0
41
1
10
139.600129307911
20
-17.4172552252962
30
0
0
SPLINE
5
1FD
100
AcDbEntity
8
1
62
256
6
ByLayer
370
18
48
1
60
0
100
AcDbSpline
70
4
71
3
72
20
73
16
40
0
40
0
40
0
40
0
40
0.0281299896958919
40
0.0281299896958919
40
0.13611554639639
40
0.13611554639639
40
0.352086659797291
40
0.352086659797291
40
0.568057773198194
40
0.568057773198194
40
0.676043329898645
40
0.676043329898645
40
0.784028886599096
40
0.784028886599096
40
1
40
1
40
1
40
1
41
1
10
139.500664833207
20
-8.10813734745409
30
0
41
1
10
139.506020184536
20
-8.11121319691893
30
0
41
1
10
139.511321654868
20
-8.11434832519217
30
0
41
1
10
139.536671906216
20
-8.12978368174603
30
0
41
1
10
139.555885281233
20
-8.14282972197569
30
0
41
1
10
139.610906357948
20
-8.18430299085674
30
0
41
1
10
139.644119607848
20
-8.21504343738235
30
0
41
1
10
139.703407435413
20
-8.28288918339811
30
0
41
1
10
139.728563514898
20
-8.31895826861182
30
0
41
1
10
139.75977705033
20
-8.37594242638684
30
0
41
1
10
139.76909513796
20
-8.3954304547907
30
0
41
1
10
139.785526007854
20
-8.43540786753903
30
0
41
1
10
139.792644276057
20
-8.45595454750429
30
0
41
1
10
139.81028262092
20
-8.5180041871771
30
0
41
1
10
139.817282141794
20
-8.56023820543999
30
0
41
1
10
139.819506803581
20
-8.60334263800075
30
0
0
SPLINE
5
1FE
100
AcDbEntity
8
1
62
256
6
ByLayer
370
13
48
1
60
0
100
AcDbSpline
70
4
71
3
72
8
73
4
40
0
40
0
40
0
40
0
40
1
40
1
40
1
40
1
41
1
10
139.600129307911
20
-17.4172552252962
30
0
41
1
10
139.617810525773
20
-17.2678676096057
30
0
41
1
10
139.635491743634
20
-17.1184799939151
30
0
41
1
10
139.653172961496
20
-16.9690923782246
30
0
0
SPLINE
5
1FF
100
AcDbEntity
8
1
62
256
6
ByLayer
370
13
48
1
60
0
100
AcDbSpline
70
4
71
3
72
8
73
4
40
0
40
0
40
0
40
0
40
1
40
1
40
1
40
1
41
1
10
139.910732305259
20
-14.792987962514
30
0
41
1
10
139.940468216861
20
-14.5417509171134
30
0
41
1
10
139.970204128463
20
-14.2905138717128
30
0
41
1
10
139.999940040065
20
-14.0392768263121
30
0
0
SPLINE
5
200
100
AcDbEntity
8
1
62
256
6
ByLayer
370
18
48
1
60
0
100
AcDbSpline
70
4
71
1
72
4
73
2
40
0
40
0
40
1
40
1
41
1
10
139.598607130184
20
-17.4368394607055
30
0
41
1
10
139.654078037128
20
-16.9686893682055
30
0
0
SPLINE
5
201
100
AcDbEntity
8
1
62
256
6
ByLayer
370
18
48
1
60
0
100
AcDbSpline
70
4
71
1
72
4
73
2
40
0
40
0
40
1
40
1
41
1
10
139.911177576628
20
-14.7988821696469
30
0
41
1
10
139.998577275213
20
-14.0612670984124
30
0
0
SPLINE
5
202
100
AcDbEntity
8
1
62
256
6
ByLayer
370
18
48
1
60
0
100
AcDbSpline
70
4
71
3
72
8
73
4
40
0
40
0
40
0
40
0
40
1
40
1
40
1
40
1
41
1
10
139.999940040065
20
-14.0392768263121
30
0
41
1
10
139.999939355913
20
-14.046178354691
30
0
41
1
10
139.999536591696
20
-14.053081480031
30
0
41
1
10
139.998734323441
20
-14.0599861921007
30
0
0
SPLINE
5
203
100
AcDbEntity
8
1
62
256
6
ByLayer
370
18
48
1
60
0
100
AcDbSpline
70
4
71
3
72
29
73
25
40
0
40
0
40
0
40
0
40
0.0625000000000076
40
0.0625000000000076
40
0.125000000000015
40
0.125000000000015
40
0.250000000000029
40
0.250000000000029
40
0.312500000000033
40
0.312500000000033
40
0.375000000000038
40
0.375000000000038
40
0.500000000000047
40
0.500000000000047
40
0.562500000000041
40
0.562500000000041
40
0.625000000000034
40
0.687500000000028
40
0.687500000000028
40
0.750000000000022
40
0.750000000000022
40
0.875000000000011
40
0.875000000000011
40
1
40
1
40
1
40
1
41
1
10
130.5
20
-13.4759382418865
30
0
41
1
10
130.5
20
-13.4855435093106
30
0
41
1
10
130.501552138099
20
-13.4952951061258
30
0
41
1
10
130.507862052362
20
-13.5151005145313
30
0
41
1
10
130.512638269036
20
-13.5251433818596
30
0
41
1
10
130.531490692648
20
-13.5550653304097
30
0
41
1
10
130.550100362618
20
-13.5749580013063
30
0
41
1
10
130.587147946151
20
-13.604713415632
30
0
41
1
10
130.601098731282
20
-13.6146609782671
30
0
41
1
10
130.631891015981
20
-13.6343245458723
30
0
41
1
10
130.648610881585
20
-13.6439727571745
30
0
41
1
10
130.702639367385
20
-13.6723808577668
30
0
41
1
10
130.743779463753
20
-13.6906094021113
30
0
41
1
10
130.81344130201
20
-13.7168494863987
30
0
41
1
10
130.837982076447
20
-13.7253954958674
30
0
41
1
10
130.888625423158
20
-13.7417256687182
30
0
41
1
10
130.941092618759
20
-13.7573966031275
30
0
41
1
10
130.997160805246
20
-13.7717659430718
30
0
41
1
10
131.055058814074
20
-13.7854738854433
30
0
41
1
10
131.085101056566
20
-13.7920313557086
30
0
41
1
10
131.176588181205
20
-13.8103720736439
30
0
41
1
10
131.239211492574
20
-13.8208332579313
30
0
41
1
10
131.367637496484
20
-13.8383150476934
30
0
41
1
10
131.43386211471
20
-13.8453507377126
30
0
41
1
10
131.5
20
-13.8504009957561
30
0
0
SPLINE
5
204
100
AcDbEntity
8
1
62
256
6
ByLayer
370
18
48
1
60
0
100
AcDbSpline
70
4
71
3
72
28
73
24
40
0
40
0
40
0
40
0
40
0.124999999999995
40
0.124999999999995
40
0.249999999999991
40
0.249999999999991
40
0.374999999999986
40
0.374999999999986
40
0.437499999999984
40
0.437499999999984
40
0.499999999999981
40
0.499999999999981
40
0.624999999999977
40
0.624999999999977
40
0.749999999999974
40
0.749999999999974
40
0.81249999999998
40
0.81249999999998
40
0.874999999999987
40
0.874999999999987
40
0.937499999999993
40
0.937499999999993
40
1
40
1
40
1
40
1
41
1
10
130.5
20
-1.8337449407411
30
0
41
1
10
130.5
20
-1.88879684825116
30
0
41
1
10
130.504817458447
20
-1.94439553296976
30
0
41
1
10
130.52416493216
20
-2.05322612514212
30
0
41
1
10
130.538628060331
20
-2.10666917973765
30
0
41
1
10
130.577660425264
20
-2.21150375932095
30
0
41
1
10
130.60221325637
20
-2.26289861464022
30
0
41
1
10
130.64781085296
20
-2.33821093163832
30
0
41
1
10
130.664572414732
20
-2.36312481620769
30
0
41
1
10
130.700740758337
20
-2.41144436106046
30
0
41
1
10
130.720169507109
20
-2.43491343667367
30
0
41
1
10
130.782731273904
20
-2.50312436799882
30
0
41
1
10
130.830175504766
20
-2.54578988874877
30
0
41
1
10
130.938531432649
20
-2.62363633853065
30
0
41
1
10
130.997755737194
20
-2.65762869259575
30
0
41
1
10
131.095364468754
20
-2.70004567511989
30
0
41
1
10
131.12968267957
20
-2.71282583701088
30
0
41
1
10
131.199779155353
20
-2.73454637172435
30
0
41
1
10
131.235566253122
20
-2.74353506622882
30
0
41
1
10
131.308654984299
20
-2.75767605286884
30
0
41
1
10
131.3459561421
20
-2.7628295497419
30
0
41
1
10
131.42217358325
20
-2.76904534132942
30
0
41
1
10
131.461164636836
20
-2.77007427351751
30
0
41
1
10
131.5
20
-2.76892013557315
30
0
0
SPLINE
5
205
100
AcDbEntity
8
1
62
256
6
ByLayer
370
18
48
1
60
0
100
AcDbSpline
70
4
71
3
72
28
73
24
40
0
40
0
40
0
40
0
40
0.125000000000018
40
0.125000000000018
40
0.187500000000017
40
0.187500000000017
40
0.250000000000015
40
0.250000000000015
40
0.312500000000014
40
0.312500000000014
40
0.375000000000013
40
0.375000000000013
40
0.500000000000007
40
0.500000000000007
40
0.625000000000001
40
0.625000000000001
40
0.749999999999995
40
0.749999999999995
40
0.812499999999996
40
0.812499999999996
40
0.874999999999998
40
0.874999999999998
40
1
40
1
40
1
40
1
41
1
10
138.5
20
-2.56019972206676
30
0
41
1
10
138.57890537862
20
-2.55783916816247
30
0
41
1
10
138.655304561215
20
-2.54673196482341
30
0
41
1
10
138.766512974586
20
-2.51823876735369
30
0
41
1
10
138.803094822473
20
-2.50667685273479
30
0
41
1
10
138.872968171151
20
-2.48047100992301
30
0
41
1
10
138.906559138191
20
-2.46576428944326
30
0
41
1
10
138.971276467515
20
-2.43341355979533
30
0
41
1
10
139.002558275471
20
-2.41566515386037
30
0
41
1
10
139.062002487749
20
-2.37787605562474
30
0
41
1
10
139.090028088204
20
-2.35795123931024
30
0
41
1
10
139.169595034882
20
-2.29543801065449
30
0
41
1
10
139.216669484072
20
-2.25013690626216
30
0
41
1
10
139.300404303512
20
-2.15321035443481
30
0
41
1
10
139.336024735834
20
-2.10275706239469
30
0
41
1
10
139.396416228922
20
-1.99910354899365
30
0
41
1
10
139.42125011258
20
-1.94579362184447
30
0
41
1
10
139.451070407594
20
-1.86377333667116
30
0
41
1
10
139.459768708121
20
-1.83603824556178
30
0
41
1
10
139.474521875113
20
-1.7806212395034
30
0
41
1
10
139.480612595745
20
-1.7528542146014
30
0
41
1
10
139.495187588933
20
-1.66938487526707
30
0
41
1
10
139.5
20
-1.61351544798228
30
0
41
1
10
139.5
20
-1.5574269994346
30
0
0
SPLINE
5
206
100
AcDbEntity
8
1
62
256
6
ByLayer
370
18
48
1
60
0
100
AcDbSpline
70
4
71
3
72
29
73
25
40
0
40
0
40
0
40
0
40
0.124999999999976
40
0.124999999999976
40
0.187499999999976
40
0.187499999999976
40
0.249999999999976
40
0.249999999999976
40
0.374999999999979
40
0.374999999999979
40
0.437499999999978
40
0.437499999999978
40
0.499999999999978
40
0.499999999999978
40
0.624999999999981
40
0.624999999999981
40
0.687499999999984
40
0.687499999999984
40
0.749999999999986
40
0.812499999999988
40
0.812499999999988
40
0.87499999999999
40
0.87499999999999
40
1
40
1
40
1
40
1
41
1
10
138.5
20
-12.5607795417147
30
0
41
1
10
138.566505602723
20
-12.5659375269443
30
0
41
1
10
138.63181090468
20
-12.5690584158601
30
0
41
1
10
138.728053920721
20
-12.5708292356997
30
0
41
1
10
138.759846922093
20
-12.5709307216255
30
0
41
1
10
138.822845555922
20
-12.5701368374515
30
0
41
1
10
138.854127476749
20
-12.5692322817409
30
0
41
1
10
138.945062438448
20
-12.5650738102996
30
0
41
1
10
139.002499111441
20
-12.5603921375603
30
0
41
1
10
139.083940020619
20
-12.5505450477308
30
0
41
1
10
139.110392284451
20
-12.546772097239
30
0
41
1
10
139.161213499597
20
-12.5383178404488
30
0
41
1
10
139.18539250913
20
-12.533673323333
30
0
41
1
10
139.254352738459
20
-12.518527594292
30
0
41
1
10
139.295590767584
20
-12.5068255946323
30
0
41
1
10
139.350188279712
20
-12.4868123390429
30
0
41
1
10
139.367133037315
20
-12.4797293641885
30
0
41
1
10
139.397849242344
20
-12.4650427250454
30
0
41
1
10
139.42560059823
20
-12.449763916974
30
0
41
1
10
139.447508530142
20
-12.4333180026025
30
0
41
1
10
139.466453583472
20
-12.4162803128824
30
0
41
1
10
139.474473838144
20
-12.4074212164378
30
0
41
1
10
139.493677913263
20
-12.3802456696675
30
0
41
1
10
139.5
20
-12.3615182086186
30
0
41
1
10
139.5
20
-12.3421952513646
30
0
0
SPLINE
5
207
100
AcDbEntity
8
1
62
256
6
ByLayer
370
18
48
1
60
0
100
AcDbSpline
70
4
71
3
72
29
73
25
40
0
40
0
40
0
40
0
40
0.0625000000000061
40
0.0625000000000061
40
0.125000000000012
40
0.125000000000012
40
0.250000000000025
40
0.250000000000025
40
0.312500000000031
40
0.312500000000031
40
0.375000000000038
40
0.375000000000038
40
0.500000000000047
40
0.500000000000047
40
0.56250000000004
40
0.56250000000004
40
0.625000000000034
40
0.687500000000028
40
0.687500000000028
40
0.750000000000021
40
0.750000000000021
40
0.875000000000011
40
0.875000000000011
40
1
40
1
40
1
40
1
41
1
10
139.5
20
16.30570408325
30
0
41
1
10
139.5
20
16.3284387272854
30
0
41
1
10
139.498447861901
20
16.3511286652461
30
0
41
1
10
139.492137947638
20
16.3964162095024
30
0
41
1
10
139.487361730964
20
16.4189832659174
30
0
41
1
10
139.468509307352
20
16.4850555701324
30
0
41
1
10
139.449899637382
20
16.5274508036646
30
0
41
1
10
139.412852053849
20
16.5885447746664
30
0
41
1
10
139.398901268718
20
16.6085747760014
30
0
41
1
10
139.368108984019
20
16.6473584077145
30
0
41
1
10
139.351389118416
20
16.6659822226762
30
0
41
1
10
139.297360632615
20
16.7196090063789
30
0
41
1
10
139.256220536247
20
16.7523890201946
30
0
41
1
10
139.18655869799
20
16.7969456084193
30
0
41
1
10
139.162017923553
20
16.8109901967583
30
0
41
1
10
139.111374576842
20
16.8368826791057
30
0
41
1
10
139.058907381241
20
16.8607553062454
30
0
41
1
10
139.002839194754
20
16.8806399493828
30
0
41
1
10
138.944941185926
20
16.8984981219024
30
0
41
1
10
138.914898943434
20
16.9064499871321
30
0
41
1
10
138.823411818795
20
16.9268108636492
30
0
41
1
10
138.760788507426
20
16.9357937934754
30
0
41
1
10
138.632362503516
20
16.9448151433076
30
0
41
1
10
138.56613788529
20
16.9447829651061
30
0
41
1
10
138.5
20
16.9400733329298
30
0
0
SPLINE
5
208
100
AcDbEntity
8
1
62
256
6
ByLayer
370
18
48
1
60
0
100
AcDbSpline
70
4
71
3
72
28
73
24
40
0
40
0
40
0
40
0
40
0.125000000000018
40
0.125000000000018
40
0.187500000000017
40
0.187500000000017
40
0.250000000000016
40
0.250000000000016
40
0.312500000000015
40
0.312500000000015
40
0.375000000000014
40
0.375000000000014
40
0.437500000000013
40
0.437500000000013
40
0.500000000000013
40
0.500000000000013
40
0.625000000000009
40
0.625000000000009
40
0.750000000000006
40
0.750000000000006
40
0.875000000000003
40
0.875000000000003
40
1
40
1
40
1
40
1
41
1
10
138.5
20
25.1175895240964
30
0
41
1
10
138.577583661837
20
25.116289015207
30
0
41
1
10
138.65325994737
20
25.1119835648358
30
0
41
1
10
138.764094844718
20
25.1013039707306
30
0
41
1
10
138.800640928122
20
25.0970110574553
30
0
41
1
10
138.870576569341
20
25.0873308173873
30
0
41
1
10
138.904278012991
20
25.0819179195564
30
0
41
1
10
138.969333909055
20
25.0700305881012
30
0
41
1
10
139.000870290693
20
25.0635115271873
30
0
41
1
10
139.060719781296
20
25.0496816132841
30
0
41
1
10
139.08895933131
20
25.0424001638574
30
0
41
1
10
139.14243812809
20
25.0271847658129
30
0
41
1
10
139.167675466047
20
25.0192504020712
30
0
41
1
10
139.215375122792
20
25.0027781696705
30
0
41
1
10
139.237907003099
20
24.9942101379628
30
0
41
1
10
139.301052177524
20
24.9678461002415
30
0
41
1
10
139.33668931829
20
24.9496681367415
30
0
41
1
10
139.397217188489
20
24.9123108110652
30
0
41
1
10
139.422096138741
20
24.8931146944528
30
0
41
1
10
139.461788562237
20
24.8538479113316
30
0
41
1
10
139.47618284061
20
24.8342033595451
30
0
41
1
10
139.495293799682
20
24.79489444572
30
0
41
1
10
139.5
20
24.7752300622278
30
0
41
1
10
139.5
20
24.7555560450414
30
0
0
SPLINE
5
209
100
AcDbEntity
8
1
62
256
6
ByLayer
370
18
48
1
60
0
100
AcDbSpline
70
4
71
3
72
32
73
28
40
0
40
0
40
0
40
0
40
0.0625000000000085
40
0.0625000000000085
40
0.125000000000017
40
0.125000000000017
40
0.250000000000034
40
0.250000000000034
40
0.312500000000043
40
0.312500000000043
40
0.375000000000051
40
0.375000000000051
40
0.500000000000063
40
0.500000000000063
40
0.562500000000066
40
0.562500000000066
40
0.625000000000069
40
0.625000000000069
40
0.750000000000061
40
0.750000000000061
40
0.812500000000045
40
0.812500000000045
40
0.87500000000003
40
0.87500000000003
40
0.937500000000015
40
0.937500000000015
40
1
40
1
40
1
40
1
41
1
10
130.5
20
24.9032534511799
30
0
41
1
10
130.5
20
24.9133304897974
30
0
41
1
10
130.501227608349
20
24.9233912571929
30
0
41
1
10
130.506095031541
20
24.9432878259323
30
0
41
1
10
130.509733900136
20
24.9531519545643
30
0
41
1
10
130.524271114761
20
24.9824915144729
30
0
41
1
10
130.538760887106
20
25.0017161575688
30
0
41
1
10
130.568200721662
20
25.0300150721704
30
0
41
1
10
130.579304954974
20
25.03935789671
30
0
41
1
10
130.604281061896
20
25.0578502823293
30
0
41
1
10
130.618214084411
20
25.0670309546134
30
0
41
1
10
130.663827099841
20
25.0938419648181
30
0
41
1
10
130.699373376777
20
25.1108506621773
30
0
41
1
10
130.761391902341
20
25.1348985450659
30
0
41
1
10
130.783523887474
20
25.1426687472188
30
0
41
1
10
130.831031783621
20
25.1576627875197
30
0
41
1
10
130.856422389827
20
25.1648798211185
30
0
41
1
10
130.936274795807
20
25.1851650073775
30
0
41
1
10
130.994820313728
20
25.1970504876423
30
0
41
1
10
131.09235388824
20
25.2118821550063
30
0
41
1
10
131.126369870449
20
25.2162883739983
30
0
41
1
10
131.196042329376
20
25.2237518990557
30
0
41
1
10
131.231901475938
20
25.2268423487438
30
0
41
1
10
131.305824168641
20
25.2316412106536
30
0
41
1
10
131.34416447879
20
25.2333524887101
30
0
41
1
10
131.421507351933
20
25.2351938785351
30
0
41
1
10
131.460557201285
20
25.2353399158006
30
0
41
1
10
131.499999999999
20
25.2346815372419
30
0
0
SPLINE
5
20A
100
AcDbEntity
8
1
62
256
6
ByLayer
370
18
48
1
60
0
100
AcDbSpline
70
4
71
3
72
20
73
16
40
0
40
0
40
0
40
0
40
0.0374850908055302
40
0.0374850908055302
40
0.144431191827177
40
0.144431191827177
40
0.358323393870386
40
0.358323393870386
40
0.572215595913595
40
0.572215595913595
40
0.679161696935199
40
0.679161696935199
40
0.786107797956804
40
0.786107797956804
40
1
40
1
40
1
40
1
41
1
10
139.495094771515
20
22.4624850772957
30
0
41
1
10
139.502349207111
20
22.4672240822918
30
0
41
1
10
139.509511500723
20
22.4720682059992
30
0
41
1
10
139.536671906216
20
22.4910883178263
30
0
41
1
10
139.555885281233
20
22.5059181725011
30
0
41
1
10
139.610906357948
20
22.5525840723417
30
0
41
1
10
139.644119607848
20
22.5865760144767
30
0
41
1
10
139.703407435413
20
22.66049188093
30
0
41
1
10
139.728563514898
20
22.699285856322
30
0
41
1
10
139.75977705033
20
22.7599018127875
30
0
41
1
10
139.769095137961
20
22.7805248158967
30
0
41
1
10
139.785526007854
20
22.8226186690409
30
0
41
1
10
139.792644276057
20
22.8441484224738
30
0
41
1
10
139.81028262092
20
22.9088623802557
30
0
41
1
10
139.817282141794
20
22.9525147929184
30
0
41
1
10
139.819506803581
20
22.9966786381398
30
0
0
SPLINE
5
20B
100
AcDbEntity
8
1
62
256
6
ByLayer
370
18
48
1
60
0
100
AcDbSpline
70
4
71
3
72
8
73
4
40
0
40
0
40
0
40
0
40
1
40
1
40
1
40
1
41
1
10
134.6
20
1.35244822570186
30
0
41
1
10
134.55648486704
20
1.32297243653369
30
0
41
1
10
134.513017889583
20
1.28998847797089
30
0
41
1
10
134.469618411635
20
1.25253112634886
30
0
0
SPLINE
5
20C
100
AcDbEntity
8
1
62
256
6
ByLayer
370
18
48
1
60
0
100
AcDbSpline
70
4
71
3
72
19
73
15
40
0
40
0
40
0
40
0
40
0.242160151672873
40
0.242160151672873
40
0.36324022750929
40
0.36324022750929
40
0.484320303345707
40
0.605400379182124
40
0.605400379182124
40
0.72648045501854
40
0.72648045501854
40
0.968640606691374
40
0.968640606691374
40
1
40
1
40
1
40
1
41
1
10
134.6
20
1.35244822570186
30
0
41
1
10
134.676368551902
20
1.38508879602733
30
0
41
1
10
134.755333467006
20
1.40785490530087
30
0
41
1
10
134.877607004509
20
1.42762983817926
30
0
41
1
10
134.919314759176
20
1.4317980154309
30
0
41
1
10
135.002301530621
20
1.43498050316273
30
0
41
1
10
135.084821787526
20
1.4331033735715
30
0
41
1
10
135.166432359903
20
1.42135524277984
30
0
41
1
10
135.247579367088
20
1.4045606328956
30
0
41
1
10
135.287941980611
20
1.39358574635378
30
0
41
1
10
135.40495135424
20
1.35396451687402
30
0
41
1
10
135.47875307614
20
1.31853680861124
30
0
41
1
10
135.557303119857
20
1.26802438137375
30
0
41
1
10
135.56619130535
20
1.26210671071473
30
0
41
1
10
135.574962135543
20
1.25606323964644
30
0
0
SPLINE
5
20D
100
AcDbEntity
8
1
62
256
6
ByLayer
370
18
48
1
60
0
100
AcDbSpline
70
4
71
3
72
28
73
24
40
0
40
0
40
0
40
0
40
0.125000000000019
40
0.125000000000019
40
0.187500000000018
40
0.187500000000018
40
0.250000000000016
40
0.250000000000016
40
0.312500000000015
40
0.312500000000015
40
0.375000000000013
40
0.375000000000013
40
0.437500000000012
40
0.437500000000012
40
0.500000000000011
40
0.500000000000011
40
0.625000000000008
40
0.625000000000008
40
0.750000000000005
40
0.750000000000005
40
0.875000000000003
40
0.875000000000003
40
1
40
1
40
1
40
1
41
1
10
138.5
20
-27.7973141859822
30
0
41
1
10
138.577583661837
20
-27.7982450921853
30
0
41
1
10
138.65325994737
20
-27.7879026279427
30
0
41
1
10
138.764094844718
20
-27.7565518128224
30
0
41
1
10
138.800640928122
20
-27.7433563496585
30
0
41
1
10
138.870576569341
20
-27.7126771933878
30
0
41
1
10
138.904278012991
20
-27.6951218802934
30
0
41
1
10
138.969333909055
20
-27.6559048065777
30
0
41
1
10
139.000870290693
20
-27.6340912011681
30
0
41
1
10
139.060719781296
20
-27.5872918992454
30
0
41
1
10
139.08895933131
20
-27.5624096799903
30
0
41
1
10
139.14243812809
20
-27.510005693117
30
0
41
1
10
139.167675466047
20
-27.4824822462025
30
0
41
1
10
139.215375122792
20
-27.4249940000502
30
0
41
1
10
139.237907003099
20
-27.3949226137802
30
0
41
1
10
139.301052177524
20
-27.3019338787001
30
0
41
1
10
139.33668931829
20
-27.2372328190505
30
0
41
1
10
139.397217188489
20
-27.1033246602256
30
0
41
1
10
139.422096138741
20
-27.034054620135
30
0
41
1
10
139.461788562237
20
-26.8915288769951
30
0
41
1
10
139.47618284061
20
-26.8198206877867
30
0
41
1
10
139.495293799682
20
-26.6756138365883
30
0
41
1
10
139.5
20
-26.6031143185534
30
0
41
1
10
139.5
20
-26.5302303948652
30
0
0
SPLINE
5
20E
100
AcDbEntity
8
1
62
256
6
ByLayer
370
18
48
1
60
0
100
AcDbSpline
70
4
71
3
72
36
73
32
40
0
40
0
40
0
40
0
40
0.12499999999996
40
0.12499999999996
40
0.187499999999953
40
0.187499999999953
40
0.218749999999949
40
0.218749999999949
40
0.249999999999946
40
0.249999999999946
40
0.374999999999932
40
0.374999999999932
40
0.406249999999938
40
0.406249999999938
40
0.437499999999943
40
0.437499999999943
40
0.499999999999935
40
0.499999999999935
40
0.624999999999918
40
0.624999999999918
40
0.656249999999923
40
0.656249999999923
40
0.687499999999929
40
0.749999999999934
40
0.812499999999939
40
0.812499999999939
40
0.843749999999946
40
0.843749999999946
40
0.874999999999952
40
0.874999999999952
40
1
40
1
40
1
40
1
41
1
10
131.5
20
-30.2163988521506
30
0
41
1
10
131.433494397277
20
-30.2169477972188
30
0
41
1
10
131.36818909532
20
-30.2110305279054
30
0
41
1
10
131.271946079279
20
-30.1929159814886
30
0
41
1
10
131.240153077907
20
-30.1853262753511
30
0
41
1
10
131.192904102535
20
-30.1715685276291
30
0
41
1
10
131.177197821402
20
-30.1665757905072
30
0
41
1
10
131.146073478915
20
-30.1558293384223
30
0
41
1
10
131.130716696301
20
-30.1500986076328
30
0
41
1
10
131.054937561552
20
-30.1196960106201
30
0
41
1
10
130.99750088856
20
-30.0898271942599
30
0
41
1
10
130.929633464244
20
-30.0456532699684
30
0
41
1
10
130.916258175151
20
-30.0364735004393
30
0
41
1
10
130.88990982815
20
-30.0174138274059
30
0
41
1
10
130.876902411763
20
-30.0075056400585
30
0
41
1
10
130.838786500403
20
-29.9769441172933
30
0
41
1
10
130.81460749087
20
-29.9554906300481
30
0
41
1
10
130.745647261541
20
-29.887996140395
30
0
41
1
10
130.704409232416
20
-29.8388505582683
30
0
41
1
10
130.658911305643
20
-29.7721178510901
30
0
41
1
10
130.650095061754
20
-29.758466168516
30
0
41
1
10
130.633238223757
20
-29.7308693350133
30
0
41
1
10
130.609088595734
20
-29.6890039269061
30
0
41
1
10
130.57439940177
20
-29.6169262931779
30
0
41
1
10
130.552491469858
20
-29.5568449705905
30
0
41
1
10
130.53828267986
20
-29.5108639902564
30
0
41
1
10
130.533917430192
20
-29.4953833947183
30
0
41
1
10
130.525942384025
20
-29.4641094410686
30
0
41
1
10
130.52232548267
20
-29.4482747774343
30
0
41
1
10
130.506322086737
20
-29.3690732968394
30
0
41
1
10
130.5
20
-29.3053005664204
30
0
41
1
10
130.5
20
-29.2411263581906
30
0
0
SPLINE
5
20F
100
AcDbEntity
8
1
62
256
6
ByLayer
370
18
48
1
60
0
100
AcDbSpline
70
4
71
3
72
20
73
16
40
0
40
0
40
0
40
0
40
0.149499152308005
40
0.149499152308005
40
0.29899830461601
40
0.29899830461601
40
0.448497456924014
40
0.448497456924014
40
0.597996609232019
40
0.597996609232019
40
0.747495761540024
40
0.747495761540024
40
0.896994913848029
40
0.896994913848029
40
1
40
1
40
1
40
1
41
1
10
136.815497835663
20
18.695137075079
30
0
41
1
10
136.847834347116
20
18.6976128775415
30
0
41
1
10
136.879712700513
20
18.697897840629
30
0
41
1
10
136.942596314573
20
18.6942927754553
30
0
41
1
10
136.973891519929
20
18.6903378883885
30
0
41
1
10
137.034098273222
20
18.6783037238956
30
0
41
1
10
137.062785320017
20
18.670319377242
30
0
41
1
10
137.117380976804
20
18.6504914700496
30
0
41
1
10
137.14349864685
20
18.6384941985343
30
0
41
1
10
137.190923626931
20
18.6114320992498
30
0
41
1
10
137.212438737847
20
18.5963383563824
30
0
41
1
10
137.251033053225
20
18.5629962211467
30
0
41
1
10
137.268047513398
20
18.544702181117
30
0
41
1
10
137.291738957515
20
18.5124006825781
30
0
41
1
10
137.30009528048
20
18.4987461278527
30
0
41
1
10
137.307109792876
20
18.4846016375137
30
0
0
SPLINE
5
210
100
AcDbEntity
8
1
62
256
6
ByLayer
370
18
48
1
60
0
100
AcDbSpline
70
4
71
3
72
32
73
28
40
0
40
0
40
0
40
0
40
0.0625000000000002
40
0.0625000000000002
40
0.125000000000001
40
0.125000000000001
40
0.249999999999995
40
0.249999999999995
40
0.312499999999992
40
0.312499999999992
40
0.374999999999989
40
0.374999999999989
40
0.499999999999988
40
0.499999999999988
40
0.562499999999986
40
0.562499999999986
40
0.624999999999984
40
0.624999999999984
40
0.749999999999975
40
0.749999999999975
40
0.812499999999981
40
0.812499999999981
40
0.874999999999987
40
0.874999999999987
40
0.937499999999994
40
0.937499999999994
40
1
40
1
40
1
40
1
41
1
10
130.5
20
-26.4105109144249
30
0
41
1
10
130.5
20
-26.4478420861244
30
0
41
1
10
130.501227608349
20
-26.4852039423218
30
0
41
1
10
130.506095031541
20
-26.5592729885829
30
0
41
1
10
130.509733900136
20
-26.5960850491689
30
0
41
1
10
130.524271114761
20
-26.7058528948879
30
0
41
1
10
130.538760887106
20
-26.7781457308469
30
0
41
1
10
130.568200721662
20
-26.8851626696273
30
0
41
1
10
130.579304954974
20
-26.9205966823472
30
0
41
1
10
130.604281061896
20
-26.9909538230607
30
0
41
1
10
130.618214084411
20
-27.0259967358962
30
0
41
1
10
130.663827099841
20
-27.1287000069006
30
0
41
1
10
130.699373376777
20
-27.1943439306897
30
0
41
1
10
130.761391902341
20
-27.2880265866141
30
0
41
1
10
130.783523887474
20
-27.3184518246256
30
0
41
1
10
130.831031783621
20
-27.3775186190386
30
0
41
1
10
130.856422389827
20
-27.4061360563338
30
0
41
1
10
130.936274795807
20
-27.4872009535002
30
0
41
1
10
130.994820313728
20
-27.5355697043066
30
0
41
1
10
131.09235388824
20
-27.5977417448546
30
0
41
1
10
131.126369870449
20
-27.6165854186208
30
0
41
1
10
131.196042329376
20
-27.6493971697843
30
0
41
1
10
131.231901475938
20
-27.6635030475998
30
0
41
1
10
131.305824168641
20
-27.686758278294
30
0
41
1
10
131.34416447879
20
-27.6959387553554
30
0
41
1
10
131.421507351933
20
-27.7084912274087
30
0
41
1
10
131.460557201285
20
-27.7119257234332
30
0
41
1
10
131.5
20
-27.7124093151008
30
0
0
SPLINE
5
211
100
AcDbEntity
8
1
62
256
6
ByLayer
370
18
48
1
60
0
100
AcDbSpline
70
4
71
3
72
38
73
34
40
0
40
0
40
0
40
0
40
0.0625000000000198
40
0.0625000000000198
40
0.0937500000000342
40
0.0937500000000342
40
0.125000000000049
40
0.125000000000049
40
0.250000000000095
40
0.250000000000095
40
0.281250000000098
40
0.281250000000098
40
0.312500000000102
40
0.312500000000102
40
0.375000000000109
40
0.375000000000109
40
0.500000000000128
40
0.500000000000128
40
0.531250000000121
40
0.531250000000121
40
0.562500000000113
40
0.625000000000093
40
0.687500000000073
40
0.687500000000073
40
0.718750000000063
40
0.718750000000063
40
0.750000000000053
40
0.750000000000053
40
0.875000000000014
40
0.875000000000014
40
0.937500000000007
40
0.937500000000007
40
1
40
1
40
1
40
1
41
1
10
139.5
20
-29.3271895548474
30
0
41
1
10
139.5
20
-29.3590899737984
30
0
41
1
10
139.498447861901
20
-29.3910893877408
30
0
41
1
10
139.493715426204
20
-29.4392418497679
30
0
41
1
10
139.491729036382
20
-29.4553612273868
30
0
41
1
10
139.48698080089
20
-29.4873490399365
30
0
41
1
10
139.484219660362
20
-29.503234687749
30
0
41
1
10
139.468509307352
20
-29.582130155798
30
0
41
1
10
139.449899637382
20
-29.6435566262898
30
0
41
1
10
139.419026651105
20
-29.7182107849465
30
0
41
1
10
139.412468148486
20
-29.7330342302236
30
0
41
1
10
139.398567889079
20
-29.7624620280116
30
0
41
1
10
139.391203197543
20
-29.7771076236722
30
0
41
1
10
139.368108984019
20
-29.8203287510924
30
0
41
1
10
139.351389118416
20
-29.8482031305902
30
0
41
1
10
139.297360632615
20
-29.9290797614194
30
0
41
1
10
139.256220536247
20
-29.9793620642846
30
0
41
1
10
139.198169004366
20
-30.0375108818787
30
0
41
1
10
139.186189609372
20
-30.0489332293139
30
0
41
1
10
139.161789537238
20
-30.0710734147008
30
0
41
1
10
139.124491371935
20
-30.1032716745314
30
0
41
1
10
139.058907381241
20
-30.1519766934877
30
0
41
1
10
139.002839194754
20
-30.1857201162867
30
0
41
1
10
138.959415688133
20
-30.2090380750871
30
0
41
1
10
138.944712048307
20
-30.2164785324868
30
0
41
1
10
138.91483760943
20
-30.2306821765277
30
0
41
1
10
138.899651089328
20
-30.2374490979798
30
0
41
1
10
138.823411818795
20
-30.2692008727311
30
0
41
1
10
138.760788507426
20
-30.2883304218806
30
0
41
1
10
138.664469004493
20
-30.3078602459735
30
0
41
1
10
138.631962198316
20
-30.3128316921975
30
0
41
1
10
138.56612292052
20
-30.3196013001986
30
0
41
1
10
138.533068942645
20
-30.3213667298231
30
0
41
1
10
138.5
20
-30.321508154301
30
0
0
SPLINE
5
212
100
AcDbEntity
8
1
62
256
6
ByLayer
370
18
48
1
60
0
100
AcDbSpline
70
4
71
3
72
22
73
18
40
0
40
0
40
0
40
0
40
0.125
40
0.125
40
0.25
40
0.25
40
0.375
40
0.375
40
0.5
40
0.5
40
0.625
40
0.625
40
0.75
40
0.75
40
0.875
40
0.875
40
1
40
1
40
1
40
1
41
1
10
130.399870692089
20
17.8689475764487
30
0
41
1
10
130.400666948897
20
17.8915360599396
30
0
41
1
10
130.404577885958
20
17.9138870211099
30
0
41
1
10
130.418328703841
20
17.9581368082806
30
0
41
1
10
130.428308823946
20
17.9802500455149
30
0
41
1
10
130.453869379214
20
18.0228934049106
30
0
41
1
10
130.469296438283
20
18.0432939065581
30
0
41
1
10
130.505336823982
20
18.0822898964979
30
0
41
1
10
130.526183480188
20
18.1010187151048
30
0
41
1
10
130.571567139888
20
18.1351888149359
30
0
41
1
10
130.596204847867
20
18.1508001494144
30
0
41
1
10
130.64940823875
20
18.1790479572043
30
0
41
1
10
130.677942137996
20
18.1916007006289
30
0
41
1
10
130.736604553626
20
18.2126419144018
30
0
41
1
10
130.767011094207
20
18.2212907941168
30
0
41
1
10
130.830058628149
20
18.2346992588897
30
0
41
1
10
130.862151032369
20
18.2393269083986
30
0
41
1
10
130.894483252653
20
18.2418023823133
30
0
0
SPLINE
5
213
100
AcDbEntity
8
1
62
256
6
ByLayer
370
18
48
1
60
0
100
AcDbSpline
70
4
71
1
72
4
73
2
40
0
40
0
40
1
40
1
41
1
10
138.442026474015
20
15.2862531525166
30
0
41
1
10
137.306995569049
20
18.4848129411249
30
0
0
SPLINE
5
214
100
AcDbEntity
8
1
62
256
6
ByLayer
370
18
48
1
60
0
100
AcDbSpline
70
4
71
1
72
4
73
2
40
0
40
0
40
1
40
1
41
1
10
130.499999182966
20
-21.8913741995405
30
0
41
1
10
130.22627117921
20
-22.6827632737898
30
0
0
SPLINE
5
215
100
AcDbEntity
8
1
62
256
6
ByLayer
370
18
48
1
60
0
100
AcDbSpline
70
4
71
3
72
36
73
32
40
0
40
0
40
0
40
0
40
0.125000000000085
40
0.125000000000085
40
0.187500000000116
40
0.187500000000116
40
0.218750000000128
40
0.218750000000128
40
0.25000000000014
40
0.25000000000014
40
0.375000000000171
40
0.375000000000171
40
0.406250000000167
40
0.406250000000167
40
0.437500000000164
40
0.437500000000164
40
0.500000000000157
40
0.500000000000157
40
0.625000000000144
40
0.625000000000144
40
0.656250000000112
40
0.656250000000112
40
0.687500000000081
40
0.750000000000078
40
0.812500000000075
40
0.812500000000075
40
0.843750000000041
40
0.843750000000041
40
0.875000000000007
40
0.875000000000007
40
1
40
1
40
1
40
1
41
1
10
139.999940040065
20
30.7229165738729
30
0
41
1
10
139.999937675875
20
30.7739174184919
30
0
41
1
10
139.995133866909
20
30.8241649962113
30
0
41
1
10
139.980885438612
20
30.8984314778577
30
0
41
1
10
139.974954118583
20
30.9230015600651
30
0
41
1
10
139.964229315334
20
30.959569928289
30
0
41
1
10
139.960339317873
20
30.9717363696023
30
0
41
1
10
139.952020771418
20
30.995731722284
30
0
41
1
10
139.947586514442
20
31.0075846521364
30
0
41
1
10
139.924060544292
20
31.0661362194951
30
0
41
1
10
139.900942329171
20
31.1107153789638
30
0
41
1
10
139.866614165305
20
31.1635808662854
30
0
41
1
10
139.859474649143
20
31.1740097964715
30
0
41
1
10
139.844636536945
20
31.1945733672764
30
0
41
1
10
139.836915475241
20
31.2047346442381
30
0
41
1
10
139.813129311792
20
31.2344741616701
30
0
41
1
10
139.796413576997
20
31.2533631950143
30
0
41
1
10
139.743757215921
20
31.3072901316337
30
0
41
1
10
139.705331254269
20
31.3396138859326
30
0
41
1
10
139.653004897197
20
31.3753293533564
30
0
41
1
10
139.642297361332
20
31.3822500338513
30
0
41
1
10
139.620672802549
20
31.3954676950965
30
0
41
1
10
139.587859599952
20
31.4144050451751
30
0
41
1
10
139.531327354593
20
31.4416119447333
30
0
41
1
10
139.484162888192
20
31.4587974549302
30
0
41
1
10
139.448052067518
20
31.4699443501876
30
0
41
1
10
139.435892000703
20
31.4733691016394
30
0
41
1
10
139.411321148237
20
31.4796262940549
30
0
41
1
10
139.398912473153
20
31.4824561353446
30
0
41
1
10
139.336832822784
20
31.4949859202202
30
0
41
1
10
139.286587330216
20
31.5
30
0
41
1
10
139.235759562348
20
31.5
30
0
0
SPLINE
5
216
100
AcDbEntity
8
1
62
256
6
ByLayer
370
18
48
1
60
0
100
AcDbSpline
70
4
71
3
72
29
73
25
40
0
40
0
40
0
40
0
40
0.125000000000028
40
0.125000000000028
40
0.187500000000034
40
0.187500000000034
40
0.250000000000041
40
0.250000000000041
40
0.375000000000056
40
0.375000000000056
40
0.437500000000048
40
0.437500000000048
40
0.500000000000041
40
0.500000000000041
40
0.625000000000031
40
0.625000000000031
40
0.687500000000026
40
0.687500000000026
40
0.750000000000021
40
0.812500000000015
40
0.812500000000015
40
0.87500000000001
40
0.87500000000001
40
1
40
1
40
1
40
1
41
1
10
138.467594973845
20
15.1907710876075
30
0
41
1
10
138.467592609654
20
15.2154498815056
30
0
41
1
10
138.462788800689
20
15.2393965581776
30
0
41
1
10
138.448540372392
20
15.2742427104005
30
0
41
1
10
138.442609052362
20
15.2856778886534
30
0
41
1
10
138.428309314697
20
15.3081766401063
30
0
41
1
10
138.419946642252
20
15.3192054316444
30
0
41
1
10
138.391715478071
20
15.3510432139634
30
0
41
1
10
138.368597262951
20
15.3708447617285
30
0
41
1
10
138.327403466311
20
15.3983883288476
30
0
41
1
10
138.31249913017
20
15.407248069814
30
0
41
1
10
138.280784245572
20
15.4240075385131
30
0
41
1
10
138.264068510776
20
15.4318679998732
30
0
41
1
10
138.211412149701
20
15.4539313265309
30
0
41
1
10
138.172986188049
20
15.4666305464697
30
0
41
1
10
138.110194559562
20
15.4825619651468
30
0
41
1
10
138.08845083207
20
15.4873262206383
30
0
41
1
10
138.044208084776
20
15.4955948210978
30
0
41
1
10
137.998982288373
20
15.5026643598574
30
0
41
1
10
137.951817821971
20
15.5073692304343
30
0
41
1
10
137.903670061073
20
15.5108747400014
30
0
41
1
10
137.878983337007
20
15.5120284183301
30
0
41
1
10
137.804487756564
20
15.5136004592806
30
0
41
1
10
137.754242263996
20
15.5121797596256
30
0
41
1
10
137.703414496128
20
15.5082881984401
30
0
0
SPLINE
5
217
100
AcDbEntity
8
1
62
256
6
ByLayer
370
13
48
1
60
0
100
AcDbSpline
70
4
71
3
72
8
73
4
40
0
40
0
40
0
40
0
40
1
40
1
40
1
40
1
41
1
10
130.894483252653
20
18.2418023823133
30
0
41
1
10
130.851068980986
20
17.1535347431323
30
0
41
1
10
130.807654709319
20
16.0652671039513
30
0
41
1
10
130.764240437652
20
14.9769994647703
30
0
0
SPLINE
5
218
100
AcDbEntity
8
1
62
256
6
ByLayer
370
13
48
1
60
0
100
AcDbSpline
70
4
71
3
72
8
73
4
40
0
40
0
40
0
40
0
40
1
40
1
40
1
40
1
41
1
10
137.703414496128
20
15.50828819844
30
0
41
1
10
137.407442275973
20
16.5705711573197
30
0
41
1
10
137.111470055818
20
17.6328541161994
30
0
41
1
10
136.815497835663
20
18.695137075079
30
0
0
SPLINE
5
219
100
AcDbEntity
8
1
62
256
6
ByLayer
370
18
48
1
60
0
100
AcDbSpline
70
4
71
3
72
28
73
24
40
0
40
0
40
0
40
0
40
0.124999999999975
40
0.124999999999975
40
0.187499999999962
40
0.187499999999962
40
0.249999999999949
40
0.249999999999949
40
0.374999999999925
40
0.374999999999925
40
0.437499999999941
40
0.437499999999941
40
0.499999999999957
40
0.499999999999957
40
0.624999999999949
40
0.624999999999949
40
0.74999999999994
40
0.74999999999994
40
0.812499999999951
40
0.812499999999951
40
0.874999999999963
40
0.874999999999963
40
1
40
1
40
1
40
1
41
1
10
130.764240437652
20
14.9769994647704
30
0
41
1
10
130.713422935958
20
14.973108689601
30
0
41
1
10
130.663411822298
20
14.9668543921006
30
0
41
1
10
130.589572076149
20
14.9540233820655
30
0
41
1
10
130.565156372399
20
14.9491673746716
30
0
41
1
10
130.516731708756
20
14.9382631941339
30
0
41
1
10
130.492813988657
20
14.9322277568984
30
0
41
1
10
130.423213011927
20
14.9127258148866
30
0
41
1
10
130.379162145169
20
14.8977686033639
30
0
41
1
10
130.316620866471
20
14.872390299952
30
0
41
1
10
130.296259098846
20
14.8633817261151
30
0
41
1
10
130.257453860014
20
14.8446720525618
30
0
41
1
10
130.238986714261
20
14.8349719283915
30
0
41
1
10
130.186313837232
20
14.8048644324437
30
0
41
1
10
130.154811041177
20
14.7834593955314
30
0
41
1
10
130.099242615037
20
14.7379042314315
30
0
41
1
10
130.076038624789
20
14.7144514358244
30
0
41
1
10
130.047875247404
20
14.6784258549766
30
0
41
1
10
130.039594896742
20
14.6662687359072
30
0
41
1
10
130.025282163926
20
14.6416528743268
30
0
41
1
10
130.019247259815
20
14.6291610263321
30
0
41
1
10
130.004865281932
20
14.5919008336417
30
0
41
1
10
130.000062323902
20
14.5671422271587
30
0
41
1
10
130.000059959935
20
14.5424654078633
30
0
0
SPLINE
5
21A
100
AcDbEntity
8
1
62
256
6
ByLayer
370
18
48
1
60
0
100
AcDbSpline
70
4
71
1
72
4
73
2
40
0
40
0
40
1
40
1
41
1
10
130.401547776316
20
17.8902113283449
30
0
41
1
10
130.00152571304
20
14.566052677017
30
0
0
LINE
5
85
100
AcDbEntity
8
4
62
256
6
ByLayer
370
18
48
0.05
60
0
100
AcDbLine
10
150
20
0
30
0
11
57
21
0
31
0
39
0
210
0
220
0
230
1
0
LINE
5
87
100
AcDbEntity
8
SK4
62
256
6
ByLayer
370
18
48
0.05
60
0
100
AcDbLine
10
150
20
0
30
0
11
-10
21
0
31
0
39
0
210
0
220
0
230
1
0
LINE
5
89
100
AcDbEntity
8
1
62
256
6
ByLayer
370
18
48
1
60
0
100
AcDbLine
10
130.362596
20
-28.513679
30
0
11
130.486663
21
-23.152265
31
0
39
0
210
0
220
0
230
1
0
LINE
5
8B
100
AcDbEntity
8
1
62
256
6
ByLayer
370
18
48
1
60
0
100
AcDbLine
10
130.486663
20
-23.152265
30
0
11
130.500001
21
-22.965679
31
0
39
0
210
0
220
0
230
1
0
LINE
5
8C
100
AcDbEntity
8
1
62
256
6
ByLayer
370
18
48
1
60
0
100
AcDbLine
10
130.894483
20
-30.465152
30
0
11
136.815498
21
-30.484315
31
0
39
0
210
0
220
0
230
1
0
LINE
5
8D
100
AcDbEntity
8
1
62
256
6
ByLayer
370
18
48
1
60
0
100
AcDbLine
10
130.399871
20
-29.993512
30
0
11
130.362596
21
-28.513679
31
0
39
0
210
0
220
0
230
1
0
LINE
5
8E
100
AcDbEntity
8
1
62
256
6
ByLayer
370
18
48
1
60
0
100
AcDbLine
10
130.76424
20
-31.467211
30
0
11
137.703414
21
-31.489669
31
0
39
0
210
0
220
0
230
1
0
LINE
5
8F
100
AcDbEntity
8
1
62
256
6
ByLayer
370
18
48
1
60
0
100
AcDbLine
10
138.467595
20
-30.71559
30
0
11
138.467613
21
-30.321635
31
0
39
0
210
0
220
0
230
1
0
LINE
5
90
100
AcDbEntity
8
1
62
256
6
ByLayer
370
18
48
1
60
0
100
AcDbLine
10
130
20
-29.395602
30
0
11
130.362596
21
-28.513679
31
0
39
0
210
0
220
0
230
1
0
LINE
5
91
100
AcDbEntity
8
1
62
256
6
ByLayer
370
18
48
1
60
0
100
AcDbLine
10
130
20
-29.395602
30
0
11
130.00006
21
-30.688186
31
0
39
0
210
0
220
0
230
1
0
LINE
5
92
100
AcDbEntity
8
1
62
256
6
ByLayer
370
18
48
1
60
0
100
AcDbLine
10
130.124067
20
-24.034187
30
0
11
130.486663
21
-23.152265
31
0
39
0
210
0
220
0
230
1
0
LINE
5
93
100
AcDbEntity
8
1
62
256
6
ByLayer
370
18
48
1
60
0
100
AcDbLine
10
130.124067
20
-24.034187
30
0
11
130
21
-29.395602
31
0
39
0
210
0
220
0
230
1
0
LINE
5
94
100
AcDbEntity
8
1
62
256
6
ByLayer
370
18
48
1
60
0
100
AcDbLine
10
130.180493
20
-22.890944
30
0
11
130.124067
21
-24.034187
31
0
39
0
210
0
220
0
230
1
0
LINE
5
95
100
AcDbEntity
8
1
62
256
6
ByLayer
370
18
48
1
60
0
100
AcDbLine
10
130
20
15.500999
30
0
11
130.113123
21
15.492521
31
0
39
0
210
0
220
0
230
1
0
LINE
5
96
100
AcDbEntity
8
1
62
256
6
ByLayer
370
18
48
1
60
0
100
AcDbLine
10
130.045976
20
14.93543
30
0
11
130
21
15.500999
31
0
39
0
210
0
220
0
230
1
0
LINE
5
97
100
AcDbEntity
8
1
62
256
6
ByLayer
370
18
48
1
60
0
100
AcDbLine
10
130
20
15.500999
30
0
11
130.00006
21
16.168341
31
0
39
0
210
0
220
0
230
1
0
LINE
5
98
100
AcDbEntity
8
1
62
256
6
ByLayer
370
18
48
1
60
0
100
AcDbLine
10
133.661332
20
26.264372
30
0
11
133.741372
21
26.018298
31
0
39
0
210
0
220
0
230
1
0
LINE
5
99
100
AcDbEntity
8
1
62
256
6
ByLayer
370
18
48
1
60
0
100
AcDbLine
10
137.735399
20
27.317433
30
0
11
137.655358
21
27.563507
31
0
39
0
210
0
220
0
230
1
0
LINE
5
9A
100
AcDbEntity
8
1
62
256
6
ByLayer
370
18
48
1
60
0
100
AcDbLine
10
136.475524
20
26.057616
30
0
11
136.456597
21
26.115806
31
0
39
0
210
0
220
0
230
1
0
LINE
5
9B
100
AcDbEntity
8
1
62
256
6
ByLayer
370
18
48
1
60
0
100
AcDbLine
10
134.893333
20
25.913886
30
0
11
134.827655
21
26.115806
31
0
39
0
210
0
220
0
230
1
0
LINE
5
9C
100
AcDbEntity
8
1
62
256
6
ByLayer
370
18
48
1
60
0
100
AcDbLine
10
136.441263
20
26.14546
30
0
11
136.472776
21
26.048579
31
0
39
0
210
0
220
0
230
1
0
LINE
5
9D
100
AcDbEntity
8
1
62
256
6
ByLayer
370
13
48
1
60
0
100
AcDbLine
10
136.473688
20
26.051587
30
0
11
136.448242
21
26.129819
31
0
39
0
210
0
220
0
230
1
0
LINE
5
9E
100
AcDbEntity
8
1
62
256
6
ByLayer
370
18
48
1
60
0
100
AcDbLine
10
136.880066
20
26.891485
30
0
11
136.781237
21
27.195323
31
0
39
0
210
0
220
0
230
1
0
LINE
5
9F
100
AcDbEntity
8
1
62
256
6
ByLayer
370
18
48
1
60
0
100
AcDbLine
10
134.935673
20
26.02138
30
0
11
134.84366
21
26.30426
31
0
39
0
210
0
220
0
230
1
0
LINE
5
A0
100
AcDbEntity
8
1
62
256
6
ByLayer
370
13
48
1
60
0
100
AcDbLine
10
134.914238
20
25.897488
30
0
11
134.838667
21
26.129819
31
0
39
0
210
0
220
0
230
1
0
LINE
5
A1
100
AcDbEntity
8
1
62
256
6
ByLayer
370
18
48
1
60
0
100
AcDbLine
10
134.652265
20
26.891485
30
0
11
134.553436
21
27.195323
31
0
39
0
210
0
220
0
230
1
0
LINE
5
A2
100
AcDbEntity
8
1
62
256
6
ByLayer
370
18
48
1
60
0
100
AcDbLine
10
136.860149
20
26.891796
30
0
11
136.880066
21
26.891485
31
0
39
0
210
0
220
0
230
1
0
LINE
5
A3
100
AcDbEntity
8
1
62
256
6
ByLayer
370
13
48
1
60
0
100
AcDbLine
10
136.860149
20
26.891796
30
0
11
136.762255
21
27.192762
31
0
39
0
210
0
220
0
230
1
0
LINE
5
A4
100
AcDbEntity
8
1
62
256
6
ByLayer
370
18
48
1
60
0
100
AcDbLine
10
136.491352
20
27.467292
30
0
11
136.583192
21
27.184941
31
0
39
0
210
0
220
0
230
1
0
LINE
5
A5
100
AcDbEntity
8
1
62
256
6
ByLayer
370
18
48
1
60
0
100
AcDbLine
10
136.084072
20
27.682678
30
0
11
135.985242
21
27.986516
31
0
39
0
210
0
220
0
230
1
0
LINE
5
A6
100
AcDbEntity
8
1
62
256
6
ByLayer
370
18
48
1
60
0
100
AcDbLine
10
134.972728
20
27.377468
30
0
11
134.874833
21
27.678433
31
0
39
0
210
0
220
0
230
1
0
LINE
5
A7
100
AcDbEntity
8
1
62
256
6
ByLayer
370
13
48
1
60
0
100
AcDbLine
10
134.672196
20
26.891796
30
0
11
134.574301
21
27.192762
31
0
39
0
210
0
220
0
230
1
0
LINE
5
A8
100
AcDbEntity
8
1
62
256
6
ByLayer
370
18
48
1
60
0
100
AcDbLine
10
135.485213
20
27.682678
30
0
11
135.386384
21
27.986516
31
0
39
0
210
0
220
0
230
1
0
LINE
5
A9
100
AcDbEntity
8
1
62
256
6
ByLayer
370
18
48
1
60
0
100
AcDbLine
10
134.652265
20
26.891485
30
0
11
134.672196
21
26.891796
31
0
39
0
210
0
220
0
230
1
0
LINE
5
AA
100
AcDbEntity
8
1
62
256
6
ByLayer
370
13
48
1
60
0
100
AcDbLine
10
136.073445
20
27.666103
30
0
11
135.97555
21
27.967069
31
0
39
0
210
0
220
0
230
1
0
LINE
5
AB
100
AcDbEntity
8
1
62
256
6
ByLayer
370
13
48
1
60
0
100
AcDbLine
10
135.495066
20
27.666103
30
0
11
135.397171
21
27.967069
31
0
39
0
210
0
220
0
230
1
0
LINE
5
AC
100
AcDbEntity
8
1
62
256
6
ByLayer
370
18
48
1
60
0
100
AcDbLine
10
136.073445
20
27.666103
30
0
11
136.084072
21
27.682678
31
0
39
0
210
0
220
0
230
1
0
LINE
5
AD
100
AcDbEntity
8
1
62
256
6
ByLayer
370
18
48
1
60
0
100
AcDbLine
10
135.485213
20
27.682678
30
0
11
135.495066
21
27.666103
31
0
39
0
210
0
220
0
230
1
0
LINE
5
AE
100
AcDbEntity
8
1
62
256
6
ByLayer
370
18
48
1
60
0
100
AcDbLine
10
139.499999
20
-10.452648
30
0
11
139.513337
21
-10.50983
31
0
39
0
210
0
220
0
230
1
0
LINE
5
AF
100
AcDbEntity
8
1
62
256
6
ByLayer
370
18
48
1
60
0
100
AcDbLine
10
139.513337
20
-10.50983
30
0
11
139.637404
21
-12.133475
31
0
39
0
210
0
220
0
230
1
0
LINE
5
B0
100
AcDbEntity
8
1
62
256
6
ByLayer
370
18
48
1
60
0
100
AcDbLine
10
139.637404
20
-12.133475
30
0
11
139.600129
21
-12.576257
31
0
39
0
210
0
220
0
230
1
0
LINE
5
B1
100
AcDbEntity
8
1
62
256
6
ByLayer
370
18
48
1
60
0
100
AcDbLine
10
133.184502
20
-12.242405
30
0
11
139.105517
21
-12.681137
31
0
39
0
210
0
220
0
230
1
0
LINE
5
B2
100
AcDbEntity
8
1
62
256
6
ByLayer
370
18
48
1
60
0
100
AcDbLine
10
132.296586
20
-16.491282
30
0
11
139.23576
21
-17.005456
31
0
39
0
210
0
220
0
230
1
0
LINE
5
B3
100
AcDbEntity
8
1
62
256
6
ByLayer
370
18
48
1
60
0
100
AcDbLine
10
131.532345
20
-15.333753
30
0
11
131.933433
21
-13.88346
31
0
39
0
210
0
220
0
230
1
0
LINE
5
B4
100
AcDbEntity
8
1
62
256
6
ByLayer
370
18
48
1
60
0
100
AcDbLine
10
132.270176
20
-12.665834
30
0
11
132.416119
21
-12.138116
31
0
39
0
210
0
220
0
230
1
0
LINE
5
B5
100
AcDbEntity
8
1
62
256
6
ByLayer
370
18
48
1
60
0
100
AcDbLine
10
131.532345
20
-15.333753
30
0
11
131.532405
21
-16.021487
31
0
39
0
210
0
220
0
230
1
0
LINE
5
B6
100
AcDbEntity
8
1
62
256
6
ByLayer
370
18
48
1
60
0
100
AcDbLine
10
140
20
-15.961183
30
0
11
139.637404
21
-12.133475
31
0
39
0
210
0
220
0
230
1
0
LINE
5
B7
100
AcDbEntity
8
1
62
256
6
ByLayer
370
18
48
1
60
0
100
AcDbLine
10
139.99994
20
-16.648909
30
0
11
140
21
-15.961183
31
0
39
0
210
0
220
0
230
1
0
LINE
5
B8
100
AcDbEntity
8
1
62
256
6
ByLayer
370
18
48
1
60
0
100
AcDbLine
10
131.418436
20
-13.843044
30
0
11
131.532345
21
-15.333753
31
0
39
0
210
0
220
0
230
1
0
LINE
5
B9
100
AcDbEntity
8
1
62
256
6
ByLayer
370
18
48
1
60
0
100
AcDbLine
10
139.875933
20
-14.337539
30
0
11
139.513337
21
-10.50983
31
0
39
0
210
0
220
0
230
1
0
LINE
5
BA
100
AcDbEntity
8
1
62
256
6
ByLayer
370
18
48
1
60
0
100
AcDbLine
10
140
20
-15.961183
30
0
11
139.875933
21
-14.337539
31
0
39
0
210
0
220
0
230
1
0
LINE
5
BB
100
AcDbEntity
8
1
62
256
6
ByLayer
370
18
48
1
60
0
100
AcDbLine
10
136.427321
20
12.189848
30
0
11
136.347281
21
12.871398
31
0
39
0
210
0
220
0
230
1
0
LINE
5
BC
100
AcDbEntity
8
1
62
256
6
ByLayer
370
18
48
1
60
0
100
AcDbLine
10
132.175948
20
12.381522
30
0
11
132.255988
21
11.699972
31
0
39
0
210
0
220
0
230
1
0
LINE
5
BD
100
AcDbEntity
8
1
62
256
6
ByLayer
370
18
48
1
60
0
100
AcDbLine
10
133.501244
20
12.513773
30
0
11
133.506449
21
12.469448
31
0
39
0
210
0
220
0
230
1
0
LINE
5
BE
100
AcDbEntity
8
1
62
256
6
ByLayer
370
18
48
1
60
0
100
AcDbLine
10
135.128308
20
12.65448
30
0
11
135.135391
21
12.594166
31
0
39
0
210
0
220
0
230
1
0
LINE
5
BF
100
AcDbEntity
8
1
62
256
6
ByLayer
370
18
48
1
60
0
100
AcDbLine
10
133.530839
20
12.445701
30
0
11
133.520489
21
12.533833
31
0
39
0
210
0
220
0
230
1
0
LINE
5
C0
100
AcDbEntity
8
1
62
256
6
ByLayer
370
13
48
1
60
0
100
AcDbLine
10
133.509032
20
12.521894
30
0
11
133.515593
21
12.466031
31
0
39
0
210
0
220
0
230
1
0
LINE
5
C1
100
AcDbEntity
8
1
62
256
6
ByLayer
370
13
48
1
60
0
100
AcDbLine
10
135.116597
20
12.662244
30
0
11
135.125167
21
12.589266
31
0
39
0
210
0
220
0
230
1
0
LINE
5
C2
100
AcDbEntity
8
1
62
256
6
ByLayer
370
18
48
1
60
0
100
AcDbLine
10
135.092739
20
12.677312
30
0
11
135.107207
21
12.55412
31
0
39
0
210
0
220
0
230
1
0
LINE
5
C3
100
AcDbEntity
8
1
62
256
6
ByLayer
370
18
48
1
60
0
100
AcDbLine
10
133.185508
20
12.069817
30
0
11
133.23223
21
11.671979
31
0
39
0
210
0
220
0
230
1
0
LINE
5
C4
100
AcDbEntity
8
1
62
256
6
ByLayer
370
18
48
1
60
0
100
AcDbLine
10
135.409874
20
12.269642
30
0
11
135.460031
21
11.842547
31
0
39
0
210
0
220
0
230
1
0
LINE
5
C5
100
AcDbEntity
8
1
62
256
6
ByLayer
370
18
48
1
60
0
100
AcDbLine
10
133.562424
20
11.452173
30
0
11
133.468142
21
12.254999
31
0
39
0
210
0
220
0
230
1
0
LINE
5
C6
100
AcDbEntity
8
1
62
256
6
ByLayer
370
13
48
1
60
0
100
AcDbLine
10
133.204395
20
12.080016
30
0
11
133.251227
21
11.681238
31
0
39
0
210
0
220
0
230
1
0
LINE
5
C7
100
AcDbEntity
8
1
62
256
6
ByLayer
370
18
48
1
60
0
100
AcDbLine
10
135.045511
20
12.354885
30
0
11
135.140697
21
11.544368
31
0
39
0
210
0
220
0
230
1
0
LINE
5
C8
100
AcDbEntity
8
1
62
256
6
ByLayer
370
13
48
1
60
0
100
AcDbLine
10
135.388697
20
12.278624
30
0
11
135.43918
21
11.848756
31
0
39
0
210
0
220
0
230
1
0
LINE
5
C9
100
AcDbEntity
8
1
62
256
6
ByLayer
370
18
48
1
60
0
100
AcDbLine
10
133.966349
20
12.008204
30
0
11
134.065178
21
11.166664
31
0
39
0
210
0
220
0
230
1
0
LINE
5
CA
100
AcDbEntity
8
1
62
256
6
ByLayer
370
18
48
1
60
0
100
AcDbLine
10
134.565208
20
12.054055
30
0
11
134.664037
21
11.212515
31
0
39
0
210
0
220
0
230
1
0
LINE
5
CB
100
AcDbEntity
8
1
62
256
6
ByLayer
370
13
48
1
60
0
100
AcDbLine
10
133.976202
20
12.02088
30
0
11
134.074097
21
11.187298
31
0
39
0
210
0
220
0
230
1
0
LINE
5
CC
100
AcDbEntity
8
1
62
256
6
ByLayer
370
13
48
1
60
0
100
AcDbLine
10
134.55458
20
12.065163
30
0
11
134.652475
21
11.23158
31
0
39
0
210
0
220
0
230
1
0
LINE
5
CD
100
AcDbEntity
8
1
62
256
6
ByLayer
370
18
48
1
60
0
100
AcDbLine
10
133.976202
20
12.02088
30
0
11
133.966349
21
12.008204
31
0
39
0
210
0
220
0
230
1
0
LINE
5
CE
100
AcDbEntity
8
1
62
256
6
ByLayer
370
18
48
1
60
0
100
AcDbLine
10
134.565208
20
12.054055
30
0
11
134.55458
21
12.065163
31
0
39
0
210
0
220
0
230
1
0
LINE
5
CF
100
AcDbEntity
8
1
62
256
6
ByLayer
370
18
48
1
60
0
100
AcDbLine
10
139.615976
20
-16.976363
30
0
11
139.600129
21
-17.417255
31
0
39
0
210
0
220
0
230
1
0
LINE
5
D0
100
AcDbEntity
8
1
62
256
6
ByLayer
370
18
48
1
60
0
100
AcDbLine
10
139.875933
20
-9.696649
30
0
11
139.627504
21
-11.714926
31
0
39
0
210
0
220
0
230
1
0
LINE
5
D1
100
AcDbEntity
8
1
62
256
6
ByLayer
370
18
48
1
60
0
100
AcDbLine
10
139.875933
20
-9.696649
30
0
11
139.819507
21
-8.603343
31
0
39
0
210
0
220
0
230
1
0
LINE
5
D2
100
AcDbEntity
8
1
62
256
6
ByLayer
370
18
48
1
60
0
100
AcDbLine
10
140
20
-13.434419
30
0
11
139.88087
21
-14.402247
31
0
39
0
210
0
220
0
230
1
0
LINE
5
D3
100
AcDbEntity
8
1
62
256
6
ByLayer
370
18
48
1
60
0
100
AcDbLine
10
140
20
-13.434419
30
0
11
139.875933
21
-9.696649
31
0
39
0
210
0
220
0
230
1
0
LINE
5
D4
100
AcDbEntity
8
1
62
256
6
ByLayer
370
18
48
1
60
0
100
AcDbLine
10
139.99994
20
-14.039277
30
0
11
140
21
-13.434419
31
0
39
0
210
0
220
0
230
1
0
LINE
5
D5
100
AcDbEntity
8
1
62
256
6
ByLayer
370
18
48
1
60
0
100
AcDbLine
10
136.4
20
5.309775
30
0
11
133.6
21
5.209254
31
0
39
0
210
0
220
0
230
1
0
LINE
5
D6
100
AcDbEntity
8
1
62
256
6
ByLayer
370
18
48
1
60
0
100
AcDbLine
10
133.5
20
5.090529
30
0
11
133.5
21
2.283995
31
0
39
0
210
0
220
0
230
1
0
LINE
5
D7
100
AcDbEntity
8
1
62
256
6
ByLayer
370
18
48
1
60
0
100
AcDbLine
10
136.5
20
2.291758
30
0
11
136.5
21
5.19823
31
0
39
0
210
0
220
0
230
1
0
LINE
5
D8
100
AcDbEntity
8
1
62
256
6
ByLayer
370
18
48
1
60
0
100
AcDbLine
10
130.5
20
6.359752
30
0
11
130.5
21
-1.833745
31
0
39
0
210
0
220
0
230
1
0
LINE
5
D9
100
AcDbEntity
8
1
62
256
6
ByLayer
370
13
48
1
60
0
100
AcDbLine
10
139.5
20
7.048825
30
0
11
130.5
21
6.359752
31
0
39
0
210
0
220
0
230
1
0
LINE
5
DA
100
AcDbEntity
8
1
62
256
6
ByLayer
370
18
48
1
60
0
100
AcDbLine
10
139.5
20
-1.557427
30
0
11
139.5
21
7.048825
31
0
39
0
210
0
220
0
230
1
0
LINE
5
DB
100
AcDbEntity
8
1
62
256
6
ByLayer
370
18
48
1
60
0
100
AcDbLine
10
139.5
20
13.980231
30
0
11
138.489217
21
13.902842
31
0
39
0
210
0
220
0
230
1
0
LINE
5
DC
100
AcDbEntity
8
1
62
256
6
ByLayer
370
18
48
1
60
0
100
AcDbLine
10
137.93896
20
16.703896
30
0
11
137.932589
21
16.899641
31
0
39
0
210
0
220
0
230
1
0
LINE
5
DD
100
AcDbEntity
8
1
62
256
6
ByLayer
370
18
48
1
60
0
100
AcDbLine
10
139.5
20
13.980231
30
0
11
139.5
21
16.305704
31
0
39
0
210
0
220
0
230
1
0
LINE
5
DE
100
AcDbEntity
8
1
62
256
6
ByLayer
370
18
48
1
60
0
100
AcDbLine
10
137.813462
20
17.057543
30
0
11
137.805206
21
17.311179
31
0
39
0
210
0
220
0
230
1
0
LINE
5
DF
100
AcDbEntity
8
1
62
256
6
ByLayer
370
18
48
1
60
0
100
AcDbLine
10
137.687319
20
18.409092
30
0
11
137.723014
21
17.312416
31
0
39
0
210
0
220
0
230
1
0
LINE
5
E0
100
AcDbEntity
8
1
62
256
6
ByLayer
370
18
48
1
60
0
100
AcDbLine
10
137.548034
20
17.805543
30
0
11
137.524831
21
18.5184
31
0
39
0
210
0
220
0
230
1
0
LINE
5
E1
100
AcDbEntity
8
1
62
256
6
ByLayer
370
18
48
1
60
0
100
AcDbLine
10
138.516609
20
13.05879
30
0
11
139.5
21
13.134082
31
0
39
0
210
0
220
0
230
1
0
LINE
5
E2
100
AcDbEntity
8
1
62
256
6
ByLayer
370
18
48
1
60
0
100
AcDbLine
10
139.5
20
13.134082
30
0
11
139.5
21
13.980247
31
0
39
0
210
0
220
0
230
1
0
LINE
5
E3
100
AcDbEntity
8
1
62
256
6
ByLayer
370
13
48
1
60
0
100
AcDbLine
10
136.4
20
2.057041
30
0
11
136.4
21
5.309775
31
0
39
0
210
0
220
0
230
1
0
LINE
5
E4
100
AcDbEntity
8
1
62
256
6
ByLayer
370
13
48
1
60
0
100
AcDbLine
10
133.6
20
5.209254
30
0
11
133.6
21
2.057041
31
0
39
0
210
0
220
0
230
1
0
LINE
5
E5
100
AcDbEntity
8
1
62
256
6
ByLayer
370
18
48
1
60
0
100
AcDbLine
10
138.632063
20
9.959803
30
0
11
139.5
21
10.026256
31
0
39
0
210
0
220
0
230
1
0
LINE
5
E6
100
AcDbEntity
8
1
62
256
6
ByLayer
370
18
48
1
60
0
100
AcDbLine
10
130.5
20
7.528943
30
0
11
139.5
21
8.218016
31
0
39
0
210
0
220
0
230
1
0
LINE
5
E7
100
AcDbEntity
8
1
62
256
6
ByLayer
370
18
48
1
60
0
100
AcDbLine
10
130.5
20
8.507398
30
0
11
130.5
21
7.528943
31
0
39
0
210
0
220
0
230
1
0
LINE
5
E8
100
AcDbEntity
8
1
62
256
6
ByLayer
370
18
48
1
60
0
100
AcDbLine
10
139.5
20
8.218016
30
0
11
139.5
21
10.026256
31
0
39
0
210
0
220
0
230
1
0
LINE
5
E9
100
AcDbEntity
8
1
62
256
6
ByLayer
370
13
48
1
60
0
100
AcDbLine
10
130.5
20
7.494205
30
0
11
139.5
21
8.183278
31
0
39
0
210
0
220
0
230
1
0
LINE
5
EA
100
AcDbEntity
8
1
62
256
6
ByLayer
370
18
48
1
60
0
100
AcDbLine
10
130.5
20
7.528943
30
0
11
130.5
21
7.494205
31
0
39
0
210
0
220
0
230
1
0
LINE
5
EB
100
AcDbEntity
8
1
62
256
6
ByLayer
370
18
48
1
60
0
100
AcDbLine
10
139.5
20
8.183278
30
0
11
139.5
21
8.218016
31
0
39
0
210
0
220
0
230
1
0
LINE
5
EC
100
AcDbEntity
8
1
62
256
6
ByLayer
370
13
48
1
60
0
100
AcDbLine
10
139.5
20
12.445018
30
0
11
138.538969
21
12.371438
31
0
39
0
210
0
220
0
230
1
0
LINE
5
ED
100
AcDbEntity
8
1
62
256
6
ByLayer
370
18
48
1
60
0
100
AcDbLine
10
138.626719
20
10.063609
30
0
11
139.5
21
10.130471
31
0
39
0
210
0
220
0
230
1
0
LINE
5
EE
100
AcDbEntity
8
1
62
256
6
ByLayer
370
18
48
1
60
0
100
AcDbLine
10
139.5
20
10.130471
30
0
11
139.5
21
12.445018
31
0
39
0
210
0
220
0
230
1
0
LINE
5
EF
100
AcDbEntity
8
1
62
256
6
ByLayer
370
18
48
1
60
0
100
AcDbLine
10
139.5
20
10.026256
30
0
11
139.5
21
10.130471
31
0
39
0
210
0
220
0
230
1
0
LINE
5
F0
100
AcDbEntity
8
1
62
256
6
ByLayer
370
18
48
1
60
0
100
AcDbLine
10
131.472984
20
-14.556442
30
0
11
130.5
21
-14.484346
31
0
39
0
210
0
220
0
230
1
0
LINE
5
F1
100
AcDbEntity
8
1
62
256
6
ByLayer
370
18
48
1
60
0
100
AcDbLine
10
130.5
20
-14.484346
30
0
11
130.5
21
-13.475905
31
0
39
0
210
0
220
0
230
1
0
LINE
5
F2
100
AcDbEntity
8
1
62
256
6
ByLayer
370
13
48
1
60
0
100
AcDbLine
10
138.529828
20
12.654351
30
0
11
139.5
21
12.728631
31
0
39
0
210
0
220
0
230
1
0
LINE
5
F3
100
AcDbEntity
8
1
62
256
6
ByLayer
370
18
48
1
60
0
100
AcDbLine
10
139.5
20
12.728631
30
0
11
139.5
21
13.134081
31
0
39
0
210
0
220
0
230
1
0
LINE
5
F4
100
AcDbEntity
8
1
62
256
6
ByLayer
370
13
48
1
60
0
100
AcDbLine
10
131.512781
20
-15.076937
30
0
11
130.5
21
-15.001892
31
0
39
0
210
0
220
0
230
1
0
LINE
5
F5
100
AcDbEntity
8
1
62
256
6
ByLayer
370
18
48
1
60
0
100
AcDbLine
10
136.4
20
-16.990407
30
0
11
133.6
21
-16.921284
31
0
39
0
210
0
220
0
230
1
0
LINE
5
F6
100
AcDbEntity
8
1
62
256
6
ByLayer
370
18
48
1
60
0
100
AcDbLine
10
133.5
20
-17.087434
30
0
11
133.5
21
-19.029064
31
0
39
0
210
0
220
0
230
1
0
LINE
5
F7
100
AcDbEntity
8
1
62
256
6
ByLayer
370
18
48
1
60
0
100
AcDbLine
10
136.5
20
-18.964605
30
0
11
136.5
21
-17.161493
31
0
39
0
210
0
220
0
230
1
0
LINE
5
F8
100
AcDbEntity
8
1
62
256
6
ByLayer
370
18
48
1
60
0
100
AcDbLine
10
130.5
20
-15.001892
30
0
11
130.5
21
-26.410511
31
0
39
0
210
0
220
0
230
1
0
LINE
5
F9
100
AcDbEntity
8
1
62
256
6
ByLayer
370
18
48
1
60
0
100
AcDbLine
10
139.5
20
-26.53023
30
0
11
139.5
21
-16.994206
31
0
39
0
210
0
220
0
230
1
0
LINE
5
FA
100
AcDbEntity
8
1
62
256
6
ByLayer
370
13
48
1
60
0
100
AcDbLine
10
133.6
20
-16.921284
30
0
11
133.6
21
-18.047071
31
0
39
0
210
0
220
0
230
1
0
LINE
5
FB
100
AcDbEntity
8
1
62
256
6
ByLayer
370
13
48
1
60
0
100
AcDbLine
10
136.4
20
-18.047071
30
0
11
136.4
21
-16.990407
31
0
39
0
210
0
220
0
230
1
0
LINE
5
FC
100
AcDbEntity
8
1
62
256
6
ByLayer
370
18
48
1
60
0
100
AcDbLine
10
105.2
20
-12.49475
30
0
11
105.279218
21
-12.430121
31
0
39
0
210
0
220
0
230
1
0
LINE
5
FD
100
AcDbEntity
8
1
62
256
6
ByLayer
370
18
48
1
60
0
100
AcDbLine
10
105.279218
20
12.430121
30
0
11
105.2
21
12.49475
31
0
39
0
210
0
220
0
230
1
0
LINE
5
FE
100
AcDbEntity
8
1
62
256
6
ByLayer
370
18
48
1
60
0
100
AcDbLine
10
129.7
20
12.25
30
0
11
105.784936
21
12.25
31
0
39
0
210
0
220
0
230
1
0
LINE
5
FF
100
AcDbEntity
8
1
62
256
6
ByLayer
370
18
48
1
60
0
100
AcDbLine
10
105.784936
20
-12.25
30
0
11
129.7
21
-12.25
31
0
39
0
210
0
220
0
230
1
0
LINE
5
100
100
AcDbEntity
8
1
62
256
6
ByLayer
370
18
48
1
60
0
100
AcDbLine
10
130.5
20
26.023323
30
0
11
131.452792
21
26.023323
31
0
39
0
210
0
220
0
230
1
0
LINE
5
101
100
AcDbEntity
8
1
62
256
6
ByLayer
370
18
48
1
60
0
100
AcDbLine
10
130.5
20
26.023323
30
0
11
130.5
21
29.256385
31
0
39
0
210
0
220
0
230
1
0
LINE
5
102
100
AcDbEntity
8
1
62
256
6
ByLayer
370
18
48
1
60
0
100
AcDbLine
10
130.5
20
25.505685
30
0
11
131.440697
21
25.505685
31
0
39
0
210
0
220
0
230
1
0
LINE
5
103
100
AcDbEntity
8
1
62
256
6
ByLayer
370
18
48
1
60
0
100
AcDbLine
10
130.5
20
25.505685
30
0
11
130.5
21
26.023323
31
0
39
0
210
0
220
0
230
1
0
LINE
5
104
100
AcDbEntity
8
1
62
256
6
ByLayer
370
18
48
1
60
0
100
AcDbLine
10
130.5
20
24.903237
30
0
11
130.5
21
25.505685
31
0
39
0
210
0
220
0
230
1
0
LINE
5
105
100
AcDbEntity
8
1
62
256
6
ByLayer
370
18
48
1
60
0
100
AcDbLine
10
139.499917
20
24.116856
30
0
11
139.875933
21
24.116856
31
0
39
0
210
0
220
0
230
1
0
LINE
5
106
100
AcDbEntity
8
1
62
256
6
ByLayer
370
18
48
1
60
0
100
AcDbLine
10
139.875933
20
24.116856
30
0
11
139.819507
21
22.996679
31
0
39
0
210
0
220
0
230
1
0
LINE
5
107
100
AcDbEntity
8
1
62
256
6
ByLayer
370
18
48
1
60
0
100
AcDbLine
10
140
20
29.429448
30
0
11
139.875933
21
24.116856
31
0
39
0
210
0
220
0
230
1
0
LINE
5
108
100
AcDbEntity
8
1
62
256
6
ByLayer
370
18
48
1
60
0
100
AcDbLine
10
131.434367
20
25.233994
30
0
11
131.532345
21
29.429448
31
0
39
0
210
0
220
0
230
1
0
LINE
5
109
100
AcDbEntity
8
1
62
256
6
ByLayer
370
18
48
1
60
0
100
AcDbLine
10
131.532345
20
29.429448
30
0
11
140
21
29.429448
31
0
39
0
210
0
220
0
230
1
0
LINE
5
10A
100
AcDbEntity
8
1
62
256
6
ByLayer
370
18
48
1
60
0
100
AcDbLine
10
139.99994
20
30.722917
30
0
11
140
21
29.429448
31
0
39
0
210
0
220
0
230
1
0
LINE
5
10B
100
AcDbEntity
8
1
62
256
6
ByLayer
370
18
48
1
60
0
100
AcDbLine
10
131.532345
20
29.429448
30
0
11
131.532405
21
30.722917
31
0
39
0
210
0
220
0
230
1
0
LINE
5
10C
100
AcDbEntity
8
1
62
256
6
ByLayer
370
18
48
1
60
0
100
AcDbLine
10
132.296586
20
31.5
30
0
11
139.23576
21
31.5
31
0
39
0
210
0
220
0
230
1
0
LINE
5
10D
100
AcDbEntity
8
1
62
256
6
ByLayer
370
18
48
1
60
0
100
AcDbLine
10
138.467595
20
15.190771
30
0
11
138.467655
21
14.564875
31
0
39
0
210
0
220
0
230
1
0
LINE
5
10E
100
AcDbEntity
8
1
62
256
6
ByLayer
370
18
48
1
60
0
100
AcDbLine
10
130
20
13.91656
30
0
11
138.467655
21
14.564875
31
0
39
0
210
0
220
0
230
1
0
LINE
5
10F
100
AcDbEntity
8
1
62
256
6
ByLayer
370
18
48
1
60
0
100
AcDbLine
10
130
20
13.91656
30
0
11
130.00006
21
14.542465
31
0
39
0
210
0
220
0
230
1
0
LINE
5
110
100
AcDbEntity
8
1
62
256
6
ByLayer
370
18
48
1
60
0
100
AcDbLine
10
130.76424
20
14.976999
30
0
11
137.703414
21
15.508288
31
0
39
0
210
0
220
0
230
1
0
LINE
5
111
100
AcDbEntity
8
1
62
256
6
ByLayer
370
18
48
1
60
0
100
AcDbLine
10
130.894483
20
18.241802
30
0
11
136.815498
21
18.695137
31
0
39
0
210
0
220
0
230
1
0
LINE
5
112
100
AcDbEntity
8
1
62
256
6
ByLayer
370
18
48
1
60
0
100
AcDbLine
10
138.467655
20
14.564875
30
0
11
138.591722
21
10.753139
31
0
39
0
210
0
220
0
230
1
0
LINE
5
113
100
AcDbEntity
8
1
62
256
6
ByLayer
370
18
48
1
60
0
100
AcDbLine
10
130.124067
20
10.104824
30
0
11
138.591722
21
10.753139
31
0
39
0
210
0
220
0
230
1
0
LINE
5
114
100
AcDbEntity
8
1
62
256
6
ByLayer
370
18
48
1
60
0
100
AcDbLine
10
130.124067
20
10.104824
30
0
11
130
21
13.91656
31
0
39
0
210
0
220
0
230
1
0
LINE
5
115
100
AcDbEntity
8
1
62
256
6
ByLayer
370
18
48
1
60
0
100
AcDbLine
10
138.591722
20
10.753139
30
0
11
138.648028
21
9.647267
31
0
39
0
210
0
220
0
230
1
0
LINE
5
116
100
AcDbEntity
8
1
62
256
6
ByLayer
370
18
48
1
60
0
100
AcDbLine
10
137.917711
20
8.924382
30
0
11
130.978537
21
8.393093
31
0
39
0
210
0
220
0
230
1
0
LINE
5
117
100
AcDbEntity
8
1
62
256
6
ByLayer
370
18
48
1
60
0
100
AcDbLine
10
130.180493
20
8.998962
30
0
11
130.124067
21
10.104824
31
0
39
0
210
0
220
0
230
1
0
LINE
5
118
100
AcDbEntity
8
1
62
256
6
ByLayer
370
18
48
1
60
0
100
AcDbLine
10
105.2
20
12.49475
30
0
11
57
21
12.49475
31
0
39
0
210
0
220
0
230
1
0
LINE
5
119
100
AcDbEntity
8
1
62
256
6
ByLayer
370
18
48
1
60
0
100
AcDbLine
10
57
20
-12.49475
30
0
11
105.2
21
-12.49475
31
0
39
0
210
0
220
0
230
1
0
LINE
5
11A
100
AcDbEntity
8
SK1
62
256
6
ByLayer
370
18
48
1
60
0
100
AcDbLine
10
1
20
12.49475
30
0
11
0
21
11.49475
31
0
39
0
210
0
220
0
230
1
0
LINE
5
11C
100
AcDbEntity
8
SK1
62
256
6
ByLayer
370
18
48
1
60
0
100
AcDbLine
10
0
20
-11.49475
30
0
11
1
21
-12.49475
31
0
39
0
210
0
220
0
230
1
0
LINE
5
11D
100
AcDbEntity
8
SK1
62
256
6
ByLayer
370
18
48
1
60
0
100
AcDbLine
10
57
20
12.49475
30
0
11
1
21
12.49475
31
0
39
0
210
0
220
0
230
1
0
LINE
5
11E
100
AcDbEntity
8
SK1
62
256
6
ByLayer
370
18
48
1
60
0
100
AcDbLine
10
1
20
-12.49475
30
0
11
57
21
-12.49475
31
0
39
0
210
0
220
0
230
1
0
LINE
5
11F
100
AcDbEntity
8
80
62
256
6
ByLayer
370
18
48
1
60
0
100
AcDbLine
10
0
20
0
30
0
11
-10
21
0
31
0
39
0
210
0
220
0
230
1
0
LINE
5
120
100
AcDbEntity
8
81
62
256
6
ByLayer
370
18
48
1
60
0
100
AcDbLine
10
140
20
0
30
0
11
150
21
0
31
0
39
0
210
0
220
0
230
1
0
LINE
5
121
100
AcDbEntity
8
1
62
256
6
ByLayer
370
18
48
1
60
0
100
AcDbLine
10
134.6
20
1.144231
30
0
11
134.6
21
1.353987
31
0
39
0
210
0
220
0
230
1
0
LINE
5
122
100
AcDbEntity
8
1
62
256
6
ByLayer
370
18
48
1
60
0
100
AcDbLine
10
105.2
20
12.49475
30
0
11
105.2
21
-12.49475
31
0
39
0
210
0
220
0
230
1
0
LINE
5
123
100
AcDbEntity
8
1
62
256
6
ByLayer
370
18
48
1
60
0
100
AcDbLine
10
136.34729
20
12.871326
30
0
11
136.347281
21
12.871398
31
0
39
0
210
0
220
0
230
1
0
LINE
5
124
100
AcDbEntity
8
1
62
256
6
ByLayer
370
13
48
1
60
0
100
AcDbLine
10
105.279218
20
-12.430121
30
0
11
105.279218
21
12.430121
31
0
39
0
210
0
220
0
230
1
0
LINE
5
125
100
AcDbEntity
8
1
62
256
6
ByLayer
370
13
48
1
60
0
100
AcDbLine
10
105.784936
20
12.25
30
0
11
105.784936
21
-12.25
31
0
39
0
210
0
220
0
230
1
0
LINE
5
126
100
AcDbEntity
8
1
62
256
6
ByLayer
370
18
48
1
60
0
100
AcDbLine
10
57
20
-12.49475
30
0
11
57
21
12.49475
31
0
39
0
210
0
220
0
230
1
0
LINE
5
127
100
AcDbEntity
8
SK1
62
256
6
ByLayer
370
18
48
1
60
0
100
AcDbLine
10
57
20
-12.49475
30
0
11
57
21
12.49475
31
0
39
0
210
0
220
0
230
1
0
LINE
5
128
100
AcDbEntity
8
SK1
62
256
6
ByLayer
370
18
48
1
60
0
100
AcDbLine
10
1
20
12.49475
30
0
11
1
21
-12.49475
31
0
39
0
210
0
220
0
230
1
0
LINE
5
129
100
AcDbEntity
8
1
62
256
6
ByLayer
370
13
48
1
60
0
100
AcDbLine
10
131.5
20
-2.76892
30
0
11
131.5
21
-13.850401
31
0
39
0
210
0
220
0
230
1
0
LINE
5
12A
100
AcDbEntity
8
1
62
256
6
ByLayer
370
18
48
1
60
0
100
AcDbLine
10
130.5
20
-13.475938
30
0
11
130.5
21
-1.833745
31
0
39
0
210
0
220
0
230
1
0
LINE
5
12B
100
AcDbEntity
8
1
62
256
6
ByLayer
370
13
48
1
60
0
100
AcDbLine
10
138.5
20
-12.56078
30
0
11
138.5
21
-2.5602
31
0
39
0
210
0
220
0
230
1
0
LINE
5
12C
100
AcDbEntity
8
1
62
256
6
ByLayer
370
18
48
1
60
0
100
AcDbLine
10
139.5
20
-1.557427
30
0
11
139.5
21
-12.342195
31
0
39
0
210
0
220
0
230
1
0
LINE
5
12D
100
AcDbEntity
8
1
62
256
6
ByLayer
370
13
48
1
60
0
100
AcDbLine
10
138.5
20
16.940073
30
0
11
138.5
21
25.11759
31
0
39
0
210
0
220
0
230
1
0
LINE
5
12E
100
AcDbEntity
8
1
62
256
6
ByLayer
370
13
48
1
60
0
100
AcDbLine
10
131.5
20
25.234682
30
0
11
131.5
21
18.288228
31
0
39
0
210
0
220
0
230
1
0
LINE
5
12F
100
AcDbEntity
8
1
62
256
6
ByLayer
370
18
48
1
60
0
100
AcDbLine
10
139.5
20
24.755556
30
0
11
139.5
21
16.305704
31
0
39
0
210
0
220
0
230
1
0
LINE
5
130
100
AcDbEntity
8
1
62
256
6
ByLayer
370
18
48
1
60
0
100
AcDbLine
10
130.5
20
18.086243
30
0
11
130.5
21
24.903253
31
0
39
0
210
0
220
0
230
1
0
LINE
5
131
100
AcDbEntity
8
1
62
256
6
ByLayer
370
13
48
1
60
0
100
AcDbLine
10
129.7
20
-12.25
30
0
11
129.7
21
12.25
31
0
39
0
210
0
220
0
230
1
0
LINE
5
132
100
AcDbEntity
8
1
62
256
6
ByLayer
370
13
48
1
60
0
100
AcDbLine
10
131.5
20
-27.712409
30
0
11
131.5
21
-30.216399
31
0
39
0
210
0
220
0
230
1
0
LINE
5
133
100
AcDbEntity
8
1
62
256
6
ByLayer
370
13
48
1
60
0
100
AcDbLine
10
138.5
20
-30.321508
30
0
11
138.5
21
-27.797314
31
0
39
0
210
0
220
0
230
1
0
LINE
5
134
100
AcDbEntity
8
1
62
256
6
ByLayer
370
18
48
1
60
0
100
AcDbLine
10
139.5
20
-26.53023
30
0
11
139.5
21
-29.32719
31
0
39
0
210
0
220
0
230
1
0
LINE
5
135
100
AcDbEntity
8
SK1
62
256
6
ByLayer
370
18
48
1
60
0
100
AcDbLine
10
0
20
11.49475
30
0
11
0
21
-11.49475
31
0
39
0
210
0
220
0
230
1
0
LINE
5
136
100
AcDbEntity
8
1
62
256
6
ByLayer
370
18
48
1
60
0
100
AcDbLine
10
130.5
20
-29.241126
30
0
11
130.5
21
-26.410511
31
0
39
0
210
0
220
0
230
1
0
LINE
5
137
100
AcDbEntity
8
1
62
256
6
ByLayer
370
18
48
1
60
0
100
AcDbLine
10
139.5
20
7.048825
30
0
11
139.5
21
8.183278
31
0
39
0
210
0
220
0
230
1
0
LINE
5
138
100
AcDbEntity
8
1
62
256
6
ByLayer
370
18
48
1
60
0
100
AcDbLine
10
130.5
20
7.494205
30
0
11
130.5
21
6.359752
31
0
39
0
210
0
220
0
230
1
0
LINE
5
139
100
AcDbEntity
8
1
62
256
6
ByLayer
370
18
48
1
60
0
100
AcDbLine
10
139.5
20
12.445018
30
0
11
139.5
21
12.728631
31
0
39
0
210
0
220
0
230
1
0
LINE
5
13A
100
AcDbEntity
8
1
62
256
6
ByLayer
370
18
48
1
60
0
100
AcDbLine
10
130.5
20
-14.484348
30
0
11
130.5
21
-15.001892
31
0
39
0
210
0
220
0
230
1
0
MTEXT
5
21B
100
AcDbEntity
8
SK6
62
256
6
ByLayer
370
18
48
1
60
0
100
AcDbMText
10
75.622368
20
-55.875
30
0
210
0
220
0
230
1
1
\W0.7607;R331.35C-063A25EM100
40
3.5
41
0
44
1.084337
50
0
71
7
72
5
7
iso_b_vert
0
DIMENSION
5
22C
100
AcDbEntity
8
2
62
256
6
ByLayer
370
13
48
1
60
0
100
AcDbDimension
2
DimnDraft3D1
10
140
20
49.89597
30
0
11
100.292105
21
49.89597
31
0
70
32
71
5
72
1
41
1
210
0
220
0
230
1
3
Standard
100
AcDbAlignedDimension
13
57
23
14.0875
33
0
14
140
24
33.0875
34
0
50
0
100
AcDbRotatedDimension
1001
ACAD
1000
DSTYLE
1002
{
1070
   279
1070
     0
1070
   172
1070
     1
1070
   173
1070
     1
1070
   340
1005
21C
1070
   271
1070
     2
1070
   272
1070
     3
1070
    77
1070
     1
1070
    73
1070
     0
1070
   171
1070
     3
1070
   274
1070
     4
1070
   177
1070
     2
1070
   176
1070
     2
1070
   178
1070
     7
1070
    78
1070
     8
1070
    48
1040
-0.005
1070
    41
1041
3.5
1070
   147
1041
1.5
1070
    42
1041
1.5875
1070
    44
1041
2.0
1070
   140
1041
3.0
1070
   343
1005
22D
1070
   344
1005
22D
1002
}
0
DIMENSION
5
242
100
AcDbEntity
8
SK2
62
256
6
ByLayer
370
13
48
1
60
0
100
AcDbDimension
2
DimnDraft3D2
10
0
20
59.89597
30
0
11
72.696053
21
59.89597
31
0
70
32
71
5
72
1
41
1
210
0
220
0
230
1
3
Standard
100
AcDbAlignedDimension
13
140
23
31.976956
33
0
14
0
24
0.476956
34
0
50
0
100
AcDbRotatedDimension
1001
ACAD
1000
DSTYLE
1002
{
1070
   279
1070
     0
1070
   172
1070
     1
1070
   173
1070
     1
1070
   340
1005
21C
1070
   271
1070
     3
1070
   272
1070
     3
1070
    77
1070
     1
1070
    73
1070
     0
1070
   171
1070
     3
1070
   274
1070
     4
1070
   177
1070
     2
1070
   176
1070
     2
1070
   178
1070
     7
1070
    78
1070
     8
1070
    48
1040
-0.005
1070
    41
1041
0.953912
1070
   147
1041
1.5
1070
    42
1041
0.476956
1070
    44
1041
0.953912
1070
   140
1041
3.0
1070
   343
1005
22D
1070
   344
1005
22D
1002
}
0
DIMENSION
5
250
100
AcDbEntity
8
SK2
62
256
6
ByLayer
370
13
48
1
60
0
100
AcDbDimension
2
DimnDraft3D3
10
140
20
39.89597
30
0
11
136.417105
21
39.89597
31
0
70
32
71
5
72
1
41
1
210
0
220
0
230
1
3
Standard
100
AcDbAlignedDimension
13
130
23
31.976956
33
0
14
140
24
31.976956
34
0
50
0
100
AcDbRotatedDimension
1001
ACAD
1000
DSTYLE
1002
{
1070
   279
1070
     0
1070
   172
1070
     1
1070
   173
1070
     1
1070
   340
1005
21C
1070
   271
1070
     3
1070
   272
1070
     3
1070
    77
1070
     1
1070
    73
1070
     0
1070
   171
1070
     3
1070
   274
1070
     4
1070
   177
1070
     2
1070
   176
1070
     2
1070
   178
1070
     7
1070
    78
1070
     8
1070
    48
1040
-0.005
1070
    41
1041
0.953912
1070
   147
1041
1.5
1070
    42
1041
0.476956
1070
    44
1041
0.953912
1070
   140
1041
3.0
1070
   343
1005
22D
1070
   344
1005
22D
1002
}
0
DIMENSION
5
25E
100
AcDbEntity
8
SK2
62
256
6
ByLayer
370
13
48
1
60
0
100
AcDbDimension
2
DimnDraft3D4
10
-18.35
20
-12.5
30
0
11
-18.35
21
1.792105
31
0
70
32
71
5
72
1
41
1
210
0
220
0
230
1
3
Standard
100
AcDbAlignedDimension
13
55.4125
23
12.5
33
0
14
55.4125
24
-12.5
34
0
50
90
100
AcDbRotatedDimension
1001
ACAD
1000
DSTYLE
1002
{
1070
    74
1070
     0
1070
   279
1070
     0
1070
   172
1070
     1
1070
   173
1070
     1
1070
   340
1005
21C
1070
   271
1070
     0
1070
   272
1070
     3
1070
    77
1070
     1
1070
    73
1070
     0
1070
   171
1070
     3
1070
   274
1070
     4
1070
   177
1070
     2
1070
   176
1070
     2
1070
   178
1070
     7
1070
    78
1070
     8
1070
    48
1040
-0.005
1070
    41
1041
3.5
1070
   147
1041
1.5
1070
    42
1041
1.5875
1070
    44
1041
2.0
1070
   140
1041
3.0
1070
   343
1005
22D
1070
   344
1005
22D
1002
}
0
DIMENSION
5
26C
100
AcDbEntity
8
2
62
256
6
ByLayer
370
13
48
1
60
0
100
AcDbDimension
2
DimnDraft3D5
10
164.35
20
-31.5
30
0
11
164.35
21
1.792105
31
0
70
32
71
5
72
1
41
1
210
0
220
0
230
1
3
Standard
100
AcDbAlignedDimension
13
141.5875
23
31.5
33
0
14
141.5875
24
-31.5
34
0
50
90
100
AcDbRotatedDimension
1001
ACAD
1000
DSTYLE
1002
{
1070
    74
1070
     0
1070
   279
1070
     0
1070
   172
1070
     1
1070
   173
1070
     1
1070
   340
1005
21C
1070
   271
1070
     2
1070
   272
1070
     3
1070
    77
1070
     1
1070
    73
1070
     0
1070
   171
1070
     3
1070
   274
1070
     4
1070
   177
1070
     2
1070
   176
1070
     2
1070
   178
1070
     7
1070
    78
1070
     8
1070
    48
1040
-0.005
1070
    41
1041
3.5
1070
   147
1041
1.5
1070
    42
1041
1.5875
1070
    44
1041
2.0
1070
   140
1041
3.0
1070
   343
1005
22D
1070
   344
1005
22D
1002
}
0
ENDSEC
0
SECTION
2
OBJECTS
0
DICTIONARY
5
2d8
330
0
100
AcDbDictionary
280
0
281
1
3
ACAD_GROUP
350
2d9
3
ACAD_MLINESTYLE
350
2da
0
DICTIONARY
5
2d9
330
0
100
AcDbDictionary
280
0
281
1
0
DICTIONARY
5
2da
330
0
100
AcDbDictionary
280
0
281
1
3
Standard
350
18
0
MLINESTYLE
5
18
330
2da
100
AcDbMlineStyle
2
Standard
70
0
3

62
256
51
90
52
90
71
2
49
-0.5
62
256
6
ByLayer
49
0.5
62
256
6
ByLayer
0
RASTERVARIABLES
5
2c5
330

100
AcDbRasterVariables
90
0
70
1
71
1
72
1
0
ENDSEC
0
EOF
