  0
SECTION
  2
HEADER
  9
$ACADVER
  1
AC1015
  9
$ACADMAINTVER
 70
    20
  9
$DWGCODEPAGE
  3
ANSI_1252
  9
$INSBASE
 10
0.0
 20
0.0
 30
0.0
  9
$EXTMIN
 10
-122.4709405389625
 20
-45.63131066266109
 30
0.0
  9
$EXTMAX
 10
50.60619953442198
 20
52.30498282855947
 30
0.0
  9
$LIMMIN
 10
0.0
 20
0.0
  9
$LIMMAX
 10
12.0
 20
9.0
  9
$ORTHOMODE
 70
     0
  9
$REGENMODE
 70
     1
  9
$FILLMODE
 70
     1
  9
$QTEXTMODE
 70
     0
  9
$MIRRTEXT
 70
     1
  9
$LTSCALE
 40
1.0
  9
$ATTMODE
 70
     1
  9
$TEXTSIZE
 40
3.0
  9
$TRACEWID
 40
10.0
  9
$TEXTSTYLE
  7
SANDVIK_STYLE
  9
$CLAYER
  8
DEFPOINTS
  9
$CELTYPE
  6
ByLayer
  9
$CECOLOR
 62
   256
  9
$CELTSCALE
 40
1.0
  9
$DISPSILH
 70
     0
  9
$DIMSCALE
 40
1.0
  9
$DIMASZ
 40
0.18
  9
$DIMEXO
 40
0.0625
  9
$DIMDLI
 40
0.38
  9
$DIMRND
 40
0.0
  9
$DIMDLE
 40
0.0
  9
$DIMEXE
 40
0.18
  9
$DIMTP
 40
0.0
  9
$DIMTM
 40
0.0
  9
$DIMTXT
 40
0.18
  9
$DIMCEN
 40
0.09
  9
$DIMTSZ
 40
0.0
  9
$DIMTOL
 70
     0
  9
$DIMLIM
 70
     0
  9
$DIMTIH
 70
     1
  9
$DIMTOH
 70
     1
  9
$DIMSE1
 70
     0
  9
$DIMSE2
 70
     0
  9
$DIMTAD
 70
     0
  9
$DIMZIN
 70
     0
  9
$DIMBLK
  1

  9
$DIMASO
 70
     1
  9
$DIMSHO
 70
     1
  9
$DIMPOST
  1

  9
$DIMAPOST
  1

  9
$DIMALT
 70
     0
  9
$DIMALTD
 70
     2
  9
$DIMALTF
 40
25.4
  9
$DIMLFAC
 40
1.0
  9
$DIMTOFL
 70
     0
  9
$DIMTVP
 40
0.0
  9
$DIMTIX
 70
     0
  9
$DIMSOXD
 70
     0
  9
$DIMSAH
 70
     0
  9
$DIMBLK1
  1

  9
$DIMBLK2
  1

  9
$DIMSTYLE
  2
STANDARD
  9
$DIMCLRD
 70
     0
  9
$DIMCLRE
 70
     0
  9
$DIMCLRT
 70
     0
  9
$DIMTFAC
 40
1.0
  9
$DIMGAP
 40
0.09
  9
$DIMJUST
 70
     0
  9
$DIMSD1
 70
     0
  9
$DIMSD2
 70
     0
  9
$DIMTOLJ
 70
     1
  9
$DIMTZIN
 70
     0
  9
$DIMALTZ
 70
     0
  9
$DIMALTTZ
 70
     0
  9
$DIMUPT
 70
     0
  9
$DIMDEC
 70
     4
  9
$DIMTDEC
 70
     4
  9
$DIMALTU
 70
     2
  9
$DIMALTTD
 70
     2
  9
$DIMTXSTY
  7
STANDARD
  9
$DIMAUNIT
 70
     0
  9
$DIMADEC
 70
     0
  9
$DIMALTRND
 40
0.0
  9
$DIMAZIN
 70
     0
  9
$DIMDSEP
 70
    46
  9
$DIMATFIT
 70
     3
  9
$DIMFRAC
 70
     0
  9
$DIMLDRBLK
  1

  9
$DIMLUNIT
 70
     2
  9
$DIMLWD
 70
    -2
  9
$DIMLWE
 70
    -2
  9
$DIMTMOVE
 70
     0
  9
$LUNITS
 70
     2
  9
$LUPREC
 70
     2
  9
$SKETCHINC
 40
0.0
  9
$FILLETRAD
 40
0.0
  9
$AUNITS
 70
     0
  9
$AUPREC
 70
     2
  9
$MENU
  1
acad
  9
$ELEVATION
 40
0.0
  9
$PELEVATION
 40
0.0
  9
$THICKNESS
 40
0.0
  9
$LIMCHECK
 70
     0
  9
$CHAMFERA
 40
0.0
  9
$CHAMFERB
 40
0.0
  9
$CHAMFERC
 40
0.0
  9
$CHAMFERD
 40
0.0
  9
$SKPOLY
 70
     0
  9
$TDCREATE
 40
2454070.563713959
  9
$TDUCREATE
 40
2454070.730380625
  9
$TDUPDATE
 40
2458046.457651771
  9
$TDUUPDATE
 40
2458046.624318438
  9
$TDINDWG
 40
1.5108387037
  9
$TDUSRTIMER
 40
1.5108386806
  9
$USRTIMER
 70
     1
  9
$ANGBASE
 50
0.0
  9
$ANGDIR
 70
     0
  9
$PDMODE
 70
     0
  9
$PDSIZE
 40
0.0
  9
$PLINEWID
 40
0.0
  9
$SPLFRAME
 70
     0
  9
$SPLINETYPE
 70
     6
  9
$SPLINESEGS
 70
     8
  9
$HANDSEED
  5
142A1
  9
$SURFTAB1
 70
     6
  9
$SURFTAB2
 70
     6
  9
$SURFTYPE
 70
     6
  9
$SURFU
 70
     6
  9
$SURFV
 70
     6
  9
$UCSBASE
  2

  9
$UCSNAME
  2

  9
$UCSORG
 10
0.0
 20
0.0
 30
0.0
  9
$UCSXDIR
 10
1.0
 20
0.0
 30
0.0
  9
$UCSYDIR
 10
0.0
 20
1.0
 30
0.0
  9
$UCSORTHOREF
  2

  9
$UCSORTHOVIEW
 70
     0
  9
$UCSORGTOP
 10
0.0
 20
0.0
 30
0.0
  9
$UCSORGBOTTOM
 10
0.0
 20
0.0
 30
0.0
  9
$UCSORGLEFT
 10
0.0
 20
0.0
 30
0.0
  9
$UCSORGRIGHT
 10
0.0
 20
0.0
 30
0.0
  9
$UCSORGFRONT
 10
0.0
 20
0.0
 30
0.0
  9
$UCSORGBACK
 10
0.0
 20
0.0
 30
0.0
  9
$PUCSBASE
  2

  9
$PUCSNAME
  2

  9
$PUCSORG
 10
0.0
 20
0.0
 30
0.0
  9
$PUCSXDIR
 10
1.0
 20
0.0
 30
0.0
  9
$PUCSYDIR
 10
0.0
 20
1.0
 30
0.0
  9
$PUCSORTHOREF
  2

  9
$PUCSORTHOVIEW
 70
     0
  9
$PUCSORGTOP
 10
0.0
 20
0.0
 30
0.0
  9
$PUCSORGBOTTOM
 10
0.0
 20
0.0
 30
0.0
  9
$PUCSORGLEFT
 10
0.0
 20
0.0
 30
0.0
  9
$PUCSORGRIGHT
 10
0.0
 20
0.0
 30
0.0
  9
$PUCSORGFRONT
 10
0.0
 20
0.0
 30
0.0
  9
$PUCSORGBACK
 10
0.0
 20
0.0
 30
0.0
  9
$USERI1
 70
     0
  9
$USERI2
 70
     0
  9
$USERI3
 70
     0
  9
$USERI4
 70
     0
  9
$USERI5
 70
     0
  9
$USERR1
 40
0.0
  9
$USERR2
 40
0.0
  9
$USERR3
 40
0.0
  9
$USERR4
 40
0.0
  9
$USERR5
 40
0.0
  9
$WORLDVIEW
 70
     1
  9
$SHADEDGE
 70
     3
  9
$SHADEDIF
 70
    70
  9
$TILEMODE
 70
     1
  9
$MAXACTVP
 70
    16
  9
$PINSBASE
 10
0.0
 20
0.0
 30
0.0
  9
$PLIMCHECK
 70
     0
  9
$PEXTMIN
 10
1.000000000000000E+20
 20
1.000000000000000E+20
 30
1.000000000000000E+20
  9
$PEXTMAX
 10
-1.000000000000000E+20
 20
-1.000000000000000E+20
 30
-1.000000000000000E+20
  9
$PLIMMIN
 10
0.0
 20
0.0
  9
$PLIMMAX
 10
12.0
 20
9.0
  9
$UNITMODE
 70
     0
  9
$VISRETAIN
 70
     0
  9
$PLINEGEN
 70
     0
  9
$PSLTSCALE
 70
     1
  9
$TREEDEPTH
 70
  3020
  9
$CMLSTYLE
  2
Standard
  9
$CMLJUST
 70
     0
  9
$CMLSCALE
 40
1.0
  9
$PROXYGRAPHICS
 70
     1
  9
$MEASUREMENT
 70
     0
  9
$CELWEIGHT
370
    -1
  9
$ENDCAPS
280
     0
  9
$JOINSTYLE
280
     0
  9
$LWDISPLAY
290
     0
  9
$INSUNITS
 70
     0
  9
$HYPERLINKBASE
  1

  9
$STYLESHEET
  1

  9
$XEDIT
290
     1
  9
$CEPSNTYPE
380
     0
  9
$PSTYLEMODE
290
     1
  9
$FINGERPRINTGUID
  2
{C7E1BB0A-CB65-4AD8-AF9C-724864082C8F}
  9
$VERSIONGUID
  2
{0D3A6DFF-04FF-4877-BC04-557CDCCD9FC4}
  9
$EXTNAMES
290
     1
  9
$PSVPSCALE
 40
0.0
  9
$OLESTARTUP
290
     0
  0
ENDSEC
  0
SECTION
  2
CLASSES
  0
CLASS
  1
ACDBDICTIONARYWDFLT
  2
AcDbDictionaryWithDefault
  3
ObjectDBX Classes
 90
        0
280
     0
281
     0
  0
CLASS
  1
MATERIAL
  2
AcDbMaterial
  3
ObjectDBX Classes
 90
     1153
280
     0
281
     0
  0
CLASS
  1
VISUALSTYLE
  2
AcDbVisualStyle
  3
ObjectDBX Classes
 90
     4095
280
     0
281
     0
  0
CLASS
  1
SCALE
  2
AcDbScale
  3
ObjectDBX Classes
 90
     1153
280
     0
281
     0
  0
CLASS
  1
TABLESTYLE
  2
AcDbTableStyle
  3
ObjectDBX Classes
 90
     4095
280
     0
281
     0
  0
CLASS
  1
MLEADERSTYLE
  2
AcDbMLeaderStyle
  3
ACDB_MLEADERSTYLE_CLASS
 90
     4095
280
     0
281
     0
  0
CLASS
  1
ACDBSECTIONVIEWSTYLE
  2
AcDbSectionViewStyle
  3
ObjectDBX Classes
 90
     1025
280
     0
281
     0
  0
CLASS
  1
ACDBDETAILVIEWSTYLE
  2
AcDbDetailViewStyle
  3
ObjectDBX Classes
 90
     1025
280
     0
281
     0
  0
CLASS
  1
AMGSETTINGSOBJ
  2
AmgSettingsObj
  3
"AcadM|Product Description: AutoCAD Mechanical|Company: Autodesk, Inc."
 90
     1024
280
     0
281
     0
  0
CLASS
  1
ACME_DOCUMENT
  2
AcMeDbDoc
  3
AcMeServices
 90
    33792
280
     0
281
     0
  0
CLASS
  1
ACMESCOPE
  2
AcMeScope
  3
AcMeServices
 90
     1024
280
     0
281
     0
  0
CLASS
  1
ACMECOMMANDHISTORY
  2
AcMeCommandHistory
  3
AcMeServices
 90
     1024
280
     0
281
     0
  0
CLASS
  1
ACIMSYSVARMAN
  2
AcImSysVarManager
  3
AcMeServices
 90
     1024
280
     0
281
     0
  0
CLASS
  1
ACIMINTSYSVAR
  2
AcImIntSysVar
  3
AcMeServices
 90
     1024
280
     0
281
     0
  0
CLASS
  1
ACMESTATEMGR
  2
AcMeStateMgr
  3
AcMeServices
 90
     1024
280
     0
281
     0
  0
CLASS
  1
ACDBENTITYCACHE
  2
AcMeEntityCache
  3
AcMeServices
 90
    33792
280
     0
281
     0
  0
CLASS
  1
ACGREFMASTER
  2
AcGrefMaster
  3
AcAttribServices
 90
     1024
280
     0
281
     0
  0
CLASS
  1
ACME_DATABASE
  2
AcMeDbDatabase
  3
AcMeServices
 90
    33792
280
     0
281
     0
  0
CLASS
  1
ACRFINSADJUSTERMGR
  2
AcRfInsAdjusterMgr
  3
AcMeServices
 90
    33792
280
     0
281
     0
  0
CLASS
  1
ACGREFACADMASTER
  2
AcGrefacadMaster
  3
AcGrefServices
 90
     1024
280
     0
281
     0
  0
CLASS
  1
AMDTMENUSTATEMGR
  2
AmdtMenuStateMgr
  3
McadcomServices
 90
    33792
280
     0
281
     0
  0
CLASS
  1
AMDTMCOMMENUSTATE
  2
AmdtMcomMenuState
  3
McadcomServices
 90
    33792
280
     0
281
     0
  0
CLASS
  1
AMIMASTER
  2
AmiMaster
  3
AmiServices
 90
     1024
280
     0
281
     0
  0
CLASS
  1
MAPIAMMOUDLE
  2
MApiAmModule
  3
MApiAmServices
 90
     1024
280
     0
281
     0
  0
CLASS
  1
ACIMSTRSYSVAR
  2
AcImStrSysVar
  3
AcMeServices
 90
     1024
280
     0
281
     0
  0
CLASS
  1
AMDTAMMENUSTATE
  2
AmdtAmMenuState
  3
DesignerAssemblies
 90
    33792
280
     0
281
     0
  0
CLASS
  1
ACAMPROJECT
  2
AcAmProject
  3
DesignerAssemblies
 90
     1024
280
     0
281
     0
  0
CLASS
  1
ACAMGRCOMPDEF
  2
AcAmGrCompDef
  3
DesignerAssemblies
 90
     1024
280
     0
281
     0
  0
CLASS
  1
ACAMCOMPDEF
  2
AcAmCompDef
  3
DesignerAssemblies
 90
     1024
280
     0
281
     0
  0
CLASS
  1
ACAMCOMPDEFMGR
  2
AcAmCompDefMgr
  3
DesignerAssemblies
 90
     1024
280
     0
281
     0
  0
CLASS
  1
AMCONTEXTMGR
  2
AcAmContextMgr
  3
DesignerAssemblies
 90
     1024
280
     0
281
     0
  0
CLASS
  1
ACAMCONTEXTMODELER
  2
AcAmContextModeler
  3
DesignerAssemblies
 90
     1024
280
     0
281
     0
  0
CLASS
  1
ACMDATADICTIONARY
  2
AcmDataDictionary
  3
"AcmSymBB|Product Description: AutoCAD Mechanical|Company: Autodesk, Inc."
 90
     1024
280
     0
281
     0
  0
CLASS
  1
ACAMGRCOMPDEFSET
  2
AcAmGrCompDefSet
  3
DesignerAssemblies
 90
    33792
280
     0
281
     0
  0
CLASS
  1
AMDTBROWSERDBTAB
  2
AmdtBrowserDbTab
  3
McadcomServices
 90
    33792
280
     0
281
     0
  0
CLASS
  1
CBROWSERAPPOBJECT
  2
CBrowserAppObject
  3
McadcomServices
 90
    33792
280
     0
281
     0
  0
CLASS
  1
DM_PLACEHOLDER
  2
AcDmSelsetPlaceholder
  3
McadcomServices
 90
    33792
280
     0
281
     0
  0
CLASS
  1
EXACXREFPANELOBJECT
  2
ExAcXREFPanelObject
  3
EXAC_ESW
 90
     1025
280
     0
281
     0
  0
CLASS
  1
NPOCOLLECTION
  2
AcDbImpNonPersistentObjectsCollection
  3
ObjectDBX Classes
 90
     1153
280
     0
281
     0
  0
CLASS
  1
ACMSTANDARDANSI
  2
AcmStandardANSI
  3
"Amdt_StdImp|Product Description: AutoCAD Mechanical|Company: Autodesk, Inc."
 90
     1024
280
     0
281
     0
  0
CLASS
  1
ACMSURFSTANDARDANSI
  2
AcmSurfTextStdANSI
  3
"Amdt_StdImp|Product Description: AutoCAD Mechanical|Company: Autodesk, Inc."
 90
     1024
280
     0
281
     0
  0
CLASS
  1
ACMFCFSTANDARDANSI
  2
AcmFCFStdANSI
  3
"Amdt_StdImp|Product Description: AutoCAD Mechanical|Company: Autodesk, Inc."
 90
     1024
280
     0
281
     0
  0
CLASS
  1
ACMWELDSTANDARDANSI
  2
AcmWeldingStdANSI
  3
"Amdt_StdImp|Product Description: AutoCAD Mechanical|Company: Autodesk, Inc."
 90
     1024
280
     0
281
     0
  0
CLASS
  1
ACMIDSTANDARDANSI
  2
AcmIdStdANSI
  3
"Amdt_StdImp|Product Description: AutoCAD Mechanical|Company: Autodesk, Inc."
 90
     1024
280
     0
281
     0
  0
CLASS
  1
ACMDATUMSTANDARDANSI
  2
AcmDatumStdANSI
  3
"Amdt_StdImp|Product Description: AutoCAD Mechanical|Company: Autodesk, Inc."
 90
     1024
280
     0
281
     0
  0
CLASS
  1
ACMBOMSTANDARDANSI
  2
AcmBOMStdANSI
  3
"Amdt_StdImp|Product Description: AutoCAD Mechanical|Company: Autodesk, Inc."
 90
     1024
280
     0
281
     0
  0
CLASS
  1
ACMDETAILSTANDARDANSI
  2
AmdtDetailSymStdANSI
  3
"Amdt_StdImp|Product Description: AutoCAD Mechanical|Company: Autodesk, Inc."
 90
     1024
280
     0
281
     0
  0
CLASS
  1
ACMSECTIONSTANDARDANSI
  2
AmdtSectionSymStdANSI
  3
"Amdt_StdImp|Product Description: AutoCAD Mechanical|Company: Autodesk, Inc."
 90
     1024
280
     0
281
     0
  0
CLASS
  1
ACMCENTERLINESTANDARDANSI
  2
AmdtCenterLineStdANSI
  3
"Amdt_StdImp|Product Description: AutoCAD Mechanical|Company: Autodesk, Inc."
 90
     1024
280
     0
281
     0
  0
CLASS
  1
ACMTHREADLINESTANDARDANSI
  2
AmdtThreadLineStdANSI
  3
"Amdt_StdImp|Product Description: AutoCAD Mechanical|Company: Autodesk, Inc."
 90
     1024
280
     0
281
     0
  0
CLASS
  1
ACMNOTESTANDARDANSI
  2
AmdtNoteStdANSI
  3
"Amdt_StdImp|Product Description: AutoCAD Mechanical|Company: Autodesk, Inc."
 90
     1024
280
     0
281
     0
  0
CLASS
  1
ACMTAPERSTANDARDANSI
  2
AcmTaperStdANSI
  3
"Amdt_StdImp|Product Description: AutoCAD Mechanical|Company: Autodesk, Inc."
 90
     1024
280
     0
281
     0
  0
CLASS
  1
ACMANOOTATIONVIEWSTANDARDANSI
  2
AmdtAnViewStdANSI
  3
"Amdt_StdImp|Product Description: AutoCAD Mechanical|Company: Autodesk, Inc."
 90
     1024
280
     0
281
     0
  0
CLASS
  1
ACAMGLAYSTD
  2
AcAmgLayStd
  3
"AmgLay|Product Description: AutoCAD Mechanical|Company: Autodesk, Inc."
 90
     1024
280
     0
281
     0
  0
CLASS
  1
ACAMGDIMSTD
  2
AcAmgDimStd
  3
"AmgDim|Product Description: AutoCAD Mechanical|Company: Autodesk, Inc."
 90
     1024
280
     0
281
     0
  0
CLASS
  1
AMGOBJPROPCFG
  2
AmgObjPropCfg
  3
"AmgLay|Product Description: AutoCAD Mechanical|Company: Autodesk, Inc."
 90
     1024
280
     0
281
     0
  0
CLASS
  1
ACAMGHOLECHARTSTDANSI
  2
AcAmgHoleChartStdANSI
  3
AmgDim|Product Description: AutoCAD Mechanical|Company: Autodesk, Inc.
 90
     1024
280
     0
281
     0
  0
CLASS
  1
ACAMGTITLESTD
  2
AcAmgTitleStd
  3
"AmgTitle|Product Description: AutoCAD Mechanical|Company: Autodesk, Inc."
 90
     1024
280
     0
281
     0
  0
CLASS
  1
ACMSECTIONSTANDARDCUSTOM
  2
AmdtSectionSymStdCustom
  3
"Amdt_StdImp|Product Description: AutoCAD Mechanical|Company: Autodesk, Inc."
 90
     1024
280
     0
281
     0
  0
CLASS
  1
ACMDETAILTANDARDCUSTOM
  2
AmdtDetailSymStdCustom
  3
"Amdt_StdImp|Product Description: AutoCAD Mechanical|Company: Autodesk, Inc."
 90
     1024
280
     0
281
     0
  0
CLASS
  1
FIELD
  2
AcDbField
  3
ObjectDBX Classes
 90
     1152
280
     0
281
     0
  0
CLASS
  1
FIELDLIST
  2
AcDbFieldList
  3
ObjectDBX Classes
 90
     1152
280
     0
281
     0
  0
CLASS
  1
AMDTNOTETEMPLATEDB
  2
AmdtNoteTemplateDB
  3
AcmSymBB|Product Description: AutoCAD Mechanical|Company: Autodesk, Inc.
 90
     1024
280
     0
281
     0
  0
CLASS
  1
ACAMGFILTERDAT
  2
AcAmgFilterDat
  3
"AcadM|Product Description: AutoCAD Mechanical|Company: Autodesk, Inc."
 90
     1024
280
     0
281
     0
  0
CLASS
  1
CAMSSTRUCTBTNSTATE
  2
StructBtnState
  3
DesignerAssemblies
 90
     1024
280
     0
281
     0
  0
CLASS
  1
DICTIONARYVAR
  2
AcDbDictionaryVar
  3
ObjectDBX Classes
 90
        0
280
     0
281
     0
  0
CLASS
  1
SORTENTSTABLE
  2
AcDbSortentsTable
  3
ObjectDBX Classes
 90
        0
280
     0
281
     0
  0
CLASS
  1
SOLID_BACKGROUND
  2
AcDbSolidBackground
  3
SCENEOE
 90
    36863
280
     0
281
     0
  0
CLASS
  1
MULTILEADER
  2
AcDbMLeader
  3
ACDB_MLEADER_CLASS
 90
    33793
280
     0
281
     1
  0
CLASS
  1
CELLSTYLEMAP
  2
AcDbCellStyleMap
  3
ObjectDBX Classes
 90
     1152
280
     0
281
     0
  0
CLASS
  1
ACDBPLACEHOLDER
  2
AcDbPlaceHolder
  3
ObjectDBX Classes
 90
        0
280
     0
281
     0
  0
CLASS
  1
LAYOUT
  2
AcDbLayout
  3
ObjectDBX Classes
 90
        0
280
     0
281
     0
  0
ENDSEC
  0
SECTION
  2
TABLES
  0
TABLE
  2
VPORT
  5
17BF
330
0
100
AcDbSymbolTable
 70
     1
  0
VPORT
  5
182C
330
17BF
100
AcDbSymbolTableRecord
100
AcDbViewportTableRecord
  2
*ACTIVE
 70
     0
 10
0.0
 20
0.0
 11
1.0
 21
1.0
 12
150.3089197287442
 22
-9.308359364340745
 13
0.0
 23
0.0
 14
1.0
 24
1.0
 15
0.0
 25
0.0
 16
0.0000000000002274
 26
0.0
 36
1006.081355041681
 17
-124.1361656188965
 27
8.262425257271861
 37
0.0
 40
154.3457844541327
 41
2.283154121863799
 42
50.0
 43
0.0
 44
0.0
 50
0.0
 51
0.000000000000009
 71
     0
 72
   100
 73
     1
 74
     1
 75
     0
 76
     0
 77
     0
 78
     0
281
     0
 65
     0
110
0.0
120
0.0
130
0.0
111
1.0
121
0.0
131
0.0
112
0.0
122
1.0
132
0.0
 79
     0
146
0.0
1001
ACAD_NAV_VCDISPLAY
1070
     3
  0
ENDTAB
  0
TABLE
  2
LTYPE
  5
17BC
330
0
100
AcDbSymbolTable
 70
    18
  0
LTYPE
  5
1811
330
17BC
100
AcDbSymbolTableRecord
100
AcDbLinetypeTableRecord
  2
ByBlock
 70
     0
  3

 72
    65
 73
     0
 40
0.0
  0
LTYPE
  5
1812
330
17BC
100
AcDbSymbolTableRecord
100
AcDbLinetypeTableRecord
  2
ByLayer
 70
     0
  3

 72
    65
 73
     0
 40
0.0
  0
LTYPE
  5
1813
330
17BC
100
AcDbSymbolTableRecord
100
AcDbLinetypeTableRecord
  2
CONTINUOUS
 70
     0
  3
Solid line
 72
    65
 73
     0
 40
0.0
  0
LTYPE
  5
182D
330
17BC
100
AcDbSymbolTableRecord
100
AcDbLinetypeTableRecord
  2
CENTER
 70
     0
  3
____ _ ____ _ ____ _ ____ _ ____ _ ____ _ ____
 72
    65
 73
     4
 40
5.059897
 49
3.162434999999998
 74
     0
 49
-0.6324870000000002
 74
     0
 49
0.6324870000000002
 74
     0
 49
-0.6324870000000002
 74
     0
  0
LTYPE
  5
182E
330
17BC
100
AcDbSymbolTableRecord
100
AcDbLinetypeTableRecord
  2
DASHED
 70
     0
  3
__ __ __ __ __ __ __ __ __ __ __ __ __ __ __ __
 72
    65
 73
     2
 40
7.589844999999998
 49
5.059897
 74
     0
 49
-2.529948
 74
     0
  0
LTYPE
  5
18B6
330
17BC
100
AcDbSymbolTableRecord
100
AcDbLinetypeTableRecord
  2
HIDDEN
 70
     0
  3
Hidden __ __ __ __ __ __ __ __ __ __ __ __ __ _
 72
    65
 73
     2
 40
0.375
 49
0.25
 74
     0
 49
-0.125
 74
     0
  0
LTYPE
  5
18B7
330
17BC
100
AcDbSymbolTableRecord
100
AcDbLinetypeTableRecord
  2
PHANTOM2
 70
     0
  3
Phantom (.5x) ___ _ _ ___ _ _ ___ _ _ ___ _ _
 72
    65
 73
     6
 40
1.25
 49
0.625
 74
     0
 49
-0.125
 74
     0
 49
0.125
 74
     0
 49
-0.125
 74
     0
 49
0.125
 74
     0
 49
-0.125
 74
     0
  0
LTYPE
  5
18F6
330
17BC
100
AcDbSymbolTableRecord
100
AcDbLinetypeTableRecord
  2
Amconstr
 70
     0
  3
_______________________
 72
    65
 73
     2
 40
9999.0
 49
9999.0
 74
     0
 49
0.0
 74
     0
  0
LTYPE
  5
18FC
330
17BC
100
AcDbSymbolTableRecord
100
AcDbLinetypeTableRecord
  2
CENTER2
 70
     0
  3
Center (.5x) ___ _ ___ _ ___ _ ___ _ ___ _ ___
 72
    65
 73
     4
 40
1.125
 49
0.75
 74
     0
 49
-0.125
 74
     0
 49
0.125
 74
     0
 49
-0.125
 74
     0
  0
LTYPE
  5
18FD
330
17BC
100
AcDbSymbolTableRecord
100
AcDbLinetypeTableRecord
  2
HIDDEN2
 70
     0
  3
Hidden (.5x) _ _ _ _ _ _ _ _ _ _ _ _ _ _ _ _ _
 72
    65
 73
     2
 40
0.1875
 49
0.125
 74
     0
 49
-0.0625
 74
     0
  0
LTYPE
  5
18FE
330
17BC
100
AcDbSymbolTableRecord
100
AcDbLinetypeTableRecord
  2
Amzigzag2
 70
     0
  3
/\/-/\/-/\/-/\/-/\/-/\/
 72
    65
 73
     2
 40
0.4401
 49
0.0001
 74
     4
 75
   136
340
18FA
 46
0.0016
 50
0.0
 44
0.0
 45
0.0
 49
-0.4400000000000001
 74
     0
  0
LTYPE
  5
190E
330
17BC
100
AcDbSymbolTableRecord
100
AcDbLinetypeTableRecord
  2
ACANSTGB
 70
     0
  3
__ . . __ . .
 72
    65
 73
     6
 40
0.35433070866
 49
0.15748031496
 74
     0
 49
-0.03937007874
 74
     0
 49
0.03937007874
 74
     0
 49
-0.03937007874
 74
     0
 49
0.03937007874
 74
     0
 49
-0.03937007874
 74
     0
  0
LTYPE
  5
190F
330
17BC
100
AcDbSymbolTableRecord
100
AcDbLinetypeTableRecord
  2
ACANSTGL
 70
     0
  3
_ _ _ _ _
 72
    65
 73
     2
 40
0.11811023622
 49
0.07874015748
 74
     0
 49
-0.03937007874
 74
     0
  0
ENDTAB
  0
TABLE
  2
LAYER
  5
17B9
102
{ACAD_XDICTIONARY
360
22C7
102
}
330
0
100
AcDbSymbolTable
 70
    42
  0
LAYER
  5
180B
102
{ACAD_XDICTIONARY
360
2272
102
}
330
17B9
100
AcDbSymbolTableRecord
100
AcDbLayerTableRecord
  2
0
 70
     0
 62
     7
  6
CONTINUOUS
370
    -3
390
17C6
  0
LAYER
  5
182A
102
{ACAD_XDICTIONARY
360
2274
102
}
330
17B9
100
AcDbSymbolTableRecord
100
AcDbLayerTableRecord
  2
1
 70
     0
 62
     4
  6
CONTINUOUS
370
    -3
390
17C6
  0
LAYER
  5
183D
102
{ACAD_XDICTIONARY
360
2292
102
}
330
17B9
100
AcDbSymbolTableRecord
100
AcDbLayerTableRecord
  2
SK1
 70
     0
 62
     4
  6
CONTINUOUS
370
    -3
390
17C6
  0
LAYER
  5
183F
102
{ACAD_XDICTIONARY
360
2296
102
}
330
17B9
100
AcDbSymbolTableRecord
100
AcDbLayerTableRecord
  2
SK2
 70
     0
 62
     7
  6
CONTINUOUS
370
    -3
390
17C6
  0
LAYER
  5
1840
102
{ACAD_XDICTIONARY
360
2298
102
}
330
17B9
100
AcDbSymbolTableRecord
100
AcDbLayerTableRecord
  2
SK3
 70
     0
 62
     1
  6
DASHED
370
    -3
390
17C6
  0
LAYER
  5
1841
102
{ACAD_XDICTIONARY
360
229A
102
}
330
17B9
100
AcDbSymbolTableRecord
100
AcDbLayerTableRecord
  2
SK4
 70
     0
 62
     2
  6
CENTER
370
    -3
390
17C6
  0
LAYER
  5
1843
102
{ACAD_XDICTIONARY
360
229E
102
}
330
17B9
100
AcDbSymbolTableRecord
100
AcDbLayerTableRecord
  2
SK6
 70
     0
 62
     5
  6
CONTINUOUS
370
    -3
390
17C6
  0
LAYER
  5
1844
102
{ACAD_XDICTIONARY
360
22A0
102
}
330
17B9
100
AcDbSymbolTableRecord
100
AcDbLayerTableRecord
  2
80
 70
     0
 62
     6
  6
CONTINUOUS
370
    -3
390
17C6
  0
LAYER
  5
1845
102
{ACAD_XDICTIONARY
360
22A2
102
}
330
17B9
100
AcDbSymbolTableRecord
100
AcDbLayerTableRecord
  2
81
 70
     0
 62
     2
  6
CENTER
370
    -3
390
17C6
  0
LAYER
  5
1854
330
17B9
100
AcDbSymbolTableRecord
100
AcDbLayerTableRecord
  2
DEFPOINTS
 70
     0
 62
     7
  6
CONTINUOUS
290
     0
370
    -3
390
17C6
  0
ENDTAB
  0
TABLE
  2
STYLE
  5
17BA
330
0
100
AcDbSymbolTable
 70
     7
  0
STYLE
  5
180C
330
17BA
100
AcDbSymbolTableRecord
100
AcDbTextStyleTableRecord
  2
STANDARD
 70
     0
 40
0.0
 41
1.0
 50
0.0
 71
     0
 42
4.5
  3
simplex.shx
  4

  0
STYLE
  5
182B
330
17BA
100
AcDbSymbolTableRecord
100
AcDbTextStyleTableRecord
  2
SANDVIK_STYLE
 70
     0
 40
3.0
 41
1.0
 50
0.0
 71
     0
 42
3.0
  3
simplex.shx
  4

  0
STYLE
  5
18FA
330
17BA
100
AcDbSymbolTableRecord
100
AcDbTextStyleTableRecord
  2

 70
     1
 40
0.0
 41
1.0
 50
0.0
 71
     0
 42
3.0
  3
genltshp.shx
  4

  0
STYLE
  5
190D
330
17BA
100
AcDbSymbolTableRecord
100
AcDbTextStyleTableRecord
  2
ACANSGDT
 70
     0
 40
0.0
 41
1.0
 50
0.0
 71
     0
 42
3.0
  3
amgdt.shx
  4

  0
ENDTAB
  0
TABLE
  2
VIEW
  5
17BD
330
0
100
AcDbSymbolTable
 70
     0
  0
ENDTAB
  0
TABLE
  2
UCS
  5
17BE
330
0
100
AcDbSymbolTable
 70
     0
  0
ENDTAB
  0
TABLE
  2
APPID
  5
17C0
330
0
100
AcDbSymbolTable
 70
    24
  0
APPID
  5
180D
330
17C0
100
AcDbSymbolTableRecord
100
AcDbRegAppTableRecord
  2
ACAD
 70
     0
  0
APPID
  5
1814
330
17C0
100
AcDbSymbolTableRecord
100
AcDbRegAppTableRecord
  2
AcadAnnotative
 70
     0
  0
APPID
  5
1858
330
17C0
100
AcDbSymbolTableRecord
100
AcDbRegAppTableRecord
  2
ACAD_DSTYLE_DIMTEXT_FILL
 70
     0
  0
APPID
  5
1859
330
17C0
100
AcDbSymbolTableRecord
100
AcDbRegAppTableRecord
  2
ACAD_DSTYLE_DIMEXT_LENGTH
 70
     0
  0
APPID
  5
185A
330
17C0
100
AcDbSymbolTableRecord
100
AcDbRegAppTableRecord
  2
ACAD_DSTYLE_DIMEXT_ENABLED
 70
     0
  0
APPID
  5
185B
330
17C0
100
AcDbSymbolTableRecord
100
AcDbRegAppTableRecord
  2
ACAD_DSTYLE_DIM_LINETYPE
 70
     0
  0
APPID
  5
185C
330
17C0
100
AcDbSymbolTableRecord
100
AcDbRegAppTableRecord
  2
ACAD_DSTYLE_DIM_EXT1_LINETYPE
 70
     0
  0
APPID
  5
185D
330
17C0
100
AcDbSymbolTableRecord
100
AcDbRegAppTableRecord
  2
ACAD_DSTYLE_DIM_EXT2_LINETYPE
 70
     0
  0
APPID
  5
185E
330
17C0
100
AcDbSymbolTableRecord
100
AcDbRegAppTableRecord
  2
ACAD_DSTYLE_DIMJOGGED_JOGA
 70
     0
  0
APPID
  5
185F
330
17C0
100
AcDbSymbolTableRecord
100
AcDbRegAppTableRecord
  2
ACAD_DSTYLE_DIMARC_LENGTH_
 70
     0
  0
APPID
  5
1860
330
17C0
100
AcDbSymbolTableRecord
100
AcDbRegAppTableRecord
  2
ACAD_EXEMPT_FROM_CAD_STANDARDS
 70
     0
  0
APPID
  5
1861
330
17C0
100
AcDbSymbolTableRecord
100
AcDbRegAppTableRecord
  2
ACAD_PSEXT
 70
     0
  0
APPID
  5
1862
330
17C0
100
AcDbSymbolTableRecord
100
AcDbRegAppTableRecord
  2
ACAD_DSTYLE_DIMANGULAR_EXT
 70
     0
  0
APPID
  5
1863
330
17C0
100
AcDbSymbolTableRecord
100
AcDbRegAppTableRecord
  2
ACAD_MLEADERVER
 70
     0
  0
APPID
  5
18AF
330
17C0
100
AcDbSymbolTableRecord
100
AcDbRegAppTableRecord
  2
MCAD_NO_VIS
 70
     0
  0
APPID
  5
18B0
330
17C0
100
AcDbSymbolTableRecord
100
AcDbRegAppTableRecord
  2
ACAD_TEMP_GRAPHIC
 70
     0
  0
APPID
  5
18BC
330
17C0
100
AcDbSymbolTableRecord
100
AcDbRegAppTableRecord
  2
ACATTRIBSERVICES
 70
     0
  0
APPID
  5
18D4
330
17C0
100
AcDbSymbolTableRecord
100
AcDbRegAppTableRecord
  2
DESIGNERASSEMBLIES
 70
     0
  0
APPID
  5
18F0
330
17C0
100
AcDbSymbolTableRecord
100
AcDbRegAppTableRecord
  2
ACAD_DSTYLE_DIMJAG
 70
     0
  0
APPID
  5
18F1
330
17C0
100
AcDbSymbolTableRecord
100
AcDbRegAppTableRecord
  2
ACAD_DSTYLE_DIMBREAK
 70
     0
  0
APPID
  5
1925
330
17C0
100
AcDbSymbolTableRecord
100
AcDbRegAppTableRecord
  2
ACAD_NAV_VCDISPLAY
 70
     0
  0
APPID
  5
1CD8
330
17C0
100
AcDbSymbolTableRecord
100
AcDbRegAppTableRecord
  2
ACAD_DSTYLE_DIMANGULAR_EXTENSION
 70
     0
  0
APPID
  5
28CB
330
17C0
100
AcDbSymbolTableRecord
100
AcDbRegAppTableRecord
  2
AcadAnnoMonitorAlertIconDisabled
 70
     0
  0
APPID
  5
1429E
330
17C0
100
AcDbSymbolTableRecord
100
AcDbRegAppTableRecord
  2
ACAD_DSTYLE_DIMARC_LENGTH_SYMBOL
 70
     0
  0
ENDTAB
  0
TABLE
  2
DIMSTYLE
  5
17C1
330
0
100
AcDbSymbolTable
 70
    15
100
AcDbDimStyleTable
 71
     1
340
180E
  0
DIMSTYLE
105
180E
102
{ACAD_REACTORS
330
14136
330
14137
330
14138
330
14139
330
1413A
330
1413B
330
1413C
330
1413D
330
1413E
102
}
330
17C1
100
AcDbSymbolTableRecord
100
AcDbDimStyleTableRecord
  2
STANDARD
 70
     0
  4
 
 41
3.0
 42
2.5
 43
10.0
 44
2.5
 46
1.25
 73
     0
 74
     0
140
3.0
141
-3.0
143
0.039
145
1.5
146
0.75
147
1.5
271
     2
272
     2
279
     2
340
182B
  0
DIMSTYLE
105
18EF
102
{ACAD_REACTORS
330
18DF
102
}
330
17C1
100
AcDbSymbolTableRecord
100
AcDbDimStyleTableRecord
  2
AM_ANSI
 70
     0
  4
mm
 41
0.12
 42
0.05
 43
0.5
 44
0.1
 47
0.1
 48
0.1
 78
     7
 79
     2
140
0.12
141
0.0
146
0.71
147
0.06
176
   256
177
   256
178
     2
274
     4
284
     7
340
180C
371
    -1
372
    -1
1001
ACAD_DSTYLE_DIMJAG
1070
   388
1040
1.5
1001
ACAD_DSTYLE_DIMBREAK
1070
   391
1040
0.125
1001
ACAD_DSTYLE_DIMARC_LENGTH_SYMBOL
1070
   379
1070
     1
1001
ACAD_DSTYLE_DIM_LINETYPE
1070
   380
1005
1811
1001
ACAD_DSTYLE_DIM_EXT1_LINETYPE
1070
   381
1005
1811
1001
ACAD_DSTYLE_DIM_EXT2_LINETYPE
1070
   382
1005
1811
  0
DIMSTYLE
105
18FF
330
17C1
100
AcDbSymbolTableRecord
100
AcDbDimStyleTableRecord
  2
AM_ANSI$3
 70
     0
  4
mm
 41
0.12
 42
0.05
 43
0.5
 44
0.1
 47
0.1
 48
0.1
 78
     7
 79
     2
140
0.12
141
0.0
146
0.71
147
0.06
176
   256
177
   256
178
     2
274
     4
284
     7
288
     1
289
     0
340
180C
371
    -1
372
    -1
1001
ACAD_DSTYLE_DIMBREAK
1070
   391
1040
0.125
1001
ACAD_DSTYLE_DIMJAG
1070
   388
1040
1.5
1001
ACAD_DSTYLE_DIMARC_LENGTH_SYMBOL
1070
   379
1070
     1
1001
ACAD_DSTYLE_DIM_LINETYPE
1070
   380
1005
1811
1001
ACAD_DSTYLE_DIM_EXT1_LINETYPE
1070
   381
1005
1811
1001
ACAD_DSTYLE_DIM_EXT2_LINETYPE
1070
   382
1005
1811
  0
DIMSTYLE
105
1900
330
17C1
100
AcDbSymbolTableRecord
100
AcDbDimStyleTableRecord
  2
AM_ANSI$4
 70
     0
  4
mm
 41
0.12
 42
0.05
 43
0.5
 44
0.1
 47
0.1
 48
0.1
 78
     7
 79
     2
140
0.12
141
0.0
146
0.71
147
0.06
176
   256
177
   256
178
     2
274
     4
284
     7
288
     1
289
     0
340
180C
371
    -1
372
    -1
1001
ACAD_DSTYLE_DIMBREAK
1070
   391
1040
0.125
1001
ACAD_DSTYLE_DIMJAG
1070
   388
1040
1.5
1001
ACAD_DSTYLE_DIMARC_LENGTH_SYMBOL
1070
   379
1070
     1
1001
ACAD_DSTYLE_DIM_LINETYPE
1070
   380
1005
1811
1001
ACAD_DSTYLE_DIM_EXT1_LINETYPE
1070
   381
1005
1811
1001
ACAD_DSTYLE_DIM_EXT2_LINETYPE
1070
   382
1005
1811
  0
DIMSTYLE
105
1901
330
17C1
100
AcDbSymbolTableRecord
100
AcDbDimStyleTableRecord
  2
AM_ANSI$7
 70
     0
  4
mm
 41
0.12
 42
0.05
 43
0.5
 44
0.1
 47
0.1
 48
0.1
 78
     7
 79
     2
140
0.12
141
0.0
146
0.71
147
0.06
176
   256
177
   256
178
     2
274
     4
284
     7
340
180C
371
    -1
372
    -1
1001
ACAD_DSTYLE_DIMBREAK
1070
   391
1040
0.125
1001
ACAD_DSTYLE_DIMJAG
1070
   388
1040
1.5
1001
ACAD_DSTYLE_DIMARC_LENGTH_SYMBOL
1070
   379
1070
     1
1001
ACAD_DSTYLE_DIM_LINETYPE
1070
   380
1005
1811
1001
ACAD_DSTYLE_DIM_EXT1_LINETYPE
1070
   381
1005
1811
1001
ACAD_DSTYLE_DIM_EXT2_LINETYPE
1070
   382
1005
1811
  0
DIMSTYLE
105
1902
330
17C1
100
AcDbSymbolTableRecord
100
AcDbDimStyleTableRecord
  2
AM_ANSI$SF
 70
     0
  4
mm
 41
0.12
 42
0.05
 43
0.5
 44
0.1
 47
0.1
 48
0.1
 75
     1
 76
     1
 78
     7
 79
     2
140
0.12
141
0.0
146
0.71
147
0.06
176
   256
177
   256
178
     2
274
     4
284
     7
340
180C
371
    -1
372
    -1
1001
ACAD_DSTYLE_DIMBREAK
1070
   391
1040
0.125
1001
ACAD_DSTYLE_DIMJAG
1070
   388
1040
1.5
1001
ACAD_DSTYLE_DIMARC_LENGTH_SYMBOL
1070
   379
1070
     1
1001
ACAD_DSTYLE_DIM_LINETYPE
1070
   380
1005
1811
1001
ACAD_DSTYLE_DIM_EXT1_LINETYPE
1070
   381
1005
1811
1001
ACAD_DSTYLE_DIM_EXT2_LINETYPE
1070
   382
1005
1811
  0
DIMSTYLE
105
1907
330
17C1
100
AcDbSymbolTableRecord
100
AcDbDimStyleTableRecord
  2
AM_ANSI$SH
 70
     0
  4
mm
 41
0.12
 42
0.05
 43
0.5
 44
0.1
 47
0.1
 48
0.1
 75
     1
 76
     1
 78
     7
 79
     2
140
0.12
141
0.0
146
0.71
147
0.06
173
     1
176
   256
177
   256
178
     2
274
     4
284
     7
340
180C
343
1903
371
    -1
372
    -1
1001
ACAD_DSTYLE_DIMBREAK
1070
   391
1040
0.125
1001
ACAD_DSTYLE_DIMJAG
1070
   388
1040
1.5
1001
ACAD_DSTYLE_DIMARC_LENGTH_SYMBOL
1070
   379
1070
     1
1001
ACAD_DSTYLE_DIM_LINETYPE
1070
   380
1005
1811
1001
ACAD_DSTYLE_DIM_EXT1_LINETYPE
1070
   381
1005
1811
1001
ACAD_DSTYLE_DIM_EXT2_LINETYPE
1070
   382
1005
1811
  0
ENDTAB
  0
TABLE
  2
BLOCK_RECORD
  5
17B8
330
0
100
AcDbSymbolTable
 70
   162
  0
BLOCK_RECORD
  5
1826
102
{ACAD_XDICTIONARY
360
2267
102
}
330
17B8
100
AcDbSymbolTableRecord
100
AcDbBlockTableRecord
  2
*Model_Space
340
1829
  0
BLOCK_RECORD
  5
1822
330
17B8
100
AcDbSymbolTableRecord
100
AcDbBlockTableRecord
  2
*Paper_Space
340
1825
  0
BLOCK_RECORD
  5
18CC
330
17B8
100
AcDbSymbolTableRecord
100
AcDbBlockTableRecord
  2
*U17
340
0
  0
BLOCK_RECORD
  5
1903
330
17B8
100
AcDbSymbolTableRecord
100
AcDbBlockTableRecord
  2
GENAXEH
340
0
  0
BLOCK_RECORD
  5
1911
330
17B8
100
AcDbSymbolTableRecord
100
AcDbBlockTableRecord
  2
_ACMFILLEDHALF
340
0
  0
BLOCK_RECORD
  5
1413F
330
17B8
100
AcDbSymbolTableRecord
100
AcDbBlockTableRecord
  2
*D152
340
0
  0
BLOCK_RECORD
  5
1414B
330
17B8
100
AcDbSymbolTableRecord
100
AcDbBlockTableRecord
  2
*D153
340
0
  0
BLOCK_RECORD
  5
14157
330
17B8
100
AcDbSymbolTableRecord
100
AcDbBlockTableRecord
  2
*D154
340
0
  0
BLOCK_RECORD
  5
14163
330
17B8
100
AcDbSymbolTableRecord
100
AcDbBlockTableRecord
  2
*D155
340
0
  0
BLOCK_RECORD
  5
1416F
330
17B8
100
AcDbSymbolTableRecord
100
AcDbBlockTableRecord
  2
*D156
340
0
  0
BLOCK_RECORD
  5
1417A
330
17B8
100
AcDbSymbolTableRecord
100
AcDbBlockTableRecord
  2
*D157
340
0
  0
BLOCK_RECORD
  5
14185
330
17B8
100
AcDbSymbolTableRecord
100
AcDbBlockTableRecord
  2
*D158
340
0
  0
BLOCK_RECORD
  5
14191
330
17B8
100
AcDbSymbolTableRecord
100
AcDbBlockTableRecord
  2
*D159
340
0
  0
BLOCK_RECORD
  5
1419D
330
17B8
100
AcDbSymbolTableRecord
100
AcDbBlockTableRecord
  2
*D160
340
0
  0
ENDTAB
  0
ENDSEC
  0
SECTION
  2
BLOCKS
  0
BLOCK
  5
1827
330
1826
100
AcDbEntity
  8
0
100
AcDbBlockBegin
  2
*Model_Space
 70
     0
 10
0.0
 20
0.0
 30
0.0
  3
*Model_Space
  1

  0
ENDBLK
  5
1828
330
1826
100
AcDbEntity
  8
0
100
AcDbBlockEnd
  0
BLOCK
  5
1823
330
1822
100
AcDbEntity
 67
     1
  8
0
100
AcDbBlockBegin
  2
*Paper_Space
 70
     0
 10
0.0
 20
0.0
 30
0.0
  3
*Paper_Space
  1

  0
ENDBLK
  5
1824
330
1822
100
AcDbEntity
 67
     1
  8
0
100
AcDbBlockEnd
  0
BLOCK
  5
18CD
330
18CC
100
AcDbEntity
  8
0
100
AcDbBlockBegin
  2
*U17
 70
     1
 10
0.0
 20
0.0
 30
0.0
  3
*U17
  1

  0
ENDBLK
  5
18CE
330
18CC
100
AcDbEntity
  8
0
100
AcDbBlockEnd
  0
BLOCK
  5
1905
330
1903
100
AcDbEntity
  8
0
100
AcDbBlockBegin
  2
GENAXEH
 70
     0
 10
0.0
 20
0.0
 30
0.0
  3
GENAXEH
  1

  0
LINE
  5
1904
330
1903
100
AcDbEntity
  8
0
100
AcDbLine
 10
-1.0
 20
0.0
 30
0.0
 11
1.0
 21
0.0
 31
0.0
  0
ENDBLK
  5
1906
330
1903
100
AcDbEntity
  8
0
100
AcDbBlockEnd
  0
BLOCK
  5
1912
330
1911
100
AcDbEntity
  8
0
100
AcDbBlockBegin
  2
_ACMFILLEDHALF
 70
     0
 10
0.0
 20
0.0
 30
0.0
  3
_ACMFILLEDHALF
  1

  0
TRACE
  5
1914
330
1911
100
AcDbEntity
  8
1
 62
     0
100
AcDbTrace
 10
-0.8
 20
0.0
 30
0.0
 11
-1.0
 21
0.166666666
 31
0.0
 12
0.0
 22
0.0
 32
0.0
 13
0.0
 23
0.0
 33
0.0
  0
LINE
  5
1915
330
1911
100
AcDbEntity
  8
1
 62
     0
100
AcDbLine
 10
-1.0
 20
0.0
 30
0.0
 11
-0.8
 21
0.0
 31
0.0
  0
ENDBLK
  5
1913
330
1911
100
AcDbEntity
  8
0
100
AcDbBlockEnd
  0
BLOCK
  5
14140
330
1413F
100
AcDbEntity
  8
0
100
AcDbBlockBegin
  2
*D152
 70
     1
 10
0.0
 20
0.0
 30
0.0
  3
*D152
  1

  0
LINE
  5
14203
330
1413F
100
AcDbEntity
  8
SK2
 62
     0
370
    -2
100
AcDbLine
 10
-25.40000000000009
 20
14.03039593567536
 30
0.0
 11
-25.40000000000009
 21
46.12135477004967
 31
0.0
  0
LINE
  5
14204
330
1413F
100
AcDbEntity
  8
SK2
 62
     0
370
    -2
100
AcDbLine
 10
40.10660000000005
 20
12.21400000000012
 30
0.0
 11
40.10660000000005
 21
46.12135477004967
 31
0.0
  0
LINE
  5
14205
330
1413F
100
AcDbEntity
  8
SK2
 62
     0
370
    -2
100
AcDbLine
 10
-22.40000000000009
 20
43.62135477004967
 30
0.0
 11
37.10660000000006
 21
43.62135477004967
 31
0.0
  0
SOLID
  5
14206
330
1413F
100
AcDbEntity
  8
SK2
 62
     0
100
AcDbTrace
 10
-22.40000000000009
 20
44.12135477004967
 30
0.0
 11
-22.40000000000009
 21
43.12135477004967
 31
0.0
 12
-25.40000000000009
 22
43.62135477004967
 32
0.0
 13
-25.40000000000009
 23
43.62135477004967
 33
0.0
  0
SOLID
  5
14207
330
1413F
100
AcDbEntity
  8
SK2
 62
     0
100
AcDbTrace
 10
37.10660000000006
 20
44.12135477004967
 30
0.0
 11
37.10660000000006
 21
43.12135477004967
 31
0.0
 12
40.10660000000005
 22
43.62135477004967
 32
0.0
 13
40.10660000000005
 23
43.62135477004967
 33
0.0
  0
MTEXT
  5
14208
330
1413F
100
AcDbEntity
  8
SK2
 62
     0
100
AcDbMText
 10
7.353299999999984
 20
48.12135477004967
 30
0.0
 40
3.0
 41
0.0
 71
     5
 72
     1
  1
\A1;65.51
  7
SANDVIK_STYLE
 73
     1
 44
1.0
1001
ACAD
1000
MTEXTBEGIN
1070
    73
1070
     1
1070
    44
1040
1.0
1070
    74
1070
     0
1000
MTEXTEND
  0
POINT
  5
14209
330
1413F
100
AcDbEntity
  8
DEFPOINTS
 62
     0
100
AcDbPoint
 10
-25.40000000000009
 20
11.53039593567536
 30
0.0
  0
POINT
  5
1420A
330
1413F
100
AcDbEntity
  8
DEFPOINTS
 62
     0
100
AcDbPoint
 10
40.10660000000005
 20
9.714000000000119
 30
0.0
  0
POINT
  5
1420B
330
1413F
100
AcDbEntity
  8
DEFPOINTS
 62
     0
100
AcDbPoint
 10
40.10660000000005
 20
43.62135477004967
 30
0.0
  0
ENDBLK
  5
14141
330
1413F
100
AcDbEntity
  8
0
100
AcDbBlockEnd
  0
BLOCK
  5
1414C
330
1414B
100
AcDbEntity
  8
0
100
AcDbBlockBegin
  2
*D153
 70
     1
 10
0.0
 20
0.0
 30
0.0
  3
*D153
  1

  0
LINE
  5
1420C
330
1414B
100
AcDbEntity
  8
SK2
 62
     0
370
    -2
100
AcDbLine
 10
0.0000000000001991
 20
20.15299999999861
 30
0.0
 11
0.0000000000002001
 21
37.09288952362676
 31
0.0
  0
LINE
  5
1420D
330
1414B
100
AcDbEntity
  8
SK2
 62
     0
370
    -2
100
AcDbLine
 10
-25.40000000000009
 20
14.03039593567536
 30
0.0
 11
-25.40000000000009
 21
37.09288952362676
 31
0.0
  0
LINE
  5
1420E
330
1414B
100
AcDbEntity
  8
SK2
 62
     0
370
    -2
100
AcDbLine
 10
-2.9999999999998
 20
34.59288952362676
 30
0.0
 11
-22.40000000000009
 21
34.59288952362676
 31
0.0
  0
SOLID
  5
1420F
330
1414B
100
AcDbEntity
  8
SK2
 62
     0
100
AcDbTrace
 10
-2.9999999999998
 20
35.09288952362676
 30
0.0
 11
-2.9999999999998
 21
34.09288952362676
 31
0.0
 12
0.0000000000002
 22
34.59288952362676
 32
0.0
 13
0.0000000000002
 23
34.59288952362676
 33
0.0
  0
SOLID
  5
14210
330
1414B
100
AcDbEntity
  8
SK2
 62
     0
100
AcDbTrace
 10
-22.40000000000009
 20
35.09288952362676
 30
0.0
 11
-22.40000000000009
 21
34.09288952362676
 31
0.0
 12
-25.40000000000009
 22
34.59288952362676
 32
0.0
 13
-25.40000000000009
 23
34.59288952362676
 33
0.0
  0
MTEXT
  5
14211
330
1414B
100
AcDbEntity
  8
SK2
 62
     0
100
AcDbMText
 10
-12.69999999999994
 20
39.09288952362676
 30
0.0
 40
3.0
 41
0.0
 71
     5
 72
     1
  1
\A1;25.40
  7
SANDVIK_STYLE
 73
     1
 44
1.0
1001
ACAD
1000
MTEXTBEGIN
1070
    73
1070
     1
1070
    44
1040
1.0
1070
    74
1070
     0
1000
MTEXTEND
  0
POINT
  5
14212
330
1414B
100
AcDbEntity
  8
DEFPOINTS
 62
     0
100
AcDbPoint
 10
0.000000000000199
 20
17.6529999999986
 30
0.0
  0
POINT
  5
14213
330
1414B
100
AcDbEntity
  8
DEFPOINTS
 62
     0
100
AcDbPoint
 10
-25.40000000000009
 20
11.53039593567536
 30
0.0
  0
POINT
  5
14214
330
1414B
100
AcDbEntity
  8
DEFPOINTS
 62
     0
100
AcDbPoint
 10
-25.40000000000009
 20
34.59288952362676
 30
0.0
  0
ENDBLK
  5
1414D
330
1414B
100
AcDbEntity
  8
0
100
AcDbBlockEnd
  0
BLOCK
  5
14158
330
14157
100
AcDbEntity
  8
0
100
AcDbBlockBegin
  2
*D154
 70
     1
 10
0.0
 20
0.0
 30
0.0
  3
*D154
  1

  0
LINE
  5
14215
330
14157
100
AcDbEntity
  8
SK2
 62
     0
370
    -2
100
AcDbLine
 10
0.0000000000001991
 20
20.15299999999861
 30
0.0
 11
0.0000000000001996
 21
28.06442427720385
 31
0.0
  0
LINE
  5
14216
330
14157
100
AcDbEntity
  8
SK2
 62
     0
370
    -2
100
AcDbLine
 10
-17.80539999999973
 20
16.97799999999569
 30
0.0
 11
-17.80539999999973
 21
28.06442427720385
 31
0.0
  0
LINE
  5
14217
330
14157
100
AcDbEntity
  8
SK2
 62
     0
370
    -2
100
AcDbLine
 10
-2.9999999999998
 20
25.56442427720385
 30
0.0
 11
-14.80539999999973
 21
25.56442427720385
 31
0.0
  0
MTEXT
  5
14218
330
14157
100
AcDbEntity
  8
SK2
 62
     0
100
AcDbMText
 10
-7.506310606705142
 20
30.17897209470784
 30
0.0
 40
3.0
 41
0.0
 71
     5
 72
     1
  1
\A1;17.81
  7
SANDVIK_STYLE
 73
     1
 44
1.0
1001
ACAD
1000
MTEXTBEGIN
1070
    73
1070
     1
1070
    44
1040
1.0
1070
    74
1070
     0
1000
MTEXTEND
  0
SOLID
  5
14219
330
14157
100
AcDbEntity
  8
SK2
 62
     0
100
AcDbTrace
 10
-2.9999999999998
 20
26.06442427720385
 30
0.0
 11
-2.9999999999998
 21
25.06442427720385
 31
0.0
 12
0.0000000000001994
 22
25.56442427720385
 32
0.0
 13
0.0000000000001994
 23
25.56442427720385
 33
0.0
  0
SOLID
  5
1421A
330
14157
100
AcDbEntity
  8
SK2
 62
     0
100
AcDbTrace
 10
-14.80539999999973
 20
26.06442427720385
 30
0.0
 11
-14.80539999999973
 21
25.06442427720385
 31
0.0
 12
-17.80539999999973
 22
25.56442427720385
 32
0.0
 13
-17.80539999999973
 23
25.56442427720385
 33
0.0
  0
POINT
  5
1421B
330
14157
100
AcDbEntity
  8
DEFPOINTS
 62
     0
100
AcDbPoint
 10
0.000000000000199
 20
17.6529999999986
 30
0.0
  0
POINT
  5
1421C
330
14157
100
AcDbEntity
  8
DEFPOINTS
 62
     0
100
AcDbPoint
 10
-17.80539999999973
 20
14.47799999999569
 30
0.0
  0
POINT
  5
1421D
330
14157
100
AcDbEntity
  8
DEFPOINTS
 62
     0
100
AcDbPoint
 10
-17.80539999999973
 20
25.56442427720385
 30
0.0
  0
ENDBLK
  5
14159
330
14157
100
AcDbEntity
  8
0
100
AcDbBlockEnd
  0
BLOCK
  5
14164
330
14163
100
AcDbEntity
  8
0
100
AcDbBlockBegin
  2
*D155
 70
     1
 10
0.0
 20
0.0
 30
0.0
  3
*D155
  1

  0
LINE
  5
1421E
330
14163
100
AcDbEntity
  8
SK2
 62
     0
370
    -2
100
AcDbLine
 10
40.3206
 20
11.9999999999929
 30
0.0
 11
50.60619953442198
 21
11.9999999999929
 31
0.0
  0
LINE
  5
1421F
330
14163
100
AcDbEntity
  8
SK2
 62
     0
370
    -2
100
AcDbLine
 10
40.3206
 20
-12.0000000000071
 30
0.0
 11
50.60619953442198
 21
-12.0000000000071
 31
0.0
  0
LINE
  5
14220
330
14163
100
AcDbEntity
  8
SK2
 62
     0
370
    -2
100
AcDbLine
 10
48.10619953442198
 20
8.999999999992899
 30
0.0
 11
48.10619953442198
 21
-9.0000000000071
 31
0.0
  0
MTEXT
  5
14221
330
14163
100
AcDbEntity
  8
SK2
 62
     0
100
AcDbMText
 10
47.88239957192978
 20
21.00941236105672
 30
0.0
 40
3.0
 41
0.0
 71
     5
 72
     1
  1
\A1;M24x3
  7
SANDVIK_STYLE
 11
0.0000000000000001
 21
1.0
 31
0.0
 73
     1
 44
1.0
1001
ACAD
1000
MTEXTBEGIN
1070
    73
1070
     1
1070
    44
1040
1.0
1070
    74
1070
     0
1000
MTEXTEND
  0
SOLID
  5
14222
330
14163
100
AcDbEntity
  8
SK2
 62
     0
100
AcDbTrace
 10
47.60619953442197
 20
8.999999999992899
 30
0.0
 11
48.60619953442197
 21
8.999999999992899
 31
0.0
 12
48.10619953442198
 22
11.9999999999929
 32
0.0
 13
48.10619953442198
 23
11.9999999999929
 33
0.0
  0
SOLID
  5
14223
330
14163
100
AcDbEntity
  8
SK2
 62
     0
100
AcDbTrace
 10
47.60619953442197
 20
-9.0000000000071
 30
0.0
 11
48.60619953442197
 21
-9.0000000000071
 31
0.0
 12
48.10619953442198
 22
-12.0000000000071
 32
0.0
 13
48.10619953442198
 23
-12.0000000000071
 33
0.0
  0
POINT
  5
14224
330
14163
100
AcDbEntity
  8
DEFPOINTS
 62
     0
100
AcDbPoint
 10
37.8206
 20
11.9999999999929
 30
0.0
  0
POINT
  5
14225
330
14163
100
AcDbEntity
  8
DEFPOINTS
 62
     0
100
AcDbPoint
 10
37.8206
 20
-12.0000000000071
 30
0.0
  0
POINT
  5
14226
330
14163
100
AcDbEntity
  8
DEFPOINTS
 62
     0
100
AcDbPoint
 10
48.10619953442198
 20
-12.0000000000071
 30
0.0
  0
ENDBLK
  5
14165
330
14163
100
AcDbEntity
  8
0
100
AcDbBlockEnd
  0
BLOCK
  5
14170
330
1416F
100
AcDbEntity
  8
0
100
AcDbBlockBegin
  2
*D156
 70
     1
 10
0.0
 20
0.0
 30
0.0
  3
*D156
  1

  0
LINE
  5
14227
330
1416F
100
AcDbEntity
  8
SK2
 62
     0
370
    -2
100
AcDbLine
 10
-10.3406359697322
 20
7.413999999997209
 30
0.0
 11
-10.3406359697322
 21
-7.414000000011404
 31
0.0
  0
LINE
  5
14228
330
1416F
100
AcDbEntity
  8
SK2
 62
     0
370
    -2
100
AcDbLine
 10
-10.3406359697322
 20
-10.4140000000114
 30
0.0
 11
-10.34063596973221
 21
-41.04734361768781
 31
0.0
  0
SOLID
  5
14229
330
1416F
100
AcDbEntity
  8
SK2
 62
     0
100
AcDbTrace
 10
-10.8406359697322
 20
7.413999999997209
 30
0.0
 11
-9.840635969732201
 21
7.413999999997209
 31
0.0
 12
-10.3406359697322
 22
10.41399999999721
 32
0.0
 13
-10.3406359697322
 23
10.41399999999721
 33
0.0
  0
SOLID
  5
1422A
330
1416F
100
AcDbEntity
  8
SK2
 62
     0
100
AcDbTrace
 10
-10.8406359697322
 20
-7.414000000011404
 30
0.0
 11
-9.840635969732204
 21
-7.414000000011405
 31
0.0
 12
-10.3406359697322
 22
-10.4140000000114
 32
0.0
 13
-10.3406359697322
 23
-10.4140000000114
 33
0.0
  0
MTEXT
  5
1422B
330
1416F
100
AcDbEntity
  8
SK2
 62
     0
100
AcDbMText
 10
-14.8406359697322
 20
-30.8330579034021
 30
0.0
 40
3.0
 41
0.0
 71
     5
 72
     1
  1
\A1;%%C 20.83 
  7
SANDVIK_STYLE
 11
0.0000000000000001
 21
1.0
 31
0.0
 73
     1
 44
1.0
1001
ACAD
1000
MTEXTBEGIN
1070
    73
1070
     1
1070
    44
1040
1.0
1070
    74
1070
     0
1000
MTEXTEND
  0
POINT
  5
1422C
330
1416F
100
AcDbEntity
  8
DEFPOINTS
 62
     0
100
AcDbPoint
 10
-10.3406359697326
 20
-10.4140000000114
 30
0.0
  0
POINT
  5
1422D
330
1416F
100
AcDbEntity
  8
DEFPOINTS
 62
     0
100
AcDbPoint
 10
-10.3406359697326
 20
10.41399999999721
 30
0.0
  0
POINT
  5
1422E
330
1416F
100
AcDbEntity
  8
DEFPOINTS
 62
     0
100
AcDbPoint
 10
-10.3406359697322
 20
10.41399999999721
 30
0.0
  0
ENDBLK
  5
14171
330
1416F
100
AcDbEntity
  8
0
100
AcDbBlockEnd
  0
BLOCK
  5
1417B
330
1417A
100
AcDbEntity
  8
0
100
AcDbBlockBegin
  2
*D157
 70
     1
 10
0.0
 20
0.0
 30
0.0
  3
*D157
  1

  0
LINE
  5
1422F
330
1417A
100
AcDbEntity
  8
SK2
 62
     0
370
    -2
100
AcDbLine
 10
2.85750000000036
 20
9.484099999994391
 30
0.0
 11
2.857500000000356
 21
-9.484100000008588
 31
0.0
  0
LINE
  5
14230
330
1417A
100
AcDbEntity
  8
SK2
 62
     0
370
    -2
100
AcDbLine
 10
2.857500000000356
 20
-12.48410000000859
 30
0.0
 11
2.857500000000349
 21
-41.03196016014838
 31
0.0
  0
SOLID
  5
14231
330
1417A
100
AcDbEntity
  8
SK2
 62
     0
100
AcDbTrace
 10
2.35750000000036
 20
9.484099999994391
 30
0.0
 11
3.35750000000036
 21
9.484099999994391
 31
0.0
 12
2.857500000000361
 22
12.48409999999439
 32
0.0
 13
2.857500000000361
 23
12.48409999999439
 33
0.0
  0
SOLID
  5
14232
330
1417A
100
AcDbEntity
  8
SK2
 62
     0
100
AcDbTrace
 10
2.357500000000356
 20
-9.484100000008588
 30
0.0
 11
3.357500000000356
 21
-9.484100000008588
 31
0.0
 12
2.857500000000356
 22
-12.48410000000859
 32
0.0
 13
2.857500000000356
 23
-12.48410000000859
 33
0.0
  0
MTEXT
  5
14233
330
1417A
100
AcDbEntity
  8
SK2
 62
     0
100
AcDbMText
 10
-1.642499999999643
 20
-30.81767444586267
 30
0.0
 40
3.0
 41
0.0
 71
     5
 72
     1
  1
\A1;%%C 24.97 
  7
SANDVIK_STYLE
 11
0.0000000000000001
 21
1.0
 31
0.0
 73
     1
 44
1.0
1001
ACAD
1000
MTEXTBEGIN
1070
    73
1070
     1
1070
    44
1040
1.0
1070
    74
1070
     0
1000
MTEXTEND
  0
POINT
  5
14234
330
1417A
100
AcDbEntity
  8
DEFPOINTS
 62
     0
100
AcDbPoint
 10
2.857500000000072
 20
-12.48410000000859
 30
0.0
  0
POINT
  5
14235
330
1417A
100
AcDbEntity
  8
DEFPOINTS
 62
     0
100
AcDbPoint
 10
2.857500000000072
 20
12.48409999999439
 30
0.0
  0
POINT
  5
14236
330
1417A
100
AcDbEntity
  8
DEFPOINTS
 62
     0
100
AcDbPoint
 10
2.857500000000361
 20
12.48409999999439
 30
0.0
  0
ENDBLK
  5
1417C
330
1417A
100
AcDbEntity
  8
0
100
AcDbBlockEnd
  0
BLOCK
  5
14186
330
14185
100
AcDbEntity
  8
0
100
AcDbBlockBegin
  2
*D158
 70
     1
 10
0.0
 20
0.0
 30
0.0
  3
*D158
  1

  0
LINE
  5
14237
330
14185
100
AcDbEntity
  8
SK2
 62
     0
370
    -2
100
AcDbLine
 10
-7.072000000000059
 20
18.16099999999842
 30
0.0
 11
-50.15727583467252
 21
18.16099999999843
 31
0.0
  0
LINE
  5
14238
330
14185
100
AcDbEntity
  8
SK2
 62
     0
370
    -2
100
AcDbLine
 10
-7.071999999999661
 20
-18.16099999999988
 30
0.0
 11
-50.15727583467253
 21
-18.16099999999986
 31
0.0
  0
LINE
  5
14239
330
14185
100
AcDbEntity
  8
SK2
 62
     0
370
    -2
100
AcDbLine
 10
-47.65727583467252
 20
15.16099999999843
 30
0.0
 11
-47.65727583467252
 21
-15.16099999999986
 31
0.0
  0
SOLID
  5
1423A
330
14185
100
AcDbEntity
  8
SK2
 62
     0
100
AcDbTrace
 10
-48.15727583467253
 20
15.16099999999843
 30
0.0
 11
-47.15727583467252
 21
15.16099999999843
 31
0.0
 12
-47.65727583467252
 22
18.16099999999843
 32
0.0
 13
-47.65727583467252
 23
18.16099999999843
 33
0.0
  0
SOLID
  5
1423B
330
14185
100
AcDbEntity
  8
SK2
 62
     0
100
AcDbTrace
 10
-48.15727583467253
 20
-15.16099999999986
 30
0.0
 11
-47.15727583467252
 21
-15.16099999999986
 31
0.0
 12
-47.65727583467253
 22
-18.16099999999986
 32
0.0
 13
-47.65727583467253
 23
-18.16099999999986
 33
0.0
  0
MTEXT
  5
1423C
330
14185
100
AcDbEntity
  8
SK2
 62
     0
100
AcDbMText
 10
-52.15727583467252
 20
-0.0000000000007248
 30
0.0
 40
3.0
 41
0.0
 71
     5
 72
     1
  1
\A1;%%C 36.32 
  7
SANDVIK_STYLE
 11
0.0000000000000001
 21
1.0
 31
0.0
 73
     1
 44
1.0
1001
ACAD
1000
MTEXTBEGIN
1070
    73
1070
     1
1070
    44
1040
1.0
1070
    74
1070
     0
1000
MTEXTEND
  0
POINT
  5
1423D
330
14185
100
AcDbEntity
  8
DEFPOINTS
 62
     0
100
AcDbPoint
 10
-4.572000000000059
 20
18.16099999999842
 30
0.0
  0
POINT
  5
1423E
330
14185
100
AcDbEntity
  8
DEFPOINTS
 62
     0
100
AcDbPoint
 10
-4.571999999999661
 20
-18.16099999999988
 30
0.0
  0
POINT
  5
1423F
330
14185
100
AcDbEntity
  8
DEFPOINTS
 62
     0
100
AcDbPoint
 10
-47.65727583467253
 20
-18.16099999999986
 30
0.0
  0
ENDBLK
  5
14187
330
14185
100
AcDbEntity
  8
0
100
AcDbBlockEnd
  0
BLOCK
  5
14192
330
14191
100
AcDbEntity
  8
0
100
AcDbBlockBegin
  2
*D159
 70
     1
 10
0.0
 20
0.0
 30
0.0
  3
*D159
  1

  0
LINE
  5
14240
330
14191
100
AcDbEntity
  8
SK2
 62
     0
370
    -2
100
AcDbLine
 10
-22.79459999999972
 20
14.47799999999569
 30
0.0
 11
-41.25709049098316
 21
14.4779999999957
 31
0.0
  0
LINE
  5
14241
330
14191
100
AcDbEntity
  8
SK2
 62
     0
370
    -2
100
AcDbLine
 10
-22.79459999999972
 20
-14.47799999999534
 30
0.0
 11
-41.25709049098316
 21
-14.47799999999533
 31
0.0
  0
LINE
  5
14242
330
14191
100
AcDbEntity
  8
SK2
 62
     0
370
    -2
100
AcDbLine
 10
-38.75709049098316
 20
11.4779999999957
 30
0.0
 11
-38.75709049098316
 21
-11.47799999999533
 31
0.0
  0
SOLID
  5
14243
330
14191
100
AcDbEntity
  8
SK2
 62
     0
100
AcDbTrace
 10
-39.25709049098316
 20
11.4779999999957
 30
0.0
 11
-38.25709049098316
 21
11.4779999999957
 31
0.0
 12
-38.75709049098316
 22
14.4779999999957
 32
0.0
 13
-38.75709049098316
 23
14.4779999999957
 33
0.0
  0
SOLID
  5
14244
330
14191
100
AcDbEntity
  8
SK2
 62
     0
100
AcDbTrace
 10
-39.25709049098316
 20
-11.47799999999533
 30
0.0
 11
-38.25709049098316
 21
-11.47799999999533
 31
0.0
 12
-38.75709049098316
 22
-14.47799999999533
 32
0.0
 13
-38.75709049098316
 23
-14.47799999999533
 33
0.0
  0
MTEXT
  5
14245
330
14191
100
AcDbEntity
  8
SK2
 62
     0
100
AcDbMText
 10
-43.25709049098316
 20
0.000000000000177
 30
0.0
 40
3.0
 41
0.0
 71
     5
 72
     1
  1
\A1;%%C 28.96 
  7
SANDVIK_STYLE
 11
0.0000000000000001
 21
1.0
 31
0.0
 73
     1
 44
1.0
1001
ACAD
1000
MTEXTBEGIN
1070
    73
1070
     1
1070
    44
1040
1.0
1070
    74
1070
     0
1000
MTEXTEND
  0
POINT
  5
14246
330
14191
100
AcDbEntity
  8
DEFPOINTS
 62
     0
100
AcDbPoint
 10
-20.29459999999972
 20
14.47799999999569
 30
0.0
  0
POINT
  5
14247
330
14191
100
AcDbEntity
  8
DEFPOINTS
 62
     0
100
AcDbPoint
 10
-20.29459999999972
 20
-14.47799999999534
 30
0.0
  0
POINT
  5
14248
330
14191
100
AcDbEntity
  8
DEFPOINTS
 62
     0
100
AcDbPoint
 10
-38.75709049098316
 20
-14.47799999999533
 30
0.0
  0
ENDBLK
  5
14193
330
14191
100
AcDbEntity
  8
0
100
AcDbBlockEnd
  0
BLOCK
  5
1419E
330
1419D
100
AcDbEntity
  8
0
100
AcDbBlockBegin
  2
*D160
 70
     1
 10
0.0
 20
0.0
 30
0.0
  3
*D160
  1

  0
LINE
  5
14249
330
1419D
100
AcDbEntity
  8
SK2
 62
     0
370
    -2
100
AcDbLine
 10
-22.79459999999972
 20
-14.47799999999534
 30
0.0
 11
-36.85612693951625
 21
-14.47799999999535
 31
0.0
  0
LINE
  5
1424A
330
1419D
100
AcDbEntity
  8
SK2
 62
     0
370
    -2
100
AcDbLine
 10
-19.57316695297047
 20
-16.24576695295735
 30
0.0
 11
-31.27629820549834
 21
-27.94889820542748
 31
0.0
  0
ARC
  5
1424B
330
1419D
100
AcDbEntity
  8
SK2
 62
     0
370
    -2
100
AcDbCircle
 10
-17.80539999999973
 20
-14.47799999999534
 30
0.0
 40
16.55072693951651
100
AcDbArc
 50
190.3997560679722
 51
214.6002439318865
  0
SOLID
  5
1424C
330
1419D
100
AcDbEntity
  8
SK2
 62
     0
100
AcDbTrace
 10
-34.58217785453836
 20
-17.51096900475252
 30
0.0
 11
-33.58629326299431
 21
-17.42033854450254
 31
0.0
 12
-34.35612693951625
 22
-14.47799999999535
 32
0.0
 13
-34.35612693951625
 23
-14.47799999999535
 33
0.0
  0
SOLID
  5
1424D
330
1419D
100
AcDbEntity
  8
SK2
 62
     0
100
AcDbTrace
 10
-31.04472417683429
 20
-23.55622910203965
 30
0.0
 11
-31.81300633782068
 21
-24.19634043697295
 31
0.0
 12
-29.50853125252761
 22
-26.18113125246548
 32
0.0
 13
-29.50853125252761
 23
-26.18113125246548
 33
0.0
  0
MTEXT
  5
1424E
330
1419D
100
AcDbEntity
  8
SK2
 62
     0
100
AcDbMText
 10
-25.93030606249836
 20
-28.89717000738511
 30
0.0
 40
3.0
 41
0.0
 71
     5
 72
     1
  1
\A1;45\U+00B0
  7
SANDVIK_STYLE
 11
0.8712106761282258
 21
-0.4909093172880298
 31
0.0
 73
     1
 44
1.0
1001
ACAD
1000
MTEXTBEGIN
1070
    73
1070
     1
1070
    44
1040
1.0
1070
    74
1070
     0
1000
MTEXTEND
  0
POINT
  5
1424F
330
1419D
100
AcDbEntity
  8
DEFPOINTS
 62
     0
100
AcDbPoint
 10
-33.79217459474049
 20
-18.76164334222044
 30
0.0
  0
POINT
  5
14250
330
1419D
100
AcDbEntity
  8
DEFPOINTS
 62
     0
100
AcDbPoint
 10
-16.23836798486627
 20
-12.9109679848696
 30
0.0
  0
POINT
  5
14251
330
1419D
100
AcDbEntity
  8
DEFPOINTS
 62
     0
100
AcDbPoint
 10
-17.80539999999973
 20
-14.47799999999534
 30
0.0
  0
POINT
  5
14252
330
1419D
100
AcDbEntity
  8
DEFPOINTS
 62
     0
100
AcDbPoint
 10
-20.29459999999972
 20
-14.47799999999534
 30
0.0
  0
POINT
  5
14253
330
1419D
100
AcDbEntity
  8
DEFPOINTS
 62
     0
100
AcDbPoint
 10
-17.80539999999973
 20
-14.47799999999534
 30
0.0
  0
ENDBLK
  5
1419F
330
1419D
100
AcDbEntity
  8
0
100
AcDbBlockEnd
  0
ENDSEC
  0
SECTION
  2
ENTITIES
  0
TEXT
  5
1408C
330
1826
100
AcDbEntity
  8
SK6
100
AcDbText
 10
-14.45546556644172
 20
-45.63131066266105
 30
0.0
 40
3.0
  1
PS-V50C-45-006
  7
SANDVIK_STYLE
100
AcDbText
  0
LINE
  5
1408D
330
1826
100
AcDbEntity
  8
SK3
100
AcDbLine
 10
39.09059999999998
 20
-5.943600000005794
 30
0.0
 11
39.09059999999998
 21
5.943599999991597
 31
0.0
  0
LINE
  5
1408E
330
1826
100
AcDbEntity
  8
SK3
100
AcDbLine
 10
39.09059999999998
 20
-5.943600000005794
 30
0.0
 11
40.10660000000005
 21
-6.959600000009054
 31
0.0
  0
LINE
  5
1408F
330
1826
100
AcDbEntity
  8
SK3
100
AcDbLine
 10
39.09059999999998
 20
5.943599999991597
 30
0.0
 11
40.10660000000005
 21
6.959599999994857
 31
0.0
  0
LINE
  5
14090
330
1826
100
AcDbEntity
  8
SK3
100
AcDbLine
 10
-24.38813591821827
 20
-5.943600000005794
 30
0.0
 11
-24.38813591821827
 21
5.943599999991597
 31
0.0
  0
LINE
  5
14091
330
1826
100
AcDbEntity
  8
SK3
100
AcDbLine
 10
39.09059999999998
 20
5.943599999991597
 30
0.0
 11
-24.38813591821827
 21
5.943599999991597
 31
0.0
  0
LINE
  5
14092
330
1826
100
AcDbEntity
  8
SK3
100
AcDbLine
 10
39.09059999999998
 20
-5.943600000005794
 30
0.0
 11
-24.38813591821827
 21
-5.943600000005794
 31
0.0
  0
LINE
  5
14093
330
1826
100
AcDbEntity
  8
SK3
100
AcDbLine
 10
-24.38813591821827
 20
5.943599999991597
 30
0.0
 11
-25.40000000000009
 21
6.527799999989106
 31
0.0
  0
LINE
  5
14094
330
1826
100
AcDbEntity
  8
SK3
100
AcDbLine
 10
-24.38813591821827
 20
-5.943600000005794
 30
0.0
 11
-25.40000000000009
 21
-6.527800000017855
 31
0.0
  0
POLYLINE
  5
14095
330
1826
100
AcDbEntity
  8
SK1
100
AcDb2dPolyline
 66
     1
 10
0.0
 20
0.0
 30
0.0
 70
   128
  0
VERTEX
  5
14096
330
14095
100
AcDbEntity
  8
SK1
100
AcDbVertex
100
AcDb2dVertex
 10
-4.571999907493591
 20
8.820787668221051
 30
0.0
  0
VERTEX
  5
14097
330
14095
100
AcDbEntity
  8
SK1
100
AcDbVertex
100
AcDb2dVertex
 10
-4.626568853855133
 20
8.814642429344708
 30
0.0
  0
VERTEX
  5
14098
330
14095
100
AcDbEntity
  8
SK1
100
AcDbVertex
100
AcDb2dVertex
 10
-4.677811563014984
 20
8.797641396515423
 30
0.0
  0
VERTEX
  5
14099
330
14095
100
AcDbEntity
  8
SK1
100
AcDbVertex
100
AcDb2dVertex
 10
-4.725408554077148
 20
8.771832585327679
 30
0.0
  0
VERTEX
  5
1409A
330
14095
100
AcDbEntity
  8
SK1
100
AcDbVertex
100
AcDb2dVertex
 10
-4.767748713493347
 20
8.739241361610943
 30
0.0
  0
VERTEX
  5
1409B
330
14095
100
AcDbEntity
  8
SK1
100
AcDbVertex
100
AcDb2dVertex
 10
-4.80728805065155
 20
8.700428605072552
 30
0.0
  0
VERTEX
  5
1409C
330
14095
100
AcDbEntity
  8
SK1
100
AcDbVertex
100
AcDb2dVertex
 10
-4.842995107173919
 20
8.657931089394146
 30
0.0
  0
VERTEX
  5
1409D
330
14095
100
AcDbEntity
  8
SK1
100
AcDbVertex
100
AcDb2dVertex
 10
-4.873836934566497
 20
8.614285588257367
 30
0.0
  0
VERTEX
  5
1409E
330
14095
100
AcDbEntity
  8
SK1
100
AcDbVertex
100
AcDb2dVertex
 10
-4.900714755058288
 20
8.569271564476544
 30
0.0
  0
VERTEX
  5
1409F
330
14095
100
AcDbEntity
  8
SK1
100
AcDbVertex
100
AcDb2dVertex
 10
-4.925669133663177
 20
8.520895838730389
 30
0.0
  0
VERTEX
  5
140A0
330
14095
100
AcDbEntity
  8
SK1
100
AcDbVertex
100
AcDb2dVertex
 10
-4.948592483997344
 20
8.470142483704144
 30
0.0
  0
VERTEX
  5
140A1
330
14095
100
AcDbEntity
  8
SK1
100
AcDbVertex
100
AcDb2dVertex
 10
-4.969368278980255
 20
8.41800630091911
 30
0.0
  0
VERTEX
  5
140A2
330
14095
100
AcDbEntity
  8
SK1
100
AcDbVertex
100
AcDb2dVertex
 10
-4.987879395484924
 20
8.365484476082379
 30
0.0
  0
VERTEX
  5
140A3
330
14095
100
AcDbEntity
  8
SK1
100
AcDbVertex
100
AcDb2dVertex
 10
-5.004008412361145
 20
8.3135724067617
 30
0.0
  0
VERTEX
  5
140A4
330
14095
100
AcDbEntity
  8
SK1
100
AcDbVertex
100
AcDb2dVertex
 10
-5.017669200897216
 20
8.263155817978436
 30
0.0
  0
VERTEX
  5
140A5
330
14095
100
AcDbEntity
  8
SK1
100
AcDbVertex
100
AcDb2dVertex
 10
-5.029639601707458
 20
8.211935758583599
 30
0.0
  0
VERTEX
  5
140A6
330
14095
100
AcDbEntity
  8
SK1
100
AcDbVertex
100
AcDb2dVertex
 10
-5.040309429168701
 20
8.158947229378277
 30
0.0
  0
VERTEX
  5
140A7
330
14095
100
AcDbEntity
  8
SK1
100
AcDbVertex
100
AcDb2dVertex
 10
-5.049688816070556
 20
8.104602694504315
 30
0.0
  0
VERTEX
  5
140A8
330
14095
100
AcDbEntity
  8
SK1
100
AcDbVertex
100
AcDb2dVertex
 10
-5.057787299156188
 20
8.049315214150006
 30
0.0
  0
VERTEX
  5
140A9
330
14095
100
AcDbEntity
  8
SK1
100
AcDbVertex
100
AcDb2dVertex
 10
-5.064613819122314
 20
7.993498444550091
 30
0.0
  0
VERTEX
  5
140AA
330
14095
100
AcDbEntity
  8
SK1
100
AcDbVertex
100
AcDb2dVertex
 10
-5.070177912712097
 20
7.937565445892865
 30
0.0
  0
VERTEX
  5
140AB
330
14095
100
AcDbEntity
  8
SK1
100
AcDbVertex
100
AcDb2dVertex
 10
-5.074489116668701
 20
7.881928682320172
 30
0.0
  0
VERTEX
  5
140AC
330
14095
100
AcDbEntity
  8
SK1
100
AcDbVertex
100
AcDb2dVertex
 10
-5.07755696773529
 20
7.827002406113201
 30
0.0
  0
VERTEX
  5
140AD
330
14095
100
AcDbEntity
  8
SK1
100
AcDbVertex
100
AcDb2dVertex
 10
-5.079391002655029
 20
7.7731990814138
 30
0.0
  0
VERTEX
  5
140AE
330
14095
100
AcDbEntity
  8
SK1
100
AcDbVertex
100
AcDb2dVertex
 10
-5.080000162124633
 20
7.72093176841026
 30
0.0
  0
SEQEND
  5
140AF
330
14095
100
AcDbEntity
  8
SK1
  0
LINE
  5
140B0
330
1826
100
AcDbEntity
  8
SK1
100
AcDbLine
 10
-0.5079999999998109
 20
8.820787719924005
 30
0.0
 11
-4.571999999999661
 21
8.820787719924005
 31
0.0
  0
POLYLINE
  5
140B1
330
1826
100
AcDbEntity
  8
SK1
100
AcDb2dPolyline
 66
     1
 10
0.0
 20
0.0
 30
0.0
 70
   128
  0
VERTEX
  5
140B2
330
140B1
100
AcDbEntity
  8
SK1
100
AcDbVertex
100
AcDb2dVertex
 10
0.0
 20
7.72093176841026
 30
0.0
  0
VERTEX
  5
140B3
330
140B1
100
AcDbEntity
  8
SK1
100
AcDbVertex
100
AcDb2dVertex
 10
-0.0005515837256098
 20
7.77314066886192
 30
0.0
  0
VERTEX
  5
140B4
330
140B1
100
AcDbEntity
  8
SK1
100
AcDbVertex
100
AcDb2dVertex
 10
-0.0022423005430028
 20
7.826446294777447
 30
0.0
  0
VERTEX
  5
140B5
330
140B1
100
AcDbEntity
  8
SK1
100
AcDbVertex
100
AcDb2dVertex
 10
-0.0051260989857838
 20
7.880626320831829
 30
0.0
  0
VERTEX
  5
140B6
330
140B1
100
AcDbEntity
  8
SK1
100
AcDbVertex
100
AcDb2dVertex
 10
-0.0092569272965193
 20
7.935457825653607
 30
0.0
  0
VERTEX
  5
140B7
330
140B1
100
AcDbEntity
  8
SK1
100
AcDbVertex
100
AcDb2dVertex
 10
-0.0146887346636504
 20
7.990718483917767
 30
0.0
  0
VERTEX
  5
140B8
330
140B1
100
AcDbEntity
  8
SK1
100
AcDbVertex
100
AcDb2dVertex
 10
-0.0214754673652351
 20
8.046184182159954
 30
0.0
  0
VERTEX
  5
140B9
330
140B1
100
AcDbEntity
  8
SK1
100
AcDbVertex
100
AcDb2dVertex
 10
-0.0296710757538676
 20
8.101632595055157
 30
0.0
  0
VERTEX
  5
140BA
330
140B1
100
AcDbEntity
  8
SK1
100
AcDbVertex
100
AcDb2dVertex
 10
-0.0393295101821423
 20
8.156840801231915
 30
0.0
  0
VERTEX
  5
140BB
330
140B1
100
AcDbEntity
  8
SK1
100
AcDbVertex
100
AcDb2dVertex
 10
-0.0505047151818872
 20
8.211586475365216
 30
0.0
  0
VERTEX
  5
140BC
330
140B1
100
AcDbEntity
  8
SK1
100
AcDbVertex
100
AcDb2dVertex
 10
-0.0632506376132369
 20
8.265646100037152
 30
0.0
  0
VERTEX
  5
140BD
330
140B1
100
AcDbEntity
  8
SK1
100
AcDbVertex
100
AcDb2dVertex
 10
-0.0776212336495519
 20
8.318797349922711
 30
0.0
  0
VERTEX
  5
140BE
330
140B1
100
AcDbEntity
  8
SK1
100
AcDbVertex
100
AcDb2dVertex
 10
-0.0936704501509667
 20
8.370816707603985
 30
0.0
  0
VERTEX
  5
140BF
330
140B1
100
AcDbEntity
  8
SK1
100
AcDbVertex
100
AcDb2dVertex
 10
-0.1114522200077772
 20
8.421481847755963
 30
0.0
  0
VERTEX
  5
140C0
330
140B1
100
AcDbEntity
  8
SK1
100
AcDbVertex
100
AcDb2dVertex
 10
-0.1310205180197954
 20
8.470569252960736
 30
0.0
  0
VERTEX
  5
140C1
330
140B1
100
AcDbEntity
  8
SK1
100
AcDbVertex
100
AcDb2dVertex
 10
-0.1524591073393822
 20
8.517906665794903
 30
0.0
  0
VERTEX
  5
140C2
330
140B1
100
AcDbEntity
  8
SK1
100
AcDbVertex
100
AcDb2dVertex
 10
-0.1771624758839607
 20
8.565324544899517
 30
0.0
  0
VERTEX
  5
140C3
330
140B1
100
AcDbEntity
  8
SK1
100
AcDbVertex
100
AcDb2dVertex
 10
-0.2056750096380711
 20
8.612701892845684
 30
0.0
  0
VERTEX
  5
140C4
330
140B1
100
AcDbEntity
  8
SK1
100
AcDbVertex
100
AcDb2dVertex
 10
-0.2377282455563545
 20
8.658466339104229
 30
0.0
  0
VERTEX
  5
140C5
330
140B1
100
AcDbEntity
  8
SK1
100
AcDbVertex
100
AcDb2dVertex
 10
-0.2730538323521614
 20
8.701046705238873
 30
0.0
  0
VERTEX
  5
140C6
330
140B1
100
AcDbEntity
  8
SK1
100
AcDbVertex
100
AcDb2dVertex
 10
-0.311383344233036
 20
8.738871812813336
 30
0.0
  0
VERTEX
  5
140C7
330
140B1
100
AcDbEntity
  8
SK1
100
AcDbVertex
100
AcDb2dVertex
 10
-0.3532527014613151
 20
8.770845532410199
 30
0.0
  0
VERTEX
  5
140C8
330
140B1
100
AcDbEntity
  8
SK1
100
AcDbVertex
100
AcDb2dVertex
 10
-0.4022650048136712
 20
8.797719478600079
 30
0.0
  0
VERTEX
  5
140C9
330
140B1
100
AcDbEntity
  8
SK1
100
AcDbVertex
100
AcDb2dVertex
 10
-0.4533674940466881
 20
8.814518451683575
 30
0.0
  0
VERTEX
  5
140CA
330
140B1
100
AcDbEntity
  8
SK1
100
AcDbVertex
100
AcDb2dVertex
 10
-0.5079999938607216
 20
8.820787668221051
 30
0.0
  0
SEQEND
  5
140CB
330
140B1
100
AcDbEntity
  8
SK1
  0
LINE
  5
140CC
330
1826
100
AcDbEntity
  8
SK1
100
AcDbLine
 10
0.0
 20
-7.720931550029312
 30
0.0
 11
0.0
 21
7.720931550000564
 31
0.0
  0
POLYLINE
  5
140CD
330
1826
100
AcDbEntity
  8
SK1
100
AcDb2dPolyline
 66
     1
 10
0.0
 20
0.0
 30
0.0
 70
   128
  0
VERTEX
  5
140CE
330
140CD
100
AcDbEntity
  8
SK1
100
AcDbVertex
100
AcDb2dVertex
 10
-0.5079999938607216
 20
-8.820787668235247
 30
0.0
  0
VERTEX
  5
140CF
330
140CD
100
AcDbEntity
  8
SK1
100
AcDbVertex
100
AcDb2dVertex
 10
-0.4533674940466881
 20
-8.814518451697772
 30
0.0
  0
VERTEX
  5
140D0
330
140CD
100
AcDbEntity
  8
SK1
100
AcDbVertex
100
AcDb2dVertex
 10
-0.4022650048136712
 20
-8.797719478614276
 30
0.0
  0
VERTEX
  5
140D1
330
140CD
100
AcDbEntity
  8
SK1
100
AcDbVertex
100
AcDb2dVertex
 10
-0.3532527014613151
 20
-8.770845532424395
 30
0.0
  0
VERTEX
  5
140D2
330
140CD
100
AcDbEntity
  8
SK1
100
AcDbVertex
100
AcDb2dVertex
 10
-0.311383344233036
 20
-8.738871812827532
 30
0.0
  0
VERTEX
  5
140D3
330
140CD
100
AcDbEntity
  8
SK1
100
AcDbVertex
100
AcDb2dVertex
 10
-0.2730538323521614
 20
-8.70104670525307
 30
0.0
  0
VERTEX
  5
140D4
330
140CD
100
AcDbEntity
  8
SK1
100
AcDbVertex
100
AcDb2dVertex
 10
-0.2377282455563545
 20
-8.658466339118426
 30
0.0
  0
VERTEX
  5
140D5
330
140CD
100
AcDbEntity
  8
SK1
100
AcDbVertex
100
AcDb2dVertex
 10
-0.2056750096380711
 20
-8.612701892859881
 30
0.0
  0
VERTEX
  5
140D6
330
140CD
100
AcDbEntity
  8
SK1
100
AcDbVertex
100
AcDb2dVertex
 10
-0.1771624758839607
 20
-8.565324544913714
 30
0.0
  0
VERTEX
  5
140D7
330
140CD
100
AcDbEntity
  8
SK1
100
AcDbVertex
100
AcDb2dVertex
 10
-0.1524591073393822
 20
-8.5179066658091
 30
0.0
  0
VERTEX
  5
140D8
330
140CD
100
AcDbEntity
  8
SK1
100
AcDbVertex
100
AcDb2dVertex
 10
-0.1310205180197954
 20
-8.470569252974932
 30
0.0
  0
VERTEX
  5
140D9
330
140CD
100
AcDbEntity
  8
SK1
100
AcDbVertex
100
AcDb2dVertex
 10
-0.1114522200077772
 20
-8.421481847770159
 30
0.0
  0
VERTEX
  5
140DA
330
140CD
100
AcDbEntity
  8
SK1
100
AcDbVertex
100
AcDb2dVertex
 10
-0.0936704501509667
 20
-8.370816707618182
 30
0.0
  0
VERTEX
  5
140DB
330
140CD
100
AcDbEntity
  8
SK1
100
AcDbVertex
100
AcDb2dVertex
 10
-0.0776212336495519
 20
-8.318797349936907
 30
0.0
  0
VERTEX
  5
140DC
330
140CD
100
AcDbEntity
  8
SK1
100
AcDbVertex
100
AcDb2dVertex
 10
-0.0632506376132369
 20
-8.265646100051348
 30
0.0
  0
VERTEX
  5
140DD
330
140CD
100
AcDbEntity
  8
SK1
100
AcDbVertex
100
AcDb2dVertex
 10
-0.0505047151818872
 20
-8.211586475379412
 30
0.0
  0
VERTEX
  5
140DE
330
140CD
100
AcDbEntity
  8
SK1
100
AcDbVertex
100
AcDb2dVertex
 10
-0.0393295101821423
 20
-8.156840801246111
 30
0.0
  0
VERTEX
  5
140DF
330
140CD
100
AcDbEntity
  8
SK1
100
AcDbVertex
100
AcDb2dVertex
 10
-0.0296710757538676
 20
-8.101632595069354
 30
0.0
  0
VERTEX
  5
140E0
330
140CD
100
AcDbEntity
  8
SK1
100
AcDbVertex
100
AcDb2dVertex
 10
-0.0214754673652351
 20
-8.046184182174151
 30
0.0
  0
VERTEX
  5
140E1
330
140CD
100
AcDbEntity
  8
SK1
100
AcDbVertex
100
AcDb2dVertex
 10
-0.0146887346636504
 20
-7.990718483931964
 30
0.0
  0
VERTEX
  5
140E2
330
140CD
100
AcDbEntity
  8
SK1
100
AcDbVertex
100
AcDb2dVertex
 10
-0.0092569272965193
 20
-7.935457825667803
 30
0.0
  0
VERTEX
  5
140E3
330
140CD
100
AcDbEntity
  8
SK1
100
AcDbVertex
100
AcDb2dVertex
 10
-0.0051260989857838
 20
-7.880626320846026
 30
0.0
  0
VERTEX
  5
140E4
330
140CD
100
AcDbEntity
  8
SK1
100
AcDbVertex
100
AcDb2dVertex
 10
-0.0022423005430028
 20
-7.826446294791644
 30
0.0
  0
VERTEX
  5
140E5
330
140CD
100
AcDbEntity
  8
SK1
100
AcDbVertex
100
AcDb2dVertex
 10
-0.0005515837256098
 20
-7.773140668876116
 30
0.0
  0
VERTEX
  5
140E6
330
140CD
100
AcDbEntity
  8
SK1
100
AcDbVertex
100
AcDb2dVertex
 10
0.0
 20
-7.720931768424456
 30
0.0
  0
SEQEND
  5
140E7
330
140CD
100
AcDbEntity
  8
SK1
  0
LINE
  5
140E8
330
1826
100
AcDbEntity
  8
SK1
100
AcDbLine
 10
-4.571999999999661
 20
-8.820787719938202
 30
0.0
 11
-0.5079999999998109
 21
-8.820787719938202
 31
0.0
  0
POLYLINE
  5
140E9
330
1826
100
AcDbEntity
  8
SK1
100
AcDb2dPolyline
 66
     1
 10
0.0
 20
0.0
 30
0.0
 70
   128
  0
VERTEX
  5
140EA
330
140E9
100
AcDbEntity
  8
SK1
100
AcDbVertex
100
AcDb2dVertex
 10
-5.080000162124633
 20
-7.720931768424456
 30
0.0
  0
VERTEX
  5
140EB
330
140E9
100
AcDbEntity
  8
SK1
100
AcDbVertex
100
AcDb2dVertex
 10
-5.079391002655029
 20
-7.773199081427996
 30
0.0
  0
VERTEX
  5
140EC
330
140E9
100
AcDbEntity
  8
SK1
100
AcDbVertex
100
AcDb2dVertex
 10
-5.07755696773529
 20
-7.827002406127398
 30
0.0
  0
VERTEX
  5
140ED
330
140E9
100
AcDbEntity
  8
SK1
100
AcDbVertex
100
AcDb2dVertex
 10
-5.074489116668701
 20
-7.881928682334368
 30
0.0
  0
VERTEX
  5
140EE
330
140E9
100
AcDbEntity
  8
SK1
100
AcDbVertex
100
AcDb2dVertex
 10
-5.070177912712097
 20
-7.937565445907061
 30
0.0
  0
VERTEX
  5
140EF
330
140E9
100
AcDbEntity
  8
SK1
100
AcDbVertex
100
AcDb2dVertex
 10
-5.064613819122314
 20
-7.993498444564288
 30
0.0
  0
VERTEX
  5
140F0
330
140E9
100
AcDbEntity
  8
SK1
100
AcDbVertex
100
AcDb2dVertex
 10
-5.057787299156188
 20
-8.049315214164202
 30
0.0
  0
VERTEX
  5
140F1
330
140E9
100
AcDbEntity
  8
SK1
100
AcDbVertex
100
AcDb2dVertex
 10
-5.049688816070556
 20
-8.104602694518511
 30
0.0
  0
VERTEX
  5
140F2
330
140E9
100
AcDbEntity
  8
SK1
100
AcDbVertex
100
AcDb2dVertex
 10
-5.040309429168701
 20
-8.158947229392474
 30
0.0
  0
VERTEX
  5
140F3
330
140E9
100
AcDbEntity
  8
SK1
100
AcDbVertex
100
AcDb2dVertex
 10
-5.029639601707458
 20
-8.211935758597796
 30
0.0
  0
VERTEX
  5
140F4
330
140E9
100
AcDbEntity
  8
SK1
100
AcDbVertex
100
AcDb2dVertex
 10
-5.017669200897216
 20
-8.263155817992632
 30
0.0
  0
VERTEX
  5
140F5
330
140E9
100
AcDbEntity
  8
SK1
100
AcDbVertex
100
AcDb2dVertex
 10
-5.004008412361145
 20
-8.313572406775897
 30
0.0
  0
VERTEX
  5
140F6
330
140E9
100
AcDbEntity
  8
SK1
100
AcDbVertex
100
AcDb2dVertex
 10
-4.987879395484924
 20
-8.365484476096575
 30
0.0
  0
VERTEX
  5
140F7
330
140E9
100
AcDbEntity
  8
SK1
100
AcDbVertex
100
AcDb2dVertex
 10
-4.969368278980255
 20
-8.418006300933306
 30
0.0
  0
VERTEX
  5
140F8
330
140E9
100
AcDbEntity
  8
SK1
100
AcDbVertex
100
AcDb2dVertex
 10
-4.948592483997344
 20
-8.47014248371834
 30
0.0
  0
VERTEX
  5
140F9
330
140E9
100
AcDbEntity
  8
SK1
100
AcDbVertex
100
AcDb2dVertex
 10
-4.925669133663177
 20
-8.520895838744586
 30
0.0
  0
VERTEX
  5
140FA
330
140E9
100
AcDbEntity
  8
SK1
100
AcDbVertex
100
AcDb2dVertex
 10
-4.900714755058288
 20
-8.56927156449074
 30
0.0
  0
VERTEX
  5
140FB
330
140E9
100
AcDbEntity
  8
SK1
100
AcDbVertex
100
AcDb2dVertex
 10
-4.873836934566497
 20
-8.614285588271563
 30
0.0
  0
VERTEX
  5
140FC
330
140E9
100
AcDbEntity
  8
SK1
100
AcDbVertex
100
AcDb2dVertex
 10
-4.842995107173919
 20
-8.657931089408343
 30
0.0
  0
VERTEX
  5
140FD
330
140E9
100
AcDbEntity
  8
SK1
100
AcDbVertex
100
AcDb2dVertex
 10
-4.80728805065155
 20
-8.700428605086749
 30
0.0
  0
VERTEX
  5
140FE
330
140E9
100
AcDbEntity
  8
SK1
100
AcDbVertex
100
AcDb2dVertex
 10
-4.767748713493347
 20
-8.73924136162514
 30
0.0
  0
VERTEX
  5
140FF
330
140E9
100
AcDbEntity
  8
SK1
100
AcDbVertex
100
AcDb2dVertex
 10
-4.725408554077148
 20
-8.771832585341876
 30
0.0
  0
VERTEX
  5
14100
330
140E9
100
AcDbEntity
  8
SK1
100
AcDbVertex
100
AcDb2dVertex
 10
-4.677811563014984
 20
-8.79764139652962
 30
0.0
  0
VERTEX
  5
14101
330
140E9
100
AcDbEntity
  8
SK1
100
AcDbVertex
100
AcDb2dVertex
 10
-4.626568853855133
 20
-8.814642429358904
 30
0.0
  0
VERTEX
  5
14102
330
140E9
100
AcDbEntity
  8
SK1
100
AcDbVertex
100
AcDb2dVertex
 10
-4.571999907493591
 20
-8.820787668235247
 30
0.0
  0
SEQEND
  5
14103
330
140E9
100
AcDbEntity
  8
SK1
  0
LINE
  5
14104
330
1826
100
AcDbEntity
  8
SK1
100
AcDbLine
 10
-5.079999999999927
 20
7.720931550000564
 30
0.0
 11
-5.079999999999927
 21
-7.720931550029312
 31
0.0
  0
LINE
  5
14105
330
1826
100
AcDbEntity
  8
SK1
100
AcDbLine
 10
-5.079999999999927
 20
17.6529999999986
 30
0.0
 11
-5.079999999999927
 21
7.720931550000564
 31
0.0
  0
LINE
  5
14106
330
1826
100
AcDbEntity
  8
SK1
100
AcDbLine
 10
-5.079999999999927
 20
-7.720931550029312
 30
0.0
 11
-5.079999999999927
 21
-17.65299999999825
 31
0.0
  0
LINE
  5
14107
330
1826
100
AcDbEntity
  8
SK1
100
AcDbLine
 10
0.0
 20
7.720931550000564
 30
0.0
 11
0.0
 21
17.6529999999986
 31
0.0
  0
LINE
  5
14108
330
1826
100
AcDbEntity
  8
SK1
100
AcDbLine
 10
0.0
 20
-17.65299999999825
 30
0.0
 11
0.0
 21
-7.720931550029312
 31
0.0
  0
ARC
  5
14109
330
1826
100
AcDbEntity
  8
SK1
100
AcDbCircle
 10
-4.571999999999661
 20
17.6529999999986
 30
0.0
 40
0.508
100
AcDbArc
 50
90.0
 51
180.0
  0
ARC
  5
1410A
330
1826
100
AcDbEntity
  8
SK1
100
AcDbCircle
 10
-0.5079999999998109
 20
17.6529999999986
 30
0.0
 40
0.508
100
AcDbArc
 50
0.0
 51
90.0
  0
ARC
  5
1410B
330
1826
100
AcDbEntity
  8
SK1
100
AcDbCircle
 10
-0.5079999999998109
 20
-17.65299999999825
 30
0.0
 40
0.508
100
AcDbArc
 50
270.0
 51
0.0
  0
ARC
  5
1410C
330
1826
100
AcDbEntity
  8
SK1
100
AcDbCircle
 10
-4.571999999999661
 20
-17.65299999999825
 30
0.0
 40
0.508
100
AcDbArc
 50
180.0
 51
270.0
  0
LINE
  5
1410D
330
1826
100
AcDbEntity
  8
SK1
100
AcDbLine
 10
40.10660000000005
 20
-9.713999999999764
 30
0.0
 11
40.10660000000005
 21
9.714000000000119
 31
0.0
  0
LINE
  5
1410E
330
1826
100
AcDbEntity
  8
SK1
100
AcDbLine
 10
37.8206
 20
11.9999999999929
 30
0.0
 11
37.8206
 21
-12.0000000000071
 31
0.0
  0
LINE
  5
1410F
330
1826
100
AcDbEntity
  8
SK1
100
AcDbLine
 10
40.10660000000005
 20
9.714000000000119
 30
0.0
 11
37.8206
 21
11.9999999999929
 31
0.0
  0
LINE
  5
14110
330
1826
100
AcDbEntity
  8
SK1
100
AcDbLine
 10
40.10660000000005
 20
-9.713999999999764
 30
0.0
 11
37.8206
 21
-12.0000000000071
 31
0.0
  0
LINE
  5
14111
330
1826
100
AcDbEntity
  8
SK1
100
AcDbLine
 10
14.40407454651904
 20
-12.0000000000071
 30
0.0
 11
14.40407454651904
 21
11.9999999999929
 31
0.0
  0
LINE
  5
14112
330
1826
100
AcDbEntity
  8
SK1
100
AcDbLine
 10
5.206999999999879
 20
-12.48410000000859
 30
0.0
 11
5.206999999999879
 21
12.48409999999439
 31
0.0
  0
LINE
  5
14113
330
1826
100
AcDbEntity
  8
SK1
100
AcDbLine
 10
6.222999999999956
 20
-11.46810000000533
 30
0.0
 11
6.222999999999956
 21
11.46809999999113
 31
0.0
  0
LINE
  5
14114
330
1826
100
AcDbEntity
  8
SK1
100
AcDbLine
 10
37.8206
 20
11.9999999999929
 30
0.0
 11
14.40407454651904
 21
11.9999999999929
 31
0.0
  0
LINE
  5
14115
330
1826
100
AcDbEntity
  8
SK1
100
AcDbLine
 10
37.8206
 20
-12.0000000000071
 30
0.0
 11
14.40407454651904
 21
-12.0000000000071
 31
0.0
  0
LINE
  5
14116
330
1826
100
AcDbEntity
  8
SK1
100
AcDbLine
 10
5.206999999999879
 20
12.48409999999439
 30
0.0
 11
0.5080000000002656
 21
12.48409999999439
 31
0.0
  0
LINE
  5
14117
330
1826
100
AcDbEntity
  8
SK1
100
AcDbLine
 10
5.206999999999879
 20
-12.48410000000859
 30
0.0
 11
0.5080000000002656
 21
-12.48410000000859
 31
0.0
  0
ARC
  5
14118
330
1826
100
AcDbEntity
  8
SK1
100
AcDbCircle
 10
9.998896031407639
 20
-16.5735000000057
 30
0.0
 40
6.349999999999998
100
AcDbArc
 50
46.07398668123287
 51
126.4862099825691
  0
ARC
  5
14119
330
1826
100
AcDbEntity
  8
SK1
100
AcDbCircle
 10
9.998896031407639
 20
16.5734999999915
 30
0.0
 40
6.349999999999998
100
AcDbArc
 50
233.5137900174309
 51
313.9260133187671
  0
LINE
  5
1411A
330
1826
100
AcDbEntity
  8
SK1
100
AcDbLine
 10
6.222999999999956
 20
11.46809999999113
 30
0.0
 11
5.206999999999879
 21
12.48409999999439
 31
0.0
  0
LINE
  5
1411B
330
1826
100
AcDbEntity
  8
SK1
100
AcDbLine
 10
6.222999999999956
 20
-11.46810000000533
 30
0.0
 11
5.206999999999879
 21
-12.48410000000859
 31
0.0
  0
LINE
  5
1411C
330
1826
100
AcDbEntity
  8
SK1
100
AcDbLine
 10
-17.80539999999973
 20
-14.47799999999534
 30
0.0
 11
-17.80539999999973
 21
14.47799999999569
 31
0.0
  0
LINE
  5
1411D
330
1826
100
AcDbEntity
  8
SK1
100
AcDbLine
 10
-20.29459999999972
 20
-14.47799999999534
 30
0.0
 11
-20.29459999999972
 21
14.47799999999569
 31
0.0
  0
LINE
  5
1411E
330
1826
100
AcDbEntity
  8
SK1
100
AcDbLine
 10
-25.40000000000009
 20
-11.53039593567501
 30
0.0
 11
-25.40000000000009
 21
11.53039593567536
 31
0.0
  0
LINE
  5
1411F
330
1826
100
AcDbEntity
  8
SK1
100
AcDbLine
 10
-0.5079999999998109
 20
18.16100000000023
 30
0.0
 11
-4.571999999999661
 21
18.16100000000023
 31
0.0
  0
LINE
  5
14120
330
1826
100
AcDbEntity
  8
SK1
100
AcDbLine
 10
-0.5079999999998109
 20
-18.16099999999988
 30
0.0
 11
-4.571999999999661
 21
-18.16099999999988
 31
0.0
  0
LINE
  5
14121
330
1826
100
AcDbEntity
  8
SK1
100
AcDbLine
 10
-8.254999999999654
 20
10.41399999999721
 30
0.0
 11
-12.42627193946555
 21
10.41399999999721
 31
0.0
  0
LINE
  5
14122
330
1826
100
AcDbEntity
  8
SK1
100
AcDbLine
 10
-8.254999999999654
 20
-10.4140000000114
 30
0.0
 11
-12.42627193946555
 21
-10.4140000000114
 31
0.0
  0
LINE
  5
14123
330
1826
100
AcDbEntity
  8
SK1
100
AcDbLine
 10
-14.67133596973281
 20
11.34393596972968
 30
0.0
 11
-17.80539999999973
 21
14.47799999999569
 31
0.0
  0
LINE
  5
14124
330
1826
100
AcDbEntity
  8
SK1
100
AcDbLine
 10
-14.67133596973281
 20
-11.34393596974387
 30
0.0
 11
-17.80539999999973
 21
-14.47799999999534
 31
0.0
  0
LINE
  5
14125
330
1826
100
AcDbEntity
  8
SK1
100
AcDbLine
 10
-17.80539999999973
 20
14.47799999999569
 30
0.0
 11
-20.29459999999972
 21
14.47799999999569
 31
0.0
  0
LINE
  5
14126
330
1826
100
AcDbEntity
  8
SK1
100
AcDbLine
 10
-17.80539999999973
 20
-14.47799999999534
 30
0.0
 11
-20.29459999999972
 21
-14.47799999999534
 31
0.0
  0
LINE
  5
14127
330
1826
100
AcDbEntity
  8
SK1
100
AcDbLine
 10
-25.40000000000009
 20
-11.53039593567501
 30
0.0
 11
-20.29459999999972
 21
-14.47799999999534
 31
0.0
  0
LINE
  5
14128
330
1826
100
AcDbEntity
  8
SK1
100
AcDbLine
 10
-25.40000000000009
 20
11.53039593567536
 30
0.0
 11
-20.29459999999972
 21
14.47799999999569
 31
0.0
  0
ARC
  5
14129
330
1826
100
AcDbEntity
  8
SK1
100
AcDbCircle
 10
0.5080000000002656
 20
-12.99210000001022
 30
0.0
 40
0.508
100
AcDbArc
 50
90.0
 51
180.0
  0
ARC
  5
1412A
330
1826
100
AcDbEntity
  8
SK1
100
AcDbCircle
 10
0.5080000000002656
 20
12.99209999999602
 30
0.0
 40
0.508
100
AcDbArc
 50
180.0
 51
270.0
  0
ARC
  5
1412B
330
1826
100
AcDbEntity
  8
SK1
100
AcDbCircle
 10
-12.42627193946555
 20
-13.58899999999976
 30
0.0
 40
3.174999999999999
100
AcDbArc
 50
90.0
 51
134.9999999999911
  0
ARC
  5
1412C
330
1826
100
AcDbEntity
  8
SK1
100
AcDbCircle
 10
-12.42627193946555
 20
13.58900000000012
 30
0.0
 40
3.174999999999999
100
AcDbArc
 50
225.0000000000088
 51
270.0
  0
ARC
  5
1412D
330
1826
100
AcDbEntity
  8
SK1
100
AcDbCircle
 10
-8.254999999999654
 20
-13.58899999999976
 30
0.0
 40
3.174999999999999
100
AcDbArc
 50
0.0
 51
90.0
  0
ARC
  5
1412E
330
1826
100
AcDbEntity
  8
SK1
100
AcDbCircle
 10
-8.254999999999654
 20
13.58900000000012
 30
0.0
 40
3.174999999999999
100
AcDbArc
 50
270.0
 51
0.0
  0
LINE
  5
1412F
330
1826
100
AcDbEntity
  8
SK1
100
AcDbLine
 10
14.40407454651904
 20
10.18899999999139
 30
0.0
 11
39.6315999999997
 21
10.18899999999139
 31
0.0
  0
LINE
  5
14130
330
1826
100
AcDbEntity
  8
SK1
100
AcDbLine
 10
39.6315999999997
 20
-10.18900000000558
 30
0.0
 11
14.40407454651904
 21
-10.18900000000558
 31
0.0
  0
LINE
  5
14131
330
1826
100
AcDbEntity
  8
SK1
100
AcDbLine
 10
14.40407454651904
 20
-12.0000000000071
 30
0.0
 11
14.40407454651904
 21
11.9999999999929
 31
0.0
  0
POINT
  5
14132
330
1826
100
AcDbEntity
  8
81
  6
CENTER
100
AcDbPoint
 10
0.0000000004281446
 20
-0.0000001422998182
 30
0.0
  0
POINT
  5
14133
330
1826
100
AcDbEntity
  8
80
  6
CENTER
100
AcDbPoint
 10
-25.39999999122685
 20
-0.0000000000016414
 30
0.0
  0
LINE
  5
14134
330
1826
100
AcDbEntity
  8
SK4
100
AcDbLine
 10
41.10660000000005
 20
-0.0000000000002771
 30
0.0
 11
-26.40000000028411
 21
0.0000000000001776
 31
0.0
  0
LINE
  5
14135
330
1826
100
AcDbEntity
  8
80
100
AcDbLine
 10
-25.40000000000518
 20
0.0000000000001776
 30
0.0
 11
-35.39998904256848
 21
0.0148036689658469
 31
0.0
  0
DIMENSION
  5
14136
330
1826
100
AcDbEntity
  8
SK2
100
AcDbDimension
  2
*D152
 10
40.10660000000005
 20
43.62135477004967
 30
0.0
 11
7.353299999999984
 21
48.12135477004967
 31
0.0
 70
    32
 71
     5
 42
65.50660000000014
  3
STANDARD
100
AcDbAlignedDimension
 13
-25.40000000000009
 23
11.53039593567536
 33
0.0
 14
40.10660000000005
 24
9.714000000000119
 34
0.0
100
AcDbRotatedDimension
  0
DIMENSION
  5
14137
330
1826
100
AcDbEntity
  8
SK2
100
AcDbDimension
  2
*D153
 10
-25.40000000000009
 20
34.59288952362676
 30
0.0
 11
-12.69999999999994
 21
39.09288952362676
 31
0.0
 70
    32
 71
     5
 42
25.40000000000029
  3
STANDARD
100
AcDbAlignedDimension
 13
0.000000000000199
 23
17.6529999999986
 33
0.0
 14
-25.40000000000009
 24
11.53039593567536
 34
0.0
100
AcDbRotatedDimension
  0
DIMENSION
  5
14138
330
1826
100
AcDbEntity
  8
SK2
100
AcDbDimension
  2
*D154
 10
-17.80539999999973
 20
25.56442427720385
 30
0.0
 11
-7.506310606705142
 21
30.17897209470784
 31
0.0
 70
   160
 71
     5
 42
17.80539999999993
  3
STANDARD
100
AcDbAlignedDimension
 13
0.000000000000199
 23
17.6529999999986
 33
0.0
 14
-17.80539999999973
 24
14.47799999999569
 34
0.0
100
AcDbRotatedDimension
  0
DIMENSION
  5
14139
330
1826
100
AcDbEntity
  8
SK2
100
AcDbDimension
  2
*D155
 10
48.10619953442198
 20
-12.0000000000071
 30
0.0
 11
47.88239957192978
 21
21.00941236105672
 31
0.0
 70
   160
  1
M24x3
 71
     5
 42
24.0
  3
STANDARD
100
AcDbAlignedDimension
 13
37.8206
 23
11.9999999999929
 33
0.0
 14
37.8206
 24
-12.0000000000071
 34
0.0
 50
90.0
100
AcDbRotatedDimension
  0
DIMENSION
  5
1413A
330
1826
100
AcDbEntity
  8
SK2
100
AcDbDimension
  2
*D156
 10
-10.3406359697322
 20
10.41399999999721
 30
0.0
 11
-10.3406359697322
 21
-30.8330579034021
 31
0.0
 70
   160
 71
     5
 42
20.82800000000862
  3
STANDARD
100
AcDbAlignedDimension
 13
-10.3406359697326
 23
-10.4140000000114
 33
0.0
 14
-10.3406359697326
 24
10.41399999999721
 34
0.0
 50
90.0
100
AcDbRotatedDimension
1001
ACAD
1000
DSTYLE
1002
{
1070
     3
1000
%%C <> 
1070
   279
1070
     0
1002
}
  0
DIMENSION
  5
1413B
330
1826
100
AcDbEntity
  8
SK2
100
AcDbDimension
  2
*D157
 10
2.857500000000361
 20
12.48409999999439
 30
0.0
 11
2.857500000000356
 21
-30.81767444586267
 31
0.0
 70
   160
 71
     5
 42
24.96820000000298
  3
STANDARD
100
AcDbAlignedDimension
 13
2.857500000000072
 23
-12.48410000000859
 33
0.0
 14
2.857500000000072
 24
12.48409999999439
 34
0.0
 50
90.0
100
AcDbRotatedDimension
1001
ACAD
1000
DSTYLE
1002
{
1070
     3
1000
%%C <> 
1070
   279
1070
     0
1002
}
  0
DIMENSION
  5
1413C
330
1826
100
AcDbEntity
  8
SK2
100
AcDbDimension
  2
*D158
 10
-47.65727583467253
 20
-18.16099999999986
 30
0.0
 11
-52.15727583467252
 21
-0.0000000000007248
 31
0.0
 70
    32
 71
     5
 42
36.3219999999983
  3
STANDARD
100
AcDbAlignedDimension
 13
-4.572000000000059
 23
18.16099999999842
 33
0.0
 14
-4.571999999999661
 24
-18.16099999999988
 34
0.0
 50
90.0
100
AcDbRotatedDimension
1001
ACAD
1000
DSTYLE
1002
{
1070
     3
1000
%%C <> 
1002
}
  0
DIMENSION
  5
1413D
330
1826
100
AcDbEntity
  8
SK2
100
AcDbDimension
  2
*D159
 10
-38.75709049098316
 20
-14.47799999999533
 30
0.0
 11
-43.25709049098316
 21
0.000000000000177
 31
0.0
 70
    32
 71
     5
 42
28.95599999999104
  3
STANDARD
100
AcDbAlignedDimension
 13
-20.29459999999972
 23
14.47799999999569
 33
0.0
 14
-20.29459999999972
 24
-14.47799999999534
 34
0.0
 50
90.0
100
AcDbRotatedDimension
1001
ACAD
1000
DSTYLE
1002
{
1070
     3
1000
%%C <> 
1002
}
  0
DIMENSION
  5
1413E
330
1826
100
AcDbEntity
  8
SK2
100
AcDbDimension
  2
*D160
 10
-17.80539999999973
 20
-14.47799999999534
 30
0.0
 11
-25.93030606249837
 21
-28.89717000738511
 31
0.0
 70
   162
 71
     5
 42
0.785398163394981
  3
STANDARD
100
AcDb2LineAngularDimension
 13
-17.80539999999973
 23
-14.47799999999534
 33
0.0
 14
-20.29459999999972
 24
-14.47799999999534
 34
0.0
 15
-16.23836798486627
 25
-12.91096798486961
 35
0.0
 16
-33.79217459474049
 26
-18.76164334222044
 36
0.0
1001
ACAD
1000
DSTYLE
1002
{
1070
   271
1070
     0
1002
}
  0
ENDSEC
  0
SECTION
  2
OBJECTS
  0
DICTIONARY
  5
17C3
330
0
100
AcDbDictionary
281
     1
  3
ACAD_BACKGROUND
350
23E5
  3
ACAD_CIP_PREVIOUS_PRODUCT_INFO
350
18A9
  3
ACAD_COLOR
350
1819
  3
ACAD_DETAILVIEWSTYLE
350
1820
  3
ACAD_FIELDLIST
350
191B
  3
ACAD_GROUP
350
17C4
  3
ACAD_LAYOUT
350
1818
  3
ACAD_MATERIAL
350
17C7
  3
ACAD_MLEADERSTYLE
350
181C
  3
ACAD_MLINESTYLE
350
1815
  3
ACAD_PLOTSETTINGS
350
1817
  3
ACAD_PLOTSTYLENAME
350
17C5
  3
ACAD_SCALELIST
350
17F9
  3
ACAD_SECTIONVIEWSTYLE
350
181E
  3
ACAD_TABLESTYLE
350
181A
  3
ACAD_VISUALSTYLE
350
17E0
  3
ACDB_RECOMPOSE_DATA
350
1425A
  3
AcDbVariableDictionary
350
233F
  3
AcDsDecomposeData
350
14261
  3
ACGREF_MASTER
350
18B9
  3
ACGREFACAD_MASTER
350
18BD
  3
AcmDictionary
350
18D5
  3
ACME_COMMAND_HISTORY
350
18B2
  3
ACME_SCOPE_NAME
350
18B1
  3
ACMESTATEMGR
350
18B5
  3
AcmeSysVarManager
350
18B3
  3
AcmSystemVariableManager
350
18C2
  3
AMG
350
18AA
  3
AMGSNAPSETTINGS
350
1926
  3
AMI_MASTER
350
18C0
  3
AUTOCAD_ASSEMBLIES_PROJECT
350
18CB
  3
Designer_Assemblies_SysVars
350
18C5
  3
DWGPROPS
350
1425B
  3
GREFAM_MODULE
350
18C1
  3
StructToggleButtonState
350
192D
  0
DICTIONARY
  5
22C7
330
17B9
100
AcDbDictionary
280
     1
281
     1
  3
ACAD_LAYERSTATES
360
22C8
  0
DICTIONARY
  5
2272
330
180B
100
AcDbDictionary
280
     1
281
     1
  3
ADSK_XREC_LAYER_RECONCILED
360
2273
  0
DICTIONARY
  5
2274
330
182A
100
AcDbDictionary
280
     1
281
     1
  3
ADSK_XREC_LAYER_RECONCILED
360
2275
  0
DICTIONARY
  5
2292
330
183D
100
AcDbDictionary
280
     1
281
     1
  3
ADSK_XREC_LAYER_RECONCILED
360
2293
  0
DICTIONARY
  5
2296
330
183F
100
AcDbDictionary
280
     1
281
     1
  3
ADSK_XREC_LAYER_RECONCILED
360
2297
  0
DICTIONARY
  5
2298
330
1840
100
AcDbDictionary
280
     1
281
     1
  3
ADSK_XREC_LAYER_RECONCILED
360
2299
  0
DICTIONARY
  5
229A
330
1841
100
AcDbDictionary
280
     1
281
     1
  3
ADSK_XREC_LAYER_RECONCILED
360
229B
  0
DICTIONARY
  5
229E
330
1843
100
AcDbDictionary
280
     1
281
     1
  3
ADSK_XREC_LAYER_RECONCILED
360
229F
  0
DICTIONARY
  5
22A0
330
1844
100
AcDbDictionary
280
     1
281
     1
  3
ADSK_XREC_LAYER_RECONCILED
360
22A1
  0
DICTIONARY
  5
22A2
330
1845
100
AcDbDictionary
280
     1
281
     1
  3
ADSK_XREC_LAYER_RECONCILED
360
22A3
  0
DICTIONARY
  5
2267
330
1826
100
AcDbDictionary
280
     1
281
     1
  3
ACAD_SORTENTS
360
2268
  0
DICTIONARY
  5
23E5
102
{ACAD_REACTORS
330
17C3
102
}
330
17C3
100
AcDbDictionary
281
     1
  0
XRECORD
  5
18A9
102
{ACAD_REACTORS
330
17C3
102
}
330
17C3
100
AcDbXrecord
280
     1
300
AMECH_PP
300
2016
300
86462PDSU_2016_0F
  0
DICTIONARY
  5
1819
102
{ACAD_REACTORS
330
17C3
102
}
330
17C3
100
AcDbDictionary
281
     1
  0
DICTIONARY
  5
1820
102
{ACAD_REACTORS
330
17C3
102
}
330
17C3
100
AcDbDictionary
281
     1
  3
ASME Y14.35 - 1987
350
1910
  3
Imperial24
350
1821
  0
FIELDLIST
  5
191B
102
{ACAD_REACTORS
330
17C3
102
}
330
17C3
100
AcDbIdSet
 90
        4
330
1919
330
191A
330
191C
330
191D
100
AcDbFieldList
  0
DICTIONARY
  5
17C4
102
{ACAD_REACTORS
330
17C3
102
}
330
17C3
100
AcDbDictionary
281
     1
  0
DICTIONARY
  5
1818
102
{ACAD_REACTORS
330
17C3
102
}
330
17C3
100
AcDbDictionary
281
     1
  3
Layout1
350
1825
  3
Model
350
1829
  0
DICTIONARY
  5
17C7
102
{ACAD_REACTORS
330
17C3
102
}
330
17C3
100
AcDbDictionary
281
     1
  3
ByBlock
350
17D0
  3
ByLayer
350
17C8
  3
Global
350
17D8
  0
DICTIONARY
  5
181C
102
{ACAD_REACTORS
330
17C3
102
}
330
17C3
100
AcDbDictionary
281
     1
  3
Standard
350
181D
  0
DICTIONARY
  5
1815
102
{ACAD_REACTORS
330
17C3
102
}
330
17C3
100
AcDbDictionary
281
     1
  3
Standard
350
1816
  0
DICTIONARY
  5
1817
102
{ACAD_REACTORS
330
17C3
102
}
330
17C3
100
AcDbDictionary
281
     1
  0
ACDBDICTIONARYWDFLT
  5
17C5
102
{ACAD_REACTORS
330
17C3
102
}
330
17C3
100
AcDbDictionary
281
     1
  3
Normal
350
17C6
100
AcDbDictionaryWithDefault
340
17C6
  0
DICTIONARY
  5
17F9
102
{ACAD_REACTORS
330
17C3
102
}
330
17C3
100
AcDbDictionary
281
     1
  3
A0
350
17FA
  3
A1
350
17FB
  3
A2
350
17FC
  3
A3
350
17FD
  3
A4
350
17FE
  3
A5
350
17FF
  3
A6
350
1800
  3
A7
350
1801
  3
A8
350
1802
  3
A9
350
1803
  3
B0
350
1804
  3
B1
350
1805
  3
B2
350
1806
  3
B3
350
1807
  3
B4
350
1808
  3
B5
350
1809
  3
B6
350
180A
  0
DICTIONARY
  5
181E
102
{ACAD_REACTORS
330
17C3
102
}
330
17C3
100
AcDbDictionary
281
     1
  3
ASME Y14.3 - 2003
350
1916
  3
Imperial24
350
181F
  0
DICTIONARY
  5
181A
102
{ACAD_REACTORS
330
17C3
102
}
330
17C3
100
AcDbDictionary
281
     1
  3
Standard
350
181B
  0
DICTIONARY
  5
17E0
102
{ACAD_REACTORS
330
17C3
102
}
330
17C3
100
AcDbDictionary
281
     1
  3
2dWireframe
350
17E6
  3
Basic
350
17E5
  3
Brighten
350
17EC
  3
ColorChange
350
17F0
  3
Conceptual
350
17E9
  3
Dim
350
17EB
  3
EdgeColorOff
350
17F8
  3
Facepattern
350
17EF
  3
Flat
350
17E1
  3
FlatWithEdges
350
17E2
  3
Gouraud
350
17E3
  3
GouraudWithEdges
350
17E4
  3
Hidden
350
17E8
  3
JitterOff
350
17F6
  3
Linepattern
350
17EE
  3
OverhangOff
350
17F7
  3
Realistic
350
17EA
  3
Shaded
350
17F5
  3
Shaded with edges
350
17F4
  3
Shades of Gray
350
17F1
  3
Sketchy
350
17F2
  3
Thicken
350
17ED
  3
Wireframe
350
17E7
  3
X-Ray
350
17F3
  0
XRECORD
  5
1425A
102
{ACAD_REACTORS
330
17C3
102
}
330
17C3
100
AcDbXrecord
280
     1
 90
        1
330
181B
  0
DICTIONARY
  5
233F
102
{ACAD_REACTORS
330
17C3
102
}
330
17C3
100
AcDbDictionary
281
     1
  3
CANNOSCALE
350
2345
  3
CMLEADERSTYLE
350
2341
  3
CTABLESTYLE
350
2340
  3
CVIEWDETAILSTYLE
350
2342
  3
CVIEWSECTIONSTYLE
350
2343
  3
DIMASSOC
350
14256
  3
INDEXCTL
350
14255
  3
LAYEREVAL
350
2347
  3
LAYERNOTIFY
350
2348
  3
LIGHTINGUNITS
350
2346
  3
MSLTSCALE
350
2344
  3
SORTENTS
350
14254
  3
XCLIPFRAME
350
14257
  0
DICTIONARY
  5
14261
102
{ACAD_REACTORS
330
17C3
102
}
330
17C3
100
AcDbDictionary
281
     1
  3
AcDsRecords
350
14263
  3
AcDsSchemas
350
14262
1001
ACAD
1070
     2
  0
ACAD_PROXY_OBJECT
  5
18B9
102
{ACAD_REACTORS
330
17C3
102
}
330
17C3
100
AcDbProxyObject
 90
      499
 91
      516
 95
  6946847
 70
     0
 93
       35
310
0C000042CC
 94
        0
1001
ACAD
1000
AcRTDxfName
1000
ACGREFMASTER
  0
ACAD_PROXY_OBJECT
  5
18BD
102
{ACAD_REACTORS
330
17C3
102
}
330
17C3
100
AcDbProxyObject
 90
      499
 91
      519
 95
  6946847
 70
     0
 93
      115
310
04000041C08000000000000000000C
 94
        0
1001
ACAD
1000
AcRTDxfName
1000
ACGREFACADMASTER
  0
DICTIONARY
  5
18D5
102
{ACAD_REACTORS
330
17C3
102
}
330
17C3
100
AcDbDictionary
281
     1
  3
AcmBOMDATA
350
18D6
  3
AcmStdDictionary
350
18DE
  0
ACAD_PROXY_OBJECT
  5
18B2
102
{ACAD_REACTORS
330
17C3
102
}
330
17C3
100
AcDbProxyObject
 90
      499
 91
      511
 95
  6946847
 70
     0
 93
     8439
310
478060180601404040601805010101806018060140404060140404060180501010140404050101018060180601805010101404040601806014040505450052004100530045004151401480104014C01140105450052004100530045004113001240138011401184D005300470020002D00200043006F006D006D0061006E00
310
64002000430041004E00430045004C004C00450044002E0041934012401480148013C01480101550041934012401480148013C014801184D005300470020002D00200043006F006D006D0061006E0064002000430041004E00430045004C004C00450044002E0041934012401480148013C014801054500520041005300450
310
041168013C013C013401044D004F005600450041134013C0158011401184D005300470020002D00200043006F006D006D0061006E0064002000430041004E00430045004C004C00450044002E0041134013C015801140105510053004100560045004C534014C011C008000B4008001400140010400E800800080008001900
310
19401CC01AC01D001BC01C000B8018401C801E00080011801A401B001940158019401C801CC01A401BC01B800E8008000C800C000B800C000B800D000D800B800C000B800C0010C47005200490050005F00530054005200450054004300480040554010C47005200490050005F005300540052004500540043004800461340
310
14C011C008000B40080010C01BC01B401B4018401B801900080010C01040138010C0114013001300114011000B801044C0049004E00450046134014C011C008000B40080010C01BC01B401B4018401B801900080010C01040138010C0114013001300114011000B8010C47005200490050005F005300540052004500540043
310
00480046134014C011C008000B40080010C01BC01B401B4018401B801900080010C01040138010C0114013001300114011000B801044D004F00560045004151401480104014C0114010C47005200490050005F0053005400520045005400430048004311C014801240140017C014C0150014801140150010C0120010C47005
310
200490050005F0053005400520045005400430048004110C013C0140016401184D005300470020002D00200043006F006D006D0061006E0064002000430041004E00430045004C004C00450044002E004110C013C0140016401184D005300470020002D00200043006F006D006D0061006E0064002000430041004E0043004
310
5004C004C00450044002E0041930010401640134010C0120010155004311C014801240140017C014C0150014801140150010C01200105510053004100560045004C534014C011C008000B4008001400140010400E80080008000800190019401CC01AC01D001BC01C000B8018401C801E00080011801A401B0019401580194
310
01C801CC01A401BC01B800E8008000C800C000B800C000B800D000D800B800C000B800C000407E
 94
        0
1001
ACAD
1000
AcRTDxfName
1000
ACMECOMMANDHISTORY
  0
ACAD_PROXY_OBJECT
  5
18B1
102
{ACAD_REACTORS
330
17C3
102
}
330
17C3
100
AcDbProxyObject
 90
      499
 91
      510
 95
  6946847
 70
     0
 93
      259
310
140000540080000000000000000010C442000000000000000000000000AAAAAA8C
360
18B4
360
18C3
360
18C6
360
18C7
360
18C8
360
18C9
360
18CA
360
18CF
360
18D0
360
18D1
360
18D2
360
18D3
 94
        0
1001
ACAD
1000
AcRTDxfName
1000
ACMESCOPE
  0
ACAD_PROXY_OBJECT
  5
18B5
102
{ACAD_REACTORS
330
17C3
102
}
330
17C3
100
AcDbProxyObject
 90
      499
 91
      514
 95
  6946847
 70
     0
 93
       51
310
1400004524128C
 94
        0
1001
ACAD
1000
AcRTDxfName
1000
ACMESTATEMGR
  0
ACAD_PROXY_OBJECT
  5
18B3
102
{ACAD_REACTORS
330
17C3
102
}
330
17C3
100
AcDbProxyObject
 90
      499
 91
      512
 95
  6946847
 70
     0
 93
       33
310
901422004C
330
18B4
 94
        0
1001
ACAD
1000
AcRTDxfName
1000
ACIMSYSVARMAN
  0
ACAD_PROXY_OBJECT
  5
18C2
102
{ACAD_REACTORS
330
17C3
102
}
330
17C3
100
AcDbProxyObject
 90
      499
 91
      512
 95
  6946847
 70
     0
 93
       33
310
901422004C
330
18C3
 94
        0
1001
ACAD
1000
AcRTDxfName
1000
ACIMSYSVARMAN
  0
DICTIONARY
  5
18AA
102
{ACAD_REACTORS
330
17C3
102
}
330
17C3
100
AcDbDictionary
281
     1
  3
AcMgSettings
350
18AB
  3
AMGLAYCFG
350
18F2
  0
DICTIONARY
  5
1926
102
{ACAD_REACTORS
330
17C3
102
}
330
17C3
100
AcDbDictionary
281
     1
  3
DIMENSION
350
192B
  3
FEA
350
192A
  3
HATCH (1)
350
1927
  3
HATCH (2)
350
1928
  3
SIMPLE WELD
350
192C
  3
SYMBOLS
350
1929
  0
ACAD_PROXY_OBJECT
  5
18C0
102
{ACAD_REACTORS
330
17C3
102
}
330
17C3
100
AcDbProxyObject
 90
      499
 91
      522
 95
  6946847
 70
     0
 93
       35
310
050000428C
 94
        0
1001
ACAD
1000
AcRTDxfName
1000
AMIMASTER
  0
ACAD_PROXY_OBJECT
  5
18CB
102
{ACAD_REACTORS
330
17C3
102
}
330
17C3
100
AcDbProxyObject
 90
      499
 91
      526
 95
  6946847
 70
     0
 93
       99
310
0E000053C0000000000000000C
330
18D1
330
0
330
18D2
330
0
330
0
330
0
330
0
330
0
 94
        0
1001
ACAD
1000
AcRTDxfName
1000
ACAMPROJECT
  0
ACAD_PROXY_OBJECT
  5
18C5
102
{ACAD_REACTORS
330
17C3
102
}
330
17C3
100
AcDbProxyObject
 90
      499
 91
      512
 95
  6946847
 70
     0
 93
       65
310
90542200000000004C
330
18C6
330
18C7
330
18C8
330
18C9
330
18CA
 94
        0
1001
ACAD
1000
AcRTDxfName
1000
ACIMSYSVARMAN
  0
XRECORD
  5
1425B
102
{ACAD_REACTORS
330
17C3
102
}
330
17C3
100
AcDbXrecord
280
     1
  1
DWGPROPS COOKIE
  2

  3

  4

  6

  7

  8
jcarr
  9

300
=
301
=
302
=
303
=
304
=
305
=
306
=
307
=
308
=
309
=
 40
1.510837129629629
 41
2454070.563713959
 42
2458046.457651771
  1

 90
        0
  0
ACAD_PROXY_OBJECT
  5
18C1
102
{ACAD_REACTORS
330
17C3
102
}
330
17C3
100
AcDbProxyObject
 90
      499
 91
      523
 95
  6946847
 70
     0
 93
        9
310
054C
 94
        0
1001
ACAD
1000
AcRTDxfName
1000
MAPIAMMOUDLE
  0
ACAD_PROXY_OBJECT
  5
192D
102
{ACAD_REACTORS
330
17C3
102
}
330
17C3
100
AcDbProxyObject
 90
      499
 91
      564
 95
  6946847
 70
     0
 93
        2
310
0C
 94
        0
1001
ACAD
1000
AcRTDxfName
1000
CAMSSTRUCTBTNSTATE
  0
DICTIONARY
  5
22C8
102
{ACAD_REACTORS
330
22C7
102
}
330
22C7
100
AcDbDictionary
281
     1
  0
XRECORD
  5
2273
102
{ACAD_REACTORS
330
2272
102
}
330
2272
100
AcDbXrecord
280
     1
290
     1
  0
XRECORD
  5
2275
102
{ACAD_REACTORS
330
2274
102
}
330
2274
100
AcDbXrecord
280
     1
290
     1
  0
XRECORD
  5
2293
102
{ACAD_REACTORS
330
2292
102
}
330
2292
100
AcDbXrecord
280
     1
290
     1
  0
XRECORD
  5
2297
102
{ACAD_REACTORS
330
2296
102
}
330
2296
100
AcDbXrecord
280
     1
290
     1
  0
XRECORD
  5
2299
102
{ACAD_REACTORS
330
2298
102
}
330
2298
100
AcDbXrecord
280
     1
290
     1
  0
XRECORD
  5
229B
102
{ACAD_REACTORS
330
229A
102
}
330
229A
100
AcDbXrecord
280
     1
290
     1
  0
XRECORD
  5
229F
102
{ACAD_REACTORS
330
229E
102
}
330
229E
100
AcDbXrecord
280
     1
290
     1
  0
XRECORD
  5
22A1
102
{ACAD_REACTORS
330
22A0
102
}
330
22A0
100
AcDbXrecord
280
     1
290
     1
  0
XRECORD
  5
22A3
102
{ACAD_REACTORS
330
22A2
102
}
330
22A2
100
AcDbXrecord
280
     1
290
     1
  0
SORTENTSTABLE
  5
2268
102
{ACAD_REACTORS
330
2267
102
}
330
2267
100
AcDbSortentsTable
330
1826
  0
ACDBDETAILVIEWSTYLE
  5
1910
102
{ACAD_XDICTIONARY
360
233B
102
}
102
{ACAD_REACTORS
330
18E6
330
1820
102
}
330
1820
100
AcDbModelDocViewStyle
 70
     0
  3

290
     0
100
AcDbDetailViewStyle
 70
     0
 71
     0
 90
        3
 71
     1
340
180C
 40
0.24
340
1911
 40
0.24
300

 40
0.36
280
     2
 71
     2
340
1813
 90
       15
 71
     3
340
180C
 40
0.24
 90
        1
 40
0.75
 90
        1
300
%<\AcVar ViewType \f "%tc1">% %<\AcVar ViewDetailId>%\PSCALE %<\AcVar ViewScale \f "%sn">%
 71
     4
340
1813
 90
       15
340
1813
 90
       15
280
     0
  0
ACDBDETAILVIEWSTYLE
  5
1821
102
{ACAD_XDICTIONARY
360
2339
102
}
102
{ACAD_REACTORS
330
1820
330
190B
102
}
330
1820
100
AcDbModelDocViewStyle
 70
     0
  3
Imperial24
290
     0
100
AcDbDetailViewStyle
 70
     0
 71
     0
 90
        3
 71
     1
340
180C
 40
0.24
340
0
 40
0.24
300

 40
0.36
280
     3
 71
     2
340
1813
 90
       25
 71
     3
340
180C
 40
0.24
 90
        1
 40
0.75
 90
        1
300
%<\AcVar ViewType \f "%tc1">% %<\AcVar ViewDetailId>%\PSCALE %<\AcVar ViewScale \f "%sn">%
 71
     4
340
1813
 90
       25
340
1813
 90
       25
280
     0
  0
LAYOUT
  5
1825
102
{ACAD_XDICTIONARY
360
1429A
102
}
102
{ACAD_REACTORS
330
1818
102
}
330
1818
100
AcDbPlotSettings
  1

  2
Adobe PDF (8.5X11)
  4

  6

 40
0.0
 41
0.0
 42
0.0
 43
0.0
 44
0.0
 45
0.0
 46
0.0
 47
0.0
 48
0.0
 49
0.0
140
0.0
141
0.0
142
1.0
143
1.0
 70
   688
 72
     0
 73
     0
 74
     5
  7

 75
    16
147
1.0
148
0.0
149
0.0
100
AcDbLayout
  1
Layout1
 70
     1
 71
     1
 10
0.0
 20
0.0
 11
12.0
 21
9.0
 12
0.0
 22
0.0
 32
0.0
 14
1.000000000000000E+20
 24
1.000000000000000E+20
 34
1.000000000000000E+20
 15
-1.000000000000000E+20
 25
-1.000000000000000E+20
 35
-1.000000000000000E+20
146
0.0
 13
0.0
 23
0.0
 33
0.0
 16
1.0
 26
0.0
 36
0.0
 17
0.0
 27
1.0
 37
0.0
 76
     0
330
1822
  0
LAYOUT
  5
1829
102
{ACAD_XDICTIONARY
360
1429C
102
}
102
{ACAD_REACTORS
330
1818
102
}
330
1818
100
AcDbPlotSettings
  1

  2
Adobe PDF (8.5X11)
  4

  6

 40
0.0
 41
0.0
 42
0.0
 43
0.0
 44
0.0
 45
0.0
 46
0.0
 47
0.0
 48
0.0
 49
0.0
140
0.0
141
0.0
142
1.0
143
1.0
 70
  1712
 72
     0
 73
     0
 74
     0
  7

 75
     0
147
1.0
148
0.0
149
0.0
100
AcDbLayout
  1
Model
 70
     1
 71
     0
 10
0.0
 20
0.0
 11
12.0
 21
9.0
 12
0.0
 22
0.0
 32
0.0
 14
0.0
 24
0.0
 34
0.0
 15
0.0
 25
0.0
 35
0.0
146
0.0
 13
0.0
 23
0.0
 33
0.0
 16
1.0
 26
0.0
 36
0.0
 17
0.0
 27
1.0
 37
0.0
 76
     0
330
1826
331
182C
  0
MATERIAL
  5
17D0
102
{ACAD_XDICTIONARY
360
17D1
102
}
102
{ACAD_REACTORS
330
17C7
102
}
330
17C7
100
AcDbMaterial
  1
ByBlock
 72
     0
 43
0.0208333333333333
 43
0.0
 43
0.0
 43
0.0
 43
0.0
 43
0.0208333333333333
 43
0.0
 43
0.0
 43
0.0
 43
0.0
 43
1.0
 43
0.0
 43
0.0
 43
0.0
 43
0.0
 43
1.0
 77
     0
 47
0.0208333333333333
 47
0.0
 47
0.0
 47
0.0
 47
0.0
 47
0.0208333333333333
 47
0.0
 47
0.0
 47
0.0
 47
0.0
 47
1.0
 47
0.0
 47
0.0
 47
0.0
 47
0.0
 47
1.0
171
     0
 49
0.0208333333333333
 49
0.0
 49
0.0
 49
0.0
 49
0.0
 49
0.0208333333333333
 49
0.0
 49
0.0
 49
0.0
 49
0.0
 49
1.0
 49
0.0
 49
0.0
 49
0.0
 49
0.0
 49
1.0
175
     0
142
0.0208333333333333
142
0.0
142
0.0
142
0.0
142
0.0
142
0.0208333333333333
142
0.0
142
0.0
142
0.0
142
0.0
142
1.0
142
0.0
142
0.0
142
0.0
142
0.0
142
1.0
179
     0
144
0.0208333333333333
144
0.0
144
0.0
144
0.0
144
0.0
144
0.0208333333333333
144
0.0
144
0.0
144
0.0
144
0.0
144
1.0
144
0.0
144
0.0
144
0.0
144
0.0
144
1.0
147
0.0208333333333333
147
0.0
147
0.0
147
0.0
147
0.0
147
0.0208333333333333
147
0.0
147
0.0
147
0.0
147
0.0
147
1.0
147
0.0
147
0.0
147
0.0
147
0.0
147
1.0
  0
MATERIAL
  5
17C8
102
{ACAD_XDICTIONARY
360
17C9
102
}
102
{ACAD_REACTORS
330
17C7
102
}
330
17C7
100
AcDbMaterial
  1
ByLayer
 72
     0
 43
0.0208333333333333
 43
0.0
 43
0.0
 43
0.0
 43
0.0
 43
0.0208333333333333
 43
0.0
 43
0.0
 43
0.0
 43
0.0
 43
1.0
 43
0.0
 43
0.0
 43
0.0
 43
0.0
 43
1.0
 77
     0
 47
0.0208333333333333
 47
0.0
 47
0.0
 47
0.0
 47
0.0
 47
0.0208333333333333
 47
0.0
 47
0.0
 47
0.0
 47
0.0
 47
1.0
 47
0.0
 47
0.0
 47
0.0
 47
0.0
 47
1.0
171
     0
 49
0.0208333333333333
 49
0.0
 49
0.0
 49
0.0
 49
0.0
 49
0.0208333333333333
 49
0.0
 49
0.0
 49
0.0
 49
0.0
 49
1.0
 49
0.0
 49
0.0
 49
0.0
 49
0.0
 49
1.0
175
     0
142
0.0208333333333333
142
0.0
142
0.0
142
0.0
142
0.0
142
0.0208333333333333
142
0.0
142
0.0
142
0.0
142
0.0
142
1.0
142
0.0
142
0.0
142
0.0
142
0.0
142
1.0
179
     0
144
0.0208333333333333
144
0.0
144
0.0
144
0.0
144
0.0
144
0.0208333333333333
144
0.0
144
0.0
144
0.0
144
0.0
144
1.0
144
0.0
144
0.0
144
0.0
144
0.0
144
1.0
147
0.0208333333333333
147
0.0
147
0.0
147
0.0
147
0.0
147
0.0208333333333333
147
0.0
147
0.0
147
0.0
147
0.0
147
1.0
147
0.0
147
0.0
147
0.0
147
0.0
147
1.0
  0
MATERIAL
  5
17D8
102
{ACAD_XDICTIONARY
360
17D9
102
}
102
{ACAD_REACTORS
330
17C7
102
}
330
17C7
100
AcDbMaterial
  1
Global
 72
     0
 43
0.0208333333333333
 43
0.0
 43
0.0
 43
0.0
 43
0.0
 43
0.0208333333333333
 43
0.0
 43
0.0
 43
0.0
 43
0.0
 43
1.0
 43
0.0
 43
0.0
 43
0.0
 43
0.0
 43
1.0
 77
     0
 47
0.0208333333333333
 47
0.0
 47
0.0
 47
0.0
 47
0.0
 47
0.0208333333333333
 47
0.0
 47
0.0
 47
0.0
 47
0.0
 47
1.0
 47
0.0
 47
0.0
 47
0.0
 47
0.0
 47
1.0
171
     0
 49
0.0208333333333333
 49
0.0
 49
0.0
 49
0.0
 49
0.0
 49
0.0208333333333333
 49
0.0
 49
0.0
 49
0.0
 49
0.0
 49
1.0
 49
0.0
 49
0.0
 49
0.0
 49
0.0
 49
1.0
175
     0
142
0.0208333333333333
142
0.0
142
0.0
142
0.0
142
0.0
142
0.0208333333333333
142
0.0
142
0.0
142
0.0
142
0.0
142
1.0
142
0.0
142
0.0
142
0.0
142
0.0
142
1.0
179
     0
144
0.0208333333333333
144
0.0
144
0.0
144
0.0
144
0.0
144
0.0208333333333333
144
0.0
144
0.0
144
0.0
144
0.0
144
1.0
144
0.0
144
0.0
144
0.0
144
0.0
144
1.0
147
0.0208333333333333
147
0.0
147
0.0
147
0.0
147
0.0
147
0.0208333333333333
147
0.0
147
0.0
147
0.0
147
0.0
147
1.0
147
0.0
147
0.0
147
0.0
147
0.0
147
1.0
  0
MLEADERSTYLE
  5
181D
102
{ACAD_REACTORS
330
181C
102
}
330
181C
100
AcDbMLeaderStyle
170
     2
171
     1
172
     0
 90
        2
 40
0.0
 41
0.0
173
     1
 91
-1056964608
340
1811
 92
       -2
290
     1
 42
0.09
291
     1
 43
0.36
  3
Standard
 44
0.18
300

342
180C
174
     1
178
     6
175
     1
176
     0
 93
-1056964608
 45
0.18
292
     0
297
     0
 46
0.18
 94
-1056964608
 47
1.0
 49
1.0
140
1.0
293
     1
141
0.0
294
     1
177
     0
142
1.0
295
     0
296
     0
143
0.125
1001
ACAD_MLEADERVER
1070
     2
  0
MLINESTYLE
  5
1816
102
{ACAD_REACTORS
330
1815
102
}
330
1815
100
AcDbMlineStyle
  2
STANDARD
 70
     0
  3

 62
   256
 51
90.0
 52
90.0
 71
     2
 49
0.5
 62
   256
  6
BYLAYER
 49
-0.5
 62
   256
  6
BYLAYER
  0
ACDBPLACEHOLDER
  5
17C6
102
{ACAD_REACTORS
330
17C5
102
}
330
17C5
  0
SCALE
  5
17FA
102
{ACAD_REACTORS
330
17F9
102
}
330
17F9
100
AcDbScale
 70
     0
300
1:1
140
1.0
141
1.0
290
     1
  0
SCALE
  5
17FB
102
{ACAD_REACTORS
330
17F9
102
}
330
17F9
100
AcDbScale
 70
     0
300
1/128" = 1'-0"
140
0.0078125
141
12.0
290
     0
  0
SCALE
  5
17FC
102
{ACAD_REACTORS
330
17F9
102
}
330
17F9
100
AcDbScale
 70
     0
300
1/64" = 1'-0"
140
0.015625
141
12.0
290
     0
  0
SCALE
  5
17FD
102
{ACAD_REACTORS
330
17F9
102
}
330
17F9
100
AcDbScale
 70
     0
300
1/32" = 1'-0"
140
0.03125
141
12.0
290
     0
  0
SCALE
  5
17FE
102
{ACAD_REACTORS
330
17F9
102
}
330
17F9
100
AcDbScale
 70
     0
300
1/16" = 1'-0"
140
0.0625
141
12.0
290
     0
  0
SCALE
  5
17FF
102
{ACAD_REACTORS
330
17F9
102
}
330
17F9
100
AcDbScale
 70
     0
300
3/32" = 1'-0"
140
0.09375
141
12.0
290
     0
  0
SCALE
  5
1800
102
{ACAD_REACTORS
330
17F9
102
}
330
17F9
100
AcDbScale
 70
     0
300
1/8" = 1'-0"
140
0.125
141
12.0
290
     0
  0
SCALE
  5
1801
102
{ACAD_REACTORS
330
17F9
102
}
330
17F9
100
AcDbScale
 70
     0
300
3/16" = 1'-0"
140
0.1875
141
12.0
290
     0
  0
SCALE
  5
1802
102
{ACAD_REACTORS
330
17F9
102
}
330
17F9
100
AcDbScale
 70
     0
300
1/4" = 1'-0"
140
0.25
141
12.0
290
     0
  0
SCALE
  5
1803
102
{ACAD_REACTORS
330
17F9
102
}
330
17F9
100
AcDbScale
 70
     0
300
3/8" = 1'-0"
140
0.375
141
12.0
290
     0
  0
SCALE
  5
1804
102
{ACAD_REACTORS
330
17F9
102
}
330
17F9
100
AcDbScale
 70
     0
300
1/2" = 1'-0"
140
0.5
141
12.0
290
     0
  0
SCALE
  5
1805
102
{ACAD_REACTORS
330
17F9
102
}
330
17F9
100
AcDbScale
 70
     0
300
3/4" = 1'-0"
140
0.75
141
12.0
290
     0
  0
SCALE
  5
1806
102
{ACAD_REACTORS
330
17F9
102
}
330
17F9
100
AcDbScale
 70
     0
300
1" = 1'-0"
140
1.0
141
12.0
290
     0
  0
SCALE
  5
1807
102
{ACAD_REACTORS
330
17F9
102
}
330
17F9
100
AcDbScale
 70
     0
300
1-1/2" = 1'-0"
140
1.5
141
12.0
290
     0
  0
SCALE
  5
1808
102
{ACAD_REACTORS
330
17F9
102
}
330
17F9
100
AcDbScale
 70
     0
300
3" = 1'-0"
140
3.0
141
12.0
290
     0
  0
SCALE
  5
1809
102
{ACAD_REACTORS
330
17F9
102
}
330
17F9
100
AcDbScale
 70
     0
300
6" = 1'-0"
140
6.0
141
12.0
290
     0
  0
SCALE
  5
180A
102
{ACAD_REACTORS
330
17F9
102
}
330
17F9
100
AcDbScale
 70
     0
300
1'-0" = 1'-0"
140
12.0
141
12.0
290
     0
  0
ACDBSECTIONVIEWSTYLE
  5
1916
102
{ACAD_XDICTIONARY
360
1917
102
}
102
{ACAD_REACTORS
330
18E7
330
181E
102
}
330
181E
100
AcDbModelDocViewStyle
 70
     0
  3

290
     0
100
AcDbSectionViewStyle
 70
     0
 71
     0
 90
       78
 71
     1
340
180C
 40
0.24
340
0
340
0
 40
0.24
300
I,O,Q,S,X,Z
 40
0.4
 90
        3
 40
0.12
 90
        1
 71
     2
340
18B7
 90
       30
340
18B7
 90
       30
 40
0.4
 40
0.0
 40
0.4
 71
     3
340
180C
 40
0.24
 90
        0
 40
0.18
 90
        1
300
%<\AcVar ViewType \f "%tc1">% %<\AcVar ViewSectionStartId>%-%<\AcVar ViewSectionEndId>%
 71
     4
300
ANSI31
 40
1.0
 90
        0
290
     0
290
     0
 90
        6
 40
0.0
 40
1.570796326794896
 40
0.2617993877991494
 40
1.308996938995747
 40
-0.2617993877991494
 40
1.832595714594046
  0
ACDBSECTIONVIEWSTYLE
  5
181F
102
{ACAD_XDICTIONARY
360
2337
102
}
102
{ACAD_REACTORS
330
181E
330
190A
102
}
330
181E
100
AcDbModelDocViewStyle
 70
     0
  3
Imperial24
290
     0
100
AcDbSectionViewStyle
 70
     0
 71
     0
 90
       78
 71
     1
340
180C
 40
0.24
340
0
340
0
 40
0.24
300
I, O, Q, S, X, Z
 40
0.48
 90
        3
 40
0.18
 90
        1
 71
     2
340
1813
 90
       25
340
1813
 90
       50
 40
0.24
 40
0.0
 40
0.24
 71
     3
340
180C
 40
0.24
 90
        1
 40
0.75
 90
        1
300
%<\AcVar ViewType \f "%tc1">% %<\AcVar ViewSectionStartId>%-%<\AcVar ViewSectionEndId>%\PSCALE %<\AcVar ViewScale \f "%sn">%
 71
     4
300
ANSI31
 40
1.0
 90
        0
290
     0
290
     0
 90
        6
 40
0.0
 40
1.570796326794896
 40
0.2617993877991494
 40
1.308996938995747
 40
-0.2617993877991494
 40
1.832595714594046
  0
TABLESTYLE
  5
181B
102
{ACAD_XDICTIONARY
360
14258
102
}
102
{ACAD_REACTORS
330
181A
102
}
330
181A
100
AcDbTableStyle
  3
Standard
 70
     0
 71
     0
 40
0.06
 41
0.06
280
     0
281
     0
  7
STANDARD
140
0.18
170
     2
 62
     0
 63
     7
283
     0
274
    -2
284
     1
 64
     0
275
    -2
285
     1
 65
     0
276
    -2
286
     1
 66
     0
277
    -2
287
     1
 67
     0
278
    -2
288
     1
 68
     0
279
    -2
289
     1
 69
     0
  7
STANDARD
140
0.25
170
     5
 62
     0
 63
     7
283
     0
274
    -2
284
     1
 64
     0
275
    -2
285
     1
 65
     0
276
    -2
286
     1
 66
     0
277
    -2
287
     1
 67
     0
278
    -2
288
     1
 68
     0
279
    -2
289
     1
 69
     0
  7
STANDARD
140
0.18
170
     5
 62
     0
 63
     7
283
     0
274
    -2
284
     1
 64
     0
275
    -2
285
     1
 65
     0
276
    -2
286
     1
 66
     0
277
    -2
287
     1
 67
     0
278
    -2
288
     1
 68
     0
279
    -2
289
     1
 69
     0
  0
VISUALSTYLE
  5
17E6
102
{ACAD_XDICTIONARY
360
14271
102
}
102
{ACAD_REACTORS
330
17E0
102
}
330
17E0
100
AcDbVisualStyle
  2
2dWireframe
 70
     4
 71
     0
 72
     2
 73
     0
 90
        0
 40
-0.6
 41
-30.0
 62
     5
 63
     7
 74
     1
 91
        4
 64
     7
 65
   257
 75
     1
175
     1
 42
1.0
 92
        0
 66
   257
 43
1.0
 76
     1
 77
     6
 78
     2
 67
     7
 79
     5
170
     0
171
     0
290
     0
174
     0
 93
        1
 44
0.0
173
     0
291
     0
 45
0.0
1001
ACAD
1000
AcDbSavedByObjectVersion
1070
     0
  0
VISUALSTYLE
  5
17E5
102
{ACAD_XDICTIONARY
360
1426F
102
}
102
{ACAD_REACTORS
330
17E0
102
}
330
17E0
100
AcDbVisualStyle
  2
Basic
 70
     7
 71
     1
 72
     0
 73
     1
 90
        0
 40
-0.6
 41
-30.0
 62
     5
 63
     7
 74
     0
 91
        4
 64
     7
 65
   257
 75
     1
175
     1
 42
1.0
 92
        8
 66
     7
 43
1.0
 76
     1
 77
     6
 78
     2
 67
     7
 79
     5
170
     0
171
     0
290
     0
174
     0
 93
        1
 44
0.0
173
     0
291
     1
 45
0.0
1001
ACAD
1000
AcDbSavedByObjectVersion
1070
     0
  0
VISUALSTYLE
  5
17EC
102
{ACAD_XDICTIONARY
360
1427D
102
}
102
{ACAD_REACTORS
330
17E0
102
}
330
17E0
100
AcDbVisualStyle
  2
Brighten
 70
    12
 71
     2
 72
     2
 73
     0
 90
        0
 40
-0.6
 41
-30.0
 62
     5
 63
     7
 74
     1
 91
        4
 64
     7
 65
   257
 75
     1
175
     1
 42
1.0
 92
        8
 66
     7
 43
1.0
 76
     1
 77
     6
 78
     2
 67
     7
 79
     5
170
     0
171
     0
290
     0
174
     0
 93
        1
 44
50.0
173
     0
291
     1
 45
0.0
1001
ACAD
1000
AcDbSavedByObjectVersion
1070
     0
  0
VISUALSTYLE
  5
17F0
102
{ACAD_XDICTIONARY
360
14285
102
}
102
{ACAD_REACTORS
330
17E0
102
}
330
17E0
100
AcDbVisualStyle
  2
ColorChange
 70
    16
 71
     2
 72
     2
 73
     3
 90
        0
 40
-0.6
 41
-30.0
 62
     5
 63
     8
 74
     1
 91
        4
 64
     7
 65
   257
 75
     1
175
     1
 42
1.0
 92
        8
 66
     8
 43
1.0
 76
     1
 77
     6
 78
     2
 67
     7
 79
     5
170
     0
171
     0
290
     0
174
     0
 93
        1
 44
0.0
173
     0
291
     1
 45
0.0
1001
ACAD
1000
AcDbSavedByObjectVersion
1070
     0
  0
VISUALSTYLE
  5
17E9
102
{ACAD_XDICTIONARY
360
14277
102
}
102
{ACAD_REACTORS
330
17E0
102
}
330
17E0
100
AcDbVisualStyle
  2
Conceptual
 70
     9
 71
     3
 72
     2
 73
     0
 90
        0
 40
-0.6
 41
-30.0
 62
     5
 63
     7
 74
     2
 91
        2
 64
     7
 65
   257
 75
     1
175
     1
 42
179.0
 92
        8
 66
     7
 43
1.0
 76
     1
 77
     6
 78
     2
 67
     7
 79
     3
170
     0
171
     0
290
     0
174
     0
 93
        1
 44
0.0
173
     0
291
     0
 45
0.0
1001
ACAD
1000
AcDbSavedByObjectVersion
1070
     0
  0
VISUALSTYLE
  5
17EB
102
{ACAD_XDICTIONARY
360
1427B
102
}
102
{ACAD_REACTORS
330
17E0
102
}
330
17E0
100
AcDbVisualStyle
  2
Dim
 70
    11
 71
     2
 72
     2
 73
     0
 90
        0
 40
-0.6
 41
-30.0
 62
     5
 63
     7
 74
     1
 91
        4
 64
     7
 65
   257
 75
     1
175
     1
 42
1.0
 92
        8
 66
     7
 43
1.0
 76
     1
 77
     6
 78
     2
 67
     7
 79
     5
170
     0
171
     0
290
     0
174
     0
 93
        1
 44
-50.0
173
     0
291
     1
 45
0.0
1001
ACAD
1000
AcDbSavedByObjectVersion
1070
     0
  0
VISUALSTYLE
  5
17F8
102
{ACAD_XDICTIONARY
360
14295
102
}
102
{ACAD_REACTORS
330
17E0
102
}
330
17E0
100
AcDbVisualStyle
  2
EdgeColorOff
 70
    22
 71
     2
 72
     2
 73
     0
 90
        0
 40
-0.6
 41
-30.0
 62
     5
 63
     7
 74
     1
 91
        4
 64
     7
 65
   257
 75
     1
175
     1
 42
1.0
 92
        8
 66
     7
 43
1.0
 76
     1
 77
     6
 78
     2
 67
     7
 79
     5
170
     0
171
     0
290
     0
174
     0
 93
        1
 44
0.0
173
     0
291
     1
 45
0.0
1001
ACAD
1000
AcDbSavedByObjectVersion
1070
     0
  0
VISUALSTYLE
  5
17EF
102
{ACAD_XDICTIONARY
360
14283
102
}
102
{ACAD_REACTORS
330
17E0
102
}
330
17E0
100
AcDbVisualStyle
  2
Facepattern
 70
    15
 71
     2
 72
     2
 73
     0
 90
        0
 40
-0.6
 41
-30.0
 62
     5
 63
     7
 74
     1
 91
        4
 64
     7
 65
   257
 75
     1
175
     1
 42
1.0
 92
        8
 66
     7
 43
1.0
 76
     1
 77
     6
 78
     2
 67
     7
 79
     5
170
     0
171
     0
290
     0
174
     0
 93
        1
 44
0.0
173
     0
291
     1
 45
0.0
1001
ACAD
1000
AcDbSavedByObjectVersion
1070
     0
  0
VISUALSTYLE
  5
17E1
102
{ACAD_XDICTIONARY
360
14267
102
}
102
{ACAD_REACTORS
330
17E0
102
}
330
17E0
100
AcDbVisualStyle
  2
Flat
 70
     0
 71
     2
 72
     1
 73
     1
 90
        2
 40
-0.6
 41
30.0
 62
     5
 63
     7
 74
     0
 91
        0
 64
     7
 65
   257
 75
     1
175
     1
 42
1.0
 92
        8
 66
     7
 43
1.0
 76
     1
 77
     6
 78
     2
 67
     7
 79
     5
170
     0
171
     0
290
     0
174
     0
 93
       13
 44
0.0
173
     0
291
     1
 45
0.0
1001
ACAD
1000
AcDbSavedByObjectVersion
1070
     0
  0
VISUALSTYLE
  5
17E2
102
{ACAD_XDICTIONARY
360
14269
102
}
102
{ACAD_REACTORS
330
17E0
102
}
330
17E0
100
AcDbVisualStyle
  2
FlatWithEdges
 70
     1
 71
     2
 72
     1
 73
     1
 90
        2
 40
-0.6
 41
30.0
 62
     5
 63
     7
 74
     1
 91
        0
 64
     7
 65
   257
 75
     1
175
     1
 42
1.0
 92
        0
 66
   257
 43
1.0
 76
     1
 77
     6
 78
     2
 67
     7
 79
     5
170
     0
171
     0
290
     0
174
     0
 93
       13
 44
0.0
173
     0
291
     1
 45
0.0
1001
ACAD
1000
AcDbSavedByObjectVersion
1070
     0
  0
VISUALSTYLE
  5
17E3
102
{ACAD_XDICTIONARY
360
1426B
102
}
102
{ACAD_REACTORS
330
17E0
102
}
330
17E0
100
AcDbVisualStyle
  2
Gouraud
 70
     2
 71
     2
 72
     2
 73
     1
 90
        2
 40
-0.6
 41
30.0
 62
     5
 63
     7
 74
     0
 91
        0
 64
     7
 65
   257
 75
     1
175
     1
 42
1.0
 92
        0
 66
     7
 43
1.0
 76
     1
 77
     6
 78
     2
 67
     7
 79
     5
170
     0
171
     0
290
     0
174
     0
 93
       13
 44
0.0
173
     0
291
     1
 45
0.0
1001
ACAD
1000
AcDbSavedByObjectVersion
1070
     0
  0
VISUALSTYLE
  5
17E4
102
{ACAD_XDICTIONARY
360
1426D
102
}
102
{ACAD_REACTORS
330
17E0
102
}
330
17E0
100
AcDbVisualStyle
  2
GouraudWithEdges
 70
     3
 71
     2
 72
     2
 73
     1
 90
        2
 40
-0.6
 41
30.0
 62
     5
 63
     7
 74
     1
 91
        0
 64
     7
 65
   257
 75
     1
175
     1
 42
1.0
 92
        0
 66
   257
 43
1.0
 76
     1
 77
     6
 78
     2
 67
     7
 79
     5
170
     0
171
     0
290
     0
174
     0
 93
       13
 44
0.0
173
     0
291
     1
 45
0.0
1001
ACAD
1000
AcDbSavedByObjectVersion
1070
     0
  0
VISUALSTYLE
  5
17E8
102
{ACAD_XDICTIONARY
360
14275
102
}
102
{ACAD_REACTORS
330
17E0
102
}
330
17E0
100
AcDbVisualStyle
  2
Hidden
 70
     6
 71
     1
 72
     2
 73
     2
 90
        0
 40
-0.6
 41
-30.0
 62
     5
 63
     7
 74
     2
 91
        2
 64
     7
 65
   257
 75
     2
175
     1
 42
40.0
 92
        0
 66
   257
 43
1.0
 76
     1
 77
     6
 78
     2
 67
     7
 79
     3
170
     0
171
     0
290
     0
174
     0
 93
        1
 44
0.0
173
     0
291
     0
 45
0.0
1001
ACAD
1000
AcDbSavedByObjectVersion
1070
     0
  0
VISUALSTYLE
  5
17F6
102
{ACAD_XDICTIONARY
360
14291
102
}
102
{ACAD_REACTORS
330
17E0
102
}
330
17E0
100
AcDbVisualStyle
  2
JitterOff
 70
    20
 71
     2
 72
     2
 73
     0
 90
        0
 40
-0.6
 41
-30.0
 62
     5
 63
     7
 74
     1
 91
        4
 64
     7
 65
   257
 75
     1
175
     1
 42
1.0
 92
       10
 66
     7
 43
1.0
 76
     1
 77
     6
 78
     2
 67
     7
 79
     5
170
     0
171
     0
290
     0
174
     0
 93
        1
 44
0.0
173
     0
291
     1
 45
0.0
1001
ACAD
1000
AcDbSavedByObjectVersion
1070
     0
  0
VISUALSTYLE
  5
17EE
102
{ACAD_XDICTIONARY
360
14281
102
}
102
{ACAD_REACTORS
330
17E0
102
}
330
17E0
100
AcDbVisualStyle
  2
Linepattern
 70
    14
 71
     2
 72
     2
 73
     0
 90
        0
 40
-0.6
 41
-30.0
 62
     5
 63
     7
 74
     1
 91
        4
 64
     7
 65
   257
 75
     7
175
     7
 42
1.0
 92
        8
 66
     7
 43
1.0
 76
     1
 77
     6
 78
     2
 67
     7
 79
     5
170
     0
171
     0
290
     0
174
     0
 93
        1
 44
0.0
173
     0
291
     1
 45
0.0
1001
ACAD
1000
AcDbSavedByObjectVersion
1070
     0
  0
VISUALSTYLE
  5
17F7
102
{ACAD_XDICTIONARY
360
14293
102
}
102
{ACAD_REACTORS
330
17E0
102
}
330
17E0
100
AcDbVisualStyle
  2
OverhangOff
 70
    21
 71
     2
 72
     2
 73
     0
 90
        0
 40
-0.6
 41
-30.0
 62
     5
 63
     7
 74
     1
 91
        4
 64
     7
 65
   257
 75
     1
175
     1
 42
1.0
 92
        9
 66
     7
 43
1.0
 76
     1
 77
     6
 78
     2
 67
     7
 79
     5
170
     0
171
     0
290
     0
174
     0
 93
        1
 44
0.0
173
     0
291
     1
 45
0.0
1001
ACAD
1000
AcDbSavedByObjectVersion
1070
     0
  0
VISUALSTYLE
  5
17EA
102
{ACAD_XDICTIONARY
360
14279
102
}
102
{ACAD_REACTORS
330
17E0
102
}
330
17E0
100
AcDbVisualStyle
  2
Realistic
 70
     8
 71
     2
 72
     3
 73
     0
 90
        2
 40
-0.6
 41
30.0
 62
     5
 63
     7
 74
     0
 91
        0
 64
     7
 65
   257
 75
     1
175
     1
 42
1.0
 92
        8
 66
   257
 43
1.0
 76
     1
 77
     6
 78
     2
 67
     7
 79
     3
170
     0
171
     0
290
     0
174
     0
 93
       13
 44
0.0
173
     0
291
     0
 45
0.0
1001
ACAD
1000
AcDbSavedByObjectVersion
1070
     0
  0
VISUALSTYLE
  5
17F5
102
{ACAD_XDICTIONARY
360
1428F
102
}
102
{ACAD_REACTORS
330
17E0
102
}
330
17E0
100
AcDbVisualStyle
  2
Shaded
 70
    27
 71
     2
 72
     2
 73
     1
 90
        2
 40
-0.6
 41
30.0
 62
     5
 63
     7
 74
     0
 91
        4
 64
     7
 65
   257
 75
     1
175
     1
 42
1.0
 92
        8
 66
   257
 43
1.0
 76
     1
 77
     6
 78
     2
 67
     8
 79
     3
170
     0
171
     0
290
     0
174
     0
 93
        5
 44
0.0
173
     0
291
     0
 45
0.0
1001
ACAD
1000
AcDbSavedByObjectVersion
1070
     0
  0
VISUALSTYLE
  5
17F4
102
{ACAD_XDICTIONARY
360
1428D
102
}
102
{ACAD_REACTORS
330
17E0
102
}
330
17E0
100
AcDbVisualStyle
  2
Shaded with edges
 70
    26
 71
     2
 72
     2
 73
     1
 90
        2
 40
-0.6
 41
30.0
 62
     5
 63
     7
 74
     1
 91
       10
 64
     7
 65
   257
 75
     2
175
     1
 42
1.0
 92
        8
 66
   257
 43
1.0
 76
     1
 77
     6
 78
     2
 67
     7
 79
     3
170
     0
171
     0
290
     0
174
     0
 93
        5
 44
0.0
173
     0
291
     0
 45
0.0
1001
ACAD
1000
AcDbSavedByObjectVersion
1070
     0
  0
VISUALSTYLE
  5
17F1
102
{ACAD_XDICTIONARY
360
14287
102
}
102
{ACAD_REACTORS
330
17E0
102
}
330
17E0
100
AcDbVisualStyle
  2
Shades of Gray
 70
    23
 71
     2
 72
     2
 73
     3
 90
        0
 40
-0.6
 41
-30.0
 62
     5
 63
     7
 74
     2
 91
        2
 64
     7
 65
     7
 75
     1
175
     1
 42
40.0
 92
        8
 66
     7
 43
1.0
 76
     1
 77
     6
 78
     2
 67
     7
 79
     3
170
     0
171
     0
290
     0
174
     0
 93
        1
 44
0.0
173
     0
291
     0
 45
0.0
1001
ACAD
1000
AcDbSavedByObjectVersion
1070
     0
  0
VISUALSTYLE
  5
17F2
102
{ACAD_XDICTIONARY
360
14289
102
}
102
{ACAD_REACTORS
330
17E0
102
}
330
17E0
100
AcDbVisualStyle
  2
Sketchy
 70
    24
 71
     1
 72
     2
 73
     2
 90
        0
 40
-0.6
 41
-30.0
 62
     5
 63
     7
 74
     2
 91
        2
 64
     7
 65
     7
 75
     1
175
     1
 42
40.0
 92
       11
 66
     7
 43
1.0
 76
     1
 77
     6
 78
     2
 67
     7
 79
     6
170
     0
171
     0
290
     0
174
     0
 93
        1
 44
0.0
173
     0
291
     0
 45
0.0
1001
ACAD
1000
AcDbSavedByObjectVersion
1070
     0
  0
VISUALSTYLE
  5
17ED
102
{ACAD_XDICTIONARY
360
1427F
102
}
102
{ACAD_REACTORS
330
17E0
102
}
330
17E0
100
AcDbVisualStyle
  2
Thicken
 70
    13
 71
     2
 72
     2
 73
     0
 90
        0
 40
-0.6
 41
-30.0
 62
     5
 63
     7
 74
     1
 91
        4
 64
     7
 65
   257
 75
     1
175
     1
 42
1.0
 92
       12
 66
     7
 43
1.0
 76
     1
 77
     6
 78
     2
 67
     7
 79
     5
170
     0
171
     0
290
     0
174
     0
 93
        1
 44
0.0
173
     0
291
     1
 45
0.0
1001
ACAD
1000
AcDbSavedByObjectVersion
1070
     0
  0
VISUALSTYLE
  5
17E7
102
{ACAD_XDICTIONARY
360
14273
102
}
102
{ACAD_REACTORS
330
17E0
102
}
330
17E0
100
AcDbVisualStyle
  2
Wireframe
 70
     5
 71
     0
 72
     2
 73
     0
 90
        0
 40
-0.6
 41
-30.0
 62
     5
 63
     7
 74
     1
 91
        4
 64
     7
 65
   257
 75
     1
175
     1
 42
1.0
 92
        0
 66
   257
 43
1.0
 76
     1
 77
     6
 78
     2
 67
     7
 79
     3
170
     0
171
     0
290
     0
174
     0
 93
        1
 44
0.0
173
     0
291
     0
 45
0.0
1001
ACAD
1000
AcDbSavedByObjectVersion
1070
     0
  0
VISUALSTYLE
  5
17F3
102
{ACAD_XDICTIONARY
360
1428B
102
}
102
{ACAD_REACTORS
330
17E0
102
}
330
17E0
100
AcDbVisualStyle
  2
X-Ray
 70
    25
 71
     2
 72
     2
 73
     1
 90
        1
 40
0.5
 41
-30.0
 62
     5
 63
     7
 74
     1
 91
        0
 64
     7
 65
   257
 75
     1
175
     1
 42
1.0
 92
        8
 66
     7
 43
1.0
 76
     1
 77
     6
 78
     2
 67
     7
 79
     3
170
     0
171
     0
290
     0
174
     0
 93
       13
 44
0.0
173
     0
291
     0
 45
0.0
1001
ACAD
1000
AcDbSavedByObjectVersion
1070
     0
  0
DICTIONARYVAR
  5
2345
102
{ACAD_REACTORS
330
233F
102
}
330
233F
100
DictionaryVariables
280
     0
  1
1:1
  0
DICTIONARYVAR
  5
2341
102
{ACAD_REACTORS
330
233F
102
}
330
233F
100
DictionaryVariables
280
     0
  1
STANDARD
  0
DICTIONARYVAR
  5
2340
102
{ACAD_REACTORS
330
233F
102
}
330
233F
100
DictionaryVariables
280
     0
  1
STANDARD
  0
DICTIONARYVAR
  5
2342
102
{ACAD_REACTORS
330
233F
102
}
330
233F
100
DictionaryVariables
280
     0
  1
ASME Y14.35 - 1987
  0
DICTIONARYVAR
  5
2343
102
{ACAD_REACTORS
330
233F
102
}
330
233F
100
DictionaryVariables
280
     0
  1
ASME Y14.3 - 2003
  0
DICTIONARYVAR
  5
14256
102
{ACAD_REACTORS
330
233F
102
}
330
233F
100
DictionaryVariables
280
     0
  1
1
  0
DICTIONARYVAR
  5
14255
102
{ACAD_REACTORS
330
233F
102
}
330
233F
100
DictionaryVariables
280
     0
  1
0
  0
DICTIONARYVAR
  5
2347
102
{ACAD_REACTORS
330
233F
102
}
330
233F
100
DictionaryVariables
280
     0
  1
1
  0
DICTIONARYVAR
  5
2348
102
{ACAD_REACTORS
330
233F
102
}
330
233F
100
DictionaryVariables
280
     0
  1
15
  0
DICTIONARYVAR
  5
2346
102
{ACAD_REACTORS
330
233F
102
}
330
233F
100
DictionaryVariables
280
     0
  1
0
  0
DICTIONARYVAR
  5
2344
102
{ACAD_REACTORS
330
233F
102
}
330
233F
100
DictionaryVariables
280
     0
  1
0
  0
DICTIONARYVAR
  5
14254
102
{ACAD_REACTORS
330
233F
102
}
330
233F
100
DictionaryVariables
280
     0
  1
127
  0
DICTIONARYVAR
  5
14257
102
{ACAD_REACTORS
330
233F
102
}
330
233F
100
DictionaryVariables
280
     0
  1
2
  0
DICTIONARY
  5
14263
102
{ACAD_REACTORS
330
14261
102
}
330
14261
100
AcDbDictionary
281
     1
  0
DICTIONARY
  5
14262
102
{ACAD_REACTORS
330
14261
102
}
330
14261
100
AcDbDictionary
281
     1
  3
140694863330880
350
1425C
  3
140694863330896
350
1425D
  3
140694863330912
350
1425E
  3
140694863330928
350
1425F
  3
140694863330944
350
14260
  0
ACAD_PROXY_OBJECT
  5
18D6
102
{ACAD_REACTORS
330
18D5
102
}
330
18D5
100
AcDbProxyObject
 90
      499
 91
      532
 95
  6946847
 70
     0
 93
       85
310
90100057356C1DCE406AA4
 94
        0
1001
ACAD
1000
AcRTDxfName
1000
ACMDATADICTIONARY
  0
DICTIONARY
  5
18DE
102
{ACAD_REACTORS
330
18D5
102
}
330
18D5
100
AcDbDictionary
281
     1
  3
ANSI
350
18DF
  0
ACAD_PROXY_OBJECT
  5
18B4
330
0
100
AcDbProxyObject
 90
      499
 91
      513
 95
  6946847
 70
     0
 93
      285
310
0001014210E410043004D004500530059004D0042004F004C00530049005A004500EA00C
330
18B1
 94
        0
1001
ACAD
1000
AcRTDxfName
1000
ACIMINTSYSVAR
  0
ACAD_PROXY_OBJECT
  5
18C3
330
0
100
AcDbProxyObject
 90
      499
 91
      524
 95
  6946847
 70
     0
 93
      261
310
00010101421040134010C01540148014C01500110010441004E0053004900D400C
330
18B1
 94
        0
1001
ACAD
1000
AcRTDxfName
1000
ACIMSTRSYSVAR
  0
ACAD_PROXY_OBJECT
  5
18C6
330
0
100
AcDbProxyObject
 90
      499
 91
      524
 95
  6946847
 70
     0
 93
      325
310
00010101431040104010C013C01340140011001180138010401340114010443004F004D0050001401C
330
18B1
 94
        0
1001
ACAD
1000
AcRTDxfName
1000
ACIMSTRSYSVAR
  0
ACAD_PROXY_OBJECT
  5
18C7
330
0
100
AcDbProxyObject
 90
      499
 91
      524
 95
  6946847
 70
     0
 93
      389
310
000101014390401040118013C0130011001140148011001180138010401340114010646006F006C006400650072005401C
330
18B1
 94
        0
1001
ACAD
1000
AcRTDxfName
1000
ACIMSTRSYSVAR
  0
ACAD_PROXY_OBJECT
  5
18C8
330
0
100
AcDbProxyObject
 90
      499
 91
      524
 95
  6946847
 70
     0
 93
      309
310
00010101431040104010401380138013C01100118013801040134011401035F00410056000401C
330
18B1
 94
        0
1001
ACAD
1000
AcRTDxfName
1000
ACIMSTRSYSVAR
  0
ACAD_PROXY_OBJECT
  5
18C9
330
0
100
AcDbProxyObject
 90
      499
 91
      524
 95
  6946847
 70
     0
 93
      805
310
00010101439040104010C013C01340140015801240114015C01300124014C0150012054006F0070000A00460072006F006E0074000A00520069006700680074000A004C006500660074000A0042006F00740074006F006D000A004100750078003100F402C
330
18B1
 94
        0
1001
ACAD
1000
AcRTDxfName
1000
ACIMSTRSYSVAR
  0
ACAD_PROXY_OBJECT
  5
18CA
330
0
100
AcDbProxyObject
 90
      499
 91
      513
 95
  6946847
 70
     0
 93
      277
310
00010190E41004D00530053005400520041004C0057004100590053004F004E00EA00C
330
18B1
 94
        0
1001
ACAD
1000
AcRTDxfName
1000
ACIMINTSYSVAR
  0
ACAD_PROXY_OBJECT
  5
18CF
330
0
100
AcDbProxyObject
 90
      499
 91
      527
 95
  6946847
 70
     0
 93
       33
310
000100004C
330
18B1
340
18CC
330
18D0
330
18CC
 94
        0
1001
ACAD
1000
AcRTDxfName
1000
ACAMGRCOMPDEF
  0
ACAD_PROXY_OBJECT
  5
18D0
330
0
100
AcDbProxyObject
 90
      499
 91
      528
 95
  6946847
 70
     0
 93
      155
310
0001014140155005540040D500148012C00E802C
330
18B1
330
18CF
330
0
 94
        0
1001
ACAD
1000
AcRTDxfName
1000
ACAMCOMPDEF
  0
ACAD_PROXY_OBJECT
  5
18D1
330
0
100
AcDbProxyObject
 90
      499
 91
      529
 95
  6946847
 70
     0
 93
      179
310
000100AAAAAABA5428116B57C211AEC7C7687A8BE11C0C
330
18B1
330
18D0
 94
        0
1001
ACAD
1000
AcRTDxfName
1000
ACAMCOMPDEFMGR
  0
ACAD_PROXY_OBJECT
  5
18D2
330
0
100
AcDbProxyObject
 90
      499
 91
      530
 95
  6946847
 70
     0
 93
      109
310
0001901422000000000000AAAAA4
330
18B1
330
18D3
330
18D3
330
18D3
330
18D3
330
18D3
330
0
 94
        0
1001
ACAD
1000
AcRTDxfName
1000
AMCONTEXTMGR
  0
ACAD_PROXY_OBJECT
  5
18D3
330
0
100
AcDbProxyObject
 90
      499
 91
      531
 95
  6946847
 70
     0
 93
       52
310
00010000AAAA8C
330
18B1
330
18D2
330
18D0
 94
        0
1001
ACAD
1000
AcRTDxfName
1000
ACAMCONTEXTMODELER
  0
DICTIONARY
  5
18AB
102
{ACAD_REACTORS
330
18AA
102
}
330
18AA
100
AcDbDictionary
281
     1
  3
DWGSETTINGS
350
18AC
  3
TRANSSETTINGS
350
18AD
  0
ACAD_PROXY_OBJECT
  5
18F2
102
{ACAD_REACTORS
330
18AA
102
}
330
18AA
100
AcDbProxyObject
 90
      499
 91
      555
 95
  6946847
 70
     0
 93
    24905
310
4250349201C00030C011E44203800030C011E44201400030C011E44201800030C010FA00C00030C010FA00C00030C010FA00800030C011EA01000030C010FA00400030C010FA3F400030C0241201C00030C011EA00C00030C010FA01C00030C011E40A01C00030C011EA03800030C011EA01400030C011EA01800030C010FA
310
00C00030C010FA00C00030C010FA00800030C011EA01000030C010FA00400030C010FA3F400030C0241201C00030C011EA00C00030C010FA01C00030C011E40A00400030C010F42601000030C010F42E01C00030C011E42600400030C010F42E3F400030C0243600C00030C010F42601C00030C010F42601C00030C011E426
310
00C00030C010F42601000030C010F425548000000C0003FFFFFFFE8000000C0003FFFFFFFE8010000C30043E8020000C30047A8000000C0003FFFFFFFE8000000C0003FFFFFFFE8020000C30047A8070000C30047A81E0000C3004F28000000C0003FFFFFFFE8000000C0003FFFFFFFE8000000C0003FFFFFFFE8000000C00
310
03FFFFFFFD038000000C0003FFFFFFFD038000000C0003FFFFFFFD038000000C0003FFFFFFFD038030000C30043E8000000C0003FFFFFFFE8000000C0003FFFFFFFE8000000C0003FFFFFFFE8000000C0003FFFFFFFE8000000C0003FFFFFFFE8030000C3003FFFFFFFE8000000C0003FFFFFFFE8030000C30043E8000000C
310
0003FFFFFFFE8030000C30043E8000000C0003FFFFFFFD018000000C0003FFFFFFFD038000000C0003FFFFFFFD038000000C0003FFFFFFFD018000000C0003FFFFFFFE8000000C0003FFFFFFFE8000000C0003FFFFFFFE8000000C0003FFFFFFFE8000000C0003FFFFFFFE8000000C0003FFFFFFFD038000000C0003FFFFFF
310
FD038000000C0003FFFFFFFD038000000C0003FFFFFFFD038000000C0003FFFFFFFE8000000C0003FFFFFFFE8000000C0003FFFFFFFE8000000C0003FFFFFFFD018000000C0003FFFFFFFD038000000C0003FFFFFFFD038000000C0003FFFFFFFE8000000C0003FFFFFFFE8000000C0003FFFFFFFE8000000C0003FFFFFFFD
310
038000000C0003FFFFFFFD018000000C0003FFFFFFFD038000000C0003FFFFFFFE8000000C0003FFFFFFFE8010000C3003FFFFFFFE8020000C3003FFFFFFFE8070000C3003FFFFFFFE8000000C0003FFFFFFFE8000000C0003FFFFFFFE8000000C0003FFFFFFFE8000000C0003FFFFFFFE8070000C300479018000000C0003
310
FFFFFFFD018020000C30047A8020000C3003FFFFFFFE8000000C0003FFFFFFFD038000000C0003FFFFFFFD018010000C30043E8020000C30047A8000000C0003FFFFFFFE8000000C0003FFFFFFFD038000000C0003FFFFFFFE8000000C0003FFFFFFFD018030000C30043E8030000C30043E8000000C0003FFFFFFFE807000
310
0C30047A81E0000C3004F28000000C0003FFFFFFFE8000000C0003FFFFFFFD028000000C0003FFFFFFFD028070000C30047A8000000C0003FFFFFFFD018070000C30047AAAA3F400030C010A4391E4151E4091E4793C41D1E4110F4050F7F64190F40D0F80200404C0010441004D005F0030009013100411040134017C00C4
310
02404C8010441004D005F0032009013300411040134017C00CC02404D0010441004D005F0034009013500411040134017C00D402404D8010441004D005F0036009013700411040134017C00DC02404E0010441004D005F0038009013900411040134017C00E402408C80104010541004D005F0031003000902340041004150
310
40134017C00C400C402409240140010541004D005F003100320090230004E00415040134017C00C0013802408C40138010541004D005F0031004E0090232004E00415040134017C00C8013802408CC0138010541004D005F0033004E0090234004E00415040134017C00D0013802408D40138010541004D005F0035004E009
310
0236004E00415040134017C00D8013802408DC0138010541004D005F0037004E0090238004E00415040134017C00E0013802408E40138010541004D005F0039004E00903320041004E00419040134017C00C400C001380240CD001040138010641004D005F00310031004E00903490050004E00419040134017C00C400C801
310
38024112C013001240138010541004D005F0043004C0090449004E0046004F00421040134017C01400104014801140118024154801040120013400D4010641004D005F0042004F0052009045600490045005700421040134017C015801240114015C014C024190801140120012401380110010641004D005F0049004E00560
310
090554005200410049004C00415040134017C015001480240D2001240110010641004D005F00480049004400903560049005300419040134017C01580124014C024194001040148011001240134010941004D005F00500041005200440049004D00906520045004600440049004D00425040134017C0148011401180110012
310
4013402411080120013801580101390041508012001380158014C010642004500480049004E00440041108013C014800C801055200410048004D00350041108013C014800CC01055200410048004D00350041108013C014800D401055200410048004D0035004110C0104013000C8010134004110C0104013000CC01013400
310
4110C0104013000D4010134004110C0104013000DC010134004110C011401380138010137004110C01140138015C010137004110C01300124013801044B004C0049004E004110C013C013800C4010130004110C013C013800C8010131004110C013C013800CC010132004110C013C013800D00101320041110011401500104
310
010134004111001240104011C010135004111001240130012401013500411100124013401400106500041005200440049004D00411100124013401480106520045004600440049004D004111801140134013801013800415180114013401400138010138004151801140134014C01400102340041004151801140134014C01
310
5001023400410041518011401340158013801013200415180114013401580150010132004112001040150010C0101380041120012401100138010133004112001240110015C01013300411200130012401380101340041120013C010C01380101370041120013C010C015C010137004112401380118013C010449004E00460
310
04F00411300114010401100101350041938017C0108012001380158010239004E0041938017C010C013C013800C4010230004E0041938017C010C013C013800C8010231004E0041938017C010C013C013800CC010232004E0041938017C010C013C013800D0010232004E0041938017C010C011401380138010237004E0041
310
938017C010C01140138015C010237004E0041938017C0110012401300124010235004E0041938017C012001040150010C010238004E0041938017C0120012401100138010233004E0041938017C012001240110015C010233004E0041938017C0130011401040110010235004E0041938017C0138011C01240140010349005
310
0004E0041938017C01400120010401380103340041004E0041938017C0150010C013C0138010230004E0041938017C0150012001300124010234004E0041938017C0150013001140138010230004E0041938017C01580140013001240103320041004E0041138011C01240140010249005000411400104013000C801055200
310
410048004D003500411400104013000CC01055200410048004D003500411400104013000D401055200410048004D0035004114001200104013801023400410041140013C014C01380101350041148010C011C01380101370041148010C011C015C010137004114C01080148012C010134004114C0114010C01500101340041
310
14C0164010800CC0101350041134014C016401340101350041150010C013C0138010130004115001200130012401013400411500124015000C801055200410048004D003500411500124015000CC01055200410048004D003500411500124015000D401055200410048004D003500411500130011401380101300041550014
310
8010401240130010554005200410049004C004115001480130012401013400411500160015000C401013600411500160015000C801013600411500160015000CC01013600411500160015000D401013600411500160015000DC010136004115801240114015C01045600490045005700411580114011001200103480049004
310
4004115801140110015801035600490053004115801400130012401023200410041168012401680104010134004114C014001300124010232004100404FC02443ECC
340
1813
340
1813
340
1813
340
18B6
340
1813
340
1813
340
1813
340
182D
340
1813
340
1813
340
18B7
340
18B7
340
1813
340
1813
340
1813
340
1813
340
18B6
340
1813
340
1813
340
1813
340
182D
340
1813
340
1813
340
18B7
340
18B7
340
1813
340
18F6
340
1813
340
1813
340
1813
340
1813
340
1813
340
18B6
340
1813
340
1813
340
1813
340
1812
340
1812
340
1812
340
1812
340
1812
340
1812
340
1812
340
1812
340
1812
340
18FC
340
1812
340
1812
340
1812
340
1812
340
1812
340
1812
340
1813
340
1812
340
1812
340
1812
340
1812
340
1812
340
1812
340
1813
340
1812
340
1812
340
1812
340
1812
340
18FD
340
1812
340
1812
340
18FC
340
1812
340
1812
340
1812
340
1812
340
1812
340
1812
340
1812
340
1812
340
18FC
340
1812
340
1812
340
1812
340
18FD
340
1812
340
1812
340
1812
340
1812
340
1812
340
18FD
340
1812
340
1812
340
1812
340
1813
340
1813
340
1813
340
1812
340
1812
340
18FC
340
1812
340
1812
340
1812
340
1812
340
1812
340
1812
340
18FD
340
1812
340
1812
340
1812
340
1812
340
1812
340
1812
340
1812
340
1812
340
1812
340
1812
340
1812
340
1812
340
1812
340
1812
340
18B7
340
18FE
340
18B7
 94
        0
1001
ACAD
1000
AcRTDxfName
1000
AMGOBJPROPCFG
  0
ACAD_PROXY_OBJECT
  5
192B
102
{ACAD_REACTORS
330
1926
102
}
330
1926
100
AcDbProxyObject
 90
      499
 91
      563
 95
  6946847
 70
     0
 93
      462
310
43E8A22002480268022802700298024802780270016002080268022002A002F8015002F80220024802680202540080950020254008095005900C
 94
        0
1001
ACAD
1000
AcRTDxfName
1000
ACAMGFILTERDAT
  0
ACAD_PROXY_OBJECT
  5
192A
102
{ACAD_REACTORS
330
1926
102
}
330
1926
100
AcDbProxyObject
 90
      499
 91
      563
 95
  6946847
 70
     0
 93
      318
310
43E80950021682009A00BE008C008A0082005A0082009A00BE00540080950020254008095001100C
 94
        0
1001
ACAD
1000
AcRTDxfName
1000
ACAMGFILTERDAT
  0
ACAD_PROXY_OBJECT
  5
1927
102
{ACAD_REACTORS
330
1926
102
}
330
1926
100
AcDbProxyObject
 90
      499
 91
      563
 95
  6946847
 70
     0
 93
      222
310
43E82A40020802A00218024002025400809500202540080950061004
 94
        0
1001
ACAD
1000
AcRTDxfName
1000
ACAMGFILTERDAT
  0
ACAD_PROXY_OBJECT
  5
1928
102
{ACAD_REACTORS
330
1926
102
}
330
1926
100
AcDbProxyObject
 90
      499
 91
      563
 95
  6946847
 70
     0
 93
     1054
310
43E82260024802700228024E7000580070009C00580054005A007000580054005A0070009C00580082009A00BE007000580082009A00BE0070009C00580054005A0082009A00BE007000580054005A0082009A00BE0070009C00809500202540088248027002980228029002A00160029802A0022002800208029002A00190
310
0220001024
 94
        0
1001
ACAD
1000
AcRTDxfName
1000
ACAMGFILTERDAT
  0
ACAD_PROXY_OBJECT
  5
192C
102
{ACAD_REACTORS
330
1926
102
}
330
1926
100
AcDbProxyObject
 90
      499
 91
      563
 95
  6946847
 70
     0
 93
      318
310
43C81A0802900218020882009A00BE006A00809500202640083248027002980228029002A001100C
 94
        0
1001
ACAD
1000
AcRTDxfName
1000
ACAMGFILTERDAT
  0
ACAD_PROXY_OBJECT
  5
1929
102
{ACAD_REACTORS
330
1926
102
}
330
1926
100
AcDbProxyObject
 90
      499
 91
      563
 95
  6946847
 70
     0
 93
     2270
310
43EC2A0802180268023002180230029002080268022801600208021802680220020802A002A8026802A0020802900238022802A001600208021802680220020802A002A8026802480220016002080218026802B8022802600220029802C802680160020802180268029802A802900230029802C80268016002080218026802
310
300228020802A002480220016002080218026802800208029002A002900228023001600208021802680210020802600260027802780270016002080268022002A00228022002380228029802C802680160020802680238029802180290022802B8021802080260021802A00208021002600228016002080218026802680208
310
02900258029802A002080268028002025400809500202540080950061044
 94
        0
1001
ACAD
1000
AcRTDxfName
1000
ACAMGFILTERDAT
  0
DICTIONARY
  5
233B
330
1910
100
AcDbDictionary
280
     1
281
     1
  3
ACAD_XREC_ROUNDTRIP
360
1429F
  0
DICTIONARY
  5
2339
330
1821
100
AcDbDictionary
280
     1
281
     1
  3
ACAD_XREC_ROUNDTRIP
360
14299
  0
DICTIONARY
  5
1429A
330
1825
100
AcDbDictionary
280
     1
281
     1
  3
ACAD_XREC_ROUNDTRIP
360
1429B
  0
DICTIONARY
  5
1429C
330
1829
100
AcDbDictionary
280
     1
281
     1
  3
ACAD_XREC_ROUNDTRIP
360
1429D
  0
DICTIONARY
  5
17D1
330
17D0
100
AcDbDictionary
280
     1
281
     1
  3
ACAD_XREC_ROUNDTRIP
360
14265
  3
BUMPTILE
360
17D3
  3
DIFFUSETILE
360
17D2
  3
OPACITYTILE
360
17D6
  3
REFLECTIONTILE
360
17D5
  3
REFRACTIONTILE
360
17D7
  3
SPECULARTILE
360
17D4
  0
DICTIONARY
  5
17C9
330
17C8
100
AcDbDictionary
280
     1
281
     1
  3
ACAD_XREC_ROUNDTRIP
360
14264
  3
BUMPTILE
360
17CB
  3
DIFFUSETILE
360
17CA
  3
OPACITYTILE
360
17CE
  3
REFLECTIONTILE
360
17CD
  3
REFRACTIONTILE
360
17CF
  3
SPECULARTILE
360
17CC
  0
DICTIONARY
  5
17D9
330
17D8
100
AcDbDictionary
280
     1
281
     1
  3
ACAD_XREC_ROUNDTRIP
360
14266
  3
BUMPTILE
360
17DB
  3
DIFFUSETILE
360
17DA
  3
OPACITYTILE
360
17DE
  3
REFLECTIONTILE
360
17DD
  3
REFRACTIONTILE
360
17DF
  3
SPECULARTILE
360
17DC
  0
DICTIONARY
  5
1917
330
1916
100
AcDbDictionary
280
     1
281
     1
  3
ACAD_FIELD
360
1918
  3
ACAD_XREC_ROUNDTRIP
360
142A0
  0
DICTIONARY
  5
2337
330
181F
100
AcDbDictionary
280
     1
281
     1
  3
ACAD_XREC_ROUNDTRIP
360
14298
  0
DICTIONARY
  5
14258
330
181B
100
AcDbDictionary
280
     1
281
     1
  3
ACAD_ROUNDTRIP_2008_TABLESTYLE_CELLSTYLEMAP
360
14259
  3
ACAD_XREC_ROUNDTRIP
360
14297
  0
DICTIONARY
  5
14271
330
17E6
100
AcDbDictionary
280
     1
281
     1
  3
ACAD_XREC_ROUNDTRIP
360
14272
  0
DICTIONARY
  5
1426F
330
17E5
100
AcDbDictionary
280
     1
281
     1
  3
ACAD_XREC_ROUNDTRIP
360
14270
  0
DICTIONARY
  5
1427D
330
17EC
100
AcDbDictionary
280
     1
281
     1
  3
ACAD_XREC_ROUNDTRIP
360
1427E
  0
DICTIONARY
  5
14285
330
17F0
100
AcDbDictionary
280
     1
281
     1
  3
ACAD_XREC_ROUNDTRIP
360
14286
  0
DICTIONARY
  5
14277
330
17E9
100
AcDbDictionary
280
     1
281
     1
  3
ACAD_XREC_ROUNDTRIP
360
14278
  0
DICTIONARY
  5
1427B
330
17EB
100
AcDbDictionary
280
     1
281
     1
  3
ACAD_XREC_ROUNDTRIP
360
1427C
  0
DICTIONARY
  5
14295
330
17F8
100
AcDbDictionary
280
     1
281
     1
  3
ACAD_XREC_ROUNDTRIP
360
14296
  0
DICTIONARY
  5
14283
330
17EF
100
AcDbDictionary
280
     1
281
     1
  3
ACAD_XREC_ROUNDTRIP
360
14284
  0
DICTIONARY
  5
14267
330
17E1
100
AcDbDictionary
280
     1
281
     1
  3
ACAD_XREC_ROUNDTRIP
360
14268
  0
DICTIONARY
  5
14269
330
17E2
100
AcDbDictionary
280
     1
281
     1
  3
ACAD_XREC_ROUNDTRIP
360
1426A
  0
DICTIONARY
  5
1426B
330
17E3
100
AcDbDictionary
280
     1
281
     1
  3
ACAD_XREC_ROUNDTRIP
360
1426C
  0
DICTIONARY
  5
1426D
330
17E4
100
AcDbDictionary
280
     1
281
     1
  3
ACAD_XREC_ROUNDTRIP
360
1426E
  0
DICTIONARY
  5
14275
330
17E8
100
AcDbDictionary
280
     1
281
     1
  3
ACAD_XREC_ROUNDTRIP
360
14276
  0
DICTIONARY
  5
14291
330
17F6
100
AcDbDictionary
280
     1
281
     1
  3
ACAD_XREC_ROUNDTRIP
360
14292
  0
DICTIONARY
  5
14281
330
17EE
100
AcDbDictionary
280
     1
281
     1
  3
ACAD_XREC_ROUNDTRIP
360
14282
  0
DICTIONARY
  5
14293
330
17F7
100
AcDbDictionary
280
     1
281
     1
  3
ACAD_XREC_ROUNDTRIP
360
14294
  0
DICTIONARY
  5
14279
330
17EA
100
AcDbDictionary
280
     1
281
     1
  3
ACAD_XREC_ROUNDTRIP
360
1427A
  0
DICTIONARY
  5
1428F
330
17F5
100
AcDbDictionary
280
     1
281
     1
  3
ACAD_XREC_ROUNDTRIP
360
14290
  0
DICTIONARY
  5
1428D
330
17F4
100
AcDbDictionary
280
     1
281
     1
  3
ACAD_XREC_ROUNDTRIP
360
1428E
  0
DICTIONARY
  5
14287
330
17F1
100
AcDbDictionary
280
     1
281
     1
  3
ACAD_XREC_ROUNDTRIP
360
14288
  0
DICTIONARY
  5
14289
330
17F2
100
AcDbDictionary
280
     1
281
     1
  3
ACAD_XREC_ROUNDTRIP
360
1428A
  0
DICTIONARY
  5
1427F
330
17ED
100
AcDbDictionary
280
     1
281
     1
  3
ACAD_XREC_ROUNDTRIP
360
14280
  0
DICTIONARY
  5
14273
330
17E7
100
AcDbDictionary
280
     1
281
     1
  3
ACAD_XREC_ROUNDTRIP
360
14274
  0
DICTIONARY
  5
1428B
330
17F3
100
AcDbDictionary
280
     1
281
     1
  3
ACAD_XREC_ROUNDTRIP
360
1428C
  0
XRECORD
  5
1425C
102
{ACAD_REACTORS
330
14262
102
}
330
14262
100
AcDbXrecord
280
     1
  1
AcDb_Thumbnail_Schema
102
{ATTRRECORD
341
1425D
  2
AcDbDs::TreatedAsObjectData
280
     1
291
     1
102
ATTRRECORD}
102
{ATTRRECORD
341
1425E
  2
AcDbDs::Legacy
280
     1
291
     1
102
ATTRRECORD}
  2
AcDbDs::ID
280
    10
 91
        8
102
{ATTRRECORD
341
1425F
  2
AcDs:Indexable
280
     1
291
     1
102
ATTRRECORD}
102
{ATTRRECORD
341
14260
  2
AcDbDs::HandleAttribute
280
     7
282
     1
102
ATTRRECORD}
  2
Thumbnail_Data
280
    15
 91
        0
  0
XRECORD
  5
1425D
102
{ACAD_REACTORS
330
14262
102
}
330
14262
100
AcDbXrecord
280
     1
  1
AcDbDs::TreatedAsObjectDataSchema
  2
AcDbDs::TreatedAsObjectData
280
     1
 91
        0
  0
XRECORD
  5
1425E
102
{ACAD_REACTORS
330
14262
102
}
330
14262
100
AcDbXrecord
280
     1
  1
AcDbDs::LegacySchema
  2
AcDbDs::Legacy
280
     1
 91
        0
  0
XRECORD
  5
1425F
102
{ACAD_REACTORS
330
14262
102
}
330
14262
100
AcDbXrecord
280
     1
  1
AcDbDs::IndexedPropertySchema
  2
AcDs:Indexable
280
     1
 91
        0
  0
XRECORD
  5
14260
102
{ACAD_REACTORS
330
14262
102
}
330
14262
100
AcDbXrecord
280
     1
  1
AcDbDs::HandleAttributeSchema
  2
AcDbDs::HandleAttribute
280
     7
 91
        1
284
     1
  0
ACAD_PROXY_OBJECT
  5
18DF
102
{ACAD_REACTORS
330
18DE
102
}
330
18DE
100
AcDbProxyObject
 90
      499
 91
      539
 95
  6946847
 70
     0
 93
     4476
310
738B81E85EB51B8BE3F8000000C00040540600800030C0200000030000B81E85EB51B8BE3F495222812028120281202812028120281202812048120481202812028120281202812028120281202812028120280A04809FFFE7FFFA0882009C00A600920121C8200C600DA00A600EA00E400CC00A800CA00F000E800A600E80
310
0C80084A0803180368023002180230029803A00320021A8200C600DA00AE00CA00D800C800D200DC00CE00A600E800C800842080318036802480320029803A0032002168200C600DA008800C200E800EA00DA00A600E800C80084A0803180368021002780268029803A0032002208200DA00C800E8008800CA00E800C200D2
310
00D800A600F200DA00A600E800C80088A080368032003A002980328031803A0034803780370029803C80368029803A0032002228200DA00C800E8008600CA00DC00E800CA00E4009800D200DC00CA00A600E800C80088A080368032003A002A0034003900328030803200260034803700328029803A0032002168200DA00C8
310
00E8009C00DE00E800CA00A600E800C80085A080318036802A00308038003280390029803A00320021A8200DA00C800E8008200DC00AC00D200CA00EE00A600E800C80085A0803180208036803380260030803C8029803A0032002168200C6008200DA00CE008800D200DA00A600E800C80088A08031802080368033802400
310
37803600328021803400308039003A0029803A00320021A8200C6008200DA00CE00A800D200E800D800CA00A600E800C8012C1DC
340
180C
360
18E0
360
18E1
360
18E2
360
18E3
360
18E4
360
18E5
360
18E6
360
190B
360
18E7
360
190A
360
18E8
360
18E9
360
18EA
360
18EB
360
18EC
360
18ED
360
18EE
360
1908
360
1909
340
18EF
340
0
340
1812
340
1812
 94
        0
1001
ACAD
1000
AcRTDxfName
1000
ACMSTANDARDANSI
  0
ACAD_PROXY_OBJECT
  5
18AC
102
{ACAD_REACTORS
330
18AB
102
}
330
18AB
100
AcDbProxyObject
 90
      499
 91
      508
 95
  6946847
 70
     0
 93
     4729
310
40682A0A940000000000001C07E82A50000000000000601FA50000000000000701FA50000000000000701FA7F27F20A82A50A0A9FA040C008000105415281AF4D2ECA24F1CD050542D10015C011C014C01140150015001240138011C014C0109430041004E00470041005200520041005900420CC00C001F000D000D401F00
310
0D800C00106430045004E0041004E004700424D000D401F000E400C001F000C400CC00D40106430045004E0044004900410041D0C01140138011001240104014C010B30002E0035007C0031002E0030007C0031002E00350041D0C0114013801100124014C01500106430045004E004C0045004E004190C01140138013C011
310
80118010E4300480041004D00460045005200440049004D004D004F00440045004550C0120010401340118011401480110012401340134013C011001140110011401180104015401300150010943004C0049004E0041005200520041005900438C000B800C400C800D401F000C000B800C800D401F000C000B800D40108430
310
04C0049004E004500540059005000415600130012401380114010944005700470055005300430041004C00450041D300104014C0150013C0108012801013000421340104012C0114015801240114015C010650005300430041004C00450041948011401580124014C0124010130004154C010C010401300114010331003A00
310
310042550012401340114014C01500104013401400107560045005200530049004F004E00414C400D400B800C000C001107B00440057004700530045005400540049004E004700530045004E0044007D002C10CC
 94
        0
1001
ACAD
1000
AcRTDxfName
1000
AMGSETTINGSOBJ
  0
ACAD_PROXY_OBJECT
  5
18AD
102
{ACAD_REACTORS
330
18AB
102
}
330
18AB
100
AcDbProxyObject
 90
      499
 91
      508
 95
  6946847
 70
     0
 93
     1525
310
4060C00800041801000020A0C00800010D5400520041004E005300530045005400540049004E00470053004491001480104015C01240138011C0150014801040138014C0130010401500124013C0138010D4F0052004900470049004E0041004C004C0059005F004F004E004294C013C01540148010C011401300104013801
310
1C010345004E00550042554014001480114014C011401480158011401107B00440057004700530045005400540049004E004700530045004E0044007D006605C
 94
        0
1001
ACAD
1000
AcRTDxfName
1000
AMGSETTINGSOBJ
  0
XRECORD
  5
1429F
102
{ACAD_REACTORS
330
233B
102
}
330
233B
100
AcDbXrecord
280
     1
102
DISPLAYNAME
  1
ASME Y14.35 - 1987
102
FLAGS
 90
        1
  0
XRECORD
  5
14299
102
{ACAD_REACTORS
330
2339
102
}
330
2339
100
AcDbXrecord
280
     1
102
DISPLAYNAME
  1
Imperial24
102
FLAGS
 90
        0
  0
XRECORD
  5
1429B
102
{ACAD_REACTORS
330
1429A
102
}
330
1429A
100
AcDbXrecord
280
     1
102
SHADEPLOT
 70
     0
102
SHADEPLOTRESLEVEL
 70
     2
102
SHADEPLOTCUSTOMDPI
 70
   300
  0
XRECORD
  5
1429D
102
{ACAD_REACTORS
330
1429C
102
}
330
1429C
100
AcDbXrecord
280
     1
102
SHADEPLOT
 70
     0
102
SHADEPLOTRESLEVEL
 70
     2
102
SHADEPLOTCUSTOMDPI
 70
   300
  0
XRECORD
  5
14265
102
{ACAD_REACTORS
330
17D1
102
}
330
17D1
100
AcDbXrecord
280
     1
102
MATERIAL
148
0.0
149
0.0
149
0.0
 93
        0
 94
      127
282
     0
 72
     0
 77
     0
171
     0
175
     0
179
     0
273
     0
  0
XRECORD
  5
17D3
102
{ACAD_REACTORS
330
17D1
102
}
330
17D1
100
AcDbXrecord
280
     1
270
     1
271
     1
  0
XRECORD
  5
17D2
102
{ACAD_REACTORS
330
17D1
102
}
330
17D1
100
AcDbXrecord
280
     1
270
     1
271
     1
  0
XRECORD
  5
17D6
102
{ACAD_REACTORS
330
17D1
102
}
330
17D1
100
AcDbXrecord
280
     1
270
     1
271
     1
  0
XRECORD
  5
17D5
102
{ACAD_REACTORS
330
17D1
102
}
330
17D1
100
AcDbXrecord
280
     1
270
     1
271
     1
  0
XRECORD
  5
17D7
102
{ACAD_REACTORS
330
17D1
102
}
330
17D1
100
AcDbXrecord
280
     1
270
     1
271
     1
  0
XRECORD
  5
17D4
102
{ACAD_REACTORS
330
17D1
102
}
330
17D1
100
AcDbXrecord
280
     1
270
     1
271
     1
  0
XRECORD
  5
14264
102
{ACAD_REACTORS
330
17C9
102
}
330
17C9
100
AcDbXrecord
280
     1
102
MATERIAL
148
0.0
149
0.0
149
0.0
 93
        0
 94
      127
282
     0
 72
     0
 77
     0
171
     0
175
     0
179
     0
273
     0
  0
XRECORD
  5
17CB
102
{ACAD_REACTORS
330
17C9
102
}
330
17C9
100
AcDbXrecord
280
     1
270
     1
271
     1
  0
XRECORD
  5
17CA
102
{ACAD_REACTORS
330
17C9
102
}
330
17C9
100
AcDbXrecord
280
     1
270
     1
271
     1
  0
XRECORD
  5
17CE
102
{ACAD_REACTORS
330
17C9
102
}
330
17C9
100
AcDbXrecord
280
     1
270
     1
271
     1
  0
XRECORD
  5
17CD
102
{ACAD_REACTORS
330
17C9
102
}
330
17C9
100
AcDbXrecord
280
     1
270
     1
271
     1
  0
XRECORD
  5
17CF
102
{ACAD_REACTORS
330
17C9
102
}
330
17C9
100
AcDbXrecord
280
     1
270
     1
271
     1
  0
XRECORD
  5
17CC
102
{ACAD_REACTORS
330
17C9
102
}
330
17C9
100
AcDbXrecord
280
     1
270
     1
271
     1
  0
XRECORD
  5
14266
102
{ACAD_REACTORS
330
17D9
102
}
330
17D9
100
AcDbXrecord
280
     1
102
MATERIAL
148
0.0
149
0.0
149
0.0
 93
        0
 94
      127
282
     0
 72
     0
 77
     0
171
     0
175
     0
179
     0
273
     0
  0
XRECORD
  5
17DB
102
{ACAD_REACTORS
330
17D9
102
}
330
17D9
100
AcDbXrecord
280
     1
270
     1
271
     1
  0
XRECORD
  5
17DA
102
{ACAD_REACTORS
330
17D9
102
}
330
17D9
100
AcDbXrecord
280
     1
270
     1
271
     1
  0
XRECORD
  5
17DE
102
{ACAD_REACTORS
330
17D9
102
}
330
17D9
100
AcDbXrecord
280
     1
270
     1
271
     1
  0
XRECORD
  5
17DD
102
{ACAD_REACTORS
330
17D9
102
}
330
17D9
100
AcDbXrecord
280
     1
270
     1
271
     1
  0
XRECORD
  5
17DF
102
{ACAD_REACTORS
330
17D9
102
}
330
17D9
100
AcDbXrecord
280
     1
270
     1
271
     1
  0
XRECORD
  5
17DC
102
{ACAD_REACTORS
330
17D9
102
}
330
17D9
100
AcDbXrecord
280
     1
270
     1
271
     1
  0
DICTIONARY
  5
1918
102
{ACAD_REACTORS
330
1917
102
}
330
1917
100
AcDbDictionary
280
     1
281
     1
  3
TEXT
360
1919
  0
XRECORD
  5
142A0
102
{ACAD_REACTORS
330
1917
102
}
330
1917
100
AcDbXrecord
280
     1
102
DISPLAYNAME
  1
ASME Y14.3 - 2003
102
FLAGS
 90
        1
  0
XRECORD
  5
14298
102
{ACAD_REACTORS
330
2337
102
}
330
2337
100
AcDbXrecord
280
     1
102
DISPLAYNAME
  1
Imperial24
102
FLAGS
 90
        0
  0
CELLSTYLEMAP
  5
14259
102
{ACAD_REACTORS
330
14258
102
}
330
14258
100
AcDbCellStyleMap
 90
        3
300
CELLSTYLE
  1
TABLEFORMAT_BEGIN
 90
        5
170
     1
 91
        0
 92
    32768
 62
   257
 93
        1
300
CONTENTFORMAT
  1
CONTENTFORMAT_BEGIN
 90
        0
 91
        0
 92
      512
 93
        0
300

 40
0.0
140
1.0
 94
        5
 62
     0
340
180C
144
0.25
309
CONTENTFORMAT_END
171
     0
 94
        0
309
TABLEFORMAT_END
  1
CELLSTYLE_BEGIN
 90
        1
 91
        1
300
_TITLE
309
CELLSTYLE_END
300
CELLSTYLE
  1
TABLEFORMAT_BEGIN
 90
        5
170
     1
 91
        0
 92
        0
 62
   257
 93
        1
300
CONTENTFORMAT
  1
CONTENTFORMAT_BEGIN
 90
        0
 91
        0
 92
      512
 93
        0
300

 40
0.0
140
1.0
 94
        5
 62
     0
340
180C
144
0.18
309
CONTENTFORMAT_END
171
     0
 94
        0
309
TABLEFORMAT_END
  1
CELLSTYLE_BEGIN
 90
        2
 91
        1
300
_HEADER
309
CELLSTYLE_END
300
CELLSTYLE
  1
TABLEFORMAT_BEGIN
 90
        5
170
     1
 91
        0
 92
        0
 62
   257
 93
        1
300
CONTENTFORMAT
  1
CONTENTFORMAT_BEGIN
 90
        0
 91
        0
 92
      512
 93
        0
300

 40
0.0
140
1.0
 94
        2
 62
     0
340
180C
144
0.18
309
CONTENTFORMAT_END
171
     0
 94
        0
309
TABLEFORMAT_END
  1
CELLSTYLE_BEGIN
 90
        3
 91
        2
300
_DATA
309
CELLSTYLE_END
  0
XRECORD
  5
14297
102
{ACAD_REACTORS
330
14258
102
}
330
14258
100
AcDbXrecord
280
     1
102
ACAD_ROUNDTRIP_PRE2007_TABLESTYLE
 90
      512
 91
        0
  1

 92
      512
 93
        0
  2

 94
      512
 95
        0
  3

  0
XRECORD
  5
14272
102
{ACAD_REACTORS
330
14271
102
}
330
14271
100
AcDbXrecord
280
     1
102
RTVSPost2010Prop28
280
     1
102
RTVSPost2010PropOp28
 70
     1
102
RTVSPost2010Prop29
280
     1
102
RTVSPost2010PropOp29
 70
     1
102
RTVSPost2010Prop30
280
     0
102
RTVSPost2010PropOp30
 70
     1
102
RTVSPost2010Prop31
280
     0
102
RTVSPost2010PropOp31
 70
     1
102
RTVSPost2010Prop32
280
     0
102
RTVSPost2010PropOp32
 70
     1
102
RTVSPost2010Prop33
280
     0
102
RTVSPost2010PropOp33
 70
     1
102
RTVSPost2010Prop34
280
     0
102
RTVSPost2010PropOp34
 70
     1
102
RTVSPost2010Prop35
280
     0
102
RTVSPost2010PropOp35
 70
     1
102
RTVSPost2010Prop36
280
     0
102
RTVSPost2010PropOp36
 70
     1
102
RTVSPost2010Prop37
 90
       50
102
RTVSPost2010PropOp37
 70
     1
102
RTVSPost2010Prop38
140
0.0
102
RTVSPost2010PropOp38
 70
     1
102
RTVSPost2010Prop39
140
1.0
102
RTVSPost2010PropOp39
 70
     1
102
RTVSPost2010Prop40
 90
        0
102
RTVSPost2010PropOp40
 70
     1
102
RTVSPost2010Prop41ColorIndex
 90
       18
102
RTVSPost2010Prop41ColorRGB
 90
        0
102
RTVSPost2010PropOp41
 70
     1
102
RTVSPost2010Prop42
 90
       50
102
RTVSPost2010PropOp42
 70
     1
102
RTVSPost2010Prop43
 90
        3
102
RTVSPost2010PropOp43
 70
     1
102
RTVSPost2010Prop44ColorIndex
 90
        5
102
RTVSPost2010Prop44ColorRGB
 90
      255
102
RTVSPost2010PropOp44
 70
     1
102
RTVSPost2010Prop45
280
     0
102
RTVSPost2010PropOp45
 70
     1
102
RTVSPost2010Prop46
 90
       50
102
RTVSPost2010PropOp46
 70
     1
102
RTVSPost2010Prop47
 90
       50
102
RTVSPost2010PropOp47
 70
     1
102
RTVSPost2010Prop48
 90
       50
102
RTVSPost2010PropOp48
 70
     1
102
RTVSPost2010Prop49
280
     0
102
RTVSPost2010PropOp49
 70
     1
102
RTVSPost2010Prop50
 90
       50
102
RTVSPost2010PropOp50
 70
     1
102
RTVSPost2010Prop51ColorIndex
 90
      256
102
RTVSPost2010Prop51ColorRGB
 90
-16777216
102
RTVSPost2010PropOp51
 70
     0
102
RTVSPost2010Prop52
140
1.0
102
RTVSPost2010PropOp52
 70
     0
102
RTVSPost2010Prop53
 90
        2
102
RTVSPost2010PropOp53
 70
     1
102
RTVSPost2010Prop54
  1
strokes_ogs.tif
102
RTVSPost2010PropOp54
 70
     1
102
RTVSPost2010Prop55
280
     0
102
RTVSPost2010PropOp55
 70
     1
102
RTVSPost2010Prop56
140
1.0
102
RTVSPost2010PropOp56
 70
     1
102
RTVSPost2010Prop57
140
1.0
102
RTVSPost2010PropOp57
 70
     1
102
RTVSPropertyOp0
 70
     1
102
RTVSPropertyOp1
 70
     1
102
RTVSPropertyOp2
 70
     1
102
RTVSPropertyOp3
 70
     1
102
RTVSPropertyOp4
 70
     1
102
RTVSPropertyOp5
 70
     1
102
RTVSPropertyOp6
 70
     1
102
RTVSPropertyOp7
 70
     1
102
RTVSPropertyOp8
 70
     1
102
RTVSPropertyOp9
 70
     1
102
RTVSPropertyOp10
 70
     1
102
RTVSPropertyOp11
 70
     1
102
RTVSPropertyOp12
 70
     1
102
RTVSPropertyOp13
 70
     1
102
RTVSPropertyOp14
 70
     1
102
RTVSPropertyOp15
 70
     1
102
RTVSPropertyOp16
 70
     1
102
RTVSPropertyOp17
 70
     1
102
RTVSPropertyOp18
 70
     1
102
RTVSPropertyOp19
 70
     1
102
RTVSPropertyOp20
 70
     1
102
RTVSPropertyOp21
 70
     1
102
RTVSPropertyOp22
 70
     1
102
RTVSPropertyOp23
 70
     1
102
RTVSPropertyOp24
 70
     1
102
RTVSPropertyOp25
 70
     1
102
RTVSPropertyOp26
 70
     1
102
RTVSPropertyOp27
 70
     1
102
RTVSPropertyOp28
 70
     1
102
RTVSPropertyOp29
 70
     1
102
RTVSPropertyOp30
 70
     1
102
RTVSPropertyOp31
 70
     1
102
RTVSPropertyOp32
 70
     1
102
RTVSPropertyOp33
 70
     1
102
RTVSPropertyOp34
 70
     1
102
RTVSPropertyOp35
 70
     1
102
RTVSPropertyOp36
 70
     1
102
RTVSPropertyOp37
 70
     1
102
RTVSPropertyOp38
 70
     1
102
RTVSPropertyOp39
 70
     1
102
RTVSPropertyOp40
 70
     1
102
RTVSPropertyOp41
 70
     1
102
RTVSPropertyOp42
 70
     1
102
RTVSPropertyOp43
 70
     1
102
RTVSPropertyOp44
 70
     1
102
RTVSPropertyOp45
 70
     1
102
RTVSPropertyOp46
 70
     1
102
RTVSPropertyOp47
 70
     1
102
RTVSPropertyOp48
 70
     1
102
RTVSPropertyOp49
 70
     1
102
RTVSPropertyOp50
 70
     1
102
RTVSPropertyOp51
 70
     0
102
RTVSPropertyOp52
 70
     0
102
RTVSPropertyOp53
 70
     1
102
RTVSPropertyOp54
 70
     1
102
RTVSPropertyOp55
 70
     1
102
RTVSPropertyOp56
 70
     1
102
RTVSPropertyOp57
 70
     1
102
RTVSPropertyOp58
 70
     1
102
RTVSPropertyOp59
 70
     1
102
RTVSPropertyOp60
 70
     1
102
RTVSPropertyOp61
 70
     1
102
RTVSPropertyOp62
 70
     1
  0
XRECORD
  5
14270
102
{ACAD_REACTORS
330
1426F
102
}
330
1426F
100
AcDbXrecord
280
     1
102
RTVSPost2010Prop28
280
     0
102
RTVSPost2010PropOp28
 70
     1
102
RTVSPost2010Prop29
280
     1
102
RTVSPost2010PropOp29
 70
     1
102
RTVSPost2010Prop30
280
     1
102
RTVSPost2010PropOp30
 70
     1
102
RTVSPost2010Prop31
280
     0
102
RTVSPost2010PropOp31
 70
     1
102
RTVSPost2010Prop32
280
     0
102
RTVSPost2010PropOp32
 70
     1
102
RTVSPost2010Prop33
280
     0
102
RTVSPost2010PropOp33
 70
     1
102
RTVSPost2010Prop34
280
     0
102
RTVSPost2010PropOp34
 70
     1
102
RTVSPost2010Prop35
280
     0
102
RTVSPost2010PropOp35
 70
     1
102
RTVSPost2010Prop36
280
     0
102
RTVSPost2010PropOp36
 70
     1
102
RTVSPost2010Prop37
 90
       50
102
RTVSPost2010PropOp37
 70
     1
102
RTVSPost2010Prop38
140
0.0
102
RTVSPost2010PropOp38
 70
     1
102
RTVSPost2010Prop39
140
1.0
102
RTVSPost2010PropOp39
 70
     1
102
RTVSPost2010Prop40
 90
        0
102
RTVSPost2010PropOp40
 70
     1
102
RTVSPost2010Prop41ColorIndex
 90
       18
102
RTVSPost2010Prop41ColorRGB
 90
        0
102
RTVSPost2010PropOp41
 70
     1
102
RTVSPost2010Prop42
 90
       50
102
RTVSPost2010PropOp42
 70
     1
102
RTVSPost2010Prop43
 90
        3
102
RTVSPost2010PropOp43
 70
     1
102
RTVSPost2010Prop44ColorIndex
 90
        5
102
RTVSPost2010Prop44ColorRGB
 90
      255
102
RTVSPost2010PropOp44
 70
     1
102
RTVSPost2010Prop45
280
     0
102
RTVSPost2010PropOp45
 70
     1
102
RTVSPost2010Prop46
 90
       50
102
RTVSPost2010PropOp46
 70
     1
102
RTVSPost2010Prop47
 90
       50
102
RTVSPost2010PropOp47
 70
     1
102
RTVSPost2010Prop48
 90
       50
102
RTVSPost2010PropOp48
 70
     1
102
RTVSPost2010Prop49
280
     0
102
RTVSPost2010PropOp49
 70
     1
102
RTVSPost2010Prop50
 90
       50
102
RTVSPost2010PropOp50
 70
     1
102
RTVSPost2010Prop51ColorIndex
 90
      256
102
RTVSPost2010Prop51ColorRGB
 90
-16777216
102
RTVSPost2010PropOp51
 70
     0
102
RTVSPost2010Prop52
140
1.0
102
RTVSPost2010PropOp52
 70
     0
102
RTVSPost2010Prop53
 90
        2
102
RTVSPost2010PropOp53
 70
     1
102
RTVSPost2010Prop54
  1
strokes_ogs.tif
102
RTVSPost2010PropOp54
 70
     1
102
RTVSPost2010Prop55
280
     0
102
RTVSPost2010PropOp55
 70
     1
102
RTVSPost2010Prop56
140
1.0
102
RTVSPost2010PropOp56
 70
     1
102
RTVSPost2010Prop57
140
1.0
102
RTVSPost2010PropOp57
 70
     1
102
RTVSPropertyOp0
 70
     1
102
RTVSPropertyOp1
 70
     1
102
RTVSPropertyOp2
 70
     1
102
RTVSPropertyOp3
 70
     1
102
RTVSPropertyOp4
 70
     1
102
RTVSPropertyOp5
 70
     1
102
RTVSPropertyOp6
 70
     1
102
RTVSPropertyOp7
 70
     1
102
RTVSPropertyOp8
 70
     1
102
RTVSPropertyOp9
 70
     1
102
RTVSPropertyOp10
 70
     1
102
RTVSPropertyOp11
 70
     1
102
RTVSPropertyOp12
 70
     1
102
RTVSPropertyOp13
 70
     1
102
RTVSPropertyOp14
 70
     1
102
RTVSPropertyOp15
 70
     1
102
RTVSPropertyOp16
 70
     1
102
RTVSPropertyOp17
 70
     1
102
RTVSPropertyOp18
 70
     1
102
RTVSPropertyOp19
 70
     1
102
RTVSPropertyOp20
 70
     1
102
RTVSPropertyOp21
 70
     1
102
RTVSPropertyOp22
 70
     1
102
RTVSPropertyOp23
 70
     1
102
RTVSPropertyOp24
 70
     1
102
RTVSPropertyOp25
 70
     1
102
RTVSPropertyOp26
 70
     1
102
RTVSPropertyOp27
 70
     1
102
RTVSPropertyOp28
 70
     1
102
RTVSPropertyOp29
 70
     1
102
RTVSPropertyOp30
 70
     1
102
RTVSPropertyOp31
 70
     1
102
RTVSPropertyOp32
 70
     1
102
RTVSPropertyOp33
 70
     1
102
RTVSPropertyOp34
 70
     1
102
RTVSPropertyOp35
 70
     1
102
RTVSPropertyOp36
 70
     1
102
RTVSPropertyOp37
 70
     1
102
RTVSPropertyOp38
 70
     1
102
RTVSPropertyOp39
 70
     1
102
RTVSPropertyOp40
 70
     1
102
RTVSPropertyOp41
 70
     1
102
RTVSPropertyOp42
 70
     1
102
RTVSPropertyOp43
 70
     1
102
RTVSPropertyOp44
 70
     1
102
RTVSPropertyOp45
 70
     1
102
RTVSPropertyOp46
 70
     1
102
RTVSPropertyOp47
 70
     1
102
RTVSPropertyOp48
 70
     1
102
RTVSPropertyOp49
 70
     1
102
RTVSPropertyOp50
 70
     1
102
RTVSPropertyOp51
 70
     0
102
RTVSPropertyOp52
 70
     0
102
RTVSPropertyOp53
 70
     1
102
RTVSPropertyOp54
 70
     1
102
RTVSPropertyOp55
 70
     1
102
RTVSPropertyOp56
 70
     1
102
RTVSPropertyOp57
 70
     1
102
RTVSPropertyOp58
 70
     1
102
RTVSPropertyOp59
 70
     1
102
RTVSPropertyOp60
 70
     1
102
RTVSPropertyOp61
 70
     1
102
RTVSPropertyOp62
 70
     1
  0
XRECORD
  5
1427E
102
{ACAD_REACTORS
330
1427D
102
}
330
1427D
100
AcDbXrecord
280
     1
102
RTVSPost2010Prop28
280
     0
102
RTVSPost2010PropOp28
 70
     1
102
RTVSPost2010Prop29
280
     1
102
RTVSPost2010PropOp29
 70
     1
102
RTVSPost2010Prop30
280
     1
102
RTVSPost2010PropOp30
 70
     1
102
RTVSPost2010Prop31
280
     0
102
RTVSPost2010PropOp31
 70
     1
102
RTVSPost2010Prop32
280
     0
102
RTVSPost2010PropOp32
 70
     1
102
RTVSPost2010Prop33
280
     0
102
RTVSPost2010PropOp33
 70
     1
102
RTVSPost2010Prop34
280
     0
102
RTVSPost2010PropOp34
 70
     1
102
RTVSPost2010Prop35
280
     0
102
RTVSPost2010PropOp35
 70
     1
102
RTVSPost2010Prop36
280
     0
102
RTVSPost2010PropOp36
 70
     1
102
RTVSPost2010Prop37
 90
       50
102
RTVSPost2010PropOp37
 70
     1
102
RTVSPost2010Prop38
140
0.0
102
RTVSPost2010PropOp38
 70
     1
102
RTVSPost2010Prop39
140
1.0
102
RTVSPost2010PropOp39
 70
     1
102
RTVSPost2010Prop40
 90
        0
102
RTVSPost2010PropOp40
 70
     1
102
RTVSPost2010Prop41ColorIndex
 90
       18
102
RTVSPost2010Prop41ColorRGB
 90
        0
102
RTVSPost2010PropOp41
 70
     1
102
RTVSPost2010Prop42
 90
       50
102
RTVSPost2010PropOp42
 70
     1
102
RTVSPost2010Prop43
 90
        3
102
RTVSPost2010PropOp43
 70
     1
102
RTVSPost2010Prop44ColorIndex
 90
        5
102
RTVSPost2010Prop44ColorRGB
 90
      255
102
RTVSPost2010PropOp44
 70
     1
102
RTVSPost2010Prop45
280
     0
102
RTVSPost2010PropOp45
 70
     1
102
RTVSPost2010Prop46
 90
       50
102
RTVSPost2010PropOp46
 70
     1
102
RTVSPost2010Prop47
 90
       50
102
RTVSPost2010PropOp47
 70
     1
102
RTVSPost2010Prop48
 90
       50
102
RTVSPost2010PropOp48
 70
     1
102
RTVSPost2010Prop49
280
     0
102
RTVSPost2010PropOp49
 70
     1
102
RTVSPost2010Prop50
 90
       50
102
RTVSPost2010PropOp50
 70
     1
102
RTVSPost2010Prop51ColorIndex
 90
      256
102
RTVSPost2010Prop51ColorRGB
 90
-16777216
102
RTVSPost2010PropOp51
 70
     0
102
RTVSPost2010Prop52
140
1.0
102
RTVSPost2010PropOp52
 70
     0
102
RTVSPost2010Prop53
 90
        2
102
RTVSPost2010PropOp53
 70
     1
102
RTVSPost2010Prop54
  1
strokes_ogs.tif
102
RTVSPost2010PropOp54
 70
     1
102
RTVSPost2010Prop55
280
     0
102
RTVSPost2010PropOp55
 70
     1
102
RTVSPost2010Prop56
140
1.0
102
RTVSPost2010PropOp56
 70
     1
102
RTVSPost2010Prop57
140
1.0
102
RTVSPost2010PropOp57
 70
     1
102
RTVSPropertyOp0
 70
     1
102
RTVSPropertyOp1
 70
     1
102
RTVSPropertyOp2
 70
     1
102
RTVSPropertyOp3
 70
     1
102
RTVSPropertyOp4
 70
     1
102
RTVSPropertyOp5
 70
     1
102
RTVSPropertyOp6
 70
     1
102
RTVSPropertyOp7
 70
     1
102
RTVSPropertyOp8
 70
     1
102
RTVSPropertyOp9
 70
     1
102
RTVSPropertyOp10
 70
     1
102
RTVSPropertyOp11
 70
     1
102
RTVSPropertyOp12
 70
     1
102
RTVSPropertyOp13
 70
     1
102
RTVSPropertyOp14
 70
     1
102
RTVSPropertyOp15
 70
     1
102
RTVSPropertyOp16
 70
     1
102
RTVSPropertyOp17
 70
     1
102
RTVSPropertyOp18
 70
     1
102
RTVSPropertyOp19
 70
     1
102
RTVSPropertyOp20
 70
     1
102
RTVSPropertyOp21
 70
     1
102
RTVSPropertyOp22
 70
     1
102
RTVSPropertyOp23
 70
     1
102
RTVSPropertyOp24
 70
     1
102
RTVSPropertyOp25
 70
     1
102
RTVSPropertyOp26
 70
     1
102
RTVSPropertyOp27
 70
     1
102
RTVSPropertyOp28
 70
     1
102
RTVSPropertyOp29
 70
     1
102
RTVSPropertyOp30
 70
     1
102
RTVSPropertyOp31
 70
     1
102
RTVSPropertyOp32
 70
     1
102
RTVSPropertyOp33
 70
     1
102
RTVSPropertyOp34
 70
     1
102
RTVSPropertyOp35
 70
     1
102
RTVSPropertyOp36
 70
     1
102
RTVSPropertyOp37
 70
     1
102
RTVSPropertyOp38
 70
     1
102
RTVSPropertyOp39
 70
     1
102
RTVSPropertyOp40
 70
     1
102
RTVSPropertyOp41
 70
     1
102
RTVSPropertyOp42
 70
     1
102
RTVSPropertyOp43
 70
     1
102
RTVSPropertyOp44
 70
     1
102
RTVSPropertyOp45
 70
     1
102
RTVSPropertyOp46
 70
     1
102
RTVSPropertyOp47
 70
     1
102
RTVSPropertyOp48
 70
     1
102
RTVSPropertyOp49
 70
     1
102
RTVSPropertyOp50
 70
     1
102
RTVSPropertyOp51
 70
     0
102
RTVSPropertyOp52
 70
     0
102
RTVSPropertyOp53
 70
     1
102
RTVSPropertyOp54
 70
     1
102
RTVSPropertyOp55
 70
     1
102
RTVSPropertyOp56
 70
     1
102
RTVSPropertyOp57
 70
     1
102
RTVSPropertyOp58
 70
     1
102
RTVSPropertyOp59
 70
     1
102
RTVSPropertyOp60
 70
     1
102
RTVSPropertyOp61
 70
     1
102
RTVSPropertyOp62
 70
     1
  0
XRECORD
  5
14286
102
{ACAD_REACTORS
330
14285
102
}
330
14285
100
AcDbXrecord
280
     1
102
RTVSPost2010Prop28
280
     0
102
RTVSPost2010PropOp28
 70
     1
102
RTVSPost2010Prop29
280
     1
102
RTVSPost2010PropOp29
 70
     1
102
RTVSPost2010Prop30
280
     1
102
RTVSPost2010PropOp30
 70
     1
102
RTVSPost2010Prop31
280
     0
102
RTVSPost2010PropOp31
 70
     1
102
RTVSPost2010Prop32
280
     0
102
RTVSPost2010PropOp32
 70
     1
102
RTVSPost2010Prop33
280
     0
102
RTVSPost2010PropOp33
 70
     1
102
RTVSPost2010Prop34
280
     0
102
RTVSPost2010PropOp34
 70
     1
102
RTVSPost2010Prop35
280
     0
102
RTVSPost2010PropOp35
 70
     1
102
RTVSPost2010Prop36
280
     0
102
RTVSPost2010PropOp36
 70
     1
102
RTVSPost2010Prop37
 90
       50
102
RTVSPost2010PropOp37
 70
     1
102
RTVSPost2010Prop38
140
0.0
102
RTVSPost2010PropOp38
 70
     1
102
RTVSPost2010Prop39
140
1.0
102
RTVSPost2010PropOp39
 70
     1
102
RTVSPost2010Prop40
 90
        0
102
RTVSPost2010PropOp40
 70
     1
102
RTVSPost2010Prop41ColorIndex
 90
       18
102
RTVSPost2010Prop41ColorRGB
 90
        0
102
RTVSPost2010PropOp41
 70
     1
102
RTVSPost2010Prop42
 90
       50
102
RTVSPost2010PropOp42
 70
     1
102
RTVSPost2010Prop43
 90
        3
102
RTVSPost2010PropOp43
 70
     1
102
RTVSPost2010Prop44ColorIndex
 90
        5
102
RTVSPost2010Prop44ColorRGB
 90
      255
102
RTVSPost2010PropOp44
 70
     1
102
RTVSPost2010Prop45
280
     0
102
RTVSPost2010PropOp45
 70
     1
102
RTVSPost2010Prop46
 90
       50
102
RTVSPost2010PropOp46
 70
     1
102
RTVSPost2010Prop47
 90
       50
102
RTVSPost2010PropOp47
 70
     1
102
RTVSPost2010Prop48
 90
       50
102
RTVSPost2010PropOp48
 70
     1
102
RTVSPost2010Prop49
280
     0
102
RTVSPost2010PropOp49
 70
     1
102
RTVSPost2010Prop50
 90
       50
102
RTVSPost2010PropOp50
 70
     1
102
RTVSPost2010Prop51ColorIndex
 90
      256
102
RTVSPost2010Prop51ColorRGB
 90
-16777216
102
RTVSPost2010PropOp51
 70
     0
102
RTVSPost2010Prop52
140
1.0
102
RTVSPost2010PropOp52
 70
     0
102
RTVSPost2010Prop53
 90
        2
102
RTVSPost2010PropOp53
 70
     1
102
RTVSPost2010Prop54
  1
strokes_ogs.tif
102
RTVSPost2010PropOp54
 70
     1
102
RTVSPost2010Prop55
280
     0
102
RTVSPost2010PropOp55
 70
     1
102
RTVSPost2010Prop56
140
1.0
102
RTVSPost2010PropOp56
 70
     1
102
RTVSPost2010Prop57
140
1.0
102
RTVSPost2010PropOp57
 70
     1
102
RTVSPropertyOp0
 70
     1
102
RTVSPropertyOp1
 70
     1
102
RTVSPropertyOp2
 70
     1
102
RTVSPropertyOp3
 70
     1
102
RTVSPropertyOp4
 70
     1
102
RTVSPropertyOp5
 70
     1
102
RTVSPropertyOp6
 70
     1
102
RTVSPropertyOp7
 70
     1
102
RTVSPropertyOp8
 70
     1
102
RTVSPropertyOp9
 70
     1
102
RTVSPropertyOp10
 70
     1
102
RTVSPropertyOp11
 70
     1
102
RTVSPropertyOp12
 70
     1
102
RTVSPropertyOp13
 70
     1
102
RTVSPropertyOp14
 70
     1
102
RTVSPropertyOp15
 70
     1
102
RTVSPropertyOp16
 70
     1
102
RTVSPropertyOp17
 70
     1
102
RTVSPropertyOp18
 70
     1
102
RTVSPropertyOp19
 70
     1
102
RTVSPropertyOp20
 70
     1
102
RTVSPropertyOp21
 70
     1
102
RTVSPropertyOp22
 70
     1
102
RTVSPropertyOp23
 70
     1
102
RTVSPropertyOp24
 70
     1
102
RTVSPropertyOp25
 70
     1
102
RTVSPropertyOp26
 70
     1
102
RTVSPropertyOp27
 70
     1
102
RTVSPropertyOp28
 70
     1
102
RTVSPropertyOp29
 70
     1
102
RTVSPropertyOp30
 70
     1
102
RTVSPropertyOp31
 70
     1
102
RTVSPropertyOp32
 70
     1
102
RTVSPropertyOp33
 70
     1
102
RTVSPropertyOp34
 70
     1
102
RTVSPropertyOp35
 70
     1
102
RTVSPropertyOp36
 70
     1
102
RTVSPropertyOp37
 70
     1
102
RTVSPropertyOp38
 70
     1
102
RTVSPropertyOp39
 70
     1
102
RTVSPropertyOp40
 70
     1
102
RTVSPropertyOp41
 70
     1
102
RTVSPropertyOp42
 70
     1
102
RTVSPropertyOp43
 70
     1
102
RTVSPropertyOp44
 70
     1
102
RTVSPropertyOp45
 70
     1
102
RTVSPropertyOp46
 70
     1
102
RTVSPropertyOp47
 70
     1
102
RTVSPropertyOp48
 70
     1
102
RTVSPropertyOp49
 70
     1
102
RTVSPropertyOp50
 70
     1
102
RTVSPropertyOp51
 70
     0
102
RTVSPropertyOp52
 70
     0
102
RTVSPropertyOp53
 70
     1
102
RTVSPropertyOp54
 70
     1
102
RTVSPropertyOp55
 70
     1
102
RTVSPropertyOp56
 70
     1
102
RTVSPropertyOp57
 70
     1
102
RTVSPropertyOp58
 70
     1
102
RTVSPropertyOp59
 70
     1
102
RTVSPropertyOp60
 70
     1
102
RTVSPropertyOp61
 70
     1
102
RTVSPropertyOp62
 70
     1
  0
XRECORD
  5
14278
102
{ACAD_REACTORS
330
14277
102
}
330
14277
100
AcDbXrecord
280
     1
102
RTVSPost2010Prop28
280
     0
102
RTVSPost2010PropOp28
 70
     1
102
RTVSPost2010Prop29
280
     1
102
RTVSPost2010PropOp29
 70
     1
102
RTVSPost2010Prop30
280
     1
102
RTVSPost2010PropOp30
 70
     1
102
RTVSPost2010Prop31
280
     0
102
RTVSPost2010PropOp31
 70
     1
102
RTVSPost2010Prop32
280
     0
102
RTVSPost2010PropOp32
 70
     1
102
RTVSPost2010Prop33
280
     0
102
RTVSPost2010PropOp33
 70
     1
102
RTVSPost2010Prop34
280
     0
102
RTVSPost2010PropOp34
 70
     1
102
RTVSPost2010Prop35
280
     0
102
RTVSPost2010PropOp35
 70
     1
102
RTVSPost2010Prop36
280
     0
102
RTVSPost2010PropOp36
 70
     1
102
RTVSPost2010Prop37
 90
       50
102
RTVSPost2010PropOp37
 70
     1
102
RTVSPost2010Prop38
140
0.0
102
RTVSPost2010PropOp38
 70
     1
102
RTVSPost2010Prop39
140
1.0
102
RTVSPost2010PropOp39
 70
     1
102
RTVSPost2010Prop40
 90
        0
102
RTVSPost2010PropOp40
 70
     1
102
RTVSPost2010Prop41ColorIndex
 90
       18
102
RTVSPost2010Prop41ColorRGB
 90
        0
102
RTVSPost2010PropOp41
 70
     1
102
RTVSPost2010Prop42
 90
       50
102
RTVSPost2010PropOp42
 70
     1
102
RTVSPost2010Prop43
 90
        3
102
RTVSPost2010PropOp43
 70
     1
102
RTVSPost2010Prop44ColorIndex
 90
        5
102
RTVSPost2010Prop44ColorRGB
 90
      255
102
RTVSPost2010PropOp44
 70
     1
102
RTVSPost2010Prop45
280
     0
102
RTVSPost2010PropOp45
 70
     1
102
RTVSPost2010Prop46
 90
       50
102
RTVSPost2010PropOp46
 70
     1
102
RTVSPost2010Prop47
 90
       50
102
RTVSPost2010PropOp47
 70
     1
102
RTVSPost2010Prop48
 90
       50
102
RTVSPost2010PropOp48
 70
     1
102
RTVSPost2010Prop49
280
     0
102
RTVSPost2010PropOp49
 70
     1
102
RTVSPost2010Prop50
 90
       50
102
RTVSPost2010PropOp50
 70
     1
102
RTVSPost2010Prop51ColorIndex
 90
      256
102
RTVSPost2010Prop51ColorRGB
 90
-16777216
102
RTVSPost2010PropOp51
 70
     0
102
RTVSPost2010Prop52
140
1.0
102
RTVSPost2010PropOp52
 70
     0
102
RTVSPost2010Prop53
 90
        2
102
RTVSPost2010PropOp53
 70
     1
102
RTVSPost2010Prop54
  1
strokes_ogs.tif
102
RTVSPost2010PropOp54
 70
     1
102
RTVSPost2010Prop55
280
     0
102
RTVSPost2010PropOp55
 70
     1
102
RTVSPost2010Prop56
140
1.0
102
RTVSPost2010PropOp56
 70
     1
102
RTVSPost2010Prop57
140
1.0
102
RTVSPost2010PropOp57
 70
     1
102
RTVSPropertyOp0
 70
     1
102
RTVSPropertyOp1
 70
     1
102
RTVSPropertyOp2
 70
     1
102
RTVSPropertyOp3
 70
     1
102
RTVSPropertyOp4
 70
     1
102
RTVSPropertyOp5
 70
     1
102
RTVSPropertyOp6
 70
     1
102
RTVSPropertyOp7
 70
     1
102
RTVSPropertyOp8
 70
     1
102
RTVSPropertyOp9
 70
     1
102
RTVSPropertyOp10
 70
     1
102
RTVSPropertyOp11
 70
     1
102
RTVSPropertyOp12
 70
     1
102
RTVSPropertyOp13
 70
     1
102
RTVSPropertyOp14
 70
     1
102
RTVSPropertyOp15
 70
     1
102
RTVSPropertyOp16
 70
     1
102
RTVSPropertyOp17
 70
     1
102
RTVSPropertyOp18
 70
     1
102
RTVSPropertyOp19
 70
     1
102
RTVSPropertyOp20
 70
     1
102
RTVSPropertyOp21
 70
     1
102
RTVSPropertyOp22
 70
     1
102
RTVSPropertyOp23
 70
     1
102
RTVSPropertyOp24
 70
     1
102
RTVSPropertyOp25
 70
     1
102
RTVSPropertyOp26
 70
     1
102
RTVSPropertyOp27
 70
     1
102
RTVSPropertyOp28
 70
     1
102
RTVSPropertyOp29
 70
     1
102
RTVSPropertyOp30
 70
     1
102
RTVSPropertyOp31
 70
     1
102
RTVSPropertyOp32
 70
     1
102
RTVSPropertyOp33
 70
     1
102
RTVSPropertyOp34
 70
     1
102
RTVSPropertyOp35
 70
     1
102
RTVSPropertyOp36
 70
     1
102
RTVSPropertyOp37
 70
     1
102
RTVSPropertyOp38
 70
     1
102
RTVSPropertyOp39
 70
     1
102
RTVSPropertyOp40
 70
     1
102
RTVSPropertyOp41
 70
     1
102
RTVSPropertyOp42
 70
     1
102
RTVSPropertyOp43
 70
     1
102
RTVSPropertyOp44
 70
     1
102
RTVSPropertyOp45
 70
     1
102
RTVSPropertyOp46
 70
     1
102
RTVSPropertyOp47
 70
     1
102
RTVSPropertyOp48
 70
     1
102
RTVSPropertyOp49
 70
     1
102
RTVSPropertyOp50
 70
     1
102
RTVSPropertyOp51
 70
     0
102
RTVSPropertyOp52
 70
     0
102
RTVSPropertyOp53
 70
     1
102
RTVSPropertyOp54
 70
     1
102
RTVSPropertyOp55
 70
     1
102
RTVSPropertyOp56
 70
     1
102
RTVSPropertyOp57
 70
     1
102
RTVSPropertyOp58
 70
     1
102
RTVSPropertyOp59
 70
     1
102
RTVSPropertyOp60
 70
     1
102
RTVSPropertyOp61
 70
     1
102
RTVSPropertyOp62
 70
     1
  0
XRECORD
  5
1427C
102
{ACAD_REACTORS
330
1427B
102
}
330
1427B
100
AcDbXrecord
280
     1
102
RTVSPost2010Prop28
280
     0
102
RTVSPost2010PropOp28
 70
     1
102
RTVSPost2010Prop29
280
     1
102
RTVSPost2010PropOp29
 70
     1
102
RTVSPost2010Prop30
280
     1
102
RTVSPost2010PropOp30
 70
     1
102
RTVSPost2010Prop31
280
     0
102
RTVSPost2010PropOp31
 70
     1
102
RTVSPost2010Prop32
280
     0
102
RTVSPost2010PropOp32
 70
     1
102
RTVSPost2010Prop33
280
     0
102
RTVSPost2010PropOp33
 70
     1
102
RTVSPost2010Prop34
280
     0
102
RTVSPost2010PropOp34
 70
     1
102
RTVSPost2010Prop35
280
     0
102
RTVSPost2010PropOp35
 70
     1
102
RTVSPost2010Prop36
280
     0
102
RTVSPost2010PropOp36
 70
     1
102
RTVSPost2010Prop37
 90
       50
102
RTVSPost2010PropOp37
 70
     1
102
RTVSPost2010Prop38
140
0.0
102
RTVSPost2010PropOp38
 70
     1
102
RTVSPost2010Prop39
140
1.0
102
RTVSPost2010PropOp39
 70
     1
102
RTVSPost2010Prop40
 90
        0
102
RTVSPost2010PropOp40
 70
     1
102
RTVSPost2010Prop41ColorIndex
 90
       18
102
RTVSPost2010Prop41ColorRGB
 90
        0
102
RTVSPost2010PropOp41
 70
     1
102
RTVSPost2010Prop42
 90
       50
102
RTVSPost2010PropOp42
 70
     1
102
RTVSPost2010Prop43
 90
        3
102
RTVSPost2010PropOp43
 70
     1
102
RTVSPost2010Prop44ColorIndex
 90
        5
102
RTVSPost2010Prop44ColorRGB
 90
      255
102
RTVSPost2010PropOp44
 70
     1
102
RTVSPost2010Prop45
280
     0
102
RTVSPost2010PropOp45
 70
     1
102
RTVSPost2010Prop46
 90
       50
102
RTVSPost2010PropOp46
 70
     1
102
RTVSPost2010Prop47
 90
       50
102
RTVSPost2010PropOp47
 70
     1
102
RTVSPost2010Prop48
 90
       50
102
RTVSPost2010PropOp48
 70
     1
102
RTVSPost2010Prop49
280
     0
102
RTVSPost2010PropOp49
 70
     1
102
RTVSPost2010Prop50
 90
       50
102
RTVSPost2010PropOp50
 70
     1
102
RTVSPost2010Prop51ColorIndex
 90
      256
102
RTVSPost2010Prop51ColorRGB
 90
-16777216
102
RTVSPost2010PropOp51
 70
     0
102
RTVSPost2010Prop52
140
1.0
102
RTVSPost2010PropOp52
 70
     0
102
RTVSPost2010Prop53
 90
        2
102
RTVSPost2010PropOp53
 70
     1
102
RTVSPost2010Prop54
  1
strokes_ogs.tif
102
RTVSPost2010PropOp54
 70
     1
102
RTVSPost2010Prop55
280
     0
102
RTVSPost2010PropOp55
 70
     1
102
RTVSPost2010Prop56
140
1.0
102
RTVSPost2010PropOp56
 70
     1
102
RTVSPost2010Prop57
140
1.0
102
RTVSPost2010PropOp57
 70
     1
102
RTVSPropertyOp0
 70
     1
102
RTVSPropertyOp1
 70
     1
102
RTVSPropertyOp2
 70
     1
102
RTVSPropertyOp3
 70
     1
102
RTVSPropertyOp4
 70
     1
102
RTVSPropertyOp5
 70
     1
102
RTVSPropertyOp6
 70
     1
102
RTVSPropertyOp7
 70
     1
102
RTVSPropertyOp8
 70
     1
102
RTVSPropertyOp9
 70
     1
102
RTVSPropertyOp10
 70
     1
102
RTVSPropertyOp11
 70
     1
102
RTVSPropertyOp12
 70
     1
102
RTVSPropertyOp13
 70
     1
102
RTVSPropertyOp14
 70
     1
102
RTVSPropertyOp15
 70
     1
102
RTVSPropertyOp16
 70
     1
102
RTVSPropertyOp17
 70
     1
102
RTVSPropertyOp18
 70
     1
102
RTVSPropertyOp19
 70
     1
102
RTVSPropertyOp20
 70
     1
102
RTVSPropertyOp21
 70
     1
102
RTVSPropertyOp22
 70
     1
102
RTVSPropertyOp23
 70
     1
102
RTVSPropertyOp24
 70
     1
102
RTVSPropertyOp25
 70
     1
102
RTVSPropertyOp26
 70
     1
102
RTVSPropertyOp27
 70
     1
102
RTVSPropertyOp28
 70
     1
102
RTVSPropertyOp29
 70
     1
102
RTVSPropertyOp30
 70
     1
102
RTVSPropertyOp31
 70
     1
102
RTVSPropertyOp32
 70
     1
102
RTVSPropertyOp33
 70
     1
102
RTVSPropertyOp34
 70
     1
102
RTVSPropertyOp35
 70
     1
102
RTVSPropertyOp36
 70
     1
102
RTVSPropertyOp37
 70
     1
102
RTVSPropertyOp38
 70
     1
102
RTVSPropertyOp39
 70
     1
102
RTVSPropertyOp40
 70
     1
102
RTVSPropertyOp41
 70
     1
102
RTVSPropertyOp42
 70
     1
102
RTVSPropertyOp43
 70
     1
102
RTVSPropertyOp44
 70
     1
102
RTVSPropertyOp45
 70
     1
102
RTVSPropertyOp46
 70
     1
102
RTVSPropertyOp47
 70
     1
102
RTVSPropertyOp48
 70
     1
102
RTVSPropertyOp49
 70
     1
102
RTVSPropertyOp50
 70
     1
102
RTVSPropertyOp51
 70
     0
102
RTVSPropertyOp52
 70
     0
102
RTVSPropertyOp53
 70
     1
102
RTVSPropertyOp54
 70
     1
102
RTVSPropertyOp55
 70
     1
102
RTVSPropertyOp56
 70
     1
102
RTVSPropertyOp57
 70
     1
102
RTVSPropertyOp58
 70
     1
102
RTVSPropertyOp59
 70
     1
102
RTVSPropertyOp60
 70
     1
102
RTVSPropertyOp61
 70
     1
102
RTVSPropertyOp62
 70
     1
  0
XRECORD
  5
14296
102
{ACAD_REACTORS
330
14295
102
}
330
14295
100
AcDbXrecord
280
     1
102
RTVSPost2010Prop28
280
     0
102
RTVSPost2010PropOp28
 70
     1
102
RTVSPost2010Prop29
280
     1
102
RTVSPost2010PropOp29
 70
     1
102
RTVSPost2010Prop30
280
     1
102
RTVSPost2010PropOp30
 70
     1
102
RTVSPost2010Prop31
280
     0
102
RTVSPost2010PropOp31
 70
     1
102
RTVSPost2010Prop32
280
     0
102
RTVSPost2010PropOp32
 70
     1
102
RTVSPost2010Prop33
280
     0
102
RTVSPost2010PropOp33
 70
     1
102
RTVSPost2010Prop34
280
     0
102
RTVSPost2010PropOp34
 70
     1
102
RTVSPost2010Prop35
280
     0
102
RTVSPost2010PropOp35
 70
     1
102
RTVSPost2010Prop36
280
     0
102
RTVSPost2010PropOp36
 70
     1
102
RTVSPost2010Prop37
 90
       50
102
RTVSPost2010PropOp37
 70
     0
102
RTVSPost2010Prop38
140
0.0
102
RTVSPost2010PropOp38
 70
     0
102
RTVSPost2010Prop39
140
1.0
102
RTVSPost2010PropOp39
 70
     0
102
RTVSPost2010Prop40
 90
        0
102
RTVSPost2010PropOp40
 70
     0
102
RTVSPost2010Prop41ColorIndex
 90
       18
102
RTVSPost2010Prop41ColorRGB
 90
        0
102
RTVSPost2010PropOp41
 70
     0
102
RTVSPost2010Prop42
 90
       50
102
RTVSPost2010PropOp42
 70
     0
102
RTVSPost2010Prop43
 90
        3
102
RTVSPost2010PropOp43
 70
     0
102
RTVSPost2010Prop44ColorIndex
 90
        5
102
RTVSPost2010Prop44ColorRGB
 90
      255
102
RTVSPost2010PropOp44
 70
     0
102
RTVSPost2010Prop45
280
     0
102
RTVSPost2010PropOp45
 70
     1
102
RTVSPost2010Prop46
 90
       50
102
RTVSPost2010PropOp46
 70
     0
102
RTVSPost2010Prop47
 90
       50
102
RTVSPost2010PropOp47
 70
     0
102
RTVSPost2010Prop48
 90
       50
102
RTVSPost2010PropOp48
 70
     0
102
RTVSPost2010Prop49
280
     0
102
RTVSPost2010PropOp49
 70
     1
102
RTVSPost2010Prop50
 90
       50
102
RTVSPost2010PropOp50
 70
     0
102
RTVSPost2010Prop51ColorIndex
 90
      256
102
RTVSPost2010Prop51ColorRGB
 90
-16777216
102
RTVSPost2010PropOp51
 70
     0
102
RTVSPost2010Prop52
140
1.0
102
RTVSPost2010PropOp52
 70
     0
102
RTVSPost2010Prop53
 90
        2
102
RTVSPost2010PropOp53
 70
     0
102
RTVSPost2010Prop54
  1
strokes_ogs.tif
102
RTVSPost2010PropOp54
 70
     0
102
RTVSPost2010Prop55
280
     0
102
RTVSPost2010PropOp55
 70
     1
102
RTVSPost2010Prop56
140
1.0
102
RTVSPost2010PropOp56
 70
     0
102
RTVSPost2010Prop57
140
1.0
102
RTVSPost2010PropOp57
 70
     0
102
RTVSPropertyOp0
 70
     0
102
RTVSPropertyOp1
 70
     0
102
RTVSPropertyOp2
 70
     0
102
RTVSPropertyOp3
 70
     0
102
RTVSPropertyOp4
 70
     0
102
RTVSPropertyOp5
 70
     0
102
RTVSPropertyOp6
 70
     0
102
RTVSPropertyOp7
 70
     0
102
RTVSPropertyOp8
 70
     0
102
RTVSPropertyOp9
 70
     0
102
RTVSPropertyOp10
 70
     0
102
RTVSPropertyOp11
 70
     0
102
RTVSPropertyOp12
 70
     0
102
RTVSPropertyOp13
 70
     0
102
RTVSPropertyOp14
 70
     2
102
RTVSPropertyOp15
 70
     0
102
RTVSPropertyOp16
 70
     0
102
RTVSPropertyOp17
 70
     0
102
RTVSPropertyOp18
 70
     0
102
RTVSPropertyOp19
 70
     0
102
RTVSPropertyOp20
 70
     0
102
RTVSPropertyOp21
 70
     0
102
RTVSPropertyOp22
 70
     0
102
RTVSPropertyOp23
 70
     0
102
RTVSPropertyOp24
 70
     0
102
RTVSPropertyOp25
 70
     0
102
RTVSPropertyOp26
 70
     0
102
RTVSPropertyOp27
 70
     0
102
RTVSPropertyOp28
 70
     1
102
RTVSPropertyOp29
 70
     1
102
RTVSPropertyOp30
 70
     1
102
RTVSPropertyOp31
 70
     1
102
RTVSPropertyOp32
 70
     1
102
RTVSPropertyOp33
 70
     1
102
RTVSPropertyOp34
 70
     1
102
RTVSPropertyOp35
 70
     1
102
RTVSPropertyOp36
 70
     1
102
RTVSPropertyOp37
 70
     0
102
RTVSPropertyOp38
 70
     0
102
RTVSPropertyOp39
 70
     0
102
RTVSPropertyOp40
 70
     0
102
RTVSPropertyOp41
 70
     0
102
RTVSPropertyOp42
 70
     0
102
RTVSPropertyOp43
 70
     0
102
RTVSPropertyOp44
 70
     0
102
RTVSPropertyOp45
 70
     1
102
RTVSPropertyOp46
 70
     0
102
RTVSPropertyOp47
 70
     0
102
RTVSPropertyOp48
 70
     0
102
RTVSPropertyOp49
 70
     1
102
RTVSPropertyOp50
 70
     0
102
RTVSPropertyOp51
 70
     0
102
RTVSPropertyOp52
 70
     0
102
RTVSPropertyOp53
 70
     0
102
RTVSPropertyOp54
 70
     0
102
RTVSPropertyOp55
 70
     1
102
RTVSPropertyOp56
 70
     0
102
RTVSPropertyOp57
 70
     0
102
RTVSPropertyOp58
 70
     1
102
RTVSPropertyOp59
 70
     1
102
RTVSPropertyOp60
 70
     1
102
RTVSPropertyOp61
 70
     1
102
RTVSPropertyOp62
 70
     1
  0
XRECORD
  5
14284
102
{ACAD_REACTORS
330
14283
102
}
330
14283
100
AcDbXrecord
280
     1
102
RTVSPost2010Prop28
280
     0
102
RTVSPost2010PropOp28
 70
     1
102
RTVSPost2010Prop29
280
     1
102
RTVSPost2010PropOp29
 70
     1
102
RTVSPost2010Prop30
280
     1
102
RTVSPost2010PropOp30
 70
     1
102
RTVSPost2010Prop31
280
     0
102
RTVSPost2010PropOp31
 70
     1
102
RTVSPost2010Prop32
280
     0
102
RTVSPost2010PropOp32
 70
     1
102
RTVSPost2010Prop33
280
     0
102
RTVSPost2010PropOp33
 70
     1
102
RTVSPost2010Prop34
280
     0
102
RTVSPost2010PropOp34
 70
     1
102
RTVSPost2010Prop35
280
     0
102
RTVSPost2010PropOp35
 70
     1
102
RTVSPost2010Prop36
280
     0
102
RTVSPost2010PropOp36
 70
     1
102
RTVSPost2010Prop37
 90
       50
102
RTVSPost2010PropOp37
 70
     1
102
RTVSPost2010Prop38
140
0.0
102
RTVSPost2010PropOp38
 70
     1
102
RTVSPost2010Prop39
140
1.0
102
RTVSPost2010PropOp39
 70
     1
102
RTVSPost2010Prop40
 90
        0
102
RTVSPost2010PropOp40
 70
     1
102
RTVSPost2010Prop41ColorIndex
 90
       18
102
RTVSPost2010Prop41ColorRGB
 90
        0
102
RTVSPost2010PropOp41
 70
     1
102
RTVSPost2010Prop42
 90
       50
102
RTVSPost2010PropOp42
 70
     1
102
RTVSPost2010Prop43
 90
        3
102
RTVSPost2010PropOp43
 70
     1
102
RTVSPost2010Prop44ColorIndex
 90
        5
102
RTVSPost2010Prop44ColorRGB
 90
      255
102
RTVSPost2010PropOp44
 70
     1
102
RTVSPost2010Prop45
280
     0
102
RTVSPost2010PropOp45
 70
     1
102
RTVSPost2010Prop46
 90
       50
102
RTVSPost2010PropOp46
 70
     1
102
RTVSPost2010Prop47
 90
       50
102
RTVSPost2010PropOp47
 70
     1
102
RTVSPost2010Prop48
 90
       50
102
RTVSPost2010PropOp48
 70
     1
102
RTVSPost2010Prop49
280
     0
102
RTVSPost2010PropOp49
 70
     1
102
RTVSPost2010Prop50
 90
       50
102
RTVSPost2010PropOp50
 70
     1
102
RTVSPost2010Prop51ColorIndex
 90
      256
102
RTVSPost2010Prop51ColorRGB
 90
-16777216
102
RTVSPost2010PropOp51
 70
     0
102
RTVSPost2010Prop52
140
1.0
102
RTVSPost2010PropOp52
 70
     0
102
RTVSPost2010Prop53
 90
        2
102
RTVSPost2010PropOp53
 70
     1
102
RTVSPost2010Prop54
  1
strokes_ogs.tif
102
RTVSPost2010PropOp54
 70
     1
102
RTVSPost2010Prop55
280
     0
102
RTVSPost2010PropOp55
 70
     1
102
RTVSPost2010Prop56
140
1.0
102
RTVSPost2010PropOp56
 70
     1
102
RTVSPost2010Prop57
140
1.0
102
RTVSPost2010PropOp57
 70
     1
102
RTVSPropertyOp0
 70
     1
102
RTVSPropertyOp1
 70
     1
102
RTVSPropertyOp2
 70
     1
102
RTVSPropertyOp3
 70
     1
102
RTVSPropertyOp4
 70
     1
102
RTVSPropertyOp5
 70
     1
102
RTVSPropertyOp6
 70
     1
102
RTVSPropertyOp7
 70
     1
102
RTVSPropertyOp8
 70
     1
102
RTVSPropertyOp9
 70
     1
102
RTVSPropertyOp10
 70
     1
102
RTVSPropertyOp11
 70
     1
102
RTVSPropertyOp12
 70
     1
102
RTVSPropertyOp13
 70
     1
102
RTVSPropertyOp14
 70
     1
102
RTVSPropertyOp15
 70
     1
102
RTVSPropertyOp16
 70
     1
102
RTVSPropertyOp17
 70
     1
102
RTVSPropertyOp18
 70
     1
102
RTVSPropertyOp19
 70
     1
102
RTVSPropertyOp20
 70
     1
102
RTVSPropertyOp21
 70
     1
102
RTVSPropertyOp22
 70
     1
102
RTVSPropertyOp23
 70
     1
102
RTVSPropertyOp24
 70
     1
102
RTVSPropertyOp25
 70
     1
102
RTVSPropertyOp26
 70
     1
102
RTVSPropertyOp27
 70
     1
102
RTVSPropertyOp28
 70
     1
102
RTVSPropertyOp29
 70
     1
102
RTVSPropertyOp30
 70
     1
102
RTVSPropertyOp31
 70
     1
102
RTVSPropertyOp32
 70
     1
102
RTVSPropertyOp33
 70
     1
102
RTVSPropertyOp34
 70
     1
102
RTVSPropertyOp35
 70
     1
102
RTVSPropertyOp36
 70
     1
102
RTVSPropertyOp37
 70
     1
102
RTVSPropertyOp38
 70
     1
102
RTVSPropertyOp39
 70
     1
102
RTVSPropertyOp40
 70
     1
102
RTVSPropertyOp41
 70
     1
102
RTVSPropertyOp42
 70
     1
102
RTVSPropertyOp43
 70
     1
102
RTVSPropertyOp44
 70
     1
102
RTVSPropertyOp45
 70
     1
102
RTVSPropertyOp46
 70
     1
102
RTVSPropertyOp47
 70
     1
102
RTVSPropertyOp48
 70
     1
102
RTVSPropertyOp49
 70
     1
102
RTVSPropertyOp50
 70
     1
102
RTVSPropertyOp51
 70
     0
102
RTVSPropertyOp52
 70
     0
102
RTVSPropertyOp53
 70
     1
102
RTVSPropertyOp54
 70
     1
102
RTVSPropertyOp55
 70
     1
102
RTVSPropertyOp56
 70
     1
102
RTVSPropertyOp57
 70
     1
102
RTVSPropertyOp58
 70
     1
102
RTVSPropertyOp59
 70
     1
102
RTVSPropertyOp60
 70
     1
102
RTVSPropertyOp61
 70
     1
102
RTVSPropertyOp62
 70
     1
  0
XRECORD
  5
14268
102
{ACAD_REACTORS
330
14267
102
}
330
14267
100
AcDbXrecord
280
     1
102
RTVSPost2010Prop28
280
     0
102
RTVSPost2010PropOp28
 70
     1
102
RTVSPost2010Prop29
280
     1
102
RTVSPost2010PropOp29
 70
     1
102
RTVSPost2010Prop30
280
     1
102
RTVSPost2010PropOp30
 70
     1
102
RTVSPost2010Prop31
280
     0
102
RTVSPost2010PropOp31
 70
     1
102
RTVSPost2010Prop32
280
     0
102
RTVSPost2010PropOp32
 70
     1
102
RTVSPost2010Prop33
280
     0
102
RTVSPost2010PropOp33
 70
     1
102
RTVSPost2010Prop34
280
     0
102
RTVSPost2010PropOp34
 70
     1
102
RTVSPost2010Prop35
280
     0
102
RTVSPost2010PropOp35
 70
     1
102
RTVSPost2010Prop36
280
     0
102
RTVSPost2010PropOp36
 70
     1
102
RTVSPost2010Prop37
 90
       50
102
RTVSPost2010PropOp37
 70
     1
102
RTVSPost2010Prop38
140
0.0
102
RTVSPost2010PropOp38
 70
     1
102
RTVSPost2010Prop39
140
1.0
102
RTVSPost2010PropOp39
 70
     1
102
RTVSPost2010Prop40
 90
        0
102
RTVSPost2010PropOp40
 70
     1
102
RTVSPost2010Prop41ColorIndex
 90
       18
102
RTVSPost2010Prop41ColorRGB
 90
        0
102
RTVSPost2010PropOp41
 70
     1
102
RTVSPost2010Prop42
 90
       50
102
RTVSPost2010PropOp42
 70
     1
102
RTVSPost2010Prop43
 90
        3
102
RTVSPost2010PropOp43
 70
     1
102
RTVSPost2010Prop44ColorIndex
 90
        5
102
RTVSPost2010Prop44ColorRGB
 90
      255
102
RTVSPost2010PropOp44
 70
     1
102
RTVSPost2010Prop45
280
     0
102
RTVSPost2010PropOp45
 70
     1
102
RTVSPost2010Prop46
 90
       50
102
RTVSPost2010PropOp46
 70
     1
102
RTVSPost2010Prop47
 90
       50
102
RTVSPost2010PropOp47
 70
     1
102
RTVSPost2010Prop48
 90
       50
102
RTVSPost2010PropOp48
 70
     1
102
RTVSPost2010Prop49
280
     0
102
RTVSPost2010PropOp49
 70
     1
102
RTVSPost2010Prop50
 90
       50
102
RTVSPost2010PropOp50
 70
     1
102
RTVSPost2010Prop51ColorIndex
 90
      256
102
RTVSPost2010Prop51ColorRGB
 90
-16777216
102
RTVSPost2010PropOp51
 70
     0
102
RTVSPost2010Prop52
140
1.0
102
RTVSPost2010PropOp52
 70
     0
102
RTVSPost2010Prop53
 90
        2
102
RTVSPost2010PropOp53
 70
     1
102
RTVSPost2010Prop54
  1
strokes_ogs.tif
102
RTVSPost2010PropOp54
 70
     1
102
RTVSPost2010Prop55
280
     0
102
RTVSPost2010PropOp55
 70
     1
102
RTVSPost2010Prop56
140
1.0
102
RTVSPost2010PropOp56
 70
     1
102
RTVSPost2010Prop57
140
1.0
102
RTVSPost2010PropOp57
 70
     1
102
RTVSPropertyOp0
 70
     1
102
RTVSPropertyOp1
 70
     1
102
RTVSPropertyOp2
 70
     1
102
RTVSPropertyOp3
 70
     1
102
RTVSPropertyOp4
 70
     1
102
RTVSPropertyOp5
 70
     1
102
RTVSPropertyOp6
 70
     1
102
RTVSPropertyOp7
 70
     1
102
RTVSPropertyOp8
 70
     1
102
RTVSPropertyOp9
 70
     1
102
RTVSPropertyOp10
 70
     1
102
RTVSPropertyOp11
 70
     1
102
RTVSPropertyOp12
 70
     1
102
RTVSPropertyOp13
 70
     1
102
RTVSPropertyOp14
 70
     1
102
RTVSPropertyOp15
 70
     1
102
RTVSPropertyOp16
 70
     1
102
RTVSPropertyOp17
 70
     1
102
RTVSPropertyOp18
 70
     1
102
RTVSPropertyOp19
 70
     1
102
RTVSPropertyOp20
 70
     1
102
RTVSPropertyOp21
 70
     1
102
RTVSPropertyOp22
 70
     1
102
RTVSPropertyOp23
 70
     1
102
RTVSPropertyOp24
 70
     1
102
RTVSPropertyOp25
 70
     1
102
RTVSPropertyOp26
 70
     1
102
RTVSPropertyOp27
 70
     1
102
RTVSPropertyOp28
 70
     1
102
RTVSPropertyOp29
 70
     1
102
RTVSPropertyOp30
 70
     1
102
RTVSPropertyOp31
 70
     1
102
RTVSPropertyOp32
 70
     1
102
RTVSPropertyOp33
 70
     1
102
RTVSPropertyOp34
 70
     1
102
RTVSPropertyOp35
 70
     1
102
RTVSPropertyOp36
 70
     1
102
RTVSPropertyOp37
 70
     1
102
RTVSPropertyOp38
 70
     1
102
RTVSPropertyOp39
 70
     1
102
RTVSPropertyOp40
 70
     1
102
RTVSPropertyOp41
 70
     1
102
RTVSPropertyOp42
 70
     1
102
RTVSPropertyOp43
 70
     1
102
RTVSPropertyOp44
 70
     1
102
RTVSPropertyOp45
 70
     1
102
RTVSPropertyOp46
 70
     1
102
RTVSPropertyOp47
 70
     1
102
RTVSPropertyOp48
 70
     1
102
RTVSPropertyOp49
 70
     1
102
RTVSPropertyOp50
 70
     1
102
RTVSPropertyOp51
 70
     0
102
RTVSPropertyOp52
 70
     0
102
RTVSPropertyOp53
 70
     1
102
RTVSPropertyOp54
 70
     1
102
RTVSPropertyOp55
 70
     1
102
RTVSPropertyOp56
 70
     1
102
RTVSPropertyOp57
 70
     1
102
RTVSPropertyOp58
 70
     1
102
RTVSPropertyOp59
 70
     1
102
RTVSPropertyOp60
 70
     1
102
RTVSPropertyOp61
 70
     1
102
RTVSPropertyOp62
 70
     1
  0
XRECORD
  5
1426A
102
{ACAD_REACTORS
330
14269
102
}
330
14269
100
AcDbXrecord
280
     1
102
RTVSPost2010Prop28
280
     0
102
RTVSPost2010PropOp28
 70
     1
102
RTVSPost2010Prop29
280
     1
102
RTVSPost2010PropOp29
 70
     1
102
RTVSPost2010Prop30
280
     1
102
RTVSPost2010PropOp30
 70
     1
102
RTVSPost2010Prop31
280
     0
102
RTVSPost2010PropOp31
 70
     1
102
RTVSPost2010Prop32
280
     0
102
RTVSPost2010PropOp32
 70
     1
102
RTVSPost2010Prop33
280
     0
102
RTVSPost2010PropOp33
 70
     1
102
RTVSPost2010Prop34
280
     0
102
RTVSPost2010PropOp34
 70
     1
102
RTVSPost2010Prop35
280
     0
102
RTVSPost2010PropOp35
 70
     1
102
RTVSPost2010Prop36
280
     0
102
RTVSPost2010PropOp36
 70
     1
102
RTVSPost2010Prop37
 90
       50
102
RTVSPost2010PropOp37
 70
     1
102
RTVSPost2010Prop38
140
0.0
102
RTVSPost2010PropOp38
 70
     1
102
RTVSPost2010Prop39
140
1.0
102
RTVSPost2010PropOp39
 70
     1
102
RTVSPost2010Prop40
 90
        0
102
RTVSPost2010PropOp40
 70
     1
102
RTVSPost2010Prop41ColorIndex
 90
       18
102
RTVSPost2010Prop41ColorRGB
 90
        0
102
RTVSPost2010PropOp41
 70
     1
102
RTVSPost2010Prop42
 90
       50
102
RTVSPost2010PropOp42
 70
     1
102
RTVSPost2010Prop43
 90
        3
102
RTVSPost2010PropOp43
 70
     1
102
RTVSPost2010Prop44ColorIndex
 90
        5
102
RTVSPost2010Prop44ColorRGB
 90
      255
102
RTVSPost2010PropOp44
 70
     1
102
RTVSPost2010Prop45
280
     0
102
RTVSPost2010PropOp45
 70
     1
102
RTVSPost2010Prop46
 90
       50
102
RTVSPost2010PropOp46
 70
     1
102
RTVSPost2010Prop47
 90
       50
102
RTVSPost2010PropOp47
 70
     1
102
RTVSPost2010Prop48
 90
       50
102
RTVSPost2010PropOp48
 70
     1
102
RTVSPost2010Prop49
280
     0
102
RTVSPost2010PropOp49
 70
     1
102
RTVSPost2010Prop50
 90
       50
102
RTVSPost2010PropOp50
 70
     1
102
RTVSPost2010Prop51ColorIndex
 90
      256
102
RTVSPost2010Prop51ColorRGB
 90
-16777216
102
RTVSPost2010PropOp51
 70
     0
102
RTVSPost2010Prop52
140
1.0
102
RTVSPost2010PropOp52
 70
     0
102
RTVSPost2010Prop53
 90
        2
102
RTVSPost2010PropOp53
 70
     1
102
RTVSPost2010Prop54
  1
strokes_ogs.tif
102
RTVSPost2010PropOp54
 70
     1
102
RTVSPost2010Prop55
280
     0
102
RTVSPost2010PropOp55
 70
     1
102
RTVSPost2010Prop56
140
1.0
102
RTVSPost2010PropOp56
 70
     1
102
RTVSPost2010Prop57
140
1.0
102
RTVSPost2010PropOp57
 70
     1
102
RTVSPropertyOp0
 70
     1
102
RTVSPropertyOp1
 70
     1
102
RTVSPropertyOp2
 70
     1
102
RTVSPropertyOp3
 70
     1
102
RTVSPropertyOp4
 70
     1
102
RTVSPropertyOp5
 70
     1
102
RTVSPropertyOp6
 70
     1
102
RTVSPropertyOp7
 70
     1
102
RTVSPropertyOp8
 70
     1
102
RTVSPropertyOp9
 70
     1
102
RTVSPropertyOp10
 70
     1
102
RTVSPropertyOp11
 70
     1
102
RTVSPropertyOp12
 70
     1
102
RTVSPropertyOp13
 70
     1
102
RTVSPropertyOp14
 70
     1
102
RTVSPropertyOp15
 70
     1
102
RTVSPropertyOp16
 70
     1
102
RTVSPropertyOp17
 70
     1
102
RTVSPropertyOp18
 70
     1
102
RTVSPropertyOp19
 70
     1
102
RTVSPropertyOp20
 70
     1
102
RTVSPropertyOp21
 70
     1
102
RTVSPropertyOp22
 70
     1
102
RTVSPropertyOp23
 70
     1
102
RTVSPropertyOp24
 70
     1
102
RTVSPropertyOp25
 70
     1
102
RTVSPropertyOp26
 70
     1
102
RTVSPropertyOp27
 70
     1
102
RTVSPropertyOp28
 70
     1
102
RTVSPropertyOp29
 70
     1
102
RTVSPropertyOp30
 70
     1
102
RTVSPropertyOp31
 70
     1
102
RTVSPropertyOp32
 70
     1
102
RTVSPropertyOp33
 70
     1
102
RTVSPropertyOp34
 70
     1
102
RTVSPropertyOp35
 70
     1
102
RTVSPropertyOp36
 70
     1
102
RTVSPropertyOp37
 70
     1
102
RTVSPropertyOp38
 70
     1
102
RTVSPropertyOp39
 70
     1
102
RTVSPropertyOp40
 70
     1
102
RTVSPropertyOp41
 70
     1
102
RTVSPropertyOp42
 70
     1
102
RTVSPropertyOp43
 70
     1
102
RTVSPropertyOp44
 70
     1
102
RTVSPropertyOp45
 70
     1
102
RTVSPropertyOp46
 70
     1
102
RTVSPropertyOp47
 70
     1
102
RTVSPropertyOp48
 70
     1
102
RTVSPropertyOp49
 70
     1
102
RTVSPropertyOp50
 70
     1
102
RTVSPropertyOp51
 70
     0
102
RTVSPropertyOp52
 70
     0
102
RTVSPropertyOp53
 70
     1
102
RTVSPropertyOp54
 70
     1
102
RTVSPropertyOp55
 70
     1
102
RTVSPropertyOp56
 70
     1
102
RTVSPropertyOp57
 70
     1
102
RTVSPropertyOp58
 70
     1
102
RTVSPropertyOp59
 70
     1
102
RTVSPropertyOp60
 70
     1
102
RTVSPropertyOp61
 70
     1
102
RTVSPropertyOp62
 70
     1
  0
XRECORD
  5
1426C
102
{ACAD_REACTORS
330
1426B
102
}
330
1426B
100
AcDbXrecord
280
     1
102
RTVSPost2010Prop28
280
     0
102
RTVSPost2010PropOp28
 70
     1
102
RTVSPost2010Prop29
280
     1
102
RTVSPost2010PropOp29
 70
     1
102
RTVSPost2010Prop30
280
     1
102
RTVSPost2010PropOp30
 70
     1
102
RTVSPost2010Prop31
280
     0
102
RTVSPost2010PropOp31
 70
     1
102
RTVSPost2010Prop32
280
     0
102
RTVSPost2010PropOp32
 70
     1
102
RTVSPost2010Prop33
280
     0
102
RTVSPost2010PropOp33
 70
     1
102
RTVSPost2010Prop34
280
     0
102
RTVSPost2010PropOp34
 70
     1
102
RTVSPost2010Prop35
280
     0
102
RTVSPost2010PropOp35
 70
     1
102
RTVSPost2010Prop36
280
     0
102
RTVSPost2010PropOp36
 70
     1
102
RTVSPost2010Prop37
 90
       50
102
RTVSPost2010PropOp37
 70
     1
102
RTVSPost2010Prop38
140
0.0
102
RTVSPost2010PropOp38
 70
     1
102
RTVSPost2010Prop39
140
1.0
102
RTVSPost2010PropOp39
 70
     1
102
RTVSPost2010Prop40
 90
        0
102
RTVSPost2010PropOp40
 70
     1
102
RTVSPost2010Prop41ColorIndex
 90
       18
102
RTVSPost2010Prop41ColorRGB
 90
        0
102
RTVSPost2010PropOp41
 70
     1
102
RTVSPost2010Prop42
 90
       50
102
RTVSPost2010PropOp42
 70
     1
102
RTVSPost2010Prop43
 90
        3
102
RTVSPost2010PropOp43
 70
     1
102
RTVSPost2010Prop44ColorIndex
 90
        5
102
RTVSPost2010Prop44ColorRGB
 90
      255
102
RTVSPost2010PropOp44
 70
     1
102
RTVSPost2010Prop45
280
     0
102
RTVSPost2010PropOp45
 70
     1
102
RTVSPost2010Prop46
 90
       50
102
RTVSPost2010PropOp46
 70
     1
102
RTVSPost2010Prop47
 90
       50
102
RTVSPost2010PropOp47
 70
     1
102
RTVSPost2010Prop48
 90
       50
102
RTVSPost2010PropOp48
 70
     1
102
RTVSPost2010Prop49
280
     0
102
RTVSPost2010PropOp49
 70
     1
102
RTVSPost2010Prop50
 90
       50
102
RTVSPost2010PropOp50
 70
     1
102
RTVSPost2010Prop51ColorIndex
 90
      256
102
RTVSPost2010Prop51ColorRGB
 90
-16777216
102
RTVSPost2010PropOp51
 70
     0
102
RTVSPost2010Prop52
140
1.0
102
RTVSPost2010PropOp52
 70
     0
102
RTVSPost2010Prop53
 90
        2
102
RTVSPost2010PropOp53
 70
     1
102
RTVSPost2010Prop54
  1
strokes_ogs.tif
102
RTVSPost2010PropOp54
 70
     1
102
RTVSPost2010Prop55
280
     0
102
RTVSPost2010PropOp55
 70
     1
102
RTVSPost2010Prop56
140
1.0
102
RTVSPost2010PropOp56
 70
     1
102
RTVSPost2010Prop57
140
1.0
102
RTVSPost2010PropOp57
 70
     1
102
RTVSPropertyOp0
 70
     1
102
RTVSPropertyOp1
 70
     1
102
RTVSPropertyOp2
 70
     1
102
RTVSPropertyOp3
 70
     1
102
RTVSPropertyOp4
 70
     1
102
RTVSPropertyOp5
 70
     1
102
RTVSPropertyOp6
 70
     1
102
RTVSPropertyOp7
 70
     1
102
RTVSPropertyOp8
 70
     1
102
RTVSPropertyOp9
 70
     1
102
RTVSPropertyOp10
 70
     1
102
RTVSPropertyOp11
 70
     1
102
RTVSPropertyOp12
 70
     1
102
RTVSPropertyOp13
 70
     1
102
RTVSPropertyOp14
 70
     1
102
RTVSPropertyOp15
 70
     1
102
RTVSPropertyOp16
 70
     1
102
RTVSPropertyOp17
 70
     1
102
RTVSPropertyOp18
 70
     1
102
RTVSPropertyOp19
 70
     1
102
RTVSPropertyOp20
 70
     1
102
RTVSPropertyOp21
 70
     1
102
RTVSPropertyOp22
 70
     1
102
RTVSPropertyOp23
 70
     1
102
RTVSPropertyOp24
 70
     1
102
RTVSPropertyOp25
 70
     1
102
RTVSPropertyOp26
 70
     1
102
RTVSPropertyOp27
 70
     1
102
RTVSPropertyOp28
 70
     1
102
RTVSPropertyOp29
 70
     1
102
RTVSPropertyOp30
 70
     1
102
RTVSPropertyOp31
 70
     1
102
RTVSPropertyOp32
 70
     1
102
RTVSPropertyOp33
 70
     1
102
RTVSPropertyOp34
 70
     1
102
RTVSPropertyOp35
 70
     1
102
RTVSPropertyOp36
 70
     1
102
RTVSPropertyOp37
 70
     1
102
RTVSPropertyOp38
 70
     1
102
RTVSPropertyOp39
 70
     1
102
RTVSPropertyOp40
 70
     1
102
RTVSPropertyOp41
 70
     1
102
RTVSPropertyOp42
 70
     1
102
RTVSPropertyOp43
 70
     1
102
RTVSPropertyOp44
 70
     1
102
RTVSPropertyOp45
 70
     1
102
RTVSPropertyOp46
 70
     1
102
RTVSPropertyOp47
 70
     1
102
RTVSPropertyOp48
 70
     1
102
RTVSPropertyOp49
 70
     1
102
RTVSPropertyOp50
 70
     1
102
RTVSPropertyOp51
 70
     0
102
RTVSPropertyOp52
 70
     0
102
RTVSPropertyOp53
 70
     1
102
RTVSPropertyOp54
 70
     1
102
RTVSPropertyOp55
 70
     1
102
RTVSPropertyOp56
 70
     1
102
RTVSPropertyOp57
 70
     1
102
RTVSPropertyOp58
 70
     1
102
RTVSPropertyOp59
 70
     1
102
RTVSPropertyOp60
 70
     1
102
RTVSPropertyOp61
 70
     1
102
RTVSPropertyOp62
 70
     1
  0
XRECORD
  5
1426E
102
{ACAD_REACTORS
330
1426D
102
}
330
1426D
100
AcDbXrecord
280
     1
102
RTVSPost2010Prop28
280
     0
102
RTVSPost2010PropOp28
 70
     1
102
RTVSPost2010Prop29
280
     1
102
RTVSPost2010PropOp29
 70
     1
102
RTVSPost2010Prop30
280
     1
102
RTVSPost2010PropOp30
 70
     1
102
RTVSPost2010Prop31
280
     0
102
RTVSPost2010PropOp31
 70
     1
102
RTVSPost2010Prop32
280
     0
102
RTVSPost2010PropOp32
 70
     1
102
RTVSPost2010Prop33
280
     0
102
RTVSPost2010PropOp33
 70
     1
102
RTVSPost2010Prop34
280
     0
102
RTVSPost2010PropOp34
 70
     1
102
RTVSPost2010Prop35
280
     0
102
RTVSPost2010PropOp35
 70
     1
102
RTVSPost2010Prop36
280
     0
102
RTVSPost2010PropOp36
 70
     1
102
RTVSPost2010Prop37
 90
       50
102
RTVSPost2010PropOp37
 70
     1
102
RTVSPost2010Prop38
140
0.0
102
RTVSPost2010PropOp38
 70
     1
102
RTVSPost2010Prop39
140
1.0
102
RTVSPost2010PropOp39
 70
     1
102
RTVSPost2010Prop40
 90
        0
102
RTVSPost2010PropOp40
 70
     1
102
RTVSPost2010Prop41ColorIndex
 90
       18
102
RTVSPost2010Prop41ColorRGB
 90
        0
102
RTVSPost2010PropOp41
 70
     1
102
RTVSPost2010Prop42
 90
       50
102
RTVSPost2010PropOp42
 70
     1
102
RTVSPost2010Prop43
 90
        3
102
RTVSPost2010PropOp43
 70
     1
102
RTVSPost2010Prop44ColorIndex
 90
        5
102
RTVSPost2010Prop44ColorRGB
 90
      255
102
RTVSPost2010PropOp44
 70
     1
102
RTVSPost2010Prop45
280
     0
102
RTVSPost2010PropOp45
 70
     1
102
RTVSPost2010Prop46
 90
       50
102
RTVSPost2010PropOp46
 70
     1
102
RTVSPost2010Prop47
 90
       50
102
RTVSPost2010PropOp47
 70
     1
102
RTVSPost2010Prop48
 90
       50
102
RTVSPost2010PropOp48
 70
     1
102
RTVSPost2010Prop49
280
     0
102
RTVSPost2010PropOp49
 70
     1
102
RTVSPost2010Prop50
 90
       50
102
RTVSPost2010PropOp50
 70
     1
102
RTVSPost2010Prop51ColorIndex
 90
      256
102
RTVSPost2010Prop51ColorRGB
 90
-16777216
102
RTVSPost2010PropOp51
 70
     0
102
RTVSPost2010Prop52
140
1.0
102
RTVSPost2010PropOp52
 70
     0
102
RTVSPost2010Prop53
 90
        2
102
RTVSPost2010PropOp53
 70
     1
102
RTVSPost2010Prop54
  1
strokes_ogs.tif
102
RTVSPost2010PropOp54
 70
     1
102
RTVSPost2010Prop55
280
     0
102
RTVSPost2010PropOp55
 70
     1
102
RTVSPost2010Prop56
140
1.0
102
RTVSPost2010PropOp56
 70
     1
102
RTVSPost2010Prop57
140
1.0
102
RTVSPost2010PropOp57
 70
     1
102
RTVSPropertyOp0
 70
     1
102
RTVSPropertyOp1
 70
     1
102
RTVSPropertyOp2
 70
     1
102
RTVSPropertyOp3
 70
     1
102
RTVSPropertyOp4
 70
     1
102
RTVSPropertyOp5
 70
     1
102
RTVSPropertyOp6
 70
     1
102
RTVSPropertyOp7
 70
     1
102
RTVSPropertyOp8
 70
     1
102
RTVSPropertyOp9
 70
     1
102
RTVSPropertyOp10
 70
     1
102
RTVSPropertyOp11
 70
     1
102
RTVSPropertyOp12
 70
     1
102
RTVSPropertyOp13
 70
     1
102
RTVSPropertyOp14
 70
     1
102
RTVSPropertyOp15
 70
     1
102
RTVSPropertyOp16
 70
     1
102
RTVSPropertyOp17
 70
     1
102
RTVSPropertyOp18
 70
     1
102
RTVSPropertyOp19
 70
     1
102
RTVSPropertyOp20
 70
     1
102
RTVSPropertyOp21
 70
     1
102
RTVSPropertyOp22
 70
     1
102
RTVSPropertyOp23
 70
     1
102
RTVSPropertyOp24
 70
     1
102
RTVSPropertyOp25
 70
     1
102
RTVSPropertyOp26
 70
     1
102
RTVSPropertyOp27
 70
     1
102
RTVSPropertyOp28
 70
     1
102
RTVSPropertyOp29
 70
     1
102
RTVSPropertyOp30
 70
     1
102
RTVSPropertyOp31
 70
     1
102
RTVSPropertyOp32
 70
     1
102
RTVSPropertyOp33
 70
     1
102
RTVSPropertyOp34
 70
     1
102
RTVSPropertyOp35
 70
     1
102
RTVSPropertyOp36
 70
     1
102
RTVSPropertyOp37
 70
     1
102
RTVSPropertyOp38
 70
     1
102
RTVSPropertyOp39
 70
     1
102
RTVSPropertyOp40
 70
     1
102
RTVSPropertyOp41
 70
     1
102
RTVSPropertyOp42
 70
     1
102
RTVSPropertyOp43
 70
     1
102
RTVSPropertyOp44
 70
     1
102
RTVSPropertyOp45
 70
     1
102
RTVSPropertyOp46
 70
     1
102
RTVSPropertyOp47
 70
     1
102
RTVSPropertyOp48
 70
     1
102
RTVSPropertyOp49
 70
     1
102
RTVSPropertyOp50
 70
     1
102
RTVSPropertyOp51
 70
     0
102
RTVSPropertyOp52
 70
     0
102
RTVSPropertyOp53
 70
     1
102
RTVSPropertyOp54
 70
     1
102
RTVSPropertyOp55
 70
     1
102
RTVSPropertyOp56
 70
     1
102
RTVSPropertyOp57
 70
     1
102
RTVSPropertyOp58
 70
     1
102
RTVSPropertyOp59
 70
     1
102
RTVSPropertyOp60
 70
     1
102
RTVSPropertyOp61
 70
     1
102
RTVSPropertyOp62
 70
     1
  0
XRECORD
  5
14276
102
{ACAD_REACTORS
330
14275
102
}
330
14275
100
AcDbXrecord
280
     1
102
RTVSPost2010Prop28
280
     0
102
RTVSPost2010PropOp28
 70
     1
102
RTVSPost2010Prop29
280
     1
102
RTVSPost2010PropOp29
 70
     1
102
RTVSPost2010Prop30
280
     1
102
RTVSPost2010PropOp30
 70
     1
102
RTVSPost2010Prop31
280
     0
102
RTVSPost2010PropOp31
 70
     1
102
RTVSPost2010Prop32
280
     0
102
RTVSPost2010PropOp32
 70
     1
102
RTVSPost2010Prop33
280
     0
102
RTVSPost2010PropOp33
 70
     1
102
RTVSPost2010Prop34
280
     0
102
RTVSPost2010PropOp34
 70
     1
102
RTVSPost2010Prop35
280
     0
102
RTVSPost2010PropOp35
 70
     1
102
RTVSPost2010Prop36
280
     0
102
RTVSPost2010PropOp36
 70
     1
102
RTVSPost2010Prop37
 90
       50
102
RTVSPost2010PropOp37
 70
     1
102
RTVSPost2010Prop38
140
0.0
102
RTVSPost2010PropOp38
 70
     1
102
RTVSPost2010Prop39
140
1.0
102
RTVSPost2010PropOp39
 70
     1
102
RTVSPost2010Prop40
 90
        0
102
RTVSPost2010PropOp40
 70
     1
102
RTVSPost2010Prop41ColorIndex
 90
       18
102
RTVSPost2010Prop41ColorRGB
 90
        0
102
RTVSPost2010PropOp41
 70
     1
102
RTVSPost2010Prop42
 90
       50
102
RTVSPost2010PropOp42
 70
     1
102
RTVSPost2010Prop43
 90
        3
102
RTVSPost2010PropOp43
 70
     1
102
RTVSPost2010Prop44ColorIndex
 90
        5
102
RTVSPost2010Prop44ColorRGB
 90
      255
102
RTVSPost2010PropOp44
 70
     1
102
RTVSPost2010Prop45
280
     0
102
RTVSPost2010PropOp45
 70
     1
102
RTVSPost2010Prop46
 90
       50
102
RTVSPost2010PropOp46
 70
     1
102
RTVSPost2010Prop47
 90
       50
102
RTVSPost2010PropOp47
 70
     1
102
RTVSPost2010Prop48
 90
       50
102
RTVSPost2010PropOp48
 70
     1
102
RTVSPost2010Prop49
280
     0
102
RTVSPost2010PropOp49
 70
     1
102
RTVSPost2010Prop50
 90
       50
102
RTVSPost2010PropOp50
 70
     1
102
RTVSPost2010Prop51ColorIndex
 90
      256
102
RTVSPost2010Prop51ColorRGB
 90
-16777216
102
RTVSPost2010PropOp51
 70
     0
102
RTVSPost2010Prop52
140
1.0
102
RTVSPost2010PropOp52
 70
     0
102
RTVSPost2010Prop53
 90
        2
102
RTVSPost2010PropOp53
 70
     1
102
RTVSPost2010Prop54
  1
strokes_ogs.tif
102
RTVSPost2010PropOp54
 70
     1
102
RTVSPost2010Prop55
280
     0
102
RTVSPost2010PropOp55
 70
     1
102
RTVSPost2010Prop56
140
1.0
102
RTVSPost2010PropOp56
 70
     1
102
RTVSPost2010Prop57
140
1.0
102
RTVSPost2010PropOp57
 70
     1
102
RTVSPropertyOp0
 70
     1
102
RTVSPropertyOp1
 70
     1
102
RTVSPropertyOp2
 70
     1
102
RTVSPropertyOp3
 70
     1
102
RTVSPropertyOp4
 70
     1
102
RTVSPropertyOp5
 70
     1
102
RTVSPropertyOp6
 70
     1
102
RTVSPropertyOp7
 70
     1
102
RTVSPropertyOp8
 70
     1
102
RTVSPropertyOp9
 70
     1
102
RTVSPropertyOp10
 70
     1
102
RTVSPropertyOp11
 70
     1
102
RTVSPropertyOp12
 70
     1
102
RTVSPropertyOp13
 70
     1
102
RTVSPropertyOp14
 70
     1
102
RTVSPropertyOp15
 70
     1
102
RTVSPropertyOp16
 70
     1
102
RTVSPropertyOp17
 70
     1
102
RTVSPropertyOp18
 70
     1
102
RTVSPropertyOp19
 70
     1
102
RTVSPropertyOp20
 70
     1
102
RTVSPropertyOp21
 70
     1
102
RTVSPropertyOp22
 70
     1
102
RTVSPropertyOp23
 70
     1
102
RTVSPropertyOp24
 70
     1
102
RTVSPropertyOp25
 70
     1
102
RTVSPropertyOp26
 70
     1
102
RTVSPropertyOp27
 70
     1
102
RTVSPropertyOp28
 70
     1
102
RTVSPropertyOp29
 70
     1
102
RTVSPropertyOp30
 70
     1
102
RTVSPropertyOp31
 70
     1
102
RTVSPropertyOp32
 70
     1
102
RTVSPropertyOp33
 70
     1
102
RTVSPropertyOp34
 70
     1
102
RTVSPropertyOp35
 70
     1
102
RTVSPropertyOp36
 70
     1
102
RTVSPropertyOp37
 70
     1
102
RTVSPropertyOp38
 70
     1
102
RTVSPropertyOp39
 70
     1
102
RTVSPropertyOp40
 70
     1
102
RTVSPropertyOp41
 70
     1
102
RTVSPropertyOp42
 70
     1
102
RTVSPropertyOp43
 70
     1
102
RTVSPropertyOp44
 70
     1
102
RTVSPropertyOp45
 70
     1
102
RTVSPropertyOp46
 70
     1
102
RTVSPropertyOp47
 70
     1
102
RTVSPropertyOp48
 70
     1
102
RTVSPropertyOp49
 70
     1
102
RTVSPropertyOp50
 70
     1
102
RTVSPropertyOp51
 70
     0
102
RTVSPropertyOp52
 70
     0
102
RTVSPropertyOp53
 70
     1
102
RTVSPropertyOp54
 70
     1
102
RTVSPropertyOp55
 70
     1
102
RTVSPropertyOp56
 70
     1
102
RTVSPropertyOp57
 70
     1
102
RTVSPropertyOp58
 70
     1
102
RTVSPropertyOp59
 70
     1
102
RTVSPropertyOp60
 70
     1
102
RTVSPropertyOp61
 70
     1
102
RTVSPropertyOp62
 70
     1
  0
XRECORD
  5
14292
102
{ACAD_REACTORS
330
14291
102
}
330
14291
100
AcDbXrecord
280
     1
102
RTVSPost2010Prop28
280
     0
102
RTVSPost2010PropOp28
 70
     1
102
RTVSPost2010Prop29
280
     1
102
RTVSPost2010PropOp29
 70
     1
102
RTVSPost2010Prop30
280
     1
102
RTVSPost2010PropOp30
 70
     1
102
RTVSPost2010Prop31
280
     0
102
RTVSPost2010PropOp31
 70
     1
102
RTVSPost2010Prop32
280
     0
102
RTVSPost2010PropOp32
 70
     1
102
RTVSPost2010Prop33
280
     0
102
RTVSPost2010PropOp33
 70
     1
102
RTVSPost2010Prop34
280
     0
102
RTVSPost2010PropOp34
 70
     1
102
RTVSPost2010Prop35
280
     0
102
RTVSPost2010PropOp35
 70
     1
102
RTVSPost2010Prop36
280
     0
102
RTVSPost2010PropOp36
 70
     1
102
RTVSPost2010Prop37
 90
       50
102
RTVSPost2010PropOp37
 70
     0
102
RTVSPost2010Prop38
140
0.0
102
RTVSPost2010PropOp38
 70
     0
102
RTVSPost2010Prop39
140
1.0
102
RTVSPost2010PropOp39
 70
     0
102
RTVSPost2010Prop40
 90
        0
102
RTVSPost2010PropOp40
 70
     0
102
RTVSPost2010Prop41ColorIndex
 90
       18
102
RTVSPost2010Prop41ColorRGB
 90
        0
102
RTVSPost2010PropOp41
 70
     0
102
RTVSPost2010Prop42
 90
       50
102
RTVSPost2010PropOp42
 70
     0
102
RTVSPost2010Prop43
 90
        3
102
RTVSPost2010PropOp43
 70
     0
102
RTVSPost2010Prop44ColorIndex
 90
        5
102
RTVSPost2010Prop44ColorRGB
 90
      255
102
RTVSPost2010PropOp44
 70
     0
102
RTVSPost2010Prop45
280
     0
102
RTVSPost2010PropOp45
 70
     1
102
RTVSPost2010Prop46
 90
       50
102
RTVSPost2010PropOp46
 70
     0
102
RTVSPost2010Prop47
 90
       50
102
RTVSPost2010PropOp47
 70
     0
102
RTVSPost2010Prop48
 90
       50
102
RTVSPost2010PropOp48
 70
     0
102
RTVSPost2010Prop49
280
     0
102
RTVSPost2010PropOp49
 70
     1
102
RTVSPost2010Prop50
 90
       50
102
RTVSPost2010PropOp50
 70
     0
102
RTVSPost2010Prop51ColorIndex
 90
      256
102
RTVSPost2010Prop51ColorRGB
 90
-16777216
102
RTVSPost2010PropOp51
 70
     0
102
RTVSPost2010Prop52
140
1.0
102
RTVSPost2010PropOp52
 70
     0
102
RTVSPost2010Prop53
 90
        2
102
RTVSPost2010PropOp53
 70
     0
102
RTVSPost2010Prop54
  1
strokes_ogs.tif
102
RTVSPost2010PropOp54
 70
     0
102
RTVSPost2010Prop55
280
     0
102
RTVSPost2010PropOp55
 70
     1
102
RTVSPost2010Prop56
140
1.0
102
RTVSPost2010PropOp56
 70
     0
102
RTVSPost2010Prop57
140
1.0
102
RTVSPost2010PropOp57
 70
     0
102
RTVSPropertyOp0
 70
     0
102
RTVSPropertyOp1
 70
     0
102
RTVSPropertyOp2
 70
     0
102
RTVSPropertyOp3
 70
     0
102
RTVSPropertyOp4
 70
     0
102
RTVSPropertyOp5
 70
     0
102
RTVSPropertyOp6
 70
     0
102
RTVSPropertyOp7
 70
     0
102
RTVSPropertyOp8
 70
     0
102
RTVSPropertyOp9
 70
     0
102
RTVSPropertyOp10
 70
     0
102
RTVSPropertyOp11
 70
     0
102
RTVSPropertyOp12
 70
     0
102
RTVSPropertyOp13
 70
     0
102
RTVSPropertyOp14
 70
     2
102
RTVSPropertyOp15
 70
     0
102
RTVSPropertyOp16
 70
     0
102
RTVSPropertyOp17
 70
     0
102
RTVSPropertyOp18
 70
     0
102
RTVSPropertyOp19
 70
     0
102
RTVSPropertyOp20
 70
     0
102
RTVSPropertyOp21
 70
     0
102
RTVSPropertyOp22
 70
     0
102
RTVSPropertyOp23
 70
     0
102
RTVSPropertyOp24
 70
     0
102
RTVSPropertyOp25
 70
     0
102
RTVSPropertyOp26
 70
     0
102
RTVSPropertyOp27
 70
     0
102
RTVSPropertyOp28
 70
     1
102
RTVSPropertyOp29
 70
     1
102
RTVSPropertyOp30
 70
     1
102
RTVSPropertyOp31
 70
     1
102
RTVSPropertyOp32
 70
     1
102
RTVSPropertyOp33
 70
     1
102
RTVSPropertyOp34
 70
     1
102
RTVSPropertyOp35
 70
     1
102
RTVSPropertyOp36
 70
     1
102
RTVSPropertyOp37
 70
     0
102
RTVSPropertyOp38
 70
     0
102
RTVSPropertyOp39
 70
     0
102
RTVSPropertyOp40
 70
     0
102
RTVSPropertyOp41
 70
     0
102
RTVSPropertyOp42
 70
     0
102
RTVSPropertyOp43
 70
     0
102
RTVSPropertyOp44
 70
     0
102
RTVSPropertyOp45
 70
     1
102
RTVSPropertyOp46
 70
     0
102
RTVSPropertyOp47
 70
     0
102
RTVSPropertyOp48
 70
     0
102
RTVSPropertyOp49
 70
     1
102
RTVSPropertyOp50
 70
     0
102
RTVSPropertyOp51
 70
     0
102
RTVSPropertyOp52
 70
     0
102
RTVSPropertyOp53
 70
     0
102
RTVSPropertyOp54
 70
     0
102
RTVSPropertyOp55
 70
     1
102
RTVSPropertyOp56
 70
     0
102
RTVSPropertyOp57
 70
     0
102
RTVSPropertyOp58
 70
     1
102
RTVSPropertyOp59
 70
     1
102
RTVSPropertyOp60
 70
     1
102
RTVSPropertyOp61
 70
     1
102
RTVSPropertyOp62
 70
     1
  0
XRECORD
  5
14282
102
{ACAD_REACTORS
330
14281
102
}
330
14281
100
AcDbXrecord
280
     1
102
RTVSPost2010Prop28
280
     0
102
RTVSPost2010PropOp28
 70
     1
102
RTVSPost2010Prop29
280
     1
102
RTVSPost2010PropOp29
 70
     1
102
RTVSPost2010Prop30
280
     1
102
RTVSPost2010PropOp30
 70
     1
102
RTVSPost2010Prop31
280
     0
102
RTVSPost2010PropOp31
 70
     1
102
RTVSPost2010Prop32
280
     0
102
RTVSPost2010PropOp32
 70
     1
102
RTVSPost2010Prop33
280
     0
102
RTVSPost2010PropOp33
 70
     1
102
RTVSPost2010Prop34
280
     0
102
RTVSPost2010PropOp34
 70
     1
102
RTVSPost2010Prop35
280
     0
102
RTVSPost2010PropOp35
 70
     1
102
RTVSPost2010Prop36
280
     0
102
RTVSPost2010PropOp36
 70
     1
102
RTVSPost2010Prop37
 90
       50
102
RTVSPost2010PropOp37
 70
     1
102
RTVSPost2010Prop38
140
0.0
102
RTVSPost2010PropOp38
 70
     1
102
RTVSPost2010Prop39
140
1.0
102
RTVSPost2010PropOp39
 70
     1
102
RTVSPost2010Prop40
 90
        0
102
RTVSPost2010PropOp40
 70
     1
102
RTVSPost2010Prop41ColorIndex
 90
       18
102
RTVSPost2010Prop41ColorRGB
 90
        0
102
RTVSPost2010PropOp41
 70
     1
102
RTVSPost2010Prop42
 90
       50
102
RTVSPost2010PropOp42
 70
     1
102
RTVSPost2010Prop43
 90
        3
102
RTVSPost2010PropOp43
 70
     1
102
RTVSPost2010Prop44ColorIndex
 90
        5
102
RTVSPost2010Prop44ColorRGB
 90
      255
102
RTVSPost2010PropOp44
 70
     1
102
RTVSPost2010Prop45
280
     0
102
RTVSPost2010PropOp45
 70
     1
102
RTVSPost2010Prop46
 90
       50
102
RTVSPost2010PropOp46
 70
     1
102
RTVSPost2010Prop47
 90
       50
102
RTVSPost2010PropOp47
 70
     1
102
RTVSPost2010Prop48
 90
       50
102
RTVSPost2010PropOp48
 70
     1
102
RTVSPost2010Prop49
280
     0
102
RTVSPost2010PropOp49
 70
     1
102
RTVSPost2010Prop50
 90
       50
102
RTVSPost2010PropOp50
 70
     1
102
RTVSPost2010Prop51ColorIndex
 90
      256
102
RTVSPost2010Prop51ColorRGB
 90
-16777216
102
RTVSPost2010PropOp51
 70
     0
102
RTVSPost2010Prop52
140
1.0
102
RTVSPost2010PropOp52
 70
     0
102
RTVSPost2010Prop53
 90
        2
102
RTVSPost2010PropOp53
 70
     1
102
RTVSPost2010Prop54
  1
strokes_ogs.tif
102
RTVSPost2010PropOp54
 70
     1
102
RTVSPost2010Prop55
280
     0
102
RTVSPost2010PropOp55
 70
     1
102
RTVSPost2010Prop56
140
1.0
102
RTVSPost2010PropOp56
 70
     1
102
RTVSPost2010Prop57
140
1.0
102
RTVSPost2010PropOp57
 70
     1
102
RTVSPropertyOp0
 70
     1
102
RTVSPropertyOp1
 70
     1
102
RTVSPropertyOp2
 70
     1
102
RTVSPropertyOp3
 70
     1
102
RTVSPropertyOp4
 70
     1
102
RTVSPropertyOp5
 70
     1
102
RTVSPropertyOp6
 70
     1
102
RTVSPropertyOp7
 70
     1
102
RTVSPropertyOp8
 70
     1
102
RTVSPropertyOp9
 70
     1
102
RTVSPropertyOp10
 70
     1
102
RTVSPropertyOp11
 70
     1
102
RTVSPropertyOp12
 70
     1
102
RTVSPropertyOp13
 70
     1
102
RTVSPropertyOp14
 70
     1
102
RTVSPropertyOp15
 70
     1
102
RTVSPropertyOp16
 70
     1
102
RTVSPropertyOp17
 70
     1
102
RTVSPropertyOp18
 70
     1
102
RTVSPropertyOp19
 70
     1
102
RTVSPropertyOp20
 70
     1
102
RTVSPropertyOp21
 70
     1
102
RTVSPropertyOp22
 70
     1
102
RTVSPropertyOp23
 70
     1
102
RTVSPropertyOp24
 70
     1
102
RTVSPropertyOp25
 70
     1
102
RTVSPropertyOp26
 70
     1
102
RTVSPropertyOp27
 70
     1
102
RTVSPropertyOp28
 70
     1
102
RTVSPropertyOp29
 70
     1
102
RTVSPropertyOp30
 70
     1
102
RTVSPropertyOp31
 70
     1
102
RTVSPropertyOp32
 70
     1
102
RTVSPropertyOp33
 70
     1
102
RTVSPropertyOp34
 70
     1
102
RTVSPropertyOp35
 70
     1
102
RTVSPropertyOp36
 70
     1
102
RTVSPropertyOp37
 70
     1
102
RTVSPropertyOp38
 70
     1
102
RTVSPropertyOp39
 70
     1
102
RTVSPropertyOp40
 70
     1
102
RTVSPropertyOp41
 70
     1
102
RTVSPropertyOp42
 70
     1
102
RTVSPropertyOp43
 70
     1
102
RTVSPropertyOp44
 70
     1
102
RTVSPropertyOp45
 70
     1
102
RTVSPropertyOp46
 70
     1
102
RTVSPropertyOp47
 70
     1
102
RTVSPropertyOp48
 70
     1
102
RTVSPropertyOp49
 70
     1
102
RTVSPropertyOp50
 70
     1
102
RTVSPropertyOp51
 70
     0
102
RTVSPropertyOp52
 70
     0
102
RTVSPropertyOp53
 70
     1
102
RTVSPropertyOp54
 70
     1
102
RTVSPropertyOp55
 70
     1
102
RTVSPropertyOp56
 70
     1
102
RTVSPropertyOp57
 70
     1
102
RTVSPropertyOp58
 70
     1
102
RTVSPropertyOp59
 70
     1
102
RTVSPropertyOp60
 70
     1
102
RTVSPropertyOp61
 70
     1
102
RTVSPropertyOp62
 70
     1
  0
XRECORD
  5
14294
102
{ACAD_REACTORS
330
14293
102
}
330
14293
100
AcDbXrecord
280
     1
102
RTVSPost2010Prop28
280
     0
102
RTVSPost2010PropOp28
 70
     1
102
RTVSPost2010Prop29
280
     1
102
RTVSPost2010PropOp29
 70
     1
102
RTVSPost2010Prop30
280
     1
102
RTVSPost2010PropOp30
 70
     1
102
RTVSPost2010Prop31
280
     0
102
RTVSPost2010PropOp31
 70
     1
102
RTVSPost2010Prop32
280
     0
102
RTVSPost2010PropOp32
 70
     1
102
RTVSPost2010Prop33
280
     0
102
RTVSPost2010PropOp33
 70
     1
102
RTVSPost2010Prop34
280
     0
102
RTVSPost2010PropOp34
 70
     1
102
RTVSPost2010Prop35
280
     0
102
RTVSPost2010PropOp35
 70
     1
102
RTVSPost2010Prop36
280
     0
102
RTVSPost2010PropOp36
 70
     1
102
RTVSPost2010Prop37
 90
       50
102
RTVSPost2010PropOp37
 70
     0
102
RTVSPost2010Prop38
140
0.0
102
RTVSPost2010PropOp38
 70
     0
102
RTVSPost2010Prop39
140
1.0
102
RTVSPost2010PropOp39
 70
     0
102
RTVSPost2010Prop40
 90
        0
102
RTVSPost2010PropOp40
 70
     0
102
RTVSPost2010Prop41ColorIndex
 90
       18
102
RTVSPost2010Prop41ColorRGB
 90
        0
102
RTVSPost2010PropOp41
 70
     0
102
RTVSPost2010Prop42
 90
       50
102
RTVSPost2010PropOp42
 70
     0
102
RTVSPost2010Prop43
 90
        3
102
RTVSPost2010PropOp43
 70
     0
102
RTVSPost2010Prop44ColorIndex
 90
        5
102
RTVSPost2010Prop44ColorRGB
 90
      255
102
RTVSPost2010PropOp44
 70
     0
102
RTVSPost2010Prop45
280
     0
102
RTVSPost2010PropOp45
 70
     1
102
RTVSPost2010Prop46
 90
       50
102
RTVSPost2010PropOp46
 70
     0
102
RTVSPost2010Prop47
 90
       50
102
RTVSPost2010PropOp47
 70
     0
102
RTVSPost2010Prop48
 90
       50
102
RTVSPost2010PropOp48
 70
     0
102
RTVSPost2010Prop49
280
     0
102
RTVSPost2010PropOp49
 70
     1
102
RTVSPost2010Prop50
 90
       50
102
RTVSPost2010PropOp50
 70
     0
102
RTVSPost2010Prop51ColorIndex
 90
      256
102
RTVSPost2010Prop51ColorRGB
 90
-16777216
102
RTVSPost2010PropOp51
 70
     0
102
RTVSPost2010Prop52
140
1.0
102
RTVSPost2010PropOp52
 70
     0
102
RTVSPost2010Prop53
 90
        2
102
RTVSPost2010PropOp53
 70
     0
102
RTVSPost2010Prop54
  1
strokes_ogs.tif
102
RTVSPost2010PropOp54
 70
     0
102
RTVSPost2010Prop55
280
     0
102
RTVSPost2010PropOp55
 70
     1
102
RTVSPost2010Prop56
140
1.0
102
RTVSPost2010PropOp56
 70
     0
102
RTVSPost2010Prop57
140
1.0
102
RTVSPost2010PropOp57
 70
     0
102
RTVSPropertyOp0
 70
     0
102
RTVSPropertyOp1
 70
     0
102
RTVSPropertyOp2
 70
     0
102
RTVSPropertyOp3
 70
     0
102
RTVSPropertyOp4
 70
     0
102
RTVSPropertyOp5
 70
     0
102
RTVSPropertyOp6
 70
     0
102
RTVSPropertyOp7
 70
     0
102
RTVSPropertyOp8
 70
     0
102
RTVSPropertyOp9
 70
     0
102
RTVSPropertyOp10
 70
     0
102
RTVSPropertyOp11
 70
     0
102
RTVSPropertyOp12
 70
     0
102
RTVSPropertyOp13
 70
     0
102
RTVSPropertyOp14
 70
     2
102
RTVSPropertyOp15
 70
     0
102
RTVSPropertyOp16
 70
     0
102
RTVSPropertyOp17
 70
     0
102
RTVSPropertyOp18
 70
     0
102
RTVSPropertyOp19
 70
     0
102
RTVSPropertyOp20
 70
     0
102
RTVSPropertyOp21
 70
     0
102
RTVSPropertyOp22
 70
     0
102
RTVSPropertyOp23
 70
     0
102
RTVSPropertyOp24
 70
     0
102
RTVSPropertyOp25
 70
     0
102
RTVSPropertyOp26
 70
     0
102
RTVSPropertyOp27
 70
     0
102
RTVSPropertyOp28
 70
     1
102
RTVSPropertyOp29
 70
     1
102
RTVSPropertyOp30
 70
     1
102
RTVSPropertyOp31
 70
     1
102
RTVSPropertyOp32
 70
     1
102
RTVSPropertyOp33
 70
     1
102
RTVSPropertyOp34
 70
     1
102
RTVSPropertyOp35
 70
     1
102
RTVSPropertyOp36
 70
     1
102
RTVSPropertyOp37
 70
     0
102
RTVSPropertyOp38
 70
     0
102
RTVSPropertyOp39
 70
     0
102
RTVSPropertyOp40
 70
     0
102
RTVSPropertyOp41
 70
     0
102
RTVSPropertyOp42
 70
     0
102
RTVSPropertyOp43
 70
     0
102
RTVSPropertyOp44
 70
     0
102
RTVSPropertyOp45
 70
     1
102
RTVSPropertyOp46
 70
     0
102
RTVSPropertyOp47
 70
     0
102
RTVSPropertyOp48
 70
     0
102
RTVSPropertyOp49
 70
     1
102
RTVSPropertyOp50
 70
     0
102
RTVSPropertyOp51
 70
     0
102
RTVSPropertyOp52
 70
     0
102
RTVSPropertyOp53
 70
     0
102
RTVSPropertyOp54
 70
     0
102
RTVSPropertyOp55
 70
     1
102
RTVSPropertyOp56
 70
     0
102
RTVSPropertyOp57
 70
     0
102
RTVSPropertyOp58
 70
     1
102
RTVSPropertyOp59
 70
     1
102
RTVSPropertyOp60
 70
     1
102
RTVSPropertyOp61
 70
     1
102
RTVSPropertyOp62
 70
     1
  0
XRECORD
  5
1427A
102
{ACAD_REACTORS
330
14279
102
}
330
14279
100
AcDbXrecord
280
     1
102
RTVSPost2010Prop28
280
     0
102
RTVSPost2010PropOp28
 70
     1
102
RTVSPost2010Prop29
280
     1
102
RTVSPost2010PropOp29
 70
     1
102
RTVSPost2010Prop30
280
     1
102
RTVSPost2010PropOp30
 70
     1
102
RTVSPost2010Prop31
280
     0
102
RTVSPost2010PropOp31
 70
     1
102
RTVSPost2010Prop32
280
     0
102
RTVSPost2010PropOp32
 70
     1
102
RTVSPost2010Prop33
280
     0
102
RTVSPost2010PropOp33
 70
     1
102
RTVSPost2010Prop34
280
     0
102
RTVSPost2010PropOp34
 70
     1
102
RTVSPost2010Prop35
280
     0
102
RTVSPost2010PropOp35
 70
     1
102
RTVSPost2010Prop36
280
     0
102
RTVSPost2010PropOp36
 70
     1
102
RTVSPost2010Prop37
 90
       50
102
RTVSPost2010PropOp37
 70
     1
102
RTVSPost2010Prop38
140
0.0
102
RTVSPost2010PropOp38
 70
     1
102
RTVSPost2010Prop39
140
1.0
102
RTVSPost2010PropOp39
 70
     1
102
RTVSPost2010Prop40
 90
        0
102
RTVSPost2010PropOp40
 70
     1
102
RTVSPost2010Prop41ColorIndex
 90
       18
102
RTVSPost2010Prop41ColorRGB
 90
        0
102
RTVSPost2010PropOp41
 70
     1
102
RTVSPost2010Prop42
 90
       50
102
RTVSPost2010PropOp42
 70
     1
102
RTVSPost2010Prop43
 90
        3
102
RTVSPost2010PropOp43
 70
     1
102
RTVSPost2010Prop44ColorIndex
 90
        5
102
RTVSPost2010Prop44ColorRGB
 90
      255
102
RTVSPost2010PropOp44
 70
     1
102
RTVSPost2010Prop45
280
     0
102
RTVSPost2010PropOp45
 70
     1
102
RTVSPost2010Prop46
 90
       50
102
RTVSPost2010PropOp46
 70
     1
102
RTVSPost2010Prop47
 90
       50
102
RTVSPost2010PropOp47
 70
     1
102
RTVSPost2010Prop48
 90
       50
102
RTVSPost2010PropOp48
 70
     1
102
RTVSPost2010Prop49
280
     0
102
RTVSPost2010PropOp49
 70
     1
102
RTVSPost2010Prop50
 90
       50
102
RTVSPost2010PropOp50
 70
     1
102
RTVSPost2010Prop51ColorIndex
 90
      256
102
RTVSPost2010Prop51ColorRGB
 90
-16777216
102
RTVSPost2010PropOp51
 70
     0
102
RTVSPost2010Prop52
140
1.0
102
RTVSPost2010PropOp52
 70
     0
102
RTVSPost2010Prop53
 90
        2
102
RTVSPost2010PropOp53
 70
     1
102
RTVSPost2010Prop54
  1
strokes_ogs.tif
102
RTVSPost2010PropOp54
 70
     1
102
RTVSPost2010Prop55
280
     0
102
RTVSPost2010PropOp55
 70
     1
102
RTVSPost2010Prop56
140
1.0
102
RTVSPost2010PropOp56
 70
     1
102
RTVSPost2010Prop57
140
1.0
102
RTVSPost2010PropOp57
 70
     1
102
RTVSPropertyOp0
 70
     1
102
RTVSPropertyOp1
 70
     1
102
RTVSPropertyOp2
 70
     1
102
RTVSPropertyOp3
 70
     1
102
RTVSPropertyOp4
 70
     1
102
RTVSPropertyOp5
 70
     1
102
RTVSPropertyOp6
 70
     1
102
RTVSPropertyOp7
 70
     1
102
RTVSPropertyOp8
 70
     1
102
RTVSPropertyOp9
 70
     1
102
RTVSPropertyOp10
 70
     1
102
RTVSPropertyOp11
 70
     1
102
RTVSPropertyOp12
 70
     1
102
RTVSPropertyOp13
 70
     1
102
RTVSPropertyOp14
 70
     1
102
RTVSPropertyOp15
 70
     1
102
RTVSPropertyOp16
 70
     1
102
RTVSPropertyOp17
 70
     1
102
RTVSPropertyOp18
 70
     1
102
RTVSPropertyOp19
 70
     1
102
RTVSPropertyOp20
 70
     1
102
RTVSPropertyOp21
 70
     1
102
RTVSPropertyOp22
 70
     1
102
RTVSPropertyOp23
 70
     1
102
RTVSPropertyOp24
 70
     1
102
RTVSPropertyOp25
 70
     1
102
RTVSPropertyOp26
 70
     1
102
RTVSPropertyOp27
 70
     1
102
RTVSPropertyOp28
 70
     1
102
RTVSPropertyOp29
 70
     1
102
RTVSPropertyOp30
 70
     1
102
RTVSPropertyOp31
 70
     1
102
RTVSPropertyOp32
 70
     1
102
RTVSPropertyOp33
 70
     1
102
RTVSPropertyOp34
 70
     1
102
RTVSPropertyOp35
 70
     1
102
RTVSPropertyOp36
 70
     1
102
RTVSPropertyOp37
 70
     1
102
RTVSPropertyOp38
 70
     1
102
RTVSPropertyOp39
 70
     1
102
RTVSPropertyOp40
 70
     1
102
RTVSPropertyOp41
 70
     1
102
RTVSPropertyOp42
 70
     1
102
RTVSPropertyOp43
 70
     1
102
RTVSPropertyOp44
 70
     1
102
RTVSPropertyOp45
 70
     1
102
RTVSPropertyOp46
 70
     1
102
RTVSPropertyOp47
 70
     1
102
RTVSPropertyOp48
 70
     1
102
RTVSPropertyOp49
 70
     1
102
RTVSPropertyOp50
 70
     1
102
RTVSPropertyOp51
 70
     0
102
RTVSPropertyOp52
 70
     0
102
RTVSPropertyOp53
 70
     1
102
RTVSPropertyOp54
 70
     1
102
RTVSPropertyOp55
 70
     1
102
RTVSPropertyOp56
 70
     1
102
RTVSPropertyOp57
 70
     1
102
RTVSPropertyOp58
 70
     1
102
RTVSPropertyOp59
 70
     1
102
RTVSPropertyOp60
 70
     1
102
RTVSPropertyOp61
 70
     1
102
RTVSPropertyOp62
 70
     1
  0
XRECORD
  5
14290
102
{ACAD_REACTORS
330
1428F
102
}
330
1428F
100
AcDbXrecord
280
     1
102
RTVSPost2010Prop28
280
     0
102
RTVSPost2010PropOp28
 70
     1
102
RTVSPost2010Prop29
280
     1
102
RTVSPost2010PropOp29
 70
     1
102
RTVSPost2010Prop30
280
     1
102
RTVSPost2010PropOp30
 70
     1
102
RTVSPost2010Prop31
280
     0
102
RTVSPost2010PropOp31
 70
     1
102
RTVSPost2010Prop32
280
     0
102
RTVSPost2010PropOp32
 70
     1
102
RTVSPost2010Prop33
280
     0
102
RTVSPost2010PropOp33
 70
     1
102
RTVSPost2010Prop34
280
     0
102
RTVSPost2010PropOp34
 70
     1
102
RTVSPost2010Prop35
280
     0
102
RTVSPost2010PropOp35
 70
     1
102
RTVSPost2010Prop36
280
     0
102
RTVSPost2010PropOp36
 70
     1
102
RTVSPost2010Prop37
 90
       50
102
RTVSPost2010PropOp37
 70
     1
102
RTVSPost2010Prop38
140
0.0
102
RTVSPost2010PropOp38
 70
     1
102
RTVSPost2010Prop39
140
1.0
102
RTVSPost2010PropOp39
 70
     1
102
RTVSPost2010Prop40
 90
        0
102
RTVSPost2010PropOp40
 70
     1
102
RTVSPost2010Prop41ColorIndex
 90
       18
102
RTVSPost2010Prop41ColorRGB
 90
        0
102
RTVSPost2010PropOp41
 70
     1
102
RTVSPost2010Prop42
 90
       50
102
RTVSPost2010PropOp42
 70
     1
102
RTVSPost2010Prop43
 90
        3
102
RTVSPost2010PropOp43
 70
     1
102
RTVSPost2010Prop44ColorIndex
 90
        5
102
RTVSPost2010Prop44ColorRGB
 90
      255
102
RTVSPost2010PropOp44
 70
     1
102
RTVSPost2010Prop45
280
     0
102
RTVSPost2010PropOp45
 70
     1
102
RTVSPost2010Prop46
 90
       50
102
RTVSPost2010PropOp46
 70
     1
102
RTVSPost2010Prop47
 90
       50
102
RTVSPost2010PropOp47
 70
     1
102
RTVSPost2010Prop48
 90
       50
102
RTVSPost2010PropOp48
 70
     1
102
RTVSPost2010Prop49
280
     0
102
RTVSPost2010PropOp49
 70
     1
102
RTVSPost2010Prop50
 90
       50
102
RTVSPost2010PropOp50
 70
     1
102
RTVSPost2010Prop51ColorIndex
 90
      256
102
RTVSPost2010Prop51ColorRGB
 90
-16777216
102
RTVSPost2010PropOp51
 70
     0
102
RTVSPost2010Prop52
140
1.0
102
RTVSPost2010PropOp52
 70
     0
102
RTVSPost2010Prop53
 90
        2
102
RTVSPost2010PropOp53
 70
     1
102
RTVSPost2010Prop54
  1
strokes_ogs.tif
102
RTVSPost2010PropOp54
 70
     1
102
RTVSPost2010Prop55
280
     0
102
RTVSPost2010PropOp55
 70
     1
102
RTVSPost2010Prop56
140
1.0
102
RTVSPost2010PropOp56
 70
     1
102
RTVSPost2010Prop57
140
1.0
102
RTVSPost2010PropOp57
 70
     1
102
RTVSPropertyOp0
 70
     1
102
RTVSPropertyOp1
 70
     1
102
RTVSPropertyOp2
 70
     1
102
RTVSPropertyOp3
 70
     1
102
RTVSPropertyOp4
 70
     1
102
RTVSPropertyOp5
 70
     1
102
RTVSPropertyOp6
 70
     1
102
RTVSPropertyOp7
 70
     1
102
RTVSPropertyOp8
 70
     1
102
RTVSPropertyOp9
 70
     1
102
RTVSPropertyOp10
 70
     1
102
RTVSPropertyOp11
 70
     1
102
RTVSPropertyOp12
 70
     1
102
RTVSPropertyOp13
 70
     1
102
RTVSPropertyOp14
 70
     1
102
RTVSPropertyOp15
 70
     1
102
RTVSPropertyOp16
 70
     1
102
RTVSPropertyOp17
 70
     1
102
RTVSPropertyOp18
 70
     1
102
RTVSPropertyOp19
 70
     1
102
RTVSPropertyOp20
 70
     1
102
RTVSPropertyOp21
 70
     1
102
RTVSPropertyOp22
 70
     1
102
RTVSPropertyOp23
 70
     1
102
RTVSPropertyOp24
 70
     1
102
RTVSPropertyOp25
 70
     1
102
RTVSPropertyOp26
 70
     1
102
RTVSPropertyOp27
 70
     1
102
RTVSPropertyOp28
 70
     1
102
RTVSPropertyOp29
 70
     1
102
RTVSPropertyOp30
 70
     1
102
RTVSPropertyOp31
 70
     1
102
RTVSPropertyOp32
 70
     1
102
RTVSPropertyOp33
 70
     1
102
RTVSPropertyOp34
 70
     1
102
RTVSPropertyOp35
 70
     1
102
RTVSPropertyOp36
 70
     1
102
RTVSPropertyOp37
 70
     1
102
RTVSPropertyOp38
 70
     1
102
RTVSPropertyOp39
 70
     1
102
RTVSPropertyOp40
 70
     1
102
RTVSPropertyOp41
 70
     1
102
RTVSPropertyOp42
 70
     1
102
RTVSPropertyOp43
 70
     1
102
RTVSPropertyOp44
 70
     1
102
RTVSPropertyOp45
 70
     1
102
RTVSPropertyOp46
 70
     1
102
RTVSPropertyOp47
 70
     1
102
RTVSPropertyOp48
 70
     1
102
RTVSPropertyOp49
 70
     1
102
RTVSPropertyOp50
 70
     1
102
RTVSPropertyOp51
 70
     0
102
RTVSPropertyOp52
 70
     0
102
RTVSPropertyOp53
 70
     1
102
RTVSPropertyOp54
 70
     1
102
RTVSPropertyOp55
 70
     1
102
RTVSPropertyOp56
 70
     1
102
RTVSPropertyOp57
 70
     1
102
RTVSPropertyOp58
 70
     1
102
RTVSPropertyOp59
 70
     1
102
RTVSPropertyOp60
 70
     1
102
RTVSPropertyOp61
 70
     1
102
RTVSPropertyOp62
 70
     1
  0
XRECORD
  5
1428E
102
{ACAD_REACTORS
330
1428D
102
}
330
1428D
100
AcDbXrecord
280
     1
102
RTVSPost2010Prop28
280
     0
102
RTVSPost2010PropOp28
 70
     1
102
RTVSPost2010Prop29
280
     1
102
RTVSPost2010PropOp29
 70
     1
102
RTVSPost2010Prop30
280
     1
102
RTVSPost2010PropOp30
 70
     1
102
RTVSPost2010Prop31
280
     0
102
RTVSPost2010PropOp31
 70
     1
102
RTVSPost2010Prop32
280
     0
102
RTVSPost2010PropOp32
 70
     1
102
RTVSPost2010Prop33
280
     0
102
RTVSPost2010PropOp33
 70
     1
102
RTVSPost2010Prop34
280
     0
102
RTVSPost2010PropOp34
 70
     1
102
RTVSPost2010Prop35
280
     0
102
RTVSPost2010PropOp35
 70
     1
102
RTVSPost2010Prop36
280
     0
102
RTVSPost2010PropOp36
 70
     1
102
RTVSPost2010Prop37
 90
       50
102
RTVSPost2010PropOp37
 70
     1
102
RTVSPost2010Prop38
140
0.0
102
RTVSPost2010PropOp38
 70
     1
102
RTVSPost2010Prop39
140
1.0
102
RTVSPost2010PropOp39
 70
     1
102
RTVSPost2010Prop40
 90
        0
102
RTVSPost2010PropOp40
 70
     1
102
RTVSPost2010Prop41ColorIndex
 90
       18
102
RTVSPost2010Prop41ColorRGB
 90
        0
102
RTVSPost2010PropOp41
 70
     1
102
RTVSPost2010Prop42
 90
       50
102
RTVSPost2010PropOp42
 70
     1
102
RTVSPost2010Prop43
 90
        3
102
RTVSPost2010PropOp43
 70
     1
102
RTVSPost2010Prop44ColorIndex
 90
        5
102
RTVSPost2010Prop44ColorRGB
 90
      255
102
RTVSPost2010PropOp44
 70
     1
102
RTVSPost2010Prop45
280
     0
102
RTVSPost2010PropOp45
 70
     1
102
RTVSPost2010Prop46
 90
       50
102
RTVSPost2010PropOp46
 70
     1
102
RTVSPost2010Prop47
 90
       50
102
RTVSPost2010PropOp47
 70
     1
102
RTVSPost2010Prop48
 90
       50
102
RTVSPost2010PropOp48
 70
     1
102
RTVSPost2010Prop49
280
     0
102
RTVSPost2010PropOp49
 70
     1
102
RTVSPost2010Prop50
 90
       50
102
RTVSPost2010PropOp50
 70
     1
102
RTVSPost2010Prop51ColorIndex
 90
      256
102
RTVSPost2010Prop51ColorRGB
 90
-16777216
102
RTVSPost2010PropOp51
 70
     0
102
RTVSPost2010Prop52
140
1.0
102
RTVSPost2010PropOp52
 70
     0
102
RTVSPost2010Prop53
 90
        2
102
RTVSPost2010PropOp53
 70
     1
102
RTVSPost2010Prop54
  1
strokes_ogs.tif
102
RTVSPost2010PropOp54
 70
     1
102
RTVSPost2010Prop55
280
     0
102
RTVSPost2010PropOp55
 70
     1
102
RTVSPost2010Prop56
140
1.0
102
RTVSPost2010PropOp56
 70
     1
102
RTVSPost2010Prop57
140
1.0
102
RTVSPost2010PropOp57
 70
     1
102
RTVSPropertyOp0
 70
     1
102
RTVSPropertyOp1
 70
     1
102
RTVSPropertyOp2
 70
     1
102
RTVSPropertyOp3
 70
     1
102
RTVSPropertyOp4
 70
     1
102
RTVSPropertyOp5
 70
     1
102
RTVSPropertyOp6
 70
     1
102
RTVSPropertyOp7
 70
     1
102
RTVSPropertyOp8
 70
     1
102
RTVSPropertyOp9
 70
     1
102
RTVSPropertyOp10
 70
     1
102
RTVSPropertyOp11
 70
     1
102
RTVSPropertyOp12
 70
     1
102
RTVSPropertyOp13
 70
     1
102
RTVSPropertyOp14
 70
     1
102
RTVSPropertyOp15
 70
     1
102
RTVSPropertyOp16
 70
     1
102
RTVSPropertyOp17
 70
     1
102
RTVSPropertyOp18
 70
     1
102
RTVSPropertyOp19
 70
     1
102
RTVSPropertyOp20
 70
     1
102
RTVSPropertyOp21
 70
     1
102
RTVSPropertyOp22
 70
     1
102
RTVSPropertyOp23
 70
     1
102
RTVSPropertyOp24
 70
     1
102
RTVSPropertyOp25
 70
     1
102
RTVSPropertyOp26
 70
     1
102
RTVSPropertyOp27
 70
     1
102
RTVSPropertyOp28
 70
     1
102
RTVSPropertyOp29
 70
     1
102
RTVSPropertyOp30
 70
     1
102
RTVSPropertyOp31
 70
     1
102
RTVSPropertyOp32
 70
     1
102
RTVSPropertyOp33
 70
     1
102
RTVSPropertyOp34
 70
     1
102
RTVSPropertyOp35
 70
     1
102
RTVSPropertyOp36
 70
     1
102
RTVSPropertyOp37
 70
     1
102
RTVSPropertyOp38
 70
     1
102
RTVSPropertyOp39
 70
     1
102
RTVSPropertyOp40
 70
     1
102
RTVSPropertyOp41
 70
     1
102
RTVSPropertyOp42
 70
     1
102
RTVSPropertyOp43
 70
     1
102
RTVSPropertyOp44
 70
     1
102
RTVSPropertyOp45
 70
     1
102
RTVSPropertyOp46
 70
     1
102
RTVSPropertyOp47
 70
     1
102
RTVSPropertyOp48
 70
     1
102
RTVSPropertyOp49
 70
     1
102
RTVSPropertyOp50
 70
     1
102
RTVSPropertyOp51
 70
     0
102
RTVSPropertyOp52
 70
     0
102
RTVSPropertyOp53
 70
     1
102
RTVSPropertyOp54
 70
     1
102
RTVSPropertyOp55
 70
     1
102
RTVSPropertyOp56
 70
     1
102
RTVSPropertyOp57
 70
     1
102
RTVSPropertyOp58
 70
     1
102
RTVSPropertyOp59
 70
     1
102
RTVSPropertyOp60
 70
     1
102
RTVSPropertyOp61
 70
     1
102
RTVSPropertyOp62
 70
     1
  0
XRECORD
  5
14288
102
{ACAD_REACTORS
330
14287
102
}
330
14287
100
AcDbXrecord
280
     1
102
RTVSPost2010Prop28
280
     0
102
RTVSPost2010PropOp28
 70
     1
102
RTVSPost2010Prop29
280
     1
102
RTVSPost2010PropOp29
 70
     1
102
RTVSPost2010Prop30
280
     1
102
RTVSPost2010PropOp30
 70
     1
102
RTVSPost2010Prop31
280
     0
102
RTVSPost2010PropOp31
 70
     1
102
RTVSPost2010Prop32
280
     0
102
RTVSPost2010PropOp32
 70
     1
102
RTVSPost2010Prop33
280
     0
102
RTVSPost2010PropOp33
 70
     1
102
RTVSPost2010Prop34
280
     0
102
RTVSPost2010PropOp34
 70
     1
102
RTVSPost2010Prop35
280
     0
102
RTVSPost2010PropOp35
 70
     1
102
RTVSPost2010Prop36
280
     0
102
RTVSPost2010PropOp36
 70
     1
102
RTVSPost2010Prop37
 90
       50
102
RTVSPost2010PropOp37
 70
     1
102
RTVSPost2010Prop38
140
0.0
102
RTVSPost2010PropOp38
 70
     1
102
RTVSPost2010Prop39
140
1.0
102
RTVSPost2010PropOp39
 70
     1
102
RTVSPost2010Prop40
 90
        0
102
RTVSPost2010PropOp40
 70
     1
102
RTVSPost2010Prop41ColorIndex
 90
       18
102
RTVSPost2010Prop41ColorRGB
 90
        0
102
RTVSPost2010PropOp41
 70
     1
102
RTVSPost2010Prop42
 90
       50
102
RTVSPost2010PropOp42
 70
     1
102
RTVSPost2010Prop43
 90
        3
102
RTVSPost2010PropOp43
 70
     1
102
RTVSPost2010Prop44ColorIndex
 90
        5
102
RTVSPost2010Prop44ColorRGB
 90
      255
102
RTVSPost2010PropOp44
 70
     1
102
RTVSPost2010Prop45
280
     0
102
RTVSPost2010PropOp45
 70
     1
102
RTVSPost2010Prop46
 90
       50
102
RTVSPost2010PropOp46
 70
     1
102
RTVSPost2010Prop47
 90
       50
102
RTVSPost2010PropOp47
 70
     1
102
RTVSPost2010Prop48
 90
       50
102
RTVSPost2010PropOp48
 70
     1
102
RTVSPost2010Prop49
280
     0
102
RTVSPost2010PropOp49
 70
     1
102
RTVSPost2010Prop50
 90
       50
102
RTVSPost2010PropOp50
 70
     1
102
RTVSPost2010Prop51ColorIndex
 90
      256
102
RTVSPost2010Prop51ColorRGB
 90
-16777216
102
RTVSPost2010PropOp51
 70
     0
102
RTVSPost2010Prop52
140
1.0
102
RTVSPost2010PropOp52
 70
     0
102
RTVSPost2010Prop53
 90
        2
102
RTVSPost2010PropOp53
 70
     1
102
RTVSPost2010Prop54
  1
strokes_ogs.tif
102
RTVSPost2010PropOp54
 70
     1
102
RTVSPost2010Prop55
280
     0
102
RTVSPost2010PropOp55
 70
     1
102
RTVSPost2010Prop56
140
1.0
102
RTVSPost2010PropOp56
 70
     1
102
RTVSPost2010Prop57
140
1.0
102
RTVSPost2010PropOp57
 70
     1
102
RTVSPropertyOp0
 70
     1
102
RTVSPropertyOp1
 70
     1
102
RTVSPropertyOp2
 70
     1
102
RTVSPropertyOp3
 70
     1
102
RTVSPropertyOp4
 70
     1
102
RTVSPropertyOp5
 70
     1
102
RTVSPropertyOp6
 70
     1
102
RTVSPropertyOp7
 70
     1
102
RTVSPropertyOp8
 70
     1
102
RTVSPropertyOp9
 70
     1
102
RTVSPropertyOp10
 70
     1
102
RTVSPropertyOp11
 70
     1
102
RTVSPropertyOp12
 70
     1
102
RTVSPropertyOp13
 70
     1
102
RTVSPropertyOp14
 70
     1
102
RTVSPropertyOp15
 70
     1
102
RTVSPropertyOp16
 70
     1
102
RTVSPropertyOp17
 70
     1
102
RTVSPropertyOp18
 70
     1
102
RTVSPropertyOp19
 70
     1
102
RTVSPropertyOp20
 70
     1
102
RTVSPropertyOp21
 70
     1
102
RTVSPropertyOp22
 70
     1
102
RTVSPropertyOp23
 70
     1
102
RTVSPropertyOp24
 70
     1
102
RTVSPropertyOp25
 70
     1
102
RTVSPropertyOp26
 70
     1
102
RTVSPropertyOp27
 70
     1
102
RTVSPropertyOp28
 70
     1
102
RTVSPropertyOp29
 70
     1
102
RTVSPropertyOp30
 70
     1
102
RTVSPropertyOp31
 70
     1
102
RTVSPropertyOp32
 70
     1
102
RTVSPropertyOp33
 70
     1
102
RTVSPropertyOp34
 70
     1
102
RTVSPropertyOp35
 70
     1
102
RTVSPropertyOp36
 70
     1
102
RTVSPropertyOp37
 70
     1
102
RTVSPropertyOp38
 70
     1
102
RTVSPropertyOp39
 70
     1
102
RTVSPropertyOp40
 70
     1
102
RTVSPropertyOp41
 70
     1
102
RTVSPropertyOp42
 70
     1
102
RTVSPropertyOp43
 70
     1
102
RTVSPropertyOp44
 70
     1
102
RTVSPropertyOp45
 70
     1
102
RTVSPropertyOp46
 70
     1
102
RTVSPropertyOp47
 70
     1
102
RTVSPropertyOp48
 70
     1
102
RTVSPropertyOp49
 70
     1
102
RTVSPropertyOp50
 70
     1
102
RTVSPropertyOp51
 70
     0
102
RTVSPropertyOp52
 70
     0
102
RTVSPropertyOp53
 70
     1
102
RTVSPropertyOp54
 70
     1
102
RTVSPropertyOp55
 70
     1
102
RTVSPropertyOp56
 70
     1
102
RTVSPropertyOp57
 70
     1
102
RTVSPropertyOp58
 70
     1
102
RTVSPropertyOp59
 70
     1
102
RTVSPropertyOp60
 70
     1
102
RTVSPropertyOp61
 70
     1
102
RTVSPropertyOp62
 70
     1
  0
XRECORD
  5
1428A
102
{ACAD_REACTORS
330
14289
102
}
330
14289
100
AcDbXrecord
280
     1
102
RTVSPost2010Prop28
280
     0
102
RTVSPost2010PropOp28
 70
     1
102
RTVSPost2010Prop29
280
     1
102
RTVSPost2010PropOp29
 70
     1
102
RTVSPost2010Prop30
280
     1
102
RTVSPost2010PropOp30
 70
     1
102
RTVSPost2010Prop31
280
     0
102
RTVSPost2010PropOp31
 70
     1
102
RTVSPost2010Prop32
280
     0
102
RTVSPost2010PropOp32
 70
     1
102
RTVSPost2010Prop33
280
     0
102
RTVSPost2010PropOp33
 70
     1
102
RTVSPost2010Prop34
280
     0
102
RTVSPost2010PropOp34
 70
     1
102
RTVSPost2010Prop35
280
     0
102
RTVSPost2010PropOp35
 70
     1
102
RTVSPost2010Prop36
280
     0
102
RTVSPost2010PropOp36
 70
     1
102
RTVSPost2010Prop37
 90
       50
102
RTVSPost2010PropOp37
 70
     1
102
RTVSPost2010Prop38
140
0.0
102
RTVSPost2010PropOp38
 70
     1
102
RTVSPost2010Prop39
140
1.0
102
RTVSPost2010PropOp39
 70
     1
102
RTVSPost2010Prop40
 90
        0
102
RTVSPost2010PropOp40
 70
     1
102
RTVSPost2010Prop41ColorIndex
 90
       18
102
RTVSPost2010Prop41ColorRGB
 90
        0
102
RTVSPost2010PropOp41
 70
     1
102
RTVSPost2010Prop42
 90
       50
102
RTVSPost2010PropOp42
 70
     1
102
RTVSPost2010Prop43
 90
        3
102
RTVSPost2010PropOp43
 70
     1
102
RTVSPost2010Prop44ColorIndex
 90
        5
102
RTVSPost2010Prop44ColorRGB
 90
      255
102
RTVSPost2010PropOp44
 70
     1
102
RTVSPost2010Prop45
280
     0
102
RTVSPost2010PropOp45
 70
     1
102
RTVSPost2010Prop46
 90
       50
102
RTVSPost2010PropOp46
 70
     1
102
RTVSPost2010Prop47
 90
       50
102
RTVSPost2010PropOp47
 70
     1
102
RTVSPost2010Prop48
 90
       50
102
RTVSPost2010PropOp48
 70
     1
102
RTVSPost2010Prop49
280
     0
102
RTVSPost2010PropOp49
 70
     1
102
RTVSPost2010Prop50
 90
       50
102
RTVSPost2010PropOp50
 70
     1
102
RTVSPost2010Prop51ColorIndex
 90
      256
102
RTVSPost2010Prop51ColorRGB
 90
-16777216
102
RTVSPost2010PropOp51
 70
     0
102
RTVSPost2010Prop52
140
1.0
102
RTVSPost2010PropOp52
 70
     0
102
RTVSPost2010Prop53
 90
        2
102
RTVSPost2010PropOp53
 70
     1
102
RTVSPost2010Prop54
  1
strokes_ogs.tif
102
RTVSPost2010PropOp54
 70
     1
102
RTVSPost2010Prop55
280
     0
102
RTVSPost2010PropOp55
 70
     1
102
RTVSPost2010Prop56
140
1.0
102
RTVSPost2010PropOp56
 70
     1
102
RTVSPost2010Prop57
140
1.0
102
RTVSPost2010PropOp57
 70
     1
102
RTVSPropertyOp0
 70
     1
102
RTVSPropertyOp1
 70
     1
102
RTVSPropertyOp2
 70
     1
102
RTVSPropertyOp3
 70
     1
102
RTVSPropertyOp4
 70
     1
102
RTVSPropertyOp5
 70
     1
102
RTVSPropertyOp6
 70
     1
102
RTVSPropertyOp7
 70
     1
102
RTVSPropertyOp8
 70
     1
102
RTVSPropertyOp9
 70
     1
102
RTVSPropertyOp10
 70
     1
102
RTVSPropertyOp11
 70
     1
102
RTVSPropertyOp12
 70
     1
102
RTVSPropertyOp13
 70
     1
102
RTVSPropertyOp14
 70
     1
102
RTVSPropertyOp15
 70
     1
102
RTVSPropertyOp16
 70
     1
102
RTVSPropertyOp17
 70
     1
102
RTVSPropertyOp18
 70
     1
102
RTVSPropertyOp19
 70
     1
102
RTVSPropertyOp20
 70
     1
102
RTVSPropertyOp21
 70
     1
102
RTVSPropertyOp22
 70
     1
102
RTVSPropertyOp23
 70
     1
102
RTVSPropertyOp24
 70
     1
102
RTVSPropertyOp25
 70
     1
102
RTVSPropertyOp26
 70
     1
102
RTVSPropertyOp27
 70
     1
102
RTVSPropertyOp28
 70
     1
102
RTVSPropertyOp29
 70
     1
102
RTVSPropertyOp30
 70
     1
102
RTVSPropertyOp31
 70
     1
102
RTVSPropertyOp32
 70
     1
102
RTVSPropertyOp33
 70
     1
102
RTVSPropertyOp34
 70
     1
102
RTVSPropertyOp35
 70
     1
102
RTVSPropertyOp36
 70
     1
102
RTVSPropertyOp37
 70
     1
102
RTVSPropertyOp38
 70
     1
102
RTVSPropertyOp39
 70
     1
102
RTVSPropertyOp40
 70
     1
102
RTVSPropertyOp41
 70
     1
102
RTVSPropertyOp42
 70
     1
102
RTVSPropertyOp43
 70
     1
102
RTVSPropertyOp44
 70
     1
102
RTVSPropertyOp45
 70
     1
102
RTVSPropertyOp46
 70
     1
102
RTVSPropertyOp47
 70
     1
102
RTVSPropertyOp48
 70
     1
102
RTVSPropertyOp49
 70
     1
102
RTVSPropertyOp50
 70
     1
102
RTVSPropertyOp51
 70
     0
102
RTVSPropertyOp52
 70
     0
102
RTVSPropertyOp53
 70
     1
102
RTVSPropertyOp54
 70
     1
102
RTVSPropertyOp55
 70
     1
102
RTVSPropertyOp56
 70
     1
102
RTVSPropertyOp57
 70
     1
102
RTVSPropertyOp58
 70
     1
102
RTVSPropertyOp59
 70
     1
102
RTVSPropertyOp60
 70
     1
102
RTVSPropertyOp61
 70
     1
102
RTVSPropertyOp62
 70
     1
  0
XRECORD
  5
14280
102
{ACAD_REACTORS
330
1427F
102
}
330
1427F
100
AcDbXrecord
280
     1
102
RTVSPost2010Prop28
280
     0
102
RTVSPost2010PropOp28
 70
     1
102
RTVSPost2010Prop29
280
     1
102
RTVSPost2010PropOp29
 70
     1
102
RTVSPost2010Prop30
280
     1
102
RTVSPost2010PropOp30
 70
     1
102
RTVSPost2010Prop31
280
     0
102
RTVSPost2010PropOp31
 70
     1
102
RTVSPost2010Prop32
280
     0
102
RTVSPost2010PropOp32
 70
     1
102
RTVSPost2010Prop33
280
     0
102
RTVSPost2010PropOp33
 70
     1
102
RTVSPost2010Prop34
280
     0
102
RTVSPost2010PropOp34
 70
     1
102
RTVSPost2010Prop35
280
     0
102
RTVSPost2010PropOp35
 70
     1
102
RTVSPost2010Prop36
280
     0
102
RTVSPost2010PropOp36
 70
     1
102
RTVSPost2010Prop37
 90
       50
102
RTVSPost2010PropOp37
 70
     1
102
RTVSPost2010Prop38
140
0.0
102
RTVSPost2010PropOp38
 70
     1
102
RTVSPost2010Prop39
140
1.0
102
RTVSPost2010PropOp39
 70
     1
102
RTVSPost2010Prop40
 90
        0
102
RTVSPost2010PropOp40
 70
     1
102
RTVSPost2010Prop41ColorIndex
 90
       18
102
RTVSPost2010Prop41ColorRGB
 90
        0
102
RTVSPost2010PropOp41
 70
     1
102
RTVSPost2010Prop42
 90
       50
102
RTVSPost2010PropOp42
 70
     1
102
RTVSPost2010Prop43
 90
        3
102
RTVSPost2010PropOp43
 70
     1
102
RTVSPost2010Prop44ColorIndex
 90
        5
102
RTVSPost2010Prop44ColorRGB
 90
      255
102
RTVSPost2010PropOp44
 70
     1
102
RTVSPost2010Prop45
280
     0
102
RTVSPost2010PropOp45
 70
     1
102
RTVSPost2010Prop46
 90
       50
102
RTVSPost2010PropOp46
 70
     1
102
RTVSPost2010Prop47
 90
       50
102
RTVSPost2010PropOp47
 70
     1
102
RTVSPost2010Prop48
 90
       50
102
RTVSPost2010PropOp48
 70
     1
102
RTVSPost2010Prop49
280
     0
102
RTVSPost2010PropOp49
 70
     1
102
RTVSPost2010Prop50
 90
       50
102
RTVSPost2010PropOp50
 70
     1
102
RTVSPost2010Prop51ColorIndex
 90
      256
102
RTVSPost2010Prop51ColorRGB
 90
-16777216
102
RTVSPost2010PropOp51
 70
     0
102
RTVSPost2010Prop52
140
1.0
102
RTVSPost2010PropOp52
 70
     0
102
RTVSPost2010Prop53
 90
        2
102
RTVSPost2010PropOp53
 70
     1
102
RTVSPost2010Prop54
  1
strokes_ogs.tif
102
RTVSPost2010PropOp54
 70
     1
102
RTVSPost2010Prop55
280
     0
102
RTVSPost2010PropOp55
 70
     1
102
RTVSPost2010Prop56
140
1.0
102
RTVSPost2010PropOp56
 70
     1
102
RTVSPost2010Prop57
140
1.0
102
RTVSPost2010PropOp57
 70
     1
102
RTVSPropertyOp0
 70
     1
102
RTVSPropertyOp1
 70
     1
102
RTVSPropertyOp2
 70
     1
102
RTVSPropertyOp3
 70
     1
102
RTVSPropertyOp4
 70
     1
102
RTVSPropertyOp5
 70
     1
102
RTVSPropertyOp6
 70
     1
102
RTVSPropertyOp7
 70
     1
102
RTVSPropertyOp8
 70
     1
102
RTVSPropertyOp9
 70
     1
102
RTVSPropertyOp10
 70
     1
102
RTVSPropertyOp11
 70
     1
102
RTVSPropertyOp12
 70
     1
102
RTVSPropertyOp13
 70
     1
102
RTVSPropertyOp14
 70
     1
102
RTVSPropertyOp15
 70
     1
102
RTVSPropertyOp16
 70
     1
102
RTVSPropertyOp17
 70
     1
102
RTVSPropertyOp18
 70
     1
102
RTVSPropertyOp19
 70
     1
102
RTVSPropertyOp20
 70
     1
102
RTVSPropertyOp21
 70
     1
102
RTVSPropertyOp22
 70
     1
102
RTVSPropertyOp23
 70
     1
102
RTVSPropertyOp24
 70
     1
102
RTVSPropertyOp25
 70
     1
102
RTVSPropertyOp26
 70
     1
102
RTVSPropertyOp27
 70
     1
102
RTVSPropertyOp28
 70
     1
102
RTVSPropertyOp29
 70
     1
102
RTVSPropertyOp30
 70
     1
102
RTVSPropertyOp31
 70
     1
102
RTVSPropertyOp32
 70
     1
102
RTVSPropertyOp33
 70
     1
102
RTVSPropertyOp34
 70
     1
102
RTVSPropertyOp35
 70
     1
102
RTVSPropertyOp36
 70
     1
102
RTVSPropertyOp37
 70
     1
102
RTVSPropertyOp38
 70
     1
102
RTVSPropertyOp39
 70
     1
102
RTVSPropertyOp40
 70
     1
102
RTVSPropertyOp41
 70
     1
102
RTVSPropertyOp42
 70
     1
102
RTVSPropertyOp43
 70
     1
102
RTVSPropertyOp44
 70
     1
102
RTVSPropertyOp45
 70
     1
102
RTVSPropertyOp46
 70
     1
102
RTVSPropertyOp47
 70
     1
102
RTVSPropertyOp48
 70
     1
102
RTVSPropertyOp49
 70
     1
102
RTVSPropertyOp50
 70
     1
102
RTVSPropertyOp51
 70
     0
102
RTVSPropertyOp52
 70
     0
102
RTVSPropertyOp53
 70
     1
102
RTVSPropertyOp54
 70
     1
102
RTVSPropertyOp55
 70
     1
102
RTVSPropertyOp56
 70
     1
102
RTVSPropertyOp57
 70
     1
102
RTVSPropertyOp58
 70
     1
102
RTVSPropertyOp59
 70
     1
102
RTVSPropertyOp60
 70
     1
102
RTVSPropertyOp61
 70
     1
102
RTVSPropertyOp62
 70
     1
  0
XRECORD
  5
14274
102
{ACAD_REACTORS
330
14273
102
}
330
14273
100
AcDbXrecord
280
     1
102
RTVSPost2010Prop28
280
     0
102
RTVSPost2010PropOp28
 70
     1
102
RTVSPost2010Prop29
280
     1
102
RTVSPost2010PropOp29
 70
     1
102
RTVSPost2010Prop30
280
     1
102
RTVSPost2010PropOp30
 70
     1
102
RTVSPost2010Prop31
280
     0
102
RTVSPost2010PropOp31
 70
     1
102
RTVSPost2010Prop32
280
     0
102
RTVSPost2010PropOp32
 70
     1
102
RTVSPost2010Prop33
280
     0
102
RTVSPost2010PropOp33
 70
     1
102
RTVSPost2010Prop34
280
     0
102
RTVSPost2010PropOp34
 70
     1
102
RTVSPost2010Prop35
280
     0
102
RTVSPost2010PropOp35
 70
     1
102
RTVSPost2010Prop36
280
     0
102
RTVSPost2010PropOp36
 70
     1
102
RTVSPost2010Prop37
 90
       50
102
RTVSPost2010PropOp37
 70
     1
102
RTVSPost2010Prop38
140
0.0
102
RTVSPost2010PropOp38
 70
     1
102
RTVSPost2010Prop39
140
1.0
102
RTVSPost2010PropOp39
 70
     1
102
RTVSPost2010Prop40
 90
        0
102
RTVSPost2010PropOp40
 70
     1
102
RTVSPost2010Prop41ColorIndex
 90
       18
102
RTVSPost2010Prop41ColorRGB
 90
        0
102
RTVSPost2010PropOp41
 70
     1
102
RTVSPost2010Prop42
 90
       50
102
RTVSPost2010PropOp42
 70
     1
102
RTVSPost2010Prop43
 90
        3
102
RTVSPost2010PropOp43
 70
     1
102
RTVSPost2010Prop44ColorIndex
 90
        5
102
RTVSPost2010Prop44ColorRGB
 90
      255
102
RTVSPost2010PropOp44
 70
     1
102
RTVSPost2010Prop45
280
     0
102
RTVSPost2010PropOp45
 70
     1
102
RTVSPost2010Prop46
 90
       50
102
RTVSPost2010PropOp46
 70
     1
102
RTVSPost2010Prop47
 90
       50
102
RTVSPost2010PropOp47
 70
     1
102
RTVSPost2010Prop48
 90
       50
102
RTVSPost2010PropOp48
 70
     1
102
RTVSPost2010Prop49
280
     0
102
RTVSPost2010PropOp49
 70
     1
102
RTVSPost2010Prop50
 90
       50
102
RTVSPost2010PropOp50
 70
     1
102
RTVSPost2010Prop51ColorIndex
 90
      256
102
RTVSPost2010Prop51ColorRGB
 90
-16777216
102
RTVSPost2010PropOp51
 70
     0
102
RTVSPost2010Prop52
140
1.0
102
RTVSPost2010PropOp52
 70
     0
102
RTVSPost2010Prop53
 90
        2
102
RTVSPost2010PropOp53
 70
     1
102
RTVSPost2010Prop54
  1
strokes_ogs.tif
102
RTVSPost2010PropOp54
 70
     1
102
RTVSPost2010Prop55
280
     0
102
RTVSPost2010PropOp55
 70
     1
102
RTVSPost2010Prop56
140
1.0
102
RTVSPost2010PropOp56
 70
     1
102
RTVSPost2010Prop57
140
1.0
102
RTVSPost2010PropOp57
 70
     1
102
RTVSPropertyOp0
 70
     1
102
RTVSPropertyOp1
 70
     1
102
RTVSPropertyOp2
 70
     1
102
RTVSPropertyOp3
 70
     1
102
RTVSPropertyOp4
 70
     1
102
RTVSPropertyOp5
 70
     1
102
RTVSPropertyOp6
 70
     1
102
RTVSPropertyOp7
 70
     1
102
RTVSPropertyOp8
 70
     1
102
RTVSPropertyOp9
 70
     1
102
RTVSPropertyOp10
 70
     1
102
RTVSPropertyOp11
 70
     1
102
RTVSPropertyOp12
 70
     1
102
RTVSPropertyOp13
 70
     1
102
RTVSPropertyOp14
 70
     1
102
RTVSPropertyOp15
 70
     1
102
RTVSPropertyOp16
 70
     1
102
RTVSPropertyOp17
 70
     1
102
RTVSPropertyOp18
 70
     1
102
RTVSPropertyOp19
 70
     1
102
RTVSPropertyOp20
 70
     1
102
RTVSPropertyOp21
 70
     1
102
RTVSPropertyOp22
 70
     1
102
RTVSPropertyOp23
 70
     1
102
RTVSPropertyOp24
 70
     1
102
RTVSPropertyOp25
 70
     1
102
RTVSPropertyOp26
 70
     1
102
RTVSPropertyOp27
 70
     1
102
RTVSPropertyOp28
 70
     1
102
RTVSPropertyOp29
 70
     1
102
RTVSPropertyOp30
 70
     1
102
RTVSPropertyOp31
 70
     1
102
RTVSPropertyOp32
 70
     1
102
RTVSPropertyOp33
 70
     1
102
RTVSPropertyOp34
 70
     1
102
RTVSPropertyOp35
 70
     1
102
RTVSPropertyOp36
 70
     1
102
RTVSPropertyOp37
 70
     1
102
RTVSPropertyOp38
 70
     1
102
RTVSPropertyOp39
 70
     1
102
RTVSPropertyOp40
 70
     1
102
RTVSPropertyOp41
 70
     1
102
RTVSPropertyOp42
 70
     1
102
RTVSPropertyOp43
 70
     1
102
RTVSPropertyOp44
 70
     1
102
RTVSPropertyOp45
 70
     1
102
RTVSPropertyOp46
 70
     1
102
RTVSPropertyOp47
 70
     1
102
RTVSPropertyOp48
 70
     1
102
RTVSPropertyOp49
 70
     1
102
RTVSPropertyOp50
 70
     1
102
RTVSPropertyOp51
 70
     0
102
RTVSPropertyOp52
 70
     0
102
RTVSPropertyOp53
 70
     1
102
RTVSPropertyOp54
 70
     1
102
RTVSPropertyOp55
 70
     1
102
RTVSPropertyOp56
 70
     1
102
RTVSPropertyOp57
 70
     1
102
RTVSPropertyOp58
 70
     1
102
RTVSPropertyOp59
 70
     1
102
RTVSPropertyOp60
 70
     1
102
RTVSPropertyOp61
 70
     1
102
RTVSPropertyOp62
 70
     1
  0
XRECORD
  5
1428C
102
{ACAD_REACTORS
330
1428B
102
}
330
1428B
100
AcDbXrecord
280
     1
102
RTVSPost2010Prop28
280
     0
102
RTVSPost2010PropOp28
 70
     1
102
RTVSPost2010Prop29
280
     1
102
RTVSPost2010PropOp29
 70
     1
102
RTVSPost2010Prop30
280
     1
102
RTVSPost2010PropOp30
 70
     1
102
RTVSPost2010Prop31
280
     0
102
RTVSPost2010PropOp31
 70
     1
102
RTVSPost2010Prop32
280
     0
102
RTVSPost2010PropOp32
 70
     1
102
RTVSPost2010Prop33
280
     0
102
RTVSPost2010PropOp33
 70
     1
102
RTVSPost2010Prop34
280
     0
102
RTVSPost2010PropOp34
 70
     1
102
RTVSPost2010Prop35
280
     0
102
RTVSPost2010PropOp35
 70
     1
102
RTVSPost2010Prop36
280
     0
102
RTVSPost2010PropOp36
 70
     1
102
RTVSPost2010Prop37
 90
       50
102
RTVSPost2010PropOp37
 70
     1
102
RTVSPost2010Prop38
140
0.0
102
RTVSPost2010PropOp38
 70
     1
102
RTVSPost2010Prop39
140
1.0
102
RTVSPost2010PropOp39
 70
     1
102
RTVSPost2010Prop40
 90
        0
102
RTVSPost2010PropOp40
 70
     1
102
RTVSPost2010Prop41ColorIndex
 90
       18
102
RTVSPost2010Prop41ColorRGB
 90
        0
102
RTVSPost2010PropOp41
 70
     1
102
RTVSPost2010Prop42
 90
       50
102
RTVSPost2010PropOp42
 70
     1
102
RTVSPost2010Prop43
 90
        3
102
RTVSPost2010PropOp43
 70
     1
102
RTVSPost2010Prop44ColorIndex
 90
        5
102
RTVSPost2010Prop44ColorRGB
 90
      255
102
RTVSPost2010PropOp44
 70
     1
102
RTVSPost2010Prop45
280
     0
102
RTVSPost2010PropOp45
 70
     1
102
RTVSPost2010Prop46
 90
       50
102
RTVSPost2010PropOp46
 70
     1
102
RTVSPost2010Prop47
 90
       50
102
RTVSPost2010PropOp47
 70
     1
102
RTVSPost2010Prop48
 90
       50
102
RTVSPost2010PropOp48
 70
     1
102
RTVSPost2010Prop49
280
     0
102
RTVSPost2010PropOp49
 70
     1
102
RTVSPost2010Prop50
 90
       50
102
RTVSPost2010PropOp50
 70
     1
102
RTVSPost2010Prop51ColorIndex
 90
      256
102
RTVSPost2010Prop51ColorRGB
 90
-16777216
102
RTVSPost2010PropOp51
 70
     0
102
RTVSPost2010Prop52
140
1.0
102
RTVSPost2010PropOp52
 70
     0
102
RTVSPost2010Prop53
 90
        2
102
RTVSPost2010PropOp53
 70
     1
102
RTVSPost2010Prop54
  1
strokes_ogs.tif
102
RTVSPost2010PropOp54
 70
     1
102
RTVSPost2010Prop55
280
     0
102
RTVSPost2010PropOp55
 70
     1
102
RTVSPost2010Prop56
140
1.0
102
RTVSPost2010PropOp56
 70
     1
102
RTVSPost2010Prop57
140
1.0
102
RTVSPost2010PropOp57
 70
     1
102
RTVSPropertyOp0
 70
     1
102
RTVSPropertyOp1
 70
     1
102
RTVSPropertyOp2
 70
     1
102
RTVSPropertyOp3
 70
     1
102
RTVSPropertyOp4
 70
     1
102
RTVSPropertyOp5
 70
     1
102
RTVSPropertyOp6
 70
     1
102
RTVSPropertyOp7
 70
     1
102
RTVSPropertyOp8
 70
     1
102
RTVSPropertyOp9
 70
     1
102
RTVSPropertyOp10
 70
     1
102
RTVSPropertyOp11
 70
     1
102
RTVSPropertyOp12
 70
     1
102
RTVSPropertyOp13
 70
     1
102
RTVSPropertyOp14
 70
     1
102
RTVSPropertyOp15
 70
     1
102
RTVSPropertyOp16
 70
     1
102
RTVSPropertyOp17
 70
     1
102
RTVSPropertyOp18
 70
     1
102
RTVSPropertyOp19
 70
     1
102
RTVSPropertyOp20
 70
     1
102
RTVSPropertyOp21
 70
     1
102
RTVSPropertyOp22
 70
     1
102
RTVSPropertyOp23
 70
     1
102
RTVSPropertyOp24
 70
     1
102
RTVSPropertyOp25
 70
     1
102
RTVSPropertyOp26
 70
     1
102
RTVSPropertyOp27
 70
     1
102
RTVSPropertyOp28
 70
     1
102
RTVSPropertyOp29
 70
     1
102
RTVSPropertyOp30
 70
     1
102
RTVSPropertyOp31
 70
     1
102
RTVSPropertyOp32
 70
     1
102
RTVSPropertyOp33
 70
     1
102
RTVSPropertyOp34
 70
     1
102
RTVSPropertyOp35
 70
     1
102
RTVSPropertyOp36
 70
     1
102
RTVSPropertyOp37
 70
     1
102
RTVSPropertyOp38
 70
     1
102
RTVSPropertyOp39
 70
     1
102
RTVSPropertyOp40
 70
     1
102
RTVSPropertyOp41
 70
     1
102
RTVSPropertyOp42
 70
     1
102
RTVSPropertyOp43
 70
     1
102
RTVSPropertyOp44
 70
     1
102
RTVSPropertyOp45
 70
     1
102
RTVSPropertyOp46
 70
     1
102
RTVSPropertyOp47
 70
     1
102
RTVSPropertyOp48
 70
     1
102
RTVSPropertyOp49
 70
     1
102
RTVSPropertyOp50
 70
     1
102
RTVSPropertyOp51
 70
     0
102
RTVSPropertyOp52
 70
     0
102
RTVSPropertyOp53
 70
     1
102
RTVSPropertyOp54
 70
     1
102
RTVSPropertyOp55
 70
     1
102
RTVSPropertyOp56
 70
     1
102
RTVSPropertyOp57
 70
     1
102
RTVSPropertyOp58
 70
     1
102
RTVSPropertyOp59
 70
     1
102
RTVSPropertyOp60
 70
     1
102
RTVSPropertyOp61
 70
     1
102
RTVSPropertyOp62
 70
     1
  0
ACAD_PROXY_OBJECT
  5
18E0
330
18DF
100
AcDbProxyObject
 90
      499
 91
      540
 95
  6946847
 70
     0
 93
      494
310
738B81E85EB51B8BE3F2E07A17AD46E2F8FE00800030C02000000300012AF841D01405014050140501083C80A0481A0882A0D55554000000000000785FA0
 94
        0
1001
ACAD
1000
AcRTDxfName
1000
ACMSURFSTANDARDANSI
  0
ACAD_PROXY_OBJECT
  5
18E1
330
18DF
100
AcDbProxyObject
 90
      499
 91
      541
 95
  6946847
 70
     0
 93
      639
310
738B81E85EB51B8BE3F2E07A17AD46E2F8FE00800030C02000000300012AFA1C80A0280A0280A0280A0280A0280A0280A0284A0280A0280A0280A0280A02400000000000000080000000000000785FA4
340
190D
 94
        0
1001
ACAD
1000
AcRTDxfName
1000
ACMFCFSTANDARDANSI
  0
ACAD_PROXY_OBJECT
  5
18E2
330
18DF
100
AcDbProxyObject
 90
      499
 91
      542
 95
  6946847
 70
     0
 93
      717
310
738B81E85EB51B8BE3F2E07A17AD46E2F8FE00800030C02000000300012AF98333333333333D33F24080A0280A0280A0280A0280A0280A0280A0280A0280A0280A0280A0280A0280A0280A0280A0280A0243BDF4F8D976EA23F4
340
0
 94
        0
1001
ACAD
1000
AcRTDxfName
1000
ACMWELDSTANDARDANSI
  0
ACAD_PROXY_OBJECT
  5
18E3
330
18DF
100
AcDbProxyObject
 90
      499
 91
      543
 95
  6946847
 70
     0
 93
      316
310
738B81E85EB51B8BE3F2E07A17AD46E2F8FE00800030C02000000300012AFC0000000000003C2FCC
340
0
 94
        0
1001
ACAD
1000
AcRTDxfName
1000
ACMIDSTANDARDANSI
  0
ACAD_PROXY_OBJECT
  5
18E4
330
18DF
100
AcDbProxyObject
 90
      499
 91
      544
 95
  6946847
 70
     0
 93
      494
310
738B81E85EB51B8BE3F2E07A17AD46E2F8FE00800030C02000000300012AFC521D4454FB21E93F26A6666666666E4FE89A9999999999B93F8020000C3000
340
190E
340
190F
 94
        0
1001
ACAD
1000
AcRTDxfName
1000
ACMDATUMSTANDARDANSI
  0
ACAD_PROXY_OBJECT
  5
18E5
330
18DF
100
AcDbProxyObject
 90
      499
 91
      545
 95
  6946847
 70
     0
 93
    32591
310
738B81E85EB51B8BE3F2E07A17AD46E2F8FE00800030C02000000300012AFA2080A0280A0280A0280D202269349E4B2196C9FA0320240501405014090140501405019011349A4F2590CB64FD0190120280A0280A3880C80C815174B85D2F97CA048080C80901405014051D40640640E883C16030180C064040440480A0280A
310
028EA0320320947077FBFDFEBF7F9FA02202405014050147501901905A0A0B6C1C7480BECFD0190120280A0280A3A80C80C835174B85D2F97CBE47E80C80901405014051D40640641E8BA5C2E97CBE5F23F40640480A0280A028EA03203211441E0B0180C060320202202405014050147501901909A383BFDFEFF5FBFCFD01
310
10120280A0280A3A80C80C8550505B60E3A405F67E80880901405014051D405024050242D03408BA5C2E97CBE5F23F40440480A0280A028EA02812028121881A040542A150A8147A1FA02202405014050147501409014090D409022E970BA5F2F97C8FD0110120280A0280A3A80A0480A048720681174B85D2F97CBE47E80C
310
80901405014051E40640643E8BA5C2E97CBE5F23F40640480A0288254811703D0BD6A3719C7F03C000186000080C566AB55AAD56FB1F959AAD56AB55BEC7E80A03159AAD56AB55BEC7E566AB55AAD56FB1FA0280C4863F1F8BC1E771F9218FC7E2F079DC7E80A031218FC7E2F079DC7E4863F1F8BC1E771FA0281480959AAD
310
56AB55BEC7E566AB55AAD56FB1FA0280A03159AAD56AB55BEC7E566AB55AAD56FB1FA0280C269349E4B219749F89A4D2792C865D27E80A0200566AB55AAD56FB1F959AAD56AB55BEC7F48400000000000010408000000C000B4FFFF4110340D024090140510429084410190A4064229014290A4290A40A000000000000785F
310
8000000000001E17E80C0100006180403800061801B39DEEA7C74B567E6CE77BA9F1D2D59F9B39DEEA7C74B567E5578E926B108541F877BE9F1B2EDD247E5578E926B108541F9B39DEEA7C74B567E5578E926B108541F877BE9F1B2EDD247E5578E926B108541F9703D0BD6A3717C7F40501409069014090541D064069703D
310
0BD6A3717C7F0040001860100400018601002000186005228817F3FFFCFFFF3FFFC80A0280A2A80A0280A0280A0280A0280A0280A0280A0280A0280A0280A0280C80D0640905419074390F4112401500114013401044900540045004D004CD1C01140138015001480104010C013C00B001140138015400B000C000B0012401
310
500114013400B0011C011401380150014801040150016000B0009401CC00B000A0011C011401380134014C011C0080019C019401B8019001DC019C008000C800C800C800A40290351005400590040D44015001640132470045004E0054005200410043004F002C0045004E0055002C0030002C005100540059002C00470045
310
004E00540052004100540058002C00250073002C002800470045004E004D00530047002000670065006E0064007700670020003200320033002900A4113801040134011401044E0041004D0045004CD1C01140138015001480104010C013C00B001140138015400B000C000B0013801040134011400B0011C0114013801500
310
14801040150016000B0009401CC00B000A0011C011401380134014C011C0080019C019401B8019001DC019C008000C800C800D800A4012C3D004900460028004900530042004C0041004E004B00280050004100520054003A004E0041004D00450029002C0042004C004F0043004B003A004E0041004D0045002C005000410
310
0520054003A004E0041004D00450029009054400450053004300520042D100114014C010C01480124014001500124013C0138013A470045004E0054005200410043004F002C0045004E0055002C0030002C004400450053004300520049005000540049004F004E002C00470045004E00540052004100540058002C0025007
310
3002C002800470045004E004D00530047002000670065006E0064007700670020003200310037002900A4214C015001040138011001040148011001085300540041004E0044004100520044004DD1C01140138015001480104010C013C00B001140138015400B000C000B0014C015001040138011001040148011000B0011C
310
011401380150014801040150016000B0009401CC00B000A0011C011401380134014C011C0080019C019401B8019001DC019C008000C800C400E000A4029084D004100540045005200490041004C004213401040150011401480124010401300137470045004E0054005200410043004F002C0045004E0055002C0030002C00
310
4D004100540045005200490041004C002C00470045004E00540052004100540058002C00250073002C002800470045004E004D00530047002000670065006E0064007700670020003200320031002900A41138013C0150011401044E004F00540045004CD1C01140138015001480104010C013C00B001140138015400B000C
310
000B00138013C0150011400B0011C011401380150014801040150016000B0009401CC00B000A0011C011401380134014C011C0080019C019401B8019001DC019C008000C800C800D400A402906560045004E0044004F00520041958011401380110013C01480135470045004E0054005200410043004F002C0045004E00550
310
02C0030002C00560045004E0044004F0052002C00470045004E00540052004100540058002C00250073002C002800470045004E004D00530047002000670065006E0064007700670020003200320034002900A419100114014C010C014800C8010D4400450053004300520049005000540049004F004E00200032004ED1C01
310
140138015001480104010C013C00B001140138015400B000C000B001100114014C010C01480124014001500124013C0138008000C800B0011C011401380150014801040150016000B0009401CC00B000A0011C011401380134014C011C0080019C019401B8019001DC019C008000CC00D800A4029095300540041004E00440
310
041005200440032004294C0150010401380110010401480110008000C80139470045004E0054005200410043004F002C0045004E0055002C0030002C005300540041004E004400410052004400200032002C00470045004E00540052004100540058002C00250073002C002800470045004E004D0053004700200067006500
310
6E0064007700670020003200320030002900A42534010401500114014801240104013000C8010A4D004100540045005200490041004C00200032004E11C01140138015001480104010C013C00B001140138015400B000C000B001340104015001140148012401040130008000C800B0011C011401380150014801040150016
310
000B0009401CC00B000A0011C011401380134014C011C0080019C019401B8019001DC019C008000D000C000A4029044D00410053005300411340104014C014C0132470045004E0054005200410043004F002C0045004E0055002C0030002C004D004100530053002C00470045004E00540052004100540058002C002500730
310
02C002800470045004E004D00530047002000670065006E006400770067002000340032002900A42950013C015001040130017C01340104014C014C010A54004F00540041004C0020004D004100530053004E51C01140138015001480104010C013C00B001140138015400B000C000B00150013C0150010401300080013401
310
04014C014C00B0011C011401380150014801040150016000B0009401CC00B000A0011C011401380134014C011C0080019C019401B8019001DC019C008000C800C800E000A401213D004900460028004900530042004C0041004E004B0028004D0041005300530029002C0042004C0041004E004B002C005100540059002A00
310
4D004100530053002900905500052004900430045004154001480124010C01140133470045004E0054005200410043004F002C0045004E0055002C0030002C00500052004900430045002C00470045004E00540052004100540058002C00250073002C002800470045004E004D00530047002000670065006E006400770067
310
002000340033002900A40D1001240134010B4D004500410053005500520045004D0045004E0054004E51C01140138015001480104010C013C00B001140138015400B000C000B0013401140104014C015401480114013401140138015000B0011C011401380150014801040150016000B0009401CC00B000A0011C011401380
310
134014C011C0080019C019401B8019001DC019C008000D000D000A40290942004F004D005F0055004E0049005400530041554013801240150014C0134470045004E0054005200410043004F002C0045004E0055002C0030002C0055004E004900540053002C00470045004E00540052004100540058002C00250073002C002
310
800470045004E004D00530047002000670065006E0064007700670020003200340033002900A41CF400F0012401500114013400F801073D003C004900540045004D003E0041CF400F0012401500114013400F801073D003C004900540045004D003E0041CF400F0012401500114013400F801063D003C005100540059003E0
310
041CF400F0012401500114013400F801073D003C004900540045004D003E00910420069006C006C0020006F00660020004D006100740065007200690061006C00415040148012401040130010541005200490041004C0041504014801240104013002901310090B65006100090065006100090045006100630068000A00455
310
CC01C401B4002401CC01C401B40024014C01C401D4018401C8019400800134019401D0019401C80028011C7300710063006D0009007300710063006D0009005300710075006100720065002000430065006E00740069006D0065007400650072000A00459CC01C4019801D0002401CC01C4019801D00024014C01C401D4018
310
401C801940080011801BC01BC01D0002801147300710069006E0009007300710069006E000900530071007500610072006500200049006E000A0043D9C018401B00024019C018401B00024011C018401B001B001BC01B80028010C710074000900710074000900510075006100720074000A0046DB001C40190017C01BC01E
310
8002401B001C40190017C01BC01E80024013001A401C401D401A401900080013C01D401B8018C01940028010A6C0009006C0009004C0069007400650072000A00445B401B0002401B401B00024013401A401B001B001A401B001A401D0019401C80028010B79006400090079006400090059006100720064000A0042D9801D
310
00024019801D00024011801BC01BC01D00028010B69006E00090069006E00090049006E00630068000A00429B4002401B400240134019401D0019401C80028011163006D00090063006D000900430065006E00740069006D0065007400650072000A00445B401B4002401B401B40024013401A401B001B001A401B4019401D
310
0019401C80028010C6C00620009006C006200090050006F0075006E0064000A00431BC01E8002401BC01E80024013C01D401B8018C01940028010967000900670009004700720061006D000A00441B4019C002401B4019C0024013401A401B001B001A4019C01C8018401B40028010A62007800090062007800090042006F0
310
078000A00404B4005996
340
1812
340
0
340
180C
340
180C
340
1813
340
1813
340
1813
 94
        0
1001
ACAD
1000
AcRTDxfName
1000
ACMBOMSTANDARDANSI
  0
ACAD_PROXY_OBJECT
  5
18E6
330
18DF
100
AcDbProxyObject
 90
      499
 91
      546
 95
  6946847
 70
     0
 93
      280
310
738B81E85EB51B8CE3F2E07A17AD46E338FE07800030C0200C00030C0123C9FE3E0000CC
340
1910
 94
        0
1001
ACAD
1000
AcRTDxfName
1000
ACMDETAILSTANDARDANSI
  0
ACAD_PROXY_OBJECT
  5
190B
330
18DF
100
AcDbProxyObject
 90
      499
 91
      559
 95
  6946847
 70
     0
 93
      248
310
738B81E85EB51B8CE3F2E07A17AD46E338FE00000030002000000300012A04CC
340
1821
 94
        0
1001
ACAD
1000
AcRTDxfName
1000
ACMDETAILTANDARDCUSTOM
  0
ACAD_PROXY_OBJECT
  5
18E7
330
18DF
100
AcDbProxyObject
 90
      499
 91
      547
 95
  6946847
 70
     0
 93
      280
310
738B81E85EB51B8CE3F2E07A17AD46E338FE07800030C0201C00030C012AE9FE0E0000CC
340
1916
 94
        0
1001
ACAD
1000
AcRTDxfName
1000
ACMSECTIONSTANDARDANSI
  0
ACAD_PROXY_OBJECT
  5
190A
330
18DF
100
AcDbProxyObject
 90
      499
 91
      558
 95
  6946847
 70
     0
 93
      248
310
738B81E85EB51B8CE3F2E07A17AD46E338FE00000030002000000300012A04CC
340
181F
 94
        0
1001
ACAD
1000
AcRTDxfName
1000
ACMSECTIONSTANDARDCUSTOM
  0
ACAD_PROXY_OBJECT
  5
18E8
330
18DF
100
AcDbProxyObject
 90
      499
 91
      548
 95
  6946847
 70
     0
 93
      509
310
738000000000000F0BF0000000000003C2FE000000320020000003200200570E2DB39DEF867E14AE47E17A945E1F852B91F85EA51787F4333333333333F33FA4
 94
        0
1001
ACAD
1000
AcRTDxfName
1000
ACMCENTERLINESTANDARDANSI
  0
ACAD_PROXY_OBJECT
  5
18E9
330
18DF
100
AcDbProxyObject
 90
      499
 91
      549
 95
  6946847
 70
     0
 93
      242
310
738000000000000F0BF0000000000003C2FE0000003200200000032002048C
340
0
 94
        0
1001
ACAD
1000
AcRTDxfName
1000
ACMTHREADLINESTANDARDANSI
  0
ACAD_PROXY_OBJECT
  5
18EA
330
18DF
100
AcDbProxyObject
 90
      499
 91
      550
 95
  6946847
 70
     0
 93
    18049
310
738B81E85EB51B8BE3F2E07A17AD46E2F8FE00800030C02000000300012AFA1280A17480A15480A0480A0280E9014050340501407480A0280A0280A03A4050141D0140501D20280A3C81A0280E901405480A02A40D01456AAB9D50342950019401B401C001B0018401D00194008000C40005013D003C006900660028006500
310
7100750061006C00280048006F006C0065003A007400610070007000650064002C0022003000220029002C00220025002500630022002C0048006F006C0065003A006E006F006D0069006E0061006C002000220020002200200069006600280065007100750061006C00280048006F006C0065003A0075006E006900740073
310
002C0022003100220029002C002200780022002C0022002D0022002900200022002000220029003E003C0069006600280065007100750061006C00280048006F006C0065003A007400610070007000650064002C0022003000220029002C0048006F006C0065003A006400690061002C0048006F006C0065003A0070006900
310
740063006800640065007300630029003E0020007B005C00460041004D004700440054003B0078007D0020003C0069006600280065007100750061006C00280048006F006C0065003A007400650072006D0069006E006100740069006F006E002C0022003000220029002C0048006F006C0065003A00640065007000740068
310
002C0022005400480052005500220029003E005C0050007B005C00460041004D004700440054003B0076007D002500250063003C0048006F006C0065003A00630074006400690061003E0020007B005C00460041004D004700440054003B0078007D0020003C0048006F006C0065003A006300740064006500700074006800
310
3E0042950019401B401C001B0018401D00194008000C401FE3D003C0069006600280065007100750061006C00280048006F006C0065003A007400610070007000650064002C0022003000220029002C00220025002500630022002C0048006F006C0065003A006E006F006D0069006E0061006C00200022002000220020006
310
9006600280065007100750061006C00280048006F006C0065003A0075006E006900740073002C0022003100220029002C002200780022002C0022002D0022002900200022002000220029003E003C0069006600280065007100750061006C00280048006F006C0065003A007400610070007000650064002C0022003000220
310
029002C0048006F006C0065003A006400690061002C0048006F006C0065003A0070006900740063006800640065007300630029003E0020007B005C00460041004D004700440054003B0078007D0020003C0069006600280065007100750061006C00280048006F006C0065003A007400650072006D0069006E00610074006
310
9006F006E002C0022003000220029002C0048006F006C0065003A00640065007000740068002C0022005400480052005500220029003E005C0050007B005C00460041004D004700440054003B0077007D002500250063003C0048006F006C0065003A00630074006400690061003E002000580020003C0048006F006C00650
310
03A006300740061006E0067006C0065003E0025002500640042950019401B401C001B0018401D00194008000C401CF3D003C0069006600280065007100750061006C00280048006F006C0065003A007400610070007000650064002C0022003000220029002C00220025002500630022002C0048006F006C0065003A006E00
310
6F006D0069006E0061006C002000220020002200200069006600280065007100750061006C00280048006F006C0065003A0075006E006900740073002C0022003100220029002C002200780022002C0022002D0022002900200022002000220029003E003C0069006600280065007100750061006C00280048006F006C0065
310
003A007400610070007000650064002C0022003000220029002C0048006F006C0065003A006400690061002C0048006F006C0065003A0070006900740063006800640065007300630029003E005C0050007B005C00460041004D004700440054003B0078007D0020003C0069006600280065007100750061006C0028004800
310
6F006C0065003A007400650072006D0069006E006100740069006F006E002C0022003000220029002C0048006F006C0065003A00640065007000740068002C0022005400480052005500220029003E0042950019401B401C001B0018401D00194008000C401EA3D003C0069006600280065007100750061006C00280048006
310
F006C0065003A007400610070007000650064002C0022003000220029002C00220025002500630022002C0048006F006C0065003A006E006F006D0069006E0061006C002000220020002200200069006600280065007100750061006C00280048006F006C0065003A0075006E006900740073002C0022003100220029002C0
310
02200780022002C0022002D0022002900200022002000220029003E003C0069006600280065007100750061006C00280048006F006C0065003A007400610070007000650064002C0022003000220029002C0048006F006C0065003A006400690061002C0048006F006C0065003A00700069007400630068006400650073006
310
30029003E0020007B005C00460041004D004700440054003B0078007D0020003C0069006600280065007100750061006C00280048006F006C0065003A007400650072006D0069006E006100740069006F006E002C0022003000220029002C0048006F006C0065003A00640065007000740068002C002200540048005200550
310
0220029003E005C0050007B005C00460041004D004700440054003B0077007D002500250063003C0048006F006C0065003A00630074006400690061003E0042950019401B401C001B0018401D00194008000C801173D003C0053005400440050003A0044004500530043003E0020003C0053005400440050003A0053005400
310
44003E0042950019401B401C001B0018401D00194008000C4010C3D003C0053005400440050003A0044004500530043003E0042950019401B401C001B0018401D00194008000CC010B3D003C0053005400440050003A005300540044003E009443CC
360
1922
330
1922
360
1923
330
1923
360
1921
330
1921
360
1924
330
1924
360
191F
360
191E
360
1920
330
191F
330
191E
330
1920
 94
        0
1001
ACAD
1000
AcRTDxfName
1000
ACMNOTESTANDARDANSI
  0
ACAD_PROXY_OBJECT
  5
18EB
330
18DF
100
AcDbProxyObject
 90
      499
 91
      551
 95
  6946847
 70
     0
 93
      348
310
738B81E85EB51B8BE3F2E07A17AD46E2F8FE00800030C02000000300012AFA1680A0280D555520274003401C
 94
        0
1001
ACAD
1000
AcRTDxfName
1000
ACMTAPERSTANDARDANSI
  0
ACAD_PROXY_OBJECT
  5
18EC
330
18DF
100
AcDbProxyObject
 90
      499
 91
      552
 95
  6946847
 70
     0
 93
     1447
310
738B81E85EB51B8CE3F2E07A17AD46E2F8FE07800030C02000000300012AFA02808000000000001D07F510F400F0014C015001480154010C015000E8010C013C01340140017C013801040134011400F8008000F0014C015001480154010C015000E8015801240114015C017C013801040134011400F8008001580124011401
310
5C01700140014C010C010401300114008000F0014C015001480154010C015000E8014C0158017C014C010C01040130011400F8012812
340
180C
 94
        0
1001
ACAD
1000
AcRTDxfName
1000
ACMANOOTATIONVIEWSTANDARDANSI
  0
ACAD_PROXY_OBJECT
  5
18ED
330
18DF
100
AcDbProxyObject
 90
      499
 91
      553
 95
  6946847
 70
     0
 93
      254
310
738000000000000F0BF0000000000003C2FE0000003200200000032002020750
340
18F2
 94
        0
1001
ACAD
1000
AcRTDxfName
1000
ACAMGLAYSTD
  0
ACAD_PROXY_OBJECT
  5
18EE
330
18DF
100
AcDbProxyObject
 90
      499
 91
      554
 95
  6946847
 70
     0
 93
      559
310
738000000000000F0BF0000000000003C2FE00000032002000000320020208000000000000701F8000000000001C07E7FFFC408F000F801023C003E0040DB0018C00CC023802
340
18EF
340
0
340
0
340
18FF
340
1900
340
0
340
1901
340
1902
340
1907
340
0
340
1900
340
0
 94
        0
1001
ACAD
1000
AcRTDxfName
1000
ACAMGDIMSTD
  0
ACAD_PROXY_OBJECT
  5
1908
330
18DF
100
AcDbProxyObject
 90
      499
 91
      556
 95
  6946847
 70
     0
 93
    27994
310
738000000000000F0BF0000000000003C2FE00000032002000000320020246352020600005C0F42F5A8DC5F1FC01000061806808180001703D0BD6A3717C7F004000186018080F0201800000000000000000000000000000000F6295C8FC2F5487E5C0F42F5A8DC5F1FC01000061800F6295C8FC2F5487E5C0F42F5A8DC5F1
310
FC0100006180403F8080F0201800000000000000000000000000000000F6295C8FC2F5487E5C0F42F5A8DC5F1FC01000061800F6295C8FC2F5487E5C0F42F5A8DC5F1FC0100006180403FA1C8821E88A0481A0882A0E862028722489A2A82A2483A288621A880000808000808200110A000101000101040021F40002020202
310
020800446800040400040400008150000808000808000103A0001010001010000209400020200020206004168000404000404040083D000080800080020010CA0001010001010500A0340002020002020A0143A800040400040410008950000808000808280113A000101000101050022B40002020002020C0045280004040
310
00400100086D22000CFFFFFFFF0026A6666666667A4FE7FFFFFFF819353333333333D27F3FFFFFFFC049A9999999999E93F9FFFFFFFE024D4CCCCCCCCCF49FCFFFFFFFF0226A6666666667A4FE7FFFFFFF811353333333333D27F3FFFFFFFC0D9FFFFFFFE0600000000000000204FFFFFFFF0026A666666666764FE7FFFFFF
310
F801353333333333D27F3FFFFFFFC009A9999999999E93F9FFFFFFFE004D4CCCCCCCCCF49FCFFFFFFFF0026A6666666667A4FE7FFFFFFF819703D0BD6A371BC7F3FFFFFFFC0C67666666666606409FFFFFFFE880033FFFFFFFC009A9999999999E93F9FFFFFFFE064D4CCCCCCCCCF49FCFFFFFFFF0326A6666666667A4FE7F
310
FFFFFF819353333333333D27F3FFFFFFFC0C9A9999999999E93F9FFFFFFFE064D4CCCCCCCCCF49FCFFFFFFFF0367FFFFFFF81800000000000000813FFFFFFFC009A9999999999D93F9FFFFFFFE004D4CCCCCCCCCF49FCFFFFFFFF0326A6666666667A4FE7FFFFFFF801353333333333D27F3FFFFFFFC009A9999999999E93F
310
9FFFFFFFE065C0F42F5A8DC6F1FCFFFFFFFF0319D999999999819027FFFFFFFA088800000021E000000890000002260000008220E00020089000000206000200810000801FFFFFFFE812020002822200000008780000022400000089800000206000082220000000878000002240000008A8000001FFFFFFFF22698009200A
310
600A80040009E008C00400086009E009E00A400880092009C008200A8008A00A600A12380228027002A0029002080218027801600228027002A801600180016002600248029802A001000278023001000218027802780290022002480270020802A002280298016002380228027002A00290020802A002C001600128039801
310
600140023802280270026802980238010003380328037003200348036803D00100019801800148021E7A0078008800CA00CC00C200EA00D800E800A800D200E800D800CA007C0085240027802600228010002A0020802100260022802728E008A009C00A800A400820086009E0058008A009C00AA0058006000580090009E0
310
098008A004000A8008200840098008A0058008E008A009C00A800A4008200A800B00058004A00E600580050008E008A009C009A00A6008E004000CE00CA00DC00C800D200DA00F4004000660062005200879E801E0022003280330030803A8036003A002A0034803A00360032801F0020C9E00A40092008E0092009C009A23
310
80228027002A0029002080218027801600228027002A8016001800160027802900248023802480270016002380228027002A00290020802A002C001600128039801600140023802280270026802980238010003380328037003200348036803D0010001880148020C9E00A40092008E0092009C009A2380228027002A00290
310
02080218027801600228027002A8016001800160027802900248023802480270016002380228027002A00290020802A002C001600128039801600140023802280270026802980238010003380328037003200348036803D0010001880148020890009E0098008A00992380228027002A002900208021802780160022802700
310
2A80160018001600240027802600228016002380228027002A00290020802A002C001600128039801600140023802280270026802980238010003380328037003200348036803D0010001900148029C7A00780092008C0050009200A6008400980082009C00960050009000DE00D800CA009200E800CA00DA00520058009E0
310
0E400D200CE00D200DC00580040009000DE00D800CA009200E800CA00DA0052007C00780092008C0050009200A6008400980082009C00960050009000DE00D800CA009200E800CA00DA005200580044004400580040009000DE00D800CA009200DC00C800CA00F00052007C0080AC0025E8E008A009C00A800A40082008600
310
9E0058008A009C00AA00580060005800B00058008E008A009C00A800A4008200A800B00058004A00E600580050008E008A009C009A00A6008E004000CE00CA00DC00C800D200DA00F40040006600520080AC8025E8E008A009C00A800A400820086009E0058008A009C00AA00580060005800B20058008E008A009C00A800A
310
4008200A800B00058004A00E600580050008E008A009C009A00A6008E004000CE00CA00DC00C800D200DA00F40040006800520080A90025E8E008A009C00A800A400820086009E0058008A009C00AA00580060005800A40058008E008A009C00A800A4008200A800B00058004A00E600580050008E008A009C009A00A6008E
310
004000CE00CA00DC00C800D200DA00F40040006C0052008C3D802E00230029802C8026802100278026003E00210018003E00248018003E00218019003E00280018001D8025003E8028C8E008A009C00A800A400820086009E0058008A009C00AA00580060005800F600B8008C00A600B2009A0084009E009800F8008400600
310
0F80092006000F80086006400F800A000600076009400FA0058008E008A009C00A800A4008200A800B00058004A00E600580050008E008A009C009A00A6008E004000CE00CA00DC00C800D200DA00F40040006E005200819280128021802628E008A009C00A800A400820086009E0058008A009C00AA005800600058004A00
310
4A00860058008E008A009C00A800A4008200A800B00058004A00E600580050008E008A009C009A00A6008E004000CE00CA00DC00C800D200DA00F40040007000520085A2002280298021802900248028002A002480278027002748E008A009C00A800A400820086009E0058008A009C00AA0058006000580088008A00A6008
310
600A4009200A000A80092009E009C0058008E008A009C00A800A4008200A800B00058004A00E600580050008E008A009C009A00A6008E004000CE00CA00DC00C800D200DA00F40040006400600052008224802A00228026802668E008A009C00A800A400820086009E0058008A009C00AA005800600058009200A8008A009A
310
0058008E008A009C00A800A4008200A800B00058004A00E600580050008E008A009C009A00A6008E004000CE00CA00DC00C800D200DA00F400400062006800520082A4802700220022802C002688E008A009C00A800A400820086009E0058008A009C00AA0058006000580092009C0088008A00B00058008E008A009C00A80
310
0A4008200A800B00058004A00E600580050008E008A009C009A00A6008E004000CE00CA00DC00C800D200DA00F400400062006A0052008224002780260022802668E008A009C00A800A400820086009E0058008A009C00AA0058006000580090009E0098008A0058008E008A009C00A800A4008200A800B00058004A00E600
310
580050008E008A009C009A00A6008E004000CE00CA00DC00C800D200DA00F400400062006C005200852400278026002280100024802700220022802C002728E008A009C00A800A400820086009E0058008A009C00AA0058006000580090009E0098008A00400092009C0088008A00B00058008E008A009C00A800A4008200A
310
800B00058004A00E600580050008E008A009C009A00A6008E004000CE00CA00DC00C800D200DA00F400400062006E00520084AA80298022802900100024802A00228026802708E008A009C00A800A400820086009E0058008A009C00AA00580060005800AA00A6008A00A40040009200A8008A009A0058008E008A009C00A8
310
00A4008200A800B00058004A00E600580050008E008A009C009A00A6008E004000CE00CA00DC00C800D200DA00F400400064006400520081A8802A002C802648E008A009C00A800A400820086009E0058008A009C00AA00580060005800A200A800B20058008E008A009C00A800A4008200A800B00058004A00E6005800500
310
08E008A009C009A00A6008E004000CE00CA00DC00C800D200DA00F40040006200720052008429802A0020802700220020802900220026E8E008A009C00A800A400820086009E0058008A009C00AA00580060005800A600A80082009C0088008200A400880058008E008A009C00A800A4008200A800B00058004A00E6005800
310
50008E008A009C009A00A6008E004000CE00CA00DC00C800D200DA00F4004000640062005200A71E801E0024802300140024802980210026002080270025801400240037803600328024803A00328036801480160027803900348033803480370016001000240037803600328024803A003280368014801F001E0024802300
310
140024802980210026002080270025801400240037803600328024803A0032803680148016001100110016001000240037803600328024803700320032803C0014801F005828CC
340
0
340
0
340
0
340
0
340
180C
340
180C
 94
        0
1001
ACAD
1000
AcRTDxfName
1000
ACAMGHOLECHARTSTDANSI
  0
ACAD_PROXY_OBJECT
  5
1909
330
18DF
100
AcDbProxyObject
 90
      499
 91
      557
 95
  6946847
 70
     0
 93
    11075
310
738000000000000F0BF0000000000003C2FE0000003200200000032002032E8320A842054000000000020159000000000000003240000000000000071010441004E0053004900419040138014C0124017C010C010A41004E00530049005F0054004900540055005300455040138014C0124017C01080148017C0148019401D
310
801A401CC01A401BC01B801B001A401CC01D00184011041002000280038002E0035007800310031002E00300069006E00630068002900419040138014C0124017C01040111460020002800320038002E0030007800340030002E00300069006E00630068002900419040138014C0124017C011801114500200028003300340
310
02E0030007800340034002E00300069006E00630068002900419040138014C0124017C01140111440020002800320032002E0030007800330034002E00300069006E00630068002900419040138014C0124017C01100111420020002800310031002E0030007800310037002E00300069006E0063006800290041904013801
310
4C0124017C01080111430020002800310037002E0030007800320032002E00300069006E00630068002900419040138014C0124017C010C011341006E007300690020005400690074006C006500200042006C006F0063006B00200044004300431040138014C0124017C015001240150013001140110010C011341006E0073
310
00690020005400690074006C006500200042006C006F0063006B00200041004300431040138014C0124017C015001240150013001140104010C010E5500530020005400690074006C006500200042006C006F0063006B00429040138014C0124017C0150012401500154014C011241006E007300690020005400690074006C
310
006500200042006C006F0063006B002000440042D040138014C0124017C015001240150013001140110011241006E007300690020005400690074006C006500200042006C006F0063006B002000410042D040138014C0124017C01500124015001300114010401125200650076006900730069006F006E006C006900730074
310
00200044005F00420052005F00455040138014C0124017C01080148017C0148019401D801A401CC01A401BC01B801B001A401CC01D0019001125200650076006900730069006F006E006C00690073007400200044005F00540052005F00455040138014C0124017C01500148017C0148019401D801A401CC01A401BC01B801
310
B001A401CC01D0019001125200650076006900730069006F006E006C00690073007400200041005F00420052005F00455040138014C0124017C01080148017C0148019401D801A401CC01A401BC01B801B001A401CC01D0018401125200650076006900730069006F006E006C00690073007400200041005F00540052005F0
310
0455040138014C0124017C01500148017C0148019401D801A401CC01A401BC01B801B001A401CC01D0018401125200650076006900730069006F006E006C00690073007400200044005F0042004C005F00455040138014C0124017C01080130017C0148019401D801A401CC01A401BC01B801B001A401CC01D001900112520
310
0650076006900730069006F006E006C00690073007400200044005F0054004C005F00455040138014C0124017C01500130017C0148019401D801A401CC01A401BC01B801B001A401CC01D0019001125200650076006900730069006F006E006C00690073007400200041005F0042004C005F00455040138014C0124017C010
310
80130017C0148019401D801A401CC01A401BC01B801B001A401CC01D0018401125200650076006900730069006F006E006C00690073007400200041005F0054004C005F00455040138014C0124017C01500130017C0148019401D801A401CC01A401BC01B801B001A401CC01D0018402920A6C
 94
        0
1001
ACAD
1000
AcRTDxfName
1000
ACAMGTITLESTD
  0
FIELD
  5
1919
102
{ACAD_REACTORS
330
1918
102
}
330
1918
100
AcDbField
  1
_text
  2
%<\_FldIdx 0>% %<\_FldIdx 1>%-%<\_FldIdx 2>%
 90
        3
360
191A
360
191C
360
191D
 97
        0
  4

 91
       63
 92
        0
 94
        9
 95
        2
 96
        0
300

 93
        0
  7
ACFD_FIELD_VALUE
 90
        0
 91
        0
301

 98
        0
  0
ACAD_PROXY_OBJECT
  5
1922
330
0
100
AcDbProxyObject
 90
      499
 91
      562
 95
  6946847
 70
     0
 93
     4410
310
73A0101A14A800CA00DA00E000D800C200E800CA004000620002809E801E00348033001400328038803A8030803600140024003780360032801D003A003080380038003280320016001100180011001480160011001280128031801100160024003780360032801D0037003780368034803700308036001000110010001100
310
1000348033001400328038803A8030803600140024003780360032801D003A80370034803A00398016001100188011001480160011003C00110016001100168011001480100011001000110014801F001E00348033001400328038803A8030803600140024003780360032801D003A00308038003800328032001600110018
310
0011001480160024003780360032801D00320034803080160024003780360032801D00380034803A0031803400320032803980318014801F0010003D802E00230020802680238022002A001D803C003E8010001E00348033001400328038803A8030803600140024003780360032801D003A00328039003680348037003080
310
3A0034803780370016001100180011001480160024003780360032801D003200328038003A003400160011002A00240029002A80110014801F002E0028003D802E00230020802680238022002A001D803B003E801280128031801E0024003780360032801D0031803A003200348030801F0010003D802E0023002080268023
310
8022002A001D803C003E8010001E0024003780360032801D0031803A003200328038003A0034001F000608CC
 94
        0
1001
ACAD
1000
AcRTDxfName
1000
AMDTNOTETEMPLATEDB
  0
ACAD_PROXY_OBJECT
  5
1923
330
0
100
AcDbProxyObject
 90
      499
 91
      562
 95
  6946847
 70
     0
 93
     4290
310
73A0101A14A800CA00DA00E000D800C200E800CA0040006200FF1E801E00348033001400328038803A8030803600140024003780360032801D003A003080380038003280320016001100180011001480160011001280128031801100160024003780360032801D003700378036803480370030803600100011001000110010
310
00348033001400328038803A8030803600140024003780360032801D003A80370034803A00398016001100188011001480160011003C00110016001100168011001480100011001000110014801F001E00348033001400328038803A8030803600140024003780360032801D003A0030803800380032803200160011001800
310
11001480160024003780360032801D00320034803080160024003780360032801D00380034803A0031803400320032803980318014801F0010003D802E00230020802680238022002A001D803C003E8010001E00348033001400328038803A8030803600140024003780360032801D003A003280390036803480370030803A
310
0034803780370016001100180011001480160024003780360032801D003200328038003A003400160011002A00240029002A80110014801F002E0028003D802E00230020802680238022002A001D803B803E801280128031801E0024003780360032801D0031803A003200348030801F0010002C0010001E00240037803600
310
32801D0031803A00308037003380360032801F001280128032004A084C
 94
        0
1001
ACAD
1000
AcRTDxfName
1000
AMDTNOTETEMPLATEDB
  0
ACAD_PROXY_OBJECT
  5
1921
330
0
100
AcDbProxyObject
 90
      499
 91
      562
 95
  6946847
 70
     0
 93
     3538
310
73A0101A14A800CA00DA00E000D800C200E800CA0040006200E79E801E00348033001400328038803A8030803600140024003780360032801D003A003080380038003280320016001100180011001480160011001280128031801100160024003780360032801D003700378036803480370030803600100011001000110010
310
00348033001400328038803A8030803600140024003780360032801D003A80370034803A00398016001100188011001480160011003C00110016001100168011001480100011001000110014801F001E00348033001400328038803A8030803600140024003780360032801D003A0030803800380032803200160011001800
310
11001480160024003780360032801D00320034803080160024003780360032801D00380034803A0031803400320032803980318014801F002E0028003D802E00230020802680238022002A001D803C003E8010001E00348033001400328038803A8030803600140024003780360032801D003A003280390036803480370030
310
803A0034803780370016001100180011001480160024003780360032801D003200328038003A003400160011002A00240029002A80110014801F005206CC
 94
        0
1001
ACAD
1000
AcRTDxfName
1000
AMDTNOTETEMPLATEDB
  0
ACAD_PROXY_OBJECT
  5
1924
330
0
100
AcDbProxyObject
 90
      499
 91
      562
 95
  6946847
 70
     0
 93
     3970
310
73A0101A14A800CA00DA00E000D800C200E800CA0040006200F51E801E00348033001400328038803A8030803600140024003780360032801D003A003080380038003280320016001100180011001480160011001280128031801100160024003780360032801D003700378036803480370030803600100011001000110010
310
00348033001400328038803A8030803600140024003780360032801D003A80370034803A00398016001100188011001480160011003C00110016001100168011001480100011001000110014801F001E00348033001400328038803A8030803600140024003780360032801D003A0030803800380032803200160011001800
310
11001480160024003780360032801D00320034803080160024003780360032801D00380034803A0031803400320032803980318014801F0010003D802E00230020802680238022002A001D803C003E8010001E00348033001400328038803A8030803600140024003780360032801D003A003280390036803480370030803A
310
0034803780370016001100180011001480160024003780360032801D003200328038003A003400160011002A00240029002A80110014801F002E0028003D802E00230020802680238022002A001D803B803E801280128031801E0024003780360032801D0031803A003200348030801F002A07CC
 94
        0
1001
ACAD
1000
AcRTDxfName
1000
AMDTNOTETEMPLATEDB
  0
ACAD_PROXY_OBJECT
  5
191F
330
0
100
AcDbProxyObject
 90
      499
 91
      562
 95
  6946847
 70
     0
 93
      594
310
73A0101214A800CA00DA00E000D800C200E800CA00400064008B9E801E0029802A00220028001D0022002280298021801F0010001E0029802A00220028001D0029802A0022001F0012014C
 94
        0
1001
ACAD
1000
AcRTDxfName
1000
AMDTNOTETEMPLATEDB
  0
ACAD_PROXY_OBJECT
  5
191E
330
0
100
AcDbProxyObject
 90
      499
 91
      562
 95
  6946847
 70
     0
 93
      418
310
73A0101A14A800CA00DA00E000D800C200E800CA0040006200861E801E0029802A00220028001D0022002280298021801F003A00CC
 94
        0
1001
ACAD
1000
AcRTDxfName
1000
AMDTNOTETEMPLATEDB
  0
ACAD_PROXY_OBJECT
  5
1920
330
0
100
AcDbProxyObject
 90
      499
 91
      562
 95
  6946847
 70
     0
 93
      402
310
73A0101214A800CA00DA00E000D800C200E800CA0040006600859E801E0029802A00220028001D0029802A0022001F003200CC
 94
        0
1001
ACAD
1000
AcRTDxfName
1000
AMDTNOTETEMPLATEDB
  0
FIELD
  5
191A
330
1919
100
AcDbField
  1
AcVar
  2
\AcVar ViewType \f "%tc1"
 90
        0
 97
        0
  4
%tc1
 91
       63
 92
        0
 94
       43
 95
        2
 96
        0
300

 93
        1
  6
Variable
 90
        4
  1
ViewType
  7
ACFD_FIELD_VALUE
 90
        0
 91
        0
301
----
 98
        4
  0
FIELD
  5
191C
330
1919
100
AcDbField
  1
AcVar
  2
\AcVar ViewSectionStartId
 90
        0
 97
        0
  4

 91
       63
 92
        0
 94
       43
 95
        2
 96
        0
300

 93
        1
  6
Variable
 90
        4
  1
ViewSectionStartId
  7
ACFD_FIELD_VALUE
 90
        0
 91
        0
301
----
 98
        4
  0
FIELD
  5
191D
330
1919
100
AcDbField
  1
AcVar
  2
\AcVar ViewSectionEndId
 90
        0
 97
        0
  4

 91
       63
 92
        0
 94
       43
 95
        2
 96
        0
300

 93
        1
  6
Variable
 90
        4
  1
ViewSectionEndId
  7
ACFD_FIELD_VALUE
 90
        0
 91
        0
301
----
 98
        4
  0
ENDSEC
  0
EOF
