0
SECTION
2
HEADER
9
$ACADVER
1
AC1015
9
$DWGCODEPAGE
3
ANSI_1252
9
$HANDSEED
5
1ea
9
$ANGBASE
50
0
9
$ANGDIR
70
0
9
$ATTMODE
70
1
9
$AUNITS
70
0
9
$AUPREC
70
0
9
$CECOLOR
62
256
9
$CELTSCALE
40
1
9
$CELTYPE
6
ByLayer
9
$CELWEIGHT
370
18
9
$CLAYER
8
0
9
$CMLJUST
70
0
9
$CMLSCALE
40
1
9
$CMLSTYLE
2
Standard
9
$DIMSTYLE
2
Standard
9
$TEXTSIZE
40
0.2
9
$TEXTSTYLE
7
Standard
9
$LUNITS
70
2
9
$LUPREC
70
4
9
$EXTNAMES
290
1
9
$INSUNITS
70
4
9
$LTSCALE
40
1
9
$LWDISPLAY
290
1
9
$PDMODE
70
0
9
$PDSIZE
40
0
9
$PLINEGEN
70
0
0
ENDSEC
0
SECTION
2
CLASSES
0
CLASS
1
RASTERVARIABLES
2
AcDbRasterVariables
3
ISM
90
0
280
0
281
0
0
ENDSEC
0
SECTION
2
TABLES
0
TABLE
2
VPORT
5
1e0
100
AcDbSymbolTable
0
VPORT
5
1
100
AcDbSymbolTableRecord
100
AcDbViewportTableRecord
2
*Active
70
0
10
0
20
0
11
1
21
1
12
-1
22
1
13
0
23
0
14
0.5
24
0.5
15
10
25
10
16
0
26
0
36
1
17
0
27
0
37
0
0
ENDTAB
0
TABLE
2
LTYPE
5
1e1
100
AcDbSymbolTable
0
LTYPE
5
14
100
AcDbSymbolTableRecord
100
AcDbLinetypeTableRecord
70
0
2
ByBlock
3

72
65
73
0
40
0
0
LTYPE
5
15
100
AcDbSymbolTableRecord
100
AcDbLinetypeTableRecord
70
0
2
ByLayer
3

72
65
73
0
40
0
0
LTYPE
5
16
100
AcDbSymbolTableRecord
100
AcDbLinetypeTableRecord
70
0
2
CONTINUOUS
3
Solid line
72
65
73
0
40
0
0
LTYPE
5
6A
100
AcDbSymbolTableRecord
100
AcDbLinetypeTableRecord
70
0
2
CENTER
3
____ _ ____ _ ____ _ ____
72
65
73
4
40
47.5
49
22
74
0
49
-8.5
74
0
49
8.5
74
0
49
-8.5
74
0
0
LTYPE
5
6B
100
AcDbSymbolTableRecord
100
AcDbLinetypeTableRecord
70
0
2
DASHED
3
__ __ __ __ __ __ __ __ __
72
65
73
2
40
25.72
49
12.86
74
0
49
-12.86
74
0
0
ENDTAB
0
TABLE
2
LAYER
5
1e2
100
AcDbSymbolTable
0
LAYER
5
10
100
AcDbSymbolTableRecord
100
AcDbLayerTableRecord
2
0
70
0
62
7
6
CONTINUOUS
290
1
370
-3
390
0
0
LAYER
5
6D
100
AcDbSymbolTableRecord
100
AcDbLayerTableRecord
2
80
70
0
62
-6
6
CONTINUOUS
290
1
370
-3
390
0
0
LAYER
5
6F
100
AcDbSymbolTableRecord
100
AcDbLayerTableRecord
2
81
70
0
62
-3
6
CONTINUOUS
290
1
370
-3
390
0
0
LAYER
5
71
100
AcDbSymbolTableRecord
100
AcDbLayerTableRecord
2
2
70
0
62
7
6
CONTINUOUS
290
1
370
-3
390
0
0
LAYER
5
7F
100
AcDbSymbolTableRecord
100
AcDbLayerTableRecord
2
1
70
0
62
4
6
CONTINUOUS
290
1
370
-3
390
0
0
LAYER
5
1cd
100
AcDbSymbolTableRecord
100
AcDbLayerTableRecord
2
SK2
70
0
62
7
6
CONTINUOUS
290
1
370
-3
390
0
0
LAYER
5
1ce
100
AcDbSymbolTableRecord
100
AcDbLayerTableRecord
2
SK1
70
0
62
4
6
CONTINUOUS
290
1
370
-3
390
0
0
LAYER
5
1cf
100
AcDbSymbolTableRecord
100
AcDbLayerTableRecord
2
SK6
70
0
62
5
6
CONTINUOUS
290
1
370
-3
390
0
0
ENDTAB
0
TABLE
2
STYLE
5
1e3
100
AcDbSymbolTable
0
STYLE
5
11
100
AcDbSymbolTableRecord
100
AcDbTextStyleTableRecord
2
Standard
3
txt
70
0
71
0
40
0
41
1
42
0
50
0
0
STYLE
5
116
100
AcDbSymbolTableRecord
100
AcDbTextStyleTableRecord
2
iso_b_vert
3
simplex.shx
70
0
71
0
40
0
41
1
42
0
50
0
0
STYLE
5
117
100
AcDbSymbolTableRecord
100
AcDbTextStyleTableRecord
2
DWGDirectTextStyle
3
simplex
70
0
71
0
40
0
41
1
42
0
50
0
0
ENDTAB
0
TABLE
2
DIMSTYLE
5
1e4
100
AcDbSymbolTable
100
AcDbDimStyleTable
0
DIMSTYLE
105
27
100
AcDbSymbolTableRecord
100
AcDbDimStyleTableRecord
2
Standard
70
0
3
<>
41
0.18
42
0.0625
44
0.18
140
0.18
147
0.09
73
0
74
0
77
1
271
2
275
0
278
52
280
0
340
11
0
ENDTAB
0
TABLE
2
VIEW
5
1e5
100
AcDbSymbolTable
0
ENDTAB
0
TABLE
2
UCS
5
1e6
100
AcDbSymbolTable
0
ENDTAB
0
TABLE
2
APPID
5
1e7
100
AcDbSymbolTable
0
APPID
5
12
100
AcDbSymbolTableRecord
100
AcDbRegAppTableRecord
2
ACAD
70
0
0
ENDTAB
0
TABLE
2
BLOCK_RECORD
5
1e8
100
AcDbSymbolTable
0
BLOCK_RECORD
5
1F
100
AcDbSymbolTableRecord
100
AcDbBlockTableRecord
2
*Model_Space
340
0
70
0
0
BLOCK_RECORD
5
1B
100
AcDbSymbolTableRecord
100
AcDbBlockTableRecord
2
*Paper_Space
340
0
70
0
0
BLOCK_RECORD
5
23
100
AcDbSymbolTableRecord
100
AcDbBlockTableRecord
2
*Paper_Space0
340
0
70
0
0
BLOCK_RECORD
5
119
100
AcDbSymbolTableRecord
100
AcDbBlockTableRecord
2
DimnDraft3D1
340
0
70
0
0
BLOCK_RECORD
5
127
100
AcDbSymbolTableRecord
100
AcDbBlockTableRecord
2
_CLOSED
340
0
70
0
0
BLOCK_RECORD
5
12E
100
AcDbSymbolTableRecord
100
AcDbBlockTableRecord
2
DimnDraft3D2
340
0
70
0
0
BLOCK_RECORD
5
13C
100
AcDbSymbolTableRecord
100
AcDbBlockTableRecord
2
DimnDraft3D3
340
0
70
0
0
BLOCK_RECORD
5
14A
100
AcDbSymbolTableRecord
100
AcDbBlockTableRecord
2
DimnDraft3D4
340
0
70
0
0
BLOCK_RECORD
5
158
100
AcDbSymbolTableRecord
100
AcDbBlockTableRecord
2
DimnDraft3D5
340
0
70
0
0
BLOCK_RECORD
5
166
100
AcDbSymbolTableRecord
100
AcDbBlockTableRecord
2
DimnDraft3D6
340
0
70
0
0
ENDTAB
0
ENDSEC
0
SECTION
2
BLOCKS
0
BLOCK
5
20
100
AcDbEntity
8
0
100
AcDbBlockBegin
2
*Model_Space
70
0
10
0
20
0
30
0
3
*Model_Space
0
ENDBLK
5
21
100
AcDbEntity
8
0
100
AcDbBlockEnd
0
BLOCK
5
1C
100
AcDbEntity
8
0
100
AcDbBlockBegin
2
*Paper_Space
70
0
10
0
20
0
30
0
3
*Paper_Space
0
ENDBLK
5
1D
100
AcDbEntity
8
0
100
AcDbBlockEnd
0
BLOCK
5
24
100
AcDbEntity
8
0
100
AcDbBlockBegin
2
*Paper_Space0
70
0
10
0
20
0
30
0
3
*Paper_Space0
0
ENDBLK
5
25
100
AcDbEntity
8
0
100
AcDbBlockEnd
0
BLOCK
5
124
100
AcDbEntity
8
0
100
AcDbBlockBegin
2
DimnDraft3D1
70
0
10
0
20
0
30
0
3
DimnDraft3D1
0
MTEXT
5
11A
100
AcDbEntity
8
2
62
256
6
ByLayer
370
18
48
1
60
0
100
AcDbMText
10
33.647884
20
-0.928289
30
0
210
0
220
0
230
1
1
\W0.6864;31.75
40
3.5
41
0
44
1.084337
50
90
71
7
72
5
7
iso_b_vert
0
LINE
5
11B
100
AcDbEntity
8
2
62
256
6
ByLayer
370
13
48
1
60
0
100
AcDbLine
10
34
20
-12.7
30
0
11
36.522884
21
-12.7
31
0
39
0
210
0
220
0
230
1
0
LINE
5
11C
100
AcDbEntity
8
2
62
256
6
ByLayer
370
13
48
1
60
0
100
AcDbLine
10
37
20
19.05
30
0
11
32.522884
21
19.05
31
0
39
0
210
0
220
0
230
1
0
LINE
5
11D
100
AcDbEntity
8
2
62
256
6
ByLayer
370
13
48
1
60
0
100
AcDbLine
10
34.522884
20
-12.7
30
0
11
34.522884
21
19.05
31
0
39
0
210
0
220
0
230
1
0
LINE
5
11E
100
AcDbEntity
8
2
62
256
6
ByLayer
370
13
48
1
60
0
100
AcDbLine
10
34.522884
20
-12.7
30
0
11
34.104888
21
-9.525002
31
0
39
0
210
0
220
0
230
1
0
LINE
5
11F
100
AcDbEntity
8
2
62
256
6
ByLayer
370
13
48
1
60
0
100
AcDbLine
10
34.522884
20
-12.7
30
0
11
34.940881
21
-9.524998
31
0
39
0
210
0
220
0
230
1
0
LINE
5
120
100
AcDbEntity
8
2
62
256
6
ByLayer
370
13
48
1
60
0
100
AcDbLine
10
34.104888
20
-9.525002
30
0
11
34.940881
21
-9.524998
31
0
39
0
210
0
220
0
230
1
0
LINE
5
121
100
AcDbEntity
8
2
62
256
6
ByLayer
370
13
48
1
60
0
100
AcDbLine
10
34.522884
20
19.05
30
0
11
34.940881
21
15.875002
31
0
39
0
210
0
220
0
230
1
0
LINE
5
122
100
AcDbEntity
8
2
62
256
6
ByLayer
370
13
48
1
60
0
100
AcDbLine
10
34.522884
20
19.05
30
0
11
34.104888
21
15.874998
31
0
39
0
210
0
220
0
230
1
0
LINE
5
123
100
AcDbEntity
8
2
62
256
6
ByLayer
370
13
48
1
60
0
100
AcDbLine
10
34.940881
20
15.875002
30
0
11
34.104888
21
15.874998
31
0
39
0
210
0
220
0
230
1
0
ENDBLK
5
125
100
AcDbEntity
8
0
100
AcDbBlockEnd
0
BLOCK
5
128
100
AcDbEntity
8
0
100
AcDbBlockBegin
2
_CLOSED
70
0
10
0
20
0
30
0
3
_CLOSED
0
LINE
5
12A
100
AcDbEntity
8
0
62
256
6
ByLayer
370
-2
48
1
60
0
100
AcDbLine
10
-1
20
0.166667
30
0
11
0
21
0
31
0
39
0
210
0
220
0
230
1
0
LINE
5
12B
100
AcDbEntity
8
0
62
256
6
ByLayer
370
-2
48
1
60
0
100
AcDbLine
10
0
20
0
30
0
11
-1
21
-0.166667
31
0
39
0
210
0
220
0
230
1
0
LINE
5
12C
100
AcDbEntity
8
0
62
256
6
ByLayer
370
-2
48
1
60
0
100
AcDbLine
10
-1
20
0.166667
30
0
11
-1
21
-0.166667
31
0
39
0
210
0
220
0
230
1
0
LINE
5
12D
100
AcDbEntity
8
0
62
256
6
ByLayer
370
-2
48
1
60
0
100
AcDbLine
10
0
20
0
30
0
11
-1
21
0
31
0
39
0
210
0
220
0
230
1
0
ENDBLK
5
129
100
AcDbEntity
8
0
100
AcDbBlockEnd
0
BLOCK
5
139
100
AcDbEntity
8
0
100
AcDbBlockBegin
2
DimnDraft3D2
70
0
10
0
20
0
30
0
3
DimnDraft3D2
0
MTEXT
5
12F
100
AcDbEntity
8
SK2
62
256
6
ByLayer
370
18
48
1
60
0
100
AcDbMText
10
-99.47505
20
-3.417105
30
0
210
0
220
0
230
1
1
\W0.7528;25.4
40
3.5
41
0
44
1.084337
50
90
71
7
72
5
7
iso_b_vert
0
LINE
5
130
100
AcDbEntity
8
SK2
62
256
6
ByLayer
370
13
48
1
60
0
100
AcDbLine
10
-2
20
12.7
30
0
11
-100.60005
21
12.7
31
0
39
0
210
0
220
0
230
1
0
LINE
5
131
100
AcDbEntity
8
SK2
62
256
6
ByLayer
370
13
48
1
60
0
100
AcDbLine
10
-86
20
-12.7
30
0
11
-100.60005
21
-12.7
31
0
39
0
210
0
220
0
230
1
0
LINE
5
132
100
AcDbEntity
8
SK2
62
256
6
ByLayer
370
13
48
1
60
0
100
AcDbLine
10
-98.60005
20
12.7
30
0
11
-98.60005
21
-12.7
31
0
39
0
210
0
220
0
230
1
0
LINE
5
133
100
AcDbEntity
8
SK2
62
256
6
ByLayer
370
13
48
1
60
0
100
AcDbLine
10
-98.60005
20
12.7
30
0
11
-98.182053
21
9.525002
31
0
39
0
210
0
220
0
230
1
0
LINE
5
134
100
AcDbEntity
8
SK2
62
256
6
ByLayer
370
13
48
1
60
0
100
AcDbLine
10
-98.60005
20
12.7
30
0
11
-99.018047
21
9.524998
31
0
39
0
210
0
220
0
230
1
0
LINE
5
135
100
AcDbEntity
8
SK2
62
256
6
ByLayer
370
13
48
1
60
0
100
AcDbLine
10
-98.182053
20
9.525002
30
0
11
-99.018047
21
9.524998
31
0
39
0
210
0
220
0
230
1
0
LINE
5
136
100
AcDbEntity
8
SK2
62
256
6
ByLayer
370
13
48
1
60
0
100
AcDbLine
10
-98.60005
20
-12.7
30
0
11
-99.018047
21
-9.525002
31
0
39
0
210
0
220
0
230
1
0
LINE
5
137
100
AcDbEntity
8
SK2
62
256
6
ByLayer
370
13
48
1
60
0
100
AcDbLine
10
-98.60005
20
-12.7
30
0
11
-98.182053
21
-9.524998
31
0
39
0
210
0
220
0
230
1
0
LINE
5
138
100
AcDbEntity
8
SK2
62
256
6
ByLayer
370
13
48
1
60
0
100
AcDbLine
10
-99.018047
20
-9.525002
30
0
11
-98.182053
21
-9.524998
31
0
39
0
210
0
220
0
230
1
0
ENDBLK
5
13A
100
AcDbEntity
8
0
100
AcDbBlockEnd
0
BLOCK
5
147
100
AcDbEntity
8
0
100
AcDbBlockBegin
2
DimnDraft3D3
70
0
10
0
20
0
30
0
3
DimnDraft3D3
0
MTEXT
5
13D
100
AcDbEntity
8
2
62
256
6
ByLayer
370
18
48
1
60
0
100
AcDbMText
10
31.180447
20
22.789136
30
0
210
0
220
0
230
1
1
\W0.8292;93%%d0'
40
3
41
0
44
1.084337
50
39.5727452227697
71
7
72
5
7
iso_b_vert
0
LINE
5
13E
100
AcDbEntity
8
2
62
256
6
ByLayer
370
13
48
1
60
0
100
AcDbLine
10
39.104672
20
21.047259
30
0
11
39.476974
21
28.151201
31
0
39
0
210
0
220
0
230
1
0
LINE
5
13F
100
AcDbEntity
8
2
62
256
6
ByLayer
370
13
48
1
60
0
100
AcDbLine
10
37
20
19.05
30
0
11
29.886309
21
19.05
31
0
39
0
210
0
220
0
230
1
0
ARC
5
140
100
AcDbEntity
8
2
62
256
6
ByLayer
370
13
48
1
60
0
100
AcDbCircle
39
0
10
39
20
19.05
30
0
40
7.11369128120759
210
0
220
0
230
1
100
AcDbArc
50
87
51
180
0
LINE
5
141
100
AcDbEntity
8
2
62
256
6
ByLayer
370
13
48
1
60
0
100
AcDbLine
10
39.372302
20
26.153942
30
0
11
36.226525
21
25.55442
31
0
39
0
210
0
220
0
230
1
0
LINE
5
142
100
AcDbEntity
8
2
62
256
6
ByLayer
370
13
48
1
60
0
100
AcDbLine
10
39.372302
20
26.153942
30
0
11
36.178544
21
26.389035
31
0
39
0
210
0
220
0
230
1
0
LINE
5
143
100
AcDbEntity
8
2
62
256
6
ByLayer
370
13
48
1
60
0
100
AcDbLine
10
36.226525
20
25.55442
30
0
11
36.178544
21
26.389035
31
0
39
0
210
0
220
0
230
1
0
LINE
5
144
100
AcDbEntity
8
2
62
256
6
ByLayer
370
13
48
1
60
0
100
AcDbLine
10
31.886309
20
19.05
30
0
11
31.818686
21
22.251681
31
0
39
0
210
0
220
0
230
1
0
LINE
5
145
100
AcDbEntity
8
2
62
256
6
ByLayer
370
13
48
1
60
0
100
AcDbLine
10
31.886309
20
19.05
30
0
11
32.649647
21
22.160092
31
0
39
0
210
0
220
0
230
1
0
LINE
5
146
100
AcDbEntity
8
2
62
256
6
ByLayer
370
13
48
1
60
0
100
AcDbLine
10
31.818686
20
22.251681
30
0
11
32.649647
21
22.160092
31
0
39
0
210
0
220
0
230
1
0
ENDBLK
5
148
100
AcDbEntity
8
0
100
AcDbBlockEnd
0
BLOCK
5
155
100
AcDbEntity
8
0
100
AcDbBlockBegin
2
DimnDraft3D4
70
0
10
0
20
0
30
0
3
DimnDraft3D4
0
MTEXT
5
14B
100
AcDbEntity
8
SK2
62
256
6
ByLayer
370
18
48
1
60
0
100
AcDbMText
10
-26.603289
20
-39.669955
30
0
210
0
220
0
230
1
1
\W0.6864;123.0
40
3.5
41
0
44
1.084337
50
0
71
7
72
5
7
iso_b_vert
0
LINE
5
14C
100
AcDbEntity
8
SK2
62
256
6
ByLayer
370
13
48
1
60
0
100
AcDbLine
10
-84
20
-14.7
30
0
11
-84
21
-42.544955
31
0
39
0
210
0
220
0
230
1
0
LINE
5
14D
100
AcDbEntity
8
SK2
62
256
6
ByLayer
370
13
48
1
60
0
100
AcDbLine
10
39
20
17.05
30
0
11
39
21
-42.544955
31
0
39
0
210
0
220
0
230
1
0
LINE
5
14E
100
AcDbEntity
8
SK2
62
256
6
ByLayer
370
13
48
1
60
0
100
AcDbLine
10
-84
20
-40.544955
30
0
11
39
21
-40.544955
31
0
39
0
210
0
220
0
230
1
0
LINE
5
14F
100
AcDbEntity
8
SK2
62
256
6
ByLayer
370
13
48
1
60
0
100
AcDbLine
10
-84
20
-40.544955
30
0
11
-80.825002
21
-40.126958
31
0
39
0
210
0
220
0
230
1
0
LINE
5
150
100
AcDbEntity
8
SK2
62
256
6
ByLayer
370
13
48
1
60
0
100
AcDbLine
10
-84
20
-40.544955
30
0
11
-80.824998
21
-40.962951
31
0
39
0
210
0
220
0
230
1
0
LINE
5
151
100
AcDbEntity
8
SK2
62
256
6
ByLayer
370
13
48
1
60
0
100
AcDbLine
10
-80.825002
20
-40.126958
30
0
11
-80.824998
21
-40.962951
31
0
39
0
210
0
220
0
230
1
0
LINE
5
152
100
AcDbEntity
8
SK2
62
256
6
ByLayer
370
13
48
1
60
0
100
AcDbLine
10
39
20
-40.544955
30
0
11
35.825002
21
-40.962951
31
0
39
0
210
0
220
0
230
1
0
LINE
5
153
100
AcDbEntity
8
SK2
62
256
6
ByLayer
370
13
48
1
60
0
100
AcDbLine
10
39
20
-40.544955
30
0
11
35.824998
21
-40.126958
31
0
39
0
210
0
220
0
230
1
0
LINE
5
154
100
AcDbEntity
8
SK2
62
256
6
ByLayer
370
13
48
1
60
0
100
AcDbLine
10
35.825002
20
-40.962951
30
0
11
35.824998
21
-40.126958
31
0
39
0
210
0
220
0
230
1
0
ENDBLK
5
156
100
AcDbEntity
8
0
100
AcDbBlockEnd
0
BLOCK
5
163
100
AcDbEntity
8
0
100
AcDbBlockBegin
2
DimnDraft3D5
70
0
10
0
20
0
30
0
3
DimnDraft3D5
0
MTEXT
5
159
100
AcDbEntity
8
2
62
256
6
ByLayer
370
18
48
1
60
0
100
AcDbMText
10
16.267105
20
-24.92505
30
0
210
0
220
0
230
1
1
\W0.7346;39.0
40
3.5
41
0
44
1.084337
50
0
71
7
72
5
7
iso_b_vert
0
LINE
5
15A
100
AcDbEntity
8
2
62
256
6
ByLayer
370
13
48
1
60
0
100
AcDbLine
10
0
20
10.7
30
0
11
0
21
-27.80005
31
0
39
0
210
0
220
0
230
1
0
LINE
5
15B
100
AcDbEntity
8
2
62
256
6
ByLayer
370
13
48
1
60
0
100
AcDbLine
10
39
20
17.05
30
0
11
39
21
-27.80005
31
0
39
0
210
0
220
0
230
1
0
LINE
5
15C
100
AcDbEntity
8
2
62
256
6
ByLayer
370
13
48
1
60
0
100
AcDbLine
10
0
20
-25.80005
30
0
11
39
21
-25.80005
31
0
39
0
210
0
220
0
230
1
0
LINE
5
15D
100
AcDbEntity
8
2
62
256
6
ByLayer
370
13
48
1
60
0
100
AcDbLine
10
0
20
-25.80005
30
0
11
3.174998
21
-25.382053
31
0
39
0
210
0
220
0
230
1
0
LINE
5
15E
100
AcDbEntity
8
2
62
256
6
ByLayer
370
13
48
1
60
0
100
AcDbLine
10
0
20
-25.80005
30
0
11
3.175002
21
-26.218047
31
0
39
0
210
0
220
0
230
1
0
LINE
5
15F
100
AcDbEntity
8
2
62
256
6
ByLayer
370
13
48
1
60
0
100
AcDbLine
10
3.174998
20
-25.382053
30
0
11
3.175002
21
-26.218047
31
0
39
0
210
0
220
0
230
1
0
LINE
5
160
100
AcDbEntity
8
2
62
256
6
ByLayer
370
13
48
1
60
0
100
AcDbLine
10
39
20
-25.80005
30
0
11
35.825002
21
-26.218047
31
0
39
0
210
0
220
0
230
1
0
LINE
5
161
100
AcDbEntity
8
2
62
256
6
ByLayer
370
13
48
1
60
0
100
AcDbLine
10
39
20
-25.80005
30
0
11
35.824998
21
-25.382053
31
0
39
0
210
0
220
0
230
1
0
LINE
5
162
100
AcDbEntity
8
2
62
256
6
ByLayer
370
13
48
1
60
0
100
AcDbLine
10
35.825002
20
-26.218047
30
0
11
35.824998
21
-25.382053
31
0
39
0
210
0
220
0
230
1
0
ENDBLK
5
164
100
AcDbEntity
8
0
100
AcDbBlockEnd
0
BLOCK
5
171
100
AcDbEntity
8
0
100
AcDbBlockBegin
2
DimnDraft3D6
70
0
10
0
20
0
30
0
3
DimnDraft3D6
0
MTEXT
5
167
100
AcDbEntity
8
SK2
62
256
6
ByLayer
370
18
48
1
60
0
100
AcDbMText
10
-69.87
20
-24.92505
30
0
210
0
220
0
230
1
1
\W0.7121;3.0
40
3.5
41
0
44
1.084337
50
0
71
7
72
5
7
iso_b_vert
0
LINE
5
168
100
AcDbEntity
8
SK2
62
256
6
ByLayer
370
13
48
1
60
0
100
AcDbLine
10
-84
20
-14.7
30
0
11
-84
21
-27.80005
31
0
39
0
210
0
220
0
230
1
0
LINE
5
169
100
AcDbEntity
8
SK2
62
256
6
ByLayer
370
13
48
1
60
0
100
AcDbLine
10
-81
20
-14.7
30
0
11
-81
21
-27.80005
31
0
39
0
210
0
220
0
230
1
0
LINE
5
16A
100
AcDbEntity
8
SK2
62
256
6
ByLayer
370
13
48
1
60
0
100
AcDbLine
10
-65.145
20
-25.80005
30
0
11
-92.75
21
-25.80005
31
0
39
0
210
0
220
0
230
1
0
LINE
5
16B
100
AcDbEntity
8
SK2
62
256
6
ByLayer
370
13
48
1
60
0
100
AcDbLine
10
-84
20
-25.80005
30
0
11
-87.174998
21
-26.218047
31
0
39
0
210
0
220
0
230
1
0
LINE
5
16C
100
AcDbEntity
8
SK2
62
256
6
ByLayer
370
13
48
1
60
0
100
AcDbLine
10
-84
20
-25.80005
30
0
11
-87.175002
21
-25.382053
31
0
39
0
210
0
220
0
230
1
0
LINE
5
16D
100
AcDbEntity
8
SK2
62
256
6
ByLayer
370
13
48
1
60
0
100
AcDbLine
10
-87.174998
20
-26.218047
30
0
11
-87.175002
21
-25.382053
31
0
39
0
210
0
220
0
230
1
0
LINE
5
16E
100
AcDbEntity
8
SK2
62
256
6
ByLayer
370
13
48
1
60
0
100
AcDbLine
10
-81
20
-25.80005
30
0
11
-77.825002
21
-25.382053
31
0
39
0
210
0
220
0
230
1
0
LINE
5
16F
100
AcDbEntity
8
SK2
62
256
6
ByLayer
370
13
48
1
60
0
100
AcDbLine
10
-81
20
-25.80005
30
0
11
-77.824998
21
-26.218047
31
0
39
0
210
0
220
0
230
1
0
LINE
5
170
100
AcDbEntity
8
SK2
62
256
6
ByLayer
370
13
48
1
60
0
100
AcDbLine
10
-77.825002
20
-25.382053
30
0
11
-77.824998
21
-26.218047
31
0
39
0
210
0
220
0
230
1
0
ENDBLK
5
172
100
AcDbEntity
8
0
100
AcDbBlockEnd
0
ENDSEC
0
SECTION
2
ENTITIES
0
ARC
5
B5
100
AcDbEntity
8
1
62
256
6
ByLayer
370
18
48
1
60
0
100
AcDbCircle
39
0
10
-34.372339
20
5.154726
30
0
40
8.1
210
0
220
0
230
-1
100
AcDbArc
50
18.479546
51
27.834369
0
ARC
5
B6
100
AcDbEntity
8
1
62
256
6
ByLayer
370
13
48
1
60
0
100
AcDbCircle
39
0
10
-11.799947
20
-1.3367
30
0
40
4.42238554666492
210
0
220
0
230
-1
100
AcDbArc
50
195.904773
51
213.016225
0
ARC
5
B9
100
AcDbEntity
8
1
62
256
6
ByLayer
370
13
48
1
60
0
100
AcDbCircle
39
0
10
30.316713
20
-30.589615
30
0
40
39.8284740297181
210
0
220
0
230
1
100
AcDbArc
50
122.472729
51
130.422797
0
ARC
5
BA
100
AcDbEntity
8
1
62
256
6
ByLayer
370
13
48
1
60
0
100
AcDbCircle
39
0
10
6.98741
20
-3.199864
30
0
40
3.84994127124824
210
0
220
0
230
1
100
AcDbArc
50
130.422797
51
298.577203
0
ARC
5
BB
100
AcDbEntity
8
1
62
256
6
ByLayer
370
13
48
1
60
0
100
AcDbCircle
39
0
10
-10.222651
20
28.395525
30
0
40
39.8284740297181
210
0
220
0
230
1
100
AcDbArc
50
298.577203
51
306.527271
0
ARC
5
BC
100
AcDbEntity
8
1
62
256
6
ByLayer
370
13
48
1
60
0
100
AcDbCircle
39
0
10
10.451483
20
0.625327
30
0
40
2.82847402971812
210
0
220
0
230
1
100
AcDbArc
50
36.343645
51
122.472729
0
ARC
5
BD
100
AcDbEntity
8
1
62
256
6
ByLayer
370
13
48
1
60
0
100
AcDbCircle
39
0
10
-30.316713
20
-30.589615
30
0
40
41.4223855466649
210
0
220
0
230
-1
100
AcDbArc
50
49.577203
51
57.527271
0
ARC
5
BE
100
AcDbEntity
8
1
62
256
6
ByLayer
370
13
48
1
60
0
100
AcDbCircle
39
0
10
11.799947
20
-1.3367
30
0
40
2.82847402971812
210
0
220
0
230
1
100
AcDbArc
50
306.527271
51
32.656355
0
ARC
5
BF
100
AcDbEntity
8
1
62
256
6
ByLayer
370
13
48
1
60
0
100
AcDbCircle
39
0
10
-19.35117
20
-21.301869
30
0
40
39.9600682379628
210
0
220
0
230
1
100
AcDbArc
50
29.392444
51
39.607556
0
ARC
5
C0
100
AcDbEntity
8
1
62
256
6
ByLayer
370
13
48
1
60
0
100
AcDbCircle
39
0
10
-6.98741
20
-3.199864
30
0
40
5.44385278819504
210
0
220
0
230
-1
100
AcDbArc
50
241.422797
51
49.577203
0
ARC
5
C1
100
AcDbEntity
8
1
62
256
6
ByLayer
370
13
48
1
60
0
100
AcDbCircle
39
0
10
-10.451483
20
0.625327
30
0
40
4.42238554666492
210
0
220
0
230
-1
100
AcDbArc
50
57.527271
51
95.095227
0
ARC
5
C2
100
AcDbEntity
8
1
62
256
6
ByLayer
370
13
48
1
60
0
100
AcDbCircle
39
0
10
10.222651
20
28.395525
30
0
40
41.4223855466649
210
0
220
0
230
-1
100
AcDbArc
50
236.432986
51
241.422797
0
ARC
5
C3
100
AcDbEntity
8
1
62
256
6
ByLayer
370
13
48
1
60
0
100
AcDbCircle
39
0
10
19.35117
20
-21.301869
30
0
40
40.4581655870087
210
0
220
0
230
-1
100
AcDbArc
50
140.424003
51
150.575997
0
ARC
5
C4
100
AcDbEntity
8
1
62
256
6
ByLayer
370
18
48
1
60
0
100
AcDbCircle
39
0
10
-11.966472
20
8.445599
30
0
40
1.625
210
0
220
0
230
-1
100
AcDbArc
50
316.065991
51
131.097652
0
ARC
5
C5
100
AcDbEntity
8
1
62
256
6
ByLayer
370
18
48
1
60
0
100
AcDbCircle
39
0
10
11.966472
20
8.445599
30
0
40
1.525
210
0
220
0
230
1
100
AcDbArc
50
49.57188
51
237.333531
0
ARC
5
C6
100
AcDbEntity
8
1
62
256
6
ByLayer
370
18
48
1
60
0
100
AcDbCircle
39
0
10
-26.717387
20
25.628823
30
0
40
8.1
210
0
220
0
230
-1
100
AcDbArc
50
291.165728
51
292.157483
0
ARC
5
C8
100
AcDbEntity
8
1
62
256
6
ByLayer
370
13
48
1
60
0
100
AcDbCircle
39
0
10
13.481634
20
9.012095
30
0
40
0.793749999999885
210
0
220
0
230
1
100
AcDbArc
50
128
51
273
0
ARC
5
C9
100
AcDbEntity
8
1
62
256
6
ByLayer
370
13
48
1
60
0
100
AcDbCircle
39
0
10
24.386606
20
17.531993
30
0
40
0.793749999999885
210
0
220
0
230
1
100
AcDbArc
50
93
51
128
0
ARC
5
CA
100
AcDbEntity
8
1
62
256
6
ByLayer
370
13
48
1
60
0
100
AcDbCircle
39
0
10
38.20625
20
18.25625
30
0
40
0.793749999999885
210
0
220
0
230
1
100
AcDbArc
50
308
51
93
0
ARC
5
CB
100
AcDbEntity
8
1
62
256
6
ByLayer
370
13
48
1
60
0
100
AcDbCircle
39
0
10
27.301277
20
9.736352
30
0
40
0.793749999999885
210
0
220
0
230
1
100
AcDbArc
50
273
51
308
0
ARC
5
CD
100
AcDbEntity
8
1
62
256
6
ByLayer
370
18
48
1
60
0
100
AcDbCircle
39
0
10
-25.843942
20
13.634172
30
0
40
1.6764
210
0
220
0
230
-1
100
AcDbArc
50
9.5
51
69.5
0
ARC
5
CE
100
AcDbEntity
8
1
62
256
6
ByLayer
370
18
48
1
60
0
100
AcDbCircle
39
0
10
-25.843942
20
13.634172
30
0
40
1.2903
210
0
220
0
230
-1
100
AcDbArc
50
39.5
51
99.5
0
ARC
5
CF
100
AcDbEntity
8
1
62
256
6
ByLayer
370
18
48
1
60
0
100
AcDbCircle
39
0
10
-25.843942
20
13.634172
30
0
40
1.6764
210
0
220
0
230
-1
100
AcDbArc
50
309.5
51
9.5
0
ARC
5
D0
100
AcDbEntity
8
1
62
256
6
ByLayer
370
18
48
1
60
0
100
AcDbCircle
39
0
10
-25.843942
20
13.634172
30
0
40
1.6764
210
0
220
0
230
-1
100
AcDbArc
50
249.5
51
309.5
0
ARC
5
D1
100
AcDbEntity
8
1
62
256
6
ByLayer
370
18
48
1
60
0
100
AcDbCircle
39
0
10
-25.843942
20
13.634172
30
0
40
1.6764
210
0
220
0
230
-1
100
AcDbArc
50
129.5
51
189.5
0
ARC
5
D2
100
AcDbEntity
8
1
62
256
6
ByLayer
370
18
48
1
60
0
100
AcDbCircle
39
0
10
-25.843942
20
13.634172
30
0
40
1.2903
210
0
220
0
230
-1
100
AcDbArc
50
219.5
51
279.5
0
ARC
5
D3
100
AcDbEntity
8
1
62
256
6
ByLayer
370
18
48
1
60
0
100
AcDbCircle
39
0
10
-25.843942
20
13.634172
30
0
40
1.2903
210
0
220
0
230
-1
100
AcDbArc
50
159.5
51
219.5
0
ARC
5
D4
100
AcDbEntity
8
1
62
256
6
ByLayer
370
18
48
1
60
0
100
AcDbCircle
39
0
10
-25.843942
20
13.634172
30
0
40
1.2903
210
0
220
0
230
-1
100
AcDbArc
50
279.5
51
339.5
0
ARC
5
D5
100
AcDbEntity
8
1
62
256
6
ByLayer
370
18
48
1
60
0
100
AcDbCircle
39
0
10
-25.843942
20
13.634172
30
0
40
1.6764
210
0
220
0
230
-1
100
AcDbArc
50
189.5
51
249.5
0
ARC
5
D7
100
AcDbEntity
8
1
62
256
6
ByLayer
370
18
48
1
60
0
100
AcDbCircle
39
0
10
25.843942
20
13.634172
30
0
40
1.2903
210
0
220
0
230
1
100
AcDbArc
50
20.5
51
80.5
0
ARC
5
D8
100
AcDbEntity
8
1
62
256
6
ByLayer
370
18
48
1
60
0
100
AcDbCircle
39
0
10
-25.843942
20
13.634172
30
0
40
1.2903
210
0
220
0
230
-1
100
AcDbArc
50
339.5
51
39.5
0
ARC
5
D9
100
AcDbEntity
8
1
62
256
6
ByLayer
370
18
48
1
60
0
100
AcDbCircle
39
0
10
-25.843942
20
13.634172
30
0
40
1.6764
210
0
220
0
230
-1
100
AcDbArc
50
69.5
51
129.5
0
ARC
5
DA
100
AcDbEntity
8
1
62
256
6
ByLayer
370
18
48
1
60
0
100
AcDbCircle
39
0
10
12.903106
20
7.246762
30
0
40
1.86179834032605
210
0
220
0
230
1
100
AcDbArc
50
184.336042
51
308
0
ARC
5
DB
100
AcDbEntity
8
1
62
256
6
ByLayer
370
18
48
1
60
0
100
AcDbCircle
39
0
10
12.903106
20
7.246762
30
0
40
1.76179834032606
210
0
220
0
230
1
100
AcDbArc
50
182.763723
51
324.865253
0
ARC
5
DC
100
AcDbEntity
8
1
62
256
6
ByLayer
370
18
48
1
60
0
100
AcDbCircle
39
0
10
-12.903106
20
7.246762
30
0
40
2.10806861426514
210
0
220
0
230
-1
100
AcDbArc
50
232
51
1.939988
0
ARC
5
DD
100
AcDbEntity
8
1
62
256
6
ByLayer
370
18
48
1
60
0
100
AcDbCircle
39
0
10
-12.903106
20
7.246762
30
0
40
1.86179834049093
210
0
220
0
230
-1
100
AcDbArc
50
215.597134
51
232
0
ARC
5
DE
100
AcDbEntity
8
1
62
256
6
ByLayer
370
18
48
1
60
0
100
AcDbCircle
39
0
10
34.372339
20
5.154726
30
0
40
8.1
210
0
220
0
230
1
100
AcDbArc
50
166.544844
51
179.066133
0
ARC
5
DF
100
AcDbEntity
8
1
62
256
6
ByLayer
370
18
48
1
60
0
100
AcDbCircle
39
0
10
-0.772277
20
14.225
30
0
40
1.6
210
0
220
0
230
-1
100
AcDbArc
50
224.350103
51
270
0
CIRCLE
5
B7
100
AcDbEntity
8
1
62
256
6
ByLayer
370
13
48
1
60
0
100
AcDbCircle
10
25.843942
20
13.634172
30
0
40
1.8
39
0
210
0
220
0
230
1
0
CIRCLE
5
B8
100
AcDbEntity
8
1
62
256
6
ByLayer
370
13
48
1
60
0
100
AcDbCircle
10
-25.843942
20
13.634172
30
0
40
3.0099607600921
39
0
210
0
220
0
230
-1
0
CIRCLE
5
C7
100
AcDbEntity
8
1
62
256
6
ByLayer
370
13
48
1
60
0
100
AcDbCircle
10
25.843942
20
13.634172
30
0
40
2.92104776441105
39
0
210
0
220
0
230
1
0
CIRCLE
5
CC
100
AcDbEntity
8
1
62
256
6
ByLayer
370
13
48
1
60
0
100
AcDbCircle
10
25.843942
20
13.634172
30
0
40
3.07132534818238
39
0
210
0
220
0
230
1
0
CIRCLE
5
D6
100
AcDbEntity
8
1
62
256
6
ByLayer
370
18
48
1
60
0
100
AcDbCircle
10
25.843942
20
13.634172
30
0
40
2.625
39
0
210
0
220
0
230
1
0
ELLIPSE
5
E0
100
AcDbEntity
8
1
62
256
6
ByLayer
370
18
48
1
60
0
100
AcDbEllipse
10
34.372338
20
5.154726
30
0
11
2.44919866371838
21
7.72084353169501
31
0
210
0
220
0
230
-1
40
1
41
-1.57531710843361
42
-1.55544568497912
0
ELLIPSE
5
E1
100
AcDbEntity
8
1
62
256
6
ByLayer
370
18
48
1
60
0
100
AcDbEllipse
10
34.372339
20
5.154726
30
0
11
2.10983812980164
21
7.8203953090157
31
0
210
0
220
0
230
-1
40
1
41
-1.59947250871523
42
-1.53165178292737
0
POINT
5
6C
100
AcDbEntity
8
80
62
256
6
ByLayer
370
18
48
1
60
0
100
AcDbPoint
10
0
20
0
30
0
39
0
210
0
220
0
230
1
50
360
0
POINT
5
6E
100
AcDbEntity
8
81
62
256
6
ByLayer
370
18
48
1
60
0
100
AcDbPoint
10
39
20
19.05
30
0
39
0
210
0
220
0
230
1
50
360
0
POINT
5
70
100
AcDbEntity
8
2
62
256
6
ByLayer
370
18
48
1
60
0
100
AcDbPoint
10
25.843942
20
13.634172
30
0
39
0
210
0
220
0
230
1
50
360
0
POINT
5
72
100
AcDbEntity
8
2
62
256
6
ByLayer
370
18
48
1
60
0
100
AcDbPoint
10
25.843942
20
13.634172
30
0
39
0
210
0
220
0
230
1
50
360
0
POINT
5
73
100
AcDbEntity
8
SK2
62
256
6
ByLayer
370
18
48
1
60
0
100
AcDbPoint
10
38.20625
20
18.25625
30
0
39
0
210
0
220
0
230
1
50
360
0
POINT
5
75
100
AcDbEntity
8
SK2
62
256
6
ByLayer
370
18
48
1
60
0
100
AcDbPoint
10
36.208991
20
18.151578
30
0
39
0
210
0
220
0
230
1
50
360
0
POINT
5
76
100
AcDbEntity
8
SK2
62
256
6
ByLayer
370
18
48
1
60
0
100
AcDbPoint
10
34.211732
20
18.046906
30
0
39
0
210
0
220
0
230
1
50
360
0
POINT
5
77
100
AcDbEntity
8
SK2
62
256
6
ByLayer
370
18
48
1
60
0
100
AcDbPoint
10
36.630228
20
17.024927
30
0
39
0
210
0
220
0
230
1
50
360
0
POINT
5
78
100
AcDbEntity
8
SK2
62
256
6
ByLayer
370
18
48
1
60
0
100
AcDbPoint
10
35.054207
20
15.793604
30
0
39
0
210
0
220
0
230
1
50
360
0
POINT
5
79
100
AcDbEntity
8
2
62
256
6
ByLayer
370
18
48
1
60
0
100
AcDbPoint
10
25.498596
20
13.558433
30
0
39
0
210
0
220
0
230
1
50
360
0
SPLINE
5
E2
100
AcDbEntity
8
1
62
256
6
ByLayer
370
18
48
1
60
0
100
AcDbSpline
70
4
71
3
72
24
73
20
40
0
40
0
40
0
40
0
40
0.158126111965995
40
0.158126111965995
40
0.271563393607293
40
0.271563393607293
40
0.385066230469774
40
0.385066230469774
40
0.498714519310308
40
0.498714519310308
40
0.612721087896062
40
0.612721087896062
40
0.746221642583604
40
0.746221642583604
40
0.824913378297537
40
0.824913378297537
40
0.908986128606074
40
0.908986128606074
40
1
40
1
40
1
40
1
41
1
10
24.1905326838259
20
13.9108581921828
30
0
41
1
10
24.1951518073475
20
13.9384609859177
30
0
41
1
10
24.2012102572909
20
13.96586889552
30
0
41
1
10
24.2141279974192
20
14.0121801584972
30
0
41
1
10
24.220295931273
20
14.0313480915172
30
0
41
1
10
24.2342570569395
20
14.0690159897078
30
0
41
1
10
24.242065893338
20
14.0875602125884
30
0
41
1
10
24.2595133385861
20
14.1236565543986
30
0
41
1
10
24.2691819683752
20
14.1412727247981
30
0
41
1
10
24.2906763080414
20
14.1749280175299
30
0
41
1
10
24.3025733215968
20
14.1910741223236
30
0
41
1
10
24.3310621644885
20
14.2229352082308
30
0
41
1
10
24.3484455112022
20
14.2384830863114
30
0
41
1
10
24.3787925074364
20
14.2567018045745
30
0
41
1
10
24.3908607082499
20
14.2621025267398
30
0
41
1
10
24.4161665096915
20
14.2688300374682
30
0
41
1
10
24.4297527978493
20
14.2698780163
30
0
41
1
10
24.4564902324728
20
14.266376938611
30
0
41
1
10
24.4699062976311
20
14.261331824904
30
0
41
1
10
24.481738282693
20
14.2540646199338
30
0
0
SPLINE
5
E3
100
AcDbEntity
8
1
62
256
6
ByLayer
370
18
48
1
60
0
100
AcDbSpline
70
4
71
3
72
8
73
4
40
0
40
0
40
0
40
0
40
1
40
1
40
1
40
1
41
1
10
25.9882012355783
20
12.1445233601295
30
0
41
1
10
25.9857298426275
20
12.1507158190777
30
0
41
1
10
25.9832581339886
20
12.1569090690311
30
0
41
1
10
25.980786097355
20
12.1631031408264
30
0
0
SPLINE
5
E4
100
AcDbEntity
8
1
62
256
6
ByLayer
370
18
48
1
60
0
100
AcDbSpline
70
4
71
3
72
8
73
4
40
0
40
0
40
0
40
0
40
1
40
1
40
1
40
1
41
1
10
24.481738282693
20
14.2540646199338
30
0
41
1
10
24.4883368059294
20
14.2531086795379
30
0
41
1
10
24.4949361720404
20
14.2521526170332
30
0
41
1
10
24.5015364138849
20
14.2511964276593
30
0
0
SPLINE
5
E5
100
AcDbEntity
8
1
62
256
6
ByLayer
370
18
48
1
60
0
100
AcDbSpline
70
4
71
3
72
24
73
20
40
0
40
0
40
0
40
0
40
0.158126111965961
40
0.158126111965961
40
0.271563393607262
40
0.271563393607262
40
0.385066230469742
40
0.385066230469742
40
0.498714519310278
40
0.498714519310278
40
0.612721087896039
40
0.612721087896039
40
0.746221642583594
40
0.746221642583594
40
0.824913378297524
40
0.824913378297524
40
0.908986128606066
40
0.908986128606066
40
1
40
1
40
1
40
1
41
1
10
25.2568542122996
20
15.2044096437739
30
0
41
1
10
25.2306399299489
20
15.1946085252193
30
0
41
1
10
25.2048915875891
20
15.1834317103687
30
0
41
1
10
25.1618960139673
20
15.1619146999468
30
0
41
1
10
25.1442571471266
20
15.1522026743673
30
0
41
1
10
25.109945222682
20
15.1313106800898
30
0
41
1
10
25.0932317056344
20
15.1201069094728
30
0
41
1
10
25.0611276847902
20
15.096092516218
30
0
41
1
10
25.0456800345949
20
15.0832402026132
30
0
41
1
10
25.0167443977405
20
15.0557190419113
30
0
41
1
10
25.0031649995727
20
15.0409597879685
30
0
41
1
10
24.9773252190436
20
15.0069149835675
30
0
41
1
10
24.9653798981975
20
14.9868843428973
30
0
41
1
10
24.9532863889669
20
14.953618611129
30
0
41
1
10
24.9502876145525
20
14.9407416307845
30
0
41
1
10
24.9485122816948
20
14.914617098627
30
0
41
1
10
24.9500759431801
20
14.9010804650611
30
0
41
1
10
24.9586144392505
20
14.8755023095356
30
0
41
1
10
24.9661267659236
20
14.8632953883593
30
0
41
1
10
24.9755181010531
20
14.853067438268
30
0
0
SPLINE
5
E6
100
AcDbEntity
8
1
62
256
6
ByLayer
370
18
48
1
60
0
100
AcDbSpline
70
4
71
3
72
24
73
20
40
0
40
0
40
0
40
0
40
0.158126111966015
40
0.158126111966015
40
0.271563393607313
40
0.271563393607313
40
0.385066230469789
40
0.385066230469789
40
0.498714519310319
40
0.498714519310319
40
0.612721087896069
40
0.612721087896069
40
0.746221642583607
40
0.746221642583607
40
0.824913378297539
40
0.824913378297539
40
0.908986128606072
40
0.908986128606072
40
1
40
1
40
1
40
1
41
1
10
27.49735104866
20
13.3574865792531
30
0
41
1
10
27.4927319251384
20
13.3298837855181
30
0
41
1
10
27.486673475195
20
13.3024758759159
30
0
41
1
10
27.4737557350667
20
13.2561646129386
30
0
41
1
10
27.4675878012129
20
13.2369966799187
30
0
41
1
10
27.4536266755464
20
13.199328781728
30
0
41
1
10
27.4458178391479
20
13.1807845588474
30
0
41
1
10
27.4283703938997
20
13.1446882170373
30
0
41
1
10
27.4187017641107
20
13.1270720466377
30
0
41
1
10
27.3972074244444
20
13.093416753906
30
0
41
1
10
27.3853104108891
20
13.0772706491123
30
0
41
1
10
27.3568215679974
20
13.045409563205
30
0
41
1
10
27.3394382212837
20
13.0298616851245
30
0
41
1
10
27.3090912250494
20
13.0116429668613
30
0
41
1
10
27.297023024236
20
13.0062422446961
30
0
41
1
10
27.2717172227944
20
12.9995147339677
30
0
41
1
10
27.2581309346366
20
12.9984667551358
30
0
41
1
10
27.2313935000131
20
13.0019678328248
30
0
41
1
10
27.2179774348548
20
13.0070129465318
30
0
41
1
10
27.2061454497929
20
13.0142801515021
30
0
0
SPLINE
5
E7
100
AcDbEntity
8
1
62
256
6
ByLayer
370
18
48
1
60
0
100
AcDbSpline
70
4
71
3
72
8
73
4
40
0
40
0
40
0
40
0
40
1
40
1
40
1
40
1
41
1
10
24.6259976520283
20
12.7644155943454
30
0
41
1
10
24.6301247823139
20
12.7696521128976
30
0
41
1
10
24.6342524397861
20
12.7748893003463
30
0
41
1
10
24.6383806449969
20
12.7801271827678
30
0
0
SPLINE
5
E8
100
AcDbEntity
8
1
62
256
6
ByLayer
370
18
48
1
60
0
100
AcDbSpline
70
4
71
3
72
24
73
20
40
0
40
0
40
0
40
0
40
0.158126111966014
40
0.158126111966014
40
0.271563393607316
40
0.271563393607316
40
0.38506623046979
40
0.38506623046979
40
0.498714519310313
40
0.498714519310313
40
0.612721087896071
40
0.612721087896071
40
0.746221642583609
40
0.746221642583609
40
0.824913378297538
40
0.824913378297538
40
0.90898612860607
40
0.90898612860607
40
1
40
1
40
1
40
1
41
1
10
26.9102633947166
20
14.9277238373091
30
0
41
1
10
26.9318585535457
20
14.9099221621287
30
0
41
1
10
26.9525652745542
20
14.8909714357691
30
0
41
1
10
26.9862131347097
20
14.8566287131699
30
0
41
1
10
26.9997290847161
20
14.8417031592536
30
0
41
1
10
27.0253698786231
20
14.8107785206657
30
0
41
1
10
27.0375252285319
20
14.7947437585303
30
0
41
1
10
27.0600618548991
20
14.7615856568092
30
0
41
1
10
27.070483591088
20
14.7444042925923
30
0
41
1
10
27.0888827597323
20
14.7089620020379
30
0
41
1
10
27.0969171898782
20
14.6905858336729
30
0
41
1
10
27.1102652782201
20
14.6499832290506
30
0
41
1
10
27.115038462256
20
14.6271548701535
30
0
41
1
10
27.1156428369792
20
14.5917642413545
30
0
41
1
10
27.1142858991663
20
14.5786125117895
30
0
41
1
10
27.1074591936406
20
14.5533332895137
30
0
41
1
10
27.1015736258527
20
14.54104322941
30
0
41
1
10
27.0851728863216
20
14.5196384706385
30
0
41
1
10
27.0740956571073
20
14.5105423742461
30
0
41
1
10
27.0618860804576
20
14.5039291770905
30
0
0
SPLINE
5
E9
100
AcDbEntity
8
1
62
256
6
ByLayer
370
18
48
1
60
0
100
AcDbSpline
70
4
71
3
72
26
73
22
40
0
40
0
40
0
40
0
40
0.0611212350797032
40
0.0611212350797032
40
0.145349009858784
40
0.145349009858784
40
0.228936526328729
40
0.228936526328729
40
0.39153219122069
40
0.39153219122069
40
0.475817926908325
40
0.475817926908325
40
0.589557559273575
40
0.589557559273575
40
0.703149060376422
40
0.703149060376422
40
0.816673845780324
40
0.816673845780324
40
0.930168712116175
40
0.930168712116175
40
1
40
1
40
1
40
1
41
1
10
24.3541359035925
20
13.4915428700884
30
0
41
1
10
24.3449185837351
20
13.4894896066709
30
0
41
1
10
24.3353962348462
20
13.4886178441501
30
0
41
1
10
24.3130708960844
20
13.4899251840706
30
0
41
1
10
24.3000315344007
20
13.4934558157116
30
0
41
1
10
24.2762475904187
20
13.5053968887202
30
0
41
1
10
24.2651748696632
20
13.5138746381288
30
0
41
1
10
24.2368928972616
20
13.5428212523235
30
0
41
1
10
24.222607193749
20
13.5676085890267
30
0
41
1
10
24.2064472424764
20
13.6068622538344
30
0
41
1
10
24.2017856317219
20
13.6208782017499
30
0
41
1
10
24.1926119879619
20
13.6543084688673
30
0
41
1
10
24.1886875884931
20
13.6739999039626
30
0
41
1
10
24.1830009739073
20
13.7136472927782
30
0
41
1
10
24.1812286816219
20
13.7336819562499
30
0
41
1
10
24.1794939761611
20
13.7737976297761
30
0
41
1
10
24.1795303402334
20
13.7939292905327
30
0
41
1
10
24.1812111403692
20
13.8340964893634
30
0
41
1
10
24.182857680428
20
13.8541700945819
30
0
41
1
10
24.1867310002455
20
13.8864151444142
30
0
41
1
10
24.1884917347166
20
13.8986619612254
30
0
41
1
10
24.1905326838259
20
13.9108581921828
30
0
0
SPLINE
5
EA
100
AcDbEntity
8
1
62
256
6
ByLayer
370
18
48
1
60
0
100
AcDbSpline
70
4
71
3
72
30
73
26
40
0
40
0
40
0
40
0
40
0.0728681126381137
40
0.0728681126381137
40
0.127812593477837
40
0.127812593477837
40
0.199092397893561
40
0.199092397893561
40
0.288874798004158
40
0.288874798004158
40
0.393641276926429
40
0.393641276926429
40
0.499915621932921
40
0.499915621932921
40
0.631623646297737
40
0.631623646297737
40
0.734868911743528
40
0.734868911743528
40
0.796951047610515
40
0.796951047610515
40
0.859105215562993
40
0.859105215562993
40
0.921420364650286
40
0.921420364650286
40
1
40
1
40
1
40
1
41
1
10
25.980786097355
20
12.1631031408264
30
0
41
1
10
25.9739702684976
20
12.1801812588091
30
0
41
1
10
25.9634755488209
20
12.1961992912203
30
0
41
1
10
25.9417607464134
20
12.2217079972412
30
0
41
1
10
25.9312067499979
20
12.2320019021392
30
0
41
1
10
25.905269258085
20
12.2540388733504
30
0
41
1
10
25.8892746769999
20
12.2654029155922
30
0
41
1
10
25.8513648494701
20
12.2888246693896
30
0
41
1
10
25.8288264177705
20
12.3004005761577
30
0
41
1
10
25.7783506382287
20
12.3225232397348
30
0
41
1
10
25.7499288966051
20
12.3326652290939
30
0
41
1
10
25.6915425742243
20
12.349643536792
30
0
41
1
10
25.6613585905237
20
12.3564845988251
30
0
41
1
10
25.5933969724354
20
12.3678574733134
30
0
41
1
10
25.5551783165484
20
12.3715158730213
30
0
41
1
10
25.4877671921732
20
12.3728106544961
30
0
41
1
10
25.4581753097094
20
12.3715792539997
30
0
41
1
10
25.4118773190712
20
12.3662287534508
30
0
41
1
10
25.3946593247094
20
12.3634427652316
30
0
41
1
10
25.3609943658678
20
12.3560956109533
30
0
41
1
10
25.3444772739404
20
12.3515193584776
30
0
41
1
10
25.3126842049377
20
12.340225035978
30
0
41
1
10
25.2973053315771
20
12.3334675276788
30
0
41
1
10
25.2651075081469
20
12.3152518518995
30
0
41
1
10
25.2485488108246
20
12.3028024604583
30
0
41
1
10
25.2356198046249
20
12.2878012124514
30
0
0
SPLINE
5
EB
100
AcDbEntity
8
1
62
256
6
ByLayer
370
18
48
1
60
0
100
AcDbSpline
70
4
71
3
72
24
73
20
40
0
40
0
40
0
40
0
40
0.158126111966039
40
0.158126111966039
40
0.271563393607335
40
0.271563393607335
40
0.385066230469812
40
0.385066230469812
40
0.498714519310332
40
0.498714519310332
40
0.612721087896082
40
0.612721087896082
40
0.746221642583624
40
0.746221642583624
40
0.82491337829755
40
0.82491337829755
40
0.908986128606079
40
0.908986128606079
40
1
40
1
40
1
40
1
41
1
10
24.7776203377693
20
12.3406209341268
30
0
41
1
10
24.7560251789402
20
12.3584226093071
30
0
41
1
10
24.7353184579317
20
12.3773733356668
30
0
41
1
10
24.7016705977762
20
12.411716058266
30
0
41
1
10
24.6881546477698
20
12.4266416121822
30
0
41
1
10
24.6625138538628
20
12.4575662507702
30
0
41
1
10
24.650358503954
20
12.4736010129056
30
0
41
1
10
24.6278218775868
20
12.5067591146267
30
0
41
1
10
24.6174001413979
20
12.5239404788435
30
0
41
1
10
24.5990009727535
20
12.559382769398
30
0
41
1
10
24.5909665426077
20
12.5777589377629
30
0
41
1
10
24.5776184542657
20
12.6183615423852
30
0
41
1
10
24.5728452702299
20
12.6411899012823
30
0
41
1
10
24.5722408955067
20
12.6765805300813
30
0
41
1
10
24.5735978333196
20
12.6897322596464
30
0
41
1
10
24.5804245388453
20
12.7150114819221
30
0
41
1
10
24.5863101066332
20
12.7273015420259
30
0
41
1
10
24.6027108461643
20
12.7487063007973
30
0
41
1
10
24.6137880753786
20
12.7578023971897
30
0
41
1
10
24.6259976520283
20
12.7644155943454
30
0
0
SPLINE
5
EC
100
AcDbEntity
8
1
62
256
6
ByLayer
370
18
48
1
60
0
100
AcDbSpline
70
4
71
3
72
8
73
4
40
0
40
0
40
0
40
0
40
1
40
1
40
1
40
1
41
1
10
27.3140945360238
20
13.7805356133075
30
0
41
1
10
27.320646492101
20
13.779290879566
30
0
41
1
10
27.3271975788514
20
13.7780463109782
30
0
41
1
10
27.3337478288934
20
13.7768019013475
30
0
0
SPLINE
5
ED
100
AcDbEntity
8
1
62
256
6
ByLayer
370
18
48
1
60
0
100
AcDbSpline
70
4
71
3
72
26
73
22
40
0
40
0
40
0
40
0
40
0.061121235079706
40
0.061121235079706
40
0.145349009858789
40
0.145349009858789
40
0.228936526328737
40
0.228936526328737
40
0.391532191220702
40
0.391532191220702
40
0.475817926908338
40
0.475817926908338
40
0.589557559273598
40
0.589557559273598
40
0.703149060376442
40
0.703149060376442
40
0.816673845780346
40
0.816673845780346
40
0.9301687121162
40
0.9301687121162
40
1
40
1
40
1
40
1
41
1
10
27.3337478288934
20
13.7768019013475
30
0
41
1
10
27.3429651487508
20
13.7788551647649
30
0
41
1
10
27.3524874976397
20
13.7797269272858
30
0
41
1
10
27.3748128364015
20
13.7784195873652
30
0
41
1
10
27.3878521980852
20
13.7748889557243
30
0
41
1
10
27.4116361420672
20
13.7629478827157
30
0
41
1
10
27.4227088628226
20
13.754470133307
30
0
41
1
10
27.4509908352243
20
13.7255235191124
30
0
41
1
10
27.4652765387369
20
13.7007361824092
30
0
41
1
10
27.4814364900095
20
13.6614825176015
30
0
41
1
10
27.486098100764
20
13.647466569686
30
0
41
1
10
27.495271744524
20
13.6140363025685
30
0
41
1
10
27.4991961439927
20
13.5943448674732
30
0
41
1
10
27.5048827585786
20
13.5546974786577
30
0
41
1
10
27.506655050864
20
13.5346628151859
30
0
41
1
10
27.5083897563248
20
13.4945471416597
30
0
41
1
10
27.5083533922524
20
13.4744154809031
30
0
41
1
10
27.5066725921167
20
13.4342482820724
30
0
41
1
10
27.5050260520578
20
13.4141746768539
30
0
41
1
10
27.5011527322404
20
13.3819296270217
30
0
41
1
10
27.4993919977693
20
13.3696828102105
30
0
41
1
10
27.49735104866
20
13.3574865792531
30
0
0
SPLINE
5
EE
100
AcDbEntity
8
1
62
256
6
ByLayer
370
18
48
1
60
0
100
AcDbSpline
70
4
71
3
72
8
73
4
40
0
40
0
40
0
40
0
40
1
40
1
40
1
40
1
41
1
10
25.7070976351309
20
15.1052416306094
30
0
41
1
10
25.7046255984973
20
15.1114357024048
30
0
41
1
10
25.7021538898584
20
15.1176289523582
30
0
41
1
10
25.6996824969075
20
15.1238214113064
30
0
0
SPLINE
5
EF
100
AcDbEntity
8
1
62
256
6
ByLayer
370
18
48
1
60
0
100
AcDbSpline
70
4
71
3
72
8
73
4
40
0
40
0
40
0
40
0
40
1
40
1
40
1
40
1
41
1
10
27.0618860804576
20
14.5039291770905
30
0
41
1
10
27.057758950172
20
14.4986926585383
30
0
41
1
10
27.0536312926998
20
14.4934554710895
30
0
41
1
10
27.049503087489
20
14.488217588668
30
0
0
SPLINE
5
F0
100
AcDbEntity
8
1
62
256
6
ByLayer
370
18
48
1
60
0
100
AcDbSpline
70
4
71
3
72
8
73
4
40
0
40
0
40
0
40
0
40
1
40
1
40
1
40
1
41
1
10
24.373789196462
20
13.4878091581284
30
0
41
1
10
24.3672372403849
20
13.4890538918699
30
0
41
1
10
24.3606861536345
20
13.4902984604576
30
0
41
1
10
24.3541359035925
20
13.4915428700884
30
0
0
SPLINE
5
F1
100
AcDbEntity
8
1
62
256
6
ByLayer
370
18
48
1
60
0
100
AcDbSpline
70
4
71
3
72
8
73
4
40
0
40
0
40
0
40
0
40
1
40
1
40
1
40
1
41
1
10
25.2356198046249
20
12.2878012124514
30
0
41
1
10
25.2312658555452
20
12.2827494189149
30
0
41
1
10
25.2269124841563
20
12.2776982956605
30
0
41
1
10
25.2225596687824
20
12.2726478175383
30
0
0
SPLINE
5
F2
100
AcDbEntity
8
1
62
256
6
ByLayer
370
18
48
1
60
0
100
AcDbSpline
70
4
71
3
72
30
73
26
40
0
40
0
40
0
40
0
40
0.07286811263811
40
0.07286811263811
40
0.127812593477834
40
0.127812593477834
40
0.199092397893559
40
0.199092397893559
40
0.288874798004158
40
0.288874798004158
40
0.393641276926426
40
0.393641276926426
40
0.499915621932919
40
0.499915621932919
40
0.631623646297737
40
0.631623646297737
40
0.734868911743529
40
0.734868911743529
40
0.796951047610513
40
0.796951047610513
40
0.859105215562992
40
0.859105215562992
40
0.921420364650286
40
0.921420364650286
40
1
40
1
40
1
40
1
41
1
10
27.186347318601
20
13.0171483437765
30
0
41
1
10
27.1681493201505
20
13.0197847218295
30
0
41
1
10
27.1490299373254
20
13.0187050441896
30
0
41
1
10
27.1160813486899
20
13.0126538266769
30
0
41
1
10
27.1018895673363
20
13.0086607501186
30
0
41
1
10
27.0698362444884
20
12.9972167088172
30
0
41
1
10
27.0519974046749
20
12.9890470163955
30
0
41
1
10
27.0127586571202
20
12.9679270196003
30
0
41
1
10
26.9914644119374
20
12.9541961185711
30
0
41
1
10
26.9470677335094
20
12.9215441430007
30
0
41
1
10
26.9240736422677
20
12.9020011874143
30
0
41
1
10
26.8801768352975
20
12.859926302848
30
0
41
1
10
26.8591603099376
20
12.8372067371925
30
0
41
1
10
26.8153303026726
20
12.7840366866899
30
0
41
1
10
26.7930527076449
20
12.7527675596472
30
0
41
1
10
26.7582258318077
20
12.695035204178
30
0
41
1
10
26.7444963146879
20
12.6687921819703
30
0
41
1
10
26.7259809887671
20
12.626021695659
30
0
41
1
10
26.7197847281587
20
12.6097174810299
30
0
41
1
10
26.7093150709885
20
12.5768891943166
30
0
41
1
10
26.7050196759228
20
12.5602968468729
30
0
41
1
10
26.6989043116246
20
12.5271160802025
30
0
41
1
10
26.6970670487977
20
12.510418831041
30
0
41
1
10
26.6967433750546
20
12.4734268601143
30
0
41
1
10
26.6992455156433
20
12.452861911859
30
0
41
1
10
26.7057724744058
20
12.4341644400409
30
0
0
SPLINE
5
F3
100
AcDbEntity
8
1
62
256
6
ByLayer
370
18
48
1
60
0
100
AcDbSpline
70
4
71
3
72
30
73
26
40
0
40
0
40
0
40
0
40
0.0728681126381129
40
0.0728681126381129
40
0.127812593477834
40
0.127812593477834
40
0.199092397893563
40
0.199092397893563
40
0.28887479800416
40
0.28887479800416
40
0.393641276926427
40
0.393641276926427
40
0.499915621932923
40
0.499915621932923
40
0.631623646297739
40
0.631623646297739
40
0.734868911743532
40
0.734868911743532
40
0.796951047610517
40
0.796951047610517
40
0.859105215562995
40
0.859105215562995
40
0.921420364650287
40
0.921420364650287
40
1
40
1
40
1
40
1
41
1
10
27.049503087489
20
14.488217588668
30
0
41
1
10
27.0381209178959
20
14.4737758487384
30
0
41
1
10
27.0294962547474
20
14.4566781386871
30
0
41
1
10
27.0182624685194
20
14.4251182151537
30
0
41
1
10
27.0146246835814
20
14.4108312336974
30
0
41
1
10
27.0085088526464
20
14.3773502211847
30
0
41
1
10
27.0066645939179
20
14.3578164865213
30
0
41
1
10
27.0053356738931
20
14.3132747359286
30
0
41
1
10
27.0065798604098
20
14.2879679281313
30
0
41
1
10
27.0126589615236
20
14.2331932889838
30
0
41
1
10
27.0180866119056
20
14.2035083440383
30
0
41
1
10
27.0325761273161
20
14.144455151774
30
0
41
1
10
27.0417435856568
20
14.1148945240853
30
0
41
1
10
27.0658751964801
20
14.0503515990944
30
0
41
1
10
27.0818162573394
20
14.0154240723438
30
0
41
1
10
27.1144005058774
20
13.9563969353998
30
0
41
1
10
27.1302628712215
20
13.9313853136885
30
0
41
1
10
27.1580455359389
20
13.8939653279261
30
0
41
1
10
27.1690672696923
20
13.8804471015162
30
0
41
1
10
27.1922625713636
20
13.8549659690812
30
0
41
1
10
27.2044842682253
20
13.8429498741133
30
0
41
1
10
27.2301619729298
20
13.8210634299424
30
0
41
1
10
27.2437035834636
20
13.8111236890802
30
0
41
1
10
27.2755777331506
20
13.7923473939327
30
0
41
1
10
27.2946385710616
20
13.7842318371187
30
0
41
1
10
27.3140945360238
20
13.7805356133075
30
0
0
SPLINE
5
F4
100
AcDbEntity
8
1
62
256
6
ByLayer
370
18
48
1
60
0
100
AcDbSpline
70
4
71
3
72
26
73
22
40
0
40
0
40
0
40
0
40
0.0611212350797037
40
0.0611212350797037
40
0.145349009858785
40
0.145349009858785
40
0.228936526328738
40
0.228936526328738
40
0.3915321912207
40
0.3915321912207
40
0.475817926908333
40
0.475817926908333
40
0.589557559273588
40
0.589557559273588
40
0.703149060376428
40
0.703149060376428
40
0.816673845780333
40
0.816673845780333
40
0.93016871211619
40
0.93016871211619
40
1
40
1
40
1
40
1
41
1
10
26.7123656314328
20
12.4152773331679
30
0
41
1
10
26.7187524696417
20
12.4083215317253
30
0
41
1
10
26.7242686125753
20
12.4005108169442
30
0
41
1
10
26.7342990923736
20
12.3805228364682
30
0
41
1
10
26.7377611565229
20
12.3674651021805
30
0
41
1
10
26.7393118559401
20
12.3408970659855
30
0
41
1
10
26.737506269963
20
12.327068933818
30
0
41
1
10
26.7265787529177
20
12.2881027201517
30
0
41
1
10
26.7122551413969
20
12.2633372696473
30
0
41
1
10
26.6863404461181
20
12.2297155089174
30
0
41
1
10
26.6765330845424
20
12.2186704616238
30
0
41
1
10
26.6521684458434
20
12.1940107195236
30
0
41
1
10
26.6370773625483
20
12.1807663723414
30
0
41
1
10
26.6055850239332
20
12.1560179252407
30
0
41
1
10
26.5891206425531
20
12.1444657433628
30
0
41
1
10
26.5552468029198
20
12.1229056076026
30
0
41
1
10
26.5377940912481
20
12.1128712694347
30
0
41
1
10
26.5021678765939
20
12.0942432856356
30
0
41
1
10
26.4839603544998
20
12.0856324285456
30
0
41
1
10
26.45409866229
20
12.0728642969884
30
0
41
1
10
26.4426122405805
20
12.0682657293641
30
0
41
1
10
26.4310295201863
20
12.0639351276619
30
0
0
SPLINE
5
F5
100
AcDbEntity
8
1
62
256
6
ByLayer
370
18
48
1
60
0
100
AcDbSpline
70
4
71
3
72
26
73
22
40
0
40
0
40
0
40
0
40
0.0611212350797662
40
0.0611212350797662
40
0.145349009858838
40
0.145349009858838
40
0.228936526328776
40
0.228936526328776
40
0.391532191220677
40
0.391532191220677
40
0.475817926908288
40
0.475817926908288
40
0.58955755927354
40
0.58955755927354
40
0.703149060376379
40
0.703149060376379
40
0.81667384578028
40
0.81667384578028
40
0.930168712116134
40
0.930168712116134
40
1
40
1
40
1
40
1
41
1
10
25.6996824969075
20
15.1238214113063
30
0
41
1
10
25.6999392885509
20
15.1332611641668
30
0
41
1
10
25.6989780845137
20
15.1427749008178
30
0
41
1
10
25.6934348886491
20
15.1644406080092
30
0
41
1
10
25.6874810971524
20
15.1765667236157
30
0
41
1
10
25.6712212248304
20
15.1976352254136
30
0
41
1
10
25.6607864608329
20
15.2068868782541
30
0
41
1
10
25.6269752227294
20
15.229125956791
30
0
41
1
10
25.5999174584809
20
15.2384195448793
30
0
41
1
10
25.5583015299881
20
15.2467926399849
30
0
41
1
10
25.5436536172475
20
15.2486942348791
30
0
41
1
10
25.5090871445453
20
15.2513205372813
30
0
41
1
10
25.4890086858545
20
15.2514155315311
30
0
41
1
10
25.4490046740242
20
15.2494325885612
30
0
41
1
10
25.4289999344387
20
15.2473495248353
30
0
41
1
10
25.3892903014168
20
15.2413979275064
30
0
41
1
10
25.3695354545623
20
15.2375209295803
30
0
41
1
10
25.3304269520924
20
15.2282067476211
30
0
41
1
10
25.3110363301946
20
15.2227602346954
30
0
41
1
10
25.2801227770108
20
15.212805433108
30
0
41
1
10
25.2684369326938
20
15.2087402454761
30
0
41
1
10
25.2568542122996
20
15.2044096437739
30
0
0
SPLINE
5
F6
100
AcDbEntity
8
1
62
256
6
ByLayer
370
18
48
1
60
0
100
AcDbSpline
70
4
71
3
72
8
73
4
40
0
40
0
40
0
40
0
40
1
40
1
40
1
40
1
41
1
10
24.9755181010531
20
14.853067438268
30
0
41
1
10
24.9777155357211
20
14.8467725505151
30
0
41
1
10
24.9799132510826
20
14.840476858673
30
0
41
1
10
24.9821112580801
20
14.834180331395
30
0
0
SPLINE
5
F7
100
AcDbEntity
8
1
62
256
6
ByLayer
370
18
48
1
60
0
100
AcDbSpline
70
4
71
3
72
8
73
4
40
0
40
0
40
0
40
0
40
1
40
1
40
1
40
1
41
1
10
27.2061454497929
20
13.0142801515021
30
0
41
1
10
27.1995469265565
20
13.015236091898
30
0
41
1
10
27.1929475604455
20
13.0161921544027
30
0
41
1
10
27.186347318601
20
13.0171483437765
30
0
0
SPLINE
5
F8
100
AcDbEntity
8
1
62
256
6
ByLayer
370
18
48
1
60
0
100
AcDbSpline
70
4
71
3
72
30
73
26
40
0
40
0
40
0
40
0
40
0.0728681126381128
40
0.0728681126381128
40
0.127812593477834
40
0.127812593477834
40
0.199092397893563
40
0.199092397893563
40
0.28887479800416
40
0.28887479800416
40
0.393641276926427
40
0.393641276926427
40
0.499915621932919
40
0.499915621932919
40
0.631623646297739
40
0.631623646297739
40
0.734868911743532
40
0.734868911743532
40
0.796951047610517
40
0.796951047610517
40
0.859105215562995
40
0.859105215562995
40
0.921420364650287
40
0.921420364650287
40
1
40
1
40
1
40
1
41
1
10
24.6383806449969
20
12.7801271827678
30
0
41
1
10
24.64976281459
20
12.7945689226974
30
0
41
1
10
24.6583874777385
20
12.8116666327487
30
0
41
1
10
24.6696212639665
20
12.8432265562822
30
0
41
1
10
24.6732590489045
20
12.8575135377385
30
0
41
1
10
24.6793748798395
20
12.8909945502511
30
0
41
1
10
24.681219138568
20
12.9105282849146
30
0
41
1
10
24.6825480585928
20
12.9550700355072
30
0
41
1
10
24.6813038720761
20
12.9803768433046
30
0
41
1
10
24.6752247709623
20
13.0351514824521
30
0
41
1
10
24.6697971205803
20
13.0648364273975
30
0
41
1
10
24.6553076051698
20
13.1238896196619
30
0
41
1
10
24.6461401468291
20
13.1534502473505
30
0
41
1
10
24.6220085360058
20
13.2179931723415
30
0
41
1
10
24.6060674751465
20
13.252920699092
30
0
41
1
10
24.5734832266085
20
13.3119478360361
30
0
41
1
10
24.5576208612644
20
13.3369594577473
30
0
41
1
10
24.529838196547
20
13.3743794435097
30
0
41
1
10
24.5188164627936
20
13.3878976699196
30
0
41
1
10
24.4956211611223
20
13.4133788023546
30
0
41
1
10
24.4833994642605
20
13.4253948973226
30
0
41
1
10
24.4577217595561
20
13.4472813414934
30
0
41
1
10
24.4441801490223
20
13.4572210823557
30
0
41
1
10
24.4123059993352
20
13.4759973775032
30
0
41
1
10
24.3932451614243
20
13.4841129343171
30
0
41
1
10
24.373789196462
20
13.4878091581284
30
0
0
SPLINE
5
F9
100
AcDbEntity
8
1
62
256
6
ByLayer
370
18
48
1
60
0
100
AcDbSpline
70
4
71
3
72
26
73
22
40
0
40
0
40
0
40
0
40
0.0727938302380742
40
0.0727938302380742
40
0.127682300186943
40
0.127682300186943
40
0.198889441338008
40
0.198889441338008
40
0.288580316474555
40
0.288580316474555
40
0.393239995518873
40
0.393239995518873
40
0.499406003515843
40
0.499406003515843
40
0.600539842293491
40
0.600539842293491
40
0.795411350082977
40
0.795411350082977
40
0.921875057553224
40
0.921875057553224
40
1
40
1
40
1
40
1
41
1
10
24.9821112580801
20
14.834180331395
30
0
41
1
10
24.9881715402449
20
14.8168197260794
30
0
41
1
10
24.9907598495533
20
14.7978456079616
30
0
41
1
10
24.9911066970466
20
14.7643477509664
30
0
41
1
10
24.989894904094
20
14.7496547976816
30
0
41
1
10
24.9847771843951
20
14.7160067586306
30
0
41
1
10
24.9801614033371
20
14.696936817745
30
0
41
1
10
24.9669165463693
20
14.6543891111299
30
0
41
1
10
24.9575010541974
20
14.6308661217751
30
0
41
1
10
24.933920272993
20
14.5810548447198
30
0
41
1
10
24.919123855993
20
14.5547542479773
30
0
41
1
10
24.8861979112007
20
14.5036356825343
30
0
41
1
10
24.8679059100473
20
14.4786701924413
30
0
41
1
10
24.8296465909861
20
14.4322579271096
30
0
41
1
10
24.8096870856262
20
14.4105656304219
30
0
41
1
10
24.7487130813277
20
14.3514477458351
30
0
41
1
10
24.7042645554566
20
14.3167406906634
30
0
41
1
10
24.6268017076582
20
14.2740360344135
30
0
41
1
10
24.5944728341668
20
14.2605424480528
30
0
41
1
10
24.5418003060932
20
14.2498248412244
30
0
41
1
10
24.5211357629276
20
14.2483570333265
30
0
41
1
10
24.5015364138849
20
14.2511964276593
30
0
0
SPLINE
5
FA
100
AcDbEntity
8
1
62
256
6
ByLayer
370
18
48
1
60
0
100
AcDbSpline
70
4
71
3
72
28
73
24
40
0
40
0
40
0
40
0
40
0.0405984349493416
40
0.0405984349493416
40
0.136918028510174
40
0.136918028510174
40
0.284178405664795
40
0.284178405664795
40
0.500822929974466
40
0.500822929974466
40
0.566758824834823
40
0.566758824834823
40
0.632050095044786
40
0.632050095044786
40
0.735175839208408
40
0.735175839208408
40
0.79718610605124
40
0.79718610605124
40
0.859268321592048
40
0.859268321592048
40
0.921511331908841
40
0.921511331908841
40
1
40
1
40
1
40
1
41
1
10
26.452263927861
20
14.9805435589845
30
0
41
1
10
26.445490369358
20
14.9726843446395
30
0
41
1
10
26.43771945107
20
14.9655285356919
30
0
41
1
10
26.4096354416056
20
14.9439034927952
30
0
41
1
10
26.3862769246952
20
14.9322821108073
30
0
41
1
10
26.3245558487335
20
14.9098106332528
30
0
41
1
10
26.2836471038395
20
14.9020797691694
30
0
41
1
10
26.1817623911708
20
14.8931334929208
30
0
41
1
10
26.1182792856168
20
14.8965057948175
30
0
41
1
10
26.0379954149648
20
14.9099407071996
30
0
41
1
10
26.0191780261044
20
14.9137837990552
30
0
41
1
10
25.9821821355019
20
14.9227523095383
30
0
41
1
10
25.963954001423
20
14.9278755585068
30
0
41
1
10
25.9178313066888
20
14.9427724644395
30
0
41
1
10
25.8902525369193
20
14.9535709510434
30
0
41
1
10
25.8482188793471
20
14.9737031000684
30
0
41
1
10
25.8328459748863
20
14.9819429343284
30
0
41
1
10
25.8034071304137
20
14.9998500436962
30
0
41
1
10
25.7892797952544
20
15.0095544145531
30
0
41
1
10
25.762895929669
20
15.0305842170749
30
0
41
1
10
25.7505549487404
20
15.0419804381162
30
0
41
1
10
25.726041752539
20
15.0696862838843
30
0
41
1
10
25.7144383220287
20
15.0868483992744
30
0
41
1
10
25.7070976351309
20
15.1052416306094
30
0
0
SPLINE
5
FB
100
AcDbEntity
8
1
62
256
6
ByLayer
370
18
48
1
60
0
100
AcDbSpline
70
4
71
3
72
8
73
4
40
0
40
0
40
0
40
0
40
1
40
1
40
1
40
1
41
1
10
26.7057724744058
20
12.4341644400409
30
0
41
1
10
26.7079704814033
20
12.4278679127629
30
0
41
1
10
26.7101681967648
20
12.4215722209207
30
0
41
1
10
26.7123656314328
20
12.4152773331679
30
0
0
SPLINE
5
FC
100
AcDbEntity
8
1
62
256
6
ByLayer
370
18
48
1
60
0
100
AcDbSpline
70
4
71
3
72
24
73
20
40
0
40
0
40
0
40
0
40
0.158126111966004
40
0.158126111966004
40
0.271563393607306
40
0.271563393607306
40
0.38506623046978
40
0.38506623046978
40
0.498714519310307
40
0.498714519310307
40
0.612721087896066
40
0.612721087896066
40
0.746221642583606
40
0.746221642583606
40
0.824913378297538
40
0.824913378297538
40
0.908986128606068
40
0.908986128606068
40
1
40
1
40
1
40
1
41
1
10
26.4310295201863
20
12.0639351276619
30
0
41
1
10
26.4048152378356
20
12.0541340091073
30
0
41
1
10
26.3780500668838
20
12.0456768258647
30
0
41
1
10
26.3314844666
20
12.0337082854867
30
0
41
1
10
26.3118005827398
20
12.029465906383
30
0
41
1
10
26.2721986631663
20
12.0227226467803
30
0
41
1
10
26.2522344768589
20
12.0202131860351
30
0
41
1
10
26.2122504052436
20
12.0172749459461
30
0
41
1
10
26.1921600392657
20
12.0168401397633
30
0
41
1
10
26.1522665309551
20
12.018627137586
30
0
41
1
10
26.1323350872538
20
12.0208572011573
30
0
41
1
10
26.0904981560202
20
12.0295987198723
30
0
41
1
10
26.0683416252706
20
12.0368792006889
30
0
41
1
10
26.0373902543132
20
12.0540511112247
30
0
41
1
10
26.0266789913126
20
12.0618021186245
30
0
41
1
10
26.0081998953968
20
12.0803538301718
30
0
41
1
10
26.0004991750268
20
12.0915959114437
30
0
41
1
10
25.9901624799344
20
12.1165017479042
30
0
41
1
10
25.9878236439905
20
12.1306429580036
30
0
41
1
10
25.9882012355783
20
12.1445233601295
30
0
0
SPLINE
5
FD
100
AcDbEntity
8
1
62
256
6
ByLayer
370
18
48
1
60
0
100
AcDbSpline
70
4
71
3
72
8
73
4
40
0
40
0
40
0
40
0
40
1
40
1
40
1
40
1
41
1
10
26.452263927861
20
14.9805435589845
30
0
41
1
10
26.4566178769406
20
14.985595352521
30
0
41
1
10
26.4609712483296
20
14.9906464757754
30
0
41
1
10
26.4653240637035
20
14.9956969538975
30
0
0
SPLINE
5
FE
100
AcDbEntity
8
1
62
256
6
ByLayer
370
18
48
1
60
0
100
AcDbSpline
70
4
71
3
72
26
73
22
40
0
40
0
40
0
40
0
40
0.0611212350797057
40
0.0611212350797057
40
0.145349009858788
40
0.145349009858788
40
0.228936526328738
40
0.228936526328738
40
0.391532191220705
40
0.391532191220705
40
0.475817926908337
40
0.475817926908337
40
0.589557559273595
40
0.589557559273595
40
0.703149060376442
40
0.703149060376442
40
0.816673845780343
40
0.816673845780343
40
0.930168712116198
40
0.930168712116198
40
1
40
1
40
1
40
1
41
1
10
26.4653240637035
20
14.9956969538975
30
0
41
1
10
26.468154545352
20
15.0047060187575
30
0
41
1
10
26.4721607513074
20
15.0133884960595
30
0
41
1
10
26.4844556102708
20
15.032069136615
30
0
41
1
10
26.4940329078052
20
15.0415962392617
30
0
41
1
10
26.5162661523701
20
15.0562232024481
30
0
41
1
10
26.5291444591026
20
15.061573585207
30
0
41
1
10
26.5683539485495
20
15.0715931846786
30
0
41
1
10
26.596963263583
20
15.0715712984798
30
0
41
1
10
26.6390379101343
20
15.065939394402
30
0
41
1
10
26.6535068824645
20
15.0629684937802
30
0
41
1
10
26.6870451649235
20
15.0541979687628
30
0
41
1
10
26.7060606476874
20
15.0477508808498
30
0
41
1
10
26.7432396008884
20
15.0328519391349
30
0
41
1
10
26.7614762745538
20
15.0243694575411
30
0
41
1
10
26.7970848196479
20
15.0058139197751
30
0
41
1
10
26.8145011672473
20
14.9957165971864
30
0
41
1
10
26.8484465817657
20
14.9741773821547
30
0
41
1
10
26.865007563801
20
14.9627146340262
30
0
41
1
10
26.8909959361933
20
14.9432377157512
30
0
41
1
10
26.9007216234318
20
14.9355894665643
30
0
41
1
10
26.9102633947166
20
14.9277238373091
30
0
0
SPLINE
5
FF
100
AcDbEntity
8
1
62
256
6
ByLayer
370
18
48
1
60
0
100
AcDbSpline
70
4
71
3
72
26
73
22
40
0
40
0
40
0
40
0
40
0.0611212350797053
40
0.0611212350797053
40
0.145349009858793
40
0.145349009858793
40
0.228936526328746
40
0.228936526328746
40
0.39153219122071
40
0.39153219122071
40
0.475817926908351
40
0.475817926908351
40
0.589557559273606
40
0.589557559273606
40
0.703149060376456
40
0.703149060376456
40
0.816673845780366
40
0.816673845780366
40
0.930168712116224
40
0.930168712116224
40
1
40
1
40
1
40
1
41
1
10
25.2225596687824
20
12.2726478175383
30
0
41
1
10
25.2197291871339
20
12.2636387526783
30
0
41
1
10
25.2157229811785
20
12.2549562753764
30
0
41
1
10
25.2034281222151
20
12.2362756348208
30
0
41
1
10
25.1938508246807
20
12.2267485321741
30
0
41
1
10
25.1716175801158
20
12.2121215689878
30
0
41
1
10
25.1587392733833
20
12.2067711862289
30
0
41
1
10
25.1195297839363
20
12.1967515867573
30
0
41
1
10
25.0909204689029
20
12.196773472956
30
0
41
1
10
25.0488458223515
20
12.2024053770339
30
0
41
1
10
25.0343768500213
20
12.2053762776557
30
0
41
1
10
25.0008385675623
20
12.214146802673
30
0
41
1
10
24.9818230847985
20
12.2205938905861
30
0
41
1
10
24.9446441315975
20
12.235492832301
30
0
41
1
10
24.926407457932
20
12.2439753138947
30
0
41
1
10
24.890798912838
20
12.2625308516608
30
0
41
1
10
24.8733825652386
20
12.2726281742495
30
0
41
1
10
24.8394371507202
20
12.2941673892811
30
0
41
1
10
24.8228761686849
20
12.3056301374097
30
0
41
1
10
24.7968877962926
20
12.3251070556847
30
0
41
1
10
24.7871621090541
20
12.3327553048715
30
0
41
1
10
24.7776203377693
20
12.3406209341268
30
0
0
SPLINE
5
100
100
AcDbEntity
8
1
62
256
6
ByLayer
370
18
48
1
60
0
100
AcDbSpline
70
4
71
3
72
10
73
6
40
0
40
0
40
0
40
0
40
0.312552829816276
40
0.312552829816276
40
1
40
1
40
1
40
1
41
1
10
10.7962456861343
20
7.3181263210312
30
0
41
1
10
10.821034987124
20
7.29239700990186
30
0
41
1
10
10.8463087367427
20
7.26786151133931
30
0
41
1
10
10.9284711635644
20
7.19299466959879
30
0
41
1
10
10.9869113047604
20
7.14700971946741
30
0
41
1
10
11.0466365782974
20
7.10599938268248
30
0
0
SPLINE
5
101
100
AcDbEntity
8
1
62
256
6
ByLayer
370
18
48
1
60
0
100
AcDbSpline
70
4
71
3
72
8
73
4
40
0
40
0
40
0
40
0
40
1
40
1
40
1
40
1
41
1
10
11.1433568910751
20
7.16181322791434
30
0
41
1
10
11.1110281360684
20
7.14311161141021
30
0
41
1
10
11.0787932517208
20
7.12451293184446
30
0
41
1
10
11.0466365782974
20
7.10599938268248
30
0
0
SPLINE
5
102
100
AcDbEntity
8
1
62
256
6
ByLayer
370
18
48
1
60
0
100
AcDbSpline
70
4
71
3
72
8
73
4
40
0
40
0
40
0
40
0
40
1
40
1
40
1
40
1
41
1
10
11.6323827055099
20
3.88348368378169
30
0
41
1
10
12.0540993028439
20
3.32523449472117
30
0
41
1
10
12.402082979768
20
2.81124381139844
30
0
41
1
10
12.729753634368
20
2.30155717117728
30
0
0
SPLINE
5
103
100
AcDbEntity
8
1
62
256
6
ByLayer
370
18
48
1
60
0
100
AcDbSpline
70
4
71
3
72
24
73
20
40
0
40
0
40
0
40
0
40
0.0789356162871243
40
0.0789356162871243
40
0.196294620713741
40
0.196294620713741
40
0.314051009439902
40
0.314051009439902
40
0.430552718239077
40
0.430552718239077
40
0.544701080496738
40
0.544701080496738
40
0.657445423817655
40
0.657445423817655
40
0.770949830894707
40
0.770949830894707
40
0.88665741326124
40
0.88665741326124
40
1
40
1
40
1
40
1
41
1
10
8.5222186019522
20
-6.01756969055353
30
0
41
1
10
8.30660594166227
20
-6.13121289410407
30
0
41
1
10
8.07669832270273
20
-6.22043937921774
30
0
41
1
10
7.49163525405532
20
-6.37343578016956
30
0
41
1
10
7.12144261288807
20
-6.40517401403918
30
0
41
1
10
6.39902137603914
20
-6.34378031733453
30
0
41
1
10
6.03668547049097
20
-6.24930580338918
30
0
41
1
10
5.37554055085789
20
-5.94881261991816
30
0
41
1
10
5.06682389695874
20
-5.73964261426795
30
0
41
1
10
4.54859836831292
20
-5.24140165116708
30
0
41
1
10
4.330094046726
20
-4.94708613716622
30
0
41
1
10
4.00819921529666
20
-4.31658571110401
30
0
41
1
10
3.8990229253229
20
-3.97243161735261
30
0
41
1
10
3.79852664729751
20
-3.27655735046346
30
0
41
1
10
3.8065414959336
20
-2.91541342284756
30
0
41
1
10
3.937834737853
20
-2.21949758868351
30
0
41
1
10
4.06506908726951
20
-1.87582666951775
30
0
41
1
10
4.41692638181038
20
-1.26448480517726
30
0
41
1
10
4.64398023001445
20
-0.987435900145186
30
0
41
1
10
4.9068815942201
20
-0.757221702609598
30
0
0
SPLINE
5
104
100
AcDbEntity
8
1
62
256
6
ByLayer
370
18
48
1
60
0
100
AcDbSpline
70
4
71
3
72
20
73
16
40
0
40
0
40
0
40
0
40
0.083689302052657
40
0.083689302052657
40
0.263729969180322
40
0.263729969180322
40
0.438644188619639
40
0.438644188619639
40
0.61019131295179
40
0.61019131295179
40
0.780740167107025
40
0.780740167107025
40
0.952692963958893
40
0.952692963958893
40
1
40
1
40
1
40
1
41
1
10
12.3913578236732
20
2.05258365155481
30
0
41
1
10
12.4142679855994
20
2.01131210640474
30
0
41
1
10
12.4406712190288
20
1.96566528411424
30
0
41
1
10
12.5330471994292
20
1.81088957445536
30
0
41
1
10
12.6114688957959
20
1.68609069041821
30
0
41
1
10
12.7826599173162
20
1.42223972977729
30
0
41
1
10
12.8773400729172
20
1.27998396524219
30
0
41
1
10
13.0688431335729
20
0.99771499018388
30
0
41
1
10
13.1682202119325
20
0.853824276339196
30
0
41
1
10
13.358966572327
20
0.582728674581034
30
0
41
1
10
13.4529788746333
20
0.451755511052511
30
0
41
1
10
13.6249496011609
20
0.218675279044987
30
0
41
1
10
13.7051091065003
20
0.113677120160787
30
0
41
1
10
13.7922718251071
20
0.0054593842854729
30
0
41
1
10
13.8103809679206
20
-0.0166138645880096
30
0
41
1
10
13.8275942826369
20
-0.0371533635458263
30
0
0
SPLINE
5
105
100
AcDbEntity
8
1
62
256
6
ByLayer
370
18
48
1
60
0
100
AcDbSpline
70
4
71
3
72
10
73
6
40
0
40
0
40
0
40
0
40
0.174848055914248
40
0.174848055914248
40
1
40
1
40
1
40
1
41
1
10
10.8442405224375
20
5.03023767602969
30
0
41
1
10
10.8920684418796
20
4.96064762141881
30
0
41
1
10
10.9399400390671
20
4.8909940152939
30
0
41
1
10
11.2092456969177
20
4.4991518516488
30
0
41
1
10
11.4282208672038
20
4.18054100182744
30
0
41
1
10
11.6323827055099
20
3.88348368378169
30
0
0
SPLINE
5
106
100
AcDbEntity
8
1
62
256
6
ByLayer
370
18
48
1
60
0
100
AcDbSpline
70
4
71
3
72
8
73
4
40
0
40
0
40
0
40
0
40
1
40
1
40
1
40
1
41
1
10
14.1813013000859
20
0.189542212009286
30
0
41
1
10
14.5397081104071
20
-0.299020053585394
30
0
41
1
10
14.8948535550059
20
-0.808088590414087
30
0
41
1
10
15.2648943587449
20
-1.4018535684331
30
0
0
SPLINE
5
107
100
AcDbEntity
8
1
62
256
6
ByLayer
370
18
48
1
60
0
100
AcDbSpline
70
4
71
3
72
18
73
14
40
0
40
0
40
0
40
0
40
0.0203676344849535
40
0.0203676344849535
40
0.0904676656911251
40
0.0904676656911251
40
0.318076695405414
40
0.318076695405414
40
0.545462898242921
40
0.545462898242921
40
0.772727523889709
40
0.772727523889709
40
1
40
1
40
1
40
1
41
1
10
15.888219599759
20
-1.42603878084046
30
0
41
1
10
15.8839672512819
20
-1.42869199905911
30
0
41
1
10
15.8797144349581
20
-1.43134553348949
30
0
41
1
10
15.8606450840743
20
-1.44324359071973
30
0
41
1
10
15.8458291431805
20
-1.45248749476124
30
0
41
1
10
15.784046744482
20
-1.49103330839802
30
0
41
1
10
15.7374063698457
20
-1.5201289259785
30
0
41
1
10
15.6527833521647
20
-1.57291454502817
30
0
41
1
10
15.6136284850884
20
-1.59733581138403
30
0
41
1
10
15.5480910007157
20
-1.63820959474603
30
0
41
1
10
15.5208001353541
20
-1.65522863292347
30
0
41
1
10
15.4816840507569
20
-1.67962134134072
30
0
41
1
10
15.4693207036962
20
-1.687330642082
30
0
41
1
10
15.4651803937558
20
-1.68991239454962
30
0
0
SPLINE
5
108
100
AcDbEntity
8
1
62
256
6
ByLayer
370
18
48
1
60
0
100
AcDbSpline
70
4
71
3
72
8
73
4
40
0
40
0
40
0
40
0
40
1
40
1
40
1
40
1
41
1
10
4.90688159422012
20
-0.757221702609627
30
0
41
1
10
6.27306750653347
20
0.439102989116208
30
0
41
1
10
7.71664529544421
20
1.53547464013329
30
0
41
1
10
9.23840452994986
20
2.53148003668943
30
0
0
SPLINE
5
109
100
AcDbEntity
8
1
62
256
6
ByLayer
370
18
48
1
60
0
100
AcDbSpline
70
4
71
3
72
18
73
14
40
0
40
0
40
0
40
0
40
0.0203676344849563
40
0.0203676344849563
40
0.0904676656911735
40
0.0904676656911735
40
0.318076695405444
40
0.318076695405444
40
0.545462898242949
40
0.545462898242949
40
0.772727523889722
40
0.772727523889722
40
1
40
1
40
1
40
1
41
1
10
11.8331836531178
20
4.47407513311384
30
0
41
1
10
11.8291827551172
20
4.47105605218181
30
0
41
1
10
11.825181394246
20
4.46803664779733
30
0
41
1
10
11.8072397567273
20
4.4544977574393
30
0
41
1
10
11.793300270491
20
4.44397860395782
30
0
41
1
10
11.7351738218167
20
4.40011335002737
30
0
41
1
10
11.6912963073223
20
4.36699774599552
30
0
41
1
10
11.6116905092463
20
4.30691202712168
30
0
41
1
10
11.5748594435573
20
4.27910960876645
30
0
41
1
10
11.5132139455606
20
4.23257295008787
30
0
41
1
10
11.4875451331794
20
4.21319381017898
30
0
41
1
10
11.4507546270205
20
4.18541736413724
30
0
41
1
10
11.4391267474108
20
4.1766379516144
30
0
41
1
10
11.4352327194572
20
4.1736978566324
30
0
0
SPLINE
5
10A
100
AcDbEntity
8
1
62
256
6
ByLayer
370
18
48
1
60
0
100
AcDbSpline
70
4
71
3
72
8
73
4
40
0
40
0
40
0
40
0
40
1
40
1
40
1
40
1
41
1
10
13.1447651672351
20
-3.15230995981119
30
0
41
1
10
11.6697399506259
20
-4.21593151506769
30
0
41
1
10
10.1288720025908
20
-5.17074910405171
30
0
41
1
10
8.5222186019522
20
-6.0175696905535
30
0
0
SPLINE
5
10B
100
AcDbEntity
8
1
62
256
6
ByLayer
370
18
48
1
60
0
100
AcDbSpline
70
4
71
3
72
18
73
14
40
0
40
0
40
0
40
0
40
0.109006806149146
40
0.109006806149146
40
0.333161150499393
40
0.333161150499393
40
0.555191191177944
40
0.555191191177944
40
0.775790929498688
40
0.775790929498688
40
0.996363948941963
40
0.996363948941963
40
1
40
1
40
1
40
1
41
1
10
9.23840452994986
20
2.53148003668943
30
0
41
1
10
9.34136697444765
20
2.59886990233775
30
0
41
1
10
9.45037438033231
20
2.65802435945744
30
0
41
1
10
9.79448155290251
20
2.80942717664016
30
0
41
1
10
10.0472521993433
20
2.87262636589728
30
0
41
1
10
10.5509678088368
20
2.91012297084626
30
0
41
1
10
10.8088678336228
20
2.88575173164543
30
0
41
1
10
11.2941475885475
20
2.75495681335354
30
0
41
1
10
11.5283855382685
20
2.64726832498761
30
0
41
1
10
11.9427012702544
20
2.36470683174059
30
0
41
1
10
12.1284859450729
20
2.18596951194664
30
0
41
1
10
12.2801611463476
20
1.98117649206893
30
0
41
1
10
12.2826459307603
20
1.97780191642096
30
0
41
1
10
12.285121275299
20
1.97442048722081
30
0
0
SPLINE
5
10C
100
AcDbEntity
8
1
62
256
6
ByLayer
370
18
48
1
60
0
100
AcDbSpline
70
4
71
3
72
8
73
4
40
0
40
0
40
0
40
0
40
1
40
1
40
1
40
1
41
1
10
14.3220072464469
20
-4.74167863320301
30
0
41
1
10
13.7747716754395
20
-5.20086379900243
30
0
41
1
10
13.2275294923724
20
-5.66005451297863
30
0
41
1
10
12.6802803043246
20
-6.11925110483165
30
0
0
SPLINE
5
10D
100
AcDbEntity
8
1
62
256
6
ByLayer
370
18
48
1
60
0
100
AcDbSpline
70
4
71
3
72
20
73
16
40
0
40
0
40
0
40
0
40
0.145972223513522
40
0.145972223513522
40
0.323506945566352
40
0.323506945566352
40
0.495472667248454
40
0.495472667248454
40
0.661878314853106
40
0.661878314853106
40
0.827822721110902
40
0.827822721110902
40
0.99832263610242
40
0.99832263610242
40
1
40
1
40
1
40
1
41
1
10
13.962505944827
20
0.0493133317712875
30
0
41
1
10
13.9273909169325
20
0.123729501646579
30
0
41
1
10
13.8818714140212
20
0.212283663102454
30
0
41
1
10
13.7623967079236
20
0.429226354653196
30
0
41
1
10
13.6825189232328
20
0.565400458870982
30
0
41
1
10
13.5091937430093
20
0.844048540513313
30
0
41
1
10
13.4137690899194
20
0.990122780050456
30
0
41
1
10
13.2220433279689
20
1.2698181639058
30
0
41
1
10
13.1232692225904
20
1.40748492763544
30
0
41
1
10
12.9336970083807
20
1.66010541818235
30
0
41
1
10
12.840369693656
20
1.77850317733211
30
0
41
1
10
12.6689873126973
20
1.98530845001517
30
0
41
1
10
12.5891429809516
20
2.07560739281513
30
0
41
1
10
12.5217555182957
20
2.14616121949257
30
0
41
1
10
12.5210918917119
20
2.14685537920207
30
0
41
1
10
12.520429453714
20
2.14754764637698
30
0
0
SPLINE
5
10E
100
AcDbEntity
8
1
62
256
6
ByLayer
370
18
48
1
60
0
100
AcDbSpline
70
4
71
3
72
18
73
14
40
0
40
0
40
0
40
0
40
0.111488849731787
40
0.111488849731787
40
0.332969349203544
40
0.332969349203544
40
0.553908085761798
40
0.553908085761798
40
0.774373308754772
40
0.774373308754772
40
0.995352862439773
40
0.995352862439773
40
1
40
1
40
1
40
1
41
1
10
13.7165509083339
20
-0.108322552754231
30
0
41
1
10
13.7854002193962
20
-0.215178928338389
30
0
41
1
10
13.8454230170962
20
-0.328296656739553
30
0
41
1
10
13.9940886514322
20
-0.676769586083708
30
0
41
1
10
14.0544157152997
20
-0.928541969815853
30
0
41
1
10
14.0880250323704
20
-1.43010021719408
30
0
41
1
10
14.061972413076
20
-1.68680895060405
30
0
41
1
10
13.9289244471579
20
-2.16944253941426
30
0
41
1
10
13.8202863931605
20
-2.40204595990275
30
0
41
1
10
13.536932141418
20
-2.81265170965989
30
0
41
1
10
13.3582353709225
20
-2.99613560383162
30
0
41
1
10
13.153353121486
20
-3.14609411881122
30
0
41
1
10
13.1490645300712
20
-3.14920974502507
30
0
41
1
10
13.1447651672351
20
-3.15230995981119
30
0
0
SPLINE
5
10F
100
AcDbEntity
8
1
62
256
6
ByLayer
370
18
48
1
60
0
100
AcDbSpline
70
4
71
3
72
16
73
12
40
0
40
0
40
0
40
0
40
0.0476669883321932
40
0.0476669883321932
40
0.327264494836081
40
0.327264494836081
40
0.606127288026379
40
0.606127288026379
40
0.889349919603605
40
0.889349919603605
40
1
40
1
40
1
40
1
41
1
10
13.8275942826369
20
-0.0371533635457979
30
0
41
1
10
13.8389273792396
20
-0.0506763909055792
30
0
41
1
10
13.849748050631
20
-0.0636686907874946
30
0
41
1
10
13.9199925111629
20
-0.148067618219585
30
0
41
1
10
13.9637858194241
20
-0.200184374603623
30
0
41
1
10
14.0229014031723
20
-0.248444662211369
30
0
41
1
10
14.0392872329624
20
-0.24546149158499
30
0
41
1
10
14.0450133785197
20
-0.186677648996635
30
0
41
1
10
14.0339787430335
20
-0.129524512616058
30
0
41
1
10
13.9939180935671
20
-0.0212026960643925
30
0
41
1
10
13.9797863293126
20
0.0126925427672688
30
0
41
1
10
13.962505944827
20
0.0493133317712875
30
0
0
SPLINE
5
110
100
AcDbEntity
8
1
62
256
6
ByLayer
370
18
48
1
60
0
100
AcDbSpline
70
4
71
3
72
16
73
12
40
0
40
0
40
0
40
0
40
0.008671058457026
40
0.008671058457026
40
0.266997322644283
40
0.266997322644283
40
0.551236435639173
40
0.551236435639173
40
0.839491769210959
40
0.839491769210959
40
1
40
1
40
1
40
1
41
1
10
12.520429453714
20
2.14754764637698
30
0
41
1
10
12.5182189285097
20
2.14985771017609
30
0
41
1
10
12.5160175112486
20
2.15214304870756
30
0
41
1
10
12.449248834597
20
2.22100434606241
30
0
41
1
10
12.3924981425549
20
2.26673622728776
30
0
41
1
10
12.3055915238016
20
2.32115634829796
30
0
41
1
10
12.2776588620744
20
2.32655746033646
30
0
41
1
10
12.2660039747483
20
2.29168181600841
30
0
41
1
10
12.282972710667
20
2.2500896659636
30
0
41
1
10
12.3375430976589
20
2.14840160489234
30
0
41
1
10
12.3627178270696
20
2.10417721587496
30
0
41
1
10
12.3913578236732
20
2.05258365155481
30
0
0
SPLINE
5
111
100
AcDbEntity
8
1
62
256
6
ByLayer
370
18
48
1
60
0
100
AcDbSpline
70
4
71
3
72
8
73
4
40
0
40
0
40
0
40
0
40
1
40
1
40
1
40
1
41
1
10
15.5081889982515
20
-3.74635396275454
30
0
41
1
10
15.1127855671144
20
-4.07813683598795
30
0
41
1
10
14.7174008388769
20
-4.40990401562516
30
0
41
1
10
14.3220072464469
20
-4.74167863320301
30
0
0
SPLINE
5
112
100
AcDbEntity
8
1
62
256
6
ByLayer
370
18
48
1
60
0
100
AcDbSpline
70
4
71
3
72
8
73
4
40
0
40
0
40
0
40
0
40
1
40
1
40
1
40
1
41
1
10
14.4169898784317
20
6.163042634433
30
0
41
1
10
14.392678475767
20
6.18635526430086
30
0
41
1
10
14.3683186132654
20
6.20962412478318
30
0
41
1
10
14.3439062171489
20
6.23284524184749
30
0
0
SPLINE
5
113
100
AcDbEntity
8
1
62
256
6
ByLayer
370
18
48
1
60
0
100
AcDbSpline
70
4
71
3
72
10
73
6
40
0
40
0
40
0
40
0
40
0.266680200736765
40
0.266680200736765
40
1
40
1
40
1
40
1
41
1
10
15.2648943587449
20
-1.40185356843313
30
0
41
1
10
15.331562831146
20
-1.49885679770455
30
0
41
1
10
15.3994607398375
20
-1.59764886787866
30
0
41
1
10
15.6560126518405
20
-1.97093421616617
30
0
41
1
10
15.8552341756415
20
-2.2608033320025
30
0
41
1
10
16.0530365418173
20
-2.54860756068109
30
0
0
SPLINE
5
114
100
AcDbEntity
8
1
62
256
6
ByLayer
370
18
48
1
60
0
100
AcDbSpline
70
4
71
3
72
8
73
4
40
0
40
0
40
0
40
0
40
1
40
1
40
1
40
1
41
1
10
12.285121275299
20
1.97442048722081
30
0
41
1
10
12.7825288508728
20
1.29493992437284
30
0
41
1
10
13.2604560876204
20
0.599551479856586
30
0
41
1
10
13.7165509083339
20
-0.108322552754231
30
0
0
LINE
5
7A
100
AcDbEntity
8
80
62
256
6
ByLayer
370
18
48
1
60
0
100
AcDbLine
10
0
20
0
30
0
11
-5
21
0
31
0
39
0
210
0
220
0
230
1
0
LINE
5
7B
100
AcDbEntity
8
81
62
256
6
ByLayer
370
18
48
1
60
0
100
AcDbLine
10
39
20
19.05
30
0
11
44
21
19.05
31
0
39
0
210
0
220
0
230
1
0
LINE
5
7C
100
AcDbEntity
8
SK1
62
256
6
ByLayer
370
13
48
1
60
0
100
AcDbLine
10
-1.227723
20
-12.7
30
0
11
-1.227723
21
12.625
31
0
39
0
210
0
220
0
230
1
0
LINE
5
7E
100
AcDbEntity
8
1
62
256
6
ByLayer
370
13
48
1
60
0
100
AcDbLine
10
14.200963
20
5.585582
30
0
11
14.049344
21
5.779645
31
0
39
0
210
0
220
0
230
1
0
LINE
5
80
100
AcDbEntity
8
1
62
256
6
ByLayer
370
13
48
1
60
0
100
AcDbLine
10
15.88822
20
-1.426039
30
0
11
16.760642
21
-2.695421
31
0
39
0
210
0
220
0
230
1
0
LINE
5
81
100
AcDbEntity
8
1
62
256
6
ByLayer
370
13
48
1
60
0
100
AcDbLine
10
5.3547
20
13.900327
30
0
11
11.833184
21
4.474075
31
0
39
0
210
0
220
0
230
1
0
LINE
5
82
100
AcDbEntity
8
1
62
256
6
ByLayer
370
13
48
1
60
0
100
AcDbLine
10
8.522219
20
-6.01757
30
0
11
8.829
21
-6.58078
31
0
39
0
210
0
220
0
230
1
0
LINE
5
83
100
AcDbEntity
8
1
62
256
6
ByLayer
370
13
48
1
60
0
100
AcDbLine
10
4.906882
20
-0.757222
30
0
11
4.49102
21
-0.26898
31
0
39
0
210
0
220
0
230
1
0
LINE
5
84
100
AcDbEntity
8
1
62
256
6
ByLayer
370
13
48
1
60
0
100
AcDbLine
10
9.238405
20
2.53148
30
0
11
8.93288
21
3.011561
31
0
39
0
210
0
220
0
230
1
0
LINE
5
85
100
AcDbEntity
8
1
62
256
6
ByLayer
370
13
48
1
60
0
100
AcDbLine
10
13.483469
20
-3.609587
30
0
11
13.144765
21
-3.15231
31
0
39
0
210
0
220
0
230
1
0
LINE
5
86
100
AcDbEntity
8
1
62
256
6
ByLayer
370
13
48
1
60
0
100
AcDbLine
10
12.729754
20
2.301557
30
0
11
12.520429
21
2.147548
31
0
39
0
210
0
220
0
230
1
0
LINE
5
87
100
AcDbEntity
8
1
62
256
6
ByLayer
370
13
48
1
60
0
100
AcDbLine
10
12.391358
20
2.052584
30
0
11
12.285121
21
1.97442
31
0
39
0
210
0
220
0
230
1
0
LINE
5
88
100
AcDbEntity
8
1
62
256
6
ByLayer
370
13
48
1
60
0
100
AcDbLine
10
13.962506
20
0.049313
30
0
11
14.181301
21
0.189542
31
0
39
0
210
0
220
0
230
1
0
LINE
5
89
100
AcDbEntity
8
1
62
256
6
ByLayer
370
13
48
1
60
0
100
AcDbLine
10
4.49102
20
-0.26898
30
0
11
3.457491
21
0.944434
31
0
39
0
210
0
220
0
230
1
0
LINE
5
8A
100
AcDbEntity
8
1
62
256
6
ByLayer
370
13
48
1
60
0
100
AcDbLine
10
13.716551
20
-0.108323
30
0
11
13.827594
21
-0.037153
31
0
39
0
210
0
220
0
230
1
0
LINE
5
8B
100
AcDbEntity
8
1
62
256
6
ByLayer
370
13
48
1
60
0
100
AcDbLine
10
8.93288
20
3.011561
30
0
11
8.077112
21
4.35626
31
0
39
0
210
0
220
0
230
1
0
LINE
5
8C
100
AcDbEntity
8
1
62
256
6
ByLayer
370
13
48
1
60
0
100
AcDbLine
10
8.829
20
-6.58078
30
0
11
9.591436
21
-7.980511
31
0
39
0
210
0
220
0
230
1
0
LINE
5
8D
100
AcDbEntity
8
1
62
256
6
ByLayer
370
13
48
1
60
0
100
AcDbLine
10
13.483469
20
-3.609587
30
0
11
14.322007
21
-4.741679
31
0
39
0
210
0
220
0
230
1
0
LINE
5
8E
100
AcDbEntity
8
1
62
256
6
ByLayer
370
18
48
1
60
0
100
AcDbLine
10
17.863219
20
8.44685
30
0
11
14.200963
21
5.585582
31
0
39
0
210
0
220
0
230
1
0
LINE
5
8F
100
AcDbEntity
8
1
62
256
6
ByLayer
370
18
48
1
60
0
100
AcDbLine
10
14.41699
20
6.163043
30
0
11
17.302524
21
8.417469
31
0
39
0
210
0
220
0
230
1
0
LINE
5
90
100
AcDbEntity
8
1
62
256
6
ByLayer
370
18
48
1
60
0
100
AcDbLine
10
22.69051
20
17.214143
30
0
11
22.453555
21
17.847909
31
0
39
0
210
0
220
0
230
1
0
LINE
5
91
100
AcDbEntity
8
1
62
256
6
ByLayer
370
18
48
1
60
0
100
AcDbLine
10
22.770054
20
17.920978
30
0
11
22.9566
21
17.422039
31
0
39
0
210
0
220
0
230
1
0
LINE
5
92
100
AcDbEntity
8
1
62
256
6
ByLayer
370
18
48
1
60
0
100
AcDbLine
10
26.494665
20
7.039469
30
0
11
25.812699
21
8.86347
31
0
39
0
210
0
220
0
230
1
0
LINE
5
93
100
AcDbEntity
8
1
62
256
6
ByLayer
370
18
48
1
60
0
100
AcDbLine
10
26.1499
20
8.88117
30
0
11
26.640502
21
7.568996
31
0
39
0
210
0
220
0
230
1
0
LINE
5
94
100
AcDbEntity
8
1
62
256
6
ByLayer
370
18
48
1
60
0
100
AcDbLine
10
14.343906
20
6.232845
30
0
11
17.128448
21
8.408368
31
0
39
0
210
0
220
0
230
1
0
LINE
5
95
100
AcDbEntity
8
1
62
256
6
ByLayer
370
18
48
1
60
0
100
AcDbLine
10
22.868332
20
17.943667
30
0
11
23.039226
21
17.486589
31
0
39
0
210
0
220
0
230
1
0
LINE
5
96
100
AcDbEntity
8
1
62
256
6
ByLayer
370
18
48
1
60
0
100
AcDbLine
10
26.254609
20
8.886658
30
0
11
26.69
21
7.722152
31
0
39
0
210
0
220
0
230
1
0
LINE
5
97
100
AcDbEntity
8
1
62
256
6
ByLayer
370
13
48
1
60
0
100
AcDbLine
10
38.164708
20
19.048912
30
0
11
24.345065
21
18.324655
31
0
39
0
210
0
220
0
230
1
0
LINE
5
98
100
AcDbEntity
8
1
62
256
6
ByLayer
370
13
48
1
60
0
100
AcDbLine
10
27.789959
20
9.110868
30
0
11
38.694931
21
17.630766
31
0
39
0
210
0
220
0
230
1
0
LINE
5
99
100
AcDbEntity
8
1
62
256
6
ByLayer
370
13
48
1
60
0
100
AcDbLine
10
13.523175
20
8.219433
30
0
11
27.342819
21
8.943689
31
0
39
0
210
0
220
0
230
1
0
LINE
5
9A
100
AcDbEntity
8
1
62
256
6
ByLayer
370
13
48
1
60
0
100
AcDbLine
10
23.897925
20
18.157477
30
0
11
12.992952
21
9.637578
31
0
39
0
210
0
220
0
230
1
0
LINE
5
9B
100
AcDbEntity
8
1
62
256
6
ByLayer
370
18
48
1
60
0
100
AcDbLine
10
4.837649
20
-12.7
30
0
11
12.68028
21
-6.119251
31
0
39
0
210
0
220
0
230
1
0
LINE
5
9C
100
AcDbEntity
8
1
62
256
6
ByLayer
370
18
48
1
60
0
100
AcDbLine
10
1.916408
20
13.106535
30
0
11
4.83108
21
13.77944
31
0
39
0
210
0
220
0
230
1
0
LINE
5
9D
100
AcDbEntity
8
1
62
256
6
ByLayer
370
18
48
1
60
0
100
AcDbLine
10
26.273414
20
5.286743
30
0
11
16.760642
21
-2.695421
31
0
39
0
210
0
220
0
230
1
0
LINE
5
9E
100
AcDbEntity
8
1
62
256
6
ByLayer
370
18
48
1
60
0
100
AcDbLine
10
5.3547
20
13.900327
30
0
11
4.83108
21
13.77944
31
0
39
0
210
0
220
0
230
1
0
LINE
5
9F
100
AcDbEntity
8
1
62
256
6
ByLayer
370
18
48
1
60
0
100
AcDbLine
10
23.662443
20
18.127002
30
0
11
22.868332
21
17.943667
31
0
39
0
210
0
220
0
230
1
0
LINE
5
A0
100
AcDbEntity
8
1
62
256
6
ByLayer
370
18
48
1
60
0
100
AcDbLine
10
10.844241
20
5.030238
30
0
11
4.83108
21
13.77944
31
0
39
0
210
0
220
0
230
1
0
LINE
5
A1
100
AcDbEntity
8
1
62
256
6
ByLayer
370
18
48
1
60
0
100
AcDbLine
10
15.508189
20
-3.746354
30
0
11
16.375848
21
-3.018301
31
0
39
0
210
0
220
0
230
1
0
LINE
5
A2
100
AcDbEntity
8
1
62
256
6
ByLayer
370
18
48
1
60
0
100
AcDbLine
10
22.453555
20
17.847909
30
0
11
22.770054
21
17.920978
31
0
39
0
210
0
220
0
230
1
0
LINE
5
A3
100
AcDbEntity
8
1
62
256
6
ByLayer
370
18
48
1
60
0
100
AcDbLine
10
0
20
-12.7
30
0
11
4.837649
21
-12.7
31
0
39
0
210
0
220
0
230
1
0
LINE
5
A4
100
AcDbEntity
8
1
62
256
6
ByLayer
370
18
48
1
60
0
100
AcDbLine
10
0
20
12.625
30
0
11
0
21
-12.7
31
0
39
0
210
0
220
0
230
1
0
LINE
5
A5
100
AcDbEntity
8
1
62
256
6
ByLayer
370
18
48
1
60
0
100
AcDbLine
10
16.375848
20
-3.018301
30
0
11
16.053037
21
-2.548608
31
0
39
0
210
0
220
0
230
1
0
LINE
5
A6
100
AcDbEntity
8
1
62
256
6
ByLayer
370
18
48
1
60
0
100
AcDbLine
10
22.453555
20
17.847909
30
0
11
5.3547
21
13.900327
31
0
39
0
210
0
220
0
230
1
0
LINE
5
A7
100
AcDbEntity
8
1
62
256
6
ByLayer
370
18
48
1
60
0
100
AcDbLine
10
0
20
12.625
30
0
11
0.772277
21
12.625
31
0
39
0
210
0
220
0
230
1
0
LINE
5
A8
100
AcDbEntity
8
1
62
256
6
ByLayer
370
18
48
1
60
0
100
AcDbLine
10
16.760642
20
-2.695421
30
0
11
16.375848
21
-3.018301
31
0
39
0
210
0
220
0
230
1
0
LINE
5
A9
100
AcDbEntity
8
1
62
256
6
ByLayer
370
18
48
1
60
0
100
AcDbLine
10
22.770054
20
17.920978
30
0
11
22.868332
21
17.943667
31
0
39
0
210
0
220
0
230
1
0
LINE
5
AA
100
AcDbEntity
8
SK1
62
256
6
ByLayer
370
18
48
1
60
0
100
AcDbLine
10
0
20
12.625
30
0
11
0
21
-12.7
31
0
39
0
210
0
220
0
230
1
0
LINE
5
AB
100
AcDbEntity
8
SK1
62
256
6
ByLayer
370
18
48
1
60
0
100
AcDbLine
10
-81
20
12.625
30
0
11
-84
21
9.625
31
0
39
0
210
0
220
0
230
1
0
LINE
5
AC
100
AcDbEntity
8
SK1
62
256
6
ByLayer
370
18
48
1
60
0
100
AcDbLine
10
-81
20
12.625
30
0
11
-1.227723
21
12.625
31
0
39
0
210
0
220
0
230
1
0
LINE
5
AD
100
AcDbEntity
8
SK1
62
256
6
ByLayer
370
18
48
1
60
0
100
AcDbLine
10
-81
20
-12.7
30
0
11
-84
21
-9.7
31
0
39
0
210
0
220
0
230
1
0
LINE
5
AE
100
AcDbEntity
8
SK1
62
256
6
ByLayer
370
18
48
1
60
0
100
AcDbLine
10
-0.705858
20
12.625
30
0
11
0
21
12.625
31
0
39
0
210
0
220
0
230
1
0
LINE
5
AF
100
AcDbEntity
8
SK1
62
256
6
ByLayer
370
18
48
1
60
0
100
AcDbLine
10
-81
20
-12.7
30
0
11
-1.227723
21
-12.7
31
0
39
0
210
0
220
0
230
1
0
LINE
5
B0
100
AcDbEntity
8
SK1
62
256
6
ByLayer
370
18
48
1
60
0
100
AcDbLine
10
-84
20
9.625
30
0
11
-84
21
-9.7
31
0
39
0
210
0
220
0
230
1
0
LINE
5
B1
100
AcDbEntity
8
SK1
62
256
6
ByLayer
370
18
48
1
60
0
100
AcDbLine
10
-1.227723
20
12.625
30
0
11
-0.705858
21
12.625
31
0
39
0
210
0
220
0
230
1
0
LINE
5
B2
100
AcDbEntity
8
SK1
62
256
6
ByLayer
370
18
48
1
60
0
100
AcDbLine
10
-0.705858
20
12.625
30
0
11
-0.705858
21
-12.7
31
0
39
0
210
0
220
0
230
1
0
LINE
5
B3
100
AcDbEntity
8
SK1
62
256
6
ByLayer
370
18
48
1
60
0
100
AcDbLine
10
-1.227723
20
-12.7
30
0
11
-0.705858
21
-12.7
31
0
39
0
210
0
220
0
230
1
0
LINE
5
B4
100
AcDbEntity
8
SK1
62
256
6
ByLayer
370
18
48
1
60
0
100
AcDbLine
10
-0.705858
20
-12.7
30
0
11
0
21
-12.7
31
0
39
0
210
0
220
0
230
1
0
MTEXT
5
115
100
AcDbEntity
8
SK6
62
256
6
ByLayer
370
18
48
1
60
0
100
AcDbMText
10
-35.146736
20
-51.450025
30
0
210
0
220
0
230
1
1
\W0.7932;QS-SVJBR163C
40
3.5
41
0
44
1.084337
50
0
71
7
72
5
7
iso_b_vert
0
DIMENSION
5
126
100
AcDbEntity
8
2
62
256
6
ByLayer
370
13
48
1
60
0
100
AcDbDimension
2
DimnDraft3D1
10
34.522884
20
19.05
30
0
11
34.522884
21
-1.803289
31
0
70
32
71
5
72
1
41
1
210
0
220
0
230
1
3
Standard
100
AcDbAlignedDimension
13
34
23
-12.7
33
0
14
37
24
19.05
34
0
50
90
100
AcDbRotatedDimension
1001
ACAD
1000
DSTYLE
1002
{
1070
    74
1070
     0
1070
   279
1070
     0
1070
   172
1070
     1
1070
   173
1070
     1
1070
   340
1005
116
1070
   271
1070
     1
1070
    77
1070
     1
1070
    73
1070
     0
1070
   171
1070
     3
1070
   274
1070
     4
1070
   177
1070
     2
1070
   176
1070
     2
1070
   178
1070
     7
1070
    78
1070
     8
1070
    41
1041
3.175
1070
   147
1041
1.75
1070
    42
1041
2.0
1070
    44
1041
2.0
1070
   140
1041
3.5
1070
   343
1005
127
1070
   344
1005
127
1002
}
0
DIMENSION
5
13B
100
AcDbEntity
8
SK2
62
256
6
ByLayer
370
13
48
1
60
0
100
AcDbDimension
2
DimnDraft3D2
10
-98.60005
20
-12.7
30
0
11
-98.60005
21
-4.292105
31
0
70
32
71
5
72
1
41
1
210
0
220
0
230
1
3
Standard
100
AcDbAlignedDimension
13
-2
23
12.7
33
0
14
-86
24
-12.7
34
0
50
90
100
AcDbRotatedDimension
1001
ACAD
1000
DSTYLE
1002
{
1070
    74
1070
     0
1070
   279
1070
     0
1070
   172
1070
     1
1070
   173
1070
     1
1070
   340
1005
116
1070
   271
1070
     1
1070
    77
1070
     1
1070
    73
1070
     0
1070
   171
1070
     3
1070
   274
1070
     4
1070
   177
1070
     2
1070
   176
1070
     2
1070
   178
1070
     7
1070
    78
1070
     8
1070
    41
1041
3.175
1070
   147
1041
1.75
1070
    42
1041
2.0
1070
    44
1041
2.0
1070
   140
1041
3.5
1070
   343
1005
127
1070
   344
1005
127
1002
}
0
DIMENSION
5
149
100
AcDbEntity
8
2
62
256
6
ByLayer
370
13
48
1
60
0
100
AcDbDimension
2
DimnDraft3D3
10
44
20
19.05
30
0
11
32.556998
21
26.845799
31
0
70
34
71
5
72
1
41
1
210
0
220
0
230
1
3
Standard
100
AcDb2LineAngularDimension
13
39
23
19.05
33
0
14
38.737961
24
14.05
34
0
15
39
25
19.05
35
0
16
34.103258
26
24.210089
36
0
40
0
0
DIMENSION
5
157
100
AcDbEntity
8
SK2
62
256
6
ByLayer
370
13
48
1
60
0
100
AcDbDimension
2
DimnDraft3D4
10
39
20
-40.544955
30
0
11
-27.478289
21
-40.544955
31
0
70
32
71
5
72
1
41
1
210
0
220
0
230
1
3
Standard
100
AcDbAlignedDimension
13
-84
23
-14.7
33
0
14
39
24
17.05
34
0
50
0
100
AcDbRotatedDimension
1001
ACAD
1000
DSTYLE
1002
{
1070
   279
1070
     0
1070
   172
1070
     1
1070
   173
1070
     1
1070
   340
1005
116
1070
   271
1070
     1
1070
    77
1070
     1
1070
    73
1070
     0
1070
   171
1070
     3
1070
   274
1070
     4
1070
   177
1070
     2
1070
   176
1070
     2
1070
   178
1070
     7
1070
    78
1070
     8
1070
    41
1041
3.175
1070
   147
1041
1.75
1070
    42
1041
2.0
1070
    44
1041
2.0
1070
   140
1041
3.5
1070
   343
1005
127
1070
   344
1005
127
1002
}
0
DIMENSION
5
165
100
AcDbEntity
8
2
62
256
6
ByLayer
370
13
48
1
60
0
100
AcDbDimension
2
DimnDraft3D5
10
39
20
-25.80005
30
0
11
15.392105
21
-25.80005
31
0
70
32
71
5
72
1
41
1
210
0
220
0
230
1
3
Standard
100
AcDbAlignedDimension
13
0
23
10.7
33
0
14
39
24
17.05
34
0
50
0
100
AcDbRotatedDimension
1001
ACAD
1000
DSTYLE
1002
{
1070
   279
1070
     0
1070
   172
1070
     1
1070
   173
1070
     1
1070
   340
1005
116
1070
   271
1070
     1
1070
    77
1070
     1
1070
    73
1070
     0
1070
   171
1070
     3
1070
   274
1070
     4
1070
   177
1070
     2
1070
   176
1070
     2
1070
   178
1070
     7
1070
    78
1070
     8
1070
    41
1041
3.175
1070
   147
1041
1.75
1070
    42
1041
2.0
1070
    44
1041
2.0
1070
   140
1041
3.5
1070
   343
1005
127
1070
   344
1005
127
1002
}
0
DIMENSION
5
173
100
AcDbEntity
8
SK2
62
256
6
ByLayer
370
13
48
1
60
0
100
AcDbDimension
2
DimnDraft3D6
10
-81
20
-25.80005
30
0
11
-65.145
21
-25.80005
31
0
70
32
71
5
72
1
41
1
210
0
220
0
230
1
3
Standard
100
AcDbAlignedDimension
13
-84
23
-14.7
33
0
14
-81
24
-14.7
34
0
50
0
100
AcDbRotatedDimension
1001
ACAD
1000
DSTYLE
1002
{
1070
   279
1070
     0
1070
   172
1070
     1
1070
   173
1070
     1
1070
   340
1005
116
1070
    77
1070
     1
1070
    73
1070
     0
1070
   171
1070
     3
1070
   274
1070
     4
1070
   177
1070
     2
1070
   176
1070
     2
1070
   178
1070
     7
1070
    78
1070
     8
1070
    41
1041
3.175
1070
   147
1041
1.75
1070
    42
1041
2.0
1070
    44
1041
2.0
1070
   140
1041
3.5
1070
   343
1005
127
1070
   344
1005
127
1002
}
0
ENDSEC
0
SECTION
2
OBJECTS
0
DICTIONARY
5
1dd
330
0
100
AcDbDictionary
280
0
281
1
3
ACAD_GROUP
350
1de
3
ACAD_MLINESTYLE
350
1df
0
DICTIONARY
5
1de
330
0
100
AcDbDictionary
280
0
281
1
0
DICTIONARY
5
1df
330
0
100
AcDbDictionary
280
0
281
1
3
Standard
350
18
0
MLINESTYLE
5
18
330
1df
100
AcDbMlineStyle
2
Standard
70
0
3

62
256
51
90
52
90
71
2
49
-0.5
62
256
6
ByLayer
49
0.5
62
256
6
ByLayer
0
RASTERVARIABLES
5
1cc
330

100
AcDbRasterVariables
90
0
70
1
71
1
72
1
0
ENDSEC
0
EOF
