0
SECTION
2
HEADER
9
$ACADVER
1
AC1015
9
$DWGCODEPAGE
3
ANSI_1252
9
$HANDSEED
5
1e5
9
$ANGBASE
50
0
9
$ANGDIR
70
0
9
$ATTMODE
70
1
9
$AUNITS
70
0
9
$AUPREC
70
0
9
$CECOLOR
62
256
9
$CELTSCALE
40
1
9
$CELTYPE
6
ByLayer
9
$CELWEIGHT
370
18
9
$CLAYER
8
0
9
$CMLJUST
70
0
9
$CMLSCALE
40
1
9
$CMLSTYLE
2
Standard
9
$DIMSTYLE
2
Standard
9
$TEXTSIZE
40
0.2
9
$TEXTSTYLE
7
Standard
9
$LUNITS
70
2
9
$LUPREC
70
4
9
$EXTNAMES
290
1
9
$INSUNITS
70
4
9
$LTSCALE
40
1
9
$LWDISPLAY
290
1
9
$PDMODE
70
0
9
$PDSIZE
40
0
9
$PLINEGEN
70
0
0
ENDSEC
0
SECTION
2
CLASSES
0
CLASS
1
RASTERVARIABLES
2
AcDbRasterVariables
3
ISM
90
0
280
0
281
0
0
ENDSEC
0
SECTION
2
TABLES
0
TABLE
2
VPORT
5
1db
100
AcDbSymbolTable
0
VPORT
5
1
100
AcDbSymbolTableRecord
100
AcDbViewportTableRecord
2
*Active
70
0
10
0
20
0
11
1
21
1
12
-1
22
1
13
0
23
0
14
0.5
24
0.5
15
10
25
10
16
0
26
0
36
1
17
0
27
0
37
0
0
ENDTAB
0
TABLE
2
LTYPE
5
1dc
100
AcDbSymbolTable
0
LTYPE
5
14
100
AcDbSymbolTableRecord
100
AcDbLinetypeTableRecord
70
0
2
ByBlock
3

72
65
73
0
40
0
0
LTYPE
5
15
100
AcDbSymbolTableRecord
100
AcDbLinetypeTableRecord
70
0
2
ByLayer
3

72
65
73
0
40
0
0
LTYPE
5
16
100
AcDbSymbolTableRecord
100
AcDbLinetypeTableRecord
70
0
2
CONTINUOUS
3
Solid line
72
65
73
0
40
0
0
LTYPE
5
6A
100
AcDbSymbolTableRecord
100
AcDbLinetypeTableRecord
70
0
2
CENTER
3
____ _ ____ _ ____ _ ____
72
65
73
4
40
47.5
49
22
74
0
49
-8.5
74
0
49
8.5
74
0
49
-8.5
74
0
0
LTYPE
5
6B
100
AcDbSymbolTableRecord
100
AcDbLinetypeTableRecord
70
0
2
DASHED
3
__ __ __ __ __ __ __ __ __
72
65
73
2
40
25.72
49
12.86
74
0
49
-12.86
74
0
0
ENDTAB
0
TABLE
2
LAYER
5
1dd
100
AcDbSymbolTable
0
LAYER
5
10
100
AcDbSymbolTableRecord
100
AcDbLayerTableRecord
2
0
70
0
62
7
6
CONTINUOUS
290
1
370
-3
390
0
0
LAYER
5
6D
100
AcDbSymbolTableRecord
100
AcDbLayerTableRecord
2
80
70
0
62
-6
6
CONTINUOUS
290
1
370
-3
390
0
0
LAYER
5
6F
100
AcDbSymbolTableRecord
100
AcDbLayerTableRecord
2
81
70
0
62
-3
6
CONTINUOUS
290
1
370
-3
390
0
0
LAYER
5
71
100
AcDbSymbolTableRecord
100
AcDbLayerTableRecord
2
2
70
0
62
7
6
CONTINUOUS
290
1
370
-3
390
0
0
LAYER
5
7D
100
AcDbSymbolTableRecord
100
AcDbLayerTableRecord
2
1
70
0
62
4
6
CONTINUOUS
290
1
370
-3
390
0
0
LAYER
5
1c8
100
AcDbSymbolTableRecord
100
AcDbLayerTableRecord
2
SK2
70
0
62
7
6
CONTINUOUS
290
1
370
-3
390
0
0
LAYER
5
1c9
100
AcDbSymbolTableRecord
100
AcDbLayerTableRecord
2
SK1
70
0
62
4
6
CONTINUOUS
290
1
370
-3
390
0
0
LAYER
5
1ca
100
AcDbSymbolTableRecord
100
AcDbLayerTableRecord
2
SK6
70
0
62
5
6
CONTINUOUS
290
1
370
-3
390
0
0
ENDTAB
0
TABLE
2
STYLE
5
1de
100
AcDbSymbolTable
0
STYLE
5
11
100
AcDbSymbolTableRecord
100
AcDbTextStyleTableRecord
2
Standard
3
txt
70
0
71
0
40
0
41
1
42
0
50
0
0
STYLE
5
111
100
AcDbSymbolTableRecord
100
AcDbTextStyleTableRecord
2
iso_b_vert
3
simplex.shx
70
0
71
0
40
0
41
1
42
0
50
0
0
STYLE
5
112
100
AcDbSymbolTableRecord
100
AcDbTextStyleTableRecord
2
DWGDirectTextStyle
3
simplex
70
0
71
0
40
0
41
1
42
0
50
0
0
ENDTAB
0
TABLE
2
DIMSTYLE
5
1df
100
AcDbSymbolTable
100
AcDbDimStyleTable
0
DIMSTYLE
105
27
100
AcDbSymbolTableRecord
100
AcDbDimStyleTableRecord
2
Standard
70
0
3
<>
41
0.18
42
0.0625
44
0.18
140
0.18
147
0.09
73
0
74
0
77
1
271
2
275
0
278
52
280
0
340
11
0
ENDTAB
0
TABLE
2
VIEW
5
1e0
100
AcDbSymbolTable
0
ENDTAB
0
TABLE
2
UCS
5
1e1
100
AcDbSymbolTable
0
ENDTAB
0
TABLE
2
APPID
5
1e2
100
AcDbSymbolTable
0
APPID
5
12
100
AcDbSymbolTableRecord
100
AcDbRegAppTableRecord
2
ACAD
70
0
0
ENDTAB
0
TABLE
2
BLOCK_RECORD
5
1e3
100
AcDbSymbolTable
0
BLOCK_RECORD
5
1F
100
AcDbSymbolTableRecord
100
AcDbBlockTableRecord
2
*Model_Space
340
0
70
0
0
BLOCK_RECORD
5
1B
100
AcDbSymbolTableRecord
100
AcDbBlockTableRecord
2
*Paper_Space
340
0
70
0
0
BLOCK_RECORD
5
23
100
AcDbSymbolTableRecord
100
AcDbBlockTableRecord
2
*Paper_Space0
340
0
70
0
0
BLOCK_RECORD
5
114
100
AcDbSymbolTableRecord
100
AcDbBlockTableRecord
2
DimnDraft3D1
340
0
70
0
0
BLOCK_RECORD
5
122
100
AcDbSymbolTableRecord
100
AcDbBlockTableRecord
2
_CLOSED
340
0
70
0
0
BLOCK_RECORD
5
129
100
AcDbSymbolTableRecord
100
AcDbBlockTableRecord
2
DimnDraft3D2
340
0
70
0
0
BLOCK_RECORD
5
137
100
AcDbSymbolTableRecord
100
AcDbBlockTableRecord
2
DimnDraft3D3
340
0
70
0
0
BLOCK_RECORD
5
145
100
AcDbSymbolTableRecord
100
AcDbBlockTableRecord
2
DimnDraft3D4
340
0
70
0
0
BLOCK_RECORD
5
153
100
AcDbSymbolTableRecord
100
AcDbBlockTableRecord
2
DimnDraft3D5
340
0
70
0
0
BLOCK_RECORD
5
161
100
AcDbSymbolTableRecord
100
AcDbBlockTableRecord
2
DimnDraft3D6
340
0
70
0
0
ENDTAB
0
ENDSEC
0
SECTION
2
BLOCKS
0
BLOCK
5
20
100
AcDbEntity
8
0
100
AcDbBlockBegin
2
*Model_Space
70
0
10
0
20
0
30
0
3
*Model_Space
0
ENDBLK
5
21
100
AcDbEntity
8
0
100
AcDbBlockEnd
0
BLOCK
5
1C
100
AcDbEntity
8
0
100
AcDbBlockBegin
2
*Paper_Space
70
0
10
0
20
0
30
0
3
*Paper_Space
0
ENDBLK
5
1D
100
AcDbEntity
8
0
100
AcDbBlockEnd
0
BLOCK
5
24
100
AcDbEntity
8
0
100
AcDbBlockBegin
2
*Paper_Space0
70
0
10
0
20
0
30
0
3
*Paper_Space0
0
ENDBLK
5
25
100
AcDbEntity
8
0
100
AcDbBlockEnd
0
BLOCK
5
11F
100
AcDbEntity
8
0
100
AcDbBlockBegin
2
DimnDraft3D1
70
0
10
0
20
0
30
0
3
DimnDraft3D1
0
MTEXT
5
115
100
AcDbEntity
8
2
62
256
6
ByLayer
370
18
48
1
60
0
100
AcDbMText
10
33.647884
20
0.267105
30
0
210
0
220
0
230
1
1
\W0.7346;32.0
40
3.5
41
0
44
1.084337
50
90
71
7
72
5
7
iso_b_vert
0
LINE
5
116
100
AcDbEntity
8
2
62
256
6
ByLayer
370
13
48
1
60
0
100
AcDbLine
10
34
20
-12.5
30
0
11
36.522884
21
-12.5
31
0
39
0
210
0
220
0
230
1
0
LINE
5
117
100
AcDbEntity
8
2
62
256
6
ByLayer
370
13
48
1
60
0
100
AcDbLine
10
37
20
19.5
30
0
11
32.522884
21
19.5
31
0
39
0
210
0
220
0
230
1
0
LINE
5
118
100
AcDbEntity
8
2
62
256
6
ByLayer
370
13
48
1
60
0
100
AcDbLine
10
34.522884
20
-12.5
30
0
11
34.522884
21
19.5
31
0
39
0
210
0
220
0
230
1
0
LINE
5
119
100
AcDbEntity
8
2
62
256
6
ByLayer
370
13
48
1
60
0
100
AcDbLine
10
34.522884
20
-12.5
30
0
11
34.104888
21
-9.325002
31
0
39
0
210
0
220
0
230
1
0
LINE
5
11A
100
AcDbEntity
8
2
62
256
6
ByLayer
370
13
48
1
60
0
100
AcDbLine
10
34.522884
20
-12.5
30
0
11
34.940881
21
-9.324998
31
0
39
0
210
0
220
0
230
1
0
LINE
5
11B
100
AcDbEntity
8
2
62
256
6
ByLayer
370
13
48
1
60
0
100
AcDbLine
10
34.104888
20
-9.325002
30
0
11
34.940881
21
-9.324998
31
0
39
0
210
0
220
0
230
1
0
LINE
5
11C
100
AcDbEntity
8
2
62
256
6
ByLayer
370
13
48
1
60
0
100
AcDbLine
10
34.522884
20
19.5
30
0
11
34.940881
21
16.325002
31
0
39
0
210
0
220
0
230
1
0
LINE
5
11D
100
AcDbEntity
8
2
62
256
6
ByLayer
370
13
48
1
60
0
100
AcDbLine
10
34.522884
20
19.5
30
0
11
34.104888
21
16.324998
31
0
39
0
210
0
220
0
230
1
0
LINE
5
11E
100
AcDbEntity
8
2
62
256
6
ByLayer
370
13
48
1
60
0
100
AcDbLine
10
34.940881
20
16.325002
30
0
11
34.104888
21
16.324998
31
0
39
0
210
0
220
0
230
1
0
ENDBLK
5
120
100
AcDbEntity
8
0
100
AcDbBlockEnd
0
BLOCK
5
123
100
AcDbEntity
8
0
100
AcDbBlockBegin
2
_CLOSED
70
0
10
0
20
0
30
0
3
_CLOSED
0
LINE
5
125
100
AcDbEntity
8
0
62
256
6
ByLayer
370
-2
48
1
60
0
100
AcDbLine
10
-1
20
0.166667
30
0
11
0
21
0
31
0
39
0
210
0
220
0
230
1
0
LINE
5
126
100
AcDbEntity
8
0
62
256
6
ByLayer
370
-2
48
1
60
0
100
AcDbLine
10
0
20
0
30
0
11
-1
21
-0.166667
31
0
39
0
210
0
220
0
230
1
0
LINE
5
127
100
AcDbEntity
8
0
62
256
6
ByLayer
370
-2
48
1
60
0
100
AcDbLine
10
-1
20
0.166667
30
0
11
-1
21
-0.166667
31
0
39
0
210
0
220
0
230
1
0
LINE
5
128
100
AcDbEntity
8
0
62
256
6
ByLayer
370
-2
48
1
60
0
100
AcDbLine
10
0
20
0
30
0
11
-1
21
0
31
0
39
0
210
0
220
0
230
1
0
ENDBLK
5
124
100
AcDbEntity
8
0
100
AcDbBlockEnd
0
BLOCK
5
134
100
AcDbEntity
8
0
100
AcDbBlockBegin
2
DimnDraft3D2
70
0
10
0
20
0
30
0
3
DimnDraft3D2
0
MTEXT
5
12A
100
AcDbEntity
8
SK2
62
256
6
ByLayer
370
18
48
1
60
0
100
AcDbMText
10
-99.47505
20
-3.232895
30
0
210
0
220
0
230
1
1
\W0.7346;25.0
40
3.5
41
0
44
1.084337
50
90
71
7
72
5
7
iso_b_vert
0
LINE
5
12B
100
AcDbEntity
8
SK2
62
256
6
ByLayer
370
13
48
1
60
0
100
AcDbLine
10
-2
20
12.5
30
0
11
-100.60005
21
12.5
31
0
39
0
210
0
220
0
230
1
0
LINE
5
12C
100
AcDbEntity
8
SK2
62
256
6
ByLayer
370
13
48
1
60
0
100
AcDbLine
10
-86
20
-12.5
30
0
11
-100.60005
21
-12.5
31
0
39
0
210
0
220
0
230
1
0
LINE
5
12D
100
AcDbEntity
8
SK2
62
256
6
ByLayer
370
13
48
1
60
0
100
AcDbLine
10
-98.60005
20
12.5
30
0
11
-98.60005
21
-12.5
31
0
39
0
210
0
220
0
230
1
0
LINE
5
12E
100
AcDbEntity
8
SK2
62
256
6
ByLayer
370
13
48
1
60
0
100
AcDbLine
10
-98.60005
20
12.5
30
0
11
-98.182053
21
9.325002
31
0
39
0
210
0
220
0
230
1
0
LINE
5
12F
100
AcDbEntity
8
SK2
62
256
6
ByLayer
370
13
48
1
60
0
100
AcDbLine
10
-98.60005
20
12.5
30
0
11
-99.018047
21
9.324998
31
0
39
0
210
0
220
0
230
1
0
LINE
5
130
100
AcDbEntity
8
SK2
62
256
6
ByLayer
370
13
48
1
60
0
100
AcDbLine
10
-98.182053
20
9.325002
30
0
11
-99.018047
21
9.324998
31
0
39
0
210
0
220
0
230
1
0
LINE
5
131
100
AcDbEntity
8
SK2
62
256
6
ByLayer
370
13
48
1
60
0
100
AcDbLine
10
-98.60005
20
-12.5
30
0
11
-99.018047
21
-9.325002
31
0
39
0
210
0
220
0
230
1
0
LINE
5
132
100
AcDbEntity
8
SK2
62
256
6
ByLayer
370
13
48
1
60
0
100
AcDbLine
10
-98.60005
20
-12.5
30
0
11
-98.182053
21
-9.324998
31
0
39
0
210
0
220
0
230
1
0
LINE
5
133
100
AcDbEntity
8
SK2
62
256
6
ByLayer
370
13
48
1
60
0
100
AcDbLine
10
-99.018047
20
-9.325002
30
0
11
-98.182053
21
-9.324998
31
0
39
0
210
0
220
0
230
1
0
ENDBLK
5
135
100
AcDbEntity
8
0
100
AcDbBlockEnd
0
BLOCK
5
142
100
AcDbEntity
8
0
100
AcDbBlockBegin
2
DimnDraft3D3
70
0
10
0
20
0
30
0
3
DimnDraft3D3
0
MTEXT
5
138
100
AcDbEntity
8
2
62
256
6
ByLayer
370
18
48
1
60
0
100
AcDbMText
10
31.180447
20
23.239136
30
0
210
0
220
0
230
1
1
\W0.8292;93%%d0'
40
3
41
0
44
1.084337
50
39.5727452227697
71
7
72
5
7
iso_b_vert
0
LINE
5
139
100
AcDbEntity
8
2
62
256
6
ByLayer
370
13
48
1
60
0
100
AcDbLine
10
39.104672
20
21.497259
30
0
11
39.476974
21
28.601201
31
0
39
0
210
0
220
0
230
1
0
LINE
5
13A
100
AcDbEntity
8
2
62
256
6
ByLayer
370
13
48
1
60
0
100
AcDbLine
10
37
20
19.5
30
0
11
29.886309
21
19.5
31
0
39
0
210
0
220
0
230
1
0
ARC
5
13B
100
AcDbEntity
8
2
62
256
6
ByLayer
370
13
48
1
60
0
100
AcDbCircle
39
0
10
39
20
19.5
30
0
40
7.11369128120759
210
0
220
0
230
1
100
AcDbArc
50
87
51
180
0
LINE
5
13C
100
AcDbEntity
8
2
62
256
6
ByLayer
370
13
48
1
60
0
100
AcDbLine
10
39.372302
20
26.603942
30
0
11
36.226525
21
26.00442
31
0
39
0
210
0
220
0
230
1
0
LINE
5
13D
100
AcDbEntity
8
2
62
256
6
ByLayer
370
13
48
1
60
0
100
AcDbLine
10
39.372302
20
26.603942
30
0
11
36.178544
21
26.839035
31
0
39
0
210
0
220
0
230
1
0
LINE
5
13E
100
AcDbEntity
8
2
62
256
6
ByLayer
370
13
48
1
60
0
100
AcDbLine
10
36.226525
20
26.00442
30
0
11
36.178544
21
26.839035
31
0
39
0
210
0
220
0
230
1
0
LINE
5
13F
100
AcDbEntity
8
2
62
256
6
ByLayer
370
13
48
1
60
0
100
AcDbLine
10
31.886309
20
19.5
30
0
11
31.818686
21
22.701681
31
0
39
0
210
0
220
0
230
1
0
LINE
5
140
100
AcDbEntity
8
2
62
256
6
ByLayer
370
13
48
1
60
0
100
AcDbLine
10
31.886309
20
19.5
30
0
11
32.649647
21
22.610092
31
0
39
0
210
0
220
0
230
1
0
LINE
5
141
100
AcDbEntity
8
2
62
256
6
ByLayer
370
13
48
1
60
0
100
AcDbLine
10
31.818686
20
22.701681
30
0
11
32.649647
21
22.610092
31
0
39
0
210
0
220
0
230
1
0
ENDBLK
5
143
100
AcDbEntity
8
0
100
AcDbBlockEnd
0
BLOCK
5
150
100
AcDbEntity
8
0
100
AcDbBlockBegin
2
DimnDraft3D4
70
0
10
0
20
0
30
0
3
DimnDraft3D4
0
MTEXT
5
146
100
AcDbEntity
8
SK2
62
256
6
ByLayer
370
18
48
1
60
0
100
AcDbMText
10
-26.603289
20
-39.469955
30
0
210
0
220
0
230
1
1
\W0.6864;123.0
40
3.5
41
0
44
1.084337
50
0
71
7
72
5
7
iso_b_vert
0
LINE
5
147
100
AcDbEntity
8
SK2
62
256
6
ByLayer
370
13
48
1
60
0
100
AcDbLine
10
-84
20
-14.5
30
0
11
-84
21
-42.344955
31
0
39
0
210
0
220
0
230
1
0
LINE
5
148
100
AcDbEntity
8
SK2
62
256
6
ByLayer
370
13
48
1
60
0
100
AcDbLine
10
39
20
17.5
30
0
11
39
21
-42.344955
31
0
39
0
210
0
220
0
230
1
0
LINE
5
149
100
AcDbEntity
8
SK2
62
256
6
ByLayer
370
13
48
1
60
0
100
AcDbLine
10
-84
20
-40.344955
30
0
11
39
21
-40.344955
31
0
39
0
210
0
220
0
230
1
0
LINE
5
14A
100
AcDbEntity
8
SK2
62
256
6
ByLayer
370
13
48
1
60
0
100
AcDbLine
10
-84
20
-40.344955
30
0
11
-80.825002
21
-39.926958
31
0
39
0
210
0
220
0
230
1
0
LINE
5
14B
100
AcDbEntity
8
SK2
62
256
6
ByLayer
370
13
48
1
60
0
100
AcDbLine
10
-84
20
-40.344955
30
0
11
-80.824998
21
-40.762951
31
0
39
0
210
0
220
0
230
1
0
LINE
5
14C
100
AcDbEntity
8
SK2
62
256
6
ByLayer
370
13
48
1
60
0
100
AcDbLine
10
-80.825002
20
-39.926958
30
0
11
-80.824998
21
-40.762951
31
0
39
0
210
0
220
0
230
1
0
LINE
5
14D
100
AcDbEntity
8
SK2
62
256
6
ByLayer
370
13
48
1
60
0
100
AcDbLine
10
39
20
-40.344955
30
0
11
35.825002
21
-40.762951
31
0
39
0
210
0
220
0
230
1
0
LINE
5
14E
100
AcDbEntity
8
SK2
62
256
6
ByLayer
370
13
48
1
60
0
100
AcDbLine
10
39
20
-40.344955
30
0
11
35.824998
21
-39.926958
31
0
39
0
210
0
220
0
230
1
0
LINE
5
14F
100
AcDbEntity
8
SK2
62
256
6
ByLayer
370
13
48
1
60
0
100
AcDbLine
10
35.825002
20
-40.762951
30
0
11
35.824998
21
-39.926958
31
0
39
0
210
0
220
0
230
1
0
ENDBLK
5
151
100
AcDbEntity
8
0
100
AcDbBlockEnd
0
BLOCK
5
15E
100
AcDbEntity
8
0
100
AcDbBlockBegin
2
DimnDraft3D5
70
0
10
0
20
0
30
0
3
DimnDraft3D5
0
MTEXT
5
154
100
AcDbEntity
8
2
62
256
6
ByLayer
370
18
48
1
60
0
100
AcDbMText
10
16.267105
20
-24.72505
30
0
210
0
220
0
230
1
1
\W0.7346;39.0
40
3.5
41
0
44
1.084337
50
0
71
7
72
5
7
iso_b_vert
0
LINE
5
155
100
AcDbEntity
8
2
62
256
6
ByLayer
370
13
48
1
60
0
100
AcDbLine
10
0
20
10.5
30
0
11
0
21
-27.60005
31
0
39
0
210
0
220
0
230
1
0
LINE
5
156
100
AcDbEntity
8
2
62
256
6
ByLayer
370
13
48
1
60
0
100
AcDbLine
10
39
20
17.5
30
0
11
39
21
-27.60005
31
0
39
0
210
0
220
0
230
1
0
LINE
5
157
100
AcDbEntity
8
2
62
256
6
ByLayer
370
13
48
1
60
0
100
AcDbLine
10
0
20
-25.60005
30
0
11
39
21
-25.60005
31
0
39
0
210
0
220
0
230
1
0
LINE
5
158
100
AcDbEntity
8
2
62
256
6
ByLayer
370
13
48
1
60
0
100
AcDbLine
10
0
20
-25.60005
30
0
11
3.174998
21
-25.182053
31
0
39
0
210
0
220
0
230
1
0
LINE
5
159
100
AcDbEntity
8
2
62
256
6
ByLayer
370
13
48
1
60
0
100
AcDbLine
10
0
20
-25.60005
30
0
11
3.175002
21
-26.018047
31
0
39
0
210
0
220
0
230
1
0
LINE
5
15A
100
AcDbEntity
8
2
62
256
6
ByLayer
370
13
48
1
60
0
100
AcDbLine
10
3.174998
20
-25.182053
30
0
11
3.175002
21
-26.018047
31
0
39
0
210
0
220
0
230
1
0
LINE
5
15B
100
AcDbEntity
8
2
62
256
6
ByLayer
370
13
48
1
60
0
100
AcDbLine
10
39
20
-25.60005
30
0
11
35.825002
21
-26.018047
31
0
39
0
210
0
220
0
230
1
0
LINE
5
15C
100
AcDbEntity
8
2
62
256
6
ByLayer
370
13
48
1
60
0
100
AcDbLine
10
39
20
-25.60005
30
0
11
35.824998
21
-25.182053
31
0
39
0
210
0
220
0
230
1
0
LINE
5
15D
100
AcDbEntity
8
2
62
256
6
ByLayer
370
13
48
1
60
0
100
AcDbLine
10
35.825002
20
-26.018047
30
0
11
35.824998
21
-25.182053
31
0
39
0
210
0
220
0
230
1
0
ENDBLK
5
15F
100
AcDbEntity
8
0
100
AcDbBlockEnd
0
BLOCK
5
16C
100
AcDbEntity
8
0
100
AcDbBlockBegin
2
DimnDraft3D6
70
0
10
0
20
0
30
0
3
DimnDraft3D6
0
MTEXT
5
162
100
AcDbEntity
8
SK2
62
256
6
ByLayer
370
18
48
1
60
0
100
AcDbMText
10
-69.87
20
-24.72505
30
0
210
0
220
0
230
1
1
\W0.7121;3.0
40
3.5
41
0
44
1.084337
50
0
71
7
72
5
7
iso_b_vert
0
LINE
5
163
100
AcDbEntity
8
SK2
62
256
6
ByLayer
370
13
48
1
60
0
100
AcDbLine
10
-84
20
-14.5
30
0
11
-84
21
-27.60005
31
0
39
0
210
0
220
0
230
1
0
LINE
5
164
100
AcDbEntity
8
SK2
62
256
6
ByLayer
370
13
48
1
60
0
100
AcDbLine
10
-81
20
-14.5
30
0
11
-81
21
-27.60005
31
0
39
0
210
0
220
0
230
1
0
LINE
5
165
100
AcDbEntity
8
SK2
62
256
6
ByLayer
370
13
48
1
60
0
100
AcDbLine
10
-65.145
20
-25.60005
30
0
11
-92.75
21
-25.60005
31
0
39
0
210
0
220
0
230
1
0
LINE
5
166
100
AcDbEntity
8
SK2
62
256
6
ByLayer
370
13
48
1
60
0
100
AcDbLine
10
-84
20
-25.60005
30
0
11
-87.174998
21
-26.018047
31
0
39
0
210
0
220
0
230
1
0
LINE
5
167
100
AcDbEntity
8
SK2
62
256
6
ByLayer
370
13
48
1
60
0
100
AcDbLine
10
-84
20
-25.60005
30
0
11
-87.175002
21
-25.182053
31
0
39
0
210
0
220
0
230
1
0
LINE
5
168
100
AcDbEntity
8
SK2
62
256
6
ByLayer
370
13
48
1
60
0
100
AcDbLine
10
-87.174998
20
-26.018047
30
0
11
-87.175002
21
-25.182053
31
0
39
0
210
0
220
0
230
1
0
LINE
5
169
100
AcDbEntity
8
SK2
62
256
6
ByLayer
370
13
48
1
60
0
100
AcDbLine
10
-81
20
-25.60005
30
0
11
-77.825002
21
-25.182053
31
0
39
0
210
0
220
0
230
1
0
LINE
5
16A
100
AcDbEntity
8
SK2
62
256
6
ByLayer
370
13
48
1
60
0
100
AcDbLine
10
-81
20
-25.60005
30
0
11
-77.824998
21
-26.018047
31
0
39
0
210
0
220
0
230
1
0
LINE
5
16B
100
AcDbEntity
8
SK2
62
256
6
ByLayer
370
13
48
1
60
0
100
AcDbLine
10
-77.825002
20
-25.182053
30
0
11
-77.824998
21
-26.018047
31
0
39
0
210
0
220
0
230
1
0
ENDBLK
5
16D
100
AcDbEntity
8
0
100
AcDbBlockEnd
0
ENDSEC
0
SECTION
2
ENTITIES
0
ARC
5
B4
100
AcDbEntity
8
1
62
256
6
ByLayer
370
18
48
1
60
0
100
AcDbCircle
39
0
10
34.378495
20
5.596846
30
0
40
8.1
210
0
220
0
230
1
100
AcDbArc
50
152.098263
51
161.554281
0
ARC
5
B5
100
AcDbEntity
8
1
62
256
6
ByLayer
370
13
48
1
60
0
100
AcDbCircle
39
0
10
19.769589
20
-21.139441
30
0
40
40.4581655870087
210
0
220
0
230
-1
100
AcDbArc
50
140.424003
51
150.575997
0
ARC
5
B8
100
AcDbEntity
8
1
62
256
6
ByLayer
370
13
48
1
60
0
100
AcDbCircle
39
0
10
6.581523
20
-3.028823
30
0
40
3.84985735510185
210
0
220
0
230
1
100
AcDbArc
50
130.411261
51
298.588739
0
ARC
5
B9
100
AcDbEntity
8
1
62
256
6
ByLayer
370
13
48
1
60
0
100
AcDbCircle
39
0
10
-10.634939
20
28.563175
30
0
40
39.8284740297181
210
0
220
0
230
1
100
AcDbArc
50
298.588739
51
306.514886
0
ARC
5
BA
100
AcDbEntity
8
1
62
256
6
ByLayer
370
13
48
1
60
0
100
AcDbCircle
39
0
10
29.905365
20
-30.423334
30
0
40
39.8284740297181
210
0
220
0
230
1
100
AcDbArc
50
122.485114
51
130.411261
0
ARC
5
BB
100
AcDbEntity
8
1
62
256
6
ByLayer
370
13
48
1
60
0
100
AcDbCircle
39
0
10
10.033388
20
0.787314
30
0
40
2.82847402971812
210
0
220
0
230
1
100
AcDbArc
50
36.342795
51
122.485114
0
ARC
5
BC
100
AcDbEntity
8
1
62
256
6
ByLayer
370
13
48
1
60
0
100
AcDbCircle
39
0
10
-29.905365
20
-30.423334
30
0
40
41.4223855466649
210
0
220
0
230
-1
100
AcDbArc
50
49.588739
51
57.514886
0
ARC
5
BD
100
AcDbEntity
8
1
62
256
6
ByLayer
370
13
48
1
60
0
100
AcDbCircle
39
0
10
-19.769589
20
-21.139441
30
0
40
39.9600682379628
210
0
220
0
230
1
100
AcDbArc
50
29.392444
51
39.607556
0
ARC
5
BE
100
AcDbEntity
8
1
62
256
6
ByLayer
370
13
48
1
60
0
100
AcDbCircle
39
0
10
11.381231
20
-1.17381
30
0
40
2.82847402971812
210
0
220
0
230
1
100
AcDbArc
50
306.514886
51
32.657205
0
ARC
5
BF
100
AcDbEntity
8
1
62
256
6
ByLayer
370
13
48
1
60
0
100
AcDbCircle
39
0
10
10.634939
20
28.563175
30
0
40
41.4223855466649
210
0
220
0
230
-1
100
AcDbArc
50
235.655113
51
241.411261
0
ARC
5
C0
100
AcDbEntity
8
1
62
256
6
ByLayer
370
18
48
1
60
0
100
AcDbCircle
39
0
10
11.966472
20
8.895599
30
0
40
1.525
210
0
220
0
230
1
100
AcDbArc
50
49.571138
51
236.212647
0
ARC
5
C1
100
AcDbEntity
8
1
62
256
6
ByLayer
370
18
48
1
60
0
100
AcDbCircle
39
0
10
11.966472
20
8.895599
30
0
40
1.425
210
0
220
0
230
1
100
AcDbArc
50
49.880526
51
238.274477
0
ARC
5
C2
100
AcDbEntity
8
1
62
256
6
ByLayer
370
13
48
1
60
0
100
AcDbCircle
39
0
10
-11.381231
20
-1.17381
30
0
40
4.42238554666492
210
0
220
0
230
-1
100
AcDbArc
50
195.90507
51
215.903445
0
ARC
5
C3
100
AcDbEntity
8
1
62
256
6
ByLayer
370
18
48
1
60
0
100
AcDbCircle
39
0
10
26.716864
20
26.08881
30
0
40
8.1
210
0
220
0
230
1
100
AcDbArc
50
247.308223
51
248.901512
0
ARC
5
C4
100
AcDbEntity
8
1
62
256
6
ByLayer
370
13
48
1
60
0
100
AcDbCircle
39
0
10
-6.581523
20
-3.028823
30
0
40
5.44376887204865
210
0
220
0
230
-1
100
AcDbArc
50
241.411261
51
49.588739
0
ARC
5
C5
100
AcDbEntity
8
1
62
256
6
ByLayer
370
13
48
1
60
0
100
AcDbCircle
39
0
10
-10.033388
20
0.787314
30
0
40
4.42238554666492
210
0
220
0
230
-1
100
AcDbArc
50
57.514886
51
95.09493
0
ARC
5
C8
100
AcDbEntity
8
1
62
256
6
ByLayer
370
13
48
1
60
0
100
AcDbCircle
39
0
10
38.20625
20
18.70625
30
0
40
0.793749999999899
210
0
220
0
230
1
100
AcDbArc
50
308
51
93
0
ARC
5
C9
100
AcDbEntity
8
1
62
256
6
ByLayer
370
13
48
1
60
0
100
AcDbCircle
39
0
10
27.301277
20
10.186352
30
0
40
0.793749999999899
210
0
220
0
230
1
100
AcDbArc
50
273
51
308
0
ARC
5
CA
100
AcDbEntity
8
1
62
256
6
ByLayer
370
13
48
1
60
0
100
AcDbCircle
39
0
10
24.386606
20
17.981993
30
0
40
0.793749999999899
210
0
220
0
230
1
100
AcDbArc
50
93
51
128
0
ARC
5
CB
100
AcDbEntity
8
1
62
256
6
ByLayer
370
13
48
1
60
0
100
AcDbCircle
39
0
10
13.481634
20
9.462095
30
0
40
0.793749999999899
210
0
220
0
230
1
100
AcDbArc
50
128
51
273
0
ARC
5
CC
100
AcDbEntity
8
1
62
256
6
ByLayer
370
18
48
1
60
0
100
AcDbCircle
39
0
10
-25.843942
20
14.084172
30
0
40
1.2903
210
0
220
0
230
-1
100
AcDbArc
50
219.5
51
279.5
0
ARC
5
CD
100
AcDbEntity
8
1
62
256
6
ByLayer
370
18
48
1
60
0
100
AcDbCircle
39
0
10
-25.843942
20
14.084172
30
0
40
1.6764
210
0
220
0
230
-1
100
AcDbArc
50
69.5
51
129.5
0
ARC
5
CF
100
AcDbEntity
8
1
62
256
6
ByLayer
370
18
48
1
60
0
100
AcDbCircle
39
0
10
-25.843942
20
14.084172
30
0
40
1.6764
210
0
220
0
230
-1
100
AcDbArc
50
249.5
51
309.5
0
ARC
5
D0
100
AcDbEntity
8
1
62
256
6
ByLayer
370
18
48
1
60
0
100
AcDbCircle
39
0
10
-25.843942
20
14.084172
30
0
40
1.6764
210
0
220
0
230
-1
100
AcDbArc
50
129.5
51
189.5
0
ARC
5
D1
100
AcDbEntity
8
1
62
256
6
ByLayer
370
18
48
1
60
0
100
AcDbCircle
39
0
10
-25.843942
20
14.084172
30
0
40
1.2903
210
0
220
0
230
-1
100
AcDbArc
50
279.5
51
339.5
0
ARC
5
D2
100
AcDbEntity
8
1
62
256
6
ByLayer
370
18
48
1
60
0
100
AcDbCircle
39
0
10
-25.843942
20
14.084172
30
0
40
1.2903
210
0
220
0
230
-1
100
AcDbArc
50
339.5
51
39.5
0
ARC
5
D3
100
AcDbEntity
8
1
62
256
6
ByLayer
370
18
48
1
60
0
100
AcDbCircle
39
0
10
-25.843942
20
14.084172
30
0
40
1.6764
210
0
220
0
230
-1
100
AcDbArc
50
189.5
51
249.5
0
ARC
5
D4
100
AcDbEntity
8
1
62
256
6
ByLayer
370
18
48
1
60
0
100
AcDbCircle
39
0
10
-25.843942
20
14.084172
30
0
40
1.6764
210
0
220
0
230
-1
100
AcDbArc
50
9.5
51
69.5
0
ARC
5
D5
100
AcDbEntity
8
1
62
256
6
ByLayer
370
18
48
1
60
0
100
AcDbCircle
39
0
10
-25.843942
20
14.084172
30
0
40
1.2903
210
0
220
0
230
-1
100
AcDbArc
50
39.5
51
99.5
0
ARC
5
D6
100
AcDbEntity
8
1
62
256
6
ByLayer
370
18
48
1
60
0
100
AcDbCircle
39
0
10
-25.843942
20
14.084172
30
0
40
1.6764
210
0
220
0
230
-1
100
AcDbArc
50
309.5
51
9.5
0
ARC
5
D7
100
AcDbEntity
8
1
62
256
6
ByLayer
370
18
48
1
60
0
100
AcDbCircle
39
0
10
25.843942
20
14.084172
30
0
40
1.2903
210
0
220
0
230
1
100
AcDbArc
50
20.5
51
80.5
0
ARC
5
D8
100
AcDbEntity
8
1
62
256
6
ByLayer
370
18
48
1
60
0
100
AcDbCircle
39
0
10
-25.843942
20
14.084172
30
0
40
1.2903
210
0
220
0
230
-1
100
AcDbArc
50
159.5
51
219.5
0
ARC
5
D9
100
AcDbEntity
8
1
62
256
6
ByLayer
370
18
48
1
60
0
100
AcDbCircle
39
0
10
12.903106
20
7.696762
30
0
40
1.78602287142172
210
0
220
0
230
1
100
AcDbArc
50
182.201298
51
308
0
ARC
5
DA
100
AcDbEntity
8
1
62
256
6
ByLayer
370
18
48
1
60
0
100
AcDbCircle
39
0
10
-0.772277
20
14.025
30
0
40
1.6
210
0
220
0
230
-1
100
AcDbArc
50
207.786853
51
270
0
ARC
5
DB
100
AcDbEntity
8
1
62
256
6
ByLayer
370
18
48
1
60
0
100
AcDbCircle
39
0
10
34.378495
20
5.596846
30
0
40
8.1
210
0
220
0
230
1
100
AcDbArc
50
166.582945
51
179.0708
0
ARC
5
DC
100
AcDbEntity
8
1
62
256
6
ByLayer
370
18
48
1
60
0
100
AcDbCircle
39
0
10
12.903106
20
7.696762
30
0
40
1.68602287142172
210
0
220
0
230
1
100
AcDbArc
50
180.449786
51
308
0
CIRCLE
5
B6
100
AcDbEntity
8
1
62
256
6
ByLayer
370
13
48
1
60
0
100
AcDbCircle
10
-25.843942
20
14.084172
30
0
40
3.00996076009201
39
0
210
0
220
0
230
-1
0
CIRCLE
5
B7
100
AcDbEntity
8
1
62
256
6
ByLayer
370
13
48
1
60
0
100
AcDbCircle
10
25.843942
20
14.084172
30
0
40
1.8
39
0
210
0
220
0
230
1
0
CIRCLE
5
C6
100
AcDbEntity
8
1
62
256
6
ByLayer
370
13
48
1
60
0
100
AcDbCircle
10
25.843942
20
14.084172
30
0
40
2.92104776441091
39
0
210
0
220
0
230
1
0
CIRCLE
5
C7
100
AcDbEntity
8
1
62
256
6
ByLayer
370
13
48
1
60
0
100
AcDbCircle
10
25.843942
20
14.084172
30
0
40
3.07132534818228
39
0
210
0
220
0
230
1
0
CIRCLE
5
CE
100
AcDbEntity
8
1
62
256
6
ByLayer
370
18
48
1
60
0
100
AcDbCircle
10
25.843942
20
14.084172
30
0
40
2.625
39
0
210
0
220
0
230
1
0
ELLIPSE
5
DD
100
AcDbEntity
8
1
62
256
6
ByLayer
370
18
48
1
60
0
100
AcDbEllipse
10
34.37849
20
5.596848
30
0
11
2.48553180208874
21
7.70922075563989
31
0
210
0
220
0
230
-1
40
1
41
-1.58063199502332
42
-1.5607455649111
0
ELLIPSE
5
DE
100
AcDbEntity
8
1
62
256
6
ByLayer
370
18
48
1
60
0
100
AcDbEllipse
10
34.378495
20
5.596846
30
0
11
-4.95965572720349E-16
21
8.09999999056491
31
0
210
0
220
0
230
-1
40
1
41
-1.33662454112165
42
-1.26874421131204
0
POINT
5
6C
100
AcDbEntity
8
80
62
256
6
ByLayer
370
18
48
1
60
0
100
AcDbPoint
10
0
20
0
30
0
39
0
210
0
220
0
230
1
50
360
0
POINT
5
6E
100
AcDbEntity
8
81
62
256
6
ByLayer
370
18
48
1
60
0
100
AcDbPoint
10
39
20
19.5
30
0
39
0
210
0
220
0
230
1
50
360
0
POINT
5
70
100
AcDbEntity
8
2
62
256
6
ByLayer
370
18
48
1
60
0
100
AcDbPoint
10
25.843942
20
14.084172
30
0
39
0
210
0
220
0
230
1
50
360
0
POINT
5
72
100
AcDbEntity
8
2
62
256
6
ByLayer
370
18
48
1
60
0
100
AcDbPoint
10
25.843942
20
14.084172
30
0
39
0
210
0
220
0
230
1
50
360
0
POINT
5
73
100
AcDbEntity
8
2
62
256
6
ByLayer
370
18
48
1
60
0
100
AcDbPoint
10
25.498596
20
14.008433
30
0
39
0
210
0
220
0
230
1
50
360
0
POINT
5
74
100
AcDbEntity
8
SK2
62
256
6
ByLayer
370
18
48
1
60
0
100
AcDbPoint
10
38.20625
20
18.70625
30
0
39
0
210
0
220
0
230
1
50
360
0
POINT
5
76
100
AcDbEntity
8
SK2
62
256
6
ByLayer
370
18
48
1
60
0
100
AcDbPoint
10
36.208991
20
18.601578
30
0
39
0
210
0
220
0
230
1
50
360
0
POINT
5
77
100
AcDbEntity
8
SK2
62
256
6
ByLayer
370
18
48
1
60
0
100
AcDbPoint
10
34.211732
20
18.496906
30
0
39
0
210
0
220
0
230
1
50
360
0
POINT
5
78
100
AcDbEntity
8
SK2
62
256
6
ByLayer
370
18
48
1
60
0
100
AcDbPoint
10
36.630228
20
17.474927
30
0
39
0
210
0
220
0
230
1
50
360
0
POINT
5
79
100
AcDbEntity
8
SK2
62
256
6
ByLayer
370
18
48
1
60
0
100
AcDbPoint
10
35.054207
20
16.243604
30
0
39
0
210
0
220
0
230
1
50
360
0
SPLINE
5
DF
100
AcDbEntity
8
1
62
256
6
ByLayer
370
18
48
1
60
0
100
AcDbSpline
70
4
71
3
72
8
73
4
40
0
40
0
40
0
40
0
40
1
40
1
40
1
40
1
41
1
10
24.481738282693
20
14.7040646199338
30
0
41
1
10
24.4883368059294
20
14.7031086795379
30
0
41
1
10
24.4949361720404
20
14.7021526170332
30
0
41
1
10
24.5015364138849
20
14.7011964276593
30
0
0
SPLINE
5
E0
100
AcDbEntity
8
1
62
256
6
ByLayer
370
18
48
1
60
0
100
AcDbSpline
70
4
71
3
72
26
73
22
40
0
40
0
40
0
40
0
40
0.0611212350797052
40
0.0611212350797052
40
0.14534900985879
40
0.14534900985879
40
0.228936526328739
40
0.228936526328739
40
0.391532191220699
40
0.391532191220699
40
0.475817926908334
40
0.475817926908334
40
0.589557559273594
40
0.589557559273594
40
0.703149060376436
40
0.703149060376436
40
0.81667384578034
40
0.81667384578034
40
0.930168712116201
40
0.930168712116201
40
1
40
1
40
1
40
1
41
1
10
27.3337478288934
20
14.2268019013475
30
0
41
1
10
27.3429651487508
20
14.2288551647649
30
0
41
1
10
27.3524874976397
20
14.2297269272858
30
0
41
1
10
27.3748128364015
20
14.2284195873653
30
0
41
1
10
27.3878521980852
20
14.2248889557242
30
0
41
1
10
27.4116361420672
20
14.2129478827157
30
0
41
1
10
27.4227088628226
20
14.204470133307
30
0
41
1
10
27.4509908352243
20
14.1755235191123
30
0
41
1
10
27.4652765387369
20
14.1507361824092
30
0
41
1
10
27.4814364900095
20
14.1114825176015
30
0
41
1
10
27.486098100764
20
14.097466569686
30
0
41
1
10
27.495271744524
20
14.0640363025685
30
0
41
1
10
27.4991961439928
20
14.0443448674733
30
0
41
1
10
27.5048827585786
20
14.0046974786577
30
0
41
1
10
27.5066550508641
20
13.984662815186
30
0
41
1
10
27.5083897563248
20
13.9445471416597
30
0
41
1
10
27.5083533922525
20
13.9244154809031
30
0
41
1
10
27.5066725921167
20
13.8842482820724
30
0
41
1
10
27.5050260520578
20
13.8641746768539
30
0
41
1
10
27.5011527322404
20
13.8319296270216
30
0
41
1
10
27.4993919977693
20
13.8196828102105
30
0
41
1
10
27.49735104866
20
13.8074865792531
30
0
0
SPLINE
5
E1
100
AcDbEntity
8
1
62
256
6
ByLayer
370
18
48
1
60
0
100
AcDbSpline
70
4
71
3
72
8
73
4
40
0
40
0
40
0
40
0
40
1
40
1
40
1
40
1
41
1
10
25.707097635131
20
15.5552416306095
30
0
41
1
10
25.7046255984973
20
15.5614357024048
30
0
41
1
10
25.7021538898584
20
15.5676289523582
30
0
41
1
10
25.6996824969076
20
15.5738214113063
30
0
0
SPLINE
5
E2
100
AcDbEntity
8
1
62
256
6
ByLayer
370
18
48
1
60
0
100
AcDbSpline
70
4
71
3
72
24
73
20
40
0
40
0
40
0
40
0
40
0.158126111966014
40
0.158126111966014
40
0.271563393607316
40
0.271563393607316
40
0.385066230469791
40
0.385066230469791
40
0.498714519310314
40
0.498714519310314
40
0.612721087896073
40
0.612721087896073
40
0.74622164258361
40
0.74622164258361
40
0.824913378297541
40
0.824913378297541
40
0.908986128606073
40
0.908986128606073
40
1
40
1
40
1
40
1
41
1
10
26.9102633947166
20
15.3777238373091
30
0
41
1
10
26.9318585535457
20
15.3599221621288
30
0
41
1
10
26.9525652745542
20
15.3409714357691
30
0
41
1
10
26.9862131347097
20
15.3066287131699
30
0
41
1
10
26.9997290847161
20
15.2917031592536
30
0
41
1
10
27.0253698786231
20
15.2607785206657
30
0
41
1
10
27.0375252285319
20
15.2447437585303
30
0
41
1
10
27.0600618548991
20
15.2115856568092
30
0
41
1
10
27.070483591088
20
15.1944042925923
30
0
41
1
10
27.0888827597324
20
15.1589620020379
30
0
41
1
10
27.0969171898782
20
15.1405858336729
30
0
41
1
10
27.1102652782202
20
15.0999832290506
30
0
41
1
10
27.115038462256
20
15.0771548701535
30
0
41
1
10
27.1156428369792
20
15.0417642413545
30
0
41
1
10
27.1142858991663
20
15.0286125117895
30
0
41
1
10
27.1074591936406
20
15.0033332895137
30
0
41
1
10
27.1015736258527
20
14.99104322941
30
0
41
1
10
27.0851728863216
20
14.9696384706385
30
0
41
1
10
27.0740956571073
20
14.9605423742461
30
0
41
1
10
27.0618860804576
20
14.9539291770905
30
0
0
SPLINE
5
E3
100
AcDbEntity
8
1
62
256
6
ByLayer
370
18
48
1
60
0
100
AcDbSpline
70
4
71
3
72
8
73
4
40
0
40
0
40
0
40
0
40
1
40
1
40
1
40
1
41
1
10
24.373789196462
20
13.9378091581284
30
0
41
1
10
24.3672372403849
20
13.9390538918699
30
0
41
1
10
24.3606861536345
20
13.9402984604576
30
0
41
1
10
24.3541359035925
20
13.9415428700884
30
0
0
SPLINE
5
E4
100
AcDbEntity
8
1
62
256
6
ByLayer
370
18
48
1
60
0
100
AcDbSpline
70
4
71
3
72
26
73
22
40
0
40
0
40
0
40
0
40
0.0611212350797048
40
0.0611212350797048
40
0.145349009858788
40
0.145349009858788
40
0.228936526328736
40
0.228936526328736
40
0.391532191220693
40
0.391532191220693
40
0.475817926908327
40
0.475817926908327
40
0.589557559273583
40
0.589557559273583
40
0.703149060376424
40
0.703149060376424
40
0.816673845780325
40
0.816673845780325
40
0.930168712116177
40
0.930168712116177
40
1
40
1
40
1
40
1
41
1
10
24.3541359035925
20
13.9415428700884
30
0
41
1
10
24.3449185837351
20
13.9394896066709
30
0
41
1
10
24.3353962348462
20
13.9386178441501
30
0
41
1
10
24.3130708960844
20
13.9399251840706
30
0
41
1
10
24.3000315344007
20
13.9434558157116
30
0
41
1
10
24.2762475904187
20
13.9553968887202
30
0
41
1
10
24.2651748696633
20
13.9638746381288
30
0
41
1
10
24.2368928972616
20
13.9928212523235
30
0
41
1
10
24.222607193749
20
14.0176085890267
30
0
41
1
10
24.2064472424764
20
14.0568622538344
30
0
41
1
10
24.2017856317219
20
14.0708782017499
30
0
41
1
10
24.1926119879619
20
14.1043084688673
30
0
41
1
10
24.1886875884932
20
14.1239999039626
30
0
41
1
10
24.1830009739073
20
14.1636472927782
30
0
41
1
10
24.1812286816219
20
14.1836819562499
30
0
41
1
10
24.1794939761611
20
14.2237976297761
30
0
41
1
10
24.1795303402334
20
14.2439292905327
30
0
41
1
10
24.1812111403692
20
14.2840964893635
30
0
41
1
10
24.1828576804281
20
14.304170094582
30
0
41
1
10
24.1867310002455
20
14.3364151444142
30
0
41
1
10
24.1884917347166
20
14.3486619612254
30
0
41
1
10
24.190532683826
20
14.3608581921828
30
0
0
SPLINE
5
E5
100
AcDbEntity
8
1
62
256
6
ByLayer
370
18
48
1
60
0
100
AcDbSpline
70
4
71
3
72
24
73
20
40
0
40
0
40
0
40
0
40
0.158126111965958
40
0.158126111965958
40
0.271563393607262
40
0.271563393607262
40
0.385066230469743
40
0.385066230469743
40
0.498714519310275
40
0.498714519310275
40
0.612721087896041
40
0.612721087896041
40
0.746221642583588
40
0.746221642583588
40
0.824913378297527
40
0.824913378297527
40
0.908986128606069
40
0.908986128606069
40
1
40
1
40
1
40
1
41
1
10
25.2568542122996
20
15.6544096437739
30
0
41
1
10
25.2306399299489
20
15.6446085252194
30
0
41
1
10
25.2048915875891
20
15.6334317103688
30
0
41
1
10
25.1618960139673
20
15.6119146999468
30
0
41
1
10
25.1442571471266
20
15.6022026743673
30
0
41
1
10
25.109945222682
20
15.5813106800898
30
0
41
1
10
25.0932317056344
20
15.5701069094728
30
0
41
1
10
25.0611276847902
20
15.546092516218
30
0
41
1
10
25.0456800345949
20
15.5332402026132
30
0
41
1
10
25.0167443977405
20
15.5057190419113
30
0
41
1
10
25.0031649995727
20
15.4909597879686
30
0
41
1
10
24.9773252190436
20
15.4569149835675
30
0
41
1
10
24.9653798981975
20
15.4368843428973
30
0
41
1
10
24.9532863889669
20
15.403618611129
30
0
41
1
10
24.9502876145526
20
15.3907416307845
30
0
41
1
10
24.9485122816948
20
15.364617098627
30
0
41
1
10
24.9500759431801
20
15.3510804650611
30
0
41
1
10
24.9586144392505
20
15.3255023095355
30
0
41
1
10
24.9661267659236
20
15.3132953883593
30
0
41
1
10
24.9755181010531
20
15.303067438268
30
0
0
SPLINE
5
E6
100
AcDbEntity
8
1
62
256
6
ByLayer
370
18
48
1
60
0
100
AcDbSpline
70
4
71
3
72
30
73
26
40
0
40
0
40
0
40
0
40
0.0728681126381144
40
0.0728681126381144
40
0.127812593477835
40
0.127812593477835
40
0.199092397893564
40
0.199092397893564
40
0.288874798004161
40
0.288874798004161
40
0.393641276926427
40
0.393641276926427
40
0.499915621932923
40
0.499915621932923
40
0.631623646297739
40
0.631623646297739
40
0.734868911743531
40
0.734868911743531
40
0.796951047610516
40
0.796951047610516
40
0.859105215562994
40
0.859105215562994
40
0.921420364650287
40
0.921420364650287
40
1
40
1
40
1
40
1
41
1
10
24.6383806449969
20
13.2301271827678
30
0
41
1
10
24.64976281459
20
13.2445689226975
30
0
41
1
10
24.6583874777385
20
13.2616666327487
30
0
41
1
10
24.6696212639665
20
13.2932265562822
30
0
41
1
10
24.6732590489045
20
13.3075135377385
30
0
41
1
10
24.6793748798395
20
13.3409945502511
30
0
41
1
10
24.681219138568
20
13.3605282849145
30
0
41
1
10
24.6825480585928
20
13.4050700355072
30
0
41
1
10
24.6813038720761
20
13.4303768433046
30
0
41
1
10
24.6752247709623
20
13.4851514824521
30
0
41
1
10
24.6697971205803
20
13.5148364273975
30
0
41
1
10
24.6553076051698
20
13.5738896196619
30
0
41
1
10
24.6461401468291
20
13.6034502473505
30
0
41
1
10
24.6220085360058
20
13.6679931723415
30
0
41
1
10
24.6060674751465
20
13.702920699092
30
0
41
1
10
24.5734832266085
20
13.7619478360361
30
0
41
1
10
24.5576208612644
20
13.7869594577473
30
0
41
1
10
24.529838196547
20
13.8243794435097
30
0
41
1
10
24.5188164627936
20
13.8378976699196
30
0
41
1
10
24.4956211611223
20
13.8633788023546
30
0
41
1
10
24.4833994642605
20
13.8753948973226
30
0
41
1
10
24.4577217595561
20
13.8972813414934
30
0
41
1
10
24.4441801490223
20
13.9072210823557
30
0
41
1
10
24.4123059993353
20
13.9259973775032
30
0
41
1
10
24.3932451614244
20
13.9341129343171
30
0
41
1
10
24.373789196462
20
13.9378091581284
30
0
0
SPLINE
5
E7
100
AcDbEntity
8
1
62
256
6
ByLayer
370
18
48
1
60
0
100
AcDbSpline
70
4
71
3
72
8
73
4
40
0
40
0
40
0
40
0
40
1
40
1
40
1
40
1
41
1
10
26.452263927861
20
15.4305435589845
30
0
41
1
10
26.4566178769407
20
15.435595352521
30
0
41
1
10
26.4609712483296
20
15.4406464757754
30
0
41
1
10
26.4653240637035
20
15.4456969538975
30
0
0
SPLINE
5
E8
100
AcDbEntity
8
1
62
256
6
ByLayer
370
18
48
1
60
0
100
AcDbSpline
70
4
71
3
72
24
73
20
40
0
40
0
40
0
40
0
40
0.15812611196601
40
0.15812611196601
40
0.271563393607313
40
0.271563393607313
40
0.385066230469791
40
0.385066230469791
40
0.498714519310316
40
0.498714519310316
40
0.612721087896068
40
0.612721087896068
40
0.746221642583608
40
0.746221642583608
40
0.824913378297541
40
0.824913378297541
40
0.908986128606075
40
0.908986128606075
40
1
40
1
40
1
40
1
41
1
10
27.49735104866
20
13.8074865792531
30
0
41
1
10
27.4927319251384
20
13.7798837855181
30
0
41
1
10
27.486673475195
20
13.7524758759159
30
0
41
1
10
27.4737557350667
20
13.7061646129386
30
0
41
1
10
27.4675878012129
20
13.6869966799187
30
0
41
1
10
27.4536266755464
20
13.649328781728
30
0
41
1
10
27.4458178391479
20
13.6307845588474
30
0
41
1
10
27.4283703938997
20
13.5946882170373
30
0
41
1
10
27.4187017641107
20
13.5770720466377
30
0
41
1
10
27.3972074244445
20
13.543416753906
30
0
41
1
10
27.3853104108891
20
13.5272706491123
30
0
41
1
10
27.3568215679974
20
13.495409563205
30
0
41
1
10
27.3394382212837
20
13.4798616851245
30
0
41
1
10
27.3090912250495
20
13.4616429668613
30
0
41
1
10
27.297023024236
20
13.4562422446961
30
0
41
1
10
27.2717172227944
20
13.4495147339677
30
0
41
1
10
27.2581309346366
20
13.4484667551358
30
0
41
1
10
27.2313935000131
20
13.4519678328248
30
0
41
1
10
27.2179774348548
20
13.4570129465318
30
0
41
1
10
27.206145449793
20
13.4642801515021
30
0
0
SPLINE
5
E9
100
AcDbEntity
8
1
62
256
6
ByLayer
370
18
48
1
60
0
100
AcDbSpline
70
4
71
3
72
24
73
20
40
0
40
0
40
0
40
0
40
0.158126111965995
40
0.158126111965995
40
0.2715633936073
40
0.2715633936073
40
0.385066230469781
40
0.385066230469781
40
0.49871451931031
40
0.49871451931031
40
0.612721087896064
40
0.612721087896064
40
0.746221642583604
40
0.746221642583604
40
0.824913378297541
40
0.824913378297541
40
0.908986128606077
40
0.908986128606077
40
1
40
1
40
1
40
1
41
1
10
24.190532683826
20
14.3608581921828
30
0
41
1
10
24.1951518073475
20
14.3884609859177
30
0
41
1
10
24.2012102572909
20
14.41586889552
30
0
41
1
10
24.2141279974192
20
14.4621801584972
30
0
41
1
10
24.220295931273
20
14.4813480915172
30
0
41
1
10
24.2342570569395
20
14.5190159897078
30
0
41
1
10
24.242065893338
20
14.5375602125884
30
0
41
1
10
24.2595133385862
20
14.5736565543985
30
0
41
1
10
24.2691819683752
20
14.5912727247981
30
0
41
1
10
24.2906763080414
20
14.6249280175299
30
0
41
1
10
24.3025733215968
20
14.6410741223236
30
0
41
1
10
24.3310621644885
20
14.6729352082308
30
0
41
1
10
24.3484455112022
20
14.6884830863114
30
0
41
1
10
24.3787925074365
20
14.7067018045745
30
0
41
1
10
24.3908607082499
20
14.7121025267398
30
0
41
1
10
24.4161665096915
20
14.7188300374682
30
0
41
1
10
24.4297527978493
20
14.7198780163001
30
0
41
1
10
24.4564902324728
20
14.716376938611
30
0
41
1
10
24.4699062976311
20
14.7113318249041
30
0
41
1
10
24.481738282693
20
14.7040646199338
30
0
0
SPLINE
5
EA
100
AcDbEntity
8
1
62
256
6
ByLayer
370
18
48
1
60
0
100
AcDbSpline
70
4
71
3
72
8
73
4
40
0
40
0
40
0
40
0
40
1
40
1
40
1
40
1
41
1
10
25.9882012355783
20
12.5945233601295
30
0
41
1
10
25.9857298426275
20
12.6007158190776
30
0
41
1
10
25.9832581339886
20
12.606909069031
30
0
41
1
10
25.980786097355
20
12.6131031408264
30
0
0
SPLINE
5
EB
100
AcDbEntity
8
1
62
256
6
ByLayer
370
18
48
1
60
0
100
AcDbSpline
70
4
71
3
72
8
73
4
40
0
40
0
40
0
40
0
40
1
40
1
40
1
40
1
41
1
10
24.6259976520284
20
13.2144155943454
30
0
41
1
10
24.6301247823139
20
13.2196521128976
30
0
41
1
10
24.6342524397861
20
13.2248893003463
30
0
41
1
10
24.6383806449969
20
13.2301271827678
30
0
0
SPLINE
5
EC
100
AcDbEntity
8
1
62
256
6
ByLayer
370
18
48
1
60
0
100
AcDbSpline
70
4
71
3
72
26
73
22
40
0
40
0
40
0
40
0
40
0.0611212350797609
40
0.0611212350797609
40
0.145349009858829
40
0.145349009858829
40
0.228936526328765
40
0.228936526328765
40
0.391532191220673
40
0.391532191220673
40
0.475817926908285
40
0.475817926908285
40
0.589557559273537
40
0.589557559273537
40
0.703149060376378
40
0.703149060376378
40
0.816673845780279
40
0.816673845780279
40
0.930168712116134
40
0.930168712116134
40
1
40
1
40
1
40
1
41
1
10
25.6996824969076
20
15.5738214113063
30
0
41
1
10
25.6999392885509
20
15.5832611641668
30
0
41
1
10
25.6989780845137
20
15.5927749008178
30
0
41
1
10
25.6934348886491
20
15.6144406080092
30
0
41
1
10
25.6874810971524
20
15.6265667236157
30
0
41
1
10
25.6712212248304
20
15.6476352254136
30
0
41
1
10
25.6607864608329
20
15.6568868782541
30
0
41
1
10
25.6269752227295
20
15.679125956791
30
0
41
1
10
25.5999174584809
20
15.6884195448793
30
0
41
1
10
25.5583015299881
20
15.6967926399849
30
0
41
1
10
25.5436536172475
20
15.6986942348791
30
0
41
1
10
25.5090871445453
20
15.7013205372813
30
0
41
1
10
25.4890086858545
20
15.7014155315311
30
0
41
1
10
25.4490046740242
20
15.6994325885612
30
0
41
1
10
25.4289999344387
20
15.6973495248353
30
0
41
1
10
25.3892903014168
20
15.6913979275064
30
0
41
1
10
25.3695354545623
20
15.6875209295803
30
0
41
1
10
25.3304269520925
20
15.6782067476211
30
0
41
1
10
25.3110363301947
20
15.6727602346954
30
0
41
1
10
25.2801227770108
20
15.662805433108
30
0
41
1
10
25.2684369326938
20
15.6587402454761
30
0
41
1
10
25.2568542122996
20
15.6544096437739
30
0
0
SPLINE
5
ED
100
AcDbEntity
8
1
62
256
6
ByLayer
370
18
48
1
60
0
100
AcDbSpline
70
4
71
3
72
26
73
22
40
0
40
0
40
0
40
0
40
0.0611212350797076
40
0.0611212350797076
40
0.145349009858795
40
0.145349009858795
40
0.228936526328745
40
0.228936526328745
40
0.391532191220711
40
0.391532191220711
40
0.475817926908351
40
0.475817926908351
40
0.589557559273612
40
0.589557559273612
40
0.703149060376456
40
0.703149060376456
40
0.816673845780366
40
0.816673845780366
40
0.930168712116224
40
0.930168712116224
40
1
40
1
40
1
40
1
41
1
10
25.2225596687824
20
12.7226478175383
30
0
41
1
10
25.2197291871339
20
12.7136387526783
30
0
41
1
10
25.2157229811785
20
12.7049562753764
30
0
41
1
10
25.2034281222151
20
12.6862756348208
30
0
41
1
10
25.1938508246807
20
12.6767485321741
30
0
41
1
10
25.1716175801159
20
12.6621215689878
30
0
41
1
10
25.1587392733833
20
12.6567711862289
30
0
41
1
10
25.1195297839364
20
12.6467515867573
30
0
41
1
10
25.0909204689029
20
12.646773472956
30
0
41
1
10
25.0488458223515
20
12.6524053770339
30
0
41
1
10
25.0343768500213
20
12.6553762776557
30
0
41
1
10
25.0008385675624
20
12.664146802673
30
0
41
1
10
24.9818230847985
20
12.6705938905861
30
0
41
1
10
24.9446441315976
20
12.685492832301
30
0
41
1
10
24.926407457932
20
12.6939753138947
30
0
41
1
10
24.890798912838
20
12.7125308516607
30
0
41
1
10
24.8733825652386
20
12.7226281742495
30
0
41
1
10
24.8394371507202
20
12.7441673892811
30
0
41
1
10
24.8228761686849
20
12.7556301374097
30
0
41
1
10
24.7968877962926
20
12.7751070556847
30
0
41
1
10
24.7871621090542
20
12.7827553048715
30
0
41
1
10
24.7776203377693
20
12.7906209341267
30
0
0
SPLINE
5
EE
100
AcDbEntity
8
1
62
256
6
ByLayer
370
18
48
1
60
0
100
AcDbSpline
70
4
71
3
72
8
73
4
40
0
40
0
40
0
40
0
40
1
40
1
40
1
40
1
41
1
10
27.3140945360238
20
14.2305356133075
30
0
41
1
10
27.320646492101
20
14.2292908795659
30
0
41
1
10
27.3271975788514
20
14.2280463109782
30
0
41
1
10
27.3337478288934
20
14.2268019013475
30
0
0
SPLINE
5
EF
100
AcDbEntity
8
1
62
256
6
ByLayer
370
18
48
1
60
0
100
AcDbSpline
70
4
71
3
72
28
73
24
40
0
40
0
40
0
40
0
40
0.0405984349493372
40
0.0405984349493372
40
0.136918028510171
40
0.136918028510171
40
0.284178405664795
40
0.284178405664795
40
0.500822929974466
40
0.500822929974466
40
0.566758824834823
40
0.566758824834823
40
0.632050095044781
40
0.632050095044781
40
0.735175839208408
40
0.735175839208408
40
0.797186106051239
40
0.797186106051239
40
0.859268321592046
40
0.859268321592046
40
0.921511331908844
40
0.921511331908844
40
1
40
1
40
1
40
1
41
1
10
26.452263927861
20
15.4305435589845
30
0
41
1
10
26.445490369358
20
15.4226843446395
30
0
41
1
10
26.43771945107
20
15.4155285356919
30
0
41
1
10
26.4096354416056
20
15.3939034927952
30
0
41
1
10
26.3862769246953
20
15.3822821108073
30
0
41
1
10
26.3245558487335
20
15.3598106332529
30
0
41
1
10
26.2836471038395
20
15.3520797691694
30
0
41
1
10
26.1817623911708
20
15.3431334929208
30
0
41
1
10
26.1182792856168
20
15.3465057948175
30
0
41
1
10
26.0379954149648
20
15.3599407071996
30
0
41
1
10
26.0191780261045
20
15.3637837990553
30
0
41
1
10
25.9821821355019
20
15.3727523095384
30
0
41
1
10
25.963954001423
20
15.3778755585068
30
0
41
1
10
25.9178313066888
20
15.3927724644395
30
0
41
1
10
25.8902525369193
20
15.4035709510435
30
0
41
1
10
25.8482188793471
20
15.4237031000684
30
0
41
1
10
25.8328459748864
20
15.4319429343284
30
0
41
1
10
25.8034071304138
20
15.4498500436962
30
0
41
1
10
25.7892797952544
20
15.4595544145531
30
0
41
1
10
25.762895929669
20
15.4805842170749
30
0
41
1
10
25.7505549487404
20
15.4919804381162
30
0
41
1
10
25.726041752539
20
15.5196862838843
30
0
41
1
10
25.7144383220287
20
15.5368483992744
30
0
41
1
10
25.707097635131
20
15.5552416306095
30
0
0
SPLINE
5
F0
100
AcDbEntity
8
1
62
256
6
ByLayer
370
18
48
1
60
0
100
AcDbSpline
70
4
71
3
72
8
73
4
40
0
40
0
40
0
40
0
40
1
40
1
40
1
40
1
41
1
10
27.0618860804576
20
14.9539291770905
30
0
41
1
10
27.057758950172
20
14.9486926585382
30
0
41
1
10
27.0536312926998
20
14.9434554710895
30
0
41
1
10
27.049503087489
20
14.938217588668
30
0
0
SPLINE
5
F1
100
AcDbEntity
8
1
62
256
6
ByLayer
370
18
48
1
60
0
100
AcDbSpline
70
4
71
3
72
30
73
26
40
0
40
0
40
0
40
0
40
0.0728681126381139
40
0.0728681126381139
40
0.127812593477834
40
0.127812593477834
40
0.199092397893563
40
0.199092397893563
40
0.288874798004157
40
0.288874798004157
40
0.393641276926427
40
0.393641276926427
40
0.499915621932918
40
0.499915621932918
40
0.631623646297736
40
0.631623646297736
40
0.73486891174353
40
0.73486891174353
40
0.796951047610513
40
0.796951047610513
40
0.859105215562993
40
0.859105215562993
40
0.921420364650284
40
0.921420364650284
40
1
40
1
40
1
40
1
41
1
10
25.980786097355
20
12.6131031408264
30
0
41
1
10
25.9739702684976
20
12.630181258809
30
0
41
1
10
25.9634755488209
20
12.6461992912203
30
0
41
1
10
25.9417607464134
20
12.6717079972412
30
0
41
1
10
25.9312067499979
20
12.6820019021392
30
0
41
1
10
25.905269258085
20
12.7040388733504
30
0
41
1
10
25.889274677
20
12.7154029155922
30
0
41
1
10
25.8513648494701
20
12.7388246693896
30
0
41
1
10
25.8288264177705
20
12.7504005761577
30
0
41
1
10
25.7783506382287
20
12.7725232397348
30
0
41
1
10
25.7499288966051
20
12.7826652290939
30
0
41
1
10
25.6915425742243
20
12.799643536792
30
0
41
1
10
25.6613585905238
20
12.8064845988251
30
0
41
1
10
25.5933969724354
20
12.8178574733134
30
0
41
1
10
25.5551783165484
20
12.8215158730213
30
0
41
1
10
25.4877671921732
20
12.8228106544961
30
0
41
1
10
25.4581753097094
20
12.8215792539997
30
0
41
1
10
25.4118773190712
20
12.8162287534508
30
0
41
1
10
25.3946593247094
20
12.8134427652315
30
0
41
1
10
25.3609943658679
20
12.8060956109533
30
0
41
1
10
25.3444772739404
20
12.8015193584776
30
0
41
1
10
25.3126842049377
20
12.7902250359781
30
0
41
1
10
25.2973053315771
20
12.7834675276788
30
0
41
1
10
25.2651075081469
20
12.7652518518995
30
0
41
1
10
25.2485488108247
20
12.7528024604582
30
0
41
1
10
25.235619804625
20
12.7378012124514
30
0
0
SPLINE
5
F2
100
AcDbEntity
8
1
62
256
6
ByLayer
370
18
48
1
60
0
100
AcDbSpline
70
4
71
3
72
8
73
4
40
0
40
0
40
0
40
0
40
1
40
1
40
1
40
1
41
1
10
24.9755181010531
20
15.303067438268
30
0
41
1
10
24.9777155357211
20
15.2967725505151
30
0
41
1
10
24.9799132510826
20
15.290476858673
30
0
41
1
10
24.9821112580801
20
15.2841803313949
30
0
0
SPLINE
5
F3
100
AcDbEntity
8
1
62
256
6
ByLayer
370
18
48
1
60
0
100
AcDbSpline
70
4
71
3
72
24
73
20
40
0
40
0
40
0
40
0
40
0.158126111966039
40
0.158126111966039
40
0.271563393607335
40
0.271563393607335
40
0.385066230469812
40
0.385066230469812
40
0.498714519310331
40
0.498714519310331
40
0.612721087896088
40
0.612721087896088
40
0.746221642583623
40
0.746221642583623
40
0.824913378297549
40
0.824913378297549
40
0.908986128606078
40
0.908986128606078
40
1
40
1
40
1
40
1
41
1
10
24.7776203377693
20
12.7906209341267
30
0
41
1
10
24.7560251789402
20
12.8084226093071
30
0
41
1
10
24.7353184579317
20
12.8273733356668
30
0
41
1
10
24.7016705977762
20
12.861716058266
30
0
41
1
10
24.6881546477699
20
12.8766416121822
30
0
41
1
10
24.6625138538628
20
12.9075662507702
30
0
41
1
10
24.650358503954
20
12.9236010129056
30
0
41
1
10
24.6278218775868
20
12.9567591146267
30
0
41
1
10
24.6174001413979
20
12.9739404788436
30
0
41
1
10
24.5990009727535
20
13.009382769398
30
0
41
1
10
24.5909665426077
20
13.027758937763
30
0
41
1
10
24.5776184542658
20
13.0683615423852
30
0
41
1
10
24.5728452702299
20
13.0911899012824
30
0
41
1
10
24.5722408955067
20
13.1265805300813
30
0
41
1
10
24.5735978333196
20
13.1397322596463
30
0
41
1
10
24.5804245388453
20
13.1650114819221
30
0
41
1
10
24.5863101066332
20
13.1773015420258
30
0
41
1
10
24.6027108461643
20
13.1987063007973
30
0
41
1
10
24.6137880753786
20
13.2078023971897
30
0
41
1
10
24.6259976520284
20
13.2144155943454
30
0
0
SPLINE
5
F4
100
AcDbEntity
8
1
62
256
6
ByLayer
370
18
48
1
60
0
100
AcDbSpline
70
4
71
3
72
30
73
26
40
0
40
0
40
0
40
0
40
0.0728681126381098
40
0.0728681126381098
40
0.127812593477832
40
0.127812593477832
40
0.199092397893559
40
0.199092397893559
40
0.288874798004157
40
0.288874798004157
40
0.393641276926426
40
0.393641276926426
40
0.499915621932918
40
0.499915621932918
40
0.631623646297737
40
0.631623646297737
40
0.734868911743527
40
0.734868911743527
40
0.796951047610512
40
0.796951047610512
40
0.85910521556299
40
0.85910521556299
40
0.921420364650286
40
0.921420364650286
40
1
40
1
40
1
40
1
41
1
10
27.186347318601
20
13.4671483437765
30
0
41
1
10
27.1681493201506
20
13.4697847218295
30
0
41
1
10
27.1490299373254
20
13.4687050441895
30
0
41
1
10
27.1160813486899
20
13.4626538266769
30
0
41
1
10
27.1018895673363
20
13.4586607501186
30
0
41
1
10
27.0698362444885
20
13.4472167088172
30
0
41
1
10
27.0519974046749
20
13.4390470163956
30
0
41
1
10
27.0127586571202
20
13.4179270196003
30
0
41
1
10
26.9914644119374
20
13.4041961185711
30
0
41
1
10
26.9470677335094
20
13.3715441430006
30
0
41
1
10
26.9240736422677
20
13.3520011874143
30
0
41
1
10
26.8801768352975
20
13.3099263028481
30
0
41
1
10
26.8591603099376
20
13.2872067371925
30
0
41
1
10
26.8153303026726
20
13.2340366866898
30
0
41
1
10
26.7930527076449
20
13.2027675596472
30
0
41
1
10
26.7582258318077
20
13.145035204178
30
0
41
1
10
26.7444963146879
20
13.1187921819703
30
0
41
1
10
26.7259809887672
20
13.076021695659
30
0
41
1
10
26.7197847281587
20
13.0597174810298
30
0
41
1
10
26.7093150709885
20
13.0268891943166
30
0
41
1
10
26.7050196759228
20
13.0102968468729
30
0
41
1
10
26.6989043116246
20
12.9771160802025
30
0
41
1
10
26.6970670487977
20
12.960418831041
30
0
41
1
10
26.6967433750546
20
12.9234268601143
30
0
41
1
10
26.6992455156433
20
12.902861911859
30
0
41
1
10
26.7057724744059
20
12.8841644400409
30
0
0
SPLINE
5
F5
100
AcDbEntity
8
1
62
256
6
ByLayer
370
18
48
1
60
0
100
AcDbSpline
70
4
71
3
72
26
73
22
40
0
40
0
40
0
40
0
40
0.0611212350797055
40
0.0611212350797055
40
0.145349009858788
40
0.145349009858788
40
0.228936526328738
40
0.228936526328738
40
0.391532191220699
40
0.391532191220699
40
0.475817926908332
40
0.475817926908332
40
0.589557559273587
40
0.589557559273587
40
0.703149060376428
40
0.703149060376428
40
0.816673845780336
40
0.816673845780336
40
0.93016871211619
40
0.93016871211619
40
1
40
1
40
1
40
1
41
1
10
26.7123656314328
20
12.8652773331679
30
0
41
1
10
26.7187524696417
20
12.8583215317253
30
0
41
1
10
26.7242686125753
20
12.8505108169442
30
0
41
1
10
26.7342990923736
20
12.8305228364682
30
0
41
1
10
26.737761156523
20
12.8174651021805
30
0
41
1
10
26.7393118559401
20
12.7908970659856
30
0
41
1
10
26.737506269963
20
12.777068933818
30
0
41
1
10
26.7265787529177
20
12.7381027201517
30
0
41
1
10
26.7122551413969
20
12.7133372696473
30
0
41
1
10
26.6863404461181
20
12.6797155089174
30
0
41
1
10
26.6765330845424
20
12.6686704616237
30
0
41
1
10
26.6521684458434
20
12.6440107195236
30
0
41
1
10
26.6370773625483
20
12.6307663723414
30
0
41
1
10
26.6055850239332
20
12.6060179252407
30
0
41
1
10
26.5891206425532
20
12.5944657433628
30
0
41
1
10
26.5552468029199
20
12.5729056076026
30
0
41
1
10
26.5377940912481
20
12.5628712694347
30
0
41
1
10
26.5021678765939
20
12.5442432856356
30
0
41
1
10
26.4839603544998
20
12.5356324285456
30
0
41
1
10
26.45409866229
20
12.5228642969884
30
0
41
1
10
26.4426122405805
20
12.5182657293641
30
0
41
1
10
26.4310295201863
20
12.5139351276619
30
0
0
SPLINE
5
F6
100
AcDbEntity
8
1
62
256
6
ByLayer
370
18
48
1
60
0
100
AcDbSpline
70
4
71
3
72
26
73
22
40
0
40
0
40
0
40
0
40
0.0727938302380762
40
0.0727938302380762
40
0.127682300186943
40
0.127682300186943
40
0.198889441338009
40
0.198889441338009
40
0.288580316474557
40
0.288580316474557
40
0.393239995518875
40
0.393239995518875
40
0.499406003515844
40
0.499406003515844
40
0.600539842293492
40
0.600539842293492
40
0.795411350082977
40
0.795411350082977
40
0.921875057553224
40
0.921875057553224
40
1
40
1
40
1
40
1
41
1
10
24.9821112580801
20
15.2841803313949
30
0
41
1
10
24.988171540245
20
15.2668197260793
30
0
41
1
10
24.9907598495533
20
15.2478456079616
30
0
41
1
10
24.9911066970466
20
15.2143477509664
30
0
41
1
10
24.989894904094
20
15.1996547976817
30
0
41
1
10
24.9847771843951
20
15.1660067586306
30
0
41
1
10
24.9801614033371
20
15.1469368177449
30
0
41
1
10
24.9669165463694
20
15.1043891111299
30
0
41
1
10
24.9575010541974
20
15.0808661217751
30
0
41
1
10
24.933920272993
20
15.0310548447198
30
0
41
1
10
24.919123855993
20
15.0047542479773
30
0
41
1
10
24.8861979112007
20
14.9536356825343
30
0
41
1
10
24.8679059100473
20
14.9286701924413
30
0
41
1
10
24.8296465909862
20
14.8822579271096
30
0
41
1
10
24.8096870856262
20
14.8605656304219
30
0
41
1
10
24.7487130813277
20
14.8014477458351
30
0
41
1
10
24.7042645554567
20
14.7667406906634
30
0
41
1
10
24.6268017076583
20
14.7240360344135
30
0
41
1
10
24.5944728341668
20
14.7105424480528
30
0
41
1
10
24.5418003060933
20
14.6998248412244
30
0
41
1
10
24.5211357629277
20
14.6983570333265
30
0
41
1
10
24.5015364138849
20
14.7011964276593
30
0
0
SPLINE
5
F7
100
AcDbEntity
8
1
62
256
6
ByLayer
370
18
48
1
60
0
100
AcDbSpline
70
4
71
3
72
24
73
20
40
0
40
0
40
0
40
0
40
0.158126111966004
40
0.158126111966004
40
0.271563393607307
40
0.271563393607307
40
0.385066230469789
40
0.385066230469789
40
0.49871451931031
40
0.49871451931031
40
0.612721087896069
40
0.612721087896069
40
0.74622164258361
40
0.74622164258361
40
0.824913378297543
40
0.824913378297543
40
0.908986128606072
40
0.908986128606072
40
1
40
1
40
1
40
1
41
1
10
26.4310295201863
20
12.5139351276619
30
0
41
1
10
26.4048152378357
20
12.5041340091073
30
0
41
1
10
26.3780500668838
20
12.4956768258647
30
0
41
1
10
26.3314844666
20
12.4837082854867
30
0
41
1
10
26.3118005827398
20
12.479465906383
30
0
41
1
10
26.2721986631663
20
12.4727226467803
30
0
41
1
10
26.2522344768589
20
12.4702131860351
30
0
41
1
10
26.2122504052436
20
12.4672749459461
30
0
41
1
10
26.1921600392657
20
12.4668401397633
30
0
41
1
10
26.1522665309551
20
12.468627137586
30
0
41
1
10
26.1323350872538
20
12.4708572011573
30
0
41
1
10
26.0904981560202
20
12.4795987198723
30
0
41
1
10
26.0683416252706
20
12.4868792006889
30
0
41
1
10
26.0373902543132
20
12.5040511112247
30
0
41
1
10
26.0266789913126
20
12.5118021186245
30
0
41
1
10
26.0081998953968
20
12.5303538301718
30
0
41
1
10
26.0004991750268
20
12.5415959114437
30
0
41
1
10
25.9901624799344
20
12.5665017479042
30
0
41
1
10
25.9878236439905
20
12.5806429580036
30
0
41
1
10
25.9882012355783
20
12.5945233601295
30
0
0
SPLINE
5
F8
100
AcDbEntity
8
1
62
256
6
ByLayer
370
18
48
1
60
0
100
AcDbSpline
70
4
71
3
72
26
73
22
40
0
40
0
40
0
40
0
40
0.0611212350797052
40
0.0611212350797052
40
0.145349009858791
40
0.145349009858791
40
0.228936526328741
40
0.228936526328741
40
0.391532191220708
40
0.391532191220708
40
0.475817926908338
40
0.475817926908338
40
0.589557559273597
40
0.589557559273597
40
0.703149060376442
40
0.703149060376442
40
0.816673845780343
40
0.816673845780343
40
0.930168712116198
40
0.930168712116198
40
1
40
1
40
1
40
1
41
1
10
26.4653240637035
20
15.4456969538975
30
0
41
1
10
26.468154545352
20
15.4547060187576
30
0
41
1
10
26.4721607513074
20
15.4633884960595
30
0
41
1
10
26.4844556102708
20
15.482069136615
30
0
41
1
10
26.4940329078052
20
15.4915962392617
30
0
41
1
10
26.5162661523701
20
15.5062232024481
30
0
41
1
10
26.5291444591026
20
15.5115735852069
30
0
41
1
10
26.5683539485495
20
15.5215931846786
30
0
41
1
10
26.596963263583
20
15.5215712984798
30
0
41
1
10
26.6390379101344
20
15.515939394402
30
0
41
1
10
26.6535068824646
20
15.5129684937802
30
0
41
1
10
26.6870451649236
20
15.5041979687629
30
0
41
1
10
26.7060606476874
20
15.4977508808498
30
0
41
1
10
26.7432396008884
20
15.4828519391349
30
0
41
1
10
26.7614762745539
20
15.4743694575411
30
0
41
1
10
26.7970848196479
20
15.4558139197751
30
0
41
1
10
26.8145011672473
20
15.4457165971864
30
0
41
1
10
26.8484465817657
20
15.4241773821547
30
0
41
1
10
26.865007563801
20
15.4127146340262
30
0
41
1
10
26.8909959361933
20
15.3932377157512
30
0
41
1
10
26.9007216234318
20
15.3855894665643
30
0
41
1
10
26.9102633947166
20
15.3777238373091
30
0
0
SPLINE
5
F9
100
AcDbEntity
8
1
62
256
6
ByLayer
370
18
48
1
60
0
100
AcDbSpline
70
4
71
3
72
30
73
26
40
0
40
0
40
0
40
0
40
0.0728681126381144
40
0.0728681126381144
40
0.127812593477839
40
0.127812593477839
40
0.199092397893564
40
0.199092397893564
40
0.288874798004161
40
0.288874798004161
40
0.393641276926427
40
0.393641276926427
40
0.499915621932923
40
0.499915621932923
40
0.631623646297739
40
0.631623646297739
40
0.734868911743531
40
0.734868911743531
40
0.796951047610516
40
0.796951047610516
40
0.859105215562996
40
0.859105215562996
40
0.921420364650287
40
0.921420364650287
40
1
40
1
40
1
40
1
41
1
10
27.049503087489
20
14.938217588668
30
0
41
1
10
27.0381209178959
20
14.9237758487384
30
0
41
1
10
27.0294962547474
20
14.9066781386871
30
0
41
1
10
27.0182624685194
20
14.8751182151537
30
0
41
1
10
27.0146246835814
20
14.8608312336974
30
0
41
1
10
27.0085088526464
20
14.8273502211847
30
0
41
1
10
27.0066645939179
20
14.8078164865213
30
0
41
1
10
27.0053356738931
20
14.7632747359287
30
0
41
1
10
27.0065798604099
20
14.7379679281313
30
0
41
1
10
27.0126589615236
20
14.6831932889838
30
0
41
1
10
27.0180866119056
20
14.6535083440383
30
0
41
1
10
27.0325761273161
20
14.594455151774
30
0
41
1
10
27.0417435856569
20
14.5648945240853
30
0
41
1
10
27.0658751964801
20
14.5003515990944
30
0
41
1
10
27.0818162573394
20
14.4654240723438
30
0
41
1
10
27.1144005058774
20
14.4063969353998
30
0
41
1
10
27.1302628712215
20
14.3813853136885
30
0
41
1
10
27.1580455359389
20
14.3439653279262
30
0
41
1
10
27.1690672696923
20
14.3304471015162
30
0
41
1
10
27.1922625713636
20
14.3049659690812
30
0
41
1
10
27.2044842682254
20
14.2929498741132
30
0
41
1
10
27.2301619729299
20
14.2710634299424
30
0
41
1
10
27.2437035834636
20
14.2611236890802
30
0
41
1
10
27.2755777331506
20
14.2423473939327
30
0
41
1
10
27.2946385710616
20
14.2342318371187
30
0
41
1
10
27.3140945360238
20
14.2305356133075
30
0
0
SPLINE
5
FA
100
AcDbEntity
8
1
62
256
6
ByLayer
370
18
48
1
60
0
100
AcDbSpline
70
4
71
3
72
8
73
4
40
0
40
0
40
0
40
0
40
1
40
1
40
1
40
1
41
1
10
27.206145449793
20
13.4642801515021
30
0
41
1
10
27.1995469265565
20
13.465236091898
30
0
41
1
10
27.1929475604455
20
13.4661921544027
30
0
41
1
10
27.186347318601
20
13.4671483437765
30
0
0
SPLINE
5
FB
100
AcDbEntity
8
1
62
256
6
ByLayer
370
18
48
1
60
0
100
AcDbSpline
70
4
71
3
72
8
73
4
40
0
40
0
40
0
40
0
40
1
40
1
40
1
40
1
41
1
10
25.235619804625
20
12.7378012124514
30
0
41
1
10
25.2312658555452
20
12.7327494189148
30
0
41
1
10
25.2269124841563
20
12.7276982956605
30
0
41
1
10
25.2225596687824
20
12.7226478175383
30
0
0
SPLINE
5
FC
100
AcDbEntity
8
1
62
256
6
ByLayer
370
18
48
1
60
0
100
AcDbSpline
70
4
71
3
72
8
73
4
40
0
40
0
40
0
40
0
40
1
40
1
40
1
40
1
41
1
10
26.7057724744059
20
12.8841644400409
30
0
41
1
10
26.7079704814033
20
12.8778679127629
30
0
41
1
10
26.7101681967648
20
12.8715722209207
30
0
41
1
10
26.7123656314328
20
12.8652773331679
30
0
0
SPLINE
5
FD
100
AcDbEntity
8
1
62
256
6
ByLayer
370
18
48
1
60
0
100
AcDbSpline
70
4
71
3
72
8
73
4
40
0
40
0
40
0
40
0
40
1
40
1
40
1
40
1
41
1
10
12.7237425450486
20
-2.98712517874006
30
0
41
1
10
11.2522399848719
20
-4.04596107137158
30
0
41
1
10
9.71544052902701
20
-4.9965672454353
30
0
41
1
10
8.11339096276663
20
-5.83978161366545
30
0
0
SPLINE
5
FE
100
AcDbEntity
8
1
62
256
6
ByLayer
370
18
48
1
60
0
100
AcDbSpline
70
4
71
3
72
18
73
14
40
0
40
0
40
0
40
0
40
0.0203676344849544
40
0.0203676344849544
40
0.0904676656911176
40
0.0904676656911176
40
0.318076695405404
40
0.318076695405404
40
0.545462898242914
40
0.545462898242914
40
0.772727523889703
40
0.772727523889703
40
1
40
1
40
1
40
1
41
1
10
15.4697997680197
20
-1.26361076389699
30
0
41
1
10
15.4655474195427
20
-1.2662639821157
30
0
41
1
10
15.4612946032189
20
-1.26891751654617
30
0
41
1
10
15.4422252523351
20
-1.28081557377624
30
0
41
1
10
15.4274093114412
20
-1.29005947781772
30
0
41
1
10
15.3656269127427
20
-1.32860529145449
30
0
41
1
10
15.3189865381064
20
-1.35770090903497
30
0
41
1
10
15.2343635204254
20
-1.41048652808462
30
0
41
1
10
15.1952086533491
20
-1.43490779444056
30
0
41
1
10
15.1296711689764
20
-1.47578157780259
30
0
41
1
10
15.1023803036149
20
-1.49280061598014
30
0
41
1
10
15.0632642190177
20
-1.51719332439737
30
0
41
1
10
15.050900871957
20
-1.52490262513848
30
0
41
1
10
15.0467605620165
20
-1.5274843776061
30
0
0
SPLINE
5
FF
100
AcDbEntity
8
1
62
256
6
ByLayer
370
18
48
1
60
0
100
AcDbSpline
70
4
71
3
72
8
73
4
40
0
40
0
40
0
40
0
40
1
40
1
40
1
40
1
41
1
10
13.938176777855
20
-4.62744739502651
30
0
41
1
10
13.5369389409435
20
-4.96412591599329
30
0
41
1
10
13.1356978373023
20
-5.30080717807175
30
0
41
1
10
12.7344554312118
20
-5.63748953303499
30
0
0
SPLINE
5
100
100
AcDbEntity
8
1
62
256
6
ByLayer
370
18
48
1
60
0
100
AcDbSpline
70
4
71
3
72
18
73
14
40
0
40
0
40
0
40
0
40
0.108265039854979
40
0.108265039854979
40
0.332745673872299
40
0.332745673872299
40
0.554888495645845
40
0.554888495645845
40
0.775302038288347
40
0.775302038288347
40
0.995483804461456
40
0.995483804461456
40
1
40
1
40
1
40
1
41
1
10
8.82162560256418
20
2.69049020351042
30
0
41
1
10
8.92365809993822
20
2.7574179330226
30
0
41
1
10
9.03165414527612
20
2.81624552111245
30
0
41
1
10
9.37449041825616
20
2.96796830504252
30
0
41
1
10
9.62719055958894
20
3.03167431024937
30
0
41
1
10
10.1308074319833
20
3.06997434948622
30
0
41
1
10
10.3886833099012
20
3.04599053138796
30
0
41
1
10
10.8737454089542
20
2.91588633632514
30
0
41
1
10
11.1078269999585
20
2.80861801682644
30
0
41
1
10
11.5217899744107
20
2.52699970323752
30
0
41
1
10
11.7074228591233
20
2.34886049719552
30
0
41
1
10
11.8596732738791
20
2.14387505019849
30
0
41
1
10
11.8627614788606
20
2.13968697382015
30
0
41
1
10
11.8658351025048
20
2.13548832353609
30
0
0
SPLINE
5
101
100
AcDbEntity
8
1
62
256
6
ByLayer
370
18
48
1
60
0
100
AcDbSpline
70
4
71
3
72
20
73
16
40
0
40
0
40
0
40
0
40
0.0746467919469084
40
0.0746467919469084
40
0.257108779797222
40
0.257108779797222
40
0.432249422279867
40
0.432249422279867
40
0.532866092630208
40
0.532866092630208
40
0.701554095437585
40
0.701554095437585
40
0.86998112222286
40
0.86998112222286
40
1
40
1
40
1
40
1
41
1
10
13.5371640905062
20
0.20800144926335
30
0
41
1
10
13.5191289595982
20
0.246194935498295
30
0
41
1
10
13.4984404464882
20
0.287959586601403
30
0
41
1
10
13.4191389624632
20
0.441505220049919
30
0
41
1
10
13.347008489888
20
0.570786097723413
30
0
41
1
10
13.1850000028039
20
0.842224351061788
30
0
41
1
10
13.0935804797675
20
0.987549394167871
30
0
41
1
10
12.9422083541127
20
1.21616866649586
30
0
41
1
10
12.8844285899021
20
1.30104734937461
30
0
41
1
10
12.7297054341467
20
1.52217854618809
30
0
41
1
10
12.6298945903758
20
1.65834210330164
30
0
41
1
10
12.4410119305183
20
1.9044667880768
30
0
41
1
10
12.3493855775395
20
2.01782409584945
30
0
41
1
10
12.2048795580104
20
2.18719508874904
30
0
41
1
10
12.1467455251105
20
2.25183357465423
30
0
41
1
10
12.0960374940097
20
2.30485365862566
30
0
0
SPLINE
5
102
100
AcDbEntity
8
1
62
256
6
ByLayer
370
18
48
1
60
0
100
AcDbSpline
70
4
71
3
72
16
73
12
40
0
40
0
40
0
40
0
40
0.0087863062820796
40
0.0087863062820796
40
0.266588130810585
40
0.266588130810585
40
0.550359319507934
40
0.550359319507934
40
0.838192398740098
40
0.838192398740098
40
1
40
1
40
1
40
1
41
1
10
12.0960374940098
20
2.3048536586256
30
0
41
1
10
12.0937917556967
20
2.30720179227131
30
0
41
1
10
12.0915553610994
20
2.30952444666514
30
0
41
1
10
12.0247194523112
20
2.37847763709519
30
0
41
1
10
11.9679022676961
20
2.42427489805493
30
0
41
1
10
11.8807913340393
20
2.47888901826337
30
0
41
1
10
11.8527276093272
20
2.48440881470367
30
0
41
1
10
11.8408374592004
20
2.44980403626309
30
0
41
1
10
11.8577098437742
20
2.40836006655641
30
0
41
1
10
11.9123749736031
20
2.30655469601459
30
0
41
1
10
11.9378235144929
20
2.26191482743602
30
0
41
1
10
11.9667897681959
20
2.20976305487938
30
0
0
SPLINE
5
103
100
AcDbEntity
8
1
62
256
6
ByLayer
370
18
48
1
60
0
100
AcDbSpline
70
4
71
3
72
8
73
4
40
0
40
0
40
0
40
0
40
1
40
1
40
1
40
1
41
1
10
11.2171351048038
20
7.68352694976934
30
0
41
1
10
11.1841181189915
20
7.66495157438558
30
0
41
1
10
11.1512133494247
20
7.64650390539919
30
0
41
1
10
11.1184011556506
20
7.62816054934524
30
0
0
SPLINE
5
104
100
AcDbEntity
8
1
62
256
6
ByLayer
370
18
48
1
60
0
100
AcDbSpline
70
4
71
3
72
8
73
4
40
0
40
0
40
0
40
0
40
1
40
1
40
1
40
1
41
1
10
11.8658351025048
20
2.13548832353609
30
0
41
1
10
12.3630020452398
20
1.45634527710612
30
0
41
1
10
12.8406848126264
20
0.761312537717458
30
0
41
1
10
13.2965507697154
20
0.0537841102815833
30
0
0
SPLINE
5
105
100
AcDbEntity
8
1
62
256
6
ByLayer
370
18
48
1
60
0
100
AcDbSpline
70
4
71
3
72
20
73
16
40
0
40
0
40
0
40
0
40
0.128964773046001
40
0.128964773046001
40
0.30775435694662
40
0.30775435694662
40
0.481743617543074
40
0.481743617543074
40
0.652930125963541
40
0.652930125963541
40
0.823727627430349
40
0.823727627430349
40
0.996501205391733
40
0.996501205391733
40
1
40
1
40
1
40
1
41
1
10
11.9667897681958
20
2.20976305487946
30
0
41
1
10
12.0020220181374
20
2.14632978164883
30
0
41
1
10
12.0456469948199
20
2.07233525828016
30
0
41
1
10
12.1650604286845
20
1.87771335868851
30
0
41
1
10
12.2486802711788
20
1.74702781967525
30
0
41
1
10
12.4270719403958
20
1.47567104168675
30
0
41
1
10
12.5239575276805
20
1.33156762510796
30
0
41
1
10
12.7171272622536
20
1.04941996671298
30
0
41
1
10
12.8160429352609
20
0.907447312017979
30
0
41
1
10
13.003672279008
20
0.643441410094368
30
0
41
1
10
13.0949631125436
20
0.517793483023581
30
0
41
1
10
13.2597643589448
20
0.298052982400805
30
0
41
1
10
13.3353007422387
20
0.201384213328907
30
0
41
1
10
13.3995042926464
20
0.124482607237042
30
0
41
1
10
13.4007901317128
20
0.122944992776098
30
0
41
1
10
13.4020711216216
20
0.121415726959782
30
0
0
SPLINE
5
106
100
AcDbEntity
8
1
62
256
6
ByLayer
370
18
48
1
60
0
100
AcDbSpline
70
4
71
3
72
18
73
14
40
0
40
0
40
0
40
0
40
0.110673941548203
40
0.110673941548203
40
0.331715337122108
40
0.331715337122108
40
0.552216980420165
40
0.552216980420165
40
0.772364101480592
40
0.772364101480592
40
0.993261615660858
40
0.993261615660858
40
1
40
1
40
1
40
1
41
1
10
13.2965507697154
20
0.0537841102815833
30
0
41
1
10
13.3648770075235
20
-0.0522618772224916
30
0
41
1
10
13.4244983358937
20
-0.164483459279353
30
0
41
1
10
13.572918702279
20
-0.511386743324437
30
0
41
1
10
13.6333974232128
20
-0.762502750433697
30
0
41
1
10
13.6675942920703
20
-1.26280423958744
30
0
41
1
10
13.6419858627748
20
-1.51888870716192
30
0
41
1
10
13.510094340516
20
-2.00055609449029
30
0
41
1
10
13.4021466182573
20
-2.23278005624582
30
0
41
1
10
13.1202349423449
20
-2.64309847778398
30
0
41
1
10
12.9422481988105
20
-2.8266079531719
30
0
41
1
10
12.7361757181029
20
-2.97813015223789
30
0
41
1
10
12.7299703910952
20
-2.98264386344619
30
0
41
1
10
12.7237425450486
20
-2.98712517874006
30
0
0
SPLINE
5
107
100
AcDbEntity
8
1
62
256
6
ByLayer
370
18
48
1
60
0
100
AcDbSpline
70
4
71
3
72
10
73
6
40
0
40
0
40
0
40
0
40
0.26613286729622
40
0.26613286729622
40
1
40
1
40
1
40
1
41
1
10
14.8467403796745
20
-1.23981236952312
30
0
41
1
10
14.9132283377628
20
-1.33655294883968
30
0
41
1
10
14.9809387011813
20
-1.43507213894824
30
0
41
1
10
15.2372951290098
20
-1.80807305599697
30
0
41
1
10
15.4365144061188
20
-2.09793890287611
30
0
41
1
10
15.634314486886
20
-2.3857398062645
30
0
0
SPLINE
5
108
100
AcDbEntity
8
1
62
256
6
ByLayer
370
18
48
1
60
0
100
AcDbSpline
70
4
71
3
72
18
73
14
40
0
40
0
40
0
40
0
40
0.0203676344849576
40
0.0203676344849576
40
0.0904676656911076
40
0.0904676656911076
40
0.318076695405409
40
0.318076695405409
40
0.54546289824291
40
0.54546289824291
40
0.772727523889703
40
0.772727523889703
40
1
40
1
40
1
40
1
41
1
10
11.4147638213777
20
4.63650315005845
30
0
41
1
10
11.410762923377
20
4.63348406912641
30
0
41
1
10
11.406761562506
20
4.63046466474194
30
0
41
1
10
11.3888199249872
20
4.61692577438399
30
0
41
1
10
11.3748804387509
20
4.60640662090245
30
0
41
1
10
11.3167539900767
20
4.562541366972
30
0
41
1
10
11.2728764755823
20
4.52942576294004
30
0
41
1
10
11.1932706775063
20
4.46934004406626
30
0
41
1
10
11.1564396118173
20
4.44153762571102
30
0
41
1
10
11.0947941138206
20
4.39500096703244
30
0
41
1
10
11.0691253014394
20
4.37562182712358
30
0
41
1
10
11.0323347952805
20
4.34784538108184
30
0
41
1
10
11.0207069156708
20
4.33906596855897
30
0
41
1
10
11.0168128877171
20
4.33612587357698
30
0
0
SPLINE
5
109
100
AcDbEntity
8
1
62
256
6
ByLayer
370
18
48
1
60
0
100
AcDbSpline
70
4
71
3
72
10
73
6
40
0
40
0
40
0
40
0
40
0.174408338758219
40
0.174408338758219
40
1
40
1
40
1
40
1
41
1
10
10.4261229138895
20
5.19222595550116
30
0
41
1
10
10.4737948874201
20
5.12286280359942
30
0
41
1
10
10.5215101419906
20
5.05343667739399
30
0
41
1
10
10.7906172251361
20
4.66188344173761
30
0
41
1
10
11.0095617650667
20
4.34331715936
30
0
41
1
10
11.213697021101
20
4.04629851875976
30
0
0
SPLINE
5
10A
100
AcDbEntity
8
1
62
256
6
ByLayer
370
18
48
1
60
0
100
AcDbSpline
70
4
71
3
72
8
73
4
40
0
40
0
40
0
40
0
40
1
40
1
40
1
40
1
41
1
10
13.76256289497
20
0.352467282326302
30
0
41
1
10
14.1211580117827
20
-0.136336480943981
30
0
41
1
10
14.4764920238584
20
-0.645669657494665
30
0
41
1
10
14.8467403796745
20
-1.23981236952309
30
0
0
SPLINE
5
10B
100
AcDbEntity
8
1
62
256
6
ByLayer
370
18
48
1
60
0
100
AcDbSpline
70
4
71
3
72
16
73
12
40
0
40
0
40
0
40
0
40
0.0437032872129268
40
0.0437032872129268
40
0.322787213645588
40
0.322787213645588
40
0.601185351237117
40
0.601185351237117
40
0.883754565789143
40
0.883754565789143
40
1
40
1
40
1
40
1
41
1
10
13.4020711216216
20
0.121415726959782
30
0
41
1
10
13.4124930609841
20
0.108973852517352
30
0
41
1
10
13.4224817765751
20
0.0969791946421026
30
0
41
1
10
13.4924935009598
20
0.012808452491214
30
0
41
1
10
13.5367494153486
20
-0.040177024412742
30
0
41
1
10
13.596745944664
20
-0.0902508925159395
30
0
41
1
10
13.6135628252037
20
-0.0882202700038022
30
0
41
1
10
13.620247050949
20
-0.0312035432820892
30
0
41
1
10
13.6097739852357
20
0.0250740716010398
30
0
41
1
10
13.5700913271977
20
0.133897490205044
30
0
41
1
10
13.5553699252783
20
0.169446458822193
30
0
41
1
10
13.5371640905062
20
0.20800144926335
30
0
0
SPLINE
5
10C
100
AcDbEntity
8
1
62
256
6
ByLayer
370
18
48
1
60
0
100
AcDbSpline
70
4
71
3
72
10
73
6
40
0
40
0
40
0
40
0
40
0.230516838153947
40
0.230516838153947
40
1
40
1
40
1
40
1
41
1
10
14.9633913534973
20
-3.76719022272744
30
0
41
1
10
14.8846184760692
20
-3.83328851512408
30
0
41
1
10
14.805845728616
20
-3.89938669845893
30
0
41
1
10
14.4641139681525
20
-4.18613369262539
30
0
41
1
10
14.2011414138384
20
-4.40679386596011
30
0
41
1
10
13.938176777855
20
-4.62744739502651
30
0
0
SPLINE
5
10D
100
AcDbEntity
8
1
62
256
6
ByLayer
370
18
48
1
60
0
100
AcDbSpline
70
4
71
3
72
24
73
20
40
0
40
0
40
0
40
0
40
0.0786400832862075
40
0.0786400832862075
40
0.196287242042429
40
0.196287242042429
40
0.31428767541221
40
0.31428767541221
40
0.430845172341125
40
0.430845172341125
40
0.544833815986601
40
0.544833815986601
40
0.65731497660833
40
0.65731497660833
40
0.770613738370944
40
0.770613738370944
40
0.886294625232224
40
0.886294625232224
40
1
40
1
40
1
40
1
41
1
10
8.11339096276663
20
-5.83978161366545
30
0
41
1
10
7.89920658231938
20
-5.95251429737706
30
0
41
1
10
7.67092832234579
20
-6.04110238532993
30
0
41
1
10
7.08784436674534
20
-6.19390767122908
30
0
41
1
10
6.71790165643063
20
-6.2257422240468
30
0
41
1
10
5.99595658034298
20
-6.16438937290826
30
0
41
1
10
5.63382395354108
20
-6.06989737593946
30
0
41
1
10
4.97356876931414
20
-5.76936904528895
30
0
41
1
10
4.665446379147
20
-5.56034248790021
30
0
41
1
10
4.1488184571671
20
-5.0628956630174
30
0
41
1
10
3.93117406483836
20
-4.76938922004786
30
0
41
1
10
3.61072625661961
20
-4.14109254522077
30
0
41
1
10
3.50206159978725
20
-3.79841291553299
30
0
41
1
10
3.40179375441045
20
-3.10550828203157
30
0
41
1
10
3.40958083543046
20
-2.74591648740673
30
0
41
1
10
3.53972557675547
20
-2.05244041373277
30
0
41
1
10
3.66618406670796
20
-1.70975419185629
30
0
41
1
10
4.01667383064435
20
-1.09896635058129
30
0
41
1
10
4.24347393357735
20
-0.821705878822286
30
0
41
1
10
4.50623914817126
20
-0.591343155636935
30
0
0
SPLINE
5
10E
100
AcDbEntity
8
1
62
256
6
ByLayer
370
18
48
1
60
0
100
AcDbSpline
70
4
71
3
72
8
73
4
40
0
40
0
40
0
40
0
40
1
40
1
40
1
40
1
41
1
10
11.213697021101
20
4.04629851875976
30
0
41
1
10
11.6356918835004
20
3.48772019538023
30
0
41
1
10
11.9838550463978
20
2.97345863070555
30
0
41
1
10
12.3116836754407
20
2.46350964625478
30
0
0
SPLINE
5
10F
100
AcDbEntity
8
1
62
256
6
ByLayer
370
18
48
1
60
0
100
AcDbSpline
70
4
71
3
72
8
73
4
40
0
40
0
40
0
40
0
40
1
40
1
40
1
40
1
41
1
10
4.50623914817123
20
-0.591343155636935
30
0
41
1
10
5.86740528056245
20
0.601972852533692
30
0
41
1
10
7.30559298634932
20
1.69605584699687
30
0
41
1
10
8.82162560256415
20
2.69049020351042
30
0
0
LINE
5
7A
100
AcDbEntity
8
80
62
256
6
ByLayer
370
18
48
1
60
0
100
AcDbLine
10
0
20
0
30
0
11
-5
21
0
31
0
39
0
210
0
220
0
230
1
0
LINE
5
7B
100
AcDbEntity
8
81
62
256
6
ByLayer
370
18
48
1
60
0
100
AcDbLine
10
39
20
19.5
30
0
11
44
21
19.5
31
0
39
0
210
0
220
0
230
1
0
LINE
5
7C
100
AcDbEntity
8
1
62
256
6
ByLayer
370
13
48
1
60
0
100
AcDbLine
10
15.4698
20
-1.263611
30
0
11
16.375883
21
-2.581969
31
0
39
0
210
0
220
0
230
1
0
LINE
5
7E
100
AcDbEntity
8
1
62
256
6
ByLayer
370
13
48
1
60
0
100
AcDbLine
10
4.993998
20
13.978775
30
0
11
11.414764
21
4.636503
31
0
39
0
210
0
220
0
230
1
0
LINE
5
7F
100
AcDbEntity
8
SK1
62
256
6
ByLayer
370
13
48
1
60
0
100
AcDbLine
10
-1.5
20
-12.5
30
0
11
-1.5
21
12.425
31
0
39
0
210
0
220
0
230
1
0
LINE
5
81
100
AcDbEntity
8
1
62
256
6
ByLayer
370
13
48
1
60
0
100
AcDbLine
10
4.506239
20
-0.591343
30
0
11
4.085778
21
-0.097499
31
0
39
0
210
0
220
0
230
1
0
LINE
5
82
100
AcDbEntity
8
1
62
256
6
ByLayer
370
13
48
1
60
0
100
AcDbLine
10
8.113391
20
-5.839782
30
0
11
8.423754
21
-6.409294
31
0
39
0
210
0
220
0
230
1
0
LINE
5
83
100
AcDbEntity
8
1
62
256
6
ByLayer
370
13
48
1
60
0
100
AcDbLine
10
13.064262
20
-3.447061
30
0
11
12.723743
21
-2.987125
31
0
39
0
210
0
220
0
230
1
0
LINE
5
84
100
AcDbEntity
8
1
62
256
6
ByLayer
370
13
48
1
60
0
100
AcDbLine
10
8.821626
20
2.69049
30
0
11
8.51427
21
3.173219
31
0
39
0
210
0
220
0
230
1
0
LINE
5
85
100
AcDbEntity
8
1
62
256
6
ByLayer
370
13
48
1
60
0
100
AcDbLine
10
12.311684
20
2.46351
30
0
11
12.096037
21
2.304854
31
0
39
0
210
0
220
0
230
1
0
LINE
5
86
100
AcDbEntity
8
1
62
256
6
ByLayer
370
13
48
1
60
0
100
AcDbLine
10
11.96679
20
2.209763
30
0
11
11.865835
21
2.135488
31
0
39
0
210
0
220
0
230
1
0
LINE
5
87
100
AcDbEntity
8
1
62
256
6
ByLayer
370
13
48
1
60
0
100
AcDbLine
10
13.537164
20
0.208001
30
0
11
13.762563
21
0.352467
31
0
39
0
210
0
220
0
230
1
0
LINE
5
88
100
AcDbEntity
8
1
62
256
6
ByLayer
370
13
48
1
60
0
100
AcDbLine
10
4.085778
20
-0.097499
30
0
11
3.052493
21
1.116122
31
0
39
0
210
0
220
0
230
1
0
LINE
5
89
100
AcDbEntity
8
1
62
256
6
ByLayer
370
13
48
1
60
0
100
AcDbLine
10
13.064262
20
-3.447061
30
0
11
13.938177
21
-4.627447
31
0
39
0
210
0
220
0
230
1
0
LINE
5
8A
100
AcDbEntity
8
1
62
256
6
ByLayer
370
13
48
1
60
0
100
AcDbLine
10
8.423754
20
-6.409294
30
0
11
9.186471
21
-7.808871
31
0
39
0
210
0
220
0
230
1
0
LINE
5
8B
100
AcDbEntity
8
1
62
256
6
ByLayer
370
13
48
1
60
0
100
AcDbLine
10
8.51427
20
3.173219
30
0
11
7.658211
21
4.517733
31
0
39
0
210
0
220
0
230
1
0
LINE
5
8C
100
AcDbEntity
8
1
62
256
6
ByLayer
370
13
48
1
60
0
100
AcDbLine
10
13.296551
20
0.053784
30
0
11
13.402071
21
0.121416
31
0
39
0
210
0
220
0
230
1
0
LINE
5
8D
100
AcDbEntity
8
1
62
256
6
ByLayer
370
18
48
1
60
0
100
AcDbLine
10
26.149904
20
9.33116
30
0
11
26.645198
21
8.006435
31
0
39
0
210
0
220
0
230
1
0
LINE
5
8E
100
AcDbEntity
8
1
62
256
6
ByLayer
370
18
48
1
60
0
100
AcDbLine
10
25.812696
20
9.313477
30
0
11
26.49957
21
7.47635
31
0
39
0
210
0
220
0
230
1
0
LINE
5
8F
100
AcDbEntity
8
1
62
256
6
ByLayer
370
18
48
1
60
0
100
AcDbLine
10
22.441918
20
18.329031
30
0
11
22.690507
21
17.664151
31
0
39
0
210
0
220
0
230
1
0
LINE
5
90
100
AcDbEntity
8
1
62
256
6
ByLayer
370
18
48
1
60
0
100
AcDbLine
10
22.75642
20
18.407445
30
0
11
22.956597
21
17.872045
31
0
39
0
210
0
220
0
230
1
0
LINE
5
91
100
AcDbEntity
8
1
62
256
6
ByLayer
370
18
48
1
60
0
100
AcDbLine
10
14.002692
20
6.289357
30
0
11
17.302531
21
8.867475
31
0
39
0
210
0
220
0
230
1
0
LINE
5
92
100
AcDbEntity
8
1
62
256
6
ByLayer
370
18
48
1
60
0
100
AcDbLine
10
13.941125
20
6.368158
30
0
11
17.128403
21
8.858332
31
0
39
0
210
0
220
0
230
1
0
LINE
5
93
100
AcDbEntity
8
1
62
256
6
ByLayer
370
18
48
1
60
0
100
AcDbLine
10
22.854077
20
18.431793
30
0
11
23.039226
21
17.936591
31
0
39
0
210
0
220
0
230
1
0
LINE
5
94
100
AcDbEntity
8
1
62
256
6
ByLayer
370
18
48
1
60
0
100
AcDbLine
10
26.254609
20
9.336659
30
0
11
26.694642
21
8.159736
31
0
39
0
210
0
220
0
230
1
0
LINE
5
95
100
AcDbEntity
8
1
62
256
6
ByLayer
370
13
48
1
60
0
100
AcDbLine
10
13.941125
20
6.368158
30
0
11
14.002692
21
6.289357
31
0
39
0
210
0
220
0
230
1
0
LINE
5
96
100
AcDbEntity
8
1
62
256
6
ByLayer
370
13
48
1
60
0
100
AcDbLine
10
13.523175
20
8.669433
30
0
11
27.342819
21
9.393689
31
0
39
0
210
0
220
0
230
1
0
LINE
5
97
100
AcDbEntity
8
1
62
256
6
ByLayer
370
13
48
1
60
0
100
AcDbLine
10
27.789959
20
9.560868
30
0
11
38.694931
21
18.080766
31
0
39
0
210
0
220
0
230
1
0
LINE
5
98
100
AcDbEntity
8
1
62
256
6
ByLayer
370
13
48
1
60
0
100
AcDbLine
10
23.897925
20
18.607477
30
0
11
12.992952
21
10.087578
31
0
39
0
210
0
220
0
230
1
0
LINE
5
99
100
AcDbEntity
8
1
62
256
6
ByLayer
370
13
48
1
60
0
100
AcDbLine
10
38.164708
20
19.498912
30
0
11
24.345065
21
18.774655
31
0
39
0
210
0
220
0
230
1
0
LINE
5
9A
100
AcDbEntity
8
1
62
256
6
ByLayer
370
18
48
1
60
0
100
AcDbLine
10
16.375883
20
-2.581969
30
0
11
15.991089
21
-2.90485
31
0
39
0
210
0
220
0
230
1
0
LINE
5
9B
100
AcDbEntity
8
1
62
256
6
ByLayer
370
18
48
1
60
0
100
AcDbLine
10
22.75642
20
18.407445
30
0
11
22.441918
21
18.329031
31
0
39
0
210
0
220
0
230
1
0
LINE
5
9C
100
AcDbEntity
8
1
62
256
6
ByLayer
370
18
48
1
60
0
100
AcDbLine
10
2.187778
20
13.279106
30
0
11
4.47605
21
13.849636
31
0
39
0
210
0
220
0
230
1
0
LINE
5
9D
100
AcDbEntity
8
1
62
256
6
ByLayer
370
18
48
1
60
0
100
AcDbLine
10
26.27956
20
5.728203
30
0
11
16.375883
21
-2.581969
31
0
39
0
210
0
220
0
230
1
0
LINE
5
9E
100
AcDbEntity
8
1
62
256
6
ByLayer
370
18
48
1
60
0
100
AcDbLine
10
15.991089
20
-2.90485
30
0
11
15.634314
21
-2.38574
31
0
39
0
210
0
220
0
230
1
0
LINE
5
9F
100
AcDbEntity
8
1
62
256
6
ByLayer
370
18
48
1
60
0
100
AcDbLine
10
22.854077
20
18.431793
30
0
11
23.592098
21
18.615802
31
0
39
0
210
0
220
0
230
1
0
LINE
5
A0
100
AcDbEntity
8
1
62
256
6
ByLayer
370
18
48
1
60
0
100
AcDbLine
10
14.963391
20
-3.76719
30
0
11
15.991089
21
-2.90485
31
0
39
0
210
0
220
0
230
1
0
LINE
5
A1
100
AcDbEntity
8
1
62
256
6
ByLayer
370
18
48
1
60
0
100
AcDbLine
10
4.993998
20
13.978775
30
0
11
4.47605
21
13.849636
31
0
39
0
210
0
220
0
230
1
0
LINE
5
A2
100
AcDbEntity
8
1
62
256
6
ByLayer
370
18
48
1
60
0
100
AcDbLine
10
22.441918
20
18.329031
30
0
11
4.993998
21
13.978775
31
0
39
0
210
0
220
0
230
1
0
LINE
5
A3
100
AcDbEntity
8
1
62
256
6
ByLayer
370
18
48
1
60
0
100
AcDbLine
10
22.854077
20
18.431793
30
0
11
22.75642
21
18.407445
31
0
39
0
210
0
220
0
230
1
0
LINE
5
A4
100
AcDbEntity
8
1
62
256
6
ByLayer
370
18
48
1
60
0
100
AcDbLine
10
4.556034
20
-12.5
30
0
11
12.734455
21
-5.63749
31
0
39
0
210
0
220
0
230
1
0
LINE
5
A5
100
AcDbEntity
8
1
62
256
6
ByLayer
370
18
48
1
60
0
100
AcDbLine
10
0
20
-12.5
30
0
11
4.556034
21
-12.5
31
0
39
0
210
0
220
0
230
1
0
LINE
5
A6
100
AcDbEntity
8
1
62
256
6
ByLayer
370
18
48
1
60
0
100
AcDbLine
10
0
20
12.425
30
0
11
0
21
-12.5
31
0
39
0
210
0
220
0
230
1
0
LINE
5
A7
100
AcDbEntity
8
1
62
256
6
ByLayer
370
18
48
1
60
0
100
AcDbLine
10
0
20
12.425
30
0
11
0.772277
21
12.425
31
0
39
0
210
0
220
0
230
1
0
LINE
5
A8
100
AcDbEntity
8
1
62
256
6
ByLayer
370
18
48
1
60
0
100
AcDbLine
10
10.426123
20
5.192226
30
0
11
4.47605
21
13.849636
31
0
39
0
210
0
220
0
230
1
0
LINE
5
A9
100
AcDbEntity
8
SK1
62
256
6
ByLayer
370
18
48
1
60
0
100
AcDbLine
10
-81
20
-12.5
30
0
11
-1.5
21
-12.5
31
0
39
0
210
0
220
0
230
1
0
LINE
5
AA
100
AcDbEntity
8
SK1
62
256
6
ByLayer
370
18
48
1
60
0
100
AcDbLine
10
-84
20
9.425
30
0
11
-84
21
-9.5
31
0
39
0
210
0
220
0
230
1
0
LINE
5
AB
100
AcDbEntity
8
SK1
62
256
6
ByLayer
370
18
48
1
60
0
100
AcDbLine
10
-0.995179
20
12.425
30
0
11
0
21
12.425
31
0
39
0
210
0
220
0
230
1
0
LINE
5
AC
100
AcDbEntity
8
SK1
62
256
6
ByLayer
370
18
48
1
60
0
100
AcDbLine
10
-0.995179
20
-12.5
30
0
11
0
21
-12.5
31
0
39
0
210
0
220
0
230
1
0
LINE
5
AD
100
AcDbEntity
8
SK1
62
256
6
ByLayer
370
18
48
1
60
0
100
AcDbLine
10
-81
20
12.425
30
0
11
-1.5
21
12.425
31
0
39
0
210
0
220
0
230
1
0
LINE
5
AE
100
AcDbEntity
8
SK1
62
256
6
ByLayer
370
18
48
1
60
0
100
AcDbLine
10
-81
20
12.425
30
0
11
-84
21
9.425
31
0
39
0
210
0
220
0
230
1
0
LINE
5
AF
100
AcDbEntity
8
SK1
62
256
6
ByLayer
370
18
48
1
60
0
100
AcDbLine
10
-1.5
20
-12.5
30
0
11
-0.995179
21
-12.5
31
0
39
0
210
0
220
0
230
1
0
LINE
5
B0
100
AcDbEntity
8
SK1
62
256
6
ByLayer
370
18
48
1
60
0
100
AcDbLine
10
-0.995179
20
12.425
30
0
11
-0.995179
21
-12.5
31
0
39
0
210
0
220
0
230
1
0
LINE
5
B1
100
AcDbEntity
8
SK1
62
256
6
ByLayer
370
18
48
1
60
0
100
AcDbLine
10
-81
20
-12.5
30
0
11
-84
21
-9.5
31
0
39
0
210
0
220
0
230
1
0
LINE
5
B2
100
AcDbEntity
8
SK1
62
256
6
ByLayer
370
18
48
1
60
0
100
AcDbLine
10
0
20
12.425
30
0
11
0
21
-12.5
31
0
39
0
210
0
220
0
230
1
0
LINE
5
B3
100
AcDbEntity
8
SK1
62
256
6
ByLayer
370
18
48
1
60
0
100
AcDbLine
10
-1.5
20
12.425
30
0
11
-0.995179
21
12.425
31
0
39
0
210
0
220
0
230
1
0
MTEXT
5
110
100
AcDbEntity
8
SK6
62
256
6
ByLayer
370
18
48
1
60
0
100
AcDbMText
10
-39.07042
20
-51.125025
30
0
210
0
220
0
230
1
1
\W0.7921;QS-SVJBR252516C
40
3.5
41
0
44
1.084337
50
0
71
7
72
5
7
iso_b_vert
0
DIMENSION
5
121
100
AcDbEntity
8
2
62
256
6
ByLayer
370
13
48
1
60
0
100
AcDbDimension
2
DimnDraft3D1
10
34.522884
20
19.5
30
0
11
34.522884
21
-0.607895
31
0
70
32
71
5
72
1
41
1
210
0
220
0
230
1
3
Standard
100
AcDbAlignedDimension
13
34
23
-12.5
33
0
14
37
24
19.5
34
0
50
90
100
AcDbRotatedDimension
1001
ACAD
1000
DSTYLE
1002
{
1070
    74
1070
     0
1070
   279
1070
     0
1070
   172
1070
     1
1070
   173
1070
     1
1070
   340
1005
111
1070
   271
1070
     1
1070
    77
1070
     1
1070
    73
1070
     0
1070
   171
1070
     3
1070
   274
1070
     4
1070
   177
1070
     2
1070
   176
1070
     2
1070
   178
1070
     7
1070
    78
1070
     8
1070
    41
1041
3.175
1070
   147
1041
1.75
1070
    42
1041
2.0
1070
    44
1041
2.0
1070
   140
1041
3.5
1070
   343
1005
122
1070
   344
1005
122
1002
}
0
DIMENSION
5
136
100
AcDbEntity
8
SK2
62
256
6
ByLayer
370
13
48
1
60
0
100
AcDbDimension
2
DimnDraft3D2
10
-98.60005
20
-12.5
30
0
11
-98.60005
21
-4.107895
31
0
70
32
71
5
72
1
41
1
210
0
220
0
230
1
3
Standard
100
AcDbAlignedDimension
13
-2
23
12.5
33
0
14
-86
24
-12.5
34
0
50
90
100
AcDbRotatedDimension
1001
ACAD
1000
DSTYLE
1002
{
1070
    74
1070
     0
1070
   279
1070
     0
1070
   172
1070
     1
1070
   173
1070
     1
1070
   340
1005
111
1070
   271
1070
     1
1070
    77
1070
     1
1070
    73
1070
     0
1070
   171
1070
     3
1070
   274
1070
     4
1070
   177
1070
     2
1070
   176
1070
     2
1070
   178
1070
     7
1070
    78
1070
     8
1070
    41
1041
3.175
1070
   147
1041
1.75
1070
    42
1041
2.0
1070
    44
1041
2.0
1070
   140
1041
3.5
1070
   343
1005
122
1070
   344
1005
122
1002
}
0
DIMENSION
5
144
100
AcDbEntity
8
2
62
256
6
ByLayer
370
13
48
1
60
0
100
AcDbDimension
2
DimnDraft3D3
10
44
20
19.5
30
0
11
32.556998
21
27.295799
31
0
70
34
71
5
72
1
41
1
210
0
220
0
230
1
3
Standard
100
AcDb2LineAngularDimension
13
39
23
19.5
33
0
14
38.737961
24
14.5
34
0
15
39
25
19.5
35
0
16
34.103258
26
24.660089
36
0
40
0
0
DIMENSION
5
152
100
AcDbEntity
8
SK2
62
256
6
ByLayer
370
13
48
1
60
0
100
AcDbDimension
2
DimnDraft3D4
10
39
20
-40.344955
30
0
11
-27.478289
21
-40.344955
31
0
70
32
71
5
72
1
41
1
210
0
220
0
230
1
3
Standard
100
AcDbAlignedDimension
13
-84
23
-14.5
33
0
14
39
24
17.5
34
0
50
0
100
AcDbRotatedDimension
1001
ACAD
1000
DSTYLE
1002
{
1070
   279
1070
     0
1070
   172
1070
     1
1070
   173
1070
     1
1070
   340
1005
111
1070
   271
1070
     1
1070
    77
1070
     1
1070
    73
1070
     0
1070
   171
1070
     3
1070
   274
1070
     4
1070
   177
1070
     2
1070
   176
1070
     2
1070
   178
1070
     7
1070
    78
1070
     8
1070
    41
1041
3.175
1070
   147
1041
1.75
1070
    42
1041
2.0
1070
    44
1041
2.0
1070
   140
1041
3.5
1070
   343
1005
122
1070
   344
1005
122
1002
}
0
DIMENSION
5
160
100
AcDbEntity
8
2
62
256
6
ByLayer
370
13
48
1
60
0
100
AcDbDimension
2
DimnDraft3D5
10
39
20
-25.60005
30
0
11
15.392105
21
-25.60005
31
0
70
32
71
5
72
1
41
1
210
0
220
0
230
1
3
Standard
100
AcDbAlignedDimension
13
0
23
10.5
33
0
14
39
24
17.5
34
0
50
0
100
AcDbRotatedDimension
1001
ACAD
1000
DSTYLE
1002
{
1070
   279
1070
     0
1070
   172
1070
     1
1070
   173
1070
     1
1070
   340
1005
111
1070
   271
1070
     1
1070
    77
1070
     1
1070
    73
1070
     0
1070
   171
1070
     3
1070
   274
1070
     4
1070
   177
1070
     2
1070
   176
1070
     2
1070
   178
1070
     7
1070
    78
1070
     8
1070
    41
1041
3.175
1070
   147
1041
1.75
1070
    42
1041
2.0
1070
    44
1041
2.0
1070
   140
1041
3.5
1070
   343
1005
122
1070
   344
1005
122
1002
}
0
DIMENSION
5
16E
100
AcDbEntity
8
SK2
62
256
6
ByLayer
370
13
48
1
60
0
100
AcDbDimension
2
DimnDraft3D6
10
-81
20
-25.60005
30
0
11
-65.145
21
-25.60005
31
0
70
32
71
5
72
1
41
1
210
0
220
0
230
1
3
Standard
100
AcDbAlignedDimension
13
-84
23
-14.5
33
0
14
-81
24
-14.5
34
0
50
0
100
AcDbRotatedDimension
1001
ACAD
1000
DSTYLE
1002
{
1070
   279
1070
     0
1070
   172
1070
     1
1070
   173
1070
     1
1070
   340
1005
111
1070
    77
1070
     1
1070
    73
1070
     0
1070
   171
1070
     3
1070
   274
1070
     4
1070
   177
1070
     2
1070
   176
1070
     2
1070
   178
1070
     7
1070
    78
1070
     8
1070
    41
1041
3.175
1070
   147
1041
1.75
1070
    42
1041
2.0
1070
    44
1041
2.0
1070
   140
1041
3.5
1070
   343
1005
122
1070
   344
1005
122
1002
}
0
ENDSEC
0
SECTION
2
OBJECTS
0
DICTIONARY
5
1d8
330
0
100
AcDbDictionary
280
0
281
1
3
ACAD_GROUP
350
1d9
3
ACAD_MLINESTYLE
350
1da
0
DICTIONARY
5
1d9
330
0
100
AcDbDictionary
280
0
281
1
0
DICTIONARY
5
1da
330
0
100
AcDbDictionary
280
0
281
1
3
Standard
350
18
0
MLINESTYLE
5
18
330
1da
100
AcDbMlineStyle
2
Standard
70
0
3

62
256
51
90
52
90
71
2
49
-0.5
62
256
6
ByLayer
49
0.5
62
256
6
ByLayer
0
RASTERVARIABLES
5
1c7
330

100
AcDbRasterVariables
90
0
70
1
71
1
72
1
0
ENDSEC
0
EOF
