0
SECTION
2
HEADER
9
$ACADVER
1
AC1015
9
$DWGCODEPAGE
3
ANSI_1252
9
$HANDSEED
5
1e4
9
$ANGBASE
50
0
9
$ANGDIR
70
0
9
$ATTMODE
70
1
9
$AUNITS
70
0
9
$AUPREC
70
0
9
$CECOLOR
62
256
9
$CELTSCALE
40
1
9
$CELTYPE
6
ByLayer
9
$CELWEIGHT
370
18
9
$CLAYER
8
0
9
$CMLJUST
70
0
9
$CMLSCALE
40
1
9
$CMLSTYLE
2
Standard
9
$DIMSTYLE
2
Standard
9
$TEXTSIZE
40
0.2
9
$TEXTSTYLE
7
Standard
9
$LUNITS
70
2
9
$LUPREC
70
4
9
$EXTNAMES
290
1
9
$INSUNITS
70
4
9
$LTSCALE
40
1
9
$LWDISPLAY
290
1
9
$PDMODE
70
0
9
$PDSIZE
40
0
9
$PLINEGEN
70
0
0
ENDSEC
0
SECTION
2
CLASSES
0
CLASS
1
RASTERVARIABLES
2
AcDbRasterVariables
3
ISM
90
0
280
0
281
0
0
ENDSEC
0
SECTION
2
TABLES
0
TABLE
2
VPORT
5
1da
100
AcDbSymbolTable
0
VPORT
5
1
100
AcDbSymbolTableRecord
100
AcDbViewportTableRecord
2
*Active
70
0
10
0
20
0
11
1
21
1
12
-1
22
1
13
0
23
0
14
0.5
24
0.5
15
10
25
10
16
0
26
0
36
1
17
0
27
0
37
0
0
ENDTAB
0
TABLE
2
LTYPE
5
1db
100
AcDbSymbolTable
0
LTYPE
5
14
100
AcDbSymbolTableRecord
100
AcDbLinetypeTableRecord
70
0
2
ByBlock
3

72
65
73
0
40
0
0
LTYPE
5
15
100
AcDbSymbolTableRecord
100
AcDbLinetypeTableRecord
70
0
2
ByLayer
3

72
65
73
0
40
0
0
LTYPE
5
16
100
AcDbSymbolTableRecord
100
AcDbLinetypeTableRecord
70
0
2
CONTINUOUS
3
Solid line
72
65
73
0
40
0
0
LTYPE
5
6A
100
AcDbSymbolTableRecord
100
AcDbLinetypeTableRecord
70
0
2
CENTER
3
____ _ ____ _ ____ _ ____
72
65
73
4
40
47.5
49
22
74
0
49
-8.5
74
0
49
8.5
74
0
49
-8.5
74
0
0
LTYPE
5
6B
100
AcDbSymbolTableRecord
100
AcDbLinetypeTableRecord
70
0
2
DASHED
3
__ __ __ __ __ __ __ __ __
72
65
73
2
40
25.72
49
12.86
74
0
49
-12.86
74
0
0
ENDTAB
0
TABLE
2
LAYER
5
1dc
100
AcDbSymbolTable
0
LAYER
5
10
100
AcDbSymbolTableRecord
100
AcDbLayerTableRecord
2
0
70
0
62
7
6
CONTINUOUS
290
1
370
-3
390
0
0
LAYER
5
6D
100
AcDbSymbolTableRecord
100
AcDbLayerTableRecord
2
80
70
0
62
-6
6
CONTINUOUS
290
1
370
-3
390
0
0
LAYER
5
6F
100
AcDbSymbolTableRecord
100
AcDbLayerTableRecord
2
81
70
0
62
-3
6
CONTINUOUS
290
1
370
-3
390
0
0
LAYER
5
73
100
AcDbSymbolTableRecord
100
AcDbLayerTableRecord
2
2
70
0
62
7
6
CONTINUOUS
290
1
370
-3
390
0
0
LAYER
5
7D
100
AcDbSymbolTableRecord
100
AcDbLayerTableRecord
2
1
70
0
62
4
6
CONTINUOUS
290
1
370
-3
390
0
0
LAYER
5
1c7
100
AcDbSymbolTableRecord
100
AcDbLayerTableRecord
2
SK2
70
0
62
7
6
CONTINUOUS
290
1
370
-3
390
0
0
LAYER
5
1c8
100
AcDbSymbolTableRecord
100
AcDbLayerTableRecord
2
SK1
70
0
62
4
6
CONTINUOUS
290
1
370
-3
390
0
0
LAYER
5
1c9
100
AcDbSymbolTableRecord
100
AcDbLayerTableRecord
2
SK6
70
0
62
5
6
CONTINUOUS
290
1
370
-3
390
0
0
ENDTAB
0
TABLE
2
STYLE
5
1dd
100
AcDbSymbolTable
0
STYLE
5
11
100
AcDbSymbolTableRecord
100
AcDbTextStyleTableRecord
2
Standard
3
txt
70
0
71
0
40
0
41
1
42
0
50
0
0
STYLE
5
11D
100
AcDbSymbolTableRecord
100
AcDbTextStyleTableRecord
2
iso_b_vert
3
simplex.shx
70
0
71
0
40
0
41
1
42
0
50
0
0
STYLE
5
11E
100
AcDbSymbolTableRecord
100
AcDbTextStyleTableRecord
2
DWGDirectTextStyle
3
simplex
70
0
71
0
40
0
41
1
42
0
50
0
0
ENDTAB
0
TABLE
2
DIMSTYLE
5
1de
100
AcDbSymbolTable
100
AcDbDimStyleTable
0
DIMSTYLE
105
27
100
AcDbSymbolTableRecord
100
AcDbDimStyleTableRecord
2
Standard
70
0
3
<>
41
0.18
42
0.0625
44
0.18
140
0.18
147
0.09
73
0
74
0
77
1
271
2
275
0
278
52
280
0
340
11
0
ENDTAB
0
TABLE
2
VIEW
5
1df
100
AcDbSymbolTable
0
ENDTAB
0
TABLE
2
UCS
5
1e0
100
AcDbSymbolTable
0
ENDTAB
0
TABLE
2
APPID
5
1e1
100
AcDbSymbolTable
0
APPID
5
12
100
AcDbSymbolTableRecord
100
AcDbRegAppTableRecord
2
ACAD
70
0
0
ENDTAB
0
TABLE
2
BLOCK_RECORD
5
1e2
100
AcDbSymbolTable
0
BLOCK_RECORD
5
1F
100
AcDbSymbolTableRecord
100
AcDbBlockTableRecord
2
*Model_Space
340
0
70
0
0
BLOCK_RECORD
5
1B
100
AcDbSymbolTableRecord
100
AcDbBlockTableRecord
2
*Paper_Space
340
0
70
0
0
BLOCK_RECORD
5
23
100
AcDbSymbolTableRecord
100
AcDbBlockTableRecord
2
*Paper_Space0
340
0
70
0
0
BLOCK_RECORD
5
121
100
AcDbSymbolTableRecord
100
AcDbBlockTableRecord
2
DimnDraft3D1
340
0
70
0
0
BLOCK_RECORD
5
12F
100
AcDbSymbolTableRecord
100
AcDbBlockTableRecord
2
_CLOSED
340
0
70
0
0
BLOCK_RECORD
5
136
100
AcDbSymbolTableRecord
100
AcDbBlockTableRecord
2
DimnDraft3D2
340
0
70
0
0
BLOCK_RECORD
5
144
100
AcDbSymbolTableRecord
100
AcDbBlockTableRecord
2
DimnDraft3D3
340
0
70
0
0
BLOCK_RECORD
5
152
100
AcDbSymbolTableRecord
100
AcDbBlockTableRecord
2
DimnDraft3D4
340
0
70
0
0
BLOCK_RECORD
5
160
100
AcDbSymbolTableRecord
100
AcDbBlockTableRecord
2
DimnDraft3D5
340
0
70
0
0
ENDTAB
0
ENDSEC
0
SECTION
2
BLOCKS
0
BLOCK
5
20
100
AcDbEntity
8
0
100
AcDbBlockBegin
2
*Model_Space
70
0
10
0
20
0
30
0
3
*Model_Space
0
ENDBLK
5
21
100
AcDbEntity
8
0
100
AcDbBlockEnd
0
BLOCK
5
1C
100
AcDbEntity
8
0
100
AcDbBlockBegin
2
*Paper_Space
70
0
10
0
20
0
30
0
3
*Paper_Space
0
ENDBLK
5
1D
100
AcDbEntity
8
0
100
AcDbBlockEnd
0
BLOCK
5
24
100
AcDbEntity
8
0
100
AcDbBlockBegin
2
*Paper_Space0
70
0
10
0
20
0
30
0
3
*Paper_Space0
0
ENDBLK
5
25
100
AcDbEntity
8
0
100
AcDbBlockEnd
0
BLOCK
5
12C
100
AcDbEntity
8
0
100
AcDbBlockBegin
2
DimnDraft3D1
70
0
10
0
20
0
30
0
3
DimnDraft3D1
0
MTEXT
5
122
100
AcDbEntity
8
2
62
256
6
ByLayer
370
18
48
1
60
0
100
AcDbMText
10
16.267105
20
-27.225
30
0
210
0
220
0
230
1
1
\W0.7346;39.0
40
3.5
41
0
44
1.084337
50
0
71
7
72
5
7
iso_b_vert
0
LINE
5
123
100
AcDbEntity
8
2
62
256
6
ByLayer
370
13
48
1
60
0
100
AcDbLine
10
0
20
8
30
0
11
0
21
-30.1
31
0
39
0
210
0
220
0
230
1
0
LINE
5
124
100
AcDbEntity
8
2
62
256
6
ByLayer
370
13
48
1
60
0
100
AcDbLine
10
39
20
-17
30
0
11
39
21
-30.1
31
0
39
0
210
0
220
0
230
1
0
LINE
5
125
100
AcDbEntity
8
2
62
256
6
ByLayer
370
13
48
1
60
0
100
AcDbLine
10
0
20
-28.1
30
0
11
39
21
-28.1
31
0
39
0
210
0
220
0
230
1
0
LINE
5
126
100
AcDbEntity
8
2
62
256
6
ByLayer
370
13
48
1
60
0
100
AcDbLine
10
0
20
-28.1
30
0
11
3.174998
21
-27.682003
31
0
39
0
210
0
220
0
230
1
0
LINE
5
127
100
AcDbEntity
8
2
62
256
6
ByLayer
370
13
48
1
60
0
100
AcDbLine
10
0
20
-28.1
30
0
11
3.175002
21
-28.517997
31
0
39
0
210
0
220
0
230
1
0
LINE
5
128
100
AcDbEntity
8
2
62
256
6
ByLayer
370
13
48
1
60
0
100
AcDbLine
10
3.174998
20
-27.682003
30
0
11
3.175002
21
-28.517997
31
0
39
0
210
0
220
0
230
1
0
LINE
5
129
100
AcDbEntity
8
2
62
256
6
ByLayer
370
13
48
1
60
0
100
AcDbLine
10
39
20
-28.1
30
0
11
35.825002
21
-28.517997
31
0
39
0
210
0
220
0
230
1
0
LINE
5
12A
100
AcDbEntity
8
2
62
256
6
ByLayer
370
13
48
1
60
0
100
AcDbLine
10
39
20
-28.1
30
0
11
35.824998
21
-27.682003
31
0
39
0
210
0
220
0
230
1
0
LINE
5
12B
100
AcDbEntity
8
2
62
256
6
ByLayer
370
13
48
1
60
0
100
AcDbLine
10
35.825002
20
-28.517997
30
0
11
35.824998
21
-27.682003
31
0
39
0
210
0
220
0
230
1
0
ENDBLK
5
12D
100
AcDbEntity
8
0
100
AcDbBlockEnd
0
BLOCK
5
130
100
AcDbEntity
8
0
100
AcDbBlockBegin
2
_CLOSED
70
0
10
0
20
0
30
0
3
_CLOSED
0
LINE
5
132
100
AcDbEntity
8
0
62
256
6
ByLayer
370
-2
48
1
60
0
100
AcDbLine
10
-1
20
0.166667
30
0
11
0
21
0
31
0
39
0
210
0
220
0
230
1
0
LINE
5
133
100
AcDbEntity
8
0
62
256
6
ByLayer
370
-2
48
1
60
0
100
AcDbLine
10
0
20
0
30
0
11
-1
21
-0.166667
31
0
39
0
210
0
220
0
230
1
0
LINE
5
134
100
AcDbEntity
8
0
62
256
6
ByLayer
370
-2
48
1
60
0
100
AcDbLine
10
-1
20
0.166667
30
0
11
-1
21
-0.166667
31
0
39
0
210
0
220
0
230
1
0
LINE
5
135
100
AcDbEntity
8
0
62
256
6
ByLayer
370
-2
48
1
60
0
100
AcDbLine
10
0
20
0
30
0
11
-1
21
0
31
0
39
0
210
0
220
0
230
1
0
ENDBLK
5
131
100
AcDbEntity
8
0
100
AcDbBlockEnd
0
BLOCK
5
141
100
AcDbEntity
8
0
100
AcDbBlockBegin
2
DimnDraft3D2
70
0
10
0
20
0
30
0
3
DimnDraft3D2
0
MTEXT
5
137
100
AcDbEntity
8
2
62
256
6
ByLayer
370
18
48
1
60
0
100
AcDbMText
10
33.953087
20
-5.732895
30
0
210
0
220
0
230
1
1
\W0.7346;25.0
40
3.5
41
0
44
1.084337
50
90
71
7
72
5
7
iso_b_vert
0
LINE
5
138
100
AcDbEntity
8
2
62
256
6
ByLayer
370
13
48
1
60
0
100
AcDbLine
10
2
20
10
30
0
11
36.828087
21
10
31
0
39
0
210
0
220
0
230
1
0
LINE
5
139
100
AcDbEntity
8
2
62
256
6
ByLayer
370
13
48
1
60
0
100
AcDbLine
10
37
20
-15
30
0
11
32.828087
21
-15
31
0
39
0
210
0
220
0
230
1
0
LINE
5
13A
100
AcDbEntity
8
2
62
256
6
ByLayer
370
13
48
1
60
0
100
AcDbLine
10
34.828087
20
10
30
0
11
34.828087
21
-15
31
0
39
0
210
0
220
0
230
1
0
LINE
5
13B
100
AcDbEntity
8
2
62
256
6
ByLayer
370
13
48
1
60
0
100
AcDbLine
10
34.828087
20
10
30
0
11
35.246084
21
6.825002
31
0
39
0
210
0
220
0
230
1
0
LINE
5
13C
100
AcDbEntity
8
2
62
256
6
ByLayer
370
13
48
1
60
0
100
AcDbLine
10
34.828087
20
10
30
0
11
34.41009
21
6.824998
31
0
39
0
210
0
220
0
230
1
0
LINE
5
13D
100
AcDbEntity
8
2
62
256
6
ByLayer
370
13
48
1
60
0
100
AcDbLine
10
35.246084
20
6.825002
30
0
11
34.41009
21
6.824998
31
0
39
0
210
0
220
0
230
1
0
LINE
5
13E
100
AcDbEntity
8
2
62
256
6
ByLayer
370
13
48
1
60
0
100
AcDbLine
10
34.828087
20
-15
30
0
11
34.41009
21
-11.825002
31
0
39
0
210
0
220
0
230
1
0
LINE
5
13F
100
AcDbEntity
8
2
62
256
6
ByLayer
370
13
48
1
60
0
100
AcDbLine
10
34.828087
20
-15
30
0
11
35.246084
21
-11.824998
31
0
39
0
210
0
220
0
230
1
0
LINE
5
140
100
AcDbEntity
8
2
62
256
6
ByLayer
370
13
48
1
60
0
100
AcDbLine
10
34.41009
20
-11.825002
30
0
11
35.246084
21
-11.824998
31
0
39
0
210
0
220
0
230
1
0
ENDBLK
5
142
100
AcDbEntity
8
0
100
AcDbBlockEnd
0
BLOCK
5
14F
100
AcDbEntity
8
0
100
AcDbBlockBegin
2
DimnDraft3D3
70
0
10
0
20
0
30
0
3
DimnDraft3D3
0
MTEXT
5
145
100
AcDbEntity
8
2
62
256
6
ByLayer
370
18
48
1
60
0
100
AcDbMText
10
41.325502
20
-7.718432
30
0
210
0
220
0
230
1
1
\W0.8292;93%%d0'
40
3
41
0
44
1.084337
50
313.80487463824
71
7
72
5
7
iso_b_vert
0
LINE
5
146
100
AcDbEntity
8
2
62
256
6
ByLayer
370
13
48
1
60
0
100
AcDbLine
10
46
20
-15
30
0
11
46.968653
21
-15
31
0
39
0
210
0
220
0
230
1
0
LINE
5
147
100
AcDbEntity
8
2
62
256
6
ByLayer
370
13
48
1
60
0
100
AcDbLine
10
38.633289
20
-8.002741
30
0
11
38.582953
21
-7.042268
31
0
39
0
210
0
220
0
230
1
0
ARC
5
148
100
AcDbEntity
8
2
62
256
6
ByLayer
370
13
48
1
60
0
100
AcDbCircle
39
0
10
39
20
-15
30
0
40
5.96865271337743
210
0
220
0
230
1
100
AcDbArc
50
0
51
93
0
LINE
5
149
100
AcDbEntity
8
2
62
256
6
ByLayer
370
13
48
1
60
0
100
AcDbLine
10
44.968653
20
-15
30
0
11
44.142665
21
-11.90596
31
0
39
0
210
0
220
0
230
1
0
LINE
5
14A
100
AcDbEntity
8
2
62
256
6
ByLayer
370
13
48
1
60
0
100
AcDbLine
10
44.968653
20
-15
30
0
11
44.971606
21
-11.797603
31
0
39
0
210
0
220
0
230
1
0
LINE
5
14B
100
AcDbEntity
8
2
62
256
6
ByLayer
370
13
48
1
60
0
100
AcDbLine
10
44.142665
20
-11.90596
30
0
11
44.971606
21
-11.797603
31
0
39
0
210
0
220
0
230
1
0
LINE
5
14C
100
AcDbEntity
8
2
62
256
6
ByLayer
370
13
48
1
60
0
100
AcDbLine
10
38.687625
20
-9.039527
30
0
11
41.885476
21
-8.868977
31
0
39
0
210
0
220
0
230
1
0
LINE
5
14D
100
AcDbEntity
8
2
62
256
6
ByLayer
370
13
48
1
60
0
100
AcDbLine
10
38.687625
20
-9.039527
30
0
11
41.820656
21
-9.702453
31
0
39
0
210
0
220
0
230
1
0
LINE
5
14E
100
AcDbEntity
8
2
62
256
6
ByLayer
370
13
48
1
60
0
100
AcDbLine
10
41.885476
20
-8.868977
30
0
11
41.820656
21
-9.702453
31
0
39
0
210
0
220
0
230
1
0
ENDBLK
5
150
100
AcDbEntity
8
0
100
AcDbBlockEnd
0
BLOCK
5
15D
100
AcDbEntity
8
0
100
AcDbBlockBegin
2
DimnDraft3D4
70
0
10
0
20
0
30
0
3
DimnDraft3D4
0
MTEXT
5
153
100
AcDbEntity
8
SK2
62
256
6
ByLayer
370
18
48
1
60
0
100
AcDbMText
10
-19.103289
20
24.196295
30
0
210
0
220
0
230
1
1
\W0.6864;108.0
40
3.5
41
0
44
1.084337
50
0
71
7
72
5
7
iso_b_vert
0
LINE
5
154
100
AcDbEntity
8
SK2
62
256
6
ByLayer
370
13
48
1
60
0
100
AcDbLine
10
-69
20
12
30
0
11
-69
21
25.321295
31
0
39
0
210
0
220
0
230
1
0
LINE
5
155
100
AcDbEntity
8
SK2
62
256
6
ByLayer
370
13
48
1
60
0
100
AcDbLine
10
39
20
-13
30
0
11
39
21
25.321295
31
0
39
0
210
0
220
0
230
1
0
LINE
5
156
100
AcDbEntity
8
SK2
62
256
6
ByLayer
370
13
48
1
60
0
100
AcDbLine
10
-69
20
23.321295
30
0
11
39
21
23.321295
31
0
39
0
210
0
220
0
230
1
0
LINE
5
157
100
AcDbEntity
8
SK2
62
256
6
ByLayer
370
13
48
1
60
0
100
AcDbLine
10
-69
20
23.321295
30
0
11
-65.825002
21
23.739291
31
0
39
0
210
0
220
0
230
1
0
LINE
5
158
100
AcDbEntity
8
SK2
62
256
6
ByLayer
370
13
48
1
60
0
100
AcDbLine
10
-69
20
23.321295
30
0
11
-65.824998
21
22.903298
31
0
39
0
210
0
220
0
230
1
0
LINE
5
159
100
AcDbEntity
8
SK2
62
256
6
ByLayer
370
13
48
1
60
0
100
AcDbLine
10
-65.825002
20
23.739291
30
0
11
-65.824998
21
22.903298
31
0
39
0
210
0
220
0
230
1
0
LINE
5
15A
100
AcDbEntity
8
SK2
62
256
6
ByLayer
370
13
48
1
60
0
100
AcDbLine
10
39
20
23.321295
30
0
11
35.825002
21
22.903298
31
0
39
0
210
0
220
0
230
1
0
LINE
5
15B
100
AcDbEntity
8
SK2
62
256
6
ByLayer
370
13
48
1
60
0
100
AcDbLine
10
39
20
23.321295
30
0
11
35.824998
21
23.739291
31
0
39
0
210
0
220
0
230
1
0
LINE
5
15C
100
AcDbEntity
8
SK2
62
256
6
ByLayer
370
13
48
1
60
0
100
AcDbLine
10
35.825002
20
22.903298
30
0
11
35.824998
21
23.739291
31
0
39
0
210
0
220
0
230
1
0
ENDBLK
5
15E
100
AcDbEntity
8
0
100
AcDbBlockEnd
0
BLOCK
5
16B
100
AcDbEntity
8
0
100
AcDbBlockBegin
2
DimnDraft3D5
70
0
10
0
20
0
30
0
3
DimnDraft3D5
0
MTEXT
5
161
100
AcDbEntity
8
SK2
62
256
6
ByLayer
370
18
48
1
60
0
100
AcDbMText
10
-69.355921
20
-27.225
30
0
210
0
220
0
230
1
1
\W0.7121;3.0
40
3.5
41
0
44
1.084337
50
0
71
7
72
5
7
iso_b_vert
0
LINE
5
162
100
AcDbEntity
8
SK2
62
256
6
ByLayer
370
13
48
1
60
0
100
AcDbLine
10
-69
20
8
30
0
11
-69
21
-30.1
31
0
39
0
210
0
220
0
230
1
0
LINE
5
163
100
AcDbEntity
8
SK2
62
256
6
ByLayer
370
13
48
1
60
0
100
AcDbLine
10
-66
20
-12
30
0
11
-66
21
-30.1
31
0
39
0
210
0
220
0
230
1
0
LINE
5
164
100
AcDbEntity
8
SK2
62
256
6
ByLayer
370
13
48
1
60
0
100
AcDbLine
10
-77.75
20
-28.1
30
0
11
-57.25
21
-28.1
31
0
39
0
210
0
220
0
230
1
0
LINE
5
165
100
AcDbEntity
8
SK2
62
256
6
ByLayer
370
13
48
1
60
0
100
AcDbLine
10
-69
20
-28.1
30
0
11
-72.174998
21
-28.517997
31
0
39
0
210
0
220
0
230
1
0
LINE
5
166
100
AcDbEntity
8
SK2
62
256
6
ByLayer
370
13
48
1
60
0
100
AcDbLine
10
-69
20
-28.1
30
0
11
-72.175002
21
-27.682003
31
0
39
0
210
0
220
0
230
1
0
LINE
5
167
100
AcDbEntity
8
SK2
62
256
6
ByLayer
370
13
48
1
60
0
100
AcDbLine
10
-72.174998
20
-28.517997
30
0
11
-72.175002
21
-27.682003
31
0
39
0
210
0
220
0
230
1
0
LINE
5
168
100
AcDbEntity
8
SK2
62
256
6
ByLayer
370
13
48
1
60
0
100
AcDbLine
10
-66
20
-28.1
30
0
11
-62.825002
21
-27.682003
31
0
39
0
210
0
220
0
230
1
0
LINE
5
169
100
AcDbEntity
8
SK2
62
256
6
ByLayer
370
13
48
1
60
0
100
AcDbLine
10
-66
20
-28.1
30
0
11
-62.824998
21
-28.517997
31
0
39
0
210
0
220
0
230
1
0
LINE
5
16A
100
AcDbEntity
8
SK2
62
256
6
ByLayer
370
13
48
1
60
0
100
AcDbLine
10
-62.825002
20
-27.682003
30
0
11
-62.824998
21
-28.517997
31
0
39
0
210
0
220
0
230
1
0
ENDBLK
5
16C
100
AcDbEntity
8
0
100
AcDbBlockEnd
0
ENDSEC
0
SECTION
2
ENTITIES
0
ARC
5
BD
100
AcDbEntity
8
1
62
256
6
ByLayer
370
18
48
1
60
0
100
AcDbCircle
39
0
10
34.378495
20
-1.096846
30
0
40
8.1
210
0
220
0
230
1
100
AcDbArc
50
198.445719
51
207.901737
0
ARC
5
C1
100
AcDbEntity
8
1
62
256
6
ByLayer
370
13
48
1
60
0
100
AcDbCircle
39
0
10
5.835942
20
6.415911
30
0
40
3.84989857122395
210
0
220
0
230
1
100
AcDbArc
50
111.415534
51
231.58307
0
ARC
5
C2
100
AcDbEntity
8
1
62
256
6
ByLayer
370
13
48
1
60
0
100
AcDbCircle
39
0
10
5.835942
20
6.415911
30
0
40
3.84989857122395
210
0
220
0
230
1
100
AcDbArc
50
63.41693
51
68.584466
0
ARC
5
C3
100
AcDbEntity
8
1
62
256
6
ByLayer
370
13
48
1
60
0
100
AcDbCircle
39
0
10
-10.264285
20
-25.759244
30
0
40
39.8284740297181
210
0
220
0
230
1
100
AcDbArc
50
55.479028
51
63.41693
0
ARC
5
C4
100
AcDbEntity
8
1
62
256
6
ByLayer
370
13
48
1
60
0
100
AcDbCircle
39
0
10
28.192285
20
34.60548
30
0
40
39.8284740297181
210
0
220
0
230
1
100
AcDbArc
50
231.58307
51
239.520972
0
ARC
5
C5
100
AcDbEntity
8
1
62
256
6
ByLayer
370
13
48
1
60
0
100
AcDbCircle
39
0
10
9.425036
20
2.718329
30
0
40
2.82847402971812
210
0
220
0
230
1
100
AcDbArc
50
239.520972
51
325.656787
0
ARC
5
C6
100
AcDbEntity
8
1
62
256
6
ByLayer
370
13
48
1
60
0
100
AcDbCircle
39
0
10
10.703905
20
4.725752
30
0
40
2.82847402971812
210
0
220
0
230
1
100
AcDbArc
50
329.343213
51
55.479028
0
ARC
5
C7
100
AcDbEntity
8
1
62
256
6
ByLayer
370
13
48
1
60
0
100
AcDbCircle
39
0
10
-21.124867
20
23.59184
30
0
40
39.9600682379628
210
0
220
0
230
1
100
AcDbArc
50
322.392444
51
332.607556
0
ARC
5
C8
100
AcDbEntity
8
1
62
256
6
ByLayer
370
13
48
1
60
0
100
AcDbCircle
39
0
10
10.264285
20
-25.759244
30
0
40
41.4223855466649
210
0
220
0
230
-1
100
AcDbArc
50
120.312772
51
124.520972
0
ARC
5
C9
100
AcDbEntity
8
1
62
256
6
ByLayer
370
13
48
1
60
0
100
AcDbCircle
39
0
10
-9.425036
20
2.718329
30
0
40
4.42238554666492
210
0
220
0
230
-1
100
AcDbArc
50
262.904924
51
300.479028
0
ARC
5
CA
100
AcDbEntity
8
1
62
256
6
ByLayer
370
13
48
1
60
0
100
AcDbCircle
39
0
10
-5.835942
20
6.415911
30
0
40
5.44381008817074
210
0
220
0
230
-1
100
AcDbArc
50
308.41693
51
41.176352
0
ARC
5
CB
100
AcDbEntity
8
1
62
256
6
ByLayer
370
13
48
1
60
0
100
AcDbCircle
39
0
10
-10.703905
20
4.725752
30
0
40
4.42238554666492
210
0
220
0
230
-1
100
AcDbArc
50
124.520972
51
162.095076
0
ARC
5
CC
100
AcDbEntity
8
1
62
256
6
ByLayer
370
18
48
1
60
0
100
AcDbCircle
39
0
10
11.966472
20
-4.395599
30
0
40
1.525
210
0
220
0
230
1
100
AcDbArc
50
123.787353
51
310.428862
0
ARC
5
CD
100
AcDbEntity
8
1
62
256
6
ByLayer
370
18
48
1
60
0
100
AcDbCircle
39
0
10
11.966472
20
-4.395599
30
0
40
1.425
210
0
220
0
230
1
100
AcDbArc
50
121.725523
51
310.119474
0
ARC
5
CE
100
AcDbEntity
8
1
62
256
6
ByLayer
370
18
48
1
60
0
100
AcDbCircle
39
0
10
26.716864
20
-21.58881
30
0
40
8.1
210
0
220
0
230
1
100
AcDbArc
50
111.098377
51
112.283961
0
ARC
5
CF
100
AcDbEntity
8
1
62
256
6
ByLayer
370
13
48
1
60
0
100
AcDbCircle
39
0
10
21.124867
20
23.59184
30
0
40
40.4581655870087
210
0
220
0
230
-1
100
AcDbArc
50
207.424003
51
217.575997
0
ARC
5
D0
100
AcDbEntity
8
1
62
256
6
ByLayer
370
13
48
1
60
0
100
AcDbCircle
39
0
10
-28.192285
20
34.60548
30
0
40
41.4223855466649
210
0
220
0
230
-1
100
AcDbArc
50
300.479028
51
308.41693
0
ARC
5
D1
100
AcDbEntity
8
1
62
256
6
ByLayer
370
18
48
1
60
0
100
AcDbCircle
39
0
10
12.903106
20
-3.196762
30
0
40
1.78602287142172
210
0
220
0
230
1
100
AcDbArc
50
52
51
177.798702
0
ARC
5
D2
100
AcDbEntity
8
1
62
256
6
ByLayer
370
18
48
1
60
0
100
AcDbCircle
39
0
10
34.378495
20
-1.096846
30
0
40
8.1
210
0
220
0
230
1
100
AcDbArc
50
191.130994
51
193.417055
0
ARC
5
D3
100
AcDbEntity
8
1
62
256
6
ByLayer
370
18
48
1
60
0
100
AcDbCircle
39
0
10
-0.772277
20
-11.525
30
0
40
1.6
210
0
220
0
230
-1
100
AcDbArc
50
90
51
148.410574
0
ARC
5
D4
100
AcDbEntity
8
1
62
256
6
ByLayer
370
18
48
1
60
0
100
AcDbCircle
39
0
10
12.903106
20
-3.196762
30
0
40
1.68602287142172
210
0
220
0
230
1
100
AcDbArc
50
52
51
179.550214
0
ARC
5
D5
100
AcDbEntity
8
1
62
256
6
ByLayer
370
18
48
1
60
0
100
AcDbCircle
39
0
10
13.481634
20
-4.962095
30
0
40
0.793750000000034
210
0
220
0
230
1
100
AcDbArc
50
87
51
232
0
ARC
5
D6
100
AcDbEntity
8
1
62
256
6
ByLayer
370
18
48
1
60
0
100
AcDbCircle
39
0
10
24.386606
20
-13.481993
30
0
40
0.793750000000034
210
0
220
0
230
1
100
AcDbArc
50
232
51
267
0
ARC
5
D8
100
AcDbEntity
8
1
62
256
6
ByLayer
370
18
48
1
60
0
100
AcDbCircle
39
0
10
27.301277
20
-5.686352
30
0
40
0.793750000000034
210
0
220
0
230
1
100
AcDbArc
50
52
51
87
0
ARC
5
D9
100
AcDbEntity
8
1
62
256
6
ByLayer
370
18
48
1
60
0
100
AcDbCircle
39
0
10
38.20625
20
-14.20625
30
0
40
0.793750000000034
210
0
220
0
230
1
100
AcDbArc
50
267
51
52
0
ARC
5
DA
100
AcDbEntity
8
1
62
256
6
ByLayer
370
18
48
1
60
0
100
AcDbCircle
39
0
10
-25.843942
20
-9.584172
30
0
40
1.6764
210
0
220
0
230
-1
100
AcDbArc
50
110.5
51
170.5
0
ARC
5
DB
100
AcDbEntity
8
1
62
256
6
ByLayer
370
18
48
1
60
0
100
AcDbCircle
39
0
10
-25.843942
20
-9.584172
30
0
40
1.2903
210
0
220
0
230
-1
100
AcDbArc
50
320.5
51
20.5
0
ARC
5
DC
100
AcDbEntity
8
1
62
256
6
ByLayer
370
18
48
1
60
0
100
AcDbCircle
39
0
10
-25.843942
20
-9.584172
30
0
40
1.2903
210
0
220
0
230
-1
100
AcDbArc
50
80.5
51
140.5
0
ARC
5
DD
100
AcDbEntity
8
1
62
256
6
ByLayer
370
18
48
1
60
0
100
AcDbCircle
39
0
10
-25.843942
20
-9.584172
30
0
40
1.6764
210
0
220
0
230
-1
100
AcDbArc
50
350.5
51
50.5
0
ARC
5
DE
100
AcDbEntity
8
1
62
256
6
ByLayer
370
18
48
1
60
0
100
AcDbCircle
39
0
10
25.843942
20
-9.584172
30
0
40
1.2903
210
0
220
0
230
1
100
AcDbArc
50
279.5
51
339.5
0
ARC
5
DF
100
AcDbEntity
8
1
62
256
6
ByLayer
370
18
48
1
60
0
100
AcDbCircle
39
0
10
-25.843942
20
-9.584172
30
0
40
1.2903
210
0
220
0
230
-1
100
AcDbArc
50
20.5
51
80.5
0
ARC
5
E0
100
AcDbEntity
8
1
62
256
6
ByLayer
370
18
48
1
60
0
100
AcDbCircle
39
0
10
-25.843942
20
-9.584172
30
0
40
1.6764
210
0
220
0
230
-1
100
AcDbArc
50
170.5
51
230.5
0
ARC
5
E1
100
AcDbEntity
8
1
62
256
6
ByLayer
370
18
48
1
60
0
100
AcDbCircle
39
0
10
-25.843942
20
-9.584172
30
0
40
1.2903
210
0
220
0
230
-1
100
AcDbArc
50
140.5
51
200.5
0
ARC
5
E2
100
AcDbEntity
8
1
62
256
6
ByLayer
370
18
48
1
60
0
100
AcDbCircle
39
0
10
-25.843942
20
-9.584172
30
0
40
1.2903
210
0
220
0
230
-1
100
AcDbArc
50
260.5
51
320.5
0
ARC
5
E3
100
AcDbEntity
8
1
62
256
6
ByLayer
370
18
48
1
60
0
100
AcDbCircle
39
0
10
-25.843942
20
-9.584172
30
0
40
1.6764
210
0
220
0
230
-1
100
AcDbArc
50
290.5
51
350.5
0
ARC
5
E5
100
AcDbEntity
8
1
62
256
6
ByLayer
370
18
48
1
60
0
100
AcDbCircle
39
0
10
-25.843942
20
-9.584172
30
0
40
1.6764
210
0
220
0
230
-1
100
AcDbArc
50
50.5
51
110.5
0
ARC
5
E6
100
AcDbEntity
8
1
62
256
6
ByLayer
370
18
48
1
60
0
100
AcDbCircle
39
0
10
-25.843942
20
-9.584172
30
0
40
1.6764
210
0
220
0
230
-1
100
AcDbArc
50
230.5
51
290.5
0
CIRCLE
5
BE
100
AcDbEntity
8
1
62
256
6
ByLayer
370
13
48
1
60
0
100
AcDbCircle
10
25.843942
20
-9.584172
30
0
40
1.8
39
0
210
0
220
0
230
1
0
CIRCLE
5
BF
100
AcDbEntity
8
1
62
256
6
ByLayer
370
13
48
1
60
0
100
AcDbCircle
10
-25.843942
20
-9.584172
30
0
40
3.00996076009185
39
0
210
0
220
0
230
-1
0
CIRCLE
5
C0
100
AcDbEntity
8
1
62
256
6
ByLayer
370
13
48
1
60
0
100
AcDbCircle
10
25.843942
20
-9.584172
30
0
40
2.92104776441078
39
0
210
0
220
0
230
1
0
CIRCLE
5
D7
100
AcDbEntity
8
1
62
256
6
ByLayer
370
18
48
1
60
0
100
AcDbCircle
10
25.843942
20
-9.584172
30
0
40
3.07132534818211
39
0
210
0
220
0
230
1
0
CIRCLE
5
E4
100
AcDbEntity
8
1
62
256
6
ByLayer
370
18
48
1
60
0
100
AcDbCircle
10
25.843942
20
-9.584172
30
0
40
2.625
39
0
210
0
220
0
230
1
0
ELLIPSE
5
E7
100
AcDbEntity
8
1
62
256
6
ByLayer
370
18
48
1
60
0
100
AcDbEllipse
10
34.378494
20
-1.096846
30
0
11
2.42382483219905
21
-7.72884629249278
31
0
210
0
220
0
230
-1
40
1
41
1.55275138424416
42
1.5726378084713
0
ELLIPSE
5
E8
100
AcDbEntity
8
1
62
256
6
ByLayer
370
18
48
1
60
0
100
AcDbEllipse
10
34.378495
20
-1.096846
30
0
11
8.10000001149809
21
8.18617635778756E-15
31
0
210
0
220
0
230
-1
40
1
41
2.8395405386246
42
2.90742086829635
0
POINT
5
6C
100
AcDbEntity
8
80
62
256
6
ByLayer
370
18
48
1
60
0
100
AcDbPoint
10
0
20
0
30
0
39
0
210
0
220
0
230
1
50
360
0
POINT
5
6E
100
AcDbEntity
8
81
62
256
6
ByLayer
370
18
48
1
60
0
100
AcDbPoint
10
39
20
-15
30
0
39
0
210
0
220
0
230
1
50
360
0
POINT
5
70
100
AcDbEntity
8
SK2
62
256
6
ByLayer
370
18
48
1
60
0
100
AcDbPoint
10
35.054207
20
31.743604
30
0
39
0
210
0
220
0
230
1
50
360
0
POINT
5
72
100
AcDbEntity
8
2
62
256
6
ByLayer
370
18
48
1
60
0
100
AcDbPoint
10
25.843942
20
29.584172
30
0
39
0
210
0
220
0
230
1
50
360
0
POINT
5
74
100
AcDbEntity
8
2
62
256
6
ByLayer
370
18
48
1
60
0
100
AcDbPoint
10
25.843942
20
29.584172
30
0
39
0
210
0
220
0
230
1
50
360
0
POINT
5
75
100
AcDbEntity
8
2
62
256
6
ByLayer
370
18
48
1
60
0
100
AcDbPoint
10
25.498596
20
29.508433
30
0
39
0
210
0
220
0
230
1
50
360
0
POINT
5
76
100
AcDbEntity
8
SK2
62
256
6
ByLayer
370
18
48
1
60
0
100
AcDbPoint
10
38.20625
20
34.20625
30
0
39
0
210
0
220
0
230
1
50
360
0
POINT
5
77
100
AcDbEntity
8
SK2
62
256
6
ByLayer
370
18
48
1
60
0
100
AcDbPoint
10
36.208991
20
34.101578
30
0
39
0
210
0
220
0
230
1
50
360
0
POINT
5
78
100
AcDbEntity
8
SK2
62
256
6
ByLayer
370
18
48
1
60
0
100
AcDbPoint
10
34.211732
20
33.996906
30
0
39
0
210
0
220
0
230
1
50
360
0
POINT
5
79
100
AcDbEntity
8
SK2
62
256
6
ByLayer
370
18
48
1
60
0
100
AcDbPoint
10
36.630228
20
32.974927
30
0
39
0
210
0
220
0
230
1
50
360
0
SPLINE
5
E9
100
AcDbEntity
8
1
62
256
6
ByLayer
370
18
48
1
60
0
100
AcDbSpline
70
4
71
3
72
10
73
6
40
0
40
0
40
0
40
0
40
0.825375519225116
40
0.825375519225116
40
1
40
1
40
1
40
1
41
1
10
10.7186391180835
20
-0.497061008238575
30
0
41
1
10
10.5249816282867
20
-0.801042376873454
30
0
41
1
10
10.3172739903073
20
-1.12707806046683
30
0
41
1
10
10.0619032933348
20
-1.5279297603229
30
0
41
1
10
10.0165671703461
20
-1.59909321870072
30
0
41
1
10
9.97127228890457
20
-1.67019194081681
30
0
0
SPLINE
5
EA
100
AcDbEntity
8
1
62
256
6
ByLayer
370
18
48
1
60
0
100
AcDbSpline
70
4
71
3
72
8
73
4
40
0
40
0
40
0
40
0
40
1
40
1
40
1
40
1
41
1
10
11.1184011556507
20
-3.12816054934524
30
0
41
1
10
11.1512133494248
20
-3.14650390539919
30
0
41
1
10
11.1841181189915
20
-3.16495157438558
30
0
41
1
10
11.2171351048039
20
-3.18352694976935
30
0
0
SPLINE
5
EB
100
AcDbEntity
8
1
62
256
6
ByLayer
370
18
48
1
60
0
100
AcDbSpline
70
4
71
3
72
18
73
14
40
0
40
0
40
0
40
0
40
0.227272476110301
40
0.227272476110301
40
0.4545371017571
40
0.4545371017571
40
0.681923304594623
40
0.681923304594623
40
0.909532334308921
40
0.909532334308921
40
0.97963236551504
40
0.97963236551504
40
1
40
1
40
1
40
1
41
1
10
10.5318658586075
20
-0.793777435770153
30
0
41
1
10
10.5358601222597
20
-0.796579840109985
30
0
41
1
10
10.5477873155576
20
-0.804948097305839
30
0
41
1
10
10.5855247939213
20
-0.831423652538774
30
0
41
1
10
10.6118542917849
20
-0.849895158566198
30
0
41
1
10
10.6750863429759
20
-0.894252071515638
30
0
41
1
10
10.7128652625825
20
-0.920752167733241
30
0
41
1
10
10.7945195283049
20
-0.978023081723109
30
0
41
1
10
10.8395260317167
20
-1.00958720945138
30
0
41
1
10
10.8991479466138
20
-1.05139715805046
30
0
41
1
10
10.913446054454
20
-1.06142342249393
30
0
41
1
10
10.9318492628714
20
-1.07432791120627
30
0
41
1
10
10.9359535619149
20
-1.07720583077071
30
0
41
1
10
10.9400573870816
20
-1.08008344323366
30
0
0
SPLINE
5
EC
100
AcDbEntity
8
1
62
256
6
ByLayer
370
18
48
1
60
0
100
AcDbSpline
70
4
71
3
72
18
73
14
40
0
40
0
40
0
40
0
40
0.227272476110286
40
0.227272476110286
40
0.454537101757077
40
0.454537101757077
40
0.68192330459458
40
0.68192330459458
40
0.909532334308874
40
0.909532334308874
40
0.979632365515043
40
0.979632365515043
40
1
40
1
40
1
40
1
41
1
10
14.3547215510433
20
5.20690400804784
30
0
41
1
10
14.3589494406805
20
5.20446832304719
30
0
41
1
10
14.3715743070401
20
5.19719519319366
30
0
41
1
10
14.4115178564223
20
5.17418247582074
30
0
41
1
10
14.4393860527929
20
5.15812624264723
30
0
41
1
10
14.5063100879686
20
5.11956458370943
30
0
41
1
10
14.5462933928623
20
5.09652467928348
30
0
41
1
10
14.6327070520253
20
5.0467245165332
30
0
41
1
10
14.6803344370155
20
5.0192743488177
30
0
41
1
10
14.7434244290419
20
4.98290819086876
30
0
41
1
10
14.7585539520635
20
4.97418698684422
30
0
41
1
10
14.778026922623
20
4.96296168833734
30
0
41
1
10
14.7823697552622
20
4.96045819151769
30
0
41
1
10
14.7867121093039
20
4.95795499438952
30
0
0
SPLINE
5
ED
100
AcDbEntity
8
1
62
256
6
ByLayer
370
18
48
1
60
0
100
AcDbSpline
70
4
71
3
72
16
73
12
40
0
40
0
40
0
40
0
40
0.215585792868476
40
0.215585792868476
40
0.435876003208894
40
0.435876003208894
40
0.657680198613505
40
0.657680198613505
40
0.881690285283874
40
0.881690285283874
40
1
40
1
40
1
40
1
41
1
10
11.3040205127693
20
1.4344954854665
30
0
41
1
10
11.1666447793978
20
1.23239763088887
30
0
41
1
10
10.9936896236806
20
1.05048034529176
30
0
41
1
10
10.5987847314068
20
0.751986133038884
30
0
41
1
10
10.3702391337162
20
0.633109356038119
30
0
41
1
10
9.89220032051952
20
0.478921216552067
30
0
41
1
10
9.63590948063398
20
0.442043524990453
30
0
41
1
10
9.13115462611714
20
0.45497738086047
30
0
41
1
10
8.87567856677833
20
0.505811760897814
30
0
41
1
10
8.51493115482492
20
0.644052145918693
30
0
41
1
10
8.39397577035842
20
0.703342724464193
30
0
41
1
10
8.27984741669931
20
0.772556667508923
30
0
0
SPLINE
5
EE
100
AcDbEntity
8
1
62
256
6
ByLayer
370
18
48
1
60
0
100
AcDbSpline
70
4
71
3
72
8
73
4
40
0
40
0
40
0
40
0
40
1
40
1
40
1
40
1
41
1
10
14.1647389324891
20
4.91223216774108
30
0
41
1
10
13.8155468464356
20
4.30571896526709
30
0
41
1
10
13.4782928250616
20
3.78442826653011
30
0
41
1
10
13.1370634870643
20
3.28352929379011
30
0
0
SPLINE
5
EF
100
AcDbEntity
8
1
62
256
6
ByLayer
370
18
48
1
60
0
100
AcDbSpline
70
4
71
3
72
10
73
6
40
0
40
0
40
0
40
0
40
0.733598102832592
40
0.733598102832592
40
1
40
1
40
1
40
1
41
1
10
14.9121057616681
20
6.08536310031943
30
0
41
1
10
14.7244692167698
20
5.79083272205247
30
0
41
1
10
14.5354864236007
20
5.49418915729154
30
0
41
1
10
14.2922125918429
20
5.1123257322912
30
0
41
1
10
14.2278943307847
20
5.0113662855629
30
0
41
1
10
14.1647389324891
20
4.91223216774111
30
0
0
SPLINE
5
F0
100
AcDbEntity
8
1
62
256
6
ByLayer
370
18
48
1
60
0
100
AcDbSpline
70
4
71
3
72
16
73
12
40
0
40
0
40
0
40
0
40
0.218061255280512
40
0.218061255280512
40
0.438189719926885
40
0.438189719926885
40
0.658703667835487
40
0.658703667835487
40
0.879757632121697
40
0.879757632121697
40
1
40
1
40
1
40
1
41
1
10
11.9833966368132
20
6.58596446246642
30
0
41
1
10
12.1866903522246
20
6.45005100805858
30
0
41
1
10
12.3702863530686
20
6.27782513759277
30
0
41
1
10
12.6702354878937
20
5.88474209901977
30
0
41
1
10
12.7897170964435
20
5.65794034330196
30
0
41
1
10
12.94552748763
20
5.1829364636894
30
0
41
1
10
12.9838408451517
20
4.9281708842729
30
0
41
1
10
12.9744507448877
20
4.42628518798986
30
0
41
1
10
12.9264162091057
20
4.17223277250173
30
0
41
1
10
12.7914166671314
20
3.8079090077303
30
0
41
1
10
12.7317393120332
20
3.68316126508722
30
0
41
1
10
12.6615471086205
20
3.56538540352744
30
0
0
SPLINE
5
F1
100
AcDbEntity
8
1
62
256
6
ByLayer
370
18
48
1
60
0
100
AcDbSpline
70
4
71
3
72
8
73
4
40
0
40
0
40
0
40
0
40
1
40
1
40
1
40
1
41
1
10
8.27984741669931
20
0.772556667508923
30
0
41
1
10
6.72718806345608
20
1.71417785626446
30
0
41
1
10
5.24902284200479
20
2.7584517304528
30
0
41
1
10
3.84455420274034
20
3.90492889213797
30
0
0
SPLINE
5
F2
100
AcDbEntity
8
1
62
256
6
ByLayer
370
18
48
1
60
0
100
AcDbSpline
70
4
71
3
72
8
73
4
40
0
40
0
40
0
40
0
40
1
40
1
40
1
40
1
41
1
10
11.7604308051353
20
1.12264882797763
30
0
41
1
10
11.4506719153001
20
0.601700968616342
30
0
41
1
10
11.1207518040047
20
0.075738053875682
30
0
41
1
10
10.7186391180835
20
-0.497061008238575
30
0
0
SPLINE
5
F3
100
AcDbEntity
8
1
62
256
6
ByLayer
370
18
48
1
60
0
100
AcDbSpline
70
4
71
3
72
14
73
10
40
0
40
0
40
0
40
0
40
0.365998636863176
40
0.365998636863176
40
0.731529840804209
40
0.731529840804209
40
0.900809313119444
40
0.900809313119444
40
1
40
1
40
1
40
1
41
1
10
1.73845857663164
20
10
30
0
41
1
10
2.12766142577243
20
10
30
0
41
1
10
2.52076930297366
20
10
30
0
41
1
10
3.25233275406256
20
10
30
0
41
1
10
3.60522806040768
20
10
30
0
41
1
10
4.05296302425884
20
10
30
0
41
1
10
4.18837228471642
20
10
30
0
41
1
10
4.35413754647553
20
10
30
0
41
1
10
4.40540842395509
20
10
30
0
41
1
10
4.43023169669266
20
10
30
0
0
SPLINE
5
F4
100
AcDbEntity
8
1
62
256
6
ByLayer
370
18
48
1
60
0
100
AcDbSpline
70
4
71
3
72
16
73
12
40
0
40
0
40
0
40
0
40
0.0970520662551726
40
0.0970520662551726
40
0.380474367474587
40
0.380474367474587
40
0.659031962135246
40
0.659031962135246
40
0.938440008915235
40
0.938440008915235
40
1
40
1
40
1
40
1
41
1
10
12.9067270885346
20
3.4200581793628
30
0
41
1
10
12.9208043794588
20
3.45279014564605
30
0
41
1
10
12.9325177670994
20
3.4833297858149
30
0
41
1
10
12.9698783851023
20
3.59224424873784
30
0
41
1
10
12.9803138688633
20
3.65231241448572
30
0
41
1
10
12.9750061193007
20
3.71601116017101
30
0
41
1
10
12.9596811664709
20
3.7211775951867
30
0
41
1
10
12.9047807052725
20
3.67610774550801
30
0
41
1
10
12.864211188133
20
3.6249878075669
30
0
41
1
10
12.79598443115
20
3.53688487975046
30
0
41
1
10
12.7827820947767
20
3.51981660139253
30
0
41
1
10
12.7687577554821
20
3.50183769577919
30
0
0
SPLINE
5
F5
100
AcDbEntity
8
1
62
256
6
ByLayer
370
18
48
1
60
0
100
AcDbSpline
70
4
71
3
72
20
73
16
40
0
40
0
40
0
40
0
40
0.121632286478421
40
0.121632286478421
40
0.290218885216354
40
0.290218885216354
40
0.459075141340624
40
0.459075141340624
40
0.559117714231286
40
0.559117714231286
40
0.73379372897551
40
0.73379372897551
40
0.915883351417188
40
0.915883351417188
40
1
40
1
40
1
40
1
41
1
10
11.5393492446231
20
1.27370489930487
30
0
41
1
10
11.5850429771873
20
1.324939025058
30
0
41
1
10
11.6368549113987
20
1.38653517497954
30
0
41
1
10
11.7701619209831
20
1.55325118688242
30
0
41
1
10
11.8572612409943
20
1.66843046211204
30
0
41
1
10
12.0369678064694
20
1.91912411897744
30
0
41
1
10
12.1320056768617
20
2.0581017403905
30
0
41
1
10
12.2790328855978
20
2.28366650480083
30
0
41
1
10
12.3337283548161
20
2.36996706804939
30
0
41
1
10
12.4773814861588
20
2.60315730029112
30
0
41
1
10
12.5643057890516
20
2.75186389080991
30
0
41
1
10
12.7185506658676
20
3.03038593553279
30
0
41
1
10
12.7873304305328
20
3.16346458938364
30
0
41
1
10
12.865937573375
20
3.32802805160358
30
0
41
1
10
12.8879407031635
20
3.37637681084814
30
0
41
1
10
12.9067270885346
20
3.4200581793628
30
0
0
SPLINE
5
F6
100
AcDbEntity
8
1
62
256
6
ByLayer
370
18
48
1
60
0
100
AcDbSpline
70
4
71
3
72
16
73
12
40
0
40
0
40
0
40
0
40
0.139734805197371
40
0.139734805197371
40
0.427033637920781
40
0.427033637920781
40
0.71251452751205
40
0.71251452751205
40
0.973020662247328
40
0.973020662247328
40
1
40
1
40
1
40
1
41
1
10
11.4069234723667
20
1.36418606314874
30
0
41
1
10
11.3835044648911
20
1.31831119137277
30
0
41
1
10
11.3625123374773
20
1.27814256180619
30
0
41
1
10
11.3103604167018
20
1.17413927298361
30
0
41
1
10
11.2917128179036
20
1.12838967112086
30
0
41
1
10
11.2982758147821
20
1.08662785581737
30
0
41
1
10
11.3231205578271
20
1.08952452043806
30
0
41
1
10
11.4040750287387
20
1.14074826230365
30
0
41
1
10
11.4580161241283
20
1.1857605361898
30
0
41
1
10
11.5261867209718
20
1.25909937990295
30
0
41
1
10
11.5327286134289
20
1.26628151250475
30
0
41
1
10
11.5393492446231
20
1.27370489930496
30
0
0
SPLINE
5
F7
100
AcDbEntity
8
1
62
256
6
ByLayer
370
18
48
1
60
0
100
AcDbSpline
70
4
71
3
72
8
73
4
40
0
40
0
40
0
40
0
40
1
40
1
40
1
40
1
41
1
10
7.27006738934085
20
9.28190753537061
30
0
41
1
10
8.90292400563612
20
8.49343231671662
30
0
41
1
10
10.4740395085061
20
7.59505586909549
30
0
41
1
10
11.9833966368132
20
6.58596446246639
30
0
0
SPLINE
5
F8
100
AcDbEntity
8
1
62
256
6
ByLayer
370
18
48
1
60
0
100
AcDbSpline
70
4
71
3
72
12
73
8
40
0
40
0
40
0
40
0
40
0.310245414411515
40
0.310245414411515
40
0.828844094888613
40
0.828844094888613
40
1
40
1
40
1
40
1
41
1
10
7.24165242197267
20
10
30
0
41
1
10
7.25840164679408
20
10
30
0
41
1
10
7.28721497765878
20
10
30
0
41
1
10
7.38172162315777
20
10
30
0
41
1
10
7.45957170756355
20
10
30
0
41
1
10
7.57141630291389
20
10
30
0
41
1
10
7.60007609123653
20
10
30
0
41
1
10
7.62939595390813
20
10
30
0
0
SPLINE
5
F9
100
AcDbEntity
8
1
62
256
6
ByLayer
370
18
48
1
60
0
100
AcDbSpline
70
4
71
3
72
18
73
14
40
0
40
0
40
0
40
0
40
0.167834537884579
40
0.167834537884579
40
0.33860282157252
40
0.33860282157252
40
0.509637736584534
40
0.509637736584534
40
0.683357294110541
40
0.683357294110541
40
0.861797882065289
40
0.861797882065289
40
1
40
1
40
1
40
1
41
1
10
12.7687577554821
20
3.50183769577919
30
0
41
1
10
12.7106601162082
20
3.42735775409184
30
0
41
1
10
12.6413451236519
20
3.33233769812046
30
0
41
1
10
12.4880377232769
20
3.11313885333502
30
0
41
1
10
12.401755214671
20
2.98556883808379
30
0
41
1
10
12.2241545651865
20
2.71682463347744
30
0
41
1
10
12.1304028056218
20
2.57198512614869
30
0
41
1
10
11.947008868309
20
2.28350509616303
30
0
41
1
10
11.8548629409042
20
2.1358423955821
30
0
41
1
10
11.6848228535767
20
1.85710958327235
30
0
41
1
10
11.6048994668133
20
1.72249242034249
30
0
41
1
10
11.4868533795287
20
1.51516360689544
30
0
41
1
10
11.442262638476
20
1.43341101709379
30
0
41
1
10
11.4069234723667
20
1.36418606314868
30
0
0
SPLINE
5
FA
100
AcDbEntity
8
1
62
256
6
ByLayer
370
18
48
1
60
0
100
AcDbSpline
70
4
71
3
72
24
73
20
40
0
40
0
40
0
40
0
40
0.110194461208524
40
0.110194461208524
40
0.225954540814906
40
0.225954540814906
40
0.339401748396958
40
0.339401748396958
40
0.451996689413498
40
0.451996689413498
40
0.565993079316614
40
0.565993079316614
40
0.682456391829922
40
0.682456391829922
40
0.800324403907293
40
0.800324403907293
40
0.917855114842166
40
0.917855114842166
40
1
40
1
40
1
40
1
41
1
10
3.84455420274037
20
3.904928892138
30
0
41
1
10
3.58178672075337
20
4.11942774850931
30
0
41
1
10
3.35133114087867
20
4.37910417999837
30
0
41
1
10
2.97865143554665
20
4.96540642375069
30
0
41
1
10
2.83659954296013
20
5.30275633015154
30
0
41
1
10
2.675111408768
20
5.99117441348514
30
0
41
1
10
2.6512329746086
20
6.3509063162617
30
0
41
1
10
2.72075512918724
20
7.04901782262493
30
0
41
1
10
2.81431054431195
20
7.39681236302047
30
0
41
1
10
3.10711125275915
20
8.03954245594824
30
0
41
1
10
3.31176741200477
20
8.34266902126103
30
0
41
1
10
3.8062534024904
20
8.86280978960247
30
0
41
1
10
4.10491028723519
20
9.0853748373645
30
0
41
1
10
4.75141476485689
20
9.41506640613085
30
0
41
1
10
5.10909506418946
20
9.52565171349139
30
0
41
1
10
5.82793073537334
20
9.61926049496915
30
0
41
1
10
6.19914890480987
20
9.60402239817847
30
0
41
1
10
6.79955714968722
20
9.475173307977
30
0
41
1
10
7.04209466812256
20
9.39199120065749
30
0
41
1
10
7.27006738934082
20
9.28190753537061
30
0
0
SPLINE
5
FB
100
AcDbEntity
8
1
62
256
6
ByLayer
370
18
48
1
60
0
100
AcDbSpline
70
4
71
3
72
8
73
4
40
0
40
0
40
0
40
0
40
1
40
1
40
1
40
1
41
1
10
12.6615471086205
20
3.56538540352744
30
0
41
1
10
12.2305449116803
20
2.84220458556271
30
0
41
1
10
11.777295520249
20
2.13074555299576
30
0
41
1
10
11.3040205127693
20
1.4344954854665
30
0
0
SPLINE
5
FC
100
AcDbEntity
8
1
62
256
6
ByLayer
370
18
48
1
60
0
100
AcDbSpline
70
4
71
3
72
10
73
6
40
0
40
0
40
0
40
0
40
0.5
40
0.5
40
1
40
1
40
1
40
1
41
1
10
7.62939595390873
20
10
30
0
41
1
10
8.02710354826945
20
10
30
0
41
1
10
8.54358618024403
20
10
30
0
41
1
10
9.58404729794867
20
10
30
0
41
1
10
10.1105582913715
20
10
30
0
41
1
10
10.6424238891187
20
10
30
0
0
SPLINE
5
FD
100
AcDbEntity
8
1
62
256
6
ByLayer
370
18
48
1
60
0
100
AcDbSpline
70
4
71
3
72
18
73
14
40
0
40
0
40
0
40
0
40
0.249999999999999
40
0.249999999999999
40
0.374999999999999
40
0.374999999999999
40
0.499999999999999
40
0.499999999999999
40
0.625
40
0.625
40
0.75
40
0.75
40
1
40
1
40
1
40
1
41
1
10
7.24165242198799
20
10
30
0
41
1
10
7.10761073884456
20
10
30
0
41
1
10
6.96112034821297
20
10
30
0
41
1
10
6.68016412300489
20
10
30
0
41
1
10
6.57761900558896
20
10
30
0
41
1
10
6.30954912648741
20
10
30
0
41
1
10
6.13720731400309
20
10
30
0
41
1
10
5.55485300795064
20
10
30
0
41
1
10
5.37347277756203
20
10
30
0
41
1
10
5.10124208110904
20
10
30
0
41
1
10
4.9971280067297
20
10
30
0
41
1
10
4.71211639766329
20
10
30
0
41
1
10
4.56517955118667
20
10
30
0
41
1
10
4.43023169669269
20
10
30
0
0
SPLINE
5
FE
100
AcDbEntity
8
1
62
256
6
ByLayer
370
18
48
1
60
0
100
AcDbSpline
70
4
71
3
72
8
73
4
40
0
40
0
40
0
40
0
40
1
40
1
40
1
40
1
41
1
10
25.6996824969076
20
-11.0738214113063
30
0
41
1
10
25.7021538898585
20
-11.0676289523582
30
0
41
1
10
25.7046255984973
20
-11.0614357024048
30
0
41
1
10
25.707097635131
20
-11.0552416306095
30
0
0
SPLINE
5
FF
100
AcDbEntity
8
1
62
256
6
ByLayer
370
18
48
1
60
0
100
AcDbSpline
70
4
71
3
72
26
73
22
40
0
40
0
40
0
40
0
40
0.0698312878838653
40
0.0698312878838653
40
0.183326154219719
40
0.183326154219719
40
0.29685093962362
40
0.29685093962362
40
0.410442440726459
40
0.410442440726459
40
0.524182073091717
40
0.524182073091717
40
0.608467808779328
40
0.608467808779328
40
0.771063473671229
40
0.771063473671229
40
0.854650990141166
40
0.854650990141166
40
0.938878764920235
40
0.938878764920235
40
1
40
1
40
1
40
1
41
1
10
25.2568542122996
20
-11.154409643774
30
0
41
1
10
25.2684369326938
20
-11.1587402454761
30
0
41
1
10
25.2801227770108
20
-11.162805433108
30
0
41
1
10
25.3110363301947
20
-11.1727602346954
30
0
41
1
10
25.3304269520925
20
-11.1782067476211
30
0
41
1
10
25.3695354545623
20
-11.1875209295803
30
0
41
1
10
25.3892903014169
20
-11.1913979275065
30
0
41
1
10
25.4289999344388
20
-11.1973495248353
30
0
41
1
10
25.4490046740242
20
-11.1994325885612
30
0
41
1
10
25.4890086858545
20
-11.2014155315311
30
0
41
1
10
25.5090871445454
20
-11.2013205372814
30
0
41
1
10
25.5436536172475
20
-11.1986942348791
30
0
41
1
10
25.5583015299881
20
-11.1967926399849
30
0
41
1
10
25.5999174584809
20
-11.1884195448793
30
0
41
1
10
25.6269752227295
20
-11.179125956791
30
0
41
1
10
25.660786460833
20
-11.1568868782541
30
0
41
1
10
25.6712212248304
20
-11.1476352254136
30
0
41
1
10
25.6874810971524
20
-11.1265667236157
30
0
41
1
10
25.6934348886491
20
-11.1144406080092
30
0
41
1
10
25.6989780845138
20
-11.0927749008179
30
0
41
1
10
25.6999392885509
20
-11.0832611641668
30
0
41
1
10
25.6996824969076
20
-11.0738214113063
30
0
0
SPLINE
5
100
100
AcDbEntity
8
1
62
256
6
ByLayer
370
18
48
1
60
0
100
AcDbSpline
70
4
71
3
72
30
73
26
40
0
40
0
40
0
40
0
40
0.0785796353497135
40
0.0785796353497135
40
0.140894784437004
40
0.140894784437004
40
0.203048952389483
40
0.203048952389483
40
0.265131088256469
40
0.265131088256469
40
0.368376353702261
40
0.368376353702261
40
0.500084378067078
40
0.500084378067078
40
0.606358723073574
40
0.606358723073574
40
0.711125201995839
40
0.711125201995839
40
0.800907602106436
40
0.800907602106436
40
0.872187406522162
40
0.872187406522162
40
0.927131887361887
40
0.927131887361887
40
1
40
1
40
1
40
1
41
1
10
27.3140945360239
20
-9.7305356133075
30
0
41
1
10
27.2946385710616
20
-9.7342318371187
30
0
41
1
10
27.2755777331507
20
-9.7423473939327
30
0
41
1
10
27.2437035834637
20
-9.76112368908016
30
0
41
1
10
27.2301619729299
20
-9.77106342994242
30
0
41
1
10
27.2044842682254
20
-9.79294987411325
30
0
41
1
10
27.1922625713636
20
-9.80496596908125
30
0
41
1
10
27.1690672696923
20
-9.83044710151623
30
0
41
1
10
27.158045535939
20
-9.84396532792616
30
0
41
1
10
27.1302628712215
20
-9.88138531368853
30
0
41
1
10
27.1144005058775
20
-9.90639693539981
30
0
41
1
10
27.0818162573394
20
-9.96542407234384
30
0
41
1
10
27.0658751964801
20
-10.0003515990944
30
0
41
1
10
27.0417435856569
20
-10.0648945240853
30
0
41
1
10
27.0325761273162
20
-10.094455151774
30
0
41
1
10
27.0180866119056
20
-10.1535083440384
30
0
41
1
10
27.0126589615236
20
-10.1831932889838
30
0
41
1
10
27.0065798604099
20
-10.2379679281313
30
0
41
1
10
27.0053356738931
20
-10.2632747359287
30
0
41
1
10
27.006664593918
20
-10.3078164865213
30
0
41
1
10
27.0085088526465
20
-10.3273502211847
30
0
41
1
10
27.0146246835814
20
-10.3608312336974
30
0
41
1
10
27.0182624685194
20
-10.3751182151537
30
0
41
1
10
27.0294962547474
20
-10.4066781386871
30
0
41
1
10
27.0381209178959
20
-10.4237758487384
30
0
41
1
10
27.049503087489
20
-10.438217588668
30
0
0
SPLINE
5
101
100
AcDbEntity
8
1
62
256
6
ByLayer
370
18
48
1
60
0
100
AcDbSpline
70
4
71
3
72
28
73
24
40
0
40
0
40
0
40
0
40
0.0784886680911563
40
0.0784886680911563
40
0.140731678407952
40
0.140731678407952
40
0.202813893948764
40
0.202813893948764
40
0.264824160791591
40
0.264824160791591
40
0.367949904955218
40
0.367949904955218
40
0.433241175165177
40
0.433241175165177
40
0.499177070025534
40
0.499177070025534
40
0.715821594335205
40
0.715821594335205
40
0.863081971489829
40
0.863081971489829
40
0.959401565050663
40
0.959401565050663
40
1
40
1
40
1
40
1
41
1
10
25.707097635131
20
-11.0552416306095
30
0
41
1
10
25.7144383220287
20
-11.0368483992744
30
0
41
1
10
25.726041752539
20
-11.0196862838843
30
0
41
1
10
25.7505549487404
20
-10.9919804381163
30
0
41
1
10
25.762895929669
20
-10.9805842170749
30
0
41
1
10
25.7892797952545
20
-10.9595544145531
30
0
41
1
10
25.8034071304138
20
-10.9498500436962
30
0
41
1
10
25.8328459748864
20
-10.9319429343284
30
0
41
1
10
25.8482188793471
20
-10.9237031000684
30
0
41
1
10
25.8902525369193
20
-10.9035709510435
30
0
41
1
10
25.9178313066888
20
-10.8927724644395
30
0
41
1
10
25.9639540014231
20
-10.8778755585068
30
0
41
1
10
25.9821821355019
20
-10.8727523095384
30
0
41
1
10
26.0191780261045
20
-10.8637837990553
30
0
41
1
10
26.0379954149648
20
-10.8599407071996
30
0
41
1
10
26.1182792856169
20
-10.8465057948175
30
0
41
1
10
26.1817623911709
20
-10.8431334929208
30
0
41
1
10
26.2836471038395
20
-10.8520797691694
30
0
41
1
10
26.3245558487335
20
-10.8598106332529
30
0
41
1
10
26.3862769246953
20
-10.8822821108073
30
0
41
1
10
26.4096354416056
20
-10.8939034927952
30
0
41
1
10
26.43771945107
20
-10.9155285356919
30
0
41
1
10
26.4454903693581
20
-10.9226843446395
30
0
41
1
10
26.452263927861
20
-10.9305435589845
30
0
0
SPLINE
5
102
100
AcDbEntity
8
1
62
256
6
ByLayer
370
18
48
1
60
0
100
AcDbSpline
70
4
71
3
72
8
73
4
40
0
40
0
40
0
40
0
40
1
40
1
40
1
40
1
41
1
10
27.3337478288934
20
-9.72680190134747
30
0
41
1
10
27.3271975788514
20
-9.72804631097821
30
0
41
1
10
27.3206464921011
20
-9.72929087956595
30
0
41
1
10
27.3140945360239
20
-9.7305356133075
30
0
0
SPLINE
5
103
100
AcDbEntity
8
1
62
256
6
ByLayer
370
18
48
1
60
0
100
AcDbSpline
70
4
71
3
72
8
73
4
40
0
40
0
40
0
40
0
40
1
40
1
40
1
40
1
41
1
10
24.5015364138849
20
-10.2011964276594
30
0
41
1
10
24.4949361720405
20
-10.2021526170332
30
0
41
1
10
24.4883368059294
20
-10.2031086795379
30
0
41
1
10
24.481738282693
20
-10.2040646199338
30
0
0
SPLINE
5
104
100
AcDbEntity
8
1
62
256
6
ByLayer
370
18
48
1
60
0
100
AcDbSpline
70
4
71
3
72
26
73
22
40
0
40
0
40
0
40
0
40
0.0698312878838019
40
0.0698312878838019
40
0.183326154219656
40
0.183326154219656
40
0.296850939623562
40
0.296850939623562
40
0.410442440726407
40
0.410442440726407
40
0.524182073091665
40
0.524182073091665
40
0.608467808779297
40
0.608467808779297
40
0.771063473671262
40
0.771063473671262
40
0.854650990141209
40
0.854650990141209
40
0.938878764920292
40
0.938878764920292
40
1
40
1
40
1
40
1
41
1
10
26.9102633947166
20
-10.8777238373091
30
0
41
1
10
26.9007216234318
20
-10.8855894665643
30
0
41
1
10
26.8909959361933
20
-10.8932377157512
30
0
41
1
10
26.865007563801
20
-10.9127146340262
30
0
41
1
10
26.8484465817657
20
-10.9241773821547
30
0
41
1
10
26.8145011672473
20
-10.9457165971864
30
0
41
1
10
26.7970848196479
20
-10.9558139197751
30
0
41
1
10
26.7614762745539
20
-10.9743694575411
30
0
41
1
10
26.7432396008884
20
-10.9828519391349
30
0
41
1
10
26.7060606476875
20
-10.9977508808498
30
0
41
1
10
26.6870451649236
20
-11.0041979687629
30
0
41
1
10
26.6535068824646
20
-11.0129684937802
30
0
41
1
10
26.6390379101344
20
-11.015939394402
30
0
41
1
10
26.596963263583
20
-11.0215712984798
30
0
41
1
10
26.5683539485496
20
-11.0215931846786
30
0
41
1
10
26.5291444591026
20
-11.011573585207
30
0
41
1
10
26.5162661523701
20
-11.0062232024481
30
0
41
1
10
26.4940329078052
20
-10.9915962392617
30
0
41
1
10
26.4844556102709
20
-10.982069136615
30
0
41
1
10
26.4721607513074
20
-10.9633884960595
30
0
41
1
10
26.4681545453521
20
-10.9547060187576
30
0
41
1
10
26.4653240637036
20
-10.9456969538975
30
0
0
SPLINE
5
105
100
AcDbEntity
8
1
62
256
6
ByLayer
370
18
48
1
60
0
100
AcDbSpline
70
4
71
3
72
30
73
26
40
0
40
0
40
0
40
0
40
0.0785796353497144
40
0.0785796353497144
40
0.14089478443701
40
0.14089478443701
40
0.203048952389483
40
0.203048952389483
40
0.265131088256471
40
0.265131088256471
40
0.368376353702262
40
0.368376353702262
40
0.500084378067081
40
0.500084378067081
40
0.606358723073574
40
0.606358723073574
40
0.711125201995842
40
0.711125201995842
40
0.800907602106437
40
0.800907602106437
40
0.872187406522166
40
0.872187406522166
40
0.92713188736189
40
0.92713188736189
40
1
40
1
40
1
40
1
41
1
10
26.7057724744059
20
-8.38416444004093
30
0
41
1
10
26.6992455156433
20
-8.40286191185902
30
0
41
1
10
26.6967433750546
20
-8.42342686011432
30
0
41
1
10
26.6970670487978
20
-8.46041883104101
30
0
41
1
10
26.6989043116246
20
-8.47711608020256
30
0
41
1
10
26.7050196759228
20
-8.51029684687293
30
0
41
1
10
26.7093150709885
20
-8.5268891943166
30
0
41
1
10
26.7197847281588
20
-8.55971748102985
30
0
41
1
10
26.7259809887672
20
-8.57602169565899
30
0
41
1
10
26.744496314688
20
-8.61879218197029
30
0
41
1
10
26.7582258318077
20
-8.64503520417799
30
0
41
1
10
26.7930527076449
20
-8.70276755964719
30
0
41
1
10
26.8153303026726
20
-8.73403668668988
30
0
41
1
10
26.8591603099377
20
-8.78720673719252
30
0
41
1
10
26.8801768352975
20
-8.80992630284806
30
0
41
1
10
26.9240736422677
20
-8.85200118741429
30
0
41
1
10
26.9470677335094
20
-8.87154414300068
30
0
41
1
10
26.9914644119374
20
-8.90419611857109
30
0
41
1
10
27.0127586571203
20
-8.91792701960034
30
0
41
1
10
27.0519974046749
20
-8.93904701639556
30
0
41
1
10
27.0698362444885
20
-8.94721670881722
30
0
41
1
10
27.1018895673364
20
-8.95866075011864
30
0
41
1
10
27.1160813486899
20
-8.96265382667693
30
0
41
1
10
27.1490299373254
20
-8.96870504418956
30
0
41
1
10
27.1681493201506
20
-8.96978472182954
30
0
41
1
10
27.186347318601
20
-8.9671483437765
30
0
0
SPLINE
5
106
100
AcDbEntity
8
1
62
256
6
ByLayer
370
18
48
1
60
0
100
AcDbSpline
70
4
71
3
72
24
73
20
40
0
40
0
40
0
40
0
40
0.0910138713939281
40
0.0910138713939281
40
0.175086621702462
40
0.175086621702462
40
0.253778357416394
40
0.253778357416394
40
0.387278912103932
40
0.387278912103932
40
0.501285480689684
40
0.501285480689684
40
0.614933769530209
40
0.614933769530209
40
0.728436606392685
40
0.728436606392685
40
0.841873888033982
40
0.841873888033982
40
1
40
1
40
1
40
1
41
1
10
27.206145449793
20
-8.96428015150209
30
0
41
1
10
27.2179774348548
20
-8.95701294653182
30
0
41
1
10
27.2313935000131
20
-8.95196783282483
30
0
41
1
10
27.2581309346366
20
-8.9484667551358
30
0
41
1
10
27.2717172227945
20
-8.94951473396765
30
0
41
1
10
27.297023024236
20
-8.95624224469611
30
0
41
1
10
27.3090912250495
20
-8.96164296686135
30
0
41
1
10
27.3394382212837
20
-8.97986168512449
30
0
41
1
10
27.3568215679974
20
-8.99540956320504
30
0
41
1
10
27.3853104108891
20
-9.02727064911227
30
0
41
1
10
27.3972074244445
20
-9.043416753906
30
0
41
1
10
27.4187017641108
20
-9.07707204663771
30
0
41
1
10
27.4283703938998
20
-9.09468821703729
30
0
41
1
10
27.4458178391479
20
-9.13078455884744
30
0
41
1
10
27.4536266755464
20
-9.14932878172806
30
0
41
1
10
27.4675878012129
20
-9.18699667991871
30
0
41
1
10
27.4737557350668
20
-9.20616461293866
30
0
41
1
10
27.486673475195
20
-9.25247587591588
30
0
41
1
10
27.4927319251385
20
-9.27988378551814
30
0
41
1
10
27.49735104866
20
-9.30748657925309
30
0
0
SPLINE
5
107
100
AcDbEntity
8
1
62
256
6
ByLayer
370
18
48
1
60
0
100
AcDbSpline
70
4
71
3
72
24
73
20
40
0
40
0
40
0
40
0
40
0.0910138713939301
40
0.0910138713939301
40
0.175086621702462
40
0.175086621702462
40
0.253778357416394
40
0.253778357416394
40
0.387278912103933
40
0.387278912103933
40
0.501285480689692
40
0.501285480689692
40
0.614933769530213
40
0.614933769530213
40
0.728436606392694
40
0.728436606392694
40
0.84187388803399
40
0.84187388803399
40
1
40
1
40
1
40
1
41
1
10
25.9882012355784
20
-8.09452336012953
30
0
41
1
10
25.9878236439905
20
-8.08064295800361
30
0
41
1
10
25.9901624799344
20
-8.06650174790423
30
0
41
1
10
26.0004991750269
20
-8.04159591144372
30
0
41
1
10
26.0081998953968
20
-8.03035383017186
30
0
41
1
10
26.0266789913127
20
-8.01180211862453
30
0
41
1
10
26.0373902543133
20
-8.00405111122473
30
0
41
1
10
26.0683416252707
20
-7.98687920068892
30
0
41
1
10
26.0904981560202
20
-7.97959871987234
30
0
41
1
10
26.1323350872539
20
-7.97085720115732
30
0
41
1
10
26.1522665309551
20
-7.96862713758603
30
0
41
1
10
26.1921600392657
20
-7.96684013976335
30
0
41
1
10
26.2122504052437
20
-7.96727494594609
30
0
41
1
10
26.252234476859
20
-7.9702131860351
30
0
41
1
10
26.2721986631663
20
-7.97272264678031
30
0
41
1
10
26.3118005827398
20
-7.97946590638304
30
0
41
1
10
26.3314844666
20
-7.9837082854867
30
0
41
1
10
26.3780500668838
20
-7.99567682586473
30
0
41
1
10
26.4048152378357
20
-8.00413400910733
30
0
41
1
10
26.4310295201863
20
-8.01393512766191
30
0
0
SPLINE
5
108
100
AcDbEntity
8
1
62
256
6
ByLayer
370
18
48
1
60
0
100
AcDbSpline
70
4
71
3
72
26
73
22
40
0
40
0
40
0
40
0
40
0.0781249424467764
40
0.0781249424467764
40
0.204588649917023
40
0.204588649917023
40
0.399460157706509
40
0.399460157706509
40
0.500593996484156
40
0.500593996484156
40
0.606760004481126
40
0.606760004481126
40
0.711419683525446
40
0.711419683525446
40
0.801110558661991
40
0.801110558661991
40
0.872317699813057
40
0.872317699813057
40
0.927206169761924
40
0.927206169761924
40
1
40
1
40
1
40
1
41
1
10
24.5015364138849
20
-10.2011964276594
30
0
41
1
10
24.5211357629277
20
-10.1983570333265
30
0
41
1
10
24.5418003060933
20
-10.1998248412244
30
0
41
1
10
24.5944728341669
20
-10.2105424480528
30
0
41
1
10
24.6268017076583
20
-10.2240360344135
30
0
41
1
10
24.7042645554567
20
-10.2667406906635
30
0
41
1
10
24.7487130813278
20
-10.3014477458351
30
0
41
1
10
24.8096870856262
20
-10.3605656304219
30
0
41
1
10
24.8296465909862
20
-10.3822579271096
30
0
41
1
10
24.8679059100473
20
-10.4286701924413
30
0
41
1
10
24.8861979112007
20
-10.4536356825343
30
0
41
1
10
24.919123855993
20
-10.5047542479773
30
0
41
1
10
24.9339202729931
20
-10.5310548447198
30
0
41
1
10
24.9575010541975
20
-10.5808661217751
30
0
41
1
10
24.9669165463694
20
-10.6043891111299
30
0
41
1
10
24.9801614033372
20
-10.646936817745
30
0
41
1
10
24.9847771843952
20
-10.6660067586306
30
0
41
1
10
24.989894904094
20
-10.6996547976817
30
0
41
1
10
24.9911066970466
20
-10.7143477509664
30
0
41
1
10
24.9907598495533
20
-10.7478456079616
30
0
41
1
10
24.988171540245
20
-10.7668197260793
30
0
41
1
10
24.9821112580801
20
-10.7841803313949
30
0
0
SPLINE
5
109
100
AcDbEntity
8
1
62
256
6
ByLayer
370
18
48
1
60
0
100
AcDbSpline
70
4
71
3
72
26
73
22
40
0
40
0
40
0
40
0
40
0.0698312878837766
40
0.0698312878837766
40
0.183326154219635
40
0.183326154219635
40
0.29685093962354
40
0.29685093962354
40
0.410442440726389
40
0.410442440726389
40
0.52418207309165
40
0.52418207309165
40
0.608467808779291
40
0.608467808779291
40
0.771063473671255
40
0.771063473671255
40
0.854650990141208
40
0.854650990141208
40
0.938878764920296
40
0.938878764920296
40
1
40
1
40
1
40
1
41
1
10
24.7776203377693
20
-8.29062093412676
30
0
41
1
10
24.7871621090542
20
-8.28275530487153
30
0
41
1
10
24.7968877962926
20
-8.27510705568466
30
0
41
1
10
24.8228761686849
20
-8.25563013740967
30
0
41
1
10
24.8394371507203
20
-8.24416738928113
30
0
41
1
10
24.8733825652386
20
-8.22262817424948
30
0
41
1
10
24.8907989128381
20
-8.21253085166077
30
0
41
1
10
24.9264074579321
20
-8.19397531389473
30
0
41
1
10
24.9446441315976
20
-8.18549283230098
30
0
41
1
10
24.9818230847985
20
-8.1705938905861
30
0
41
1
10
25.0008385675624
20
-8.164146802673
30
0
41
1
10
25.0343768500214
20
-8.15537627765571
30
0
41
1
10
25.0488458223516
20
-8.15240537703389
30
0
41
1
10
25.090920468903
20
-8.14677347295603
30
0
41
1
10
25.1195297839364
20
-8.14675158675729
30
0
41
1
10
25.1587392733833
20
-8.15677118622892
30
0
41
1
10
25.1716175801159
20
-8.1621215689878
30
0
41
1
10
25.1938508246808
20
-8.17674853217414
30
0
41
1
10
25.2034281222151
20
-8.18627563482085
30
0
41
1
10
25.2157229811785
20
-8.20495627537636
30
0
41
1
10
25.2197291871339
20
-8.21363875267832
30
0
41
1
10
25.2225596687824
20
-8.22264781753836
30
0
0
SPLINE
5
10A
100
AcDbEntity
8
1
62
256
6
ByLayer
370
18
48
1
60
0
100
AcDbSpline
70
4
71
3
72
24
73
20
40
0
40
0
40
0
40
0
40
0.0910138713939299
40
0.0910138713939299
40
0.175086621702465
40
0.175086621702465
40
0.253778357416399
40
0.253778357416399
40
0.38727891210394
40
0.38727891210394
40
0.501285480689694
40
0.501285480689694
40
0.614933769530222
40
0.614933769530222
40
0.728436606392702
40
0.728436606392702
40
0.841873888034006
40
0.841873888034006
40
1
40
1
40
1
40
1
41
1
10
24.481738282693
20
-10.2040646199338
30
0
41
1
10
24.4699062976311
20
-10.2113318249041
30
0
41
1
10
24.4564902324728
20
-10.216376938611
30
0
41
1
10
24.4297527978493
20
-10.2198780163001
30
0
41
1
10
24.4161665096915
20
-10.2188300374682
30
0
41
1
10
24.3908607082499
20
-10.2121025267398
30
0
41
1
10
24.3787925074365
20
-10.2067018045745
30
0
41
1
10
24.3484455112022
20
-10.1884830863114
30
0
41
1
10
24.3310621644885
20
-10.1729352082308
30
0
41
1
10
24.3025733215969
20
-10.1410741223236
30
0
41
1
10
24.2906763080415
20
-10.1249280175299
30
0
41
1
10
24.2691819683752
20
-10.0912727247982
30
0
41
1
10
24.2595133385862
20
-10.0736565543986
30
0
41
1
10
24.242065893338
20
-10.0375602125884
30
0
41
1
10
24.2342570569395
20
-10.0190159897078
30
0
41
1
10
24.2202959312731
20
-9.98134809151716
30
0
41
1
10
24.2141279974192
20
-9.96218015849723
30
0
41
1
10
24.2012102572909
20
-9.91586889551999
30
0
41
1
10
24.1951518073475
20
-9.88846098591773
30
0
41
1
10
24.190532683826
20
-9.86085819218277
30
0
0
SPLINE
5
10B
100
AcDbEntity
8
1
62
256
6
ByLayer
370
18
48
1
60
0
100
AcDbSpline
70
4
71
3
72
24
73
20
40
0
40
0
40
0
40
0
40
0.0910138713939299
40
0.0910138713939299
40
0.175086621702462
40
0.175086621702462
40
0.253778357416391
40
0.253778357416391
40
0.387278912103929
40
0.387278912103929
40
0.501285480689683
40
0.501285480689683
40
0.614933769530212
40
0.614933769530212
40
0.728436606392687
40
0.728436606392687
40
0.841873888033986
40
0.841873888033986
40
1
40
1
40
1
40
1
41
1
10
27.0618860804576
20
-10.4539291770905
30
0
41
1
10
27.0740956571073
20
-10.4605423742462
30
0
41
1
10
27.0851728863217
20
-10.4696384706386
30
0
41
1
10
27.1015736258528
20
-10.49104322941
30
0
41
1
10
27.1074591936406
20
-10.5033332895138
30
0
41
1
10
27.1142858991664
20
-10.5286125117895
30
0
41
1
10
27.1156428369792
20
-10.5417642413545
30
0
41
1
10
27.115038462256
20
-10.5771548701535
30
0
41
1
10
27.1102652782202
20
-10.5999832290507
30
0
41
1
10
27.0969171898782
20
-10.6405858336729
30
0
41
1
10
27.0888827597324
20
-10.6589620020379
30
0
41
1
10
27.070483591088
20
-10.6944042925923
30
0
41
1
10
27.0600618548991
20
-10.7115856568092
30
0
41
1
10
27.0375252285319
20
-10.7447437585303
30
0
41
1
10
27.0253698786231
20
-10.7607785206657
30
0
41
1
10
26.9997290847161
20
-10.7917031592536
30
0
41
1
10
26.9862131347097
20
-10.8066287131699
30
0
41
1
10
26.9525652745542
20
-10.8409714357691
30
0
41
1
10
26.9318585535457
20
-10.8599221621288
30
0
41
1
10
26.9102633947166
20
-10.8777238373091
30
0
0
SPLINE
5
10C
100
AcDbEntity
8
1
62
256
6
ByLayer
370
18
48
1
60
0
100
AcDbSpline
70
4
71
3
72
8
73
4
40
0
40
0
40
0
40
0
40
1
40
1
40
1
40
1
41
1
10
27.186347318601
20
-8.9671483437765
30
0
41
1
10
27.1929475604455
20
-8.96619215440268
30
0
41
1
10
27.1995469265566
20
-8.96523609189796
30
0
41
1
10
27.206145449793
20
-8.96428015150209
30
0
0
SPLINE
5
10D
100
AcDbEntity
8
1
62
256
6
ByLayer
370
18
48
1
60
0
100
AcDbSpline
70
4
71
3
72
8
73
4
40
0
40
0
40
0
40
0
40
1
40
1
40
1
40
1
41
1
10
25.2225596687824
20
-8.22264781753836
30
0
41
1
10
25.2269124841563
20
-8.22769829566047
30
0
41
1
10
25.2312658555453
20
-8.23274941891486
30
0
41
1
10
25.235619804625
20
-8.23780121245139
30
0
0
SPLINE
5
10E
100
AcDbEntity
8
1
62
256
6
ByLayer
370
18
48
1
60
0
100
AcDbSpline
70
4
71
3
72
8
73
4
40
0
40
0
40
0
40
0
40
1
40
1
40
1
40
1
41
1
10
24.9821112580801
20
-10.7841803313949
30
0
41
1
10
24.9799132510826
20
-10.790476858673
30
0
41
1
10
24.9777155357212
20
-10.7967725505151
30
0
41
1
10
24.9755181010531
20
-10.803067438268
30
0
0
SPLINE
5
10F
100
AcDbEntity
8
1
62
256
6
ByLayer
370
18
48
1
60
0
100
AcDbSpline
70
4
71
3
72
24
73
20
40
0
40
0
40
0
40
0
40
0.0910138713939269
40
0.0910138713939269
40
0.175086621702454
40
0.175086621702454
40
0.253778357416383
40
0.253778357416383
40
0.387278912103916
40
0.387278912103916
40
0.501285480689672
40
0.501285480689672
40
0.614933769530192
40
0.614933769530192
40
0.728436606392668
40
0.728436606392668
40
0.841873888033963
40
0.841873888033963
40
1
40
1
40
1
40
1
41
1
10
24.6259976520284
20
-8.71441559434535
30
0
41
1
10
24.6137880753787
20
-8.70780239718971
30
0
41
1
10
24.6027108461643
20
-8.69870630079731
30
0
41
1
10
24.5863101066332
20
-8.67730154202584
30
0
41
1
10
24.5804245388453
20
-8.66501148192211
30
0
41
1
10
24.5735978333196
20
-8.63973225964634
30
0
41
1
10
24.5722408955067
20
-8.62658053008133
30
0
41
1
10
24.5728452702299
20
-8.59118990128235
30
0
41
1
10
24.5776184542658
20
-8.56836154238522
30
0
41
1
10
24.5909665426078
20
-8.52775893776297
30
0
41
1
10
24.5990009727536
20
-8.50938276939797
30
0
41
1
10
24.6174001413979
20
-8.47394047884356
30
0
41
1
10
24.6278218775869
20
-8.45675911462672
30
0
41
1
10
24.650358503954
20
-8.42360101290561
30
0
41
1
10
24.6625138538628
20
-8.4075662507702
30
0
41
1
10
24.6881546477699
20
-8.37664161218225
30
0
41
1
10
24.7016705977763
20
-8.36171605826598
30
0
41
1
10
24.7353184579317
20
-8.32737333566681
30
0
41
1
10
24.7560251789402
20
-8.30842260930712
30
0
41
1
10
24.7776203377693
20
-8.29062093412676
30
0
0
SPLINE
5
110
100
AcDbEntity
8
1
62
256
6
ByLayer
370
18
48
1
60
0
100
AcDbSpline
70
4
71
3
72
8
73
4
40
0
40
0
40
0
40
0
40
1
40
1
40
1
40
1
41
1
10
27.049503087489
20
-10.438217588668
30
0
41
1
10
27.0536312926998
20
-10.4434554710895
30
0
41
1
10
27.0577589501721
20
-10.4486926585383
30
0
41
1
10
27.0618860804576
20
-10.4539291770905
30
0
0
SPLINE
5
111
100
AcDbEntity
8
1
62
256
6
ByLayer
370
18
48
1
60
0
100
AcDbSpline
70
4
71
3
72
26
73
22
40
0
40
0
40
0
40
0
40
0.0698312878837993
40
0.0698312878837993
40
0.18332615421966
40
0.18332615421966
40
0.296850939623564
40
0.296850939623564
40
0.410442440726407
40
0.410442440726407
40
0.524182073091666
40
0.524182073091666
40
0.608467808779302
40
0.608467808779302
40
0.771063473671261
40
0.771063473671261
40
0.85465099014121
40
0.85465099014121
40
0.938878764920298
40
0.938878764920298
40
1
40
1
40
1
40
1
41
1
10
27.49735104866
20
-9.30748657925309
30
0
41
1
10
27.4993919977694
20
-9.31968281021045
30
0
41
1
10
27.5011527322404
20
-9.33192962702165
30
0
41
1
10
27.5050260520579
20
-9.36417467685391
30
0
41
1
10
27.5066725921167
20
-9.38424828207241
30
0
41
1
10
27.5083533922525
20
-9.42441548090312
30
0
41
1
10
27.5083897563248
20
-9.44454714165974
30
0
41
1
10
27.5066550508641
20
-9.48466281518597
30
0
41
1
10
27.5048827585786
20
-9.5046974786577
30
0
41
1
10
27.4991961439928
20
-9.54434486747326
30
0
41
1
10
27.495271744524
20
-9.56403630256855
30
0
41
1
10
27.486098100764
20
-9.59746656968599
30
0
41
1
10
27.4814364900095
20
-9.6114825176015
30
0
41
1
10
27.4652765387369
20
-9.65073618240919
30
0
41
1
10
27.4509908352243
20
-9.67552351911237
30
0
41
1
10
27.4227088628227
20
-9.70447013330704
30
0
41
1
10
27.4116361420673
20
-9.7129478827157
30
0
41
1
10
27.3878521980852
20
-9.72488895572425
30
0
41
1
10
27.3748128364015
20
-9.72841958736527
30
0
41
1
10
27.3524874976397
20
-9.72972692728578
30
0
41
1
10
27.3429651487508
20
-9.72885516476492
30
0
41
1
10
27.3337478288934
20
-9.72680190134747
30
0
0
SPLINE
5
112
100
AcDbEntity
8
1
62
256
6
ByLayer
370
18
48
1
60
0
100
AcDbSpline
70
4
71
3
72
30
73
26
40
0
40
0
40
0
40
0
40
0.0785796353497134
40
0.0785796353497134
40
0.140894784437006
40
0.140894784437006
40
0.203048952389483
40
0.203048952389483
40
0.265131088256469
40
0.265131088256469
40
0.36837635370226
40
0.36837635370226
40
0.500084378067078
40
0.500084378067078
40
0.606358723073574
40
0.606358723073574
40
0.711125201995839
40
0.711125201995839
40
0.800907602106436
40
0.800907602106436
40
0.872187406522163
40
0.872187406522163
40
0.927131887361887
40
0.927131887361887
40
1
40
1
40
1
40
1
41
1
10
24.3737891964621
20
-9.4378091581284
30
0
41
1
10
24.3932451614244
20
-9.43411293431717
30
0
41
1
10
24.4123059993353
20
-9.42599737750317
30
0
41
1
10
24.4441801490223
20
-9.4072210823557
30
0
41
1
10
24.4577217595561
20
-9.39728134149345
30
0
41
1
10
24.4833994642606
20
-9.37539489732262
30
0
41
1
10
24.4956211611224
20
-9.36337880235462
30
0
41
1
10
24.5188164627936
20
-9.33789766991964
30
0
41
1
10
24.529838196547
20
-9.32437944350971
30
0
41
1
10
24.5576208612644
20
-9.28695945774734
30
0
41
1
10
24.5734832266085
20
-9.26194783603609
30
0
41
1
10
24.6060674751465
20
-9.20292069909203
30
0
41
1
10
24.6220085360058
20
-9.16799317234148
30
0
41
1
10
24.6461401468291
20
-9.10345024735054
30
0
41
1
10
24.6553076051698
20
-9.07388961966186
30
0
41
1
10
24.6697971205804
20
-9.01483642739754
30
0
41
1
10
24.6752247709623
20
-8.9851514824521
30
0
41
1
10
24.6813038720761
20
-8.9303768433046
30
0
41
1
10
24.6825480585929
20
-8.90507003550721
30
0
41
1
10
24.681219138568
20
-8.86052828491458
30
0
41
1
10
24.6793748798395
20
-8.84099455025114
30
0
41
1
10
24.6732590489045
20
-8.80751353773849
30
0
41
1
10
24.6696212639665
20
-8.79322655628218
30
0
41
1
10
24.6583874777385
20
-8.76166663274873
30
0
41
1
10
24.6497628145901
20
-8.74456892269745
30
0
41
1
10
24.6383806449969
20
-8.73012718276783
30
0
0
SPLINE
5
113
100
AcDbEntity
8
1
62
256
6
ByLayer
370
18
48
1
60
0
100
AcDbSpline
70
4
71
3
72
26
73
22
40
0
40
0
40
0
40
0
40
0.0698312878838244
40
0.0698312878838244
40
0.183326154219675
40
0.183326154219675
40
0.296850939623577
40
0.296850939623577
40
0.410442440726416
40
0.410442440726416
40
0.524182073091673
40
0.524182073091673
40
0.608467808779307
40
0.608467808779307
40
0.771063473671266
40
0.771063473671266
40
0.854650990141208
40
0.854650990141208
40
0.938878764920295
40
0.938878764920295
40
1
40
1
40
1
40
1
41
1
10
24.190532683826
20
-9.86085819218277
30
0
41
1
10
24.1884917347166
20
-9.84866196122542
30
0
41
1
10
24.1867310002455
20
-9.83641514441422
30
0
41
1
10
24.1828576804281
20
-9.80417009458196
30
0
41
1
10
24.1812111403693
20
-9.78409648936346
30
0
41
1
10
24.1795303402335
20
-9.74392929053275
30
0
41
1
10
24.1794939761612
20
-9.72379762977613
30
0
41
1
10
24.1812286816219
20
-9.6836819562499
30
0
41
1
10
24.1830009739073
20
-9.66364729277819
30
0
41
1
10
24.1886875884932
20
-9.62399990396261
30
0
41
1
10
24.192611987962
20
-9.60430846886732
30
0
41
1
10
24.201785631722
20
-9.57087820174991
30
0
41
1
10
24.2064472424764
20
-9.55686225383437
30
0
41
1
10
24.222607193749
20
-9.51760858902668
30
0
41
1
10
24.2368928972616
20
-9.49282125232349
30
0
41
1
10
24.2651748696633
20
-9.46387463812883
30
0
41
1
10
24.2762475904187
20
-9.45539688872017
30
0
41
1
10
24.3000315344008
20
-9.44345581571162
30
0
41
1
10
24.3130708960844
20
-9.4399251840706
30
0
41
1
10
24.3353962348462
20
-9.43861784415009
30
0
41
1
10
24.3449185837351
20
-9.43948960667095
30
0
41
1
10
24.3541359035925
20
-9.4415428700884
30
0
0
SPLINE
5
114
100
AcDbEntity
8
1
62
256
6
ByLayer
370
18
48
1
60
0
100
AcDbSpline
70
4
71
3
72
30
73
26
40
0
40
0
40
0
40
0
40
0.0785796353497167
40
0.0785796353497167
40
0.140894784437008
40
0.140894784437008
40
0.203048952389487
40
0.203048952389487
40
0.26513108825647
40
0.26513108825647
40
0.368376353702261
40
0.368376353702261
40
0.500084378067082
40
0.500084378067082
40
0.606358723073575
40
0.606358723073575
40
0.711125201995845
40
0.711125201995845
40
0.800907602106438
40
0.800907602106438
40
0.872187406522167
40
0.872187406522167
40
0.92713188736189
40
0.92713188736189
40
1
40
1
40
1
40
1
41
1
10
25.235619804625
20
-8.23780121245139
30
0
41
1
10
25.2485488108247
20
-8.25280246045827
30
0
41
1
10
25.2651075081469
20
-8.26525185189954
30
0
41
1
10
25.2973053315771
20
-8.28346752767879
30
0
41
1
10
25.3126842049377
20
-8.29022503597807
30
0
41
1
10
25.3444772739404
20
-8.30151935847761
30
0
41
1
10
25.3609943658679
20
-8.30609561095326
30
0
41
1
10
25.3946593247094
20
-8.31344276523157
30
0
41
1
10
25.4118773190712
20
-8.31622875345076
30
0
41
1
10
25.4581753097094
20
-8.32157925399972
30
0
41
1
10
25.4877671921732
20
-8.32281065449612
30
0
41
1
10
25.5551783165484
20
-8.32151587302127
30
0
41
1
10
25.5933969724354
20
-8.31785747331341
30
0
41
1
10
25.6613585905238
20
-8.30648459882514
30
0
41
1
10
25.6915425742243
20
-8.29964353679199
30
0
41
1
10
25.7499288966051
20
-8.28266522909388
30
0
41
1
10
25.7783506382288
20
-8.27252323973482
30
0
41
1
10
25.8288264177705
20
-8.25040057615774
30
0
41
1
10
25.8513648494701
20
-8.23882466938963
30
0
41
1
10
25.889274677
20
-8.21540291559219
30
0
41
1
10
25.905269258085
20
-8.20403887335044
30
0
41
1
10
25.9312067499979
20
-8.18200190213918
30
0
41
1
10
25.9417607464135
20
-8.17170799724119
30
0
41
1
10
25.9634755488209
20
-8.14619929122034
30
0
41
1
10
25.9739702684976
20
-8.13018125880905
30
0
41
1
10
25.980786097355
20
-8.11310314082641
30
0
0
SPLINE
5
115
100
AcDbEntity
8
1
62
256
6
ByLayer
370
18
48
1
60
0
100
AcDbSpline
70
4
71
3
72
8
73
4
40
0
40
0
40
0
40
0
40
1
40
1
40
1
40
1
41
1
10
26.7123656314328
20
-8.36527733316788
30
0
41
1
10
26.7101681967648
20
-8.37157222092077
30
0
41
1
10
26.7079704814034
20
-8.37786791276287
30
0
41
1
10
26.7057724744059
20
-8.38416444004093
30
0
0
SPLINE
5
116
100
AcDbEntity
8
1
62
256
6
ByLayer
370
18
48
1
60
0
100
AcDbSpline
70
4
71
3
72
26
73
22
40
0
40
0
40
0
40
0
40
0.0698312878838095
40
0.0698312878838095
40
0.183326154219663
40
0.183326154219663
40
0.296850939623565
40
0.296850939623565
40
0.410442440726411
40
0.410442440726411
40
0.524182073091665
40
0.524182073091665
40
0.608467808779297
40
0.608467808779297
40
0.771063473671258
40
0.771063473671258
40
0.854650990141208
40
0.854650990141208
40
0.938878764920293
40
0.938878764920293
40
1
40
1
40
1
40
1
41
1
10
26.4310295201863
20
-8.01393512766191
30
0
41
1
10
26.4426122405805
20
-8.01826572936406
30
0
41
1
10
26.4540986622901
20
-8.02286429698839
30
0
41
1
10
26.4839603544998
20
-8.03563242854563
30
0
41
1
10
26.502167876594
20
-8.04424328563559
30
0
41
1
10
26.5377940912481
20
-8.06287126943465
30
0
41
1
10
26.5552468029199
20
-8.07290560760256
30
0
41
1
10
26.5891206425532
20
-8.09446574336278
30
0
41
1
10
26.6055850239332
20
-8.10601792524074
30
0
41
1
10
26.6370773625483
20
-8.13076637234141
30
0
41
1
10
26.6521684458434
20
-8.14401071952364
30
0
41
1
10
26.6765330845424
20
-8.16867046162375
30
0
41
1
10
26.6863404461181
20
-8.17971550891744
30
0
41
1
10
26.7122551413969
20
-8.21333726964727
30
0
41
1
10
26.7265787529177
20
-8.23810272015174
30
0
41
1
10
26.737506269963
20
-8.27706893381801
30
0
41
1
10
26.7393118559401
20
-8.29089706598555
30
0
41
1
10
26.737761156523
20
-8.31746510218048
30
0
41
1
10
26.7342990923737
20
-8.33052283646819
30
0
41
1
10
26.7242686125753
20
-8.35051081694422
30
0
41
1
10
26.7187524696417
20
-8.35832153172532
30
0
41
1
10
26.7123656314328
20
-8.36527733316788
30
0
0
SPLINE
5
117
100
AcDbEntity
8
1
62
256
6
ByLayer
370
18
48
1
60
0
100
AcDbSpline
70
4
71
3
72
8
73
4
40
0
40
0
40
0
40
0
40
1
40
1
40
1
40
1
41
1
10
26.4653240637036
20
-10.9456969538975
30
0
41
1
10
26.4609712483296
20
-10.9406464757754
30
0
41
1
10
26.4566178769407
20
-10.935595352521
30
0
41
1
10
26.452263927861
20
-10.9305435589845
30
0
0
SPLINE
5
118
100
AcDbEntity
8
1
62
256
6
ByLayer
370
18
48
1
60
0
100
AcDbSpline
70
4
71
3
72
8
73
4
40
0
40
0
40
0
40
0
40
1
40
1
40
1
40
1
41
1
10
24.6383806449969
20
-8.73012718276783
30
0
41
1
10
24.6342524397861
20
-8.72488930034632
30
0
41
1
10
24.6301247823139
20
-8.71965211289762
30
0
41
1
10
24.6259976520284
20
-8.71441559434535
30
0
0
SPLINE
5
119
100
AcDbEntity
8
1
62
256
6
ByLayer
370
18
48
1
60
0
100
AcDbSpline
70
4
71
3
72
8
73
4
40
0
40
0
40
0
40
0
40
1
40
1
40
1
40
1
41
1
10
25.980786097355
20
-8.11310314082641
30
0
41
1
10
25.9832581339886
20
-8.10690906903105
30
0
41
1
10
25.9857298426275
20
-8.10071581907764
30
0
41
1
10
25.9882012355784
20
-8.09452336012953
30
0
0
SPLINE
5
11A
100
AcDbEntity
8
1
62
256
6
ByLayer
370
18
48
1
60
0
100
AcDbSpline
70
4
71
3
72
8
73
4
40
0
40
0
40
0
40
0
40
1
40
1
40
1
40
1
41
1
10
24.3541359035925
20
-9.4415428700884
30
0
41
1
10
24.3606861536345
20
-9.44029846045765
30
0
41
1
10
24.3672372403849
20
-9.43905389186992
30
0
41
1
10
24.3737891964621
20
-9.4378091581284
30
0
0
SPLINE
5
11B
100
AcDbEntity
8
1
62
256
6
ByLayer
370
18
48
1
60
0
100
AcDbSpline
70
4
71
3
72
24
73
20
40
0
40
0
40
0
40
0
40
0.0910138713939345
40
0.0910138713939345
40
0.175086621702473
40
0.175086621702473
40
0.253778357416411
40
0.253778357416411
40
0.38727891210396
40
0.38727891210396
40
0.501285480689726
40
0.501285480689726
40
0.614933769530258
40
0.614933769530258
40
0.728436606392738
40
0.728436606392738
40
0.841873888034045
40
0.841873888034045
40
1
40
1
40
1
40
1
41
1
10
24.9755181010531
20
-10.803067438268
30
0
41
1
10
24.9661267659236
20
-10.8132953883593
30
0
41
1
10
24.9586144392505
20
-10.8255023095355
30
0
41
1
10
24.9500759431801
20
-10.8510804650611
30
0
41
1
10
24.9485122816949
20
-10.864617098627
30
0
41
1
10
24.9502876145526
20
-10.8907416307845
30
0
41
1
10
24.953286388967
20
-10.903618611129
30
0
41
1
10
24.9653798981975
20
-10.9368843428973
30
0
41
1
10
24.9773252190436
20
-10.9569149835675
30
0
41
1
10
25.0031649995727
20
-10.9909597879686
30
0
41
1
10
25.0167443977405
20
-11.0057190419113
30
0
41
1
10
25.0456800345949
20
-11.0332402026132
30
0
41
1
10
25.0611276847902
20
-11.046092516218
30
0
41
1
10
25.0932317056344
20
-11.0701069094728
30
0
41
1
10
25.1099452226821
20
-11.0813106800898
30
0
41
1
10
25.1442571471266
20
-11.1022026743673
30
0
41
1
10
25.1618960139673
20
-11.1119146999468
30
0
41
1
10
25.2048915875891
20
-11.1334317103688
30
0
41
1
10
25.230639929949
20
-11.1446085252194
30
0
41
1
10
25.2568542122996
20
-11.154409643774
30
0
0
LINE
5
7A
100
AcDbEntity
8
80
62
256
6
ByLayer
370
18
48
1
60
0
100
AcDbLine
10
0
20
0
30
0
11
-5
21
0
31
0
39
0
210
0
220
0
230
1
0
LINE
5
7B
100
AcDbEntity
8
81
62
256
6
ByLayer
370
18
48
1
60
0
100
AcDbLine
10
39
20
-15
30
0
11
44
21
-15
31
0
39
0
210
0
220
0
230
1
0
LINE
5
7C
100
AcDbEntity
8
1
62
256
6
ByLayer
370
13
48
1
60
0
100
AcDbLine
10
7.181901
20
-1.092948
30
0
11
7.990369
21
0.280708
31
0
39
0
210
0
220
0
230
1
0
LINE
5
7E
100
AcDbEntity
8
1
62
256
6
ByLayer
370
13
48
1
60
0
100
AcDbLine
10
10.940057
20
-1.080083
30
0
11
4.573797
21
-11.073111
31
0
39
0
210
0
220
0
230
1
0
LINE
5
7F
100
AcDbEntity
8
1
62
256
6
ByLayer
370
13
48
1
60
0
100
AcDbLine
10
14.002692
20
-1.789357
30
0
11
13.941125
21
-1.868158
31
0
39
0
210
0
220
0
230
1
0
LINE
5
80
100
AcDbEntity
8
1
62
256
6
ByLayer
370
13
48
1
60
0
100
AcDbLine
10
15.680141
20
6.360358
30
0
11
14.786712
21
4.957955
31
0
39
0
210
0
220
0
230
1
0
LINE
5
81
100
AcDbEntity
8
1
62
256
6
ByLayer
370
13
48
1
60
0
100
AcDbLine
10
3.443695
20
3.399477
30
0
11
3.844554
21
3.904929
31
0
39
0
210
0
220
0
230
1
0
LINE
5
82
100
AcDbEntity
8
1
62
256
6
ByLayer
370
13
48
1
60
0
100
AcDbLine
10
7.558752
20
9.858823
30
0
11
7.270067
21
9.281908
31
0
39
0
210
0
220
0
230
1
0
LINE
5
83
100
AcDbEntity
8
1
62
256
6
ByLayer
370
13
48
1
60
0
100
AcDbLine
10
11.983397
20
6.585964
30
0
11
12.306824
21
7.056185
31
0
39
0
210
0
220
0
230
1
0
LINE
5
84
100
AcDbEntity
8
1
62
256
6
ByLayer
370
13
48
1
60
0
100
AcDbLine
10
7.990369
20
0.280708
30
0
11
8.279847
21
0.772557
31
0
39
0
210
0
220
0
230
1
0
LINE
5
85
100
AcDbEntity
8
1
62
256
6
ByLayer
370
13
48
1
60
0
100
AcDbLine
10
11.304021
20
1.434495
30
0
11
11.406923
21
1.364186
31
0
39
0
210
0
220
0
230
1
0
LINE
5
86
100
AcDbEntity
8
1
62
256
6
ByLayer
370
13
48
1
60
0
100
AcDbLine
10
11.539349
20
1.273705
30
0
11
11.760431
21
1.122649
31
0
39
0
210
0
220
0
230
1
0
LINE
5
87
100
AcDbEntity
8
1
62
256
6
ByLayer
370
13
48
1
60
0
100
AcDbLine
10
13.137063
20
3.283529
30
0
11
12.906727
21
3.420058
31
0
39
0
210
0
220
0
230
1
0
LINE
5
88
100
AcDbEntity
8
1
62
256
6
ByLayer
370
13
48
1
60
0
100
AcDbLine
10
12.768758
20
3.501838
30
0
11
12.661547
21
3.565385
31
0
39
0
210
0
220
0
230
1
0
LINE
5
89
100
AcDbEntity
8
1
62
256
6
ByLayer
370
13
48
1
60
0
100
AcDbLine
10
7.629396
20
10
30
0
11
7.558752
21
9.858823
31
0
39
0
210
0
220
0
230
1
0
LINE
5
8A
100
AcDbEntity
8
1
62
256
6
ByLayer
370
13
48
1
60
0
100
AcDbLine
10
2.453271
20
2.150632
30
0
11
3.443695
21
3.399477
31
0
39
0
210
0
220
0
230
1
0
LINE
5
8B
100
AcDbEntity
8
1
62
256
6
ByLayer
370
18
48
1
60
0
100
AcDbLine
10
26.49957
20
-2.97635
30
0
11
25.812696
21
-4.813477
31
0
39
0
210
0
220
0
230
1
0
LINE
5
8C
100
AcDbEntity
8
1
62
256
6
ByLayer
370
18
48
1
60
0
100
AcDbLine
10
17.302531
20
-4.367475
30
0
11
14.002692
21
-1.789357
31
0
39
0
210
0
220
0
230
1
0
LINE
5
8D
100
AcDbEntity
8
1
62
256
6
ByLayer
370
18
48
1
60
0
100
AcDbLine
10
22.690508
20
-13.164148
30
0
11
22.415758
21
-13.899
31
0
39
0
210
0
220
0
230
1
0
LINE
5
8E
100
AcDbEntity
8
1
62
256
6
ByLayer
370
18
48
1
60
0
100
AcDbLine
10
22.956598
20
-13.372044
30
0
11
22.740355
21
-13.950411
31
0
39
0
210
0
220
0
230
1
0
LINE
5
8F
100
AcDbEntity
8
1
62
256
6
ByLayer
370
18
48
1
60
0
100
AcDbLine
10
26.645198
20
-3.506435
30
0
11
26.149904
21
-4.83116
31
0
39
0
210
0
220
0
230
1
0
LINE
5
90
100
AcDbEntity
8
1
62
256
6
ByLayer
370
18
48
1
60
0
100
AcDbLine
10
23.039223
20
-13.436597
30
0
11
22.841148
21
-13.966375
31
0
39
0
210
0
220
0
230
1
0
LINE
5
91
100
AcDbEntity
8
1
62
256
6
ByLayer
370
13
48
1
60
0
100
AcDbLine
10
13.210106
20
8.369439
30
0
11
12.306824
21
7.056185
31
0
39
0
210
0
220
0
230
1
0
LINE
5
92
100
AcDbEntity
8
1
62
256
6
ByLayer
370
18
48
1
60
0
100
AcDbLine
10
17.128403
20
-4.358332
30
0
11
13.941125
21
-1.868158
31
0
39
0
210
0
220
0
230
1
0
LINE
5
93
100
AcDbEntity
8
1
62
256
6
ByLayer
370
18
48
1
60
0
100
AcDbLine
10
26.694642
20
-3.659736
30
0
11
26.254609
21
-4.836659
31
0
39
0
210
0
220
0
230
1
0
LINE
5
94
100
AcDbEntity
8
SK1
62
256
6
ByLayer
370
13
48
1
60
0
100
AcDbLine
10
-1.5
20
-9.925
30
0
11
-1.5
21
10
31
0
39
0
210
0
220
0
230
1
0
LINE
5
96
100
AcDbEntity
8
SK1
62
256
6
ByLayer
370
18
48
1
60
0
100
AcDbLine
10
-69
20
7
30
0
11
-69
21
-6.925
31
0
39
0
210
0
220
0
230
1
0
LINE
5
97
100
AcDbEntity
8
SK1
62
256
6
ByLayer
370
18
48
1
60
0
100
AcDbLine
10
0
20
10
30
0
11
-0.995179
21
10
31
0
39
0
210
0
220
0
230
1
0
LINE
5
98
100
AcDbEntity
8
SK1
62
256
6
ByLayer
370
18
48
1
60
0
100
AcDbLine
10
-1.5
20
-9.925
30
0
11
-66
21
-9.925
31
0
39
0
210
0
220
0
230
1
0
LINE
5
99
100
AcDbEntity
8
SK1
62
256
6
ByLayer
370
18
48
1
60
0
100
AcDbLine
10
-0.995179
20
10
30
0
11
-0.995179
21
-9.925
31
0
39
0
210
0
220
0
230
1
0
LINE
5
9A
100
AcDbEntity
8
SK1
62
256
6
ByLayer
370
18
48
1
60
0
100
AcDbLine
10
-69
20
7
30
0
11
-66
21
10
31
0
39
0
210
0
220
0
230
1
0
LINE
5
9B
100
AcDbEntity
8
SK1
62
256
6
ByLayer
370
18
48
1
60
0
100
AcDbLine
10
0
20
10
30
0
11
0
21
-9.925
31
0
39
0
210
0
220
0
230
1
0
LINE
5
9C
100
AcDbEntity
8
SK1
62
256
6
ByLayer
370
18
48
1
60
0
100
AcDbLine
10
-0.995179
20
-9.925
30
0
11
-1.5
21
-9.925
31
0
39
0
210
0
220
0
230
1
0
LINE
5
9D
100
AcDbEntity
8
SK1
62
256
6
ByLayer
370
18
48
1
60
0
100
AcDbLine
10
-1.5
20
10
30
0
11
-66
21
10
31
0
39
0
210
0
220
0
230
1
0
LINE
5
9E
100
AcDbEntity
8
SK1
62
256
6
ByLayer
370
18
48
1
60
0
100
AcDbLine
10
-69
20
-6.925
30
0
11
-66
21
-9.925
31
0
39
0
210
0
220
0
230
1
0
LINE
5
9F
100
AcDbEntity
8
SK1
62
256
6
ByLayer
370
18
48
1
60
0
100
AcDbLine
10
-0.995179
20
10
30
0
11
-1.5
21
10
31
0
39
0
210
0
220
0
230
1
0
LINE
5
A0
100
AcDbEntity
8
SK1
62
256
6
ByLayer
370
18
48
1
60
0
100
AcDbLine
10
0
20
-9.925
30
0
11
-0.995179
21
-9.925
31
0
39
0
210
0
220
0
230
1
0
LINE
5
A1
100
AcDbEntity
8
1
62
256
6
ByLayer
370
18
48
1
60
0
100
AcDbLine
10
1.738459
20
10
30
0
11
0
21
10
31
0
39
0
210
0
220
0
230
1
0
LINE
5
A2
100
AcDbEntity
8
1
62
256
6
ByLayer
370
18
48
1
60
0
100
AcDbLine
10
15.680141
20
6.360358
30
0
11
26.430869
21
-2.660574
31
0
39
0
210
0
220
0
230
1
0
LINE
5
A3
100
AcDbEntity
8
1
62
256
6
ByLayer
370
18
48
1
60
0
100
AcDbLine
10
4.035289
20
-10.987819
30
0
11
4.573797
21
-11.073111
31
0
39
0
210
0
220
0
230
1
0
LINE
5
A4
100
AcDbEntity
8
1
62
256
6
ByLayer
370
18
48
1
60
0
100
AcDbLine
10
4.573797
20
-11.073111
30
0
11
22.415758
21
-13.899
31
0
39
0
210
0
220
0
230
1
0
LINE
5
A5
100
AcDbEntity
8
1
62
256
6
ByLayer
370
18
48
1
60
0
100
AcDbLine
10
0
20
10
30
0
11
0
21
-9.925
31
0
39
0
210
0
220
0
230
1
0
LINE
5
A6
100
AcDbEntity
8
1
62
256
6
ByLayer
370
18
48
1
60
0
100
AcDbLine
10
15.293814
20
6.684525
30
0
11
11.342585
21
10
31
0
39
0
210
0
220
0
230
1
0
LINE
5
A7
100
AcDbEntity
8
1
62
256
6
ByLayer
370
18
48
1
60
0
100
AcDbLine
10
22.740355
20
-13.950411
30
0
11
22.841148
21
-13.966375
31
0
39
0
210
0
220
0
230
1
0
LINE
5
A8
100
AcDbEntity
8
1
62
256
6
ByLayer
370
18
48
1
60
0
100
AcDbLine
10
22.415758
20
-13.899
30
0
11
22.740355
21
-13.950411
31
0
39
0
210
0
220
0
230
1
0
LINE
5
A9
100
AcDbEntity
8
1
62
256
6
ByLayer
370
18
48
1
60
0
100
AcDbLine
10
14.912106
20
6.085363
30
0
11
15.293814
21
6.684525
31
0
39
0
210
0
220
0
230
1
0
LINE
5
AA
100
AcDbEntity
8
1
62
256
6
ByLayer
370
18
48
1
60
0
100
AcDbLine
10
4.035289
20
-10.987819
30
0
11
2.135195
21
-10.686874
31
0
39
0
210
0
220
0
230
1
0
LINE
5
AB
100
AcDbEntity
8
1
62
256
6
ByLayer
370
18
48
1
60
0
100
AcDbLine
10
15.293814
20
6.684525
30
0
11
15.680141
21
6.360358
31
0
39
0
210
0
220
0
230
1
0
LINE
5
AC
100
AcDbEntity
8
1
62
256
6
ByLayer
370
18
48
1
60
0
100
AcDbLine
10
4.035289
20
-10.987819
30
0
11
9.971272
21
-1.670192
31
0
39
0
210
0
220
0
230
1
0
LINE
5
AD
100
AcDbEntity
8
1
62
256
6
ByLayer
370
18
48
1
60
0
100
AcDbLine
10
11.342585
20
10
30
0
11
10.642424
21
10
31
0
39
0
210
0
220
0
230
1
0
LINE
5
AE
100
AcDbEntity
8
1
62
256
6
ByLayer
370
18
48
1
60
0
100
AcDbLine
10
0.772277
20
-9.925
30
0
11
0
21
-9.925
31
0
39
0
210
0
220
0
230
1
0
LINE
5
AF
100
AcDbEntity
8
1
62
256
6
ByLayer
370
18
48
1
60
0
100
AcDbLine
10
23.645367
20
-14.093751
30
0
11
22.841148
21
-13.966375
31
0
39
0
210
0
220
0
230
1
0
LINE
5
B0
100
AcDbEntity
8
1
62
256
6
ByLayer
370
18
48
1
60
0
100
AcDbLine
10
12.992952
20
-5.587578
30
0
11
23.897925
21
-14.107477
31
0
39
0
210
0
220
0
230
1
0
LINE
5
B1
100
AcDbEntity
8
1
62
256
6
ByLayer
370
18
48
1
60
0
100
AcDbLine
10
38.694931
20
-13.580766
30
0
11
27.789959
21
-5.060868
31
0
39
0
210
0
220
0
230
1
0
LINE
5
B2
100
AcDbEntity
8
1
62
256
6
ByLayer
370
18
48
1
60
0
100
AcDbLine
10
27.342819
20
-4.893689
30
0
11
13.523175
21
-4.169433
31
0
39
0
210
0
220
0
230
1
0
LINE
5
B3
100
AcDbEntity
8
1
62
256
6
ByLayer
370
18
48
1
60
0
100
AcDbLine
10
24.345065
20
-14.274655
30
0
11
38.164708
21
-14.998912
31
0
39
0
210
0
220
0
230
1
0
LINE
5
B4
100
AcDbEntity
8
SK2
62
256
6
ByLayer
370
13
48
1
60
0
100
AcDbLine
10
-83.60005
20
-10
30
0
11
-83.60005
21
10
31
0
39
0
210
0
220
0
230
1
0
LINE
5
B5
100
AcDbEntity
8
SK2
62
256
6
ByLayer
370
13
48
1
60
0
100
AcDbLine
10
-2
20
10
30
0
11
-85.60005
21
10
31
0
39
0
210
0
220
0
230
1
0
LINE
5
B6
100
AcDbEntity
8
SK2
62
256
6
ByLayer
370
13
48
1
60
0
100
AcDbLine
10
-2
20
-10
30
0
11
-85.60005
21
-10
31
0
39
0
210
0
220
0
230
1
0
LINE
5
B7
100
AcDbEntity
8
SK2
62
256
6
ByLayer
370
18
48
1
60
0
100
AcDbLine
10
-83.60005
20
10
30
0
11
-83.182053
21
6.825002
31
0
39
0
210
0
220
0
230
1
0
LINE
5
B8
100
AcDbEntity
8
SK2
62
256
6
ByLayer
370
18
48
1
60
0
100
AcDbLine
10
-83.60005
20
10
30
0
11
-84.018047
21
6.824998
31
0
39
0
210
0
220
0
230
1
0
LINE
5
B9
100
AcDbEntity
8
SK2
62
256
6
ByLayer
370
18
48
1
60
0
100
AcDbLine
10
-83.182053
20
6.825002
30
0
11
-84.018047
21
6.824998
31
0
39
0
210
0
220
0
230
1
0
LINE
5
BA
100
AcDbEntity
8
SK2
62
256
6
ByLayer
370
18
48
1
60
0
100
AcDbLine
10
-83.60005
20
-10
30
0
11
-84.018047
21
-6.825002
31
0
39
0
210
0
220
0
230
1
0
LINE
5
BB
100
AcDbEntity
8
SK2
62
256
6
ByLayer
370
18
48
1
60
0
100
AcDbLine
10
-83.60005
20
-10
30
0
11
-83.182053
21
-6.824998
31
0
39
0
210
0
220
0
230
1
0
LINE
5
BC
100
AcDbEntity
8
SK2
62
256
6
ByLayer
370
18
48
1
60
0
100
AcDbLine
10
-84.018047
20
-6.825002
30
0
11
-83.182053
21
-6.824998
31
0
39
0
210
0
220
0
230
1
0
MTEXT
5
11C
100
AcDbEntity
8
SK6
62
256
6
ByLayer
370
18
48
1
60
0
100
AcDbMText
10
-31.386209
20
-57.124975
30
0
210
0
220
0
230
1
1
\W0.7950;QS-SVJBL202016C
40
3.5
41
0
44
1.084337
50
0
71
7
72
5
7
iso_b_vert
0
MTEXT
5
120
100
AcDbEntity
8
SK2
62
256
6
ByLayer
370
18
48
1
60
0
100
AcDbMText
10
-84.47505
20
-3.140789
30
0
210
0
220
0
230
1
1
\W0.7346;20.0
40
3.5
41
0
44
1.084337
50
89.9999999999999
71
7
72
5
7
iso_b_vert
0
DIMENSION
5
12E
100
AcDbEntity
8
2
62
256
6
ByLayer
370
13
48
1
60
0
100
AcDbDimension
2
DimnDraft3D1
10
39
20
-28.1
30
0
11
15.392105
21
-28.1
31
0
70
32
71
5
72
1
41
1
210
0
220
0
230
1
3
Standard
100
AcDbAlignedDimension
13
0
23
8
33
0
14
39
24
-17
34
0
50
0
100
AcDbRotatedDimension
1001
ACAD
1000
DSTYLE
1002
{
1070
   279
1070
     0
1070
   172
1070
     1
1070
   173
1070
     1
1070
   340
1005
11D
1070
   271
1070
     1
1070
    77
1070
     1
1070
    73
1070
     0
1070
   171
1070
     3
1070
   274
1070
     4
1070
   177
1070
     2
1070
   176
1070
     2
1070
   178
1070
     7
1070
    78
1070
     8
1070
    41
1041
3.175
1070
   147
1041
1.75
1070
    42
1041
2.0
1070
    44
1041
2.0
1070
   140
1041
3.5
1070
   343
1005
12F
1070
   344
1005
12F
1002
}
0
DIMENSION
5
143
100
AcDbEntity
8
2
62
256
6
ByLayer
370
13
48
1
60
0
100
AcDbDimension
2
DimnDraft3D2
10
34.828087
20
-15
30
0
11
34.828087
21
-6.607895
31
0
70
32
71
5
72
1
41
1
210
0
220
0
230
1
3
Standard
100
AcDbAlignedDimension
13
2
23
10
33
0
14
37
24
-15
34
0
50
90
100
AcDbRotatedDimension
1001
ACAD
1000
DSTYLE
1002
{
1070
    74
1070
     0
1070
   279
1070
     0
1070
   172
1070
     1
1070
   173
1070
     1
1070
   340
1005
11D
1070
   271
1070
     1
1070
    77
1070
     1
1070
    73
1070
     0
1070
   171
1070
     3
1070
   274
1070
     4
1070
   177
1070
     2
1070
   176
1070
     2
1070
   178
1070
     7
1070
    78
1070
     8
1070
    41
1041
3.175
1070
   147
1041
1.75
1070
    42
1041
2.0
1070
    44
1041
2.0
1070
   140
1041
3.5
1070
   343
1005
12F
1070
   344
1005
12F
1002
}
0
DIMENSION
5
151
100
AcDbEntity
8
2
62
256
6
ByLayer
370
13
48
1
60
0
100
AcDbDimension
2
DimnDraft3D3
10
38.737961
20
-10
30
0
11
45.472689
21
-8.791858
31
0
70
34
71
5
72
1
41
1
210
0
220
0
230
1
3
Standard
100
AcDb2LineAngularDimension
13
39
23
-15
33
0
14
44
24
-15
34
0
15
39
25
-15
35
0
16
43.108549
26
-10.670492
36
0
40
0
0
DIMENSION
5
15F
100
AcDbEntity
8
SK2
62
256
6
ByLayer
370
13
48
1
60
0
100
AcDbDimension
2
DimnDraft3D4
10
39
20
23.321295
30
0
11
-19.978289
21
23.321295
31
0
70
32
71
5
72
1
41
1
210
0
220
0
230
1
3
Standard
100
AcDbAlignedDimension
13
-69
23
12
33
0
14
39
24
-13
34
0
50
0
100
AcDbRotatedDimension
1001
ACAD
1000
DSTYLE
1002
{
1070
   279
1070
     0
1070
   172
1070
     1
1070
   173
1070
     1
1070
   340
1005
11D
1070
   271
1070
     1
1070
    77
1070
     1
1070
    73
1070
     0
1070
   171
1070
     3
1070
   274
1070
     4
1070
   177
1070
     2
1070
   176
1070
     2
1070
   178
1070
     7
1070
    78
1070
     8
1070
    41
1041
3.175
1070
   147
1041
1.75
1070
    42
1041
2.0
1070
    44
1041
2.0
1070
   140
1041
3.5
1070
   343
1005
12F
1070
   344
1005
12F
1002
}
0
DIMENSION
5
16D
100
AcDbEntity
8
SK2
62
256
6
ByLayer
370
13
48
1
60
0
100
AcDbDimension
2
DimnDraft3D5
10
-66
20
-28.1
30
0
11
-70.230921
21
-28.1
31
0
70
32
71
5
72
1
41
1
210
0
220
0
230
1
3
Standard
100
AcDbAlignedDimension
13
-69
23
8
33
0
14
-66
24
-12
34
0
50
0
100
AcDbRotatedDimension
1001
ACAD
1000
DSTYLE
1002
{
1070
   279
1070
     0
1070
   172
1070
     1
1070
   173
1070
     1
1070
   340
1005
11D
1070
    77
1070
     1
1070
    73
1070
     0
1070
   171
1070
     3
1070
   274
1070
     4
1070
   177
1070
     2
1070
   176
1070
     2
1070
   178
1070
     7
1070
    78
1070
     8
1070
    41
1041
3.175
1070
   147
1041
1.75
1070
    42
1041
2.0
1070
    44
1041
2.0
1070
   140
1041
3.5
1070
   343
1005
12F
1070
   344
1005
12F
1002
}
0
ENDSEC
0
SECTION
2
OBJECTS
0
DICTIONARY
5
1d7
330
0
100
AcDbDictionary
280
0
281
1
3
ACAD_GROUP
350
1d8
3
ACAD_MLINESTYLE
350
1d9
0
DICTIONARY
5
1d8
330
0
100
AcDbDictionary
280
0
281
1
0
DICTIONARY
5
1d9
330
0
100
AcDbDictionary
280
0
281
1
3
Standard
350
18
0
MLINESTYLE
5
18
330
1d9
100
AcDbMlineStyle
2
Standard
70
0
3

62
256
51
90
52
90
71
2
49
-0.5
62
256
6
ByLayer
49
0.5
62
256
6
ByLayer
0
RASTERVARIABLES
5
1c6
330

100
AcDbRasterVariables
90
0
70
1
71
1
72
1
0
ENDSEC
0
EOF
