0
SECTION
2
HEADER
9
$ACADVER
1
AC1015
9
$DWGCODEPAGE
3
ANSI_1252
9
$HANDSEED
5
1d6
9
$ANGBASE
50
0
9
$ANGDIR
70
0
9
$ATTMODE
70
1
9
$AUNITS
70
0
9
$AUPREC
70
0
9
$CECOLOR
62
256
9
$CELTSCALE
40
1
9
$CELTYPE
6
ByLayer
9
$CELWEIGHT
370
18
9
$CLAYER
8
0
9
$CMLJUST
70
0
9
$CMLSCALE
40
1
9
$CMLSTYLE
2
Standard
9
$DIMSTYLE
2
Standard
9
$TEXTSIZE
40
0.2
9
$TEXTSTYLE
7
Standard
9
$LUNITS
70
2
9
$LUPREC
70
4
9
$EXTNAMES
290
1
9
$INSUNITS
70
4
9
$LTSCALE
40
1
9
$LWDISPLAY
290
1
9
$PDMODE
70
0
9
$PDSIZE
40
0
9
$PLINEGEN
70
0
0
ENDSEC
0
SECTION
2
CLASSES
0
CLASS
1
RASTERVARIABLES
2
AcDbRasterVariables
3
ISM
90
0
280
0
281
0
0
ENDSEC
0
SECTION
2
TABLES
0
TABLE
2
VPORT
5
1cc
100
AcDbSymbolTable
0
VPORT
5
1
100
AcDbSymbolTableRecord
100
AcDbViewportTableRecord
2
*Active
70
0
10
0
20
0
11
1
21
1
12
-1
22
1
13
0
23
0
14
0.5
24
0.5
15
10
25
10
16
0
26
0
36
1
17
0
27
0
37
0
0
ENDTAB
0
TABLE
2
LTYPE
5
1cd
100
AcDbSymbolTable
0
LTYPE
5
14
100
AcDbSymbolTableRecord
100
AcDbLinetypeTableRecord
70
0
2
ByBlock
3

72
65
73
0
40
0
0
LTYPE
5
15
100
AcDbSymbolTableRecord
100
AcDbLinetypeTableRecord
70
0
2
ByLayer
3

72
65
73
0
40
0
0
LTYPE
5
16
100
AcDbSymbolTableRecord
100
AcDbLinetypeTableRecord
70
0
2
CONTINUOUS
3
Solid line
72
65
73
0
40
0
0
LTYPE
5
6A
100
AcDbSymbolTableRecord
100
AcDbLinetypeTableRecord
70
0
2
CENTER
3
____ _ ____ _ ____ _ ____
72
65
73
4
40
47.5
49
22
74
0
49
-8.5
74
0
49
8.5
74
0
49
-8.5
74
0
0
LTYPE
5
6B
100
AcDbSymbolTableRecord
100
AcDbLinetypeTableRecord
70
0
2
DASHED
3
__ __ __ __ __ __ __ __ __
72
65
73
2
40
25.72
49
12.86
74
0
49
-12.86
74
0
0
ENDTAB
0
TABLE
2
LAYER
5
1ce
100
AcDbSymbolTable
0
LAYER
5
10
100
AcDbSymbolTableRecord
100
AcDbLayerTableRecord
2
0
70
0
62
7
6
CONTINUOUS
290
1
370
-3
390
0
0
LAYER
5
6D
100
AcDbSymbolTableRecord
100
AcDbLayerTableRecord
2
80
70
0
62
-6
6
CONTINUOUS
290
1
370
-3
390
0
0
LAYER
5
6F
100
AcDbSymbolTableRecord
100
AcDbLayerTableRecord
2
81
70
0
62
-3
6
CONTINUOUS
290
1
370
-3
390
0
0
LAYER
5
71
100
AcDbSymbolTableRecord
100
AcDbLayerTableRecord
2
2
70
0
62
7
6
CONTINUOUS
290
1
370
-3
390
0
0
LAYER
5
7D
100
AcDbSymbolTableRecord
100
AcDbLayerTableRecord
2
1
70
0
62
4
6
CONTINUOUS
290
1
370
-3
390
0
0
LAYER
5
1b9
100
AcDbSymbolTableRecord
100
AcDbLayerTableRecord
2
SK2
70
0
62
7
6
CONTINUOUS
290
1
370
-3
390
0
0
LAYER
5
1ba
100
AcDbSymbolTableRecord
100
AcDbLayerTableRecord
2
SK1
70
0
62
4
6
CONTINUOUS
290
1
370
-3
390
0
0
LAYER
5
1bb
100
AcDbSymbolTableRecord
100
AcDbLayerTableRecord
2
SK6
70
0
62
5
6
CONTINUOUS
290
1
370
-3
390
0
0
ENDTAB
0
TABLE
2
STYLE
5
1cf
100
AcDbSymbolTable
0
STYLE
5
11
100
AcDbSymbolTableRecord
100
AcDbTextStyleTableRecord
2
Standard
3
txt
70
0
71
0
40
0
41
1
42
0
50
0
0
STYLE
5
102
100
AcDbSymbolTableRecord
100
AcDbTextStyleTableRecord
2
iso_b_vert
3
simplex.shx
70
0
71
0
40
0
41
1
42
0
50
0
0
STYLE
5
103
100
AcDbSymbolTableRecord
100
AcDbTextStyleTableRecord
2
DWGDirectTextStyle
3
simplex
70
0
71
0
40
0
41
1
42
0
50
0
0
ENDTAB
0
TABLE
2
DIMSTYLE
5
1d0
100
AcDbSymbolTable
100
AcDbDimStyleTable
0
DIMSTYLE
105
27
100
AcDbSymbolTableRecord
100
AcDbDimStyleTableRecord
2
Standard
70
0
3
<>
41
0.18
42
0.0625
44
0.18
140
0.18
147
0.09
73
0
74
0
77
1
271
2
275
0
278
52
280
0
340
11
0
ENDTAB
0
TABLE
2
VIEW
5
1d1
100
AcDbSymbolTable
0
ENDTAB
0
TABLE
2
UCS
5
1d2
100
AcDbSymbolTable
0
ENDTAB
0
TABLE
2
APPID
5
1d3
100
AcDbSymbolTable
0
APPID
5
12
100
AcDbSymbolTableRecord
100
AcDbRegAppTableRecord
2
ACAD
70
0
0
ENDTAB
0
TABLE
2
BLOCK_RECORD
5
1d4
100
AcDbSymbolTable
0
BLOCK_RECORD
5
1F
100
AcDbSymbolTableRecord
100
AcDbBlockTableRecord
2
*Model_Space
340
0
70
0
0
BLOCK_RECORD
5
1B
100
AcDbSymbolTableRecord
100
AcDbBlockTableRecord
2
*Paper_Space
340
0
70
0
0
BLOCK_RECORD
5
23
100
AcDbSymbolTableRecord
100
AcDbBlockTableRecord
2
*Paper_Space0
340
0
70
0
0
BLOCK_RECORD
5
105
100
AcDbSymbolTableRecord
100
AcDbBlockTableRecord
2
DimnDraft3D1
340
0
70
0
0
BLOCK_RECORD
5
113
100
AcDbSymbolTableRecord
100
AcDbBlockTableRecord
2
_CLOSED
340
0
70
0
0
BLOCK_RECORD
5
11A
100
AcDbSymbolTableRecord
100
AcDbBlockTableRecord
2
DimnDraft3D2
340
0
70
0
0
BLOCK_RECORD
5
128
100
AcDbSymbolTableRecord
100
AcDbBlockTableRecord
2
DimnDraft3D3
340
0
70
0
0
BLOCK_RECORD
5
136
100
AcDbSymbolTableRecord
100
AcDbBlockTableRecord
2
DimnDraft3D4
340
0
70
0
0
BLOCK_RECORD
5
144
100
AcDbSymbolTableRecord
100
AcDbBlockTableRecord
2
DimnDraft3D5
340
0
70
0
0
BLOCK_RECORD
5
152
100
AcDbSymbolTableRecord
100
AcDbBlockTableRecord
2
DimnDraft3D6
340
0
70
0
0
ENDTAB
0
ENDSEC
0
SECTION
2
BLOCKS
0
BLOCK
5
20
100
AcDbEntity
8
0
100
AcDbBlockBegin
2
*Model_Space
70
0
10
0
20
0
30
0
3
*Model_Space
0
ENDBLK
5
21
100
AcDbEntity
8
0
100
AcDbBlockEnd
0
BLOCK
5
1C
100
AcDbEntity
8
0
100
AcDbBlockBegin
2
*Paper_Space
70
0
10
0
20
0
30
0
3
*Paper_Space
0
ENDBLK
5
1D
100
AcDbEntity
8
0
100
AcDbBlockEnd
0
BLOCK
5
24
100
AcDbEntity
8
0
100
AcDbBlockBegin
2
*Paper_Space0
70
0
10
0
20
0
30
0
3
*Paper_Space0
0
ENDBLK
5
25
100
AcDbEntity
8
0
100
AcDbBlockEnd
0
BLOCK
5
110
100
AcDbEntity
8
0
100
AcDbBlockBegin
2
DimnDraft3D1
70
0
10
0
20
0
30
0
3
DimnDraft3D1
0
MTEXT
5
106
100
AcDbEntity
8
2
62
256
6
ByLayer
370
18
48
1
60
0
100
AcDbMText
10
33.647884
20
0.267105
30
0
210
0
220
0
230
1
1
\W0.7346;32.0
40
3.5
41
0
44
1.084337
50
90
71
7
72
5
7
iso_b_vert
0
LINE
5
107
100
AcDbEntity
8
2
62
256
6
ByLayer
370
13
48
1
60
0
100
AcDbLine
10
24
20
-12.5
30
0
11
36.522884
21
-12.5
31
0
39
0
210
0
220
0
230
1
0
LINE
5
108
100
AcDbEntity
8
2
62
256
6
ByLayer
370
13
48
1
60
0
100
AcDbLine
10
31
20
19.5
30
0
11
36.522884
21
19.5
31
0
39
0
210
0
220
0
230
1
0
LINE
5
109
100
AcDbEntity
8
2
62
256
6
ByLayer
370
13
48
1
60
0
100
AcDbLine
10
34.522884
20
-12.5
30
0
11
34.522884
21
19.5
31
0
39
0
210
0
220
0
230
1
0
LINE
5
10A
100
AcDbEntity
8
2
62
256
6
ByLayer
370
13
48
1
60
0
100
AcDbLine
10
34.522884
20
-12.5
30
0
11
34.104888
21
-9.325002
31
0
39
0
210
0
220
0
230
1
0
LINE
5
10B
100
AcDbEntity
8
2
62
256
6
ByLayer
370
13
48
1
60
0
100
AcDbLine
10
34.522884
20
-12.5
30
0
11
34.940881
21
-9.324998
31
0
39
0
210
0
220
0
230
1
0
LINE
5
10C
100
AcDbEntity
8
2
62
256
6
ByLayer
370
13
48
1
60
0
100
AcDbLine
10
34.104888
20
-9.325002
30
0
11
34.940881
21
-9.324998
31
0
39
0
210
0
220
0
230
1
0
LINE
5
10D
100
AcDbEntity
8
2
62
256
6
ByLayer
370
13
48
1
60
0
100
AcDbLine
10
34.522884
20
19.5
30
0
11
34.940881
21
16.325002
31
0
39
0
210
0
220
0
230
1
0
LINE
5
10E
100
AcDbEntity
8
2
62
256
6
ByLayer
370
13
48
1
60
0
100
AcDbLine
10
34.522884
20
19.5
30
0
11
34.104888
21
16.324998
31
0
39
0
210
0
220
0
230
1
0
LINE
5
10F
100
AcDbEntity
8
2
62
256
6
ByLayer
370
13
48
1
60
0
100
AcDbLine
10
34.940881
20
16.325002
30
0
11
34.104888
21
16.324998
31
0
39
0
210
0
220
0
230
1
0
ENDBLK
5
111
100
AcDbEntity
8
0
100
AcDbBlockEnd
0
BLOCK
5
114
100
AcDbEntity
8
0
100
AcDbBlockBegin
2
_CLOSED
70
0
10
0
20
0
30
0
3
_CLOSED
0
LINE
5
116
100
AcDbEntity
8
0
62
256
6
ByLayer
370
-2
48
1
60
0
100
AcDbLine
10
-1
20
0.166667
30
0
11
0
21
0
31
0
39
0
210
0
220
0
230
1
0
LINE
5
117
100
AcDbEntity
8
0
62
256
6
ByLayer
370
-2
48
1
60
0
100
AcDbLine
10
0
20
0
30
0
11
-1
21
-0.166667
31
0
39
0
210
0
220
0
230
1
0
LINE
5
118
100
AcDbEntity
8
0
62
256
6
ByLayer
370
-2
48
1
60
0
100
AcDbLine
10
-1
20
0.166667
30
0
11
-1
21
-0.166667
31
0
39
0
210
0
220
0
230
1
0
LINE
5
119
100
AcDbEntity
8
0
62
256
6
ByLayer
370
-2
48
1
60
0
100
AcDbLine
10
0
20
0
30
0
11
-1
21
0
31
0
39
0
210
0
220
0
230
1
0
ENDBLK
5
115
100
AcDbEntity
8
0
100
AcDbBlockEnd
0
BLOCK
5
125
100
AcDbEntity
8
0
100
AcDbBlockBegin
2
DimnDraft3D2
70
0
10
0
20
0
30
0
3
DimnDraft3D2
0
MTEXT
5
11B
100
AcDbEntity
8
SK2
62
256
6
ByLayer
370
18
48
1
60
0
100
AcDbMText
10
-99.47505
20
-3.232895
30
0
210
0
220
0
230
1
1
\W0.7346;25.0
40
3.5
41
0
44
1.084337
50
90
71
7
72
5
7
iso_b_vert
0
LINE
5
11C
100
AcDbEntity
8
SK2
62
256
6
ByLayer
370
13
48
1
60
0
100
AcDbLine
10
-2
20
12.5
30
0
11
-100.60005
21
12.5
31
0
39
0
210
0
220
0
230
1
0
LINE
5
11D
100
AcDbEntity
8
SK2
62
256
6
ByLayer
370
13
48
1
60
0
100
AcDbLine
10
-86
20
-12.5
30
0
11
-100.60005
21
-12.5
31
0
39
0
210
0
220
0
230
1
0
LINE
5
11E
100
AcDbEntity
8
SK2
62
256
6
ByLayer
370
13
48
1
60
0
100
AcDbLine
10
-98.60005
20
12.5
30
0
11
-98.60005
21
-12.5
31
0
39
0
210
0
220
0
230
1
0
LINE
5
11F
100
AcDbEntity
8
SK2
62
256
6
ByLayer
370
13
48
1
60
0
100
AcDbLine
10
-98.60005
20
12.5
30
0
11
-98.182053
21
9.325002
31
0
39
0
210
0
220
0
230
1
0
LINE
5
120
100
AcDbEntity
8
SK2
62
256
6
ByLayer
370
13
48
1
60
0
100
AcDbLine
10
-98.60005
20
12.5
30
0
11
-99.018047
21
9.324998
31
0
39
0
210
0
220
0
230
1
0
LINE
5
121
100
AcDbEntity
8
SK2
62
256
6
ByLayer
370
13
48
1
60
0
100
AcDbLine
10
-98.182053
20
9.325002
30
0
11
-99.018047
21
9.324998
31
0
39
0
210
0
220
0
230
1
0
LINE
5
122
100
AcDbEntity
8
SK2
62
256
6
ByLayer
370
13
48
1
60
0
100
AcDbLine
10
-98.60005
20
-12.5
30
0
11
-99.018047
21
-9.325002
31
0
39
0
210
0
220
0
230
1
0
LINE
5
123
100
AcDbEntity
8
SK2
62
256
6
ByLayer
370
13
48
1
60
0
100
AcDbLine
10
-98.60005
20
-12.5
30
0
11
-98.182053
21
-9.324998
31
0
39
0
210
0
220
0
230
1
0
LINE
5
124
100
AcDbEntity
8
SK2
62
256
6
ByLayer
370
13
48
1
60
0
100
AcDbLine
10
-99.018047
20
-9.325002
30
0
11
-98.182053
21
-9.324998
31
0
39
0
210
0
220
0
230
1
0
ENDBLK
5
126
100
AcDbEntity
8
0
100
AcDbBlockEnd
0
BLOCK
5
133
100
AcDbEntity
8
0
100
AcDbBlockBegin
2
DimnDraft3D3
70
0
10
0
20
0
30
0
3
DimnDraft3D3
0
MTEXT
5
129
100
AcDbEntity
8
2
62
256
6
ByLayer
370
18
48
1
60
0
100
AcDbMText
10
21.180447
20
23.239136
30
0
210
0
220
0
230
1
1
\W0.8292;93%%d0'
40
3
41
0
44
1.084337
50
39.5727452227697
71
7
72
5
7
iso_b_vert
0
LINE
5
12A
100
AcDbEntity
8
2
62
256
6
ByLayer
370
13
48
1
60
0
100
AcDbLine
10
29.104672
20
21.497259
30
0
11
29.476974
21
28.601201
31
0
39
0
210
0
220
0
230
1
0
LINE
5
12B
100
AcDbEntity
8
2
62
256
6
ByLayer
370
13
48
1
60
0
100
AcDbLine
10
27
20
19.5
30
0
11
19.886309
21
19.5
31
0
39
0
210
0
220
0
230
1
0
ARC
5
12C
100
AcDbEntity
8
2
62
256
6
ByLayer
370
13
48
1
60
0
100
AcDbCircle
39
0
10
29
20
19.5
30
0
40
7.11369128120759
210
0
220
0
230
1
100
AcDbArc
50
87
51
180
0
LINE
5
12D
100
AcDbEntity
8
2
62
256
6
ByLayer
370
13
48
1
60
0
100
AcDbLine
10
29.372302
20
26.603942
30
0
11
26.226525
21
26.00442
31
0
39
0
210
0
220
0
230
1
0
LINE
5
12E
100
AcDbEntity
8
2
62
256
6
ByLayer
370
13
48
1
60
0
100
AcDbLine
10
29.372302
20
26.603942
30
0
11
26.178544
21
26.839035
31
0
39
0
210
0
220
0
230
1
0
LINE
5
12F
100
AcDbEntity
8
2
62
256
6
ByLayer
370
13
48
1
60
0
100
AcDbLine
10
26.226525
20
26.00442
30
0
11
26.178544
21
26.839035
31
0
39
0
210
0
220
0
230
1
0
LINE
5
130
100
AcDbEntity
8
2
62
256
6
ByLayer
370
13
48
1
60
0
100
AcDbLine
10
21.886309
20
19.5
30
0
11
21.818686
21
22.701681
31
0
39
0
210
0
220
0
230
1
0
LINE
5
131
100
AcDbEntity
8
2
62
256
6
ByLayer
370
13
48
1
60
0
100
AcDbLine
10
21.886309
20
19.5
30
0
11
22.649647
21
22.610092
31
0
39
0
210
0
220
0
230
1
0
LINE
5
132
100
AcDbEntity
8
2
62
256
6
ByLayer
370
13
48
1
60
0
100
AcDbLine
10
21.818686
20
22.701681
30
0
11
22.649647
21
22.610092
31
0
39
0
210
0
220
0
230
1
0
ENDBLK
5
134
100
AcDbEntity
8
0
100
AcDbBlockEnd
0
BLOCK
5
141
100
AcDbEntity
8
0
100
AcDbBlockBegin
2
DimnDraft3D4
70
0
10
0
20
0
30
0
3
DimnDraft3D4
0
MTEXT
5
137
100
AcDbEntity
8
SK2
62
256
6
ByLayer
370
18
48
1
60
0
100
AcDbMText
10
-31.165789
20
-39.469955
30
0
210
0
220
0
230
1
1
\W0.6261;113.0
40
3.5
41
0
44
1.084337
50
0
71
7
72
5
7
iso_b_vert
0
LINE
5
138
100
AcDbEntity
8
SK2
62
256
6
ByLayer
370
13
48
1
60
0
100
AcDbLine
10
-84
20
-14.5
30
0
11
-84
21
-42.344955
31
0
39
0
210
0
220
0
230
1
0
LINE
5
139
100
AcDbEntity
8
SK2
62
256
6
ByLayer
370
13
48
1
60
0
100
AcDbLine
10
29
20
17.5
30
0
11
29
21
-42.344955
31
0
39
0
210
0
220
0
230
1
0
LINE
5
13A
100
AcDbEntity
8
SK2
62
256
6
ByLayer
370
13
48
1
60
0
100
AcDbLine
10
-84
20
-40.344955
30
0
11
29
21
-40.344955
31
0
39
0
210
0
220
0
230
1
0
LINE
5
13B
100
AcDbEntity
8
SK2
62
256
6
ByLayer
370
13
48
1
60
0
100
AcDbLine
10
-84
20
-40.344955
30
0
11
-80.825002
21
-39.926958
31
0
39
0
210
0
220
0
230
1
0
LINE
5
13C
100
AcDbEntity
8
SK2
62
256
6
ByLayer
370
13
48
1
60
0
100
AcDbLine
10
-84
20
-40.344955
30
0
11
-80.824998
21
-40.762951
31
0
39
0
210
0
220
0
230
1
0
LINE
5
13D
100
AcDbEntity
8
SK2
62
256
6
ByLayer
370
13
48
1
60
0
100
AcDbLine
10
-80.825002
20
-39.926958
30
0
11
-80.824998
21
-40.762951
31
0
39
0
210
0
220
0
230
1
0
LINE
5
13E
100
AcDbEntity
8
SK2
62
256
6
ByLayer
370
13
48
1
60
0
100
AcDbLine
10
29
20
-40.344955
30
0
11
25.825002
21
-40.762951
31
0
39
0
210
0
220
0
230
1
0
LINE
5
13F
100
AcDbEntity
8
SK2
62
256
6
ByLayer
370
13
48
1
60
0
100
AcDbLine
10
29
20
-40.344955
30
0
11
25.824998
21
-39.926958
31
0
39
0
210
0
220
0
230
1
0
LINE
5
140
100
AcDbEntity
8
SK2
62
256
6
ByLayer
370
13
48
1
60
0
100
AcDbLine
10
25.825002
20
-40.762951
30
0
11
25.824998
21
-39.926958
31
0
39
0
210
0
220
0
230
1
0
ENDBLK
5
142
100
AcDbEntity
8
0
100
AcDbBlockEnd
0
BLOCK
5
14F
100
AcDbEntity
8
0
100
AcDbBlockBegin
2
DimnDraft3D5
70
0
10
0
20
0
30
0
3
DimnDraft3D5
0
MTEXT
5
145
100
AcDbEntity
8
2
62
256
6
ByLayer
370
18
48
1
60
0
100
AcDbMText
10
11.267105
20
-24.72505
30
0
210
0
220
0
230
1
1
\W0.7346;29.0
40
3.5
41
0
44
1.084337
50
0
71
7
72
5
7
iso_b_vert
0
LINE
5
146
100
AcDbEntity
8
2
62
256
6
ByLayer
370
13
48
1
60
0
100
AcDbLine
10
0
20
10.5
30
0
11
0
21
-27.60005
31
0
39
0
210
0
220
0
230
1
0
LINE
5
147
100
AcDbEntity
8
2
62
256
6
ByLayer
370
13
48
1
60
0
100
AcDbLine
10
29
20
17.5
30
0
11
29
21
-27.60005
31
0
39
0
210
0
220
0
230
1
0
LINE
5
148
100
AcDbEntity
8
2
62
256
6
ByLayer
370
13
48
1
60
0
100
AcDbLine
10
0
20
-25.60005
30
0
11
29
21
-25.60005
31
0
39
0
210
0
220
0
230
1
0
LINE
5
149
100
AcDbEntity
8
2
62
256
6
ByLayer
370
13
48
1
60
0
100
AcDbLine
10
0
20
-25.60005
30
0
11
3.174998
21
-25.182053
31
0
39
0
210
0
220
0
230
1
0
LINE
5
14A
100
AcDbEntity
8
2
62
256
6
ByLayer
370
13
48
1
60
0
100
AcDbLine
10
0
20
-25.60005
30
0
11
3.175002
21
-26.018047
31
0
39
0
210
0
220
0
230
1
0
LINE
5
14B
100
AcDbEntity
8
2
62
256
6
ByLayer
370
13
48
1
60
0
100
AcDbLine
10
3.174998
20
-25.182053
30
0
11
3.175002
21
-26.018047
31
0
39
0
210
0
220
0
230
1
0
LINE
5
14C
100
AcDbEntity
8
2
62
256
6
ByLayer
370
13
48
1
60
0
100
AcDbLine
10
29
20
-25.60005
30
0
11
25.825002
21
-26.018047
31
0
39
0
210
0
220
0
230
1
0
LINE
5
14D
100
AcDbEntity
8
2
62
256
6
ByLayer
370
13
48
1
60
0
100
AcDbLine
10
29
20
-25.60005
30
0
11
25.824998
21
-25.182053
31
0
39
0
210
0
220
0
230
1
0
LINE
5
14E
100
AcDbEntity
8
2
62
256
6
ByLayer
370
13
48
1
60
0
100
AcDbLine
10
25.825002
20
-26.018047
30
0
11
25.824998
21
-25.182053
31
0
39
0
210
0
220
0
230
1
0
ENDBLK
5
150
100
AcDbEntity
8
0
100
AcDbBlockEnd
0
BLOCK
5
15D
100
AcDbEntity
8
0
100
AcDbBlockBegin
2
DimnDraft3D6
70
0
10
0
20
0
30
0
3
DimnDraft3D6
0
MTEXT
5
153
100
AcDbEntity
8
SK2
62
256
6
ByLayer
370
18
48
1
60
0
100
AcDbMText
10
-69.87
20
-24.72505
30
0
210
0
220
0
230
1
1
\W0.7121;3.0
40
3.5
41
0
44
1.084337
50
0
71
7
72
5
7
iso_b_vert
0
LINE
5
154
100
AcDbEntity
8
SK2
62
256
6
ByLayer
370
13
48
1
60
0
100
AcDbLine
10
-84
20
-14.5
30
0
11
-84
21
-27.60005
31
0
39
0
210
0
220
0
230
1
0
LINE
5
155
100
AcDbEntity
8
SK2
62
256
6
ByLayer
370
13
48
1
60
0
100
AcDbLine
10
-81
20
-14.5
30
0
11
-81
21
-27.60005
31
0
39
0
210
0
220
0
230
1
0
LINE
5
156
100
AcDbEntity
8
SK2
62
256
6
ByLayer
370
13
48
1
60
0
100
AcDbLine
10
-65.145
20
-25.60005
30
0
11
-92.75
21
-25.60005
31
0
39
0
210
0
220
0
230
1
0
LINE
5
157
100
AcDbEntity
8
SK2
62
256
6
ByLayer
370
13
48
1
60
0
100
AcDbLine
10
-84
20
-25.60005
30
0
11
-87.174998
21
-26.018047
31
0
39
0
210
0
220
0
230
1
0
LINE
5
158
100
AcDbEntity
8
SK2
62
256
6
ByLayer
370
13
48
1
60
0
100
AcDbLine
10
-84
20
-25.60005
30
0
11
-87.175002
21
-25.182053
31
0
39
0
210
0
220
0
230
1
0
LINE
5
159
100
AcDbEntity
8
SK2
62
256
6
ByLayer
370
13
48
1
60
0
100
AcDbLine
10
-87.174998
20
-26.018047
30
0
11
-87.175002
21
-25.182053
31
0
39
0
210
0
220
0
230
1
0
LINE
5
15A
100
AcDbEntity
8
SK2
62
256
6
ByLayer
370
13
48
1
60
0
100
AcDbLine
10
-81
20
-25.60005
30
0
11
-77.825002
21
-25.182053
31
0
39
0
210
0
220
0
230
1
0
LINE
5
15B
100
AcDbEntity
8
SK2
62
256
6
ByLayer
370
13
48
1
60
0
100
AcDbLine
10
-81
20
-25.60005
30
0
11
-77.824998
21
-26.018047
31
0
39
0
210
0
220
0
230
1
0
LINE
5
15C
100
AcDbEntity
8
SK2
62
256
6
ByLayer
370
13
48
1
60
0
100
AcDbLine
10
-77.825002
20
-25.182053
30
0
11
-77.824998
21
-26.018047
31
0
39
0
210
0
220
0
230
1
0
ENDBLK
5
15E
100
AcDbEntity
8
0
100
AcDbBlockEnd
0
ENDSEC
0
SECTION
2
ENTITIES
0
ARC
5
A9
100
AcDbEntity
8
1
62
256
6
ByLayer
370
13
48
1
60
0
100
AcDbCircle
39
0
10
13.629042
20
-25.400293
30
0
40
40.4581655870087
210
0
220
0
230
-1
100
AcDbArc
50
128.424003
51
138.575997
0
ARC
5
AD
100
AcDbEntity
8
1
62
256
6
ByLayer
370
13
48
1
60
0
100
AcDbCircle
39
0
10
7.976507
20
-2.632795
30
0
40
3.85322127447203
210
0
220
0
230
1
100
AcDbArc
50
142.857034
51
310.142966
0
ARC
5
AE
100
AcDbEntity
8
1
62
256
6
ByLayer
370
13
48
1
60
0
100
AcDbCircle
39
0
10
36.653509
20
-24.354866
30
0
40
39.8284740297181
210
0
220
0
230
1
100
AcDbArc
50
134.006647
51
142.857034
0
ARC
5
AF
100
AcDbEntity
8
1
62
256
6
ByLayer
370
13
48
1
60
0
100
AcDbCircle
39
0
10
-15.216633
20
24.868061
30
0
40
39.8284740297181
210
0
220
0
230
1
100
AcDbArc
50
310.142966
51
318.993353
0
ARC
5
B0
100
AcDbEntity
8
1
62
256
6
ByLayer
370
13
48
1
60
0
100
AcDbCircle
39
0
10
12.704806
20
0.590638
30
0
40
2.82847402971813
210
0
220
0
230
1
100
AcDbArc
50
318.993353
51
44.624511
0
ARC
5
B1
100
AcDbEntity
8
1
62
256
6
ByLayer
370
13
48
1
60
0
100
AcDbCircle
39
0
10
10.948062
20
2.257725
30
0
40
2.82847402971813
210
0
220
0
230
1
100
AcDbArc
50
48.375489
51
134.006647
0
ARC
5
B2
100
AcDbEntity
8
1
62
256
6
ByLayer
370
13
48
1
60
0
100
AcDbCircle
39
0
10
15.216633
20
24.868061
30
0
40
41.4223855466649
210
0
220
0
230
-1
100
AcDbArc
50
227.529374
51
229.857034
0
ARC
5
B3
100
AcDbEntity
8
1
62
256
6
ByLayer
370
13
48
1
60
0
100
AcDbCircle
39
0
10
-13.629042
20
-25.400293
30
0
40
39.9600682379628
210
0
220
0
230
1
100
AcDbArc
50
41.392444
51
51.607556
0
ARC
5
B4
100
AcDbEntity
8
1
62
256
6
ByLayer
370
13
48
1
60
0
100
AcDbCircle
39
0
10
-7.976507
20
-2.632795
30
0
40
5.44713279141882
210
0
220
0
230
-1
100
AcDbArc
50
229.857034
51
37.142966
0
ARC
5
B5
100
AcDbEntity
8
1
62
256
6
ByLayer
370
18
48
1
60
0
100
AcDbCircle
39
0
10
12.919365
20
9.106399
30
0
40
1.625
210
0
220
0
230
1
100
AcDbArc
50
101.816
51
318.900083
0
ARC
5
B6
100
AcDbEntity
8
1
62
256
6
ByLayer
370
18
48
1
60
0
100
AcDbCircle
39
0
10
31.106063
20
8.829365
30
0
40
8.1
210
0
220
0
230
1
100
AcDbArc
50
173.980643
51
179.080413
0
ARC
5
B7
100
AcDbEntity
8
1
62
256
6
ByLayer
370
18
48
1
60
0
100
AcDbCircle
39
0
10
20.83094
20
26.273061
30
0
40
8.1
210
0
220
0
230
1
100
AcDbArc
50
245.86816
51
247.01938
0
ARC
5
B8
100
AcDbEntity
8
1
62
256
6
ByLayer
370
18
48
1
60
0
100
AcDbCircle
39
0
10
12.919365
20
9.106399
30
0
40
1.525
210
0
220
0
230
1
100
AcDbArc
50
105.538952
51
320.585078
0
ARC
5
B9
100
AcDbEntity
8
1
62
256
6
ByLayer
370
13
48
1
60
0
100
AcDbCircle
39
0
10
-36.653509
20
-24.354866
30
0
40
41.4223855466649
210
0
220
0
230
-1
100
AcDbArc
50
37.142966
51
45.993353
0
ARC
5
BA
100
AcDbEntity
8
1
62
256
6
ByLayer
370
13
48
1
60
0
100
AcDbCircle
39
0
10
-10.948062
20
2.257725
30
0
40
4.42238554666492
210
0
220
0
230
-1
100
AcDbArc
50
45.993353
51
83.106448
0
ARC
5
BB
100
AcDbEntity
8
1
62
256
6
ByLayer
370
18
48
1
60
0
100
AcDbCircle
39
0
10
-14.118996
20
9.776753
30
0
40
1.73876468136632
210
0
220
0
230
-1
100
AcDbArc
50
212
51
269.179079
0
ARC
5
BC
100
AcDbEntity
8
1
62
256
6
ByLayer
370
18
48
1
60
0
100
AcDbCircle
39
0
10
-0.272277
20
14.025
30
0
40
1.6
210
0
220
0
230
-1
100
AcDbArc
50
200.778513
51
270
0
ARC
5
BD
100
AcDbEntity
8
1
62
256
6
ByLayer
370
18
48
1
60
0
100
AcDbCircle
39
0
10
14.118996
20
9.776753
30
0
40
1.63876468136632
210
0
220
0
230
1
100
AcDbArc
50
269.249547
51
328
0
ARC
5
BE
100
AcDbEntity
8
1
62
256
6
ByLayer
370
13
48
1
60
0
100
AcDbCircle
39
0
10
22.954775
20
10.063875
30
0
40
0.396874999999875
210
0
220
0
230
1
100
AcDbArc
50
273
51
328
0
ARC
5
BF
100
AcDbEntity
8
1
62
256
6
ByLayer
370
13
48
1
60
0
100
AcDbCircle
39
0
10
17.958845
20
18.545282
30
0
40
0.396874999999875
210
0
220
0
230
1
100
AcDbArc
50
93
51
148
0
ARC
5
C1
100
AcDbEntity
8
1
62
256
6
ByLayer
370
13
48
1
60
0
100
AcDbCircle
39
0
10
12.310494
20
9.506032
30
0
40
0.396874999999875
210
0
220
0
230
1
100
AcDbArc
50
148
51
273
0
ARC
5
C2
100
AcDbEntity
8
1
62
256
6
ByLayer
370
13
48
1
60
0
100
AcDbCircle
39
0
10
28.603125
20
19.103125
30
0
40
0.396874999999875
210
0
220
0
230
1
100
AcDbArc
50
328
51
93
0
ARC
5
C4
100
AcDbEntity
8
1
62
256
6
ByLayer
370
18
48
1
60
0
100
AcDbCircle
39
0
10
-20.45681
20
14.304579
30
0
40
1.2903
210
0
220
0
230
-1
100
AcDbArc
50
329.5
51
29.5
0
ARC
5
C5
100
AcDbEntity
8
1
62
256
6
ByLayer
370
18
48
1
60
0
100
AcDbCircle
39
0
10
-20.45681
20
14.304579
30
0
40
1.6764
210
0
220
0
230
-1
100
AcDbArc
50
59.5
51
119.5
0
ARC
5
C6
100
AcDbEntity
8
1
62
256
6
ByLayer
370
18
48
1
60
0
100
AcDbCircle
39
0
10
-20.45681
20
14.304579
30
0
40
1.6764
210
0
220
0
230
-1
100
AcDbArc
50
179.5
51
239.5
0
ARC
5
C7
100
AcDbEntity
8
1
62
256
6
ByLayer
370
18
48
1
60
0
100
AcDbCircle
39
0
10
-20.45681
20
14.304579
30
0
40
1.2903
210
0
220
0
230
-1
100
AcDbArc
50
29.5
51
89.5
0
ARC
5
C8
100
AcDbEntity
8
1
62
256
6
ByLayer
370
18
48
1
60
0
100
AcDbCircle
39
0
10
-20.45681
20
14.304579
30
0
40
1.2903
210
0
220
0
230
-1
100
AcDbArc
50
209.5
51
269.5
0
ARC
5
C9
100
AcDbEntity
8
1
62
256
6
ByLayer
370
18
48
1
60
0
100
AcDbCircle
39
0
10
-20.45681
20
14.304579
30
0
40
1.6764
210
0
220
0
230
-1
100
AcDbArc
50
299.5
51
359.5
0
ARC
5
CA
100
AcDbEntity
8
1
62
256
6
ByLayer
370
18
48
1
60
0
100
AcDbCircle
39
0
10
-20.45681
20
14.304579
30
0
40
1.6764
210
0
220
0
230
-1
100
AcDbArc
50
239.5
51
299.5
0
ARC
5
CB
100
AcDbEntity
8
1
62
256
6
ByLayer
370
18
48
1
60
0
100
AcDbCircle
39
0
10
-20.45681
20
14.304579
30
0
40
1.2903
210
0
220
0
230
-1
100
AcDbArc
50
149.5
51
209.5
0
ARC
5
CC
100
AcDbEntity
8
1
62
256
6
ByLayer
370
18
48
1
60
0
100
AcDbCircle
39
0
10
20.45681
20
14.304579
30
0
40
1.2903
210
0
220
0
230
1
100
AcDbArc
50
30.5
51
90.5
0
ARC
5
CD
100
AcDbEntity
8
1
62
256
6
ByLayer
370
18
48
1
60
0
100
AcDbCircle
39
0
10
-20.45681
20
14.304579
30
0
40
1.6764
210
0
220
0
230
-1
100
AcDbArc
50
119.5
51
179.5
0
ARC
5
CE
100
AcDbEntity
8
1
62
256
6
ByLayer
370
18
48
1
60
0
100
AcDbCircle
39
0
10
-20.45681
20
14.304579
30
0
40
1.6764
210
0
220
0
230
-1
100
AcDbArc
50
359.5
51
59.5
0
ARC
5
CF
100
AcDbEntity
8
1
62
256
6
ByLayer
370
18
48
1
60
0
100
AcDbCircle
39
0
10
-20.45681
20
14.304579
30
0
40
1.2903
210
0
220
0
230
-1
100
AcDbArc
50
269.5
51
329.5
0
CIRCLE
5
AA
100
AcDbEntity
8
1
62
256
6
ByLayer
370
13
48
1
60
0
100
AcDbCircle
10
20.45681
20
14.304579
30
0
40
1.8
39
0
210
0
220
0
230
1
0
CIRCLE
5
AB
100
AcDbEntity
8
1
62
256
6
ByLayer
370
13
48
1
60
0
100
AcDbCircle
10
-20.45681
20
14.304579
30
0
40
3.00996076009303
39
0
210
0
220
0
230
-1
0
CIRCLE
5
AC
100
AcDbEntity
8
1
62
256
6
ByLayer
370
13
48
1
60
0
100
AcDbCircle
10
20.45681
20
14.304579
30
0
40
2.92104776441182
39
0
210
0
220
0
230
1
0
CIRCLE
5
C0
100
AcDbEntity
8
1
62
256
6
ByLayer
370
13
48
1
60
0
100
AcDbCircle
10
20.45681
20
14.304579
30
0
40
3.07132534818289
39
0
210
0
220
0
230
1
0
CIRCLE
5
C3
100
AcDbEntity
8
1
62
256
6
ByLayer
370
18
48
1
60
0
100
AcDbCircle
10
20.45681
20
14.304579
30
0
40
2.625
39
0
210
0
220
0
230
1
0
POINT
5
6C
100
AcDbEntity
8
80
62
256
6
ByLayer
370
18
48
1
60
0
100
AcDbPoint
10
0
20
0
30
0
39
0
210
0
220
0
230
1
50
360
0
POINT
5
6E
100
AcDbEntity
8
81
62
256
6
ByLayer
370
18
48
1
60
0
100
AcDbPoint
10
29
20
19.5
30
0
39
0
210
0
220
0
230
1
50
360
0
POINT
5
70
100
AcDbEntity
8
2
62
256
6
ByLayer
370
18
48
1
60
0
100
AcDbPoint
10
20.45681
20
14.304579
30
0
39
0
210
0
220
0
230
1
50
360
0
POINT
5
72
100
AcDbEntity
8
2
62
256
6
ByLayer
370
18
48
1
60
0
100
AcDbPoint
10
20.45681
20
14.304579
30
0
39
0
210
0
220
0
230
1
50
360
0
POINT
5
73
100
AcDbEntity
8
2
62
256
6
ByLayer
370
18
48
1
60
0
100
AcDbPoint
10
20.129863
20
14.170022
30
0
39
0
210
0
220
0
230
1
50
360
0
POINT
5
74
100
AcDbEntity
8
SK2
62
256
6
ByLayer
370
18
48
1
60
0
100
AcDbPoint
10
28.603125
20
19.103125
30
0
39
0
210
0
220
0
230
1
50
360
0
POINT
5
76
100
AcDbEntity
8
SK2
62
256
6
ByLayer
370
18
48
1
60
0
100
AcDbPoint
10
26.605866
20
18.998453
30
0
39
0
210
0
220
0
230
1
50
360
0
POINT
5
77
100
AcDbEntity
8
SK2
62
256
6
ByLayer
370
18
48
1
60
0
100
AcDbPoint
10
24.608607
20
18.893781
30
0
39
0
210
0
220
0
230
1
50
360
0
POINT
5
78
100
AcDbEntity
8
SK2
62
256
6
ByLayer
370
18
48
1
60
0
100
AcDbPoint
10
27.543286
20
17.407029
30
0
39
0
210
0
220
0
230
1
50
360
0
POINT
5
79
100
AcDbEntity
8
SK2
62
256
6
ByLayer
370
18
48
1
60
0
100
AcDbPoint
10
26.483448
20
15.710933
30
0
39
0
210
0
220
0
230
1
50
360
0
SPLINE
5
D0
100
AcDbEntity
8
1
62
256
6
ByLayer
370
18
48
1
60
0
100
AcDbSpline
70
4
71
3
72
8
73
4
40
0
40
0
40
0
40
0
40
1
40
1
40
1
40
1
41
1
10
14.143907484917
20
8.03816644841314
30
0
41
1
10
14.128509434779
20
8.07139867666083
30
0
41
1
10
14.113054972772
20
8.1047135897164
30
0
41
1
10
14.0975319920876
20
8.13812854687129
30
0
0
SPLINE
5
D1
100
AcDbEntity
8
1
62
256
6
ByLayer
370
18
48
1
60
0
100
AcDbSpline
70
4
71
3
72
18
73
14
40
0
40
0
40
0
40
0
40
0.0203676344849514
40
0.0203676344849514
40
0.0904676656910902
40
0.0904676656910902
40
0.318076695405385
40
0.318076695405385
40
0.545462898242899
40
0.545462898242899
40
0.772727523889699
40
0.772727523889699
40
1
40
1
40
1
40
1
41
1
10
11.5147385141492
20
6.29597605620702
30
0
41
1
10
11.5114527475906
20
6.29219111596865
30
0
41
1
10
11.5081665955262
20
6.28840576310958
30
0
41
1
10
11.4934319194194
20
6.27143245379744
30
0
41
1
10
11.4819840993884
20
6.25824498690505
30
0
41
1
10
11.4342479521912
20
6.20325312579243
30
0
41
1
10
11.3982143878891
20
6.16173852893434
30
0
41
1
10
11.3328406909016
20
6.08641485110272
30
0
41
1
10
11.3025949201745
20
6.05156237315188
30
0
41
1
10
11.2519720396039
20
5.9932258323995
30
0
41
1
10
11.2308933021045
20
5.96893332700989
30
0
41
1
10
11.2006818046369
20
5.93411468661571
30
0
41
1
10
11.191133364597
20
5.92310955321042
30
0
41
1
10
11.1879357106158
20
5.91942409242193
30
0
0
SPLINE
5
D2
100
AcDbEntity
8
1
62
256
6
ByLayer
370
18
48
1
60
0
100
AcDbSpline
70
4
71
3
72
8
73
4
40
0
40
0
40
0
40
0
40
1
40
1
40
1
40
1
41
1
10
5.38786455335563
20
-0.671966484375673
30
0
41
1
10
6.59500553139458
20
0.9527439821656
30
0
41
1
10
7.92108553679142
20
2.47505498152651
30
0
41
1
10
9.36690053591298
20
3.89468568652251
30
0
0
SPLINE
5
D3
100
AcDbEntity
8
1
62
256
6
ByLayer
370
18
48
1
60
0
100
AcDbSpline
70
4
71
3
72
8
73
4
40
0
40
0
40
0
40
0
40
1
40
1
40
1
40
1
41
1
10
12.4644347110867
20
3.96418566649422
30
0
41
1
10
13.1033804496433
20
3.39346904129604
30
0
41
1
10
13.7261925313693
20
2.80244244401607
30
0
41
1
10
14.3295668454824
20
2.19424135871145
30
0
0
SPLINE
5
D4
100
AcDbEntity
8
1
62
256
6
ByLayer
370
18
48
1
60
0
100
AcDbSpline
70
4
71
3
72
10
73
6
40
0
40
0
40
0
40
0
40
0.318925073345393
40
0.318925073345393
40
1
40
1
40
1
40
1
41
1
10
16.0800201622835
20
1.2743862987131
30
0
41
1
10
16.1741591781292
20
1.18505170833012
30
0
41
1
10
16.2702339653308
20
1.09388013952108
30
0
41
1
10
16.5745266521637
20
0.80511716180618
30
0
41
1
10
16.7913535118077
20
0.599356154892007
30
0
41
1
10
17.0088475694618
20
0.392962000707229
30
0
0
SPLINE
5
D5
100
AcDbEntity
8
1
62
256
6
ByLayer
370
18
48
1
60
0
100
AcDbSpline
70
4
71
3
72
16
73
12
40
0
40
0
40
0
40
0
40
0.182347538376281
40
0.182347538376281
40
0.40571863725474
40
0.40571863725474
40
0.628417737559246
40
0.628417737559246
40
0.851471083259176
40
0.851471083259176
40
1
40
1
40
1
40
1
41
1
10
9.36690053591298
20
3.89468568652251
30
0
41
1
10
9.51376777586728
20
4.03889310138808
30
0
41
1
10
9.68227514550736
20
4.16414762540134
30
0
41
1
10
10.0845640412188
20
4.3847885647846
30
0
41
1
10
10.3302859426574
20
4.46985971119983
30
0
41
1
10
10.8286679791621
20
4.5526946534105
30
0
41
1
10
11.0881465940621
20
4.55186541213214
30
0
41
1
10
11.5859364092567
20
4.46598398950417
30
0
41
1
10
11.8310519510058
20
4.37963433968716
30
0
41
1
10
12.1995589822038
20
4.17533988820171
30
0
41
1
10
12.3387101953988
20
4.07648482895544
30
0
41
1
10
12.4644347110867
20
3.96418566649422
30
0
0
SPLINE
5
D6
100
AcDbEntity
8
1
62
256
6
ByLayer
370
18
48
1
60
0
100
AcDbSpline
70
4
71
3
72
8
73
4
40
0
40
0
40
0
40
0
40
1
40
1
40
1
40
1
41
1
10
17.0088475694618
20
0.392962000707229
30
0
41
1
10
16.4939459729707
20
-0.342393687989812
30
0
41
1
10
15.9829505810098
20
-1.07217073847329
30
0
41
1
10
15.4661124027576
20
-1.81029215255231
30
0
0
SPLINE
5
D7
100
AcDbEntity
8
1
62
256
6
ByLayer
370
18
48
1
60
0
100
AcDbSpline
70
4
71
3
72
22
73
18
40
0
40
0
40
0
40
0
40
0.0411020417363085
40
0.0411020417363085
40
0.221838017924954
40
0.221838017924954
40
0.394202078043693
40
0.394202078043693
40
0.49274749671378
40
0.49274749671378
40
0.653644853843144
40
0.653644853843144
40
0.814292969845423
40
0.814292969845423
40
0.97878359224643
40
0.97878359224643
40
1
40
1
40
1
40
1
41
1
10
14.581778658333
20
2.44316889402333
30
0
41
1
10
14.5680652705703
20
2.46156958040734
30
0
41
1
10
14.5532769898186
20
2.48092520001876
30
0
41
1
10
14.4685913565638
20
2.58925569954928
30
0
41
1
10
14.3783845161782
20
2.69607915550057
30
0
41
1
10
14.1737395480708
20
2.92297599760971
30
0
41
1
10
14.0575553249122
20
3.04552595094364
30
0
41
1
10
13.8642533024194
20
3.23961678084757
30
0
41
1
10
13.7904155609137
20
3.31183205793684
30
0
41
1
10
13.5954348522322
20
3.49756330377687
30
0
41
1
10
13.4704529042339
20
3.61158130872261
30
0
41
1
10
13.2328440054361
20
3.81917933178528
30
0
41
1
10
13.1170150369699
20
3.91560718293809
30
0
41
1
10
12.9067888685395
20
4.08211073677421
30
0
41
1
10
12.810184117917
20
4.15375475159084
30
0
41
1
10
12.7198548397359
20
4.2156274120741
30
0
41
1
10
12.7097039266429
20
4.22248986356263
30
0
41
1
10
12.6998213534617
20
4.22907969241641
30
0
0
SPLINE
5
D8
100
AcDbEntity
8
1
62
256
6
ByLayer
370
18
48
1
60
0
100
AcDbSpline
70
4
71
3
72
8
73
4
40
0
40
0
40
0
40
0
40
1
40
1
40
1
40
1
41
1
10
14.4222745258707
20
-0.902685101439403
30
0
41
1
10
13.0802293233916
20
-2.4208482501667
30
0
41
1
10
11.6294017759872
20
-3.82477767441435
30
0
41
1
10
10.0701274461329
20
-5.11526806166526
30
0
0
SPLINE
5
D9
100
AcDbEntity
8
1
62
256
6
ByLayer
370
18
48
1
60
0
100
AcDbSpline
70
4
71
3
72
8
73
4
40
0
40
0
40
0
40
0
40
1
40
1
40
1
40
1
41
1
10
11.4542286322856
20
5.66409855369096
30
0
41
1
10
11.969913279717
20
5.21573820955211
30
0
41
1
10
12.4083429248202
20
4.79397015007825
30
0
41
1
10
12.8268648266596
20
4.37204896519657
30
0
0
SPLINE
5
DA
100
AcDbEntity
8
1
62
256
6
ByLayer
370
18
48
1
60
0
100
AcDbSpline
70
4
71
3
72
8
73
4
40
0
40
0
40
0
40
0
40
1
40
1
40
1
40
1
41
1
10
14.7179030550392
20
2.57752069216105
30
0
41
1
10
15.1611497555003
20
2.18165400876657
30
0
41
1
10
15.6052854312705
20
1.76589885090581
30
0
41
1
10
16.0800201622834
20
1.27438629871318
30
0
0
SPLINE
5
DB
100
AcDbEntity
8
1
62
256
6
ByLayer
370
18
48
1
60
0
100
AcDbSpline
70
4
71
3
72
16
73
12
40
0
40
0
40
0
40
0
40
0.0457740263097808
40
0.0457740263097808
40
0.341028104251834
40
0.341028104251834
40
0.635444639047077
40
0.635444639047077
40
0.936730774270047
40
0.936730774270047
40
1
40
1
40
1
40
1
41
1
10
14.4712224896888
20
2.33405237698548
30
0
41
1
10
14.4835664455721
20
2.32456438479173
30
0
41
1
10
14.495394363361
20
2.31544693164125
30
0
41
1
10
14.5789045791291
20
2.25120670441507
30
0
41
1
10
14.6307559007376
20
2.21279686427411
30
0
41
1
10
14.6941312868854
20
2.18539594364071
30
0
41
1
10
14.7068292870214
20
2.19579452998229
30
0
41
1
10
14.6936134906363
20
2.26222394879102
30
0
41
1
10
14.666645456025
20
2.31997526988471
30
0
41
1
10
14.6061702139292
20
2.4096219291429
30
0
41
1
10
14.5945230099055
20
2.42606846482872
30
0
41
1
10
14.5817786583328
20
2.44316889402353
30
0
0
SPLINE
5
DC
100
AcDbEntity
8
1
62
256
6
ByLayer
370
18
48
1
60
0
100
AcDbSpline
70
4
71
3
72
18
73
14
40
0
40
0
40
0
40
0
40
0.0203676344849527
40
0.0203676344849527
40
0.0904676656911477
40
0.0904676656911477
40
0.318076695405431
40
0.318076695405431
40
0.545462898242932
40
0.545462898242932
40
0.772727523889716
40
0.772727523889716
40
1
40
1
40
1
40
1
41
1
10
16.7078648561135
20
1.36788316720933
30
0
41
1
10
16.704257066739
20
1.36440381521288
30
0
41
1
10
16.7006488854849
20
1.36092405664428
30
0
41
1
10
16.6844699908675
20
1.34532125952524
30
0
41
1
10
16.6718997295483
20
1.33319894964356
30
0
41
1
10
16.6194815497811
20
1.28265017154016
30
0
41
1
10
16.5799096982797
20
1.24449328386098
30
0
41
1
10
16.5081106438757
20
1.17526704254612
30
0
41
1
10
16.474888871368
20
1.14323868483555
30
0
41
1
10
16.4192816756797
20
1.08963208251924
30
0
41
1
10
16.3961256382078
20
1.067310861198
30
0
41
1
10
16.3629358631597
20
1.03531850069751
30
0
41
1
10
16.3524455386474
20
1.02520718228251
30
0
41
1
10
16.3489324809336
20
1.02182102846038
30
0
0
SPLINE
5
DD
100
AcDbEntity
8
1
62
256
6
ByLayer
370
18
48
1
60
0
100
AcDbSpline
70
4
71
3
72
26
73
22
40
0
40
0
40
0
40
0
40
0.0581146243005693
40
0.0581146243005693
40
0.174441459191548
40
0.174441459191548
40
0.291426331576353
40
0.291426331576353
40
0.408285394495006
40
0.408285394495006
40
0.523958364922724
40
0.523958364922724
40
0.63859586617901
40
0.63859586617901
40
0.753460630432557
40
0.753460630432557
40
0.869551480595614
40
0.869551480595614
40
0.986580057894324
40
0.986580057894324
40
1
40
1
40
1
40
1
41
1
10
10.0701274461329
20
-5.11526806166526
30
0
41
1
10
9.92992858739137
20
-5.23129977978275
30
0
41
1
10
9.77944417145289
20
-5.33572898073581
30
0
41
1
10
9.30754386451548
20
-5.60729401422694
30
0
41
1
10
8.95791579353451
20
-5.73611627547089
30
0
41
1
10
8.24311733376157
20
-5.869441193368
30
0
41
1
10
7.86792862609207
20
-5.87508864955058
30
0
41
1
10
7.14615544079047
20
-5.76265060079035
30
0
41
1
10
6.7894567237667
20
-5.64306187944504
30
0
41
1
10
6.14751815136759
20
-5.29812006365628
30
0
41
1
10
5.85272259187713
20
-5.06902349071788
30
0
41
1
10
5.36418189232583
20
-4.53652160869061
30
0
41
1
10
5.16286690462621
20
-4.22653099939382
30
0
41
1
10
4.87636647058176
20
-3.56739508649471
30
0
41
1
10
4.78744712941136
20
-3.20921604535096
30
0
41
1
10
4.73184868151296
20
-2.4904801705276
30
0
41
1
10
4.76567402607458
20
-2.12005169213816
30
0
41
1
10
4.95197876023539
20
-1.41798386136546
30
0
41
1
10
5.10802704210425
20
-1.07691938257756
30
0
41
1
10
5.33795006013108
20
-0.740548922975421
30
0
41
1
10
5.3625724494006
20
-0.706007534065918
30
0
41
1
10
5.38786455335563
20
-0.671966484375673
30
0
0
SPLINE
5
DE
100
AcDbEntity
8
1
62
256
6
ByLayer
370
18
48
1
60
0
100
AcDbSpline
70
4
71
3
72
20
73
16
40
0
40
0
40
0
40
0
40
0.095053771143367
40
0.095053771143367
40
0.27135262144308
40
0.27135262144308
40
0.440964435046775
40
0.440964435046775
40
0.606110160208736
40
0.606110160208736
40
0.769927003971816
40
0.769927003971816
40
0.935590220999683
40
0.935590220999683
40
1
40
1
40
1
40
1
41
1
10
12.5966404396225
20
4.11296431989814
30
0
41
1
10
12.6309028994247
20
4.07291488594487
30
0
41
1
10
12.6711604957745
20
4.02791721953267
30
0
41
1
10
12.8001932347892
20
3.8883940048797
30
0
41
1
10
12.9034818487847
20
3.78181954576351
30
0
41
1
10
13.1266343484641
20
3.55831754475622
30
0
41
1
10
13.2488573427643
20
3.43876641072433
30
0
41
1
10
13.4941507548749
20
3.20313378515542
30
0
41
1
10
13.6204834490133
20
3.08380018677386
30
0
41
1
10
13.8616346645249
20
2.85999483846209
30
0
41
1
10
13.9798031392182
20
2.75239490963881
30
0
41
1
10
14.1950957622294
20
2.56142589958966
30
0
41
1
10
14.2948707765886
20
2.47579270163456
30
0
41
1
10
14.411983160274
20
2.38036316958332
30
0
41
1
10
14.4427995952745
20
2.35589919844816
30
0
41
1
10
14.471222489689
20
2.33405237698531
30
0
0
SPLINE
5
DF
100
AcDbEntity
8
1
62
256
6
ByLayer
370
18
48
1
60
0
100
AcDbSpline
70
4
71
3
72
11
73
7
40
0
40
0
40
0
40
0
40
0.191046598642744
40
0.191046598642744
40
0.191046598642744
40
1
40
1
40
1
40
1
41
1
10
10.4172647788791
20
6.64814050753776
30
0
41
1
10
10.4860928142049
20
6.58282514081705
30
0
41
1
10
10.5549982000413
20
6.51743637120248
30
0
41
1
10
10.6234798057913
20
6.45244975387396
30
0
41
1
10
10.9095322046373
20
6.1809961631453
30
0
41
1
10
11.1914613037074
20
5.91345543780193
30
0
41
1
10
11.4542286322856
20
5.66409855369096
30
0
0
SPLINE
5
E0
100
AcDbEntity
8
1
62
256
6
ByLayer
370
18
48
1
60
0
100
AcDbSpline
70
4
71
3
72
10
73
6
40
0
40
0
40
0
40
0
40
0.53480345940801
40
0.53480345940801
40
1
40
1
40
1
40
1
41
1
10
15.4661124027577
20
-1.81029215255228
30
0
41
1
10
14.9825306308892
20
-2.50091849614293
30
0
41
1
10
14.4990332562585
20
-3.19142430798692
30
0
41
1
10
13.5944889970804
20
-4.48324738874217
30
0
41
1
10
13.1733702417487
20
-5.08466729977087
30
0
41
1
10
12.7522651531627
20
-5.68606769266395
30
0
0
SPLINE
5
E1
100
AcDbEntity
8
1
62
256
6
ByLayer
370
18
48
1
60
0
100
AcDbSpline
70
4
71
3
72
14
73
10
40
0
40
0
40
0
40
0
40
0.151400666466224
40
0.151400666466224
40
0.441945827619419
40
0.441945827619419
40
0.748925642406826
40
0.748925642406826
40
1
40
1
40
1
40
1
41
1
10
12.6998213534617
20
4.22907969241638
30
0
41
1
10
12.6576113170836
20
4.25722589589455
30
0
41
1
10
12.6193682059477
20
4.27941167106005
30
0
41
1
10
12.5231876289546
20
4.3281818566698
30
0
41
1
10
12.4784333548784
20
4.34085781913822
30
0
41
1
10
12.4363462700964
20
4.33140300439123
30
0
41
1
10
12.4415799761204
20
4.30710906056439
30
0
41
1
10
12.4983695423587
20
4.22725159899377
30
0
41
1
10
12.5416299613019
20
4.17726613976043
30
0
41
1
10
12.5966404396225
20
4.11296431989814
30
0
0
SPLINE
5
E2
100
AcDbEntity
8
1
62
256
6
ByLayer
370
18
48
1
60
0
100
AcDbSpline
70
4
71
3
72
16
73
12
40
0
40
0
40
0
40
0
40
0.182247071807106
40
0.182247071807106
40
0.406661404458627
40
0.406661404458627
40
0.630510239717026
40
0.630510239717026
40
0.853468647625682
40
0.853468647625682
40
1
40
1
40
1
40
1
41
1
10
14.3295668454824
20
2.19424135871145
30
0
41
1
10
14.475042323205
20
2.04760213101051
30
0
41
1
10
14.6015322230551
20
1.87940827763921
30
0
41
1
10
14.8257428722688
20
1.47672093293011
30
0
41
1
10
14.9128387623163
20
1.23008157568853
30
0
41
1
10
14.9990344082699
20
0.729469267879438
30
0
41
1
10
14.9995317482349
20
0.468586356374487
30
0
41
1
10
14.9154718115338
20
-0.0304011444237346
30
0
41
1
10
14.8300905878741
20
-0.275459357263401
30
0
41
1
10
14.6285316118194
20
-0.641527525840615
30
0
41
1
10
14.5319252660634
20
-0.778644783956992
30
0
41
1
10
14.4222745258707
20
-0.902685101439403
30
0
0
SPLINE
5
E3
100
AcDbEntity
8
1
62
256
6
ByLayer
370
18
48
1
60
0
100
AcDbSpline
70
4
71
3
72
24
73
20
40
0
40
0
40
0
40
0
40
0.158126111966011
40
0.158126111966011
40
0.271563393607311
40
0.271563393607311
40
0.385066230469792
40
0.385066230469792
40
0.498714519310314
40
0.498714519310314
40
0.612721087896071
40
0.612721087896071
40
0.746221642583607
40
0.746221642583607
40
0.824913378297536
40
0.824913378297536
40
0.908986128606072
40
0.908986128606072
40
1
40
1
40
1
40
1
41
1
10
21.2823085327633
20
15.763642845238
30
0
41
1
10
21.3066668410602
20
15.7498615774809
30
0
41
1
10
21.3303497395467
20
15.7347944396052
30
0
41
1
10
21.3694499642955
20
15.7068163497284
30
0
41
1
10
21.3853523718893
20
15.6944645686017
30
0
41
1
10
21.4159736316582
20
15.6684622218971
30
0
41
1
10
21.4307287217131
20
15.654781818189
30
0
41
1
10
21.458680810025
20
15.6260409066383
30
0
41
1
10
21.4719277292098
20
15.6109302814475
30
0
41
1
10
21.4962018623068
20
15.5792214210307
30
0
41
1
10
21.5073052195545
20
15.5625195921076
30
0
41
1
10
21.5275010887428
20
15.5248517034991
30
0
41
1
10
21.5361658603095
20
15.5031990133781
30
0
41
1
10
21.54290657142
20
15.4684509963222
30
0
41
1
10
21.5438540224137
20
15.4552634413027
30
0
41
1
10
21.5415207207655
20
15.4291828222414
30
0
41
1
10
21.5378587145175
20
15.4160574576453
30
0
41
1
10
21.5254240364262
20
15.3921299267238
30
0
41
1
10
21.5160946157764
20
15.3812484798078
30
0
41
1
10
21.5052188996654
20
15.3726155812414
30
0
0
SPLINE
5
E4
100
AcDbEntity
8
1
62
256
6
ByLayer
370
18
48
1
60
0
100
AcDbSpline
70
4
71
3
72
24
73
20
40
0
40
0
40
0
40
0
40
0.158126111966036
40
0.158126111966036
40
0.271563393607333
40
0.271563393607333
40
0.385066230469807
40
0.385066230469807
40
0.49871451931033
40
0.49871451931033
40
0.612721087896082
40
0.612721087896082
40
0.746221642583617
40
0.746221642583617
40
0.824913378297543
40
0.824913378297543
40
0.908986128606073
40
0.908986128606073
40
1
40
1
40
1
40
1
41
1
10
19.6313108204484
20
12.8455142678907
30
0
41
1
10
19.6069525121514
20
12.8592955356478
30
0
41
1
10
19.583269613665
20
12.8743626735235
30
0
41
1
10
19.5441693889161
20
12.9023407634003
30
0
41
1
10
19.5282669813223
20
12.914692544527
30
0
41
1
10
19.4976457215535
20
12.9406948912316
30
0
41
1
10
19.4828906314985
20
12.9543752949397
30
0
41
1
10
19.4549385431866
20
12.9831162064904
30
0
41
1
10
19.4416916240019
20
12.9982268316811
30
0
41
1
10
19.4174174909048
20
13.029935692098
30
0
41
1
10
19.4063141336571
20
13.046637521021
30
0
41
1
10
19.3861182644688
20
13.0843054096296
30
0
41
1
10
19.3774534929021
20
13.1059580997506
30
0
41
1
10
19.3707127817916
20
13.1407061168065
30
0
41
1
10
19.3697653307979
20
13.153893671826
30
0
41
1
10
19.3720986324462
20
13.1799742908873
30
0
41
1
10
19.3757606386942
20
13.1930996554833
30
0
41
1
10
19.3881953167854
20
13.2170271864048
30
0
41
1
10
19.3975247374352
20
13.2279086333209
30
0
41
1
10
19.4084004535462
20
13.2365415318872
30
0
0
SPLINE
5
E5
100
AcDbEntity
8
1
62
256
6
ByLayer
370
18
48
1
60
0
100
AcDbSpline
70
4
71
3
72
26
73
22
40
0
40
0
40
0
40
0
40
0.0611212350797056
40
0.0611212350797056
40
0.145349009858796
40
0.145349009858796
40
0.228936526328747
40
0.228936526328747
40
0.391532191220713
40
0.391532191220713
40
0.475817926908346
40
0.475817926908346
40
0.589557559273606
40
0.589557559273606
40
0.703149060376457
40
0.703149060376457
40
0.816673845780363
40
0.816673845780363
40
0.930168712116218
40
0.930168712116218
40
1
40
1
40
1
40
1
41
1
10
20.081293931076
20
12.8558367196808
30
0
41
1
10
20.0800708584992
20
12.846473014779
30
0
41
1
10
20.0776332121754
20
12.8372267734532
30
0
41
1
10
20.0687689989361
20
12.8166949539493
30
0
41
1
10
20.0609915660844
20
12.8056495091352
30
0
41
1
10
20.0416360399644
20
12.7873839999839
30
0
41
1
10
20.0298824678644
20
12.7798786070659
30
0
41
1
10
19.9930085438546
20
12.7632025714344
30
0
41
1
10
19.9648300681028
20
12.7582561697128
30
0
41
1
10
19.9224166600938
20
12.7564963268133
30
0
41
1
10
19.907651612486
20
12.7569095821012
30
0
41
1
10
19.8730998662112
20
12.7597230015051
30
0
41
1
10
19.8532537462907
20
12.7627701397369
30
0
41
1
10
19.8140524508515
20
12.7709866755785
30
0
41
1
10
19.7946198657658
20
12.7761735240681
30
0
41
1
10
19.756330159165
20
12.7882638025564
30
0
41
1
10
19.7374250233531
20
12.7951834071042
30
0
41
1
10
19.7002550705176
20
12.8105008336899
30
0
41
1
10
19.6819552016881
20
12.8189136525669
30
0
41
1
10
19.6529795197029
20
12.8335818391825
30
0
41
1
10
19.6420734829735
20
12.8394250464131
30
0
41
1
10
19.6313108204484
20
12.8455142678907
30
0
0
SPLINE
5
E6
100
AcDbEntity
8
1
62
256
6
ByLayer
370
18
48
1
60
0
100
AcDbSpline
70
4
71
3
72
24
73
20
40
0
40
0
40
0
40
0
40
0.158126111965954
40
0.158126111965954
40
0.271563393607254
40
0.271563393607254
40
0.385066230469739
40
0.385066230469739
40
0.498714519310272
40
0.498714519310272
40
0.612721087896034
40
0.612721087896034
40
0.746221642583588
40
0.746221642583588
40
0.824913378297524
40
0.824913378297524
40
0.908986128606061
40
0.908986128606061
40
1
40
1
40
1
40
1
41
1
10
19.6059723649385
20
15.7490136811285
30
0
41
1
10
19.581858282816
20
15.7348094012287
30
0
41
1
10
19.5584419491638
20
15.7193312345811
30
0
41
1
10
19.5198359645644
20
15.6906750128888
30
0
41
1
10
19.5041515472887
20
15.6780475777176
30
0
41
1
10
19.473988754809
20
15.6515147766253
30
0
41
1
10
19.459474667991
20
15.6375789446809
30
0
41
1
10
19.4320284349873
20
15.6083545793043
30
0
41
1
10
19.4190472501454
20
15.5930150649166
30
0
41
1
10
19.395330210036
20
15.560887391876
30
0
41
1
10
19.38452003099
20
15.5439943264189
30
0
41
1
10
19.3649846330321
20
15.5059797082948
30
0
41
1
10
19.3566990727005
20
15.4841790948684
30
0
41
1
10
19.3505658247494
20
15.4493187284738
30
0
41
1
10
19.3498486726273
20
15.4361166466829
30
0
41
1
10
19.3526367884664
20
15.4100807215549
30
0
41
1
10
19.3565273061707
20
15.3970212668368
30
0
41
1
10
19.3693776833949
20
15.3733143952502
30
0
41
1
10
19.3788955905629
20
15.3625974264722
30
0
41
1
10
19.3899203151042
20
15.354155650156
30
0
0
SPLINE
5
E7
100
AcDbEntity
8
1
62
256
6
ByLayer
370
18
48
1
60
0
100
AcDbSpline
70
4
71
3
72
8
73
4
40
0
40
0
40
0
40
0
40
1
40
1
40
1
40
1
41
1
10
21.5139263342605
20
13.2724567425504
30
0
41
1
10
21.5171843290802
20
13.2666375535796
30
0
41
1
10
21.5204418916226
20
13.2608191367104
30
0
41
1
10
21.5236990381074
20
13.2550014629727
30
0
0
SPLINE
5
E8
100
AcDbEntity
8
1
62
256
6
ByLayer
370
18
48
1
60
0
100
AcDbSpline
70
4
71
3
72
8
73
4
40
0
40
0
40
0
40
0
40
1
40
1
40
1
40
1
41
1
10
20.0665959232545
20
15.7295362027945
30
0
41
1
10
20.0630858531323
20
15.7352069080647
30
0
41
1
10
20.0595762487333
20
15.7408768609343
30
0
41
1
10
20.0560670925829
20
15.7465460896344
30
0
0
SPLINE
5
E9
100
AcDbEntity
8
1
62
256
6
ByLayer
370
18
48
1
60
0
100
AcDbSpline
70
4
71
3
72
8
73
4
40
0
40
0
40
0
40
0
40
1
40
1
40
1
40
1
41
1
10
20.8220950585146
20
15.736129343864
30
0
41
1
10
20.8255056265829
20
15.7418604446287
30
0
41
1
10
20.8289157421302
20
15.7475907849794
30
0
41
1
10
20.8323254221356
20
15.7533203934479
30
0
0
SPLINE
5
EA
100
AcDbEntity
8
1
62
256
6
ByLayer
370
18
48
1
60
0
100
AcDbSpline
70
4
71
3
72
8
73
4
40
0
40
0
40
0
40
0
40
1
40
1
40
1
40
1
41
1
10
20.8575522606287
20
12.8626110234942
30
0
41
1
10
20.8540431044783
20
12.8682802521943
30
0
41
1
10
20.8505335000793
20
12.873950205064
30
0
41
1
10
20.8470234299572
20
12.8796209103342
30
0
0
SPLINE
5
EB
100
AcDbEntity
8
1
62
256
6
ByLayer
370
18
48
1
60
0
100
AcDbSpline
70
4
71
3
72
8
73
4
40
0
40
0
40
0
40
0
40
1
40
1
40
1
40
1
41
1
10
20.091524294697
20
12.8730277692647
30
0
41
1
10
20.0881137266287
20
12.8672966685
30
0
41
1
10
20.0847036110814
20
12.8615663281493
30
0
41
1
10
20.081293931076
20
12.8558367196808
30
0
0
SPLINE
5
EC
100
AcDbEntity
8
1
62
256
6
ByLayer
370
18
48
1
60
0
100
AcDbSpline
70
4
71
3
72
8
73
4
40
0
40
0
40
0
40
0
40
1
40
1
40
1
40
1
41
1
10
21.8792117161693
20
14.70400752985
30
0
41
1
10
21.8858802790574
20
14.7039194416439
30
0
41
1
10
21.892547957147
20
14.7038313651255
30
0
41
1
10
21.8992147836372
20
14.7037432998563
30
0
0
SPLINE
5
ED
100
AcDbEntity
8
1
62
256
6
ByLayer
370
18
48
1
60
0
100
AcDbSpline
70
4
71
3
72
24
73
20
40
0
40
0
40
0
40
0
40
0.158126111966006
40
0.158126111966006
40
0.271563393607306
40
0.271563393607306
40
0.385066230469784
40
0.385066230469784
40
0.498714519310308
40
0.498714519310308
40
0.612721087896064
40
0.612721087896064
40
0.746221642583603
40
0.746221642583603
40
0.824913378297532
40
0.824913378297532
40
0.908986128606069
40
0.908986128606069
40
1
40
1
40
1
40
1
41
1
10
21.3076469882731
20
12.8601434320002
30
0
41
1
10
21.2835329061506
20
12.8459391521004
30
0
41
1
10
21.2586429327448
20
12.8329627293137
30
0
41
1
10
21.2148630837877
20
12.8130899863259
30
0
41
1
10
21.1962149237531
20
12.8054939879317
30
0
41
1
10
21.1583856010644
20
12.7919763724283
30
0
41
1
10
21.1391604788917
20
12.7860382914596
30
0
41
1
10
21.100294075205
20
12.7762015286681
30
0
41
1
10
21.0805844303303
20
12.7722846727275
30
0
41
1
10
21.0409866851357
20
12.7671170870191
30
0
41
1
10
21.0209707983748
20
12.7658522120367
30
0
41
1
10
20.9782515153388
20
12.7671960205725
30
0
41
1
10
20.9551673498504
20
12.7705184533382
30
0
41
1
10
20.9217043287936
20
12.7820548348049
30
0
41
1
10
20.909809845636
20
12.7878280956853
30
0
41
1
10
20.8883900178066
20
12.802889103718
30
0
41
1
10
20.8788541217565
20
12.8126231764556
30
0
41
1
10
20.8643496111743
20
12.8353556890313
30
0
41
1
10
20.85959071204
20
12.8488759277746
30
0
41
1
10
20.8575522606287
20
12.8626110234942
30
0
0
SPLINE
5
EE
100
AcDbEntity
8
1
62
256
6
ByLayer
370
18
48
1
60
0
100
AcDbSpline
70
4
71
3
72
30
73
26
40
0
40
0
40
0
40
0
40
0.0728681126381118
40
0.0728681126381118
40
0.127812593477835
40
0.127812593477835
40
0.199092397893562
40
0.199092397893562
40
0.288874798004157
40
0.288874798004157
40
0.393641276926429
40
0.393641276926429
40
0.49991562193292
40
0.49991562193292
40
0.631623646297739
40
0.631623646297739
40
0.734868911743529
40
0.734868911743529
40
0.796951047610518
40
0.796951047610518
40
0.859105215562994
40
0.859105215562994
40
0.921420364650285
40
0.921420364650285
40
1
40
1
40
1
40
1
41
1
10
21.8859660742337
20
13.9300347567576
30
0
41
1
10
21.8675867420258
20
13.929471033036
30
0
41
1
10
21.8489453096414
20
13.9250877121397
30
0
41
1
10
21.8175480669961
20
13.9134069638448
30
0
41
1
10
21.8042652811577
20
13.907010174122
30
0
41
1
10
21.7746861572245
20
13.8901739924218
30
0
41
1
10
21.7585369816725
20
13.87903073396
30
0
41
1
10
21.723561807818
20
13.8514178603656
30
0
41
1
10
21.7049754160088
20
13.8341978557054
30
0
41
1
10
21.66692317894
20
13.794332534709
30
0
41
1
10
21.6476720182355
20
13.7710935984895
30
0
41
1
10
21.6117483294292
20
13.7220353254258
30
0
41
1
10
21.5949963034869
20
13.6960114396935
30
0
41
1
10
21.5610650548939
20
13.6360381608418
30
0
41
1
10
21.5445557335204
20
13.6013756183208
30
0
41
1
10
21.5202830745024
20
13.5384727235322
30
0
41
1
10
21.5113191925805
20
13.5102442861715
30
0
41
1
10
21.5005121730701
20
13.4649084270469
30
0
41
1
10
21.4972412447419
20
13.4477759407104
30
0
41
1
10
21.492631217353
20
13.4136283525486
30
0
41
1
10
21.4912823098868
20
13.39654219262
30
0
41
1
10
21.4910216313794
20
13.3628035944859
30
0
41
1
10
21.4921117275921
20
13.3460409767159
30
0
41
1
10
21.4982165595201
20
13.3095547915924
30
0
41
1
10
21.5042517527594
20
13.2897367632638
30
0
41
1
10
21.5139263342605
20
13.2724567425504
30
0
0
SPLINE
5
EF
100
AcDbEntity
8
1
62
256
6
ByLayer
370
18
48
1
60
0
100
AcDbSpline
70
4
71
3
72
30
73
26
40
0
40
0
40
0
40
0
40
0.0728681126381102
40
0.0728681126381102
40
0.127812593477834
40
0.127812593477834
40
0.199092397893558
40
0.199092397893558
40
0.288874798004154
40
0.288874798004154
40
0.393641276926425
40
0.393641276926425
40
0.499915621932918
40
0.499915621932918
40
0.631623646297735
40
0.631623646297735
40
0.73486891174353
40
0.73486891174353
40
0.796951047610514
40
0.796951047610514
40
0.859105215562995
40
0.859105215562995
40
0.921420364650284
40
0.921420364650284
40
1
40
1
40
1
40
1
41
1
10
21.4957523208823
20
15.3549924029878
30
0
41
1
10
21.487050853842
20
15.3387935725304
30
0
41
1
10
21.481526204899
20
15.3204579580744
30
0
41
1
10
21.4759434083349
20
15.2874267741874
30
0
41
1
10
21.4748417978184
20
15.2727251493569
30
0
41
1
10
21.4746327969068
20
15.2386907857589
30
0
41
1
10
21.4762085540397
20
15.2191335602497
30
0
41
1
10
21.4826344171166
20
15.1750377343928
30
0
41
1
10
21.4882541827011
20
15.1503314445912
30
0
41
1
10
21.5037524448796
20
15.0974445801206
30
0
41
1
10
21.5142523736503
20
15.0691531177884
30
0
41
1
10
21.5387762399861
20
15.0135131541527
30
0
41
1
10
21.5529375731643
20
14.9859935312557
30
0
41
1
10
21.5879103319017
20
14.9266215685662
30
0
41
1
10
21.6096743135978
20
14.894992805597
30
0
41
1
10
21.6520134889474
20
14.8425206188756
30
0
41
1
10
21.67197809185
20
14.8206434507344
30
0
41
1
10
21.705836587799
20
14.788616367737
30
0
41
1
10
21.7190382920323
20
14.7772174175425
30
0
41
1
10
21.7463059571639
20
14.7561512226307
30
0
41
1
10
21.7604285519822
20
14.7464399545333
30
0
41
1
10
21.7895166958006
20
14.7293449012566
30
0
41
1
10
21.8045785967298
20
14.7219076433844
30
0
41
1
10
21.8392289758979
20
14.7089514903581
30
0
41
1
10
21.859409488503
20
14.7042691068557
30
0
41
1
10
21.8792117161693
20
14.70400752985
30
0
0
SPLINE
5
F0
100
AcDbEntity
8
1
62
256
6
ByLayer
370
18
48
1
60
0
100
AcDbSpline
70
4
71
3
72
26
73
22
40
0
40
0
40
0
40
0
40
0.0611212350797062
40
0.0611212350797062
40
0.145349009858786
40
0.145349009858786
40
0.228936526328732
40
0.228936526328732
40
0.39153219122069
40
0.39153219122069
40
0.475817926908319
40
0.475817926908319
40
0.589557559273574
40
0.589557559273574
40
0.703149060376419
40
0.703149060376419
40
0.816673845780319
40
0.816673845780319
40
0.93016871211617
40
0.93016871211617
40
1
40
1
40
1
40
1
41
1
10
19.0144045695744
20
13.9054138132724
30
0
41
1
10
19.0056838269676
20
13.9017911727437
30
0
41
1
10
18.996457523928
20
13.8992791157227
30
0
41
1
10
18.974244340032
20
13.8966898398205
30
0
41
1
10
18.9607899878011
20
13.8979025718393
30
0
41
1
10
18.935293829803
20
13.9055321945872
30
0
41
1
10
18.9229171828206
20
13.9119583901519
30
0
41
1
10
18.8900383503245
20
13.9355541272659
30
0
41
1
10
18.8716654029003
20
13.9574842022461
30
0
41
1
10
18.8489346302381
20
13.9933353695932
30
0
41
1
10
18.8419099960118
20
14.0063289035537
30
0
41
1
10
18.8270706155497
20
14.0376583032747
30
0
41
1
10
18.819786454707
20
14.0563691164083
30
0
41
1
10
18.8073015357574
20
14.0944267020406
30
0
41
1
10
18.802077185772
20
14.1138492386309
30
0
41
1
10
18.7934028207814
20
14.1530542364948
30
0
41
1
10
18.789942806198
20
14.1728863666438
30
0
41
1
10
18.784623110324
20
14.2127352033497
30
0
41
1
10
18.7827588907742
20
14.2327897640804
30
0
41
1
10
18.7809740720182
20
14.2652175340793
30
0
41
1
10
18.7805814195548
20
14.277584042557
30
0
41
1
10
18.780473508781
20
14.2899493924549
30
0
0
SPLINE
5
F1
100
AcDbEntity
8
1
62
256
6
ByLayer
370
18
48
1
60
0
100
AcDbSpline
70
4
71
3
72
8
73
4
40
0
40
0
40
0
40
0
40
1
40
1
40
1
40
1
41
1
10
21.5052188996654
20
15.3726155812414
30
0
41
1
10
21.5020637816665
20
15.3667419485193
30
0
41
1
10
21.4989082606426
20
15.3608675655177
30
0
41
1
10
21.4957523208823
20
15.3549924029878
30
0
0
SPLINE
5
F2
100
AcDbEntity
8
1
62
256
6
ByLayer
370
18
48
1
60
0
100
AcDbSpline
70
4
71
3
72
26
73
22
40
0
40
0
40
0
40
0
40
0.0727938302380714
40
0.0727938302380714
40
0.12768230018694
40
0.12768230018694
40
0.198889441338007
40
0.198889441338007
40
0.288580316474552
40
0.288580316474552
40
0.393239995518876
40
0.393239995518876
40
0.499406003515839
40
0.499406003515839
40
0.60053984229349
40
0.60053984229349
40
0.795411350082975
40
0.795411350082975
40
0.921875057553222
40
0.921875057553222
40
1
40
1
40
1
40
1
41
1
10
19.3996930189511
20
15.3367003705782
30
0
41
1
10
19.4086758692888
20
15.3206558688206
30
0
41
1
10
19.4145196773968
20
15.3024194653862
30
0
41
1
10
19.4206780973203
20
15.2694907455432
30
0
41
1
10
19.422036118788
20
15.2548105855958
30
0
41
1
10
19.4228390694141
20
15.2207850531652
30
0
41
1
10
19.421604872925
20
15.2012033055623
30
0
41
1
10
19.4159495668132
20
15.1570020489389
30
0
41
1
10
19.4107618413586
20
15.1322014435908
30
0
41
1
10
19.3961889426943
20
15.0790521520752
30
0
41
1
10
19.3861843672118
20
15.0505817496463
30
0
41
1
10
19.3626352872392
20
14.994522259764
30
0
41
1
10
19.3489563945444
20
14.9667596788965
30
0
41
1
10
19.3193377258043
20
14.9144088591293
30
0
41
1
10
19.3034482779687
20
14.8895801854377
30
0
41
1
10
19.2536663187294
20
14.8207724096235
30
0
41
1
10
19.2159198827244
20
14.7788742270887
30
0
41
1
10
19.1470494553778
20
14.7233670681669
30
0
41
1
10
19.117554866799
20
14.7044646297352
30
0
41
1
10
19.0675436456761
20
14.6847633589237
30
0
41
1
10
19.0474479255208
20
14.6797294900629
30
0
41
1
10
19.0276532789779
20
14.679122356371
30
0
0
SPLINE
5
F3
100
AcDbEntity
8
1
62
256
6
ByLayer
370
18
48
1
60
0
100
AcDbSpline
70
4
71
3
72
8
73
4
40
0
40
0
40
0
40
0
40
1
40
1
40
1
40
1
41
1
10
19.0344076370424
20
13.9051495832786
30
0
41
1
10
19.0277390741543
20
13.9052376714848
30
0
41
1
10
19.0210713960646
20
13.9053257480032
30
0
41
1
10
19.0144045695744
20
13.9054138132724
30
0
0
SPLINE
5
F4
100
AcDbEntity
8
1
62
256
6
ByLayer
370
18
48
1
60
0
100
AcDbSpline
70
4
71
3
72
8
73
4
40
0
40
0
40
0
40
0
40
1
40
1
40
1
40
1
41
1
10
19.0076578695233
20
14.6785090649573
30
0
41
1
10
19.0143221436726
20
14.6787134689793
30
0
41
1
10
19.0209872690955
20
14.6789178991113
30
0
41
1
10
19.0276532789779
20
14.679122356371
30
0
0
SPLINE
5
F5
100
AcDbEntity
8
1
62
256
6
ByLayer
370
18
48
1
60
0
100
AcDbSpline
70
4
71
3
72
28
73
24
40
0
40
0
40
0
40
0
40
0.0405984349493401
40
0.0405984349493401
40
0.136918028510172
40
0.136918028510172
40
0.284178405664793
40
0.284178405664793
40
0.500822929974466
40
0.500822929974466
40
0.566758824834818
40
0.566758824834818
40
0.632050095044783
40
0.632050095044783
40
0.735175839208406
40
0.735175839208406
40
0.797186106051236
40
0.797186106051236
40
0.859268321592045
40
0.859268321592045
40
0.921511331908842
40
0.921511331908842
40
1
40
1
40
1
40
1
41
1
10
20.8220950585146
20
15.736129343864
30
0
41
1
10
20.8167891438343
20
15.727213312554
30
0
41
1
10
20.8103788764397
20
15.7188168106238
30
0
41
1
10
20.7864766754745
20
15.6926435636549
30
0
41
1
10
20.7654910587265
20
15.677142572678
30
0
41
1
10
20.7086097957219
20
15.6442947349964
30
0
41
1
10
20.6696649970442
20
15.629577591108
30
0
41
1
10
20.5708816466621
20
15.6030751342108
30
0
41
1
10
20.5077773980484
20
15.5953724776721
30
0
41
1
10
20.4263802717361
20
15.5946621357122
30
0
41
1
10
20.4071814153977
20
15.5951792370831
30
0
41
1
10
20.3691902100009
20
15.5975872267556
30
0
41
1
10
20.35034935939
20
15.5994673597952
30
0
41
1
10
20.3023405514578
20
15.606128826364
30
0
41
1
10
20.2733056276499
20
15.6119742565796
30
0
41
1
10
20.2284146447947
20
15.624501484986
30
0
41
1
10
20.2118444570919
20
15.6299466608038
30
0
41
1
10
20.1797433179066
20
15.6424697192479
30
0
41
1
10
20.1641454623975
20
15.6495734729002
30
0
41
1
10
20.13451064013
20
15.6657022752893
30
0
41
1
10
20.1203782134156
20
15.674782373277
30
0
41
1
10
20.0914263581169
20
15.6978106331439
30
0
41
1
10
20.0770190397265
20
15.7126971028753
30
0
41
1
10
20.0665959232545
20
15.7295362027945
30
0
0
SPLINE
5
F6
100
AcDbEntity
8
1
62
256
6
ByLayer
370
18
48
1
60
0
100
AcDbSpline
70
4
71
3
72
30
73
26
40
0
40
0
40
0
40
0
40
0.0728681126381109
40
0.0728681126381109
40
0.127812593477835
40
0.127812593477835
40
0.19909239789356
40
0.19909239789356
40
0.288874798004156
40
0.288874798004156
40
0.393641276926427
40
0.393641276926427
40
0.49991562193292
40
0.49991562193292
40
0.631623646297737
40
0.631623646297737
40
0.734868911743529
40
0.734868911743529
40
0.796951047610515
40
0.796951047610515
40
0.859105215562994
40
0.859105215562994
40
0.921420364650285
40
0.921420364650285
40
1
40
1
40
1
40
1
41
1
10
19.4178670323293
20
13.2541647101409
30
0
41
1
10
19.4265684993696
20
13.2703635405983
30
0
41
1
10
19.4320931483126
20
13.2886991550543
30
0
41
1
10
19.4376759448767
20
13.3217303389413
30
0
41
1
10
19.4387775553932
20
13.3364319637718
30
0
41
1
10
19.4389865563049
20
13.3704663273698
30
0
41
1
10
19.4374107991719
20
13.3900235528789
30
0
41
1
10
19.430984936095
20
13.4341193787359
30
0
41
1
10
19.4253651705105
20
13.4588256685375
30
0
41
1
10
19.409866908332
20
13.5117125330081
30
0
41
1
10
19.3993669795613
20
13.5400039953402
30
0
41
1
10
19.3748431132255
20
13.595643958976
30
0
41
1
10
19.3606817800473
20
13.623163581873
30
0
41
1
10
19.3257090213099
20
13.6825355445625
30
0
41
1
10
19.3039450396138
20
13.7141643075317
30
0
41
1
10
19.2616058642642
20
13.766636494253
30
0
41
1
10
19.2416412613617
20
13.7885136623942
30
0
41
1
10
19.2077827654126
20
13.8205407453917
30
0
41
1
10
19.1945810611793
20
13.8319396955862
30
0
41
1
10
19.1673133960477
20
13.853005890498
30
0
41
1
10
19.1531908012294
20
13.8627171585954
30
0
41
1
10
19.124102657411
20
13.8798122118721
30
0
41
1
10
19.1090407564819
20
13.8872494697443
30
0
41
1
10
19.0743903773137
20
13.9002056227705
30
0
41
1
10
19.0542098647086
20
13.9048880062729
30
0
41
1
10
19.0344076370424
20
13.9051495832786
30
0
0
SPLINE
5
F7
100
AcDbEntity
8
1
62
256
6
ByLayer
370
18
48
1
60
0
100
AcDbSpline
70
4
71
3
72
24
73
20
40
0
40
0
40
0
40
0
40
0.158126111966012
40
0.158126111966012
40
0.27156339360731
40
0.27156339360731
40
0.38506623046979
40
0.38506623046979
40
0.498714519310312
40
0.498714519310312
40
0.612721087896066
40
0.612721087896066
40
0.746221642583609
40
0.746221642583609
40
0.824913378297536
40
0.824913378297536
40
0.908986128606072
40
0.908986128606072
40
1
40
1
40
1
40
1
41
1
10
22.1331458444306
20
14.3192077206738
30
0
41
1
10
22.133390070605
20
14.2912221730169
30
0
41
1
10
22.1321829956856
20
14.2631786123546
30
0
41
1
10
22.1275033714774
20
14.21532777949
30
0
41
1
10
22.1247576190366
20
14.195379999969
30
0
41
1
10
22.1175495561168
20
14.155860037761
30
0
41
1
10
22.113079523999
20
14.1362415530843
30
0
41
1
10
22.1021652086241
20
14.097663878742
30
0
41
1
10
22.0957024829343
20
14.0786363976107
30
0
41
1
10
22.0803788708368
20
14.0417599514854
30
0
41
1
10
22.0714663413236
20
14.02379324758
30
0
41
1
10
22.0489429274758
20
13.9874691675072
30
0
41
1
10
22.0345235335541
20
13.969138910152
30
0
41
1
10
22.0078012236078
20
13.9459272745628
30
0
41
1
10
21.9968541914439
20
13.9385129804236
30
0
41
1
10
21.9731010619663
20
13.927493369395
30
0
41
1
10
21.9599031596682
20
13.9241020775366
30
0
41
1
10
21.9329639709947
20
13.9229070591908
30
0
41
1
10
21.9188756512106
20
13.9255458510181
30
0
41
1
10
21.9059614836883
20
13.9306480481713
30
0
0
SPLINE
5
F8
100
AcDbEntity
8
1
62
256
6
ByLayer
370
18
48
1
60
0
100
AcDbSpline
70
4
71
3
72
26
73
22
40
0
40
0
40
0
40
0
40
0.0611212350797073
40
0.0611212350797073
40
0.145349009858785
40
0.145349009858785
40
0.228936526328737
40
0.228936526328737
40
0.391532191220701
40
0.391532191220701
40
0.475817926908336
40
0.475817926908336
40
0.589557559273585
40
0.589557559273585
40
0.703149060376433
40
0.703149060376433
40
0.816673845780339
40
0.816673845780339
40
0.93016871211619
40
0.93016871211619
40
1
40
1
40
1
40
1
41
1
10
21.5236990381074
20
13.2550014629727
30
0
41
1
10
21.5311967081375
20
13.2492603985997
30
0
41
1
10
21.5379853648532
20
13.2425262142949
30
0
41
1
10
21.5513343355099
20
13.2245836706931
30
0
41
1
10
21.5570112548891
20
13.2123254938603
30
0
41
1
10
21.5631518867672
20
13.1864303619611
30
0
41
1
10
21.5637749616496
20
13.1724987734783
30
0
41
1
10
21.559779870136
20
13.1322270007329
30
0
41
1
10
21.5499743418083
20
13.105350524031
30
0
41
1
10
21.5302917064615
20
13.0677395137844
30
0
41
1
10
21.5225512930799
20
13.0551592351119
30
0
41
1
10
21.5028389272672
20
13.0266432547948
30
0
41
1
10
21.4902769681894
20
13.010979579893
30
0
41
1
10
21.4635605917
20
12.9811385301022
30
0
41
1
10
21.4493523565995
20
12.9669028420015
30
0
41
1
10
21.4197370149894
20
12.939788122626
30
0
41
1
10
21.4042918937609
20
12.9268755970248
30
0
41
1
10
21.3724416367994
20
12.9023441869045
30
0
41
1
10
21.3560059875197
20
12.8907024450508
30
0
41
1
10
21.3288151242906
20
12.8729428616675
30
0
41
1
10
21.3183017400245
20
12.8664195604205
30
0
41
1
10
21.3076469882731
20
12.8601434320002
30
0
0
SPLINE
5
F9
100
AcDbEntity
8
1
62
256
6
ByLayer
370
18
48
1
60
0
100
AcDbSpline
70
4
71
3
72
26
73
22
40
0
40
0
40
0
40
0
40
0.0611212350797596
40
0.0611212350797596
40
0.145349009858836
40
0.145349009858836
40
0.22893652632877
40
0.22893652632877
40
0.391532191220668
40
0.391532191220668
40
0.475817926908277
40
0.475817926908277
40
0.589557559273534
40
0.589557559273534
40
0.703149060376377
40
0.703149060376377
40
0.816673845780276
40
0.816673845780276
40
0.930168712116128
40
0.930168712116128
40
1
40
1
40
1
40
1
41
1
10
20.0560670925829
20
15.7465460896344
30
0
41
1
10
20.0546807871023
20
15.7558870228388
30
0
41
1
10
20.0520821428821
20
15.7650893131234
30
0
41
1
10
20.0428609500464
20
15.7854633036796
30
0
41
1
10
20.0348919321434
20
15.7963713312992
30
0
41
1
10
20.0152205768743
20
15.8142962580163
30
0
41
1
10
20.0033378077327
20
15.8215953797094
30
0
41
1
10
19.9661784628485
20
15.837625336791
30
0
41
1
10
19.9379179522018
20
15.8420792029401
30
0
41
1
10
19.8954802904667
20
15.8430985617721
30
0
41
1
10
19.8807247039464
20
15.842427683813
30
0
41
1
10
19.8462273210088
20
15.8390116817874
30
0
41
1
10
19.8264374036432
20
15.835618645099
30
0
41
1
10
19.7873854770742
20
15.8267192037347
30
0
41
1
10
19.7680463746535
20
15.8211939998538
30
0
41
1
10
19.7299735042146
20
15.8084373152514
30
0
41
1
10
19.7111920114974
20
15.801188824479
30
0
41
1
10
19.67429504578
20
15.7852250256874
30
0
41
1
10
19.6561447880436
20
15.7764941113749
30
0
41
1
10
19.6274295143496
20
15.7613224634164
30
0
41
1
10
19.6166271166899
20
15.7552898095489
30
0
41
1
10
19.6059723649385
20
15.7490136811285
30
0
0
SPLINE
5
FA
100
AcDbEntity
8
1
62
256
6
ByLayer
370
18
48
1
60
0
100
AcDbSpline
70
4
71
3
72
8
73
4
40
0
40
0
40
0
40
0
40
1
40
1
40
1
40
1
41
1
10
19.4084004535462
20
13.2365415318872
30
0
41
1
10
19.4115555715452
20
13.2424151646094
30
0
41
1
10
19.414711092569
20
13.2482895476109
30
0
41
1
10
19.4178670323293
20
13.2541647101409
30
0
0
SPLINE
5
FB
100
AcDbEntity
8
1
62
256
6
ByLayer
370
18
48
1
60
0
100
AcDbSpline
70
4
71
3
72
26
73
22
40
0
40
0
40
0
40
0
40
0.0611212350797061
40
0.0611212350797061
40
0.145349009858791
40
0.145349009858791
40
0.228936526328742
40
0.228936526328742
40
0.391532191220701
40
0.391532191220701
40
0.475817926908339
40
0.475817926908339
40
0.589557559273596
40
0.589557559273596
40
0.703149060376442
40
0.703149060376442
40
0.816673845780342
40
0.816673845780342
40
0.9301687121162
40
0.9301687121162
40
1
40
1
40
1
40
1
41
1
10
20.8323254221356
20
15.7533203934479
30
0
41
1
10
20.8335484947124
20
15.7626840983496
30
0
41
1
10
20.8359861410363
20
15.7719303396754
30
0
41
1
10
20.8448503542755
20
15.7924621591794
30
0
41
1
10
20.8526277871272
20
15.8035076039935
30
0
41
1
10
20.8719833132472
20
15.8217731131447
30
0
41
1
10
20.8837368853472
20
15.8292785060628
30
0
41
1
10
20.920610809357
20
15.8459545416942
30
0
41
1
10
20.9487892851088
20
15.8509009434159
30
0
41
1
10
20.9912026931178
20
15.8526607863154
30
0
41
1
10
21.0059677407257
20
15.8522475310275
30
0
41
1
10
21.0405194870004
20
15.8494341116235
30
0
41
1
10
21.060365606921
20
15.8463869733918
30
0
41
1
10
21.0995669023601
20
15.8381704375502
30
0
41
1
10
21.1189994874459
20
15.8329835890606
30
0
41
1
10
21.1572891940466
20
15.8208933105723
30
0
41
1
10
21.1761943298586
20
15.8139737060245
30
0
41
1
10
21.2133642826941
20
15.7986562794388
30
0
41
1
10
21.2316641515236
20
15.7902434605618
30
0
41
1
10
21.2606398335087
20
15.7755752739462
30
0
41
1
10
21.2715458702381
20
15.7697320667155
30
0
41
1
10
21.2823085327633
20
15.763642845238
30
0
0
SPLINE
5
FC
100
AcDbEntity
8
1
62
256
6
ByLayer
370
18
48
1
60
0
100
AcDbSpline
70
4
71
3
72
8
73
4
40
0
40
0
40
0
40
0
40
1
40
1
40
1
40
1
41
1
10
19.3899203151042
20
15.354155650156
30
0
41
1
10
19.393177461589
20
15.3483379764182
30
0
41
1
10
19.3964350241314
20
15.3425195595491
30
0
41
1
10
19.3996930189511
20
15.3367003705782
30
0
0
SPLINE
5
FD
100
AcDbEntity
8
1
62
256
6
ByLayer
370
18
48
1
60
0
100
AcDbSpline
70
4
71
3
72
30
73
26
40
0
40
0
40
0
40
0
40
0.072868112638114
40
0.072868112638114
40
0.127812593477837
40
0.127812593477837
40
0.199092397893562
40
0.199092397893562
40
0.288874798004161
40
0.288874798004161
40
0.393641276926427
40
0.393641276926427
40
0.499915621932921
40
0.499915621932921
40
0.631623646297736
40
0.631623646297736
40
0.734868911743527
40
0.734868911743527
40
0.796951047610516
40
0.796951047610516
40
0.859105215562992
40
0.859105215562992
40
0.921420364650285
40
0.921420364650285
40
1
40
1
40
1
40
1
41
1
10
20.8470234299572
20
12.8796209103342
30
0
41
1
10
20.8373455647896
20
12.89525601707
30
0
41
1
10
20.8242287813483
20
12.9092083106296
30
0
41
1
10
20.7984143352671
20
12.9305587462218
30
0
41
1
10
20.7862331599452
20
12.9388635813295
30
0
41
1
10
20.7568630369235
20
12.9560617632273
30
0
41
1
10
20.7391381042386
20
12.9644757302746
30
0
41
1
10
20.6977370673071
20
12.9809586825372
30
0
41
1
10
20.6735309099135
20
12.9884449676785
30
0
41
1
10
20.6199804106662
20
13.0014665111527
30
0
41
1
10
20.590229321191
20
13.0065190372654
30
0
41
1
10
20.5297817660489
20
13.0131007278374
30
0
41
1
10
20.4988684069284
20
13.0145964650022
30
0
41
1
10
20.429964399598
20
13.0139951488399
30
0
41
1
10
20.3916910965284
20
13.0109613692882
30
0
41
1
10
20.3250792621608
20
13.0005306612209
30
0
41
1
10
20.2961507773364
20
12.9941793920013
30
0
41
1
10
20.2514852618769
20
12.9808706158743
30
0
41
1
10
20.2350126293154
20
12.9751370797322
30
0
41
1
10
20.2031349367949
20
12.9620556864823
30
0
41
1
10
20.1876634345105
20
12.954680794651
30
0
41
1
10
20.1583146121846
20
12.9380372497937
30
0
41
1
10
20.1443428074681
20
12.9287118898958
30
0
41
1
10
20.115797260228
20
12.9051818577986
30
0
41
1
10
20.1016519408622
20
12.8900462129724
30
0
41
1
10
20.091524294697
20
12.8730277692647
30
0
0
SPLINE
5
FE
100
AcDbEntity
8
1
62
256
6
ByLayer
370
18
48
1
60
0
100
AcDbSpline
70
4
71
3
72
8
73
4
40
0
40
0
40
0
40
0
40
1
40
1
40
1
40
1
41
1
10
21.9059614836883
20
13.9306480481713
30
0
41
1
10
21.899297209539
20
13.9304436441493
30
0
41
1
10
21.8926320841161
20
13.9302392140174
30
0
41
1
10
21.8859660742337
20
13.9300347567576
30
0
0
SPLINE
5
FF
100
AcDbEntity
8
1
62
256
6
ByLayer
370
18
48
1
60
0
100
AcDbSpline
70
4
71
3
72
26
73
22
40
0
40
0
40
0
40
0
40
0.0611212350797081
40
0.0611212350797081
40
0.14534900985879
40
0.14534900985879
40
0.228936526328739
40
0.228936526328739
40
0.3915321912207
40
0.3915321912207
40
0.475817926908337
40
0.475817926908337
40
0.58955755927359
40
0.58955755927359
40
0.703149060376438
40
0.703149060376438
40
0.81667384578034
40
0.81667384578034
40
0.930168712116201
40
0.930168712116201
40
1
40
1
40
1
40
1
41
1
10
21.8992147836372
20
14.7037432998563
30
0
41
1
10
21.907935526244
20
14.707365940385
30
0
41
1
10
21.9171618292837
20
14.709877997406
30
0
41
1
10
21.9393750131796
20
14.7124672733082
30
0
41
1
10
21.9528293654105
20
14.7112545412894
30
0
41
1
10
21.9783255234086
20
14.7036249185415
30
0
41
1
10
21.990702170391
20
14.6971987229767
30
0
41
1
10
22.0235810028871
20
14.6736029858627
30
0
41
1
10
22.0419539503113
20
14.6516729108826
30
0
41
1
10
22.0646847229735
20
14.6158217435355
30
0
41
1
10
22.0717093571998
20
14.602828209575
30
0
41
1
10
22.0865487376619
20
14.571498809854
30
0
41
1
10
22.0938328985046
20
14.5527879967204
30
0
41
1
10
22.1063178174542
20
14.514730411088
30
0
41
1
10
22.1115421674396
20
14.4953078744978
30
0
41
1
10
22.1202165324302
20
14.4561028766339
30
0
41
1
10
22.1236765470137
20
14.4362707464849
30
0
41
1
10
22.1289962428876
20
14.396421909779
30
0
41
1
10
22.1308604624374
20
14.3763673490482
30
0
41
1
10
22.1326452811935
20
14.3439395790493
30
0
41
1
10
22.1330379336569
20
14.3315730705717
30
0
41
1
10
22.1331458444306
20
14.3192077206738
30
0
0
SPLINE
5
100
100
AcDbEntity
8
1
62
256
6
ByLayer
370
18
48
1
60
0
100
AcDbSpline
70
4
71
3
72
24
73
20
40
0
40
0
40
0
40
0
40
0.15812611196599
40
0.15812611196599
40
0.271563393607292
40
0.271563393607292
40
0.385066230469774
40
0.385066230469774
40
0.498714519310299
40
0.498714519310299
40
0.612721087896056
40
0.612721087896056
40
0.746221642583602
40
0.746221642583602
40
0.824913378297531
40
0.824913378297531
40
0.908986128606064
40
0.908986128606064
40
1
40
1
40
1
40
1
41
1
10
18.780473508781
20
14.2899493924549
30
0
41
1
10
18.7802292826066
20
14.3179349401118
30
0
41
1
10
18.781436357526
20
14.3459785007741
30
0
41
1
10
18.7861159817343
20
14.3938293336387
30
0
41
1
10
18.7888617341751
20
14.4137771131597
30
0
41
1
10
18.7960697970948
20
14.4532970753677
30
0
41
1
10
18.8005398292126
20
14.4729155600444
30
0
41
1
10
18.8114541445875
20
14.5114932343867
30
0
41
1
10
18.8179168702773
20
14.5305207155179
30
0
41
1
10
18.8332404823748
20
14.5673971616432
30
0
41
1
10
18.842153011888
20
14.5853638655486
30
0
41
1
10
18.8646764257359
20
14.6216879456214
30
0
41
1
10
18.8790958196575
20
14.6400182029767
30
0
41
1
10
18.9058181296038
20
14.6632298385659
30
0
41
1
10
18.9167651617677
20
14.670644132705
30
0
41
1
10
18.9405182912454
20
14.6816637437336
30
0
41
1
10
18.9537161935434
20
14.6850550355921
30
0
41
1
10
18.9806553822169
20
14.6862500539379
30
0
41
1
10
18.994743702001
20
14.6836112621106
30
0
41
1
10
19.0076578695233
20
14.6785090649573
30
0
0
LINE
5
7A
100
AcDbEntity
8
80
62
256
6
ByLayer
370
18
48
1
60
0
100
AcDbLine
10
0
20
0
30
0
11
-5
21
0
31
0
39
0
210
0
220
0
230
1
0
LINE
5
7B
100
AcDbEntity
8
81
62
256
6
ByLayer
370
18
48
1
60
0
100
AcDbLine
10
29
20
19.5
30
0
11
34
21
19.5
31
0
39
0
210
0
220
0
230
1
0
LINE
5
7C
100
AcDbEntity
8
1
62
256
6
ByLayer
370
18
48
1
60
0
100
AcDbLine
10
15.508747
20
8.90834
30
0
11
15.746409
21
9.288678
31
0
39
0
210
0
220
0
230
1
0
LINE
5
7E
100
AcDbEntity
8
1
62
256
6
ByLayer
370
13
48
1
60
0
100
AcDbLine
10
16.707865
20
1.367883
30
0
11
17.298821
21
0.807087
31
0
39
0
210
0
220
0
230
1
0
LINE
5
7F
100
AcDbEntity
8
SK1
62
256
6
ByLayer
370
13
48
1
60
0
100
AcDbLine
10
-1.5
20
-12.5
30
0
11
-1.5
21
12.425
31
0
39
0
210
0
220
0
230
1
0
LINE
5
81
100
AcDbEntity
8
1
62
256
6
ByLayer
370
13
48
1
60
0
100
AcDbLine
10
5.387865
20
-0.671966
30
0
11
4.904984
21
-0.306197
31
0
39
0
210
0
220
0
230
1
0
LINE
5
82
100
AcDbEntity
8
1
62
256
6
ByLayer
370
13
48
1
60
0
100
AcDbLine
10
10.070127
20
-5.115268
30
0
11
10.460668
21
-5.578344
31
0
39
0
210
0
220
0
230
1
0
LINE
5
83
100
AcDbEntity
8
1
62
256
6
ByLayer
370
13
48
1
60
0
100
AcDbLine
10
9.366901
20
3.894686
30
0
11
8.983003
21
4.292131
31
0
39
0
210
0
220
0
230
1
0
LINE
5
84
100
AcDbEntity
8
1
62
256
6
ByLayer
370
13
48
1
60
0
100
AcDbLine
10
14.839267
20
-1.265256
30
0
11
14.422275
21
-0.902685
31
0
39
0
210
0
220
0
230
1
0
LINE
5
85
100
AcDbEntity
8
1
62
256
6
ByLayer
370
13
48
1
60
0
100
AcDbLine
10
14.581779
20
2.443169
30
0
11
14.717903
21
2.577521
31
0
39
0
210
0
220
0
230
1
0
LINE
5
86
100
AcDbEntity
8
1
62
256
6
ByLayer
370
13
48
1
60
0
100
AcDbLine
10
14.329567
20
2.194241
30
0
11
14.471222
21
2.334052
31
0
39
0
210
0
220
0
230
1
0
LINE
5
87
100
AcDbEntity
8
1
62
256
6
ByLayer
370
13
48
1
60
0
100
AcDbLine
10
12.59664
20
4.112964
30
0
11
12.464435
21
3.964186
31
0
39
0
210
0
220
0
230
1
0
LINE
5
88
100
AcDbEntity
8
1
62
256
6
ByLayer
370
13
48
1
60
0
100
AcDbLine
10
12.826865
20
4.372049
30
0
11
12.699821
21
4.22908
31
0
39
0
210
0
220
0
230
1
0
LINE
5
89
100
AcDbEntity
8
1
62
256
6
ByLayer
370
13
48
1
60
0
100
AcDbLine
10
4.904984
20
-0.306197
30
0
11
3.634427
21
0.656216
31
0
39
0
210
0
220
0
230
1
0
LINE
5
8A
100
AcDbEntity
8
1
62
256
6
ByLayer
370
13
48
1
60
0
100
AcDbLine
10
14.839267
20
-1.265256
30
0
11
15.466112
21
-1.810292
31
0
39
0
210
0
220
0
230
1
0
LINE
5
8B
100
AcDbEntity
8
1
62
256
6
ByLayer
370
13
48
1
60
0
100
AcDbLine
10
10.460668
20
-5.578344
30
0
11
11.488258
21
-6.796791
31
0
39
0
210
0
220
0
230
1
0
LINE
5
8C
100
AcDbEntity
8
1
62
256
6
ByLayer
370
18
48
1
60
0
100
AcDbLine
10
15.868317
20
9.295064
30
0
11
15.593552
21
8.855348
31
0
39
0
210
0
220
0
230
1
0
LINE
5
8D
100
AcDbEntity
8
1
62
256
6
ByLayer
370
13
48
1
60
0
100
AcDbLine
10
8.983003
20
4.292131
30
0
11
7.875646
21
5.438567
31
0
39
0
210
0
220
0
230
1
0
LINE
5
8E
100
AcDbEntity
8
1
62
256
6
ByLayer
370
13
48
1
60
0
100
AcDbLine
10
3.38246
20
14.01322
30
0
11
11.514739
21
6.295976
31
0
39
0
210
0
220
0
230
1
0
LINE
5
8F
100
AcDbEntity
8
1
62
256
6
ByLayer
370
13
48
1
60
0
100
AcDbLine
10
15.593552
20
8.855348
30
0
11
15.508747
21
8.90834
31
0
39
0
210
0
220
0
230
1
0
LINE
5
90
100
AcDbEntity
8
1
62
256
6
ByLayer
370
18
48
1
60
0
100
AcDbLine
10
17.519355
20
18.880944
30
0
11
3.38246
21
14.01322
31
0
39
0
210
0
220
0
230
1
0
LINE
5
91
100
AcDbEntity
8
1
62
256
6
ByLayer
370
18
48
1
60
0
100
AcDbLine
10
23.007106
20
8.959363
30
0
11
17.298821
21
0.807087
31
0
39
0
210
0
220
0
230
1
0
LINE
5
92
100
AcDbEntity
8
1
62
256
6
ByLayer
370
18
48
1
60
0
100
AcDbLine
10
0
20
12.425
30
0
11
0.272277
21
12.425
31
0
39
0
210
0
220
0
230
1
0
LINE
5
93
100
AcDbEntity
8
1
62
256
6
ByLayer
370
18
48
1
60
0
100
AcDbLine
10
10.417265
20
6.648141
30
0
11
2.84948
21
13.829701
31
0
39
0
210
0
220
0
230
1
0
LINE
5
94
100
AcDbEntity
8
1
62
256
6
ByLayer
370
18
48
1
60
0
100
AcDbLine
10
7.981098
20
-12.5
30
0
11
12.752265
21
-5.686068
31
0
39
0
210
0
220
0
230
1
0
LINE
5
95
100
AcDbEntity
8
1
62
256
6
ByLayer
370
18
48
1
60
0
100
AcDbLine
10
1.768211
20
13.45739
30
0
11
2.84948
21
13.829701
31
0
39
0
210
0
220
0
230
1
0
LINE
5
96
100
AcDbEntity
8
1
62
256
6
ByLayer
370
18
48
1
60
0
100
AcDbLine
10
3.38246
20
14.01322
30
0
11
2.84948
21
13.829701
31
0
39
0
210
0
220
0
230
1
0
LINE
5
97
100
AcDbEntity
8
1
62
256
6
ByLayer
370
18
48
1
60
0
100
AcDbLine
10
0
20
-12.5
30
0
11
7.981098
21
-12.5
31
0
39
0
210
0
220
0
230
1
0
LINE
5
98
100
AcDbEntity
8
1
62
256
6
ByLayer
370
18
48
1
60
0
100
AcDbLine
10
0
20
12.425
30
0
11
0
21
-12.5
31
0
39
0
210
0
220
0
230
1
0
LINE
5
99
100
AcDbEntity
8
1
62
256
6
ByLayer
370
18
48
1
60
0
100
AcDbLine
10
17.298821
20
0.807087
30
0
11
17.008848
21
0.392962
31
0
39
0
210
0
220
0
230
1
0
LINE
5
9A
100
AcDbEntity
8
SK1
62
256
6
ByLayer
370
18
48
1
60
0
100
AcDbLine
10
-1.5
20
12.425
30
0
11
-0.785228
21
12.425
31
0
39
0
210
0
220
0
230
1
0
LINE
5
9B
100
AcDbEntity
8
SK1
62
256
6
ByLayer
370
18
48
1
60
0
100
AcDbLine
10
-81
20
12.425
30
0
11
-1.5
21
12.425
31
0
39
0
210
0
220
0
230
1
0
LINE
5
9C
100
AcDbEntity
8
SK1
62
256
6
ByLayer
370
18
48
1
60
0
100
AcDbLine
10
-81
20
-12.5
30
0
11
-1.5
21
-12.5
31
0
39
0
210
0
220
0
230
1
0
LINE
5
9D
100
AcDbEntity
8
SK1
62
256
6
ByLayer
370
18
48
1
60
0
100
AcDbLine
10
-0.785228
20
12.425
30
0
11
0
21
12.425
31
0
39
0
210
0
220
0
230
1
0
LINE
5
9E
100
AcDbEntity
8
SK1
62
256
6
ByLayer
370
18
48
1
60
0
100
AcDbLine
10
-0.785228
20
12.425
30
0
11
-0.785228
21
-12.5
31
0
39
0
210
0
220
0
230
1
0
LINE
5
9F
100
AcDbEntity
8
SK1
62
256
6
ByLayer
370
18
48
1
60
0
100
AcDbLine
10
0
20
12.425
30
0
11
0
21
-12.5
31
0
39
0
210
0
220
0
230
1
0
LINE
5
A0
100
AcDbEntity
8
SK1
62
256
6
ByLayer
370
18
48
1
60
0
100
AcDbLine
10
-81
20
-12.5
30
0
11
-84
21
-9.5
31
0
39
0
210
0
220
0
230
1
0
LINE
5
A1
100
AcDbEntity
8
SK1
62
256
6
ByLayer
370
18
48
1
60
0
100
AcDbLine
10
-1.5
20
-12.5
30
0
11
-0.785228
21
-12.5
31
0
39
0
210
0
220
0
230
1
0
LINE
5
A2
100
AcDbEntity
8
SK1
62
256
6
ByLayer
370
18
48
1
60
0
100
AcDbLine
10
-81
20
12.425
30
0
11
-84
21
9.425
31
0
39
0
210
0
220
0
230
1
0
LINE
5
A3
100
AcDbEntity
8
SK1
62
256
6
ByLayer
370
18
48
1
60
0
100
AcDbLine
10
-0.785228
20
-12.5
30
0
11
0
21
-12.5
31
0
39
0
210
0
220
0
230
1
0
LINE
5
A4
100
AcDbEntity
8
SK1
62
256
6
ByLayer
370
18
48
1
60
0
100
AcDbLine
10
-84
20
9.425
30
0
11
-84
21
-9.5
31
0
39
0
210
0
220
0
230
1
0
LINE
5
A5
100
AcDbEntity
8
1
62
256
6
ByLayer
370
13
48
1
60
0
100
AcDbLine
10
23.291344
20
9.853564
30
0
11
28.939694
21
18.892813
31
0
39
0
210
0
220
0
230
1
0
LINE
5
A6
100
AcDbEntity
8
1
62
256
6
ByLayer
370
13
48
1
60
0
100
AcDbLine
10
17.622275
20
18.755594
30
0
11
11.973925
21
9.716344
31
0
39
0
210
0
220
0
230
1
0
LINE
5
A7
100
AcDbEntity
8
1
62
256
6
ByLayer
370
13
48
1
60
0
100
AcDbLine
10
28.582354
20
19.499456
30
0
11
17.938074
21
18.941613
31
0
39
0
210
0
220
0
230
1
0
LINE
5
A8
100
AcDbEntity
8
1
62
256
6
ByLayer
370
13
48
1
60
0
100
AcDbLine
10
12.331265
20
9.109701
30
0
11
22.975546
21
9.667544
31
0
39
0
210
0
220
0
230
1
0
MTEXT
5
101
100
AcDbEntity
8
SK6
62
256
6
ByLayer
370
18
48
1
60
0
100
AcDbMText
10
-43.241472
20
-51.125025
30
0
210
0
220
0
230
1
1
\W0.7520;QS-SDJCR252511C
40
3.5
41
0
44
1.084337
50
0
71
7
72
5
7
iso_b_vert
0
DIMENSION
5
112
100
AcDbEntity
8
2
62
256
6
ByLayer
370
13
48
1
60
0
100
AcDbDimension
2
DimnDraft3D1
10
34.522884
20
19.5
30
0
11
34.522884
21
-0.607895
31
0
70
32
71
5
72
1
41
1
210
0
220
0
230
1
3
Standard
100
AcDbAlignedDimension
13
24
23
-12.5
33
0
14
31
24
19.5
34
0
50
90
100
AcDbRotatedDimension
1001
ACAD
1000
DSTYLE
1002
{
1070
    74
1070
     0
1070
   279
1070
     0
1070
   172
1070
     1
1070
   173
1070
     1
1070
   340
1005
102
1070
   271
1070
     1
1070
    77
1070
     1
1070
    73
1070
     0
1070
   171
1070
     3
1070
   274
1070
     4
1070
   177
1070
     2
1070
   176
1070
     2
1070
   178
1070
     7
1070
    78
1070
     8
1070
    41
1041
3.175
1070
   147
1041
1.75
1070
    42
1041
2.0
1070
    44
1041
2.0
1070
   140
1041
3.5
1070
   343
1005
113
1070
   344
1005
113
1002
}
0
DIMENSION
5
127
100
AcDbEntity
8
SK2
62
256
6
ByLayer
370
13
48
1
60
0
100
AcDbDimension
2
DimnDraft3D2
10
-98.60005
20
-12.5
30
0
11
-98.60005
21
-4.107895
31
0
70
32
71
5
72
1
41
1
210
0
220
0
230
1
3
Standard
100
AcDbAlignedDimension
13
-2
23
12.5
33
0
14
-86
24
-12.5
34
0
50
90
100
AcDbRotatedDimension
1001
ACAD
1000
DSTYLE
1002
{
1070
    74
1070
     0
1070
   279
1070
     0
1070
   172
1070
     1
1070
   173
1070
     1
1070
   340
1005
102
1070
   271
1070
     1
1070
    77
1070
     1
1070
    73
1070
     0
1070
   171
1070
     3
1070
   274
1070
     4
1070
   177
1070
     2
1070
   176
1070
     2
1070
   178
1070
     7
1070
    78
1070
     8
1070
    41
1041
3.175
1070
   147
1041
1.75
1070
    42
1041
2.0
1070
    44
1041
2.0
1070
   140
1041
3.5
1070
   343
1005
113
1070
   344
1005
113
1002
}
0
DIMENSION
5
135
100
AcDbEntity
8
2
62
256
6
ByLayer
370
13
48
1
60
0
100
AcDbDimension
2
DimnDraft3D3
10
34
20
19.5
30
0
11
22.556998
21
27.295799
31
0
70
34
71
5
72
1
41
1
210
0
220
0
230
1
3
Standard
100
AcDb2LineAngularDimension
13
29
23
19.5
33
0
14
28.737961
24
14.5
34
0
15
29
25
19.5
35
0
16
24.103258
26
24.660089
36
0
40
0
0
DIMENSION
5
143
100
AcDbEntity
8
SK2
62
256
6
ByLayer
370
13
48
1
60
0
100
AcDbDimension
2
DimnDraft3D4
10
29
20
-40.344955
30
0
11
-32.040789
21
-40.344955
31
0
70
32
71
5
72
1
41
1
210
0
220
0
230
1
3
Standard
100
AcDbAlignedDimension
13
-84
23
-14.5
33
0
14
29
24
17.5
34
0
50
0
100
AcDbRotatedDimension
1001
ACAD
1000
DSTYLE
1002
{
1070
   279
1070
     0
1070
   172
1070
     1
1070
   173
1070
     1
1070
   340
1005
102
1070
   271
1070
     1
1070
    77
1070
     1
1070
    73
1070
     0
1070
   171
1070
     3
1070
   274
1070
     4
1070
   177
1070
     2
1070
   176
1070
     2
1070
   178
1070
     7
1070
    78
1070
     8
1070
    41
1041
3.175
1070
   147
1041
1.75
1070
    42
1041
2.0
1070
    44
1041
2.0
1070
   140
1041
3.5
1070
   343
1005
113
1070
   344
1005
113
1002
}
0
DIMENSION
5
151
100
AcDbEntity
8
2
62
256
6
ByLayer
370
13
48
1
60
0
100
AcDbDimension
2
DimnDraft3D5
10
29
20
-25.60005
30
0
11
10.392105
21
-25.60005
31
0
70
32
71
5
72
1
41
1
210
0
220
0
230
1
3
Standard
100
AcDbAlignedDimension
13
0
23
10.5
33
0
14
29
24
17.5
34
0
50
0
100
AcDbRotatedDimension
1001
ACAD
1000
DSTYLE
1002
{
1070
   279
1070
     0
1070
   172
1070
     1
1070
   173
1070
     1
1070
   340
1005
102
1070
   271
1070
     1
1070
    77
1070
     1
1070
    73
1070
     0
1070
   171
1070
     3
1070
   274
1070
     4
1070
   177
1070
     2
1070
   176
1070
     2
1070
   178
1070
     7
1070
    78
1070
     8
1070
    41
1041
3.175
1070
   147
1041
1.75
1070
    42
1041
2.0
1070
    44
1041
2.0
1070
   140
1041
3.5
1070
   343
1005
113
1070
   344
1005
113
1002
}
0
DIMENSION
5
15F
100
AcDbEntity
8
SK2
62
256
6
ByLayer
370
13
48
1
60
0
100
AcDbDimension
2
DimnDraft3D6
10
-81
20
-25.60005
30
0
11
-65.145
21
-25.60005
31
0
70
32
71
5
72
1
41
1
210
0
220
0
230
1
3
Standard
100
AcDbAlignedDimension
13
-84
23
-14.5
33
0
14
-81
24
-14.5
34
0
50
0
100
AcDbRotatedDimension
1001
ACAD
1000
DSTYLE
1002
{
1070
   279
1070
     0
1070
   172
1070
     1
1070
   173
1070
     1
1070
   340
1005
102
1070
    77
1070
     1
1070
    73
1070
     0
1070
   171
1070
     3
1070
   274
1070
     4
1070
   177
1070
     2
1070
   176
1070
     2
1070
   178
1070
     7
1070
    78
1070
     8
1070
    41
1041
3.175
1070
   147
1041
1.75
1070
    42
1041
2.0
1070
    44
1041
2.0
1070
   140
1041
3.5
1070
   343
1005
113
1070
   344
1005
113
1002
}
0
ENDSEC
0
SECTION
2
OBJECTS
0
DICTIONARY
5
1c9
330
0
100
AcDbDictionary
280
0
281
1
3
ACAD_GROUP
350
1ca
3
ACAD_MLINESTYLE
350
1cb
0
DICTIONARY
5
1ca
330
0
100
AcDbDictionary
280
0
281
1
0
DICTIONARY
5
1cb
330
0
100
AcDbDictionary
280
0
281
1
3
Standard
350
18
0
MLINESTYLE
5
18
330
1cb
100
AcDbMlineStyle
2
Standard
70
0
3

62
256
51
90
52
90
71
2
49
-0.5
62
256
6
ByLayer
49
0.5
62
256
6
ByLayer
0
RASTERVARIABLES
5
1b8
330

100
AcDbRasterVariables
90
0
70
1
71
1
72
1
0
ENDSEC
0
EOF
