0
SECTION
2
HEADER
9
$ACADVER
1
AC1015
9
$DWGCODEPAGE
3
ANSI_1252
9
$HANDSEED
5
1db
9
$ANGBASE
50
0
9
$ANGDIR
70
0
9
$ATTMODE
70
1
9
$AUNITS
70
0
9
$AUPREC
70
0
9
$CECOLOR
62
256
9
$CELTSCALE
40
1
9
$CELTYPE
6
ByLayer
9
$CELWEIGHT
370
18
9
$CLAYER
8
0
9
$CMLJUST
70
0
9
$CMLSCALE
40
1
9
$CMLSTYLE
2
Standard
9
$DIMSTYLE
2
Standard
9
$TEXTSIZE
40
0.2
9
$TEXTSTYLE
7
Standard
9
$LUNITS
70
2
9
$LUPREC
70
4
9
$EXTNAMES
290
1
9
$INSUNITS
70
4
9
$LTSCALE
40
1
9
$LWDISPLAY
290
1
9
$PDMODE
70
0
9
$PDSIZE
40
0
9
$PLINEGEN
70
0
0
ENDSEC
0
SECTION
2
CLASSES
0
CLASS
1
RASTERVARIABLES
2
AcDbRasterVariables
3
ISM
90
0
280
0
281
0
0
ENDSEC
0
SECTION
2
TABLES
0
TABLE
2
VPORT
5
1d1
100
AcDbSymbolTable
0
VPORT
5
1
100
AcDbSymbolTableRecord
100
AcDbViewportTableRecord
2
*Active
70
0
10
0
20
0
11
1
21
1
12
-1
22
1
13
0
23
0
14
0.5
24
0.5
15
10
25
10
16
0
26
0
36
1
17
0
27
0
37
0
0
ENDTAB
0
TABLE
2
LTYPE
5
1d2
100
AcDbSymbolTable
0
LTYPE
5
14
100
AcDbSymbolTableRecord
100
AcDbLinetypeTableRecord
70
0
2
ByBlock
3

72
65
73
0
40
0
0
LTYPE
5
15
100
AcDbSymbolTableRecord
100
AcDbLinetypeTableRecord
70
0
2
ByLayer
3

72
65
73
0
40
0
0
LTYPE
5
16
100
AcDbSymbolTableRecord
100
AcDbLinetypeTableRecord
70
0
2
CONTINUOUS
3
Solid line
72
65
73
0
40
0
0
LTYPE
5
6A
100
AcDbSymbolTableRecord
100
AcDbLinetypeTableRecord
70
0
2
CENTER
3
____ _ ____ _ ____ _ ____
72
65
73
4
40
47.5
49
22
74
0
49
-8.5
74
0
49
8.5
74
0
49
-8.5
74
0
0
LTYPE
5
6B
100
AcDbSymbolTableRecord
100
AcDbLinetypeTableRecord
70
0
2
DASHED
3
__ __ __ __ __ __ __ __ __
72
65
73
2
40
25.72
49
12.86
74
0
49
-12.86
74
0
0
ENDTAB
0
TABLE
2
LAYER
5
1d3
100
AcDbSymbolTable
0
LAYER
5
10
100
AcDbSymbolTableRecord
100
AcDbLayerTableRecord
2
0
70
0
62
7
6
CONTINUOUS
290
1
370
-3
390
0
0
LAYER
5
6D
100
AcDbSymbolTableRecord
100
AcDbLayerTableRecord
2
80
70
0
62
-6
6
CONTINUOUS
290
1
370
-3
390
0
0
LAYER
5
6F
100
AcDbSymbolTableRecord
100
AcDbLayerTableRecord
2
81
70
0
62
-3
6
CONTINUOUS
290
1
370
-3
390
0
0
LAYER
5
71
100
AcDbSymbolTableRecord
100
AcDbLayerTableRecord
2
2
70
0
62
7
6
CONTINUOUS
290
1
370
-3
390
0
0
LAYER
5
7D
100
AcDbSymbolTableRecord
100
AcDbLayerTableRecord
2
1
70
0
62
4
6
CONTINUOUS
290
1
370
-3
390
0
0
LAYER
5
1be
100
AcDbSymbolTableRecord
100
AcDbLayerTableRecord
2
SK2
70
0
62
7
6
CONTINUOUS
290
1
370
-3
390
0
0
LAYER
5
1bf
100
AcDbSymbolTableRecord
100
AcDbLayerTableRecord
2
SK1
70
0
62
4
6
CONTINUOUS
290
1
370
-3
390
0
0
LAYER
5
1c0
100
AcDbSymbolTableRecord
100
AcDbLayerTableRecord
2
SK6
70
0
62
5
6
CONTINUOUS
290
1
370
-3
390
0
0
ENDTAB
0
TABLE
2
STYLE
5
1d4
100
AcDbSymbolTable
0
STYLE
5
11
100
AcDbSymbolTableRecord
100
AcDbTextStyleTableRecord
2
Standard
3
txt
70
0
71
0
40
0
41
1
42
0
50
0
0
STYLE
5
114
100
AcDbSymbolTableRecord
100
AcDbTextStyleTableRecord
2
iso_b_vert
3
simplex.shx
70
0
71
0
40
0
41
1
42
0
50
0
0
STYLE
5
115
100
AcDbSymbolTableRecord
100
AcDbTextStyleTableRecord
2
DWGDirectTextStyle
3
simplex
70
0
71
0
40
0
41
1
42
0
50
0
0
ENDTAB
0
TABLE
2
DIMSTYLE
5
1d5
100
AcDbSymbolTable
100
AcDbDimStyleTable
0
DIMSTYLE
105
27
100
AcDbSymbolTableRecord
100
AcDbDimStyleTableRecord
2
Standard
70
0
3
<>
41
0.18
42
0.0625
44
0.18
140
0.18
147
0.09
73
0
74
0
77
1
271
2
275
0
278
52
280
0
340
11
0
ENDTAB
0
TABLE
2
VIEW
5
1d6
100
AcDbSymbolTable
0
ENDTAB
0
TABLE
2
UCS
5
1d7
100
AcDbSymbolTable
0
ENDTAB
0
TABLE
2
APPID
5
1d8
100
AcDbSymbolTable
0
APPID
5
12
100
AcDbSymbolTableRecord
100
AcDbRegAppTableRecord
2
ACAD
70
0
0
ENDTAB
0
TABLE
2
BLOCK_RECORD
5
1d9
100
AcDbSymbolTable
0
BLOCK_RECORD
5
1F
100
AcDbSymbolTableRecord
100
AcDbBlockTableRecord
2
*Model_Space
340
0
70
0
0
BLOCK_RECORD
5
1B
100
AcDbSymbolTableRecord
100
AcDbBlockTableRecord
2
*Paper_Space
340
0
70
0
0
BLOCK_RECORD
5
23
100
AcDbSymbolTableRecord
100
AcDbBlockTableRecord
2
*Paper_Space0
340
0
70
0
0
BLOCK_RECORD
5
118
100
AcDbSymbolTableRecord
100
AcDbBlockTableRecord
2
DimnDraft3D1
340
0
70
0
0
BLOCK_RECORD
5
126
100
AcDbSymbolTableRecord
100
AcDbBlockTableRecord
2
_CLOSED
340
0
70
0
0
BLOCK_RECORD
5
12D
100
AcDbSymbolTableRecord
100
AcDbBlockTableRecord
2
DimnDraft3D2
340
0
70
0
0
BLOCK_RECORD
5
13B
100
AcDbSymbolTableRecord
100
AcDbBlockTableRecord
2
DimnDraft3D3
340
0
70
0
0
BLOCK_RECORD
5
149
100
AcDbSymbolTableRecord
100
AcDbBlockTableRecord
2
DimnDraft3D4
340
0
70
0
0
BLOCK_RECORD
5
157
100
AcDbSymbolTableRecord
100
AcDbBlockTableRecord
2
DimnDraft3D5
340
0
70
0
0
ENDTAB
0
ENDSEC
0
SECTION
2
BLOCKS
0
BLOCK
5
20
100
AcDbEntity
8
0
100
AcDbBlockBegin
2
*Model_Space
70
0
10
0
20
0
30
0
3
*Model_Space
0
ENDBLK
5
21
100
AcDbEntity
8
0
100
AcDbBlockEnd
0
BLOCK
5
1C
100
AcDbEntity
8
0
100
AcDbBlockBegin
2
*Paper_Space
70
0
10
0
20
0
30
0
3
*Paper_Space
0
ENDBLK
5
1D
100
AcDbEntity
8
0
100
AcDbBlockEnd
0
BLOCK
5
24
100
AcDbEntity
8
0
100
AcDbBlockBegin
2
*Paper_Space0
70
0
10
0
20
0
30
0
3
*Paper_Space0
0
ENDBLK
5
25
100
AcDbEntity
8
0
100
AcDbBlockEnd
0
BLOCK
5
123
100
AcDbEntity
8
0
100
AcDbBlockBegin
2
DimnDraft3D1
70
0
10
0
20
0
30
0
3
DimnDraft3D1
0
MTEXT
5
119
100
AcDbEntity
8
2
62
256
6
ByLayer
370
18
48
1
60
0
100
AcDbMText
10
10.517105
20
-27.225
30
0
210
0
220
0
230
1
1
\W0.7346;27.5
40
3.5
41
0
44
1.084337
50
0
71
7
72
5
7
iso_b_vert
0
LINE
5
11A
100
AcDbEntity
8
2
62
256
6
ByLayer
370
13
48
1
60
0
100
AcDbLine
10
0
20
8
30
0
11
0
21
-30.1
31
0
39
0
210
0
220
0
230
1
0
LINE
5
11B
100
AcDbEntity
8
2
62
256
6
ByLayer
370
13
48
1
60
0
100
AcDbLine
10
27.5
20
-17
30
0
11
27.5
21
-30.1
31
0
39
0
210
0
220
0
230
1
0
LINE
5
11C
100
AcDbEntity
8
2
62
256
6
ByLayer
370
13
48
1
60
0
100
AcDbLine
10
0
20
-28.1
30
0
11
27.5
21
-28.1
31
0
39
0
210
0
220
0
230
1
0
LINE
5
11D
100
AcDbEntity
8
2
62
256
6
ByLayer
370
13
48
1
60
0
100
AcDbLine
10
0
20
-28.1
30
0
11
3.174998
21
-27.682003
31
0
39
0
210
0
220
0
230
1
0
LINE
5
11E
100
AcDbEntity
8
2
62
256
6
ByLayer
370
13
48
1
60
0
100
AcDbLine
10
0
20
-28.1
30
0
11
3.175002
21
-28.517997
31
0
39
0
210
0
220
0
230
1
0
LINE
5
11F
100
AcDbEntity
8
2
62
256
6
ByLayer
370
13
48
1
60
0
100
AcDbLine
10
3.174998
20
-27.682003
30
0
11
3.175002
21
-28.517997
31
0
39
0
210
0
220
0
230
1
0
LINE
5
120
100
AcDbEntity
8
2
62
256
6
ByLayer
370
13
48
1
60
0
100
AcDbLine
10
27.5
20
-28.1
30
0
11
24.325002
21
-28.517997
31
0
39
0
210
0
220
0
230
1
0
LINE
5
121
100
AcDbEntity
8
2
62
256
6
ByLayer
370
13
48
1
60
0
100
AcDbLine
10
27.5
20
-28.1
30
0
11
24.324998
21
-27.682003
31
0
39
0
210
0
220
0
230
1
0
LINE
5
122
100
AcDbEntity
8
2
62
256
6
ByLayer
370
13
48
1
60
0
100
AcDbLine
10
24.325002
20
-28.517997
30
0
11
24.324998
21
-27.682003
31
0
39
0
210
0
220
0
230
1
0
ENDBLK
5
124
100
AcDbEntity
8
0
100
AcDbBlockEnd
0
BLOCK
5
127
100
AcDbEntity
8
0
100
AcDbBlockBegin
2
_CLOSED
70
0
10
0
20
0
30
0
3
_CLOSED
0
LINE
5
129
100
AcDbEntity
8
0
62
256
6
ByLayer
370
-2
48
1
60
0
100
AcDbLine
10
-1
20
0.166667
30
0
11
0
21
0
31
0
39
0
210
0
220
0
230
1
0
LINE
5
12A
100
AcDbEntity
8
0
62
256
6
ByLayer
370
-2
48
1
60
0
100
AcDbLine
10
0
20
0
30
0
11
-1
21
-0.166667
31
0
39
0
210
0
220
0
230
1
0
LINE
5
12B
100
AcDbEntity
8
0
62
256
6
ByLayer
370
-2
48
1
60
0
100
AcDbLine
10
-1
20
0.166667
30
0
11
-1
21
-0.166667
31
0
39
0
210
0
220
0
230
1
0
LINE
5
12C
100
AcDbEntity
8
0
62
256
6
ByLayer
370
-2
48
1
60
0
100
AcDbLine
10
0
20
0
30
0
11
-1
21
0
31
0
39
0
210
0
220
0
230
1
0
ENDBLK
5
128
100
AcDbEntity
8
0
100
AcDbBlockEnd
0
BLOCK
5
138
100
AcDbEntity
8
0
100
AcDbBlockBegin
2
DimnDraft3D2
70
0
10
0
20
0
30
0
3
DimnDraft3D2
0
MTEXT
5
12E
100
AcDbEntity
8
2
62
256
6
ByLayer
370
18
48
1
60
0
100
AcDbMText
10
33.953087
20
-5.732895
30
0
210
0
220
0
230
1
1
\W0.7346;25.0
40
3.5
41
0
44
1.084337
50
90
71
7
72
5
7
iso_b_vert
0
LINE
5
12F
100
AcDbEntity
8
2
62
256
6
ByLayer
370
13
48
1
60
0
100
AcDbLine
10
2
20
10
30
0
11
36.828087
21
10
31
0
39
0
210
0
220
0
230
1
0
LINE
5
130
100
AcDbEntity
8
2
62
256
6
ByLayer
370
13
48
1
60
0
100
AcDbLine
10
29.5
20
-15
30
0
11
36.828087
21
-15
31
0
39
0
210
0
220
0
230
1
0
LINE
5
131
100
AcDbEntity
8
2
62
256
6
ByLayer
370
13
48
1
60
0
100
AcDbLine
10
34.828087
20
10
30
0
11
34.828087
21
-15
31
0
39
0
210
0
220
0
230
1
0
LINE
5
132
100
AcDbEntity
8
2
62
256
6
ByLayer
370
13
48
1
60
0
100
AcDbLine
10
34.828087
20
10
30
0
11
35.246084
21
6.825002
31
0
39
0
210
0
220
0
230
1
0
LINE
5
133
100
AcDbEntity
8
2
62
256
6
ByLayer
370
13
48
1
60
0
100
AcDbLine
10
34.828087
20
10
30
0
11
34.41009
21
6.824998
31
0
39
0
210
0
220
0
230
1
0
LINE
5
134
100
AcDbEntity
8
2
62
256
6
ByLayer
370
13
48
1
60
0
100
AcDbLine
10
35.246084
20
6.825002
30
0
11
34.41009
21
6.824998
31
0
39
0
210
0
220
0
230
1
0
LINE
5
135
100
AcDbEntity
8
2
62
256
6
ByLayer
370
13
48
1
60
0
100
AcDbLine
10
34.828087
20
-15
30
0
11
34.41009
21
-11.825002
31
0
39
0
210
0
220
0
230
1
0
LINE
5
136
100
AcDbEntity
8
2
62
256
6
ByLayer
370
13
48
1
60
0
100
AcDbLine
10
34.828087
20
-15
30
0
11
35.246084
21
-11.824998
31
0
39
0
210
0
220
0
230
1
0
LINE
5
137
100
AcDbEntity
8
2
62
256
6
ByLayer
370
13
48
1
60
0
100
AcDbLine
10
34.41009
20
-11.825002
30
0
11
35.246084
21
-11.824998
31
0
39
0
210
0
220
0
230
1
0
ENDBLK
5
139
100
AcDbEntity
8
0
100
AcDbBlockEnd
0
BLOCK
5
146
100
AcDbEntity
8
0
100
AcDbBlockBegin
2
DimnDraft3D3
70
0
10
0
20
0
30
0
3
DimnDraft3D3
0
MTEXT
5
13C
100
AcDbEntity
8
2
62
256
6
ByLayer
370
18
48
1
60
0
100
AcDbMText
10
29.825502
20
-7.718432
30
0
210
0
220
0
230
1
1
\W0.8292;93%%d0'
40
3
41
0
44
1.084337
50
313.80487463824
71
7
72
5
7
iso_b_vert
0
LINE
5
13D
100
AcDbEntity
8
2
62
256
6
ByLayer
370
13
48
1
60
0
100
AcDbLine
10
34.5
20
-15
30
0
11
35.468653
21
-15
31
0
39
0
210
0
220
0
230
1
0
LINE
5
13E
100
AcDbEntity
8
2
62
256
6
ByLayer
370
13
48
1
60
0
100
AcDbLine
10
27.133289
20
-8.002741
30
0
11
27.082953
21
-7.042268
31
0
39
0
210
0
220
0
230
1
0
ARC
5
13F
100
AcDbEntity
8
2
62
256
6
ByLayer
370
13
48
1
60
0
100
AcDbCircle
39
0
10
27.5
20
-15
30
0
40
5.96865271337741
210
0
220
0
230
1
100
AcDbArc
50
0
51
93
0
LINE
5
140
100
AcDbEntity
8
2
62
256
6
ByLayer
370
13
48
1
60
0
100
AcDbLine
10
33.468653
20
-15
30
0
11
32.642665
21
-11.90596
31
0
39
0
210
0
220
0
230
1
0
LINE
5
141
100
AcDbEntity
8
2
62
256
6
ByLayer
370
13
48
1
60
0
100
AcDbLine
10
33.468653
20
-15
30
0
11
33.471606
21
-11.797603
31
0
39
0
210
0
220
0
230
1
0
LINE
5
142
100
AcDbEntity
8
2
62
256
6
ByLayer
370
13
48
1
60
0
100
AcDbLine
10
32.642665
20
-11.90596
30
0
11
33.471606
21
-11.797603
31
0
39
0
210
0
220
0
230
1
0
LINE
5
143
100
AcDbEntity
8
2
62
256
6
ByLayer
370
13
48
1
60
0
100
AcDbLine
10
27.187625
20
-9.039527
30
0
11
30.385476
21
-8.868977
31
0
39
0
210
0
220
0
230
1
0
LINE
5
144
100
AcDbEntity
8
2
62
256
6
ByLayer
370
13
48
1
60
0
100
AcDbLine
10
27.187625
20
-9.039527
30
0
11
30.320656
21
-9.702453
31
0
39
0
210
0
220
0
230
1
0
LINE
5
145
100
AcDbEntity
8
2
62
256
6
ByLayer
370
13
48
1
60
0
100
AcDbLine
10
30.385476
20
-8.868977
30
0
11
30.320656
21
-9.702453
31
0
39
0
210
0
220
0
230
1
0
ENDBLK
5
147
100
AcDbEntity
8
0
100
AcDbBlockEnd
0
BLOCK
5
154
100
AcDbEntity
8
0
100
AcDbBlockBegin
2
DimnDraft3D4
70
0
10
0
20
0
30
0
3
DimnDraft3D4
0
MTEXT
5
14A
100
AcDbEntity
8
SK2
62
256
6
ByLayer
370
18
48
1
60
0
100
AcDbMText
10
-23.982895
20
24.196295
30
0
210
0
220
0
230
1
1
\W0.7346;96.5
40
3.5
41
0
44
1.084337
50
0
71
7
72
5
7
iso_b_vert
0
LINE
5
14B
100
AcDbEntity
8
SK2
62
256
6
ByLayer
370
13
48
1
60
0
100
AcDbLine
10
-69
20
12
30
0
11
-69
21
25.321295
31
0
39
0
210
0
220
0
230
1
0
LINE
5
14C
100
AcDbEntity
8
SK2
62
256
6
ByLayer
370
13
48
1
60
0
100
AcDbLine
10
27.5
20
-13
30
0
11
27.5
21
25.321295
31
0
39
0
210
0
220
0
230
1
0
LINE
5
14D
100
AcDbEntity
8
SK2
62
256
6
ByLayer
370
13
48
1
60
0
100
AcDbLine
10
-69
20
23.321295
30
0
11
27.5
21
23.321295
31
0
39
0
210
0
220
0
230
1
0
LINE
5
14E
100
AcDbEntity
8
SK2
62
256
6
ByLayer
370
13
48
1
60
0
100
AcDbLine
10
-69
20
23.321295
30
0
11
-65.825002
21
23.739291
31
0
39
0
210
0
220
0
230
1
0
LINE
5
14F
100
AcDbEntity
8
SK2
62
256
6
ByLayer
370
13
48
1
60
0
100
AcDbLine
10
-69
20
23.321295
30
0
11
-65.824998
21
22.903298
31
0
39
0
210
0
220
0
230
1
0
LINE
5
150
100
AcDbEntity
8
SK2
62
256
6
ByLayer
370
13
48
1
60
0
100
AcDbLine
10
-65.825002
20
23.739291
30
0
11
-65.824998
21
22.903298
31
0
39
0
210
0
220
0
230
1
0
LINE
5
151
100
AcDbEntity
8
SK2
62
256
6
ByLayer
370
13
48
1
60
0
100
AcDbLine
10
27.5
20
23.321295
30
0
11
24.325002
21
22.903298
31
0
39
0
210
0
220
0
230
1
0
LINE
5
152
100
AcDbEntity
8
SK2
62
256
6
ByLayer
370
13
48
1
60
0
100
AcDbLine
10
27.5
20
23.321295
30
0
11
24.324998
21
23.739291
31
0
39
0
210
0
220
0
230
1
0
LINE
5
153
100
AcDbEntity
8
SK2
62
256
6
ByLayer
370
13
48
1
60
0
100
AcDbLine
10
24.325002
20
22.903298
30
0
11
24.324998
21
23.739291
31
0
39
0
210
0
220
0
230
1
0
ENDBLK
5
155
100
AcDbEntity
8
0
100
AcDbBlockEnd
0
BLOCK
5
162
100
AcDbEntity
8
0
100
AcDbBlockBegin
2
DimnDraft3D5
70
0
10
0
20
0
30
0
3
DimnDraft3D5
0
MTEXT
5
158
100
AcDbEntity
8
SK2
62
256
6
ByLayer
370
18
48
1
60
0
100
AcDbMText
10
-69.355921
20
-27.225
30
0
210
0
220
0
230
1
1
\W0.7121;3.0
40
3.5
41
0
44
1.084337
50
0
71
7
72
5
7
iso_b_vert
0
LINE
5
159
100
AcDbEntity
8
SK2
62
256
6
ByLayer
370
13
48
1
60
0
100
AcDbLine
10
-69
20
8
30
0
11
-69
21
-30.1
31
0
39
0
210
0
220
0
230
1
0
LINE
5
15A
100
AcDbEntity
8
SK2
62
256
6
ByLayer
370
13
48
1
60
0
100
AcDbLine
10
-66
20
-12
30
0
11
-66
21
-30.1
31
0
39
0
210
0
220
0
230
1
0
LINE
5
15B
100
AcDbEntity
8
SK2
62
256
6
ByLayer
370
13
48
1
60
0
100
AcDbLine
10
-77.75
20
-28.1
30
0
11
-57.25
21
-28.1
31
0
39
0
210
0
220
0
230
1
0
LINE
5
15C
100
AcDbEntity
8
SK2
62
256
6
ByLayer
370
13
48
1
60
0
100
AcDbLine
10
-69
20
-28.1
30
0
11
-72.174998
21
-28.517997
31
0
39
0
210
0
220
0
230
1
0
LINE
5
15D
100
AcDbEntity
8
SK2
62
256
6
ByLayer
370
13
48
1
60
0
100
AcDbLine
10
-69
20
-28.1
30
0
11
-72.175002
21
-27.682003
31
0
39
0
210
0
220
0
230
1
0
LINE
5
15E
100
AcDbEntity
8
SK2
62
256
6
ByLayer
370
13
48
1
60
0
100
AcDbLine
10
-72.174998
20
-28.517997
30
0
11
-72.175002
21
-27.682003
31
0
39
0
210
0
220
0
230
1
0
LINE
5
15F
100
AcDbEntity
8
SK2
62
256
6
ByLayer
370
13
48
1
60
0
100
AcDbLine
10
-66
20
-28.1
30
0
11
-62.825002
21
-27.682003
31
0
39
0
210
0
220
0
230
1
0
LINE
5
160
100
AcDbEntity
8
SK2
62
256
6
ByLayer
370
13
48
1
60
0
100
AcDbLine
10
-66
20
-28.1
30
0
11
-62.824998
21
-28.517997
31
0
39
0
210
0
220
0
230
1
0
LINE
5
161
100
AcDbEntity
8
SK2
62
256
6
ByLayer
370
13
48
1
60
0
100
AcDbLine
10
-62.825002
20
-27.682003
30
0
11
-62.824998
21
-28.517997
31
0
39
0
210
0
220
0
230
1
0
ENDBLK
5
163
100
AcDbEntity
8
0
100
AcDbBlockEnd
0
ENDSEC
0
SECTION
2
ENTITIES
0
ARC
5
B5
100
AcDbEntity
8
1
62
256
6
ByLayer
370
13
48
1
60
0
100
AcDbCircle
39
0
10
-8.316533
20
0.970237
30
0
40
4.42238554666493
210
0
220
0
230
-1
100
AcDbArc
50
272.893977
51
310.024198
0
ARC
5
B6
100
AcDbEntity
8
SK1
62
256
6
ByLayer
370
13
48
1
60
0
100
AcDbCircle
39
0
10
-5.026413
20
5.626455
30
0
40
5.44700496293312
210
0
220
0
230
-1
100
AcDbArc
50
337.336643
51
22.663357
0
ARC
5
BA
100
AcDbEntity
8
1
62
256
6
ByLayer
370
13
48
1
60
0
100
AcDbCircle
39
0
10
5.026413
20
5.626455
30
0
40
3.85309344598633
210
0
220
0
230
1
100
AcDbArc
50
53.840679
51
221.159321
0
ARC
5
BB
100
AcDbEntity
8
1
62
256
6
ByLayer
370
13
48
1
60
0
100
AcDbCircle
39
0
10
32.111643
20
29.303835
30
0
40
39.8284740297181
210
0
220
0
230
1
100
AcDbArc
50
221.159321
51
229.975802
0
ARC
5
BC
100
AcDbEntity
8
1
62
256
6
ByLayer
370
13
48
1
60
0
100
AcDbCircle
39
0
10
-16.200234
20
-23.419327
30
0
40
39.8284740297182
210
0
220
0
230
1
100
AcDbArc
50
45.024198
51
53.840679
0
ARC
5
BD
100
AcDbEntity
8
1
62
256
6
ByLayer
370
13
48
1
60
0
100
AcDbCircle
39
0
10
9.951665
20
2.75467
30
0
40
2.82847402971813
210
0
220
0
230
1
100
AcDbArc
50
319.374294
51
45.024198
0
ARC
5
BE
100
AcDbEntity
8
1
62
256
6
ByLayer
370
13
48
1
60
0
100
AcDbCircle
39
0
10
-18.130568
20
26.845918
30
0
40
39.9600682379629
210
0
220
0
230
1
100
AcDbArc
50
312.392444
51
322.607556
0
ARC
5
BF
100
AcDbEntity
8
1
62
256
6
ByLayer
370
13
48
1
60
0
100
AcDbCircle
39
0
10
-5.026413
20
5.626455
30
0
40
5.44700496293312
210
0
220
0
230
-1
100
AcDbArc
50
318.840679
51
337.336643
0
ARC
5
C0
100
AcDbEntity
8
1
62
256
6
ByLayer
370
13
48
1
60
0
100
AcDbCircle
39
0
10
-5.026413
20
5.626455
30
0
40
5.44700496293312
210
0
220
0
230
-1
100
AcDbArc
50
22.663357
51
53.410493
0
ARC
5
C1
100
AcDbEntity
8
1
62
256
6
ByLayer
370
13
48
1
60
0
100
AcDbCircle
39
0
10
8.316533
20
0.970237
30
0
40
2.82847402971813
210
0
220
0
230
1
100
AcDbArc
50
229.975802
51
315.625706
0
ARC
5
C2
100
AcDbEntity
8
1
62
256
6
ByLayer
370
13
48
1
60
0
100
AcDbCircle
39
0
10
-32.111643
20
29.303835
30
0
40
41.4223855466649
210
0
220
0
230
-1
100
AcDbArc
50
310.024198
51
318.840679
0
ARC
5
C3
100
AcDbEntity
8
1
62
256
6
ByLayer
370
18
48
1
60
0
100
AcDbCircle
39
0
10
29.606063
20
-4.329365
30
0
40
8.1
210
0
220
0
230
1
100
AcDbArc
50
180.919587
51
186.019357
0
ARC
5
C4
100
AcDbEntity
8
1
62
256
6
ByLayer
370
18
48
1
60
0
100
AcDbCircle
39
0
10
11.419365
20
-4.606399
30
0
40
1.625
210
0
220
0
230
1
100
AcDbArc
50
41.099917
51
258.184
0
ARC
5
C5
100
AcDbEntity
8
1
62
256
6
ByLayer
370
18
48
1
60
0
100
AcDbCircle
39
0
10
19.33094
20
-21.773061
30
0
40
8.1
210
0
220
0
230
1
100
AcDbArc
50
112.980612
51
113.824968
0
ARC
5
C6
100
AcDbEntity
8
1
62
256
6
ByLayer
370
18
48
1
60
0
100
AcDbCircle
39
0
10
11.419365
20
-4.606399
30
0
40
1.525
210
0
220
0
230
1
100
AcDbArc
50
39.414922
51
254.461048
0
ARC
5
C7
100
AcDbEntity
8
1
62
256
6
ByLayer
370
13
48
1
60
0
100
AcDbCircle
39
0
10
-9.951665
20
2.75467
30
0
40
4.42238554666492
210
0
220
0
230
-1
100
AcDbArc
50
134.975802
51
172.106023
0
ARC
5
C8
100
AcDbEntity
8
1
62
256
6
ByLayer
370
13
48
1
60
0
100
AcDbCircle
39
0
10
16.200234
20
-23.419327
30
0
40
41.4223855466649
210
0
220
0
230
-1
100
AcDbArc
50
126.216142
51
134.975802
0
ARC
5
C9
100
AcDbEntity
8
1
62
256
6
ByLayer
370
13
48
1
60
0
100
AcDbCircle
39
0
10
18.130568
20
26.845918
30
0
40
40.4581655870087
210
0
220
0
230
-1
100
AcDbArc
50
217.424003
51
227.575997
0
ARC
5
CA
100
AcDbEntity
8
SK1
62
256
6
ByLayer
370
18
48
1
60
0
100
AcDbCircle
39
0
10
0.227723
20
-11.525
30
0
40
1.6
210
0
220
0
230
-1
100
AcDbArc
50
90
51
98.182521
0
ARC
5
CB
100
AcDbEntity
8
1
62
256
6
ByLayer
370
18
48
1
60
0
100
AcDbCircle
39
0
10
12.618996
20
-5.276753
30
0
40
1.63876468136631
210
0
220
0
230
1
100
AcDbArc
50
32
51
90.750453
0
ARC
5
CC
100
AcDbEntity
8
1
62
256
6
ByLayer
370
18
48
1
60
0
100
AcDbCircle
39
0
10
-12.618996
20
-5.276753
30
0
40
1.73876468136631
210
0
220
0
230
-1
100
AcDbArc
50
90.820921
51
148
0
ARC
5
CD
100
AcDbEntity
8
1
62
256
6
ByLayer
370
18
48
1
60
0
100
AcDbCircle
39
0
10
0.227723
20
-11.525
30
0
40
1.6
210
0
220
0
230
-1
100
AcDbArc
50
98.182521
51
127.916935
0
ARC
5
CE
100
AcDbEntity
8
1
62
256
6
ByLayer
370
18
48
1
60
0
100
AcDbCircle
39
0
10
21.454775
20
-5.563875
30
0
40
0.396875000000027
210
0
220
0
230
1
100
AcDbArc
50
32
51
87
0
ARC
5
CF
100
AcDbEntity
8
1
62
256
6
ByLayer
370
18
48
1
60
0
100
AcDbCircle
39
0
10
16.458845
20
-14.045282
30
0
40
0.396875000000028
210
0
220
0
230
1
100
AcDbArc
50
212
51
267
0
ARC
5
D1
100
AcDbEntity
8
1
62
256
6
ByLayer
370
18
48
1
60
0
100
AcDbCircle
39
0
10
10.810494
20
-5.006032
30
0
40
0.396875000000028
210
0
220
0
230
1
100
AcDbArc
50
87
51
212
0
ARC
5
D2
100
AcDbEntity
8
1
62
256
6
ByLayer
370
18
48
1
60
0
100
AcDbCircle
39
0
10
27.103125
20
-14.603125
30
0
40
0.396875000000028
210
0
220
0
230
1
100
AcDbArc
50
267
51
32
0
ARC
5
D3
100
AcDbEntity
8
1
62
256
6
ByLayer
370
18
48
1
60
0
100
AcDbCircle
39
0
10
-18.95681
20
-9.804579
30
0
40
1.2903
210
0
220
0
230
-1
100
AcDbArc
50
270.5
51
330.5
0
ARC
5
D4
100
AcDbEntity
8
1
62
256
6
ByLayer
370
18
48
1
60
0
100
AcDbCircle
39
0
10
18.95681
20
-9.804579
30
0
40
1.2903
210
0
220
0
230
1
100
AcDbArc
50
269.5
51
329.5
0
ARC
5
D5
100
AcDbEntity
8
1
62
256
6
ByLayer
370
18
48
1
60
0
100
AcDbCircle
39
0
10
-18.95681
20
-9.804579
30
0
40
1.2903
210
0
220
0
230
-1
100
AcDbArc
50
90.5
51
150.5
0
ARC
5
D6
100
AcDbEntity
8
1
62
256
6
ByLayer
370
18
48
1
60
0
100
AcDbCircle
39
0
10
-18.95681
20
-9.804579
30
0
40
1.2903
210
0
220
0
230
-1
100
AcDbArc
50
30.5
51
90.5
0
ARC
5
D7
100
AcDbEntity
8
1
62
256
6
ByLayer
370
18
48
1
60
0
100
AcDbCircle
39
0
10
-18.95681
20
-9.804579
30
0
40
1.6764
210
0
220
0
230
-1
100
AcDbArc
50
240.5
51
300.5
0
ARC
5
D9
100
AcDbEntity
8
1
62
256
6
ByLayer
370
18
48
1
60
0
100
AcDbCircle
39
0
10
-18.95681
20
-9.804579
30
0
40
1.6764
210
0
220
0
230
-1
100
AcDbArc
50
60.5
51
120.5
0
ARC
5
DA
100
AcDbEntity
8
1
62
256
6
ByLayer
370
18
48
1
60
0
100
AcDbCircle
39
0
10
-18.95681
20
-9.804579
30
0
40
1.6764
210
0
220
0
230
-1
100
AcDbArc
50
120.5
51
180.5
0
ARC
5
DB
100
AcDbEntity
8
1
62
256
6
ByLayer
370
18
48
1
60
0
100
AcDbCircle
39
0
10
-18.95681
20
-9.804579
30
0
40
1.6764
210
0
220
0
230
-1
100
AcDbArc
50
180.5
51
240.5
0
ARC
5
DC
100
AcDbEntity
8
1
62
256
6
ByLayer
370
18
48
1
60
0
100
AcDbCircle
39
0
10
-18.95681
20
-9.804579
30
0
40
1.2903
210
0
220
0
230
-1
100
AcDbArc
50
330.5
51
30.5
0
ARC
5
DD
100
AcDbEntity
8
1
62
256
6
ByLayer
370
18
48
1
60
0
100
AcDbCircle
39
0
10
-18.95681
20
-9.804579
30
0
40
1.6764
210
0
220
0
230
-1
100
AcDbArc
50
0.5
51
60.5
0
ARC
5
DE
100
AcDbEntity
8
1
62
256
6
ByLayer
370
18
48
1
60
0
100
AcDbCircle
39
0
10
-18.95681
20
-9.804579
30
0
40
1.2903
210
0
220
0
230
-1
100
AcDbArc
50
150.5
51
210.5
0
ARC
5
DF
100
AcDbEntity
8
1
62
256
6
ByLayer
370
18
48
1
60
0
100
AcDbCircle
39
0
10
-18.95681
20
-9.804579
30
0
40
1.6764
210
0
220
0
230
-1
100
AcDbArc
50
300.5
51
0.5
0
CIRCLE
5
B7
100
AcDbEntity
8
1
62
256
6
ByLayer
370
13
48
1
60
0
100
AcDbCircle
10
18.95681
20
-9.804579
30
0
40
1.8
39
0
210
0
220
0
230
1
0
CIRCLE
5
B8
100
AcDbEntity
8
1
62
256
6
ByLayer
370
13
48
1
60
0
100
AcDbCircle
10
-18.95681
20
-9.804579
30
0
40
3.00996076009296
39
0
210
0
220
0
230
-1
0
CIRCLE
5
B9
100
AcDbEntity
8
1
62
256
6
ByLayer
370
13
48
1
60
0
100
AcDbCircle
10
18.95681
20
-9.804579
30
0
40
2.92104776441177
39
0
210
0
220
0
230
1
0
CIRCLE
5
D0
100
AcDbEntity
8
1
62
256
6
ByLayer
370
18
48
1
60
0
100
AcDbCircle
10
18.95681
20
-9.804579
30
0
40
3.0713253481828
39
0
210
0
220
0
230
1
0
CIRCLE
5
D8
100
AcDbEntity
8
1
62
256
6
ByLayer
370
18
48
1
60
0
100
AcDbCircle
10
18.95681
20
-9.804579
30
0
40
2.625
39
0
210
0
220
0
230
1
0
POINT
5
6C
100
AcDbEntity
8
80
62
256
6
ByLayer
370
18
48
1
60
0
100
AcDbPoint
10
0
20
0
30
0
39
0
210
0
220
0
230
1
50
360
0
POINT
5
6E
100
AcDbEntity
8
81
62
256
6
ByLayer
370
18
48
1
60
0
100
AcDbPoint
10
27.5
20
-15
30
0
39
0
210
0
220
0
230
1
50
360
0
POINT
5
70
100
AcDbEntity
8
2
62
256
6
ByLayer
370
18
48
1
60
0
100
AcDbPoint
10
18.95681
20
29.804579
30
0
39
0
210
0
220
0
230
1
50
360
0
POINT
5
72
100
AcDbEntity
8
2
62
256
6
ByLayer
370
18
48
1
60
0
100
AcDbPoint
10
18.95681
20
29.804579
30
0
39
0
210
0
220
0
230
1
50
360
0
POINT
5
73
100
AcDbEntity
8
2
62
256
6
ByLayer
370
18
48
1
60
0
100
AcDbPoint
10
18.629863
20
29.670022
30
0
39
0
210
0
220
0
230
1
50
360
0
POINT
5
74
100
AcDbEntity
8
SK2
62
256
6
ByLayer
370
18
48
1
60
0
100
AcDbPoint
10
27.103125
20
34.603125
30
0
39
0
210
0
220
0
230
1
50
360
0
POINT
5
76
100
AcDbEntity
8
SK2
62
256
6
ByLayer
370
18
48
1
60
0
100
AcDbPoint
10
25.105866
20
34.498453
30
0
39
0
210
0
220
0
230
1
50
360
0
POINT
5
77
100
AcDbEntity
8
SK2
62
256
6
ByLayer
370
18
48
1
60
0
100
AcDbPoint
10
23.108607
20
34.393781
30
0
39
0
210
0
220
0
230
1
50
360
0
POINT
5
78
100
AcDbEntity
8
SK2
62
256
6
ByLayer
370
18
48
1
60
0
100
AcDbPoint
10
26.043286
20
32.907029
30
0
39
0
210
0
220
0
230
1
50
360
0
POINT
5
79
100
AcDbEntity
8
SK2
62
256
6
ByLayer
370
18
48
1
60
0
100
AcDbPoint
10
24.983448
20
31.210933
30
0
39
0
210
0
220
0
230
1
50
360
0
SPLINE
5
E0
100
AcDbEntity
8
SK1
62
256
6
ByLayer
370
18
48
1
60
0
100
AcDbSpline
70
4
71
3
72
10
73
6
40
0
40
0
40
0
40
0
40
0.5
40
0.5
40
1
40
1
40
1
40
1
41
1
10
0
20
3.52763658912014
30
0
41
1
10
0
20
4.23194987103091
30
0
41
1
10
0
20
4.93806814318484
30
0
41
1
10
0
20
6.35037853989567
30
0
41
1
10
0
20
7.03500708791842
30
0
41
1
10
0
20
7.72527252456877
30
0
0
SPLINE
5
E1
100
AcDbEntity
8
1
62
256
6
ByLayer
370
18
48
1
60
0
100
AcDbSpline
70
4
71
3
72
20
73
16
40
0
40
0
40
0
40
0
40
0.163981445047659
40
0.163981445047659
40
0.325329192881388
40
0.325329192881388
40
0.486958231041171
40
0.486958231041171
40
0.583718921281558
40
0.583718921281558
40
0.754915382693195
40
0.754915382693195
40
0.934926993092287
40
0.934926993092287
40
1
40
1
40
1
40
1
41
1
10
10.2016604584714
20
-0.874159995561854
30
0
41
1
10
10.2736407878734
20
-0.818500282920809
30
0
41
1
10
10.3613184841431
20
-0.744809976733279
30
0
41
1
10
10.5541137395819
20
-0.571476096843554
30
0
41
1
10
10.6613643596071
20
-0.470028986894562
30
0
41
1
10
10.8825632153261
20
-0.250294110053005
30
0
41
1
10
10.9994974998772
20
-0.128980728448994
30
0
41
1
10
11.1811748872235
20
0.067911037906498
30
0
41
1
10
11.249214644989
20
0.143581186041047
30
0
41
1
10
11.42934755067
20
0.349170006998406
30
0
41
1
10
11.5387829482431
20
0.480297256573465
30
0
41
1
10
11.7332877127087
20
0.725124671713587
30
0
41
1
10
11.8200102818973
20
0.841519935506909
30
0
41
1
10
11.9116344052904
20
0.973874003022956
30
0
41
1
10
11.9337495630547
20
1.00696181702517
30
0
41
1
10
11.9533431566514
20
1.03746622413792
30
0
0
SPLINE
5
E2
100
AcDbEntity
8
1
62
256
6
ByLayer
370
18
48
1
60
0
100
AcDbSpline
70
4
71
3
72
16
73
12
40
0
40
0
40
0
40
0
40
0.198949713511828
40
0.198949713511828
40
0.421930607094351
40
0.421930607094351
40
0.644676317672872
40
0.644676317672872
40
0.868215580690468
40
0.868215580690468
40
1
40
1
40
1
40
1
41
1
10
9.94917610351405
20
-0.627130856036928
30
0
41
1
10
9.79189299812407
20
-0.788719942084469
30
0
41
1
10
9.60833961867095
20
-0.928213339589831
30
0
41
1
10
9.18860951019974
20
-1.157835397323
30
0
41
1
10
8.94288329257847
20
-1.24286047598926
30
0
41
1
10
8.44423636395723
20
-1.32602649349459
30
0
41
1
10
8.18448994278617
20
-1.32538210825049
30
0
41
1
10
7.68598207291546
20
-1.23957987246268
30
0
41
1
10
7.44040450191986
20
-1.15292884123926
30
0
41
1
10
7.08877963859601
20
-0.95731119974991
30
0
41
1
10
6.96489506660313
20
-0.871261712955857
30
0
41
1
10
6.85134764867294
20
-0.774405879605865
30
0
0
SPLINE
5
E3
100
AcDbEntity
8
1
62
256
6
ByLayer
370
18
48
1
60
0
100
AcDbSpline
70
4
71
3
72
8
73
4
40
0
40
0
40
0
40
0
40
1
40
1
40
1
40
1
41
1
10
11.6852485760941
20
1.26745979176201
30
0
41
1
10
11.1260892251983
20
0.6190651254268
30
0
41
1
10
10.5463694838465
20
-0.0135879565481218
30
0
41
1
10
9.94917610351405
20
-0.627130856036928
30
0
0
SPLINE
5
E4
100
AcDbEntity
8
1
62
256
6
ByLayer
370
18
48
1
60
0
100
AcDbSpline
70
4
71
3
72
8
73
4
40
0
40
0
40
0
40
0
40
1
40
1
40
1
40
1
41
1
10
10.3382880658544
20
-1.0078356060481
30
0
41
1
10
9.94993771304061
20
-1.45826700036142
30
0
41
1
10
9.54168569822485
20
-1.90994161606213
30
0
41
1
10
9.05807343067198
20
-2.39359475266363
30
0
0
SPLINE
5
E5
100
AcDbEntity
8
1
62
256
6
ByLayer
370
18
48
1
60
0
100
AcDbSpline
70
4
71
3
72
8
73
4
40
0
40
0
40
0
40
0
40
1
40
1
40
1
40
1
41
1
10
6.85134764867294
20
-0.774405879605865
30
0
41
1
10
5.31553218467366
20
0.535643167294523
30
0
41
1
10
3.89108091022266
20
1.95570676337078
30
0
41
1
10
2.57724783026194
20
3.48544221419371
30
0
0
SPLINE
5
E6
100
AcDbEntity
8
1
62
256
6
ByLayer
370
18
48
1
60
0
100
AcDbSpline
70
4
71
3
72
16
73
12
40
0
40
0
40
0
40
0
40
0.183285723772543
40
0.183285723772543
40
0.406565734763469
40
0.406565734763469
40
0.63077433560007
40
0.63077433560007
40
0.855470095361666
40
0.855470095361666
40
1
40
1
40
1
40
1
41
1
10
11.5619696338483
20
4.36633593813977
30
0
41
1
10
11.7098107231829
20
4.22087093234799
30
0
41
1
10
11.8388011973666
20
4.05312517366914
30
0
41
1
10
12.0664712399229
20
3.65280591823893
30
0
41
1
10
12.1553829004753
20
3.40831230375684
30
0
41
1
10
12.2463498633247
20
2.90934172641534
30
0
41
1
10
12.2493174165131
20
2.64789185821869
30
0
41
1
10
12.1695731241138
20
2.1452158252518
30
0
41
1
10
12.0855826270856
20
1.89704070865534
30
0
41
1
10
11.8866345668546
20
1.52846438826146
30
0
41
1
10
11.7924198392786
20
1.39173433947718
30
0
41
1
10
11.6852485760941
20
1.26745979176201
30
0
0
SPLINE
5
E7
100
AcDbEntity
8
1
62
256
6
ByLayer
370
18
48
1
60
0
100
AcDbSpline
70
4
71
3
72
8
73
4
40
0
40
0
40
0
40
0
40
1
40
1
40
1
40
1
41
1
10
6.94581920387759
20
8.2529012917484
30
0
41
1
10
8.58427758848001
20
7.07736718632506
30
0
41
1
10
10.1230822128355
20
5.78209774004029
30
0
41
1
10
11.5619696338483
20
4.36633593813977
30
0
0
SPLINE
5
E8
100
AcDbEntity
8
1
62
256
6
ByLayer
370
18
48
1
60
0
100
AcDbSpline
70
4
71
3
72
8
73
4
40
0
40
0
40
0
40
0
40
1
40
1
40
1
40
1
41
1
10
8.22259832353251
20
10
30
0
41
1
10
8.23955387620339
20
10
30
0
41
1
10
8.25651359945547
20
10
30
0
41
1
10
8.27347751428189
20
10
30
0
0
SPLINE
5
E9
100
AcDbEntity
8
1
62
256
6
ByLayer
370
18
48
1
60
0
100
AcDbSpline
70
4
71
3
72
16
73
12
40
0
40
0
40
0
40
0
40
0.0999483336589763
40
0.0999483336589763
40
0.399343979934347
40
0.399343979934347
40
0.693131352381196
40
0.693131352381196
40
0.987724913535466
40
0.987724913535466
40
1
40
1
40
1
40
1
41
1
10
11.9533431566514
20
1.03746622413792
30
0
41
1
10
11.9715668716682
20
1.06583792732926
30
0
41
1
10
11.9871841399524
20
1.09240705202845
30
0
41
1
10
12.0395017583364
20
1.18925929231256
30
0
41
1
10
12.0576939722889
20
1.24313574953951
30
0
41
1
10
12.0578336901397
20
1.29895681263179
30
0
41
1
10
12.0404163350963
20
1.30232042991403
30
0
41
1
10
11.9708095525638
20
1.25904324622917
30
0
41
1
10
11.9173561572741
20
1.21161681272991
30
0
41
1
10
11.8415246826529
20
1.14430054884926
30
0
41
1
10
11.8384170279769
20
1.14154301874819
30
0
41
1
10
11.8352736808416
20
1.138755925379
30
0
0
SPLINE
5
EA
100
AcDbEntity
8
1
62
256
6
ByLayer
370
18
48
1
60
0
100
AcDbSpline
70
4
71
3
72
10
73
6
40
0
40
0
40
0
40
0
40
0.713843266994963
40
0.713843266994963
40
1
40
1
40
1
40
1
41
1
10
14.3321434469788
20
3.36204269136655
30
0
41
1
10
14.0961122067954
20
3.10445979243656
30
0
41
1
10
13.8583899268843
20
2.84503144747595
30
0
41
1
10
13.5438529231919
20
2.5017745414456
30
0
41
1
10
13.4546946286165
20
2.40447533663453
30
0
41
1
10
13.3673258289682
20
2.30912902285022
30
0
0
SPLINE
5
EB
100
AcDbEntity
8
1
62
256
6
ByLayer
370
18
48
1
60
0
100
AcDbSpline
70
4
71
3
72
10
73
6
40
0
40
0
40
0
40
0
40
0.5
40
0.5
40
1
40
1
40
1
40
1
41
1
10
1.77957388259136
20
10
30
0
41
1
10
2.85498325131826
20
10
30
0
41
1
10
3.89463116415084
20
10
30
0
41
1
10
6.05815871827528
20
10
30
0
41
1
10
7.12164402654332
20
10
30
0
41
1
10
8.22259832353251
20
10
30
0
0
SPLINE
5
EC
100
AcDbEntity
8
1
62
256
6
ByLayer
370
18
48
1
60
0
100
AcDbSpline
70
4
71
3
72
18
73
14
40
0
40
0
40
0
40
0
40
0.227272476110285
40
0.227272476110285
40
0.454537101757066
40
0.454537101757066
40
0.681923304594567
40
0.681923304594567
40
0.909532334308853
40
0.909532334308853
40
0.979632365515044
40
0.979632365515044
40
1
40
1
40
1
40
1
41
1
10
13.6174950722666
20
2.57932456511676
30
0
41
1
10
13.6212357784985
20
2.57619171831334
30
0
41
1
10
13.6324058790251
20
2.56683679860828
30
0
41
1
10
13.6677464797046
20
2.53723757156178
30
0
41
1
10
13.692403159922
20
2.5165860071337
30
0
41
1
10
13.7516143068235
20
2.46698894969236
30
0
41
1
10
13.7869893380568
20
2.43735604515319
30
0
41
1
10
13.8634424720576
20
2.3733068843363
30
0
41
1
10
13.9055796184511
20
2.33800333773797
30
0
41
1
10
13.9613962146798
20
2.29123420129841
30
0
41
1
10
13.9747814650646
20
2.28001827785738
30
0
41
1
10
13.992009344817
20
2.26558207100732
30
0
41
1
10
13.9958514724091
20
2.26236248295541
30
0
41
1
10
13.9996931807159
20
2.25914327314996
30
0
0
SPLINE
5
ED
100
AcDbEntity
8
1
62
256
6
ByLayer
370
18
48
1
60
0
100
AcDbSpline
70
4
71
3
72
8
73
4
40
0
40
0
40
0
40
0
40
1
40
1
40
1
40
1
41
1
10
12.5975319920876
20
-3.63812854687134
30
0
41
1
10
12.6130549727721
20
-3.60471358971645
30
0
41
1
10
12.628509434779
20
-3.57139867666089
30
0
41
1
10
12.6439074849171
20
-3.53816644841319
30
0
0
SPLINE
5
EE
100
AcDbEntity
8
1
62
256
6
ByLayer
370
18
48
1
60
0
100
AcDbSpline
70
4
71
3
72
18
73
14
40
0
40
0
40
0
40
0
40
0.227272476110305
40
0.227272476110305
40
0.454537101757107
40
0.454537101757107
40
0.681923304594617
40
0.681923304594617
40
0.909532334308913
40
0.909532334308913
40
0.979632365515048
40
0.979632365515048
40
1
40
1
40
1
40
1
41
1
10
8.81070975023016
20
-2.66636111963658
30
0
41
1
10
8.81415669963573
20
-2.66981454576188
30
0
41
1
10
8.82444955945493
20
-2.6801268057084
30
0
41
1
10
8.85701628880767
20
-2.71275318211468
30
0
41
1
10
8.8797382390762
20
-2.73551613378325
30
0
41
1
10
8.93430715622733
20
-2.790179296015
30
0
41
1
10
8.96691043574023
20
-2.82283703676959
30
0
41
1
10
9.03737919984246
20
-2.89341699133033
30
0
41
1
10
9.07622090007874
20
-2.9323168863348
30
0
41
1
10
9.1276768027362
20
-2.98384488473923
30
0
41
1
10
9.14001664764135
20
-2.99620166806727
30
0
41
1
10
9.15589942902184
20
-3.01210579220532
30
0
41
1
10
9.15944162905311
20
-3.01565269375402
30
0
41
1
10
9.16298341573423
20
-3.01919921057925
30
0
0
SPLINE
5
EF
100
AcDbEntity
8
1
62
256
6
ByLayer
370
18
48
1
60
0
100
AcDbSpline
70
4
71
3
72
10
73
6
40
0
40
0
40
0
40
0
40
0.5
40
0.5
40
1
40
1
40
1
40
1
41
1
10
0
20
3.52763658912014
30
0
41
1
10
0
20
4.23194987103091
30
0
41
1
10
0
20
4.93806814318484
30
0
41
1
10
0
20
6.35037853989567
30
0
41
1
10
0
20
7.03500708791842
30
0
41
1
10
0
20
7.72527252456877
30
0
0
SPLINE
5
F0
100
AcDbEntity
8
1
62
256
6
ByLayer
370
18
48
1
60
0
100
AcDbSpline
70
4
71
3
72
11
73
7
40
0
40
0
40
0
40
0
40
0.809551349566647
40
0.809551349566647
40
0.809551349566647
40
1
40
1
40
1
40
1
41
1
10
9.05807343067198
20
-2.39359475266363
30
0
41
1
10
8.81338704638245
20
-2.66062308393472
30
0
41
1
10
8.55086056411051
20
-2.94712046579389
30
0
41
1
10
8.28451749445222
20
-3.23778292191287
30
0
41
1
10
8.22099985303188
20
-3.30710026396275
30
0
41
1
10
8.15709222649681
20
-3.37684320008364
30
0
41
1
10
8.09325581266125
20
-3.44650842118017
30
0
0
SPLINE
5
F1
100
AcDbEntity
8
1
62
256
6
ByLayer
370
18
48
1
60
0
100
AcDbSpline
70
4
71
3
72
8
73
4
40
0
40
0
40
0
40
0
40
1
40
1
40
1
40
1
41
1
10
13.3673258289682
20
2.30912902285016
30
0
41
1
10
12.9276627249507
20
1.78520389762906
30
0
41
1
10
12.5132883751179
20
1.33913936838962
30
0
41
1
10
12.0984179716833
20
0.913009123169218
30
0
0
SPLINE
5
F2
100
AcDbEntity
8
1
62
256
6
ByLayer
370
18
48
1
60
0
100
AcDbSpline
70
4
71
3
72
26
73
22
40
0
40
0
40
0
40
0
40
0.0045037380344309
40
0.0045037380344309
40
0.121415952152809
40
0.121415952152809
40
0.237570203289725
40
0.237570203289725
40
0.352562741081076
40
0.352562741081076
40
0.467243720116499
40
0.467243720116499
40
0.58282327850136
40
0.58282327850136
40
0.699519271369907
40
0.699519271369907
40
0.816359341985687
40
0.816359341985687
40
0.932573633961976
40
0.932573633961976
40
1
40
1
40
1
40
1
41
1
10
2.57724783026194
20
3.48544221419371
30
0
41
1
10
2.5679409618873
20
3.49627848152932
30
0
41
1
10
2.55870611782254
20
3.50717616819244
30
0
41
1
10
2.31498516815844
20
3.79867566997262
30
0
41
1
10
2.12639783352702
20
4.12365060121803
30
0
41
1
10
1.87259393490692
20
4.80602737258005
30
0
41
1
10
1.80307204233915
20
5.1725714826068
30
0
41
1
10
1.78934549399526
20
5.8954639821381
30
0
41
1
10
1.84374495434545
20
6.26164479463702
30
0
41
1
10
2.06658016608083
20
6.94691110465777
30
0
41
1
10
2.23779039236209
20
7.27540389616206
30
0
41
1
10
2.67412905361212
20
7.85300342069849
30
0
41
1
10
2.94605618960034
20
8.10947480397118
30
0
41
1
10
3.55283860009089
20
8.51454638140507
30
0
41
1
10
3.89680726605766
20
8.66783641075145
30
0
41
1
10
4.60535902181064
20
8.84905279428259
30
0
41
1
10
4.97987338921502
20
8.87942168554395
30
0
41
1
10
5.70524350990607
20
8.81516547556961
30
0
41
1
10
6.06619420040371
20
8.72032926392586
30
0
41
1
10
6.58928296003407
20
8.48293131835436
30
0
41
1
10
6.77400015784616
20
8.37617518778958
30
0
41
1
10
6.94581920387759
20
8.2529012917484
30
0
0
SPLINE
5
F3
100
AcDbEntity
8
1
62
256
6
ByLayer
370
18
48
1
60
0
100
AcDbSpline
70
4
71
3
72
14
73
10
40
0
40
0
40
0
40
0
40
0.274866276948183
40
0.274866276948183
40
0.581235420495593
40
0.581235420495593
40
0.86900234576828
40
0.86900234576828
40
1
40
1
40
1
40
1
41
1
10
10.0904657622638
20
-0.765367788897976
30
0
41
1
10
10.0351395331729
20
-0.839967237540094
30
0
41
1
10
9.99273713678616
20
-0.896458278650329
30
0
41
1
10
9.94640716528548
20
-0.977317309219416
30
0
41
1
10
9.94697019527885
20
-0.998673818890097
30
0
41
1
10
9.99666731825945
20
-0.998921722336007
30
0
41
1
10
10.04318209737
20
-0.980329626293468
30
0
41
1
10
10.134603931906
20
-0.923384038637863
30
0
41
1
10
10.1667989047184
20
-0.901117138995858
30
0
41
1
10
10.2016604584714
20
-0.874159995561854
30
0
0
SPLINE
5
F4
100
AcDbEntity
8
1
62
256
6
ByLayer
370
18
48
1
60
0
100
AcDbSpline
70
4
71
3
72
20
73
16
40
0
40
0
40
0
40
0
40
0.0415496420512399
40
0.0415496420512399
40
0.207837349271337
40
0.207837349271337
40
0.371876847713212
40
0.371876847713212
40
0.536813716634882
40
0.536813716634882
40
0.70582952098217
40
0.70582952098217
40
0.881346120965122
40
0.881346120965122
40
1
40
1
40
1
40
1
41
1
10
11.8352736808417
20
1.13875592537903
30
0
41
1
10
11.8179186000398
20
1.12336779656522
30
0
41
1
10
11.7996534623568
20
1.10683035462844
30
0
41
1
10
11.7046786591359
20
1.01925737583912
30
0
41
1
10
11.6140026002468
20
0.930725704981455
30
0
41
1
10
11.4170350314993
20
0.731371227803805
30
0
41
1
10
11.3083839711929
20
0.618272686746849
30
0
41
1
10
11.0854743073044
20
0.38155134093887
30
0
41
1
10
10.9681391931601
20
0.254654121534173
30
0
41
1
10
10.7390101364676
20
0.0026909716869739
30
0
41
1
10
10.6241283329631
20
-0.125881581272381
30
0
41
1
10
10.4126954650184
20
-0.367843018272737
30
0
41
1
10
10.3138280346439
20
-0.484140160123047
30
0
41
1
10
10.1775869209111
20
-0.651392815970183
30
0
41
1
10
10.129613171052
20
-0.712583148423477
30
0
41
1
10
10.0904657622636
20
-0.765367788898146
30
0
0
SPLINE
5
F5
100
AcDbEntity
8
1
62
256
6
ByLayer
370
18
48
1
60
0
100
AcDbSpline
70
4
71
3
72
24
73
20
40
0
40
0
40
0
40
0
40
0.0910138713939324
40
0.0910138713939324
40
0.175086621702465
40
0.175086621702465
40
0.253778357416393
40
0.253778357416393
40
0.387278912103938
40
0.387278912103938
40
0.50128548068969
40
0.50128548068969
40
0.61493376953022
40
0.61493376953022
40
0.7284366063927
40
0.7284366063927
40
0.841873888033993
40
0.841873888033993
40
1
40
1
40
1
40
1
41
1
10
19.3575522606287
20
-8.36261102349428
30
0
41
1
10
19.35959071204
20
-8.34887592777463
30
0
41
1
10
19.3643496111744
20
-8.3353556890313
30
0
41
1
10
19.3788541217566
20
-8.31262317645565
30
0
41
1
10
19.3883900178067
20
-8.30288910371809
30
0
41
1
10
19.4098098456361
20
-8.28782809568534
30
0
41
1
10
19.4217043287936
20
-8.28205483480494
30
0
41
1
10
19.4551673498505
20
-8.27051845333827
30
0
41
1
10
19.4782515153388
20
-8.26719602057253
30
0
41
1
10
19.5209707983749
20
-8.26585221203678
30
0
41
1
10
19.5409866851358
20
-8.26711708701907
30
0
41
1
10
19.5805844303304
20
-8.27228467272755
30
0
41
1
10
19.600294075205
20
-8.27620152866808
30
0
41
1
10
19.6391604788918
20
-8.28603829145965
30
0
41
1
10
19.6583856010644
20
-8.29197637242828
30
0
41
1
10
19.6962149237531
20
-8.3054939879317
30
0
41
1
10
19.7148630837877
20
-8.31308998632593
30
0
41
1
10
19.7586429327448
20
-8.33296272931369
30
0
41
1
10
19.7835329061507
20
-8.34593915210039
30
0
41
1
10
19.8076469882732
20
-8.3601434320002
30
0
0
SPLINE
5
F6
100
AcDbEntity
8
1
62
256
6
ByLayer
370
18
48
1
60
0
100
AcDbSpline
70
4
71
3
72
24
73
20
40
0
40
0
40
0
40
0
40
0.091013871393937
40
0.091013871393937
40
0.175086621702478
40
0.175086621702478
40
0.25377835741641
40
0.25377835741641
40
0.387278912103965
40
0.387278912103965
40
0.501285480689727
40
0.501285480689727
40
0.614933769530261
40
0.614933769530261
40
0.728436606392741
40
0.728436606392741
40
0.841873888034046
40
0.841873888034046
40
1
40
1
40
1
40
1
41
1
10
17.8899203151043
20
-10.854155650156
30
0
41
1
10
17.878895590563
20
-10.8625974264723
30
0
41
1
10
17.869377683395
20
-10.8733143952502
30
0
41
1
10
17.8565273061707
20
-10.8970212668369
30
0
41
1
10
17.8526367884664
20
-10.9100807215549
30
0
41
1
10
17.8498486726273
20
-10.9361166466829
30
0
41
1
10
17.8505658247495
20
-10.9493187284738
30
0
41
1
10
17.8566990727005
20
-10.9841790948684
30
0
41
1
10
17.8649846330321
20
-11.0059797082948
30
0
41
1
10
17.8845200309901
20
-11.0439943264189
30
0
41
1
10
17.8953302100361
20
-11.0608873918761
30
0
41
1
10
17.9190472501454
20
-11.0930150649166
30
0
41
1
10
17.9320284349873
20
-11.1083545793043
30
0
41
1
10
17.9594746679911
20
-11.137578944681
30
0
41
1
10
17.9739887548091
20
-11.1515147766253
30
0
41
1
10
18.0041515472887
20
-11.1780475777176
30
0
41
1
10
18.0198359645644
20
-11.1906750128888
30
0
41
1
10
18.0584419491638
20
-11.2193312345812
30
0
41
1
10
18.0818582828161
20
-11.2348094012287
30
0
41
1
10
18.1059723649385
20
-11.2490136811285
30
0
0
SPLINE
5
F7
100
AcDbEntity
8
1
62
256
6
ByLayer
370
18
48
1
60
0
100
AcDbSpline
70
4
71
3
72
8
73
4
40
0
40
0
40
0
40
0
40
1
40
1
40
1
40
1
41
1
10
17.9178670323293
20
-8.75416471014094
30
0
41
1
10
17.914711092569
20
-8.74828954761097
30
0
41
1
10
17.9115555715452
20
-8.74241516460941
30
0
41
1
10
17.9084004535462
20
-8.7365415318873
30
0
0
SPLINE
5
F8
100
AcDbEntity
8
1
62
256
6
ByLayer
370
18
48
1
60
0
100
AcDbSpline
70
4
71
3
72
28
73
24
40
0
40
0
40
0
40
0
40
0.0784886680911585
40
0.0784886680911585
40
0.140731678407953
40
0.140731678407953
40
0.202813893948763
40
0.202813893948763
40
0.264824160791591
40
0.264824160791591
40
0.367949904955219
40
0.367949904955219
40
0.43324117516518
40
0.43324117516518
40
0.499177070025537
40
0.499177070025537
40
0.715821594335206
40
0.715821594335206
40
0.863081971489829
40
0.863081971489829
40
0.959401565050663
40
0.959401565050663
40
1
40
1
40
1
40
1
41
1
10
18.5665959232545
20
-11.2295362027945
30
0
41
1
10
18.5770190397265
20
-11.2126971028754
30
0
41
1
10
18.591426358117
20
-11.197810633144
30
0
41
1
10
18.6203782134156
20
-11.174782373277
30
0
41
1
10
18.63451064013
20
-11.1657022752893
30
0
41
1
10
18.6641454623976
20
-11.1495734729003
30
0
41
1
10
18.6797433179066
20
-11.142469719248
30
0
41
1
10
18.7118444570919
20
-11.1299466608038
30
0
41
1
10
18.7284146447947
20
-11.1245014849861
30
0
41
1
10
18.77330562765
20
-11.1119742565796
30
0
41
1
10
18.8023405514578
20
-11.106128826364
30
0
41
1
10
18.85034935939
20
-11.0994673597953
30
0
41
1
10
18.8691902100009
20
-11.0975872267556
30
0
41
1
10
18.9071814153977
20
-11.0951792370832
30
0
41
1
10
18.9263802717362
20
-11.0946621357122
30
0
41
1
10
19.0077773980484
20
-11.0953724776721
30
0
41
1
10
19.0708816466622
20
-11.1030751342108
30
0
41
1
10
19.1696649970442
20
-11.129577591108
30
0
41
1
10
19.2086097957219
20
-11.1442947349964
30
0
41
1
10
19.2654910587265
20
-11.177142572678
30
0
41
1
10
19.2864766754745
20
-11.192643563655
30
0
41
1
10
19.3103788764398
20
-11.2188168106239
30
0
41
1
10
19.3167891438343
20
-11.2272133125541
30
0
41
1
10
19.3220950585146
20
-11.236129343864
30
0
0
SPLINE
5
F9
100
AcDbEntity
8
1
62
256
6
ByLayer
370
18
48
1
60
0
100
AcDbSpline
70
4
71
3
72
26
73
22
40
0
40
0
40
0
40
0
40
0.0698312878838037
40
0.0698312878838037
40
0.183326154219656
40
0.183326154219656
40
0.296850939623563
40
0.296850939623563
40
0.410442440726409
40
0.410442440726409
40
0.524182073091667
40
0.524182073091667
40
0.608467808779298
40
0.608467808779298
40
0.77106347367126
40
0.77106347367126
40
0.854650990141209
40
0.854650990141209
40
0.938878764920294
40
0.938878764920294
40
1
40
1
40
1
40
1
41
1
10
19.7823085327633
20
-11.263642845238
30
0
41
1
10
19.7715458702382
20
-11.2697320667156
30
0
41
1
10
19.7606398335087
20
-11.2755752739462
30
0
41
1
10
19.7316641515236
20
-11.2902434605618
30
0
41
1
10
19.7133642826941
20
-11.2986562794388
30
0
41
1
10
19.6761943298586
20
-11.3139737060245
30
0
41
1
10
19.6572891940467
20
-11.3208933105723
30
0
41
1
10
19.6189994874459
20
-11.3329835890606
30
0
41
1
10
19.5995669023601
20
-11.3381704375502
30
0
41
1
10
19.560365606921
20
-11.3463869733918
30
0
41
1
10
19.5405194870005
20
-11.3494341116236
30
0
41
1
10
19.5059677407257
20
-11.3522475310275
30
0
41
1
10
19.4912026931178
20
-11.3526607863155
30
0
41
1
10
19.4487892851088
20
-11.3509009434159
30
0
41
1
10
19.420610809357
20
-11.3459545416942
30
0
41
1
10
19.3837368853472
20
-11.3292785060628
30
0
41
1
10
19.3719833132473
20
-11.3217731131448
30
0
41
1
10
19.3526277871273
20
-11.3035076039935
30
0
41
1
10
19.3448503542756
20
-11.2924621591795
30
0
41
1
10
19.3359861410363
20
-11.2719303396755
30
0
41
1
10
19.3335484947124
20
-11.2626840983497
30
0
41
1
10
19.3323254221357
20
-11.2533203934479
30
0
0
SPLINE
5
FA
100
AcDbEntity
8
1
62
256
6
ByLayer
370
18
48
1
60
0
100
AcDbSpline
70
4
71
3
72
8
73
4
40
0
40
0
40
0
40
0
40
1
40
1
40
1
40
1
41
1
10
17.8996930189512
20
-10.8367003705783
30
0
41
1
10
17.8964350241314
20
-10.8425195595491
30
0
41
1
10
17.893177461589
20
-10.8483379764183
30
0
41
1
10
17.8899203151043
20
-10.854155650156
30
0
0
SPLINE
5
FB
100
AcDbEntity
8
1
62
256
6
ByLayer
370
18
48
1
60
0
100
AcDbSpline
70
4
71
3
72
8
73
4
40
0
40
0
40
0
40
0
40
1
40
1
40
1
40
1
41
1
10
19.9957523208824
20
-10.8549924029878
30
0
41
1
10
19.9989082606427
20
-10.8608675655178
30
0
41
1
10
20.0020637816665
20
-10.8667419485193
30
0
41
1
10
20.0052188996655
20
-10.8726155812414
30
0
0
SPLINE
5
FC
100
AcDbEntity
8
1
62
256
6
ByLayer
370
18
48
1
60
0
100
AcDbSpline
70
4
71
3
72
26
73
22
40
0
40
0
40
0
40
0
40
0.0698312878838718
40
0.0698312878838718
40
0.183326154219723
40
0.183326154219723
40
0.296850939623623
40
0.296850939623623
40
0.410442440726463
40
0.410442440726463
40
0.524182073091712
40
0.524182073091712
40
0.608467808779322
40
0.608467808779322
40
0.771063473671226
40
0.771063473671226
40
0.85465099014116
40
0.85465099014116
40
0.938878764920235
40
0.938878764920235
40
1
40
1
40
1
40
1
41
1
10
18.1059723649385
20
-11.2490136811285
30
0
41
1
10
18.1166271166899
20
-11.2552898095489
30
0
41
1
10
18.1274295143497
20
-11.2613224634165
30
0
41
1
10
18.1561447880436
20
-11.2764941113749
30
0
41
1
10
18.1742950457801
20
-11.2852250256874
30
0
41
1
10
18.2111920114974
20
-11.301188824479
30
0
41
1
10
18.2299735042146
20
-11.3084373152515
30
0
41
1
10
18.2680463746535
20
-11.3211939998538
30
0
41
1
10
18.2873854770743
20
-11.3267192037348
30
0
41
1
10
18.3264374036432
20
-11.335618645099
30
0
41
1
10
18.3462273210089
20
-11.3390116817874
30
0
41
1
10
18.3807247039464
20
-11.3424276838131
30
0
41
1
10
18.3954802904668
20
-11.3430985617721
30
0
41
1
10
18.4379179522018
20
-11.3420792029402
30
0
41
1
10
18.4661784628485
20
-11.337625336791
30
0
41
1
10
18.5033378077327
20
-11.3215953797094
30
0
41
1
10
18.5152205768744
20
-11.3142962580164
30
0
41
1
10
18.5348919321435
20
-11.2963713312993
30
0
41
1
10
18.5428609500465
20
-11.2854633036797
30
0
41
1
10
18.5520821428821
20
-11.2650893131235
30
0
41
1
10
18.5546807871023
20
-11.2558870228388
30
0
41
1
10
18.556067092583
20
-11.2465460896344
30
0
0
SPLINE
5
FD
100
AcDbEntity
8
1
62
256
6
ByLayer
370
18
48
1
60
0
100
AcDbSpline
70
4
71
3
72
8
73
4
40
0
40
0
40
0
40
0
40
1
40
1
40
1
40
1
41
1
10
20.3859660742337
20
-9.43003475675766
30
0
41
1
10
20.3926320841162
20
-9.4302392140174
30
0
41
1
10
20.399297209539
20
-9.43044364414934
30
0
41
1
10
20.4059614836883
20
-9.43064804817138
30
0
0
SPLINE
5
FE
100
AcDbEntity
8
1
62
256
6
ByLayer
370
18
48
1
60
0
100
AcDbSpline
70
4
71
3
72
30
73
26
40
0
40
0
40
0
40
0
40
0.0785796353497109
40
0.0785796353497109
40
0.140894784437007
40
0.140894784437007
40
0.203048952389483
40
0.203048952389483
40
0.265131088256467
40
0.265131088256467
40
0.368376353702258
40
0.368376353702258
40
0.500084378067079
40
0.500084378067079
40
0.606358723073572
40
0.606358723073572
40
0.711125201995838
40
0.711125201995838
40
0.800907602106438
40
0.800907602106438
40
0.872187406522164
40
0.872187406522164
40
0.927131887361889
40
0.927131887361889
40
1
40
1
40
1
40
1
41
1
10
20.0139263342605
20
-8.77245674255047
30
0
41
1
10
20.0042517527594
20
-8.78973676326382
30
0
41
1
10
19.9982165595202
20
-8.80955479159243
30
0
41
1
10
19.9921117275922
20
-8.84604097671593
30
0
41
1
10
19.9910216313794
20
-8.86280359448597
30
0
41
1
10
19.9912823098869
20
-8.89654219261999
30
0
41
1
10
19.992631217353
20
-8.91362835254867
30
0
41
1
10
19.9972412447419
20
-8.94777594071044
30
0
41
1
10
20.0005121730701
20
-8.96490842704696
30
0
41
1
10
20.0113191925806
20
-9.01024428617148
30
0
41
1
10
20.0202830745024
20
-9.03847272353221
30
0
41
1
10
20.0445557335204
20
-9.10137561832087
30
0
41
1
10
20.061065054894
20
-9.13603816084179
30
0
41
1
10
20.0949963034869
20
-9.19601143969356
30
0
41
1
10
20.1117483294292
20
-9.22203532542585
30
0
41
1
10
20.1476720182355
20
-9.27109359848953
30
0
41
1
10
20.16692317894
20
-9.29433253470901
30
0
41
1
10
20.2049754160088
20
-9.33419785570541
30
0
41
1
10
20.223561807818
20
-9.35141786036564
30
0
41
1
10
20.2585369816725
20
-9.37903073395998
30
0
41
1
10
20.2746861572245
20
-9.39017399242186
30
0
41
1
10
20.3042652811578
20
-9.40701017412201
30
0
41
1
10
20.3175480669962
20
-9.41340696384489
30
0
41
1
10
20.3489453096415
20
-9.42508771213971
30
0
41
1
10
20.3675867420259
20
-9.42947103303604
30
0
41
1
10
20.3859660742337
20
-9.43003475675766
30
0
0
SPLINE
5
FF
100
AcDbEntity
8
1
62
256
6
ByLayer
370
18
48
1
60
0
100
AcDbSpline
70
4
71
3
72
8
73
4
40
0
40
0
40
0
40
0
40
1
40
1
40
1
40
1
41
1
10
20.0236990381074
20
-8.75500146297273
30
0
41
1
10
20.0204418916227
20
-8.76081913671047
30
0
41
1
10
20.0171843290803
20
-8.76663755357959
30
0
41
1
10
20.0139263342605
20
-8.77245674255047
30
0
0
SPLINE
5
100
100
AcDbEntity
8
1
62
256
6
ByLayer
370
18
48
1
60
0
100
AcDbSpline
70
4
71
3
72
24
73
20
40
0
40
0
40
0
40
0
40
0.0910138713939252
40
0.0910138713939252
40
0.175086621702451
40
0.175086621702451
40
0.253778357416386
40
0.253778357416386
40
0.387278912103919
40
0.387278912103919
40
0.501285480689675
40
0.501285480689675
40
0.614933769530195
40
0.614933769530195
40
0.728436606392669
40
0.728436606392669
40
0.841873888033962
40
0.841873888033962
40
1
40
1
40
1
40
1
41
1
10
17.9084004535462
20
-8.7365415318873
30
0
41
1
10
17.8975247374352
20
-8.72790863332091
30
0
41
1
10
17.8881953167855
20
-8.71702718640486
30
0
41
1
10
17.8757606386942
20
-8.69309965548339
30
0
41
1
10
17.8720986324462
20
-8.67997429088734
30
0
41
1
10
17.869765330798
20
-8.65389367182604
30
0
41
1
10
17.8707127817916
20
-8.64070611680648
30
0
41
1
10
17.8774534929022
20
-8.60595809975058
30
0
41
1
10
17.8861182644688
20
-8.58430540962962
30
0
41
1
10
17.9063141336571
20
-8.54663752102107
30
0
41
1
10
17.9174174909048
20
-8.52993569209798
30
0
41
1
10
17.9416916240019
20
-8.49822683168117
30
0
41
1
10
17.9549385431867
20
-8.48311620649039
30
0
41
1
10
17.9828906314986
20
-8.45437529493972
30
0
41
1
10
17.9976457215535
20
-8.44069489123163
30
0
41
1
10
18.0282669813223
20
-8.41469254452701
30
0
41
1
10
18.0441693889161
20
-8.4023407634003
30
0
41
1
10
18.083269613665
20
-8.37436267352348
30
0
41
1
10
18.1069525121515
20
-8.35929553564782
30
0
41
1
10
18.1313108204484
20
-8.34551426789071
30
0
0
SPLINE
5
101
100
AcDbEntity
8
1
62
256
6
ByLayer
370
18
48
1
60
0
100
AcDbSpline
70
4
71
3
72
26
73
22
40
0
40
0
40
0
40
0
40
0.0698312878837814
40
0.0698312878837814
40
0.183326154219637
40
0.183326154219637
40
0.296850939623545
40
0.296850939623545
40
0.410442440726394
40
0.410442440726394
40
0.524182073091653
40
0.524182073091653
40
0.608467808779286
40
0.608467808779286
40
0.771063473671257
40
0.771063473671257
40
0.85465099014121
40
0.85465099014121
40
0.938878764920292
40
0.938878764920292
40
1
40
1
40
1
40
1
41
1
10
18.1313108204484
20
-8.34551426789071
30
0
41
1
10
18.1420734829735
20
-8.33942504641317
30
0
41
1
10
18.152979519703
20
-8.3335818391825
30
0
41
1
10
18.1819552016881
20
-8.31891365256695
30
0
41
1
10
18.2002550705176
20
-8.31050083368993
30
0
41
1
10
18.2374250233531
20
-8.29518340710425
30
0
41
1
10
18.256330159165
20
-8.28826380255646
30
0
41
1
10
18.2946198657658
20
-8.2761735240681
30
0
41
1
10
18.3140524508516
20
-8.27098667557851
30
0
41
1
10
18.3532537462907
20
-8.26277013973694
30
0
41
1
10
18.3730998662112
20
-8.25972300150517
30
0
41
1
10
18.407651612486
20
-8.25690958210123
30
0
41
1
10
18.4224166600939
20
-8.25649632681328
30
0
41
1
10
18.4648300681029
20
-8.25825616971281
30
0
41
1
10
18.4930085438547
20
-8.26320257143448
30
0
41
1
10
18.5298824678645
20
-8.27987860706591
30
0
41
1
10
18.5416360399644
20
-8.28738399998397
30
0
41
1
10
18.5609915660844
20
-8.30564950913526
30
0
41
1
10
18.5687689989362
20
-8.31669495394928
30
0
41
1
10
18.5776332121754
20
-8.33722677345327
30
0
41
1
10
18.5800708584993
20
-8.34647301477909
30
0
41
1
10
18.581293931076
20
-8.35583671968081
30
0
0
SPLINE
5
102
100
AcDbEntity
8
1
62
256
6
ByLayer
370
18
48
1
60
0
100
AcDbSpline
70
4
71
3
72
26
73
22
40
0
40
0
40
0
40
0
40
0.0781249424467788
40
0.0781249424467788
40
0.204588649917024
40
0.204588649917024
40
0.399460157706512
40
0.399460157706512
40
0.500593996484161
40
0.500593996484161
40
0.606760004481128
40
0.606760004481128
40
0.711419683525449
40
0.711419683525449
40
0.801110558661997
40
0.801110558661997
40
0.872317699813061
40
0.872317699813061
40
0.927206169761928
40
0.927206169761928
40
1
40
1
40
1
40
1
41
1
10
17.527653278978
20
-10.1791223563711
30
0
41
1
10
17.5474479255208
20
-10.179729490063
30
0
41
1
10
17.5675436456762
20
-10.1847633589238
30
0
41
1
10
17.6175548667991
20
-10.2044646297352
30
0
41
1
10
17.6470494553778
20
-10.223367068167
30
0
41
1
10
17.7159198827244
20
-10.2788742270887
30
0
41
1
10
17.7536663187294
20
-10.3207724096235
30
0
41
1
10
17.8034482779688
20
-10.3895801854377
30
0
41
1
10
17.8193377258043
20
-10.4144088591293
30
0
41
1
10
17.8489563945444
20
-10.4667596788966
30
0
41
1
10
17.8626352872392
20
-10.494522259764
30
0
41
1
10
17.8861843672118
20
-10.5505817496464
30
0
41
1
10
17.8961889426944
20
-10.5790521520752
30
0
41
1
10
17.9107618413586
20
-10.6322014435909
30
0
41
1
10
17.9159495668132
20
-10.657002048939
30
0
41
1
10
17.921604872925
20
-10.7012033055623
30
0
41
1
10
17.9228390694141
20
-10.7207850531652
30
0
41
1
10
17.922036118788
20
-10.7548105855959
30
0
41
1
10
17.9206780973203
20
-10.7694907455433
30
0
41
1
10
17.9145196773968
20
-10.8024194653863
30
0
41
1
10
17.9086758692888
20
-10.8206558688206
30
0
41
1
10
17.8996930189512
20
-10.8367003705783
30
0
0
SPLINE
5
103
100
AcDbEntity
8
1
62
256
6
ByLayer
370
18
48
1
60
0
100
AcDbSpline
70
4
71
3
72
8
73
4
40
0
40
0
40
0
40
0
40
1
40
1
40
1
40
1
41
1
10
20.3992147836372
20
-10.2037432998563
30
0
41
1
10
20.3925479571471
20
-10.2038313651255
30
0
41
1
10
20.3858802790574
20
-10.2039194416439
30
0
41
1
10
20.3792117161693
20
-10.2040075298501
30
0
0
SPLINE
5
104
100
AcDbEntity
8
1
62
256
6
ByLayer
370
18
48
1
60
0
100
AcDbSpline
70
4
71
3
72
26
73
22
40
0
40
0
40
0
40
0
40
0.0698312878838237
40
0.0698312878838237
40
0.183326154219674
40
0.183326154219674
40
0.296850939623575
40
0.296850939623575
40
0.410442440726419
40
0.410442440726419
40
0.524182073091676
40
0.524182073091676
40
0.60846780877931
40
0.60846780877931
40
0.771063473671268
40
0.771063473671268
40
0.854650990141211
40
0.854650990141211
40
0.938878764920297
40
0.938878764920297
40
1
40
1
40
1
40
1
41
1
10
17.2804735087811
20
-9.7899493924549
30
0
41
1
10
17.2805814195548
20
-9.77758404255701
30
0
41
1
10
17.2809740720182
20
-9.76521753407937
30
0
41
1
10
17.2827588907742
20
-9.73278976408048
30
0
41
1
10
17.284623110324
20
-9.71273520334972
30
0
41
1
10
17.289942806198
20
-9.67288636664384
30
0
41
1
10
17.2934028207814
20
-9.65305423649482
30
0
41
1
10
17.3020771857721
20
-9.61384923863093
30
0
41
1
10
17.3073015357574
20
-9.59442670204066
30
0
41
1
10
17.319786454707
20
-9.55636911640832
30
0
41
1
10
17.3270706155498
20
-9.53765830327472
30
0
41
1
10
17.3419099960118
20
-9.50632890355371
30
0
41
1
10
17.3489346302382
20
-9.49333536959318
30
0
41
1
10
17.3716654029003
20
-9.45748420224612
30
0
41
1
10
17.3900383503245
20
-9.43555412726596
30
0
41
1
10
17.4229171828206
20
-9.41195839015197
30
0
41
1
10
17.4352938298031
20
-9.40553219458721
30
0
41
1
10
17.4607899878011
20
-9.39790257183932
30
0
41
1
10
17.474244340032
20
-9.39668983982051
30
0
41
1
10
17.496457523928
20
-9.39927911572275
30
0
41
1
10
17.5056838269676
20
-9.40179117274374
30
0
41
1
10
17.5144045695744
20
-9.40541381327245
30
0
0
SPLINE
5
105
100
AcDbEntity
8
1
62
256
6
ByLayer
370
18
48
1
60
0
100
AcDbSpline
70
4
71
3
72
8
73
4
40
0
40
0
40
0
40
0
40
1
40
1
40
1
40
1
41
1
10
18.556067092583
20
-11.2465460896344
30
0
41
1
10
18.5595762487333
20
-11.2408768609343
30
0
41
1
10
18.5630858531323
20
-11.2352069080648
30
0
41
1
10
18.5665959232545
20
-11.2295362027945
30
0
0
SPLINE
5
106
100
AcDbEntity
8
1
62
256
6
ByLayer
370
18
48
1
60
0
100
AcDbSpline
70
4
71
3
72
24
73
20
40
0
40
0
40
0
40
0
40
0.0910138713939308
40
0.0910138713939308
40
0.17508662170246
40
0.17508662170246
40
0.253778357416394
40
0.253778357416394
40
0.387278912103931
40
0.387278912103931
40
0.501285480689685
40
0.501285480689685
40
0.614933769530211
40
0.614933769530211
40
0.728436606392683
40
0.728436606392683
40
0.841873888033983
40
0.841873888033983
40
1
40
1
40
1
40
1
41
1
10
20.0052188996655
20
-10.8726155812414
30
0
41
1
10
20.0160946157765
20
-10.8812484798078
30
0
41
1
10
20.0254240364262
20
-10.8921299267239
30
0
41
1
10
20.0378587145175
20
-10.9160574576453
30
0
41
1
10
20.0415207207655
20
-10.9291828222414
30
0
41
1
10
20.0438540224137
20
-10.9552634413027
30
0
41
1
10
20.0429065714201
20
-10.9684509963223
30
0
41
1
10
20.0361658603095
20
-11.0031990133782
30
0
41
1
10
20.0275010887428
20
-11.0248517034991
30
0
41
1
10
20.0073052195546
20
-11.0625195921077
30
0
41
1
10
19.9962018623069
20
-11.0792214210308
30
0
41
1
10
19.9719277292098
20
-11.1109302814476
30
0
41
1
10
19.958680810025
20
-11.1260409066383
30
0
41
1
10
19.9307287217131
20
-11.154781818189
30
0
41
1
10
19.9159736316582
20
-11.1684622218971
30
0
41
1
10
19.8853523718894
20
-11.1944645686017
30
0
41
1
10
19.8694499642955
20
-11.2068163497284
30
0
41
1
10
19.8303497395467
20
-11.2347944396053
30
0
41
1
10
19.8066668410602
20
-11.2498615774809
30
0
41
1
10
19.7823085327633
20
-11.263642845238
30
0
0
SPLINE
5
107
100
AcDbEntity
8
1
62
256
6
ByLayer
370
18
48
1
60
0
100
AcDbSpline
70
4
71
3
72
24
73
20
40
0
40
0
40
0
40
0
40
0.0910138713939265
40
0.0910138713939265
40
0.175086621702461
40
0.175086621702461
40
0.253778357416387
40
0.253778357416387
40
0.387278912103927
40
0.387278912103927
40
0.501285480689682
40
0.501285480689682
40
0.61493376953021
40
0.61493376953021
40
0.728436606392683
40
0.728436606392683
40
0.841873888033982
40
0.841873888033982
40
1
40
1
40
1
40
1
41
1
10
20.4059614836883
20
-9.43064804817138
30
0
41
1
10
20.4188756512106
20
-9.42554585101809
30
0
41
1
10
20.4329639709948
20
-9.42290705919083
30
0
41
1
10
20.4599031596682
20
-9.42410207753662
30
0
41
1
10
20.4731010619663
20
-9.42749336939508
30
0
41
1
10
20.496854191444
20
-9.43851298042367
30
0
41
1
10
20.5078012236079
20
-9.44592727456282
30
0
41
1
10
20.5345235335541
20
-9.46913891015205
30
0
41
1
10
20.5489429274758
20
-9.48746916750727
30
0
41
1
10
20.5714663413236
20
-9.52379324758007
30
0
41
1
10
20.5803788708368
20
-9.54175995148546
30
0
41
1
10
20.5957024829343
20
-9.57863639761075
30
0
41
1
10
20.6021652086242
20
-9.59766387874203
30
0
41
1
10
20.613079523999
20
-9.63624155308432
30
0
41
1
10
20.6175495561168
20
-9.65586003776104
30
0
41
1
10
20.6247576190366
20
-9.69537999996905
30
0
41
1
10
20.6275033714774
20
-9.71532777949
30
0
41
1
10
20.6321829956857
20
-9.76317861235461
30
0
41
1
10
20.6333900706051
20
-9.79122217301693
30
0
41
1
10
20.6331458444306
20
-9.81920772067383
30
0
0
SPLINE
5
108
100
AcDbEntity
8
1
62
256
6
ByLayer
370
18
48
1
60
0
100
AcDbSpline
70
4
71
3
72
8
73
4
40
0
40
0
40
0
40
0
40
1
40
1
40
1
40
1
41
1
10
18.5812939310761
20
-8.35583671968081
30
0
41
1
10
18.5847036110815
20
-8.36156632814931
30
0
41
1
10
18.5881137266288
20
-8.36729666850002
30
0
41
1
10
18.5915242946971
20
-8.37302776926475
30
0
0
SPLINE
5
109
100
AcDbEntity
8
1
62
256
6
ByLayer
370
18
48
1
60
0
100
AcDbSpline
70
4
71
3
72
8
73
4
40
0
40
0
40
0
40
0
40
1
40
1
40
1
40
1
41
1
10
19.3470234299572
20
-8.37962091033421
30
0
41
1
10
19.3505335000794
20
-8.37395020506398
30
0
41
1
10
19.3540431044784
20
-8.36828025219438
30
0
41
1
10
19.3575522606287
20
-8.36261102349431
30
0
0
SPLINE
5
10A
100
AcDbEntity
8
1
62
256
6
ByLayer
370
18
48
1
60
0
100
AcDbSpline
70
4
71
3
72
8
73
4
40
0
40
0
40
0
40
0
40
1
40
1
40
1
40
1
41
1
10
17.527653278978
20
-10.1791223563711
30
0
41
1
10
17.5209872690955
20
-10.1789178991113
30
0
41
1
10
17.5143221436727
20
-10.1787134689794
30
0
41
1
10
17.5076578695233
20
-10.1785090649574
30
0
0
SPLINE
5
10B
100
AcDbEntity
8
1
62
256
6
ByLayer
370
18
48
1
60
0
100
AcDbSpline
70
4
71
3
72
26
73
22
40
0
40
0
40
0
40
0
40
0.0698312878838119
40
0.0698312878838119
40
0.183326154219668
40
0.183326154219668
40
0.296850939623568
40
0.296850939623568
40
0.41044244072641
40
0.41044244072641
40
0.524182073091667
40
0.524182073091667
40
0.6084678087793
40
0.6084678087793
40
0.771063473671257
40
0.771063473671257
40
0.854650990141206
40
0.854650990141206
40
0.938878764920293
40
0.938878764920293
40
1
40
1
40
1
40
1
41
1
10
19.8076469882732
20
-8.3601434320002
30
0
41
1
10
19.8183017400245
20
-8.36641956042055
30
0
41
1
10
19.8288151242906
20
-8.3729428616675
30
0
41
1
10
19.8560059875197
20
-8.39070244505083
30
0
41
1
10
19.8724416367994
20
-8.4023441869046
30
0
41
1
10
19.904291893761
20
-8.42687559702478
30
0
41
1
10
19.9197370149894
20
-8.439788122626
30
0
41
1
10
19.9493523565996
20
-8.46690284200153
30
0
41
1
10
19.9635605917
20
-8.48113853010224
30
0
41
1
10
19.9902769681895
20
-8.51097957989299
30
0
41
1
10
20.0028389272673
20
-8.52664325479481
30
0
41
1
10
20.02255129308
20
-8.55515923511192
30
0
41
1
10
20.0302917064616
20
-8.56773951378446
30
0
41
1
10
20.0499743418084
20
-8.60535052403108
30
0
41
1
10
20.059779870136
20
-8.63222700073288
30
0
41
1
10
20.0637749616497
20
-8.67249877347831
30
0
41
1
10
20.0631518867672
20
-8.68643036196113
30
0
41
1
10
20.0570112548892
20
-8.71232549386031
30
0
41
1
10
20.05133433551
20
-8.72458367069314
30
0
41
1
10
20.0379853648532
20
-8.74252621429488
30
0
41
1
10
20.0311967081375
20
-8.74926039859969
30
0
41
1
10
20.0236990381074
20
-8.75500146297273
30
0
0
SPLINE
5
10C
100
AcDbEntity
8
1
62
256
6
ByLayer
370
18
48
1
60
0
100
AcDbSpline
70
4
71
3
72
8
73
4
40
0
40
0
40
0
40
0
40
1
40
1
40
1
40
1
41
1
10
17.5144045695744
20
-9.40541381327245
30
0
41
1
10
17.5210713960646
20
-9.40532574800321
30
0
41
1
10
17.5277390741543
20
-9.4052376714848
30
0
41
1
10
17.5344076370424
20
-9.40514958327867
30
0
0
SPLINE
5
10D
100
AcDbEntity
8
1
62
256
6
ByLayer
370
18
48
1
60
0
100
AcDbSpline
70
4
71
3
72
30
73
26
40
0
40
0
40
0
40
0
40
0.0785796353497146
40
0.0785796353497146
40
0.140894784437007
40
0.140894784437007
40
0.203048952389484
40
0.203048952389484
40
0.26513108825647
40
0.26513108825647
40
0.368376353702262
40
0.368376353702262
40
0.500084378067078
40
0.500084378067078
40
0.606358723073575
40
0.606358723073575
40
0.71112520199584
40
0.71112520199584
40
0.800907602106436
40
0.800907602106436
40
0.872187406522165
40
0.872187406522165
40
0.927131887361889
40
0.927131887361889
40
1
40
1
40
1
40
1
41
1
10
20.3792117161693
20
-10.2040075298501
30
0
41
1
10
20.3594094885031
20
-10.2042691068558
30
0
41
1
10
20.3392289758979
20
-10.2089514903582
30
0
41
1
10
20.3045785967298
20
-10.2219076433844
30
0
41
1
10
20.2895166958007
20
-10.2293449012566
30
0
41
1
10
20.2604285519822
20
-10.2464399545333
30
0
41
1
10
20.2463059571639
20
-10.2561512226307
30
0
41
1
10
20.2190382920324
20
-10.2772174175425
30
0
41
1
10
20.205836587799
20
-10.288616367737
30
0
41
1
10
20.17197809185
20
-10.3206434507345
30
0
41
1
10
20.1520134889474
20
-10.3425206188756
30
0
41
1
10
20.1096743135979
20
-10.394992805597
30
0
41
1
10
20.0879103319018
20
-10.4266215685662
30
0
41
1
10
20.0529375731644
20
-10.4859935312557
30
0
41
1
10
20.0387762399862
20
-10.5135131541528
30
0
41
1
10
20.0142523736504
20
-10.5691531177885
30
0
41
1
10
20.0037524448796
20
-10.5974445801206
30
0
41
1
10
19.9882541827011
20
-10.6503314445913
30
0
41
1
10
19.9826344171166
20
-10.6750377343928
30
0
41
1
10
19.9762085540397
20
-10.7191335602498
30
0
41
1
10
19.9746327969068
20
-10.7386907857589
30
0
41
1
10
19.9748417978184
20
-10.7727251493569
30
0
41
1
10
19.9759434083349
20
-10.7874267741874
30
0
41
1
10
19.981526204899
20
-10.8204579580744
30
0
41
1
10
19.987050853842
20
-10.8387935725304
30
0
41
1
10
19.9957523208824
20
-10.8549924029878
30
0
0
SPLINE
5
10E
100
AcDbEntity
8
1
62
256
6
ByLayer
370
18
48
1
60
0
100
AcDbSpline
70
4
71
3
72
30
73
26
40
0
40
0
40
0
40
0
40
0.0785796353497146
40
0.0785796353497146
40
0.140894784437007
40
0.140894784437007
40
0.203048952389484
40
0.203048952389484
40
0.26513108825647
40
0.26513108825647
40
0.368376353702261
40
0.368376353702261
40
0.500084378067078
40
0.500084378067078
40
0.606358723073575
40
0.606358723073575
40
0.71112520199584
40
0.71112520199584
40
0.800907602106436
40
0.800907602106436
40
0.872187406522165
40
0.872187406522165
40
0.927131887361889
40
0.927131887361889
40
1
40
1
40
1
40
1
41
1
10
17.5344076370424
20
-9.40514958327867
30
0
41
1
10
17.5542098647086
20
-9.40488800627296
30
0
41
1
10
17.5743903773138
20
-9.40020562277056
30
0
41
1
10
17.6090407564819
20
-9.38724946974432
30
0
41
1
10
17.624102657411
20
-9.37981221187209
30
0
41
1
10
17.6531908012294
20
-9.36271715859539
30
0
41
1
10
17.6673133960477
20
-9.35300589049805
30
0
41
1
10
17.6945810611793
20
-9.33193969558619
30
0
41
1
10
17.7077827654126
20
-9.32054074539172
30
0
41
1
10
17.7416412613617
20
-9.28851366239425
30
0
41
1
10
17.7616058642643
20
-9.26663649425308
30
0
41
1
10
17.8039450396138
20
-9.21416430753175
30
0
41
1
10
17.8257090213099
20
-9.18253554456257
30
0
41
1
10
17.8606817800473
20
-9.123163581873
30
0
41
1
10
17.8748431132255
20
-9.09564395897601
30
0
41
1
10
17.8993669795613
20
-9.04000399534027
30
0
41
1
10
17.9098669083321
20
-9.01171253300811
30
0
41
1
10
17.9253651705106
20
-8.95882566853749
30
0
41
1
10
17.9309849360951
20
-8.93411937873594
30
0
41
1
10
17.937410799172
20
-8.89002355287897
30
0
41
1
10
17.9389865563049
20
-8.8704663273698
30
0
41
1
10
17.9387775553933
20
-8.83643196377184
30
0
41
1
10
17.9376759448768
20
-8.82173033894134
30
0
41
1
10
17.9320931483127
20
-8.7886991550543
30
0
41
1
10
17.9265684993696
20
-8.77036354059834
30
0
41
1
10
17.9178670323293
20
-8.75416471014094
30
0
0
SPLINE
5
10F
100
AcDbEntity
8
1
62
256
6
ByLayer
370
18
48
1
60
0
100
AcDbSpline
70
4
71
3
72
30
73
26
40
0
40
0
40
0
40
0
40
0.0785796353497172
40
0.0785796353497172
40
0.140894784437007
40
0.140894784437007
40
0.203048952389486
40
0.203048952389486
40
0.265131088256472
40
0.265131088256472
40
0.368376353702262
40
0.368376353702262
40
0.500084378067078
40
0.500084378067078
40
0.606358723073573
40
0.606358723073573
40
0.711125201995843
40
0.711125201995843
40
0.800907602106438
40
0.800907602106438
40
0.872187406522164
40
0.872187406522164
40
0.927131887361887
40
0.927131887361887
40
1
40
1
40
1
40
1
41
1
10
18.5915242946971
20
-8.37302776926475
30
0
41
1
10
18.6016519408622
20
-8.39004621297241
30
0
41
1
10
18.6157972602281
20
-8.40518185779862
30
0
41
1
10
18.6443428074682
20
-8.42871188989585
30
0
41
1
10
18.6583146121846
20
-8.43803724979369
30
0
41
1
10
18.6876634345105
20
-8.45468079465101
30
0
41
1
10
18.7031349367949
20
-8.46205568648236
30
0
41
1
10
18.7350126293154
20
-8.47513707973226
30
0
41
1
10
18.751485261877
20
-8.48087061587432
30
0
41
1
10
18.7961507773364
20
-8.4941793920014
30
0
41
1
10
18.8250792621608
20
-8.50053066122089
30
0
41
1
10
18.8916910965284
20
-8.51096136928825
30
0
41
1
10
18.929964399598
20
-8.51399514884
30
0
41
1
10
18.9988684069284
20
-8.5145964650022
30
0
41
1
10
19.0297817660489
20
-8.5131007278375
30
0
41
1
10
19.090229321191
20
-8.50651903726546
30
0
41
1
10
19.1199804106662
20
-8.50146651115276
30
0
41
1
10
19.1735309099135
20
-8.4884449676785
30
0
41
1
10
19.1977370673072
20
-8.48095868253722
30
0
41
1
10
19.2391381042386
20
-8.46447573027459
30
0
41
1
10
19.2568630369236
20
-8.45606176322732
30
0
41
1
10
19.2862331599452
20
-8.43886358132949
30
0
41
1
10
19.2984143352671
20
-8.43055874622183
30
0
41
1
10
19.3242287813483
20
-8.40920831062965
30
0
41
1
10
19.3373455647896
20
-8.39525601707001
30
0
41
1
10
19.3470234299572
20
-8.37962091033421
30
0
0
SPLINE
5
110
100
AcDbEntity
8
1
62
256
6
ByLayer
370
18
48
1
60
0
100
AcDbSpline
70
4
71
3
72
8
73
4
40
0
40
0
40
0
40
0
40
1
40
1
40
1
40
1
41
1
10
19.3323254221357
20
-11.2533203934479
30
0
41
1
10
19.3289157421302
20
-11.2475907849794
30
0
41
1
10
19.3255056265829
20
-11.2418604446287
30
0
41
1
10
19.3220950585146
20
-11.236129343864
30
0
0
SPLINE
5
111
100
AcDbEntity
8
1
62
256
6
ByLayer
370
18
48
1
60
0
100
AcDbSpline
70
4
71
3
72
26
73
22
40
0
40
0
40
0
40
0
40
0.0698312878837991
40
0.0698312878837991
40
0.183326154219652
40
0.183326154219652
40
0.296850939623556
40
0.296850939623556
40
0.410442440726403
40
0.410442440726403
40
0.524182073091662
40
0.524182073091662
40
0.60846780877929
40
0.60846780877929
40
0.77106347367126
40
0.77106347367126
40
0.854650990141206
40
0.854650990141206
40
0.938878764920293
40
0.938878764920293
40
1
40
1
40
1
40
1
41
1
10
20.6331458444306
20
-9.81920772067383
30
0
41
1
10
20.6330379336569
20
-9.83157307057175
30
0
41
1
10
20.6326452811935
20
-9.84393957904939
30
0
41
1
10
20.6308604624375
20
-9.87636734904828
30
0
41
1
10
20.6289962428876
20
-9.89642190977901
30
0
41
1
10
20.6236765470137
20
-9.93627074648489
30
0
41
1
10
20.6202165324302
20
-9.95610287663391
30
0
41
1
10
20.6115421674396
20
-9.9953078744978
30
0
41
1
10
20.6063178174543
20
-10.0147304110881
30
0
41
1
10
20.5938328985046
20
-10.0527879967204
30
0
41
1
10
20.5865487376619
20
-10.071498809854
30
0
41
1
10
20.5717093571999
20
-10.102828209575
30
0
41
1
10
20.5646847229735
20
-10.1158217435356
30
0
41
1
10
20.5419539503114
20
-10.1516729108826
30
0
41
1
10
20.5235810028872
20
-10.1736029858628
30
0
41
1
10
20.490702170391
20
-10.1971987229768
30
0
41
1
10
20.4783255234086
20
-10.2036249185415
30
0
41
1
10
20.4528293654106
20
-10.2112545412894
30
0
41
1
10
20.4393750131797
20
-10.2124672733082
30
0
41
1
10
20.4171618292837
20
-10.209877997406
30
0
41
1
10
20.4079355262441
20
-10.207365940385
30
0
41
1
10
20.3992147836372
20
-10.2037432998563
30
0
0
SPLINE
5
112
100
AcDbEntity
8
1
62
256
6
ByLayer
370
18
48
1
60
0
100
AcDbSpline
70
4
71
3
72
24
73
20
40
0
40
0
40
0
40
0
40
0.0910138713939289
40
0.0910138713939289
40
0.175086621702465
40
0.175086621702465
40
0.253778357416393
40
0.253778357416393
40
0.387278912103937
40
0.387278912103937
40
0.501285480689695
40
0.501285480689695
40
0.614933769530226
40
0.614933769530226
40
0.728436606392702
40
0.728436606392702
40
0.841873888034003
40
0.841873888034003
40
1
40
1
40
1
40
1
41
1
10
17.5076578695233
20
-10.1785090649574
30
0
41
1
10
17.494743702001
20
-10.1836112621107
30
0
41
1
10
17.4806553822169
20
-10.1862500539379
30
0
41
1
10
17.4537161935435
20
-10.1850550355921
30
0
41
1
10
17.4405182912454
20
-10.1816637437336
30
0
41
1
10
17.4167651617677
20
-10.1706441327051
30
0
41
1
10
17.4058181296038
20
-10.1632298385659
30
0
41
1
10
17.3790958196576
20
-10.1400182029767
30
0
41
1
10
17.3646764257359
20
-10.1216879456215
30
0
41
1
10
17.3421530118881
20
-10.0853638655487
30
0
41
1
10
17.3332404823749
20
-10.0673971616433
30
0
41
1
10
17.3179168702774
20
-10.030520715518
30
0
41
1
10
17.3114541445875
20
-10.0114932343867
30
0
41
1
10
17.3005398292126
20
-9.97291556004441
30
0
41
1
10
17.2960697970949
20
-9.95329707536769
30
0
41
1
10
17.2888617341751
20
-9.91377711315971
30
0
41
1
10
17.2861159817343
20
-9.89382933363873
30
0
41
1
10
17.281436357526
20
-9.84597850077415
30
0
41
1
10
17.2802292826066
20
-9.81793494011183
30
0
41
1
10
17.2804735087811
20
-9.7899493924549
30
0
0
LINE
5
7A
100
AcDbEntity
8
80
62
256
6
ByLayer
370
18
48
1
60
0
100
AcDbLine
10
0
20
0
30
0
11
-5
21
0
31
0
39
0
210
0
220
0
230
1
0
LINE
5
7B
100
AcDbEntity
8
81
62
256
6
ByLayer
370
18
48
1
60
0
100
AcDbLine
10
27.5
20
-15
30
0
11
32.5
21
-15
31
0
39
0
210
0
220
0
230
1
0
LINE
5
7C
100
AcDbEntity
8
1
62
256
6
ByLayer
370
13
48
1
60
0
100
AcDbLine
10
5.472448
20
-2.416306
30
0
11
6.49751
21
-1.195732
31
0
39
0
210
0
220
0
230
1
0
LINE
5
7E
100
AcDbEntity
8
1
62
256
6
ByLayer
370
13
48
1
60
0
100
AcDbLine
10
15.588604
20
3.993135
30
0
11
13.999693
21
2.259143
31
0
39
0
210
0
220
0
230
1
0
LINE
5
7F
100
AcDbEntity
8
1
62
256
6
ByLayer
370
13
48
1
60
0
100
AcDbLine
10
9.162983
20
-3.019199
30
0
11
2.176572
21
-10.643529
31
0
39
0
210
0
220
0
230
1
0
LINE
5
80
100
AcDbEntity
8
1
62
256
6
ByLayer
370
13
48
1
60
0
100
AcDbLine
10
2.125487
20
3.090521
30
0
11
2.577248
21
3.485442
31
0
39
0
210
0
220
0
230
1
0
LINE
5
81
100
AcDbEntity
8
1
62
256
6
ByLayer
370
13
48
1
60
0
100
AcDbLine
10
7.299864
20
8.737363
30
0
11
6.945819
21
8.252901
31
0
39
0
210
0
220
0
230
1
0
LINE
5
82
100
AcDbEntity
8
1
62
256
6
ByLayer
370
13
48
1
60
0
100
AcDbLine
10
6.49751
20
-1.195732
30
0
11
6.851348
21
-0.774406
31
0
39
0
210
0
220
0
230
1
0
LINE
5
83
100
AcDbEntity
8
1
62
256
6
ByLayer
370
13
48
1
60
0
100
AcDbLine
10
11.56197
20
4.366336
30
0
11
11.950853
21
4.755548
31
0
39
0
210
0
220
0
230
1
0
LINE
5
84
100
AcDbEntity
8
1
62
256
6
ByLayer
370
13
48
1
60
0
100
AcDbLine
10
10.20166
20
-0.87416
30
0
11
10.338288
21
-1.007836
31
0
39
0
210
0
220
0
230
1
0
LINE
5
85
100
AcDbEntity
8
1
62
256
6
ByLayer
370
13
48
1
60
0
100
AcDbLine
10
0.925459
20
2.04148
30
0
11
2.125487
21
3.090521
31
0
39
0
210
0
220
0
230
1
0
LINE
5
86
100
AcDbEntity
8
1
62
256
6
ByLayer
370
13
48
1
60
0
100
AcDbLine
10
11.835274
20
1.138756
30
0
11
11.685249
21
1.26746
31
0
39
0
210
0
220
0
230
1
0
LINE
5
87
100
AcDbEntity
8
1
62
256
6
ByLayer
370
13
48
1
60
0
100
AcDbLine
10
12.098418
20
0.913009
30
0
11
11.953343
21
1.037466
31
0
39
0
210
0
220
0
230
1
0
LINE
5
88
100
AcDbEntity
8
1
62
256
6
ByLayer
370
13
48
1
60
0
100
AcDbLine
10
9.949176
20
-0.627131
30
0
11
10.090466
21
-0.765368
31
0
39
0
210
0
220
0
230
1
0
LINE
5
89
100
AcDbEntity
8
1
62
256
6
ByLayer
370
13
48
1
60
0
100
AcDbLine
10
13.077443
20
5.88309
30
0
11
11.950853
21
4.755548
31
0
39
0
210
0
220
0
230
1
0
LINE
5
8A
100
AcDbEntity
8
1
62
256
6
ByLayer
370
13
48
1
60
0
100
AcDbLine
10
8.222598
20
10
30
0
11
7.299864
21
8.737363
31
0
39
0
210
0
220
0
230
1
0
LINE
5
8B
100
AcDbEntity
8
1
62
256
6
ByLayer
370
18
48
1
60
0
100
AcDbLine
10
14.093552
20
-4.355348
30
0
11
14.368317
21
-4.795064
31
0
39
0
210
0
220
0
230
1
0
LINE
5
8C
100
AcDbEntity
8
1
62
256
6
ByLayer
370
18
48
1
60
0
100
AcDbLine
10
14.246409
20
-4.788678
30
0
11
14.008747
21
-4.40834
31
0
39
0
210
0
220
0
230
1
0
LINE
5
8D
100
AcDbEntity
8
1
62
256
6
ByLayer
370
13
48
1
60
0
100
AcDbLine
10
14.008747
20
-4.40834
30
0
11
14.093552
21
-4.355348
31
0
39
0
210
0
220
0
230
1
0
LINE
5
8E
100
AcDbEntity
8
SK1
62
256
6
ByLayer
370
13
48
1
60
0
100
AcDbLine
10
-1.5
20
-9.925
30
0
11
-1.5
21
10
31
0
39
0
210
0
220
0
230
1
0
LINE
5
90
100
AcDbEntity
8
SK1
62
256
6
ByLayer
370
18
48
1
60
0
100
AcDbLine
10
-69
20
7
30
0
11
-69
21
-6.925
31
0
39
0
210
0
220
0
230
1
0
LINE
5
91
100
AcDbEntity
8
SK1
62
256
6
ByLayer
370
18
48
1
60
0
100
AcDbLine
10
-69
20
-6.925
30
0
11
-66
21
-9.925
31
0
39
0
210
0
220
0
230
1
0
LINE
5
92
100
AcDbEntity
8
SK1
62
256
6
ByLayer
370
18
48
1
60
0
100
AcDbLine
10
-1.5
20
10
30
0
11
-66
21
10
31
0
39
0
210
0
220
0
230
1
0
LINE
5
93
100
AcDbEntity
8
SK1
62
256
6
ByLayer
370
18
48
1
60
0
100
AcDbLine
10
-0.227723
20
-9.925
30
0
11
-0.785228
21
-9.925
31
0
39
0
210
0
220
0
230
1
0
LINE
5
94
100
AcDbEntity
8
SK1
62
256
6
ByLayer
370
18
48
1
60
0
100
AcDbLine
10
0
20
10
30
0
11
-0.785228
21
10
31
0
39
0
210
0
220
0
230
1
0
LINE
5
95
100
AcDbEntity
8
SK1
62
256
6
ByLayer
370
18
48
1
60
0
100
AcDbLine
10
0
20
10
30
0
11
0
21
7.725273
31
0
39
0
210
0
220
0
230
1
0
LINE
5
96
100
AcDbEntity
8
SK1
62
256
6
ByLayer
370
18
48
1
60
0
100
AcDbLine
10
-0.785228
20
10
30
0
11
-0.785228
21
-9.925
31
0
39
0
210
0
220
0
230
1
0
LINE
5
97
100
AcDbEntity
8
SK1
62
256
6
ByLayer
370
18
48
1
60
0
100
AcDbLine
10
0
20
3.527637
30
0
11
0
21
-9.941288
31
0
39
0
210
0
220
0
230
1
0
LINE
5
98
100
AcDbEntity
8
SK1
62
256
6
ByLayer
370
18
48
1
60
0
100
AcDbLine
10
-69
20
7
30
0
11
-66
21
10
31
0
39
0
210
0
220
0
230
1
0
LINE
5
99
100
AcDbEntity
8
SK1
62
256
6
ByLayer
370
18
48
1
60
0
100
AcDbLine
10
-0.785228
20
10
30
0
11
-1.5
21
10
31
0
39
0
210
0
220
0
230
1
0
LINE
5
9A
100
AcDbEntity
8
SK1
62
256
6
ByLayer
370
18
48
1
60
0
100
AcDbLine
10
-0.785228
20
-9.925
30
0
11
-1.5
21
-9.925
31
0
39
0
210
0
220
0
230
1
0
LINE
5
9B
100
AcDbEntity
8
SK1
62
256
6
ByLayer
370
18
48
1
60
0
100
AcDbLine
10
-1.5
20
-9.925
30
0
11
-66
21
-9.925
31
0
39
0
210
0
220
0
230
1
0
LINE
5
9C
100
AcDbEntity
8
1
62
256
6
ByLayer
370
18
48
1
60
0
100
AcDbLine
10
0
20
3.527637
30
0
11
0
21
-9.941288
31
0
39
0
210
0
220
0
230
1
0
LINE
5
9D
100
AcDbEntity
8
1
62
256
6
ByLayer
370
18
48
1
60
0
100
AcDbLine
10
15.294852
20
4.412655
30
0
11
15.588604
21
3.993135
31
0
39
0
210
0
220
0
230
1
0
LINE
5
9E
100
AcDbEntity
8
1
62
256
6
ByLayer
370
18
48
1
60
0
100
AcDbLine
10
1.632088
20
-10.497635
30
0
11
0.755506
21
-10.262756
31
0
39
0
210
0
220
0
230
1
0
LINE
5
9F
100
AcDbEntity
8
1
62
256
6
ByLayer
370
18
48
1
60
0
100
AcDbLine
10
15.294852
20
4.412655
30
0
11
11.382551
21
10
31
0
39
0
210
0
220
0
230
1
0
LINE
5
A0
100
AcDbEntity
8
1
62
256
6
ByLayer
370
18
48
1
60
0
100
AcDbLine
10
15.588604
20
3.993135
30
0
11
21.507106
21
-4.459363
31
0
39
0
210
0
220
0
230
1
0
LINE
5
A1
100
AcDbEntity
8
1
62
256
6
ByLayer
370
18
48
1
60
0
100
AcDbLine
10
11.382551
20
10
30
0
11
8.273478
21
10
31
0
39
0
210
0
220
0
230
1
0
LINE
5
A2
100
AcDbEntity
8
1
62
256
6
ByLayer
370
18
48
1
60
0
100
AcDbLine
10
1.779574
20
10
30
0
11
0
21
10
31
0
39
0
210
0
220
0
230
1
0
LINE
5
A3
100
AcDbEntity
8
1
62
256
6
ByLayer
370
18
48
1
60
0
100
AcDbLine
10
2.176572
20
-10.643529
30
0
11
16.058994
21
-14.363313
31
0
39
0
210
0
220
0
230
1
0
LINE
5
A4
100
AcDbEntity
8
1
62
256
6
ByLayer
370
18
48
1
60
0
100
AcDbLine
10
1.632088
20
-10.497635
30
0
11
8.093256
21
-3.446508
31
0
39
0
210
0
220
0
230
1
0
LINE
5
A5
100
AcDbEntity
8
1
62
256
6
ByLayer
370
18
48
1
60
0
100
AcDbLine
10
1.632088
20
-10.497635
30
0
11
2.176572
21
-10.643529
31
0
39
0
210
0
220
0
230
1
0
LINE
5
A6
100
AcDbEntity
8
1
62
256
6
ByLayer
370
18
48
1
60
0
100
AcDbLine
10
0
20
10
30
0
11
0
21
7.725273
31
0
39
0
210
0
220
0
230
1
0
LINE
5
A7
100
AcDbEntity
8
1
62
256
6
ByLayer
370
18
48
1
60
0
100
AcDbLine
10
14.332143
20
3.362043
30
0
11
15.294852
21
4.412655
31
0
39
0
210
0
220
0
230
1
0
LINE
5
A8
100
AcDbEntity
8
1
62
256
6
ByLayer
370
18
48
1
60
0
100
AcDbLine
10
27.439694
20
-14.392813
30
0
11
21.791344
21
-5.353564
31
0
39
0
210
0
220
0
230
1
0
LINE
5
A9
100
AcDbEntity
8
1
62
256
6
ByLayer
370
18
48
1
60
0
100
AcDbLine
10
21.475546
20
-5.167544
30
0
11
10.831265
21
-4.609701
31
0
39
0
210
0
220
0
230
1
0
LINE
5
AA
100
AcDbEntity
8
1
62
256
6
ByLayer
370
18
48
1
60
0
100
AcDbLine
10
16.438074
20
-14.441613
30
0
11
27.082354
21
-14.999456
31
0
39
0
210
0
220
0
230
1
0
LINE
5
AB
100
AcDbEntity
8
1
62
256
6
ByLayer
370
18
48
1
60
0
100
AcDbLine
10
10.473925
20
-5.216344
30
0
11
16.122275
21
-14.255594
31
0
39
0
210
0
220
0
230
1
0
LINE
5
AC
100
AcDbEntity
8
SK2
62
256
6
ByLayer
370
13
48
1
60
0
100
AcDbLine
10
-83.60005
20
-10
30
0
11
-83.60005
21
10
31
0
39
0
210
0
220
0
230
1
0
LINE
5
AD
100
AcDbEntity
8
SK2
62
256
6
ByLayer
370
13
48
1
60
0
100
AcDbLine
10
-2
20
10
30
0
11
-85.60005
21
10
31
0
39
0
210
0
220
0
230
1
0
LINE
5
AE
100
AcDbEntity
8
SK2
62
256
6
ByLayer
370
13
48
1
60
0
100
AcDbLine
10
-2
20
-10
30
0
11
-85.60005
21
-10
31
0
39
0
210
0
220
0
230
1
0
LINE
5
AF
100
AcDbEntity
8
SK2
62
256
6
ByLayer
370
18
48
1
60
0
100
AcDbLine
10
-83.60005
20
10
30
0
11
-83.182053
21
6.825002
31
0
39
0
210
0
220
0
230
1
0
LINE
5
B0
100
AcDbEntity
8
SK2
62
256
6
ByLayer
370
18
48
1
60
0
100
AcDbLine
10
-83.60005
20
10
30
0
11
-84.018047
21
6.824998
31
0
39
0
210
0
220
0
230
1
0
LINE
5
B1
100
AcDbEntity
8
SK2
62
256
6
ByLayer
370
18
48
1
60
0
100
AcDbLine
10
-83.182053
20
6.825002
30
0
11
-84.018047
21
6.824998
31
0
39
0
210
0
220
0
230
1
0
LINE
5
B2
100
AcDbEntity
8
SK2
62
256
6
ByLayer
370
18
48
1
60
0
100
AcDbLine
10
-83.60005
20
-10
30
0
11
-84.018047
21
-6.825002
31
0
39
0
210
0
220
0
230
1
0
LINE
5
B3
100
AcDbEntity
8
SK2
62
256
6
ByLayer
370
18
48
1
60
0
100
AcDbLine
10
-83.60005
20
-10
30
0
11
-83.182053
21
-6.824998
31
0
39
0
210
0
220
0
230
1
0
LINE
5
B4
100
AcDbEntity
8
SK2
62
256
6
ByLayer
370
18
48
1
60
0
100
AcDbLine
10
-84.018047
20
-6.825002
30
0
11
-83.182053
21
-6.824998
31
0
39
0
210
0
220
0
230
1
0
MTEXT
5
113
100
AcDbEntity
8
SK6
62
256
6
ByLayer
370
18
48
1
60
0
100
AcDbMText
10
-36.307262
20
-57.124975
30
0
210
0
220
0
230
1
1
\W0.7544;QS-SDJCL202011C
40
3.5
41
0
44
1.084337
50
0
71
7
72
5
7
iso_b_vert
0
MTEXT
5
117
100
AcDbEntity
8
SK2
62
256
6
ByLayer
370
18
48
1
60
0
100
AcDbMText
10
-84.47505
20
-3.140789
30
0
210
0
220
0
230
1
1
\W0.7346;20.0
40
3.5
41
0
44
1.084337
50
89.9999999999999
71
7
72
5
7
iso_b_vert
0
DIMENSION
5
125
100
AcDbEntity
8
2
62
256
6
ByLayer
370
13
48
1
60
0
100
AcDbDimension
2
DimnDraft3D1
10
27.5
20
-28.1
30
0
11
9.642105
21
-28.1
31
0
70
32
71
5
72
1
41
1
210
0
220
0
230
1
3
Standard
100
AcDbAlignedDimension
13
0
23
8
33
0
14
27.5
24
-17
34
0
50
0
100
AcDbRotatedDimension
1001
ACAD
1000
DSTYLE
1002
{
1070
   279
1070
     0
1070
   172
1070
     1
1070
   173
1070
     1
1070
   340
1005
114
1070
   271
1070
     1
1070
    77
1070
     1
1070
    73
1070
     0
1070
   171
1070
     3
1070
   274
1070
     4
1070
   177
1070
     2
1070
   176
1070
     2
1070
   178
1070
     7
1070
    78
1070
     8
1070
    41
1041
3.175
1070
   147
1041
1.75
1070
    42
1041
2.0
1070
    44
1041
2.0
1070
   140
1041
3.5
1070
   343
1005
126
1070
   344
1005
126
1002
}
0
DIMENSION
5
13A
100
AcDbEntity
8
2
62
256
6
ByLayer
370
13
48
1
60
0
100
AcDbDimension
2
DimnDraft3D2
10
34.828087
20
-15
30
0
11
34.828087
21
-6.607895
31
0
70
32
71
5
72
1
41
1
210
0
220
0
230
1
3
Standard
100
AcDbAlignedDimension
13
2
23
10
33
0
14
29.5
24
-15
34
0
50
90
100
AcDbRotatedDimension
1001
ACAD
1000
DSTYLE
1002
{
1070
    74
1070
     0
1070
   279
1070
     0
1070
   172
1070
     1
1070
   173
1070
     1
1070
   340
1005
114
1070
   271
1070
     1
1070
    77
1070
     1
1070
    73
1070
     0
1070
   171
1070
     3
1070
   274
1070
     4
1070
   177
1070
     2
1070
   176
1070
     2
1070
   178
1070
     7
1070
    78
1070
     8
1070
    41
1041
3.175
1070
   147
1041
1.75
1070
    42
1041
2.0
1070
    44
1041
2.0
1070
   140
1041
3.5
1070
   343
1005
126
1070
   344
1005
126
1002
}
0
DIMENSION
5
148
100
AcDbEntity
8
2
62
256
6
ByLayer
370
13
48
1
60
0
100
AcDbDimension
2
DimnDraft3D3
10
27.237961
20
-10
30
0
11
33.972689
21
-8.791858
31
0
70
34
71
5
72
1
41
1
210
0
220
0
230
1
3
Standard
100
AcDb2LineAngularDimension
13
27.5
23
-15
33
0
14
32.5
24
-15
34
0
15
27.5
25
-15
35
0
16
31.608549
26
-10.670492
36
0
40
0
0
DIMENSION
5
156
100
AcDbEntity
8
SK2
62
256
6
ByLayer
370
13
48
1
60
0
100
AcDbDimension
2
DimnDraft3D4
10
27.5
20
23.321295
30
0
11
-24.857895
21
23.321295
31
0
70
32
71
5
72
1
41
1
210
0
220
0
230
1
3
Standard
100
AcDbAlignedDimension
13
-69
23
12
33
0
14
27.5
24
-13
34
0
50
0
100
AcDbRotatedDimension
1001
ACAD
1000
DSTYLE
1002
{
1070
   279
1070
     0
1070
   172
1070
     1
1070
   173
1070
     1
1070
   340
1005
114
1070
   271
1070
     1
1070
    77
1070
     1
1070
    73
1070
     0
1070
   171
1070
     3
1070
   274
1070
     4
1070
   177
1070
     2
1070
   176
1070
     2
1070
   178
1070
     7
1070
    78
1070
     8
1070
    41
1041
3.175
1070
   147
1041
1.75
1070
    42
1041
2.0
1070
    44
1041
2.0
1070
   140
1041
3.5
1070
   343
1005
126
1070
   344
1005
126
1002
}
0
DIMENSION
5
164
100
AcDbEntity
8
SK2
62
256
6
ByLayer
370
13
48
1
60
0
100
AcDbDimension
2
DimnDraft3D5
10
-66
20
-28.1
30
0
11
-70.230921
21
-28.1
31
0
70
32
71
5
72
1
41
1
210
0
220
0
230
1
3
Standard
100
AcDbAlignedDimension
13
-69
23
8
33
0
14
-66
24
-12
34
0
50
0
100
AcDbRotatedDimension
1001
ACAD
1000
DSTYLE
1002
{
1070
   279
1070
     0
1070
   172
1070
     1
1070
   173
1070
     1
1070
   340
1005
114
1070
    77
1070
     1
1070
    73
1070
     0
1070
   171
1070
     3
1070
   274
1070
     4
1070
   177
1070
     2
1070
   176
1070
     2
1070
   178
1070
     7
1070
    78
1070
     8
1070
    41
1041
3.175
1070
   147
1041
1.75
1070
    42
1041
2.0
1070
    44
1041
2.0
1070
   140
1041
3.5
1070
   343
1005
126
1070
   344
1005
126
1002
}
0
ENDSEC
0
SECTION
2
OBJECTS
0
DICTIONARY
5
1ce
330
0
100
AcDbDictionary
280
0
281
1
3
ACAD_GROUP
350
1cf
3
ACAD_MLINESTYLE
350
1d0
0
DICTIONARY
5
1cf
330
0
100
AcDbDictionary
280
0
281
1
0
DICTIONARY
5
1d0
330
0
100
AcDbDictionary
280
0
281
1
3
Standard
350
18
0
MLINESTYLE
5
18
330
1d0
100
AcDbMlineStyle
2
Standard
70
0
3

62
256
51
90
52
90
71
2
49
-0.5
62
256
6
ByLayer
49
0.5
62
256
6
ByLayer
0
RASTERVARIABLES
5
1bd
330

100
AcDbRasterVariables
90
0
70
1
71
1
72
1
0
ENDSEC
0
EOF
