0
SECTION
2
HEADER
9
$ACADVER
1
AC1015
9
$DWGCODEPAGE
3
ANSI_1252
9
$HANDSEED
5
1d9
9
$ANGBASE
50
0
9
$ANGDIR
70
0
9
$ATTMODE
70
1
9
$AUNITS
70
0
9
$AUPREC
70
0
9
$CECOLOR
62
256
9
$CELTSCALE
40
1
9
$CELTYPE
6
ByLayer
9
$CELWEIGHT
370
18
9
$CLAYER
8
0
9
$CMLJUST
70
0
9
$CMLSCALE
40
1
9
$CMLSTYLE
2
Standard
9
$DIMSTYLE
2
Standard
9
$TEXTSIZE
40
0.2
9
$TEXTSTYLE
7
Standard
9
$LUNITS
70
2
9
$LUPREC
70
4
9
$EXTNAMES
290
1
9
$INSUNITS
70
4
9
$LTSCALE
40
1
9
$LWDISPLAY
290
1
9
$PDMODE
70
0
9
$PDSIZE
40
0
9
$PLINEGEN
70
0
0
ENDSEC
0
SECTION
2
CLASSES
0
CLASS
1
RASTERVARIABLES
2
AcDbRasterVariables
3
ISM
90
0
280
0
281
0
0
ENDSEC
0
SECTION
2
TABLES
0
TABLE
2
VPORT
5
1cf
100
AcDbSymbolTable
0
VPORT
5
1
100
AcDbSymbolTableRecord
100
AcDbViewportTableRecord
2
*Active
70
0
10
0
20
0
11
1
21
1
12
-1
22
1
13
0
23
0
14
0.5
24
0.5
15
10
25
10
16
0
26
0
36
1
17
0
27
0
37
0
0
ENDTAB
0
TABLE
2
LTYPE
5
1d0
100
AcDbSymbolTable
0
LTYPE
5
14
100
AcDbSymbolTableRecord
100
AcDbLinetypeTableRecord
70
0
2
ByBlock
3

72
65
73
0
40
0
0
LTYPE
5
15
100
AcDbSymbolTableRecord
100
AcDbLinetypeTableRecord
70
0
2
ByLayer
3

72
65
73
0
40
0
0
LTYPE
5
16
100
AcDbSymbolTableRecord
100
AcDbLinetypeTableRecord
70
0
2
CONTINUOUS
3
Solid line
72
65
73
0
40
0
0
LTYPE
5
6A
100
AcDbSymbolTableRecord
100
AcDbLinetypeTableRecord
70
0
2
CENTER
3
____ _ ____ _ ____ _ ____
72
65
73
4
40
47.5
49
22
74
0
49
-8.5
74
0
49
8.5
74
0
49
-8.5
74
0
0
LTYPE
5
6B
100
AcDbSymbolTableRecord
100
AcDbLinetypeTableRecord
70
0
2
DASHED
3
__ __ __ __ __ __ __ __ __
72
65
73
2
40
25.72
49
12.86
74
0
49
-12.86
74
0
0
ENDTAB
0
TABLE
2
LAYER
5
1d1
100
AcDbSymbolTable
0
LAYER
5
10
100
AcDbSymbolTableRecord
100
AcDbLayerTableRecord
2
0
70
0
62
7
6
CONTINUOUS
290
1
370
-3
390
0
0
LAYER
5
6D
100
AcDbSymbolTableRecord
100
AcDbLayerTableRecord
2
80
70
0
62
-6
6
CONTINUOUS
290
1
370
-3
390
0
0
LAYER
5
6F
100
AcDbSymbolTableRecord
100
AcDbLayerTableRecord
2
81
70
0
62
-3
6
CONTINUOUS
290
1
370
-3
390
0
0
LAYER
5
71
100
AcDbSymbolTableRecord
100
AcDbLayerTableRecord
2
2
70
0
62
7
6
CONTINUOUS
290
1
370
-3
390
0
0
LAYER
5
7D
100
AcDbSymbolTableRecord
100
AcDbLayerTableRecord
2
1
70
0
62
4
6
CONTINUOUS
290
1
370
-3
390
0
0
LAYER
5
1bc
100
AcDbSymbolTableRecord
100
AcDbLayerTableRecord
2
SK2
70
0
62
7
6
CONTINUOUS
290
1
370
-3
390
0
0
LAYER
5
1bd
100
AcDbSymbolTableRecord
100
AcDbLayerTableRecord
2
SK1
70
0
62
4
6
CONTINUOUS
290
1
370
-3
390
0
0
LAYER
5
1be
100
AcDbSymbolTableRecord
100
AcDbLayerTableRecord
2
SK6
70
0
62
5
6
CONTINUOUS
290
1
370
-3
390
0
0
ENDTAB
0
TABLE
2
STYLE
5
1d2
100
AcDbSymbolTable
0
STYLE
5
11
100
AcDbSymbolTableRecord
100
AcDbTextStyleTableRecord
2
Standard
3
txt
70
0
71
0
40
0
41
1
42
0
50
0
0
STYLE
5
105
100
AcDbSymbolTableRecord
100
AcDbTextStyleTableRecord
2
iso_b_vert
3
simplex.shx
70
0
71
0
40
0
41
1
42
0
50
0
0
STYLE
5
106
100
AcDbSymbolTableRecord
100
AcDbTextStyleTableRecord
2
DWGDirectTextStyle
3
simplex
70
0
71
0
40
0
41
1
42
0
50
0
0
ENDTAB
0
TABLE
2
DIMSTYLE
5
1d3
100
AcDbSymbolTable
100
AcDbDimStyleTable
0
DIMSTYLE
105
27
100
AcDbSymbolTableRecord
100
AcDbDimStyleTableRecord
2
Standard
70
0
3
<>
41
0.18
42
0.0625
44
0.18
140
0.18
147
0.09
73
0
74
0
77
1
271
2
275
0
278
52
280
0
340
11
0
ENDTAB
0
TABLE
2
VIEW
5
1d4
100
AcDbSymbolTable
0
ENDTAB
0
TABLE
2
UCS
5
1d5
100
AcDbSymbolTable
0
ENDTAB
0
TABLE
2
APPID
5
1d6
100
AcDbSymbolTable
0
APPID
5
12
100
AcDbSymbolTableRecord
100
AcDbRegAppTableRecord
2
ACAD
70
0
0
ENDTAB
0
TABLE
2
BLOCK_RECORD
5
1d7
100
AcDbSymbolTable
0
BLOCK_RECORD
5
1F
100
AcDbSymbolTableRecord
100
AcDbBlockTableRecord
2
*Model_Space
340
0
70
0
0
BLOCK_RECORD
5
1B
100
AcDbSymbolTableRecord
100
AcDbBlockTableRecord
2
*Paper_Space
340
0
70
0
0
BLOCK_RECORD
5
23
100
AcDbSymbolTableRecord
100
AcDbBlockTableRecord
2
*Paper_Space0
340
0
70
0
0
BLOCK_RECORD
5
108
100
AcDbSymbolTableRecord
100
AcDbBlockTableRecord
2
DimnDraft3D1
340
0
70
0
0
BLOCK_RECORD
5
116
100
AcDbSymbolTableRecord
100
AcDbBlockTableRecord
2
_CLOSED
340
0
70
0
0
BLOCK_RECORD
5
11D
100
AcDbSymbolTableRecord
100
AcDbBlockTableRecord
2
DimnDraft3D2
340
0
70
0
0
BLOCK_RECORD
5
12B
100
AcDbSymbolTableRecord
100
AcDbBlockTableRecord
2
DimnDraft3D3
340
0
70
0
0
BLOCK_RECORD
5
139
100
AcDbSymbolTableRecord
100
AcDbBlockTableRecord
2
DimnDraft3D4
340
0
70
0
0
BLOCK_RECORD
5
147
100
AcDbSymbolTableRecord
100
AcDbBlockTableRecord
2
DimnDraft3D5
340
0
70
0
0
BLOCK_RECORD
5
155
100
AcDbSymbolTableRecord
100
AcDbBlockTableRecord
2
DimnDraft3D6
340
0
70
0
0
ENDTAB
0
ENDSEC
0
SECTION
2
BLOCKS
0
BLOCK
5
20
100
AcDbEntity
8
0
100
AcDbBlockBegin
2
*Model_Space
70
0
10
0
20
0
30
0
3
*Model_Space
0
ENDBLK
5
21
100
AcDbEntity
8
0
100
AcDbBlockEnd
0
BLOCK
5
1C
100
AcDbEntity
8
0
100
AcDbBlockBegin
2
*Paper_Space
70
0
10
0
20
0
30
0
3
*Paper_Space
0
ENDBLK
5
1D
100
AcDbEntity
8
0
100
AcDbBlockEnd
0
BLOCK
5
24
100
AcDbEntity
8
0
100
AcDbBlockBegin
2
*Paper_Space0
70
0
10
0
20
0
30
0
3
*Paper_Space0
0
ENDBLK
5
25
100
AcDbEntity
8
0
100
AcDbBlockEnd
0
BLOCK
5
113
100
AcDbEntity
8
0
100
AcDbBlockBegin
2
DimnDraft3D1
70
0
10
0
20
0
30
0
3
DimnDraft3D1
0
MTEXT
5
109
100
AcDbEntity
8
2
62
256
6
ByLayer
370
18
48
1
60
0
100
AcDbMText
10
33.647884
20
-0.732895
30
0
210
0
220
0
230
1
1
\W0.7346;25.0
40
3.5
41
0
44
1.084337
50
90
71
7
72
5
7
iso_b_vert
0
LINE
5
10A
100
AcDbEntity
8
2
62
256
6
ByLayer
370
13
48
1
60
0
100
AcDbLine
10
19
20
-10
30
0
11
36.522884
21
-10
31
0
39
0
210
0
220
0
230
1
0
LINE
5
10B
100
AcDbEntity
8
2
62
256
6
ByLayer
370
13
48
1
60
0
100
AcDbLine
10
26
20
15
30
0
11
36.522884
21
15
31
0
39
0
210
0
220
0
230
1
0
LINE
5
10C
100
AcDbEntity
8
2
62
256
6
ByLayer
370
13
48
1
60
0
100
AcDbLine
10
34.522884
20
-10
30
0
11
34.522884
21
15
31
0
39
0
210
0
220
0
230
1
0
LINE
5
10D
100
AcDbEntity
8
2
62
256
6
ByLayer
370
13
48
1
60
0
100
AcDbLine
10
34.522884
20
-10
30
0
11
34.104888
21
-6.825002
31
0
39
0
210
0
220
0
230
1
0
LINE
5
10E
100
AcDbEntity
8
2
62
256
6
ByLayer
370
13
48
1
60
0
100
AcDbLine
10
34.522884
20
-10
30
0
11
34.940881
21
-6.824998
31
0
39
0
210
0
220
0
230
1
0
LINE
5
10F
100
AcDbEntity
8
2
62
256
6
ByLayer
370
13
48
1
60
0
100
AcDbLine
10
34.104888
20
-6.825002
30
0
11
34.940881
21
-6.824998
31
0
39
0
210
0
220
0
230
1
0
LINE
5
110
100
AcDbEntity
8
2
62
256
6
ByLayer
370
13
48
1
60
0
100
AcDbLine
10
34.522884
20
15
30
0
11
34.940881
21
11.825002
31
0
39
0
210
0
220
0
230
1
0
LINE
5
111
100
AcDbEntity
8
2
62
256
6
ByLayer
370
13
48
1
60
0
100
AcDbLine
10
34.522884
20
15
30
0
11
34.104888
21
11.824998
31
0
39
0
210
0
220
0
230
1
0
LINE
5
112
100
AcDbEntity
8
2
62
256
6
ByLayer
370
13
48
1
60
0
100
AcDbLine
10
34.940881
20
11.825002
30
0
11
34.104888
21
11.824998
31
0
39
0
210
0
220
0
230
1
0
ENDBLK
5
114
100
AcDbEntity
8
0
100
AcDbBlockEnd
0
BLOCK
5
117
100
AcDbEntity
8
0
100
AcDbBlockBegin
2
_CLOSED
70
0
10
0
20
0
30
0
3
_CLOSED
0
LINE
5
119
100
AcDbEntity
8
0
62
256
6
ByLayer
370
-2
48
1
60
0
100
AcDbLine
10
-1
20
0.166667
30
0
11
0
21
0
31
0
39
0
210
0
220
0
230
1
0
LINE
5
11A
100
AcDbEntity
8
0
62
256
6
ByLayer
370
-2
48
1
60
0
100
AcDbLine
10
0
20
0
30
0
11
-1
21
-0.166667
31
0
39
0
210
0
220
0
230
1
0
LINE
5
11B
100
AcDbEntity
8
0
62
256
6
ByLayer
370
-2
48
1
60
0
100
AcDbLine
10
-1
20
0.166667
30
0
11
-1
21
-0.166667
31
0
39
0
210
0
220
0
230
1
0
LINE
5
11C
100
AcDbEntity
8
0
62
256
6
ByLayer
370
-2
48
1
60
0
100
AcDbLine
10
0
20
0
30
0
11
-1
21
0
31
0
39
0
210
0
220
0
230
1
0
ENDBLK
5
118
100
AcDbEntity
8
0
100
AcDbBlockEnd
0
BLOCK
5
128
100
AcDbEntity
8
0
100
AcDbBlockBegin
2
DimnDraft3D2
70
0
10
0
20
0
30
0
3
DimnDraft3D2
0
MTEXT
5
11E
100
AcDbEntity
8
SK2
62
256
6
ByLayer
370
18
48
1
60
0
100
AcDbMText
10
-84.47505
20
-3.232895
30
0
210
0
220
0
230
1
1
\W0.7346;20.0
40
3.5
41
0
44
1.084337
50
90
71
7
72
5
7
iso_b_vert
0
LINE
5
11F
100
AcDbEntity
8
SK2
62
256
6
ByLayer
370
13
48
1
60
0
100
AcDbLine
10
-2
20
10
30
0
11
-85.60005
21
10
31
0
39
0
210
0
220
0
230
1
0
LINE
5
120
100
AcDbEntity
8
SK2
62
256
6
ByLayer
370
13
48
1
60
0
100
AcDbLine
10
-71
20
-10
30
0
11
-85.60005
21
-10
31
0
39
0
210
0
220
0
230
1
0
LINE
5
121
100
AcDbEntity
8
SK2
62
256
6
ByLayer
370
13
48
1
60
0
100
AcDbLine
10
-83.60005
20
10
30
0
11
-83.60005
21
-10
31
0
39
0
210
0
220
0
230
1
0
LINE
5
122
100
AcDbEntity
8
SK2
62
256
6
ByLayer
370
13
48
1
60
0
100
AcDbLine
10
-83.60005
20
10
30
0
11
-83.182053
21
6.825002
31
0
39
0
210
0
220
0
230
1
0
LINE
5
123
100
AcDbEntity
8
SK2
62
256
6
ByLayer
370
13
48
1
60
0
100
AcDbLine
10
-83.60005
20
10
30
0
11
-84.018047
21
6.824998
31
0
39
0
210
0
220
0
230
1
0
LINE
5
124
100
AcDbEntity
8
SK2
62
256
6
ByLayer
370
13
48
1
60
0
100
AcDbLine
10
-83.182053
20
6.825002
30
0
11
-84.018047
21
6.824998
31
0
39
0
210
0
220
0
230
1
0
LINE
5
125
100
AcDbEntity
8
SK2
62
256
6
ByLayer
370
13
48
1
60
0
100
AcDbLine
10
-83.60005
20
-10
30
0
11
-84.018047
21
-6.825002
31
0
39
0
210
0
220
0
230
1
0
LINE
5
126
100
AcDbEntity
8
SK2
62
256
6
ByLayer
370
13
48
1
60
0
100
AcDbLine
10
-83.60005
20
-10
30
0
11
-83.182053
21
-6.824998
31
0
39
0
210
0
220
0
230
1
0
LINE
5
127
100
AcDbEntity
8
SK2
62
256
6
ByLayer
370
13
48
1
60
0
100
AcDbLine
10
-84.018047
20
-6.825002
30
0
11
-83.182053
21
-6.824998
31
0
39
0
210
0
220
0
230
1
0
ENDBLK
5
129
100
AcDbEntity
8
0
100
AcDbBlockEnd
0
BLOCK
5
136
100
AcDbEntity
8
0
100
AcDbBlockBegin
2
DimnDraft3D3
70
0
10
0
20
0
30
0
3
DimnDraft3D3
0
MTEXT
5
12C
100
AcDbEntity
8
2
62
256
6
ByLayer
370
18
48
1
60
0
100
AcDbMText
10
16.180447
20
18.739136
30
0
210
0
220
0
230
1
1
\W0.8292;95%%d0'
40
3
41
0
44
1.084337
50
39.5727452227697
71
7
72
5
7
iso_b_vert
0
LINE
5
12D
100
AcDbEntity
8
2
62
256
6
ByLayer
370
13
48
1
60
0
100
AcDbLine
10
24.174311
20
16.992389
30
0
11
24.794311
21
24.079011
31
0
39
0
210
0
220
0
230
1
0
LINE
5
12E
100
AcDbEntity
8
2
62
256
6
ByLayer
370
13
48
1
60
0
100
AcDbLine
10
22
20
15
30
0
11
14.886309
21
15
31
0
39
0
210
0
220
0
230
1
0
ARC
5
12F
100
AcDbEntity
8
2
62
256
6
ByLayer
370
13
48
1
60
0
100
AcDbCircle
39
0
10
24
20
15
30
0
40
7.11369128120759
210
0
220
0
230
1
100
AcDbArc
50
85
51
180
0
LINE
5
130
100
AcDbEntity
8
2
62
256
6
ByLayer
370
13
48
1
60
0
100
AcDbLine
10
24.619999
20
22.086622
30
0
11
21.455216
21
21.597251
31
0
39
0
210
0
220
0
230
1
0
LINE
5
131
100
AcDbEntity
8
2
62
256
6
ByLayer
370
13
48
1
60
0
100
AcDbLine
10
24.619999
20
22.086622
30
0
11
21.436392
21
22.433032
31
0
39
0
210
0
220
0
230
1
0
LINE
5
132
100
AcDbEntity
8
2
62
256
6
ByLayer
370
13
48
1
60
0
100
AcDbLine
10
21.455216
20
21.597251
30
0
11
21.436392
21
22.433032
31
0
39
0
210
0
220
0
230
1
0
LINE
5
133
100
AcDbEntity
8
2
62
256
6
ByLayer
370
13
48
1
60
0
100
AcDbLine
10
16.886309
20
15
30
0
11
16.818686
21
18.201681
31
0
39
0
210
0
220
0
230
1
0
LINE
5
134
100
AcDbEntity
8
2
62
256
6
ByLayer
370
13
48
1
60
0
100
AcDbLine
10
16.886309
20
15
30
0
11
17.649647
21
18.110092
31
0
39
0
210
0
220
0
230
1
0
LINE
5
135
100
AcDbEntity
8
2
62
256
6
ByLayer
370
13
48
1
60
0
100
AcDbLine
10
16.818686
20
18.201681
30
0
11
17.649647
21
18.110092
31
0
39
0
210
0
220
0
230
1
0
ENDBLK
5
137
100
AcDbEntity
8
0
100
AcDbBlockEnd
0
BLOCK
5
144
100
AcDbEntity
8
0
100
AcDbBlockBegin
2
DimnDraft3D4
70
0
10
0
20
0
30
0
3
DimnDraft3D4
0
MTEXT
5
13A
100
AcDbEntity
8
SK2
62
256
6
ByLayer
370
18
48
1
60
0
100
AcDbMText
10
-25.732895
20
-36.969955
30
0
210
0
220
0
230
1
1
\W0.7346;93.0
40
3.5
41
0
44
1.084337
50
0
71
7
72
5
7
iso_b_vert
0
LINE
5
13B
100
AcDbEntity
8
SK2
62
256
6
ByLayer
370
13
48
1
60
0
100
AcDbLine
10
-69
20
-12
30
0
11
-69
21
-39.844955
31
0
39
0
210
0
220
0
230
1
0
LINE
5
13C
100
AcDbEntity
8
SK2
62
256
6
ByLayer
370
13
48
1
60
0
100
AcDbLine
10
24
20
13
30
0
11
24
21
-39.844955
31
0
39
0
210
0
220
0
230
1
0
LINE
5
13D
100
AcDbEntity
8
SK2
62
256
6
ByLayer
370
13
48
1
60
0
100
AcDbLine
10
-69
20
-37.844955
30
0
11
24
21
-37.844955
31
0
39
0
210
0
220
0
230
1
0
LINE
5
13E
100
AcDbEntity
8
SK2
62
256
6
ByLayer
370
13
48
1
60
0
100
AcDbLine
10
-69
20
-37.844955
30
0
11
-65.825002
21
-37.426958
31
0
39
0
210
0
220
0
230
1
0
LINE
5
13F
100
AcDbEntity
8
SK2
62
256
6
ByLayer
370
13
48
1
60
0
100
AcDbLine
10
-69
20
-37.844955
30
0
11
-65.824998
21
-38.262951
31
0
39
0
210
0
220
0
230
1
0
LINE
5
140
100
AcDbEntity
8
SK2
62
256
6
ByLayer
370
13
48
1
60
0
100
AcDbLine
10
-65.825002
20
-37.426958
30
0
11
-65.824998
21
-38.262951
31
0
39
0
210
0
220
0
230
1
0
LINE
5
141
100
AcDbEntity
8
SK2
62
256
6
ByLayer
370
13
48
1
60
0
100
AcDbLine
10
24
20
-37.844955
30
0
11
20.825002
21
-38.262951
31
0
39
0
210
0
220
0
230
1
0
LINE
5
142
100
AcDbEntity
8
SK2
62
256
6
ByLayer
370
13
48
1
60
0
100
AcDbLine
10
24
20
-37.844955
30
0
11
20.824998
21
-37.426958
31
0
39
0
210
0
220
0
230
1
0
LINE
5
143
100
AcDbEntity
8
SK2
62
256
6
ByLayer
370
13
48
1
60
0
100
AcDbLine
10
20.825002
20
-38.262951
30
0
11
20.824998
21
-37.426958
31
0
39
0
210
0
220
0
230
1
0
ENDBLK
5
145
100
AcDbEntity
8
0
100
AcDbBlockEnd
0
BLOCK
5
152
100
AcDbEntity
8
0
100
AcDbBlockBegin
2
DimnDraft3D5
70
0
10
0
20
0
30
0
3
DimnDraft3D5
0
MTEXT
5
148
100
AcDbEntity
8
2
62
256
6
ByLayer
370
18
48
1
60
0
100
AcDbMText
10
8.582895
20
-22.22505
30
0
210
0
220
0
230
1
1
\W0.7640;24.0
40
3.5
41
0
44
1.084337
50
0
71
7
72
5
7
iso_b_vert
0
LINE
5
149
100
AcDbEntity
8
2
62
256
6
ByLayer
370
13
48
1
60
0
100
AcDbLine
10
0
20
8
30
0
11
0
21
-25.10005
31
0
39
0
210
0
220
0
230
1
0
LINE
5
14A
100
AcDbEntity
8
2
62
256
6
ByLayer
370
13
48
1
60
0
100
AcDbLine
10
24
20
13
30
0
11
24
21
-25.10005
31
0
39
0
210
0
220
0
230
1
0
LINE
5
14B
100
AcDbEntity
8
2
62
256
6
ByLayer
370
13
48
1
60
0
100
AcDbLine
10
0
20
-23.10005
30
0
11
24
21
-23.10005
31
0
39
0
210
0
220
0
230
1
0
LINE
5
14C
100
AcDbEntity
8
2
62
256
6
ByLayer
370
13
48
1
60
0
100
AcDbLine
10
0
20
-23.10005
30
0
11
3.174998
21
-22.682053
31
0
39
0
210
0
220
0
230
1
0
LINE
5
14D
100
AcDbEntity
8
2
62
256
6
ByLayer
370
13
48
1
60
0
100
AcDbLine
10
0
20
-23.10005
30
0
11
3.175002
21
-23.518047
31
0
39
0
210
0
220
0
230
1
0
LINE
5
14E
100
AcDbEntity
8
2
62
256
6
ByLayer
370
13
48
1
60
0
100
AcDbLine
10
3.174998
20
-22.682053
30
0
11
3.175002
21
-23.518047
31
0
39
0
210
0
220
0
230
1
0
LINE
5
14F
100
AcDbEntity
8
2
62
256
6
ByLayer
370
13
48
1
60
0
100
AcDbLine
10
24
20
-23.10005
30
0
11
20.825002
21
-23.518047
31
0
39
0
210
0
220
0
230
1
0
LINE
5
150
100
AcDbEntity
8
2
62
256
6
ByLayer
370
13
48
1
60
0
100
AcDbLine
10
24
20
-23.10005
30
0
11
20.824998
21
-22.682053
31
0
39
0
210
0
220
0
230
1
0
LINE
5
151
100
AcDbEntity
8
2
62
256
6
ByLayer
370
13
48
1
60
0
100
AcDbLine
10
20.825002
20
-23.518047
30
0
11
20.824998
21
-22.682053
31
0
39
0
210
0
220
0
230
1
0
ENDBLK
5
153
100
AcDbEntity
8
0
100
AcDbBlockEnd
0
BLOCK
5
160
100
AcDbEntity
8
0
100
AcDbBlockBegin
2
DimnDraft3D6
70
0
10
0
20
0
30
0
3
DimnDraft3D6
0
MTEXT
5
156
100
AcDbEntity
8
SK2
62
256
6
ByLayer
370
18
48
1
60
0
100
AcDbMText
10
-54.87
20
-22.22505
30
0
210
0
220
0
230
1
1
\W0.7121;3.0
40
3.5
41
0
44
1.084337
50
0
71
7
72
5
7
iso_b_vert
0
LINE
5
157
100
AcDbEntity
8
SK2
62
256
6
ByLayer
370
13
48
1
60
0
100
AcDbLine
10
-69
20
-12
30
0
11
-69
21
-25.10005
31
0
39
0
210
0
220
0
230
1
0
LINE
5
158
100
AcDbEntity
8
SK2
62
256
6
ByLayer
370
13
48
1
60
0
100
AcDbLine
10
-66
20
-12
30
0
11
-66
21
-25.10005
31
0
39
0
210
0
220
0
230
1
0
LINE
5
159
100
AcDbEntity
8
SK2
62
256
6
ByLayer
370
13
48
1
60
0
100
AcDbLine
10
-50.145
20
-23.10005
30
0
11
-77.75
21
-23.10005
31
0
39
0
210
0
220
0
230
1
0
LINE
5
15A
100
AcDbEntity
8
SK2
62
256
6
ByLayer
370
13
48
1
60
0
100
AcDbLine
10
-69
20
-23.10005
30
0
11
-72.174998
21
-23.518047
31
0
39
0
210
0
220
0
230
1
0
LINE
5
15B
100
AcDbEntity
8
SK2
62
256
6
ByLayer
370
13
48
1
60
0
100
AcDbLine
10
-69
20
-23.10005
30
0
11
-72.175002
21
-22.682053
31
0
39
0
210
0
220
0
230
1
0
LINE
5
15C
100
AcDbEntity
8
SK2
62
256
6
ByLayer
370
13
48
1
60
0
100
AcDbLine
10
-72.174998
20
-23.518047
30
0
11
-72.175002
21
-22.682053
31
0
39
0
210
0
220
0
230
1
0
LINE
5
15D
100
AcDbEntity
8
SK2
62
256
6
ByLayer
370
13
48
1
60
0
100
AcDbLine
10
-66
20
-23.10005
30
0
11
-62.825002
21
-22.682053
31
0
39
0
210
0
220
0
230
1
0
LINE
5
15E
100
AcDbEntity
8
SK2
62
256
6
ByLayer
370
13
48
1
60
0
100
AcDbLine
10
-66
20
-23.10005
30
0
11
-62.824998
21
-23.518047
31
0
39
0
210
0
220
0
230
1
0
LINE
5
15F
100
AcDbEntity
8
SK2
62
256
6
ByLayer
370
13
48
1
60
0
100
AcDbLine
10
-62.825002
20
-22.682053
30
0
11
-62.824998
21
-23.518047
31
0
39
0
210
0
220
0
230
1
0
ENDBLK
5
161
100
AcDbEntity
8
0
100
AcDbBlockEnd
0
ENDSEC
0
SECTION
2
ENTITIES
0
ARC
5
AB
100
AcDbEntity
8
1
62
256
6
ByLayer
370
13
48
1
60
0
100
AcDbCircle
39
0
10
-12.377851
20
-1.716921
30
0
40
4.42238554666492
210
0
220
0
230
-1
100
AcDbArc
50
178.398454
51
215.709669
0
ARC
5
AC
100
AcDbEntity
8
1
62
256
6
ByLayer
370
13
48
1
60
0
100
AcDbCircle
39
0
10
11.336779
20
-30.117913
30
0
40
40.4581655870087
210
0
220
0
230
-1
100
AcDbArc
50
122.924003
51
133.075997
0
ARC
5
B0
100
AcDbEntity
8
1
62
256
6
ByLayer
370
13
48
1
60
0
100
AcDbCircle
39
0
10
38.70626
20
-24.163347
30
0
40
39.8284740297181
210
0
220
0
230
1
100
AcDbArc
50
139.709669
51
148.167856
0
ARC
5
B1
100
AcDbEntity
8
1
62
256
6
ByLayer
370
13
48
1
60
0
100
AcDbCircle
39
0
10
-17.665596
20
19.879174
30
0
40
39.8284740297181
210
0
220
0
230
1
100
AcDbArc
50
315.832144
51
324.290331
0
ARC
5
B2
100
AcDbEntity
8
1
62
256
6
ByLayer
370
13
48
1
60
0
100
AcDbCircle
39
0
10
12.377851
20
-1.716921
30
0
40
2.82847402971813
210
0
220
0
230
1
100
AcDbArc
50
324.290331
51
50.138354
0
ARC
5
B3
100
AcDbEntity
8
1
62
256
6
ByLayer
370
13
48
1
60
0
100
AcDbCircle
39
0
10
10.483494
20
-0.236887
30
0
40
2.82847402971813
210
0
220
0
230
1
100
AcDbArc
50
53.861646
51
139.709669
0
ARC
5
B4
100
AcDbEntity
8
1
62
256
6
ByLayer
370
13
48
1
60
0
100
AcDbCircle
39
0
10
-8.140557
20
-5.18806
30
0
40
5.44567477116266
210
0
220
0
230
-1
100
AcDbArc
50
224.167856
51
242.082923
0
ARC
5
B5
100
AcDbEntity
8
1
62
256
6
ByLayer
370
13
48
1
60
0
100
AcDbCircle
39
0
10
-8.140557
20
-5.18806
30
0
40
5.44567477116266
210
0
220
0
230
-1
100
AcDbArc
50
297.917077
51
31.832144
0
ARC
5
B6
100
AcDbEntity
8
1
62
256
6
ByLayer
370
13
48
1
60
0
100
AcDbCircle
39
0
10
8.140557
20
-5.18806
30
0
40
3.85176325421587
210
0
220
0
230
1
100
AcDbArc
50
148.167856
51
315.832144
0
ARC
5
B7
100
AcDbEntity
8
1
62
256
6
ByLayer
370
13
48
1
60
0
100
AcDbCircle
39
0
10
-11.336779
20
-30.117913
30
0
40
39.9600682379629
210
0
220
0
230
1
100
AcDbArc
50
46.892444
51
57.107556
0
ARC
5
B8
100
AcDbEntity
8
1
62
256
6
ByLayer
370
13
48
1
60
0
100
AcDbCircle
39
0
10
17.665596
20
19.879174
30
0
40
41.4223855466649
210
0
220
0
230
-1
100
AcDbArc
50
215.709669
51
224.167856
0
ARC
5
B9
100
AcDbEntity
8
1
62
256
6
ByLayer
370
13
48
1
60
0
100
AcDbCircle
39
0
10
-38.70626
20
-24.163347
30
0
40
41.4223855466649
210
0
220
0
230
-1
100
AcDbArc
50
31.832144
51
40.290331
0
ARC
5
BA
100
AcDbEntity
8
1
62
256
6
ByLayer
370
18
48
1
60
0
100
AcDbCircle
39
0
10
14.672567
20
4.638781
30
0
40
1.6
210
0
220
0
230
1
100
AcDbArc
50
128.433759
51
301.306083
0
ARC
5
BB
100
AcDbEntity
8
1
62
256
6
ByLayer
370
18
48
1
60
0
100
AcDbCircle
39
0
10
14.672567
20
4.638781
30
0
40
1.5
210
0
220
0
230
1
100
AcDbArc
50
132.16734
51
302.214109
0
ARC
5
BC
100
AcDbEntity
8
1
62
256
6
ByLayer
370
13
48
1
60
0
100
AcDbCircle
39
0
10
-10.483494
20
-0.236887
30
0
40
4.42238554666492
210
0
220
0
230
-1
100
AcDbArc
50
40.290331
51
77.601546
0
ARC
5
BD
100
AcDbEntity
8
1
62
256
6
ByLayer
370
18
48
1
60
0
100
AcDbCircle
39
0
10
-1.772277
20
11.525
30
0
40
1.6
210
0
220
0
230
-1
100
AcDbArc
50
260.760972
51
270
0
ARC
5
BE
100
AcDbEntity
8
1
62
256
6
ByLayer
370
18
48
1
60
0
100
AcDbCircle
39
0
10
-15.367062
20
4.980025
30
0
40
1.71376468136632
210
0
220
0
230
-1
100
AcDbArc
50
185
51
265.418835
0
ARC
5
BF
100
AcDbEntity
8
1
62
256
6
ByLayer
370
18
48
1
60
0
100
AcDbCircle
39
0
10
15.367062
20
4.980025
30
0
40
1.61376468136632
210
0
220
0
230
1
100
AcDbArc
50
273.735287
51
355
0
ARC
5
C0
100
AcDbEntity
8
1
62
256
6
ByLayer
370
18
48
1
60
0
100
AcDbCircle
39
0
10
1.772277
20
11.525
30
0
40
1.6
210
0
220
0
230
1
100
AcDbArc
50
300.503687
51
326.857232
0
ARC
5
C1
100
AcDbEntity
8
1
62
256
6
ByLayer
370
13
48
1
60
0
100
AcDbCircle
39
0
10
14.770919
20
13.830407
30
0
40
0.396875000000001
210
0
220
0
230
1
100
AcDbArc
50
95
51
175
0
ARC
5
C2
100
AcDbEntity
8
1
62
256
6
ByLayer
370
13
48
1
60
0
100
AcDbCircle
39
0
10
22.830407
20
5.770919
30
0
40
0.396875000000001
210
0
220
0
230
1
100
AcDbArc
50
275
51
355
0
ARC
5
C3
100
AcDbEntity
8
1
62
256
6
ByLayer
370
13
48
1
60
0
100
AcDbCircle
39
0
10
23.603125
20
14.603125
30
0
40
0.396875000000001
210
0
220
0
230
1
100
AcDbArc
50
355
51
95
0
ARC
5
C5
100
AcDbEntity
8
1
62
256
6
ByLayer
370
13
48
1
60
0
100
AcDbCircle
39
0
10
13.998201
20
4.998201
30
0
40
0.396875000000001
210
0
220
0
230
1
100
AcDbArc
50
175
51
275
0
ARC
5
C6
100
AcDbEntity
8
1
62
256
6
ByLayer
370
18
48
1
60
0
100
AcDbCircle
39
0
10
-18.800663
20
9.800663
30
0
40
1.6764
210
0
220
0
230
-1
100
AcDbArc
50
105
51
165
0
ARC
5
C8
100
AcDbEntity
8
1
62
256
6
ByLayer
370
18
48
1
60
0
100
AcDbCircle
39
0
10
-18.800663
20
9.800663
30
0
40
1.6764
210
0
220
0
230
-1
100
AcDbArc
50
225
51
285
0
ARC
5
C9
100
AcDbEntity
8
1
62
256
6
ByLayer
370
18
48
1
60
0
100
AcDbCircle
39
0
10
-18.800663
20
9.800663
30
0
40
1.2903
210
0
220
0
230
-1
100
AcDbArc
50
315
51
15
0
ARC
5
CA
100
AcDbEntity
8
1
62
256
6
ByLayer
370
18
48
1
60
0
100
AcDbCircle
39
0
10
-18.800663
20
9.800663
30
0
40
1.2903
210
0
220
0
230
-1
100
AcDbArc
50
135
51
195
0
ARC
5
CB
100
AcDbEntity
8
1
62
256
6
ByLayer
370
18
48
1
60
0
100
AcDbCircle
39
0
10
18.800663
20
9.800663
30
0
40
1.2903
210
0
220
0
230
1
100
AcDbArc
50
45
51
105
0
ARC
5
CC
100
AcDbEntity
8
1
62
256
6
ByLayer
370
18
48
1
60
0
100
AcDbCircle
39
0
10
-18.800663
20
9.800663
30
0
40
1.6764
210
0
220
0
230
-1
100
AcDbArc
50
285
51
345
0
ARC
5
CD
100
AcDbEntity
8
1
62
256
6
ByLayer
370
18
48
1
60
0
100
AcDbCircle
39
0
10
-18.800663
20
9.800663
30
0
40
1.2903
210
0
220
0
230
-1
100
AcDbArc
50
15
51
75
0
ARC
5
CE
100
AcDbEntity
8
1
62
256
6
ByLayer
370
18
48
1
60
0
100
AcDbCircle
39
0
10
-18.800663
20
9.800663
30
0
40
1.6764
210
0
220
0
230
-1
100
AcDbArc
50
345
51
45
0
ARC
5
CF
100
AcDbEntity
8
1
62
256
6
ByLayer
370
18
48
1
60
0
100
AcDbCircle
39
0
10
-18.800663
20
9.800663
30
0
40
1.6764
210
0
220
0
230
-1
100
AcDbArc
50
45
51
105
0
ARC
5
D0
100
AcDbEntity
8
1
62
256
6
ByLayer
370
18
48
1
60
0
100
AcDbCircle
39
0
10
-18.800663
20
9.800663
30
0
40
1.6764
210
0
220
0
230
-1
100
AcDbArc
50
165
51
225
0
ARC
5
D1
100
AcDbEntity
8
1
62
256
6
ByLayer
370
18
48
1
60
0
100
AcDbCircle
39
0
10
-18.800663
20
9.800663
30
0
40
1.2903
210
0
220
0
230
-1
100
AcDbArc
50
195
51
255
0
ARC
5
D2
100
AcDbEntity
8
1
62
256
6
ByLayer
370
18
48
1
60
0
100
AcDbCircle
39
0
10
-18.800663
20
9.800663
30
0
40
1.2903
210
0
220
0
230
-1
100
AcDbArc
50
255
51
315
0
CIRCLE
5
AD
100
AcDbEntity
8
1
62
256
6
ByLayer
370
13
48
1
60
0
100
AcDbCircle
10
-18.800663
20
9.800663
30
0
40
3.00996076008173
39
0
210
0
220
0
230
-1
0
CIRCLE
5
AE
100
AcDbEntity
8
1
62
256
6
ByLayer
370
13
48
1
60
0
100
AcDbCircle
10
18.800663
20
9.800663
30
0
40
2.92104776440213
39
0
210
0
220
0
230
1
0
CIRCLE
5
AF
100
AcDbEntity
8
1
62
256
6
ByLayer
370
13
48
1
60
0
100
AcDbCircle
10
18.800663
20
9.800663
30
0
40
1.8
39
0
210
0
220
0
230
1
0
CIRCLE
5
C4
100
AcDbEntity
8
1
62
256
6
ByLayer
370
13
48
1
60
0
100
AcDbCircle
10
18.800663
20
9.800663
30
0
40
3.07132534818253
39
0
210
0
220
0
230
1
0
CIRCLE
5
C7
100
AcDbEntity
8
1
62
256
6
ByLayer
370
18
48
1
60
0
100
AcDbCircle
10
18.800663
20
9.800663
30
0
40
2.625
39
0
210
0
220
0
230
1
0
POINT
5
6C
100
AcDbEntity
8
80
62
256
6
ByLayer
370
18
48
1
60
0
100
AcDbPoint
10
0
20
0
30
0
39
0
210
0
220
0
230
1
50
360
0
POINT
5
6E
100
AcDbEntity
8
81
62
256
6
ByLayer
370
18
48
1
60
0
100
AcDbPoint
10
24
20
15
30
0
39
0
210
0
220
0
230
1
50
360
0
POINT
5
70
100
AcDbEntity
8
2
62
256
6
ByLayer
370
18
48
1
60
0
100
AcDbPoint
10
18.800663
20
9.800663
30
0
39
0
210
0
220
0
230
1
50
360
0
POINT
5
72
100
AcDbEntity
8
2
62
256
6
ByLayer
370
18
48
1
60
0
100
AcDbPoint
10
18.800663
20
9.800663
30
0
39
0
210
0
220
0
230
1
50
360
0
POINT
5
73
100
AcDbEntity
8
2
62
256
6
ByLayer
370
18
48
1
60
0
100
AcDbPoint
10
18.51782
20
9.588531
30
0
39
0
210
0
220
0
230
1
50
360
0
POINT
5
74
100
AcDbEntity
8
SK2
62
256
6
ByLayer
370
18
48
1
60
0
100
AcDbPoint
10
23.603125
20
14.603125
30
0
39
0
210
0
220
0
230
1
50
360
0
POINT
5
76
100
AcDbEntity
8
SK2
62
256
6
ByLayer
370
18
48
1
60
0
100
AcDbPoint
10
21.809975
20
14.446245
30
0
39
0
210
0
220
0
230
1
50
360
0
POINT
5
77
100
AcDbEntity
8
SK2
62
256
6
ByLayer
370
18
48
1
60
0
100
AcDbPoint
10
19.618346
20
14.254502
30
0
39
0
210
0
220
0
230
1
50
360
0
POINT
5
78
100
AcDbEntity
8
SK2
62
256
6
ByLayer
370
18
48
1
60
0
100
AcDbPoint
10
23.446245
20
12.809975
30
0
39
0
210
0
220
0
230
1
50
360
0
POINT
5
79
100
AcDbEntity
8
SK2
62
256
6
ByLayer
370
18
48
1
60
0
100
AcDbPoint
10
23.254502
20
10.618346
30
0
39
0
210
0
220
0
230
1
50
360
0
SPLINE
5
D3
100
AcDbEntity
8
1
62
256
6
ByLayer
370
18
48
1
60
0
100
AcDbSpline
70
4
71
3
72
8
73
4
40
0
40
0
40
0
40
0
40
1
40
1
40
1
40
1
41
1
10
15.5039424587688
20
3.27173521270782
30
0
41
1
10
15.4933774573924
20
3.30436013632618
30
0
41
1
10
15.4827957115696
20
3.33700943638419
30
0
41
1
10
15.4721936890598
20
3.3696882024515
30
0
0
SPLINE
5
D4
100
AcDbEntity
8
1
62
256
6
ByLayer
370
18
48
1
60
0
100
AcDbSpline
70
4
71
3
72
18
73
14
40
0
40
0
40
0
40
0
40
0.0203676344849595
40
0.0203676344849595
40
0.0904676656911082
40
0.0904676656911082
40
0.318076695405393
40
0.318076695405393
40
0.545462898242904
40
0.545462898242904
40
0.7727275238897
40
0.7727275238897
40
1
40
1
40
1
40
1
41
1
10
16.2948466089187
20
-0.565308235686842
30
0
41
1
10
16.2915889102011
20
-0.569117360724391
30
0
41
1
10
16.2883308603764
20
-0.572926928022298
30
0
41
1
10
16.2737219120118
20
-0.590008571288081
30
0
41
1
10
16.2623713935951
20
-0.60327987861524
30
0
41
1
10
16.2150394224057
20
-0.658620000056999
30
0
41
1
10
16.1793069274724
20
-0.700394014880203
30
0
41
1
10
16.1144734628653
20
-0.776183186711819
30
0
41
1
10
16.0844744188548
20
-0.811248258002848
30
0
41
1
10
16.0342611928038
20
-0.869937779672199
30
0
41
1
10
16.0133511553898
20
-0.894375646355229
30
0
41
1
10
15.9833805113493
20
-0.92940181933966
30
0
41
1
10
15.9739076091325
20
-0.940472040297408
30
0
41
1
10
15.9707352733008
20
-0.944179316599246
30
0
0
SPLINE
5
D5
100
AcDbEntity
8
1
62
256
6
ByLayer
370
18
48
1
60
0
100
AcDbSpline
70
4
71
3
72
16
73
12
40
0
40
0
40
0
40
0
40
0.1655866461748
40
0.1655866461748
40
0.329527585543827
40
0.329527585543827
40
0.561851550983079
40
0.561851550983079
40
0.797151180508671
40
0.797151180508671
40
1
40
1
40
1
40
1
41
1
10
2.02915757310279
20
9.94575582161477
30
0
41
1
10
2.02916745452626
20
9.94575736351982
30
0
41
1
10
2.03846746500233
20
9.94720854443727
30
0
41
1
10
2.07150773295115
20
9.9531409242492
30
0
41
1
10
2.09531243990295
20
9.95768651110694
30
0
41
1
10
2.16281093658617
20
9.97286527152301
30
0
41
1
10
2.21165521389997
20
9.98553307235147
30
0
41
1
10
2.31680680327875
20
10.0194833734606
30
0
41
1
10
2.37473791405353
20
10.0413802032961
30
0
41
1
10
2.48325405499111
20
10.0905801040241
30
0
41
1
10
2.53489838507676
20
10.1172667772043
30
0
41
1
10
2.58442691519122
20
10.1464456043971
30
0
0
SPLINE
5
D6
100
AcDbEntity
8
1
62
256
6
ByLayer
370
18
48
1
60
0
100
AcDbSpline
70
4
71
3
72
16
73
12
40
0
40
0
40
0
40
0
40
0.215915271053927
40
0.215915271053927
40
0.439857319495251
40
0.439857319495251
40
0.664458833221772
40
0.664458833221772
40
0.889826622418079
40
0.889826622418079
40
1
40
1
40
1
40
1
41
1
10
8.71840017674236
20
1.25950922912458
30
0
41
1
10
8.87895138991004
20
1.44851963527907
30
0
41
1
10
9.07292289661959
20
1.61327016565136
30
0
41
1
10
9.50558072283158
20
1.87371870207764
30
0
41
1
10
9.75164954765705
20
1.97014416721643
30
0
41
1
10
10.2555450809221
20
2.07519338538441
30
0
41
1
10
10.520336469558
20
2.0850161558233
30
0
41
1
10
11.0322362712209
20
2.01755197291263
30
0
41
1
10
11.2863475557711
20
1.93903747759794
30
0
41
1
10
11.6304550080639
20
1.76500724765532
30
0
41
1
10
11.7393539860348
20
1.6981509415464
30
0
41
1
10
11.8416987813173
20
1.62306033125461
30
0
0
SPLINE
5
D7
100
AcDbEntity
8
1
62
256
6
ByLayer
370
18
48
1
60
0
100
AcDbSpline
70
4
71
3
72
11
73
7
40
0
40
0
40
0
40
0
40
0.184072946952608
40
0.184072946952608
40
0.184072946952608
40
1
40
1
40
1
40
1
41
1
10
9.53396793627661
20
4.08235998626796
30
0
41
1
10
9.60513779351854
20
4.0267559997643
30
0
41
1
10
9.67638093781142
20
3.97109475514114
30
0
41
1
10
9.74722453977427
20
3.9157456671976
30
0
41
1
10
10.05694534893
20
3.67376525077424
30
0
41
1
10
10.3625058441343
20
3.4350352278428
30
0
41
1
10
10.6473391807719
20
3.21249903597791
30
0
0
SPLINE
5
D8
100
AcDbEntity
8
1
62
256
6
ByLayer
370
18
48
1
60
0
100
AcDbSpline
70
4
71
3
72
26
73
22
40
0
40
0
40
0
40
0
40
0.0549207229849256
40
0.0549207229849256
40
0.169474728236737
40
0.169474728236737
40
0.284289492089366
40
0.284289492089366
40
0.399586187264316
40
0.399586187264316
40
0.51512902004152
40
0.51512902004152
40
0.630688205901755
40
0.630688205901755
40
0.746252516913552
40
0.746252516913552
40
0.861778392217114
40
0.861778392217114
40
0.976999583989543
40
0.976999583989543
40
1
40
1
40
1
40
1
41
1
10
10.5365571057528
20
-7.51545384993216
30
0
41
1
10
10.4121307092674
20
-7.64356939360835
30
0
41
1
10
10.2768968947169
20
-7.76199804525018
30
0
41
1
10
9.83553140304323
20
-8.08960880273335
30
0
41
1
10
9.49542212604177
20
-8.26245071017712
30
0
41
1
10
8.78628531191583
20
-8.48358938313979
30
0
41
1
10
8.40745648036201
20
-8.53466318225142
30
0
41
1
10
7.66273017203855
20
-8.50951033336347
30
0
41
1
10
7.2866275649728
20
-8.43241088448147
30
0
41
1
10
6.58967638384439
20
-8.16182976666371
30
0
41
1
10
6.25933258828647
20
-7.96436469643749
30
0
41
1
10
5.69026204614701
20
-7.47805857773415
30
0
41
1
10
5.44370126742677
20
-7.18249992638067
30
0
41
1
10
5.06743714309837
20
-6.53547916393705
30
0
41
1
10
4.93254231317786
20
-6.17508101366258
30
0
41
1
10
4.79182113037353
20
-5.44022655464334
30
0
41
1
10
4.7840161279141
20
-5.05559444979389
30
0
41
1
10
4.89504890419795
20
-4.316697385173
30
0
41
1
10
5.01511582796005
20
-3.95212566528207
30
0
41
1
10
5.22525754879803
20
-3.55579715952754
30
0
41
1
10
5.2628737920702
20
-3.49034092156515
30
0
41
1
10
5.30265134457042
20
-3.42627850822964
30
0
0
SPLINE
5
D9
100
AcDbEntity
8
1
62
256
6
ByLayer
370
18
48
1
60
0
100
AcDbSpline
70
4
71
3
72
20
73
16
40
0
40
0
40
0
40
0
40
0.109553228301106
40
0.109553228301106
40
0.288818970945556
40
0.288818970945556
40
0.458643065915164
40
0.458643065915164
40
0.620573771389654
40
0.620573771389654
40
0.780427704314118
40
0.780427704314118
40
0.86904451810167
40
0.86904451810167
40
1
40
1
40
1
40
1
41
1
10
14.1246066661212
20
0.375019733649907
30
0
41
1
10
14.0835080812836
20
0.420121165715102
30
0
41
1
10
14.034196011657
20
0.471251135839026
30
0
41
1
10
13.8861433081825
20
0.617491421283518
30
0
41
1
10
13.7731444214827
20
0.722488577118355
30
0
41
1
10
13.5295977737044
20
0.936190829067215
30
0
41
1
10
13.396738292111
20
1.04746884697983
30
0
41
1
10
13.131782342963
20
1.25918922328134
30
0
41
1
10
12.9963146892041
20
1.36278113808703
30
0
41
1
10
12.737849999733
20
1.55184993363915
30
0
41
1
10
12.6113012187623
20
1.64006613996816
30
0
41
1
10
12.4322688927288
20
1.75884176482299
30
0
41
1
10
12.3709176956714
20
1.79824379299026
30
0
41
1
10
12.2303108364207
20
1.88550243463797
30
0
41
1
10
12.1548564098435
20
1.92947349642495
30
0
41
1
10
12.090716389864
20
1.96406897238137
30
0
0
SPLINE
5
DA
100
AcDbEntity
8
1
62
256
6
ByLayer
370
18
48
1
60
0
100
AcDbSpline
70
4
71
3
72
8
73
4
40
0
40
0
40
0
40
0
40
1
40
1
40
1
40
1
41
1
10
14.1907214864836
20
0.454199821490334
30
0
41
1
10
14.6740670182744
20
0.0997389155211295
30
0
41
1
10
15.1603174831827
20
-0.274793244667876
30
0
41
1
10
15.6851375718719
20
-0.723460436227185
30
0
0
SPLINE
5
DB
100
AcDbEntity
8
1
62
256
6
ByLayer
370
18
48
1
60
0
100
AcDbSpline
70
4
71
3
72
8
73
4
40
0
40
0
40
0
40
0
40
1
40
1
40
1
40
1
41
1
10
11.8416987813173
20
1.62306033125461
30
0
41
1
10
12.5277644601718
20
1.11969237411316
30
0
41
1
10
13.1995801638168
20
0.594812421193836
30
0
41
1
10
13.8539702509098
20
0.0509015554324606
30
0
0
SPLINE
5
DC
100
AcDbEntity
8
1
62
256
6
ByLayer
370
18
48
1
60
0
100
AcDbSpline
70
4
71
3
72
16
73
12
40
0
40
0
40
0
40
0
40
0.111099116080996
40
0.111099116080996
40
0.402166116365984
40
0.402166116365984
40
0.692938641795882
40
0.692938641795882
40
0.992497598400242
40
0.992497598400242
40
1
40
1
40
1
40
1
41
1
10
14.0238638406686
20
0.25436863417184
30
0
41
1
10
14.0565235444589
20
0.233830232809822
30
0
41
1
10
14.0859377477852
20
0.215193685437527
30
0
41
1
10
14.1799262974955
20
0.15716553769488
30
0
41
1
10
14.2261081001401
20
0.132579362247299
30
0
41
1
10
14.2744065244583
20
0.129020321127399
30
0
41
1
10
14.2774016042228
20
0.149788179063961
30
0
41
1
10
14.2398885311785
20
0.231274135770946
30
0
41
1
10
14.1975378404659
20
0.294138299370815
30
0
41
1
10
14.1280988481423
20
0.37117694343317
30
0
41
1
10
14.1263611949579
20
0.373094320318671
30
0
41
1
10
14.1246066661208
20
0.375019733650163
30
0
0
SPLINE
5
DD
100
AcDbEntity
8
1
62
256
6
ByLayer
370
18
48
1
60
0
100
AcDbSpline
70
4
71
3
72
14
73
10
40
0
40
0
40
0
40
0
40
0.230788489764483
40
0.230788489764483
40
0.524989452500318
40
0.524989452500318
40
0.82704584537785
40
0.82704584537785
40
1
40
1
40
1
40
1
41
1
10
12.0907163898641
20
1.96406897238126
30
0
41
1
10
12.0210971608035
20
2.00161979269345
30
0
41
1
10
11.962094184329
20
2.02611810597222
30
0
41
1
10
11.8615660471579
20
2.05689540485963
30
0
41
1
10
11.8282534363943
20
2.05682450309419
30
0
41
1
10
11.8168142487625
20
2.02546171573636
30
0
41
1
10
11.840340231557
20
1.99280595531314
30
0
41
1
10
11.9179115155796
20
1.91369711988025
30
0
41
1
10
11.9547973667276
20
1.87863242613324
30
0
41
1
10
11.9980210389713
20
1.83713049670004
30
0
0
SPLINE
5
DE
100
AcDbEntity
8
1
62
256
6
ByLayer
370
18
48
1
60
0
100
AcDbSpline
70
4
71
3
72
8
73
4
40
0
40
0
40
0
40
0
40
1
40
1
40
1
40
1
41
1
10
5.30265134457045
20
-3.42627850822967
30
0
41
1
10
6.32510964797916
20
-1.77959231629026
30
0
41
1
10
7.46366528441203
20
-0.217639071012343
30
0
41
1
10
8.71840017674236
20
1.25950922912458
30
0
0
SPLINE
5
DF
100
AcDbEntity
8
1
62
256
6
ByLayer
370
18
48
1
60
0
100
AcDbSpline
70
4
71
3
72
8
73
4
40
0
40
0
40
0
40
0
40
1
40
1
40
1
40
1
41
1
10
14.2568124891727
20
-3.06757270424507
30
0
41
1
10
13.1270572229803
20
-4.64243632770373
30
0
41
1
10
11.8869358896846
20
-6.12503737112203
30
0
41
1
10
10.5365571057527
20
-7.51545384993213
30
0
0
SPLINE
5
E0
100
AcDbEntity
8
1
62
256
6
ByLayer
370
18
48
1
60
0
100
AcDbSpline
70
4
71
3
72
8
73
4
40
0
40
0
40
0
40
0
40
1
40
1
40
1
40
1
41
1
10
10.6473391807719
20
3.21249903597791
30
0
41
1
10
11.2096445099667
20
2.81181076433438
30
0
41
1
10
11.6906860986095
20
2.43061154646117
30
0
41
1
10
12.1515498680322
20
2.04737529696681
30
0
0
SPLINE
5
E1
100
AcDbEntity
8
1
62
256
6
ByLayer
370
18
48
1
60
0
100
AcDbSpline
70
4
71
3
72
18
73
14
40
0
40
0
40
0
40
0
40
0.162243665854726
40
0.162243665854726
40
0.337149997514614
40
0.337149997514614
40
0.505991353558666
40
0.505991353558666
40
0.671519828245142
40
0.671519828245142
40
0.836985751985925
40
0.836985751985925
40
1
40
1
40
1
40
1
41
1
10
11.9980210389713
20
1.83713049670004
30
0
41
1
10
12.0629556150102
20
1.77478248107224
30
0
41
1
10
12.1468141587718
20
1.69956844862287
30
0
41
1
10
12.3484710475591
20
1.52625672807434
30
0
41
1
10
12.4714176958936
20
1.42423863783108
30
0
41
1
10
12.7277739459441
20
1.21652012548705
30
0
41
1
10
12.8642422258312
20
1.1081586865711
30
0
41
1
10
13.1320238647276
20
0.899192928991653
30
0
41
1
10
13.2670394428546
20
0.7956289551976
30
0
41
1
10
13.5198281153371
20
0.605662219498015
30
0
41
1
10
13.6410185215914
20
0.516708123331085
30
0
41
1
10
13.8531099119765
20
0.366331983589134
30
0
41
1
10
13.9471405047967
20
0.302616918237419
30
0
41
1
10
14.0238638406686
20
0.254368634171868
30
0
0
SPLINE
5
E2
100
AcDbEntity
8
1
62
256
6
ByLayer
370
18
48
1
60
0
100
AcDbSpline
70
4
71
3
72
10
73
6
40
0
40
0
40
0
40
0
40
0.5
40
0.5
40
1
40
1
40
1
40
1
41
1
10
10.6901849099427
20
-10
30
0
41
1
10
9.83759713855059
20
-10
30
0
41
1
10
8.99095822199027
20
-10
30
0
41
1
10
7.28652977845371
20
-10
30
0
41
1
10
6.43860661438899
20
-10
30
0
41
1
10
5.59092911437924
20
-10
30
0
0
SPLINE
5
E3
100
AcDbEntity
8
1
62
256
6
ByLayer
370
18
48
1
60
0
100
AcDbSpline
70
4
71
3
72
18
73
14
40
0
40
0
40
0
40
0
40
0.020367634484958
40
0.020367634484958
40
0.0904676656911209
40
0.0904676656911209
40
0.318076695405403
40
0.318076695405403
40
0.545462898242916
40
0.545462898242916
40
0.772727523889705
40
0.772727523889705
40
1
40
1
40
1
40
1
41
1
10
10.6532916190508
20
3.84235758904421
30
0
41
1
10
10.6503837499551
20
3.83827514715139
30
0
41
1
10
10.6474755366766
20
3.83419225758829
30
0
41
1
10
10.634435515699
20
3.81588483390593
30
0
41
1
10
10.6243043618488
20
3.80166085456955
30
0
41
1
10
10.5820587187149
20
3.74234685812635
30
0
41
1
10
10.5501700435714
20
3.69756972215049
30
0
41
1
10
10.4923167687012
20
3.61632702840706
30
0
41
1
10
10.4655507054791
20
3.5787360756953
30
0
41
1
10
10.4207521922566
20
3.51581611672143
30
0
41
1
10
10.4020988305431
20
3.48961514174996
30
0
41
1
10
10.3753636396071
20
3.45206115575974
30
0
41
1
10
10.3669139539839
20
3.44019151038455
30
0
41
1
10
10.36408425713
20
3.43621653517431
30
0
0
SPLINE
5
E4
100
AcDbEntity
8
1
62
256
6
ByLayer
370
18
48
1
60
0
100
AcDbSpline
70
4
71
3
72
10
73
6
40
0
40
0
40
0
40
0
40
0.278183038739111
40
0.278183038739111
40
1
40
1
40
1
40
1
41
1
10
15.685137571872
20
-0.723460436227242
30
0
41
1
10
15.7832447091852
20
-0.800110132467807
30
0
41
1
10
15.8832779201864
20
-0.878264642396346
30
0
41
1
10
16.2460163131014
20
-1.16166693496299
30
0
41
1
10
16.5232491895447
20
-1.37826499652328
30
0
41
1
10
16.7985088163673
20
-1.59332138651737
30
0
0
SPLINE
5
E5
100
AcDbEntity
8
1
62
256
6
ByLayer
370
18
48
1
60
0
100
AcDbSpline
70
4
71
3
72
16
73
12
40
0
40
0
40
0
40
0
40
0.220164434361073
40
0.220164434361073
40
0.445652333634011
40
0.445652333634011
40
0.671223520047913
40
0.671223520047913
40
0.896352015172837
40
0.896352015172837
40
1
40
1
40
1
40
1
41
1
10
13.8539702509098
20
0.0509015554324606
30
0
41
1
10
14.0483653397432
20
-0.110674243395522
30
0
41
1
10
14.2180802959127
20
-0.307048916294349
30
0
41
1
10
14.4845657577818
20
-0.743544325383795
30
0
41
1
10
14.5831083283194
20
-0.990663614338814
30
0
41
1
10
14.6912661572954
20
-1.49670761907143
30
0
41
1
10
14.7023391861924
20
-1.76264350278555
30
0
41
1
10
14.6364387407711
20
-2.27562413481428
30
0
41
1
10
14.5587086748494
20
-2.52980878230963
30
0
41
1
10
14.3887898295161
20
-2.8675023628563
30
0
41
1
10
14.3265091768829
20
-2.97041646037965
30
0
41
1
10
14.2568124891727
20
-3.06757270424507
30
0
0
SPLINE
5
E6
100
AcDbEntity
8
1
62
256
6
ByLayer
370
18
48
1
60
0
100
AcDbSpline
70
4
71
3
72
8
73
4
40
0
40
0
40
0
40
0
40
1
40
1
40
1
40
1
41
1
10
18.8054445548867
20
8.32325037130923
30
0
41
1
10
18.8035775744917
20
8.31684788158032
30
0
41
1
10
18.8017108418114
20
8.31044624134665
30
0
41
1
10
18.7998443475513
20
8.30404541873401
30
0
0
SPLINE
5
E7
100
AcDbEntity
8
1
62
256
6
ByLayer
370
18
48
1
60
0
100
AcDbSpline
70
4
71
3
72
26
73
22
40
0
40
0
40
0
40
0
40
0.061121235079762
40
0.061121235079762
40
0.145349009858834
40
0.145349009858834
40
0.228936526328769
40
0.228936526328769
40
0.391532191220669
40
0.391532191220669
40
0.475817926908278
40
0.475817926908278
40
0.589557559273534
40
0.589557559273534
40
0.703149060376375
40
0.703149060376375
40
0.816673845780278
40
0.816673845780278
40
0.930168712116131
40
0.930168712116131
40
1
40
1
40
1
40
1
41
1
10
18.0516452196208
20
11.0963625783493
30
0
41
1
10
18.0479642883473
20
11.1050588776182
30
0
41
1
10
18.0431443475985
20
11.113317404693
30
0
41
1
10
18.0291156316752
20
11.1307336332754
30
0
41
1
10
18.0186692937966
20
11.1392989317417
30
0
41
1
10
17.9951364743857
20
11.1517275932348
30
0
41
1
10
17.981804645361
20
11.1558190128928
30
0
41
1
10
17.9418153325742
20
11.162034421094
30
0
41
1
10
17.9133398268513
20
11.1592705543266
30
0
41
1
10
17.8719986777108
20
11.1496319022572
30
0
41
1
10
17.8578810658649
20
11.1452878895313
30
0
41
1
10
17.8253378045757
20
11.1333432403509
30
0
41
1
10
17.8070277913146
20
11.1251032802971
30
0
41
1
10
17.7714480029196
20
11.1067094856069
30
0
41
1
10
17.754108297114
20
11.0965181479644
30
0
41
1
10
17.7204421561786
20
11.0746351084128
30
0
41
1
10
17.7040737754707
20
11.0629149889524
30
0
41
1
10
17.6723490811805
20
11.038221412395
30
0
41
1
10
17.6569629983416
20
11.0252241366993
30
0
41
1
10
17.6329610511494
20
11.0033460111838
30
0
41
1
10
17.6240131912445
20
10.9948008072068
30
0
41
1
10
17.6152692355369
20
10.9860568514992
30
0
0
SPLINE
5
E8
100
AcDbEntity
8
1
62
256
6
ByLayer
370
18
48
1
60
0
100
AcDbSpline
70
4
71
3
72
8
73
4
40
0
40
0
40
0
40
0
40
1
40
1
40
1
40
1
41
1
10
20.2972806683022
20
9.80148173948487
30
0
41
1
10
20.2908798456895
20
9.79961524522474
30
0
41
1
10
20.2844782054559
20
9.79774851254447
30
0
41
1
10
20.2780757157269
20
9.79588153214951
30
0
0
SPLINE
5
E9
100
AcDbEntity
8
1
62
256
6
ByLayer
370
18
48
1
60
0
100
AcDbSpline
70
4
71
3
72
24
73
20
40
0
40
0
40
0
40
0
40
0.158126111966038
40
0.158126111966038
40
0.271563393607333
40
0.271563393607333
40
0.385066230469807
40
0.385066230469807
40
0.49871451931033
40
0.49871451931033
40
0.612721087896084
40
0.612721087896084
40
0.746221642583626
40
0.746221642583626
40
0.824913378297553
40
0.824913378297553
40
0.908986128606081
40
0.908986128606081
40
1
40
1
40
1
40
1
41
1
10
18.3667787963082
20
8.18138498832712
30
0
41
1
10
18.33974580373
20
8.18862845685743
30
0
41
1
10
18.3130447514007
20
8.19728594661996
30
0
41
1
10
18.268184806815
20
8.21458295388533
30
0
41
1
10
18.2496962894181
20
8.22255965675981
30
0
41
1
10
18.2135399213542
20
8.24006681622109
30
0
41
1
10
18.195829516198
20
8.24961708728273
30
0
41
1
10
18.1615716183047
20
8.27044388899799
30
0
41
1
10
18.1449632463571
20
8.28175644144184
30
0
41
1
10
18.1135230370772
20
8.30637754229019
30
0
41
1
10
18.0985915439641
20
8.31976731991938
30
0
41
1
10
18.0696076747616
20
8.35117875558456
30
0
41
1
10
18.0557974959746
20
8.36997227089299
30
0
41
1
10
18.0405712837671
20
8.40192574233831
30
0
41
1
10
18.036352111244
20
8.4144560198292
30
0
41
1
10
18.0320810262227
20
8.44029012170915
30
0
41
1
10
18.0323400600899
20
8.45391430561114
30
0
41
1
10
18.0383876890537
20
8.48019308296375
30
0
41
1
10
18.0446954489189
20
8.49306383049952
30
0
41
1
10
18.0530632426312
20
8.50414481272017
30
0
0
SPLINE
5
EA
100
AcDbEntity
8
1
62
256
6
ByLayer
370
18
48
1
60
0
100
AcDbSpline
70
4
71
3
72
24
73
20
40
0
40
0
40
0
40
0
40
0.158126111966014
40
0.158126111966014
40
0.271563393607313
40
0.271563393607313
40
0.38506623046979
40
0.38506623046979
40
0.498714519310313
40
0.498714519310313
40
0.612721087896072
40
0.612721087896072
40
0.746221642583606
40
0.746221642583606
40
0.824913378297538
40
0.824913378297538
40
0.90898612860607
40
0.90898612860607
40
1
40
1
40
1
40
1
41
1
10
20.419941098709
20
10.234547290728
30
0
41
1
10
20.4271845672394
20
10.2075142981498
30
0
41
1
10
20.4330374873367
20
10.1800617636436
30
0
41
1
10
20.4404878119283
20
10.1325634083873
30
0
41
1
10
20.442824043299
20
10.1125635312061
30
0
41
1
10
20.4457405824894
20
10.0724976182235
30
0
41
1
10
20.446325007715
20
10.0523848219161
30
0
41
1
10
20.4454174172967
20
10.0123032112026
30
0
41
1
10
20.4439246454725
20
9.99226366295855
30
0
41
1
10
20.4383222513086
20
9.95272509259772
30
0
41
1
10
20.4341921102873
20
9.9330991514307
30
0
41
1
10
20.4214809436332
20
9.89229266656878
30
0
41
1
10
20.4121103713431
20
9.87093594325424
30
0
41
1
10
20.3920509594361
20
9.84177292095649
30
0
41
1
10
20.3833090070741
20
9.83185387162303
30
0
41
1
10
20.3630715610728
20
9.81523795255291
30
0
41
1
10
20.3511431547742
20
9.8086501905114
30
0
41
1
10
20.3253612515245
20
9.8007482021504
30
0
41
1
10
20.3110609772602
20
9.79977550866676
30
0
41
1
10
20.2972806683022
20
9.80148173948487
30
0
0
SPLINE
5
EB
100
AcDbEntity
8
1
62
256
6
ByLayer
370
18
48
1
60
0
100
AcDbSpline
70
4
71
3
72
8
73
4
40
0
40
0
40
0
40
0
40
1
40
1
40
1
40
1
41
1
10
17.3040454187339
20
9.79984434755136
30
0
41
1
10
17.3104462413466
20
9.80171084181148
30
0
41
1
10
17.3168478815803
20
9.80357757449175
30
0
41
1
10
17.3232503713092
20
9.80544455488672
30
0
0
SPLINE
5
EC
100
AcDbEntity
8
1
62
256
6
ByLayer
370
18
48
1
60
0
100
AcDbSpline
70
4
71
3
72
8
73
4
40
0
40
0
40
0
40
0
40
1
40
1
40
1
40
1
41
1
10
20.0777491938397
20
10.5435102899363
30
0
41
1
10
20.0842274027899
20
10.5450946823503
30
0
41
1
10
20.0907047521983
20
10.546678864544
30
0
41
1
10
20.097181274316
20
10.548262844405
30
0
0
SPLINE
5
ED
100
AcDbEntity
8
1
62
256
6
ByLayer
370
18
48
1
60
0
100
AcDbSpline
70
4
71
3
72
8
73
4
40
0
40
0
40
0
40
0
40
1
40
1
40
1
40
1
41
1
10
17.5049635086868
20
10.5496808674154
30
0
41
1
10
17.5095735365445
20
10.5448640246638
30
0
41
1
10
17.5141841532726
20
10.5400465666237
30
0
41
1
10
17.5187953818278
20
10.5352284693088
30
0
0
SPLINE
5
EE
100
AcDbEntity
8
1
62
256
6
ByLayer
370
18
48
1
60
0
100
AcDbSpline
70
4
71
3
72
26
73
22
40
0
40
0
40
0
40
0
40
0.0611212350797077
40
0.0611212350797077
40
0.145349009858793
40
0.145349009858793
40
0.228936526328743
40
0.228936526328743
40
0.391532191220712
40
0.391532191220712
40
0.475817926908346
40
0.475817926908346
40
0.589557559273609
40
0.589557559273609
40
0.703149060376457
40
0.703149060376457
40
0.816673845780358
40
0.816673845780358
40
0.930168712116219
40
0.930168712116219
40
1
40
1
40
1
40
1
41
1
10
18.7998443475513
20
8.30404541873401
30
0
41
1
10
18.8010047171933
20
8.29467373701146
30
0
41
1
10
18.8009597895974
20
8.28511167239304
30
0
41
1
10
18.7975186795167
20
8.2630144180408
30
0
41
1
10
18.7927545347704
20
8.25037348303823
30
0
41
1
10
18.7785888460845
20
8.22784353674473
30
0
41
1
10
18.7690888532991
20
8.21763434887094
30
0
41
1
10
18.7375647966465
20
8.19225699108043
30
0
41
1
10
18.7115223519211
20
8.18041281705226
30
0
41
1
10
18.6709005405091
20
8.1680895600324
30
0
41
1
10
18.6565023236468
20
8.16479277948437
30
0
41
1
10
18.6223467080582
20
8.15886551846933
30
0
41
1
10
18.6023697914037
20
8.15684652657214
30
0
41
1
10
18.5623598934472
20
8.15498612584827
30
0
41
1
10
18.5422475989041
20
8.15514223024189
30
0
41
1
10
18.5021503458308
20
8.15726042793796
30
0
41
1
10
18.4821148525888
20
8.15922615877201
30
0
41
1
10
18.4422936731275
20
8.16474907623595
30
0
41
1
10
18.4224702966764
20
8.16831200574893
30
0
41
1
10
18.3907449379099
20
8.17525804463648
30
0
41
1
10
18.3787232619343
20
8.17818447840858
30
0
41
1
10
18.3667787963082
20
8.18138498832712
30
0
0
SPLINE
5
EF
100
AcDbEntity
8
1
62
256
6
ByLayer
370
18
48
1
60
0
100
AcDbSpline
70
4
71
3
72
30
73
26
40
0
40
0
40
0
40
0
40
0.0728681126381128
40
0.0728681126381128
40
0.127812593477838
40
0.127812593477838
40
0.199092397893562
40
0.199092397893562
40
0.28887479800416
40
0.28887479800416
40
0.393641276926428
40
0.393641276926428
40
0.499915621932922
40
0.499915621932922
40
0.631623646297738
40
0.631623646297738
40
0.73486891174353
40
0.73486891174353
40
0.796951047610516
40
0.796951047610516
40
0.859105215562995
40
0.859105215562995
40
0.921420364650285
40
0.921420364650285
40
1
40
1
40
1
40
1
41
1
10
19.5352284693088
20
8.51879538182786
30
0
41
1
10
19.521944148895
20
8.53150932960128
30
0
41
1
10
19.5057517906389
20
8.54173302939768
30
0
41
1
10
19.4754138734276
20
8.55593998212285
30
0
41
1
10
19.4615413326347
20
8.56093036590957
30
0
41
1
10
19.4288006364804
20
8.57022705361149
30
0
41
1
10
19.4095335956222
20
8.573935047237
30
0
41
1
10
19.3653242777535
20
8.57952698678179
30
0
41
1
10
19.3400147274862
20
8.58071407829016
30
0
41
1
10
19.2849096038909
20
8.57991288066017
30
0
41
1
10
19.2548411053082
20
8.5773553939907
30
0
41
1
10
19.1946710237187
20
8.56859258308617
30
0
41
1
10
19.1643678253527
20
8.56230059051089
30
0
41
1
10
19.0978091307863
20
8.54446624205258
30
0
41
1
10
19.0615145204664
20
8.53194622576035
30
0
41
1
10
18.9996360709304
20
8.50516948899846
30
0
41
1
10
18.9732192574208
20
8.49177740854256
30
0
41
1
10
18.9333086954431
20
8.46770919639701
30
0
41
1
10
18.9187963179004
20
8.45803386910248
30
0
41
1
10
18.8912093244009
20
8.43738761231219
30
0
41
1
10
18.8780771514177
20
8.42637387338294
30
0
41
1
10
18.8538303691639
20
8.40291210644884
30
0
41
1
10
18.8426384830449
20
8.39038552074655
30
0
41
1
10
18.820893628373
20
8.36045774145987
30
0
41
1
10
18.8109885336195
20
8.34226249751558
30
0
41
1
10
18.8054445548867
20
8.32325037130923
30
0
0
SPLINE
5
F0
100
AcDbEntity
8
1
62
256
6
ByLayer
370
18
48
1
60
0
100
AcDbSpline
70
4
71
3
72
30
73
26
40
0
40
0
40
0
40
0
40
0.0728681126381117
40
0.0728681126381117
40
0.127812593477835
40
0.127812593477835
40
0.199092397893562
40
0.199092397893562
40
0.288874798004157
40
0.288874798004157
40
0.393641276926427
40
0.393641276926427
40
0.49991562193292
40
0.49991562193292
40
0.631623646297741
40
0.631623646297741
40
0.734868911743531
40
0.734868911743531
40
0.796951047610517
40
0.796951047610517
40
0.859105215562997
40
0.859105215562997
40
0.921420364650286
40
0.921420364650286
40
1
40
1
40
1
40
1
41
1
10
19.5435102899362
20
11.0777491938397
30
0
41
1
10
19.5391418483889
20
11.0598876610027
30
0
41
1
10
19.5383840437726
20
11.0407528175075
30
0
41
1
10
19.5412494204079
20
11.007375934142
30
0
41
1
10
19.5438638916704
20
10.992866769507
30
0
41
1
10
19.5521830720267
20
10.9598641510488
30
0
41
1
10
19.558605375779
20
10.9413244073971
30
0
41
1
10
19.5758672730111
20
10.9002420452664
30
0
41
1
10
19.5874939967419
20
10.8777297860224
30
0
41
1
10
19.6157404160406
20
10.8304079479252
30
0
41
1
10
19.6329895137575
20
10.8056466076337
30
0
41
1
10
19.6706633714042
20
10.7579191938816
30
0
41
1
10
19.6912639959978
20
10.7348218505684
30
0
41
1
10
19.7399883421059
20
10.6860975044603
30
0
41
1
10
19.7689782994306
20
10.660925458049
30
0
41
1
10
19.8231068584649
20
10.6207255171849
30
0
41
1
10
19.847913147104
20
10.6045439258266
30
0
41
1
10
19.8887121112346
20
10.5820144713473
30
0
41
1
10
19.9043473792329
20
10.5742840473733
30
0
41
1
10
19.9360210588561
20
10.5607161385838
30
0
41
1
10
19.9521253230511
20
10.5548502126381
30
0
41
1
10
19.9845672003606
20
10.5455827667134
30
0
41
1
10
20.001011484861
20
10.5421536018692
30
0
41
1
10
20.0378021293381
20
10.538285894965
30
0
41
1
10
20.0585122201986
20
10.5388054532538
30
0
41
1
10
20.0777491938397
20
10.5435102899363
30
0
0
SPLINE
5
F1
100
AcDbEntity
8
1
62
256
6
ByLayer
370
18
48
1
60
0
100
AcDbSpline
70
4
71
3
72
26
73
22
40
0
40
0
40
0
40
0
40
0.0611212350797073
40
0.0611212350797073
40
0.14534900985879
40
0.14534900985879
40
0.228936526328743
40
0.228936526328743
40
0.391532191220707
40
0.391532191220707
40
0.475817926908339
40
0.475817926908339
40
0.589557559273595
40
0.589557559273595
40
0.703149060376439
40
0.703149060376439
40
0.816673845780345
40
0.816673845780345
40
0.9301687121162
40
0.9301687121162
40
1
40
1
40
1
40
1
41
1
10
20.097181274316
20
10.548262844405
30
0
41
1
10
20.1047172039429
20
10.553953594854
30
0
41
1
10
20.113020658613
20
10.5586957187239
30
0
41
1
10
20.1338779972763
20
10.5667642571528
30
0
41
1
10
20.1472074404892
20
10.5689588542766
30
0
41
1
10
20.1738017906683
20
10.5679559811591
30
0
41
1
10
20.1873932031117
20
10.5648333400082
30
0
41
1
10
20.2251326679655
20
10.5502213850119
30
0
41
1
10
20.2484112459235
20
10.5335900533171
30
0
41
1
10
20.279394405266
20
10.5045721611966
30
0
41
1
10
20.2894486094025
20
10.4937513298986
30
0
41
1
10
20.3116595758107
20
10.4671353296245
30
0
41
1
10
20.3233965324109
20
10.450844308261
30
0
41
1
10
20.3450126356773
20
10.4171249205898
30
0
41
1
10
20.3549335925783
20
10.3996291103903
30
0
41
1
10
20.3731478060999
20
10.3638447717588
30
0
41
1
10
20.3814631798816
20
10.3455106602168
30
0
41
1
10
20.3965907827855
20
10.3082630484627
30
0
41
1
10
20.4034168835409
20
10.2893140361109
30
0
41
1
10
20.4132641167918
20
10.2583660500311
30
0
41
1
10
20.4167405887905
20
10.2464917563541
30
0
41
1
10
20.419941098709
20
10.234547290728
30
0
0
SPLINE
5
F2
100
AcDbEntity
8
1
62
256
6
ByLayer
370
18
48
1
60
0
100
AcDbSpline
70
4
71
3
72
8
73
4
40
0
40
0
40
0
40
0
40
1
40
1
40
1
40
1
41
1
10
20.0825307052083
20
9.06609761772739
30
0
41
1
10
20.0871419337635
20
9.06127952041248
30
0
41
1
10
20.0917525504916
20
9.05646206237248
30
0
41
1
10
20.0963625783492
20
9.05164521962087
30
0
0
SPLINE
5
F3
100
AcDbEntity
8
1
62
256
6
ByLayer
370
18
48
1
60
0
100
AcDbSpline
70
4
71
3
72
28
73
24
40
0
40
0
40
0
40
0
40
0.0405984349493363
40
0.0405984349493363
40
0.136918028510172
40
0.136918028510172
40
0.284178405664795
40
0.284178405664795
40
0.500822929974465
40
0.500822929974465
40
0.56675882483482
40
0.56675882483482
40
0.632050095044785
40
0.632050095044785
40
0.735175839208408
40
0.735175839208408
40
0.797186106051237
40
0.797186106051237
40
0.859268321592045
40
0.859268321592045
40
0.921511331908842
40
0.921511331908842
40
1
40
1
40
1
40
1
41
1
10
18.7958815321494
20
11.278075715727
30
0
41
1
10
18.7929770193272
20
11.2681151861136
30
0
41
1
10
18.7888732502622
20
11.2583811298062
30
0
41
1
10
18.7722856484801
20
11.2270569293377
30
0
41
1
10
18.7558496113273
20
11.2067953026934
30
0
41
1
10
18.7090045924996
20
11.1607518152887
30
0
41
1
10
18.6749851561012
20
11.1367524483092
30
0
41
1
10
18.5859839737856
20
11.0863607815307
30
0
41
1
10
18.5268183355677
20
11.0631034307544
30
0
41
1
10
18.4481917552177
20
11.042035502046
30
0
41
1
10
18.4294749559124
20
11.0377291227903
30
0
41
1
10
18.3920909475884
20
11.0305481741484
30
0
41
1
10
18.3733794748086
20
11.027651048262
30
0
41
1
10
18.3252319626652
20
11.0220798858773
30
0
41
1
10
18.295658290851
20
11.0204693610068
30
0
41
1
10
18.2490606242262
20
11.0213577631596
30
0
41
1
10
18.2316548729579
20
11.0224806536148
30
0
41
1
10
18.1974407073781
20
11.0265673397385
30
0
41
1
10
18.1805610425038
20
11.0295394309492
30
0
41
1
10
18.1478318296449
20
11.0377345260048
30
0
41
1
10
18.1318760790976
20
11.0429869243879
30
0
41
1
10
18.0980805929068
20
11.0580327141931
30
0
41
1
10
18.0804049072512
20
11.0688377103001
30
0
41
1
10
18.0660976177273
20
11.0825307052084
30
0
0
SPLINE
5
F4
100
AcDbEntity
8
1
62
256
6
ByLayer
370
18
48
1
60
0
100
AcDbSpline
70
4
71
3
72
30
73
26
40
0
40
0
40
0
40
0
40
0.0728681126381123
40
0.0728681126381123
40
0.127812593477835
40
0.127812593477835
40
0.199092397893563
40
0.199092397893563
40
0.288874798004158
40
0.288874798004158
40
0.393641276926428
40
0.393641276926428
40
0.499915621932921
40
0.499915621932921
40
0.631623646297738
40
0.631623646297738
40
0.73486891174353
40
0.73486891174353
40
0.796951047610517
40
0.796951047610517
40
0.859105215562994
40
0.859105215562994
40
0.921420364650286
40
0.921420364650286
40
1
40
1
40
1
40
1
41
1
10
18.0578157970999
20
8.52357689319649
30
0
41
1
10
18.0621842386472
20
8.54143842603355
30
0
41
1
10
18.0629420432635
20
8.56057326952873
30
0
41
1
10
18.0600766666282
20
8.59395015289419
30
0
41
1
10
18.0574621953657
20
8.6084593175292
30
0
41
1
10
18.0491430150094
20
8.64146193598739
30
0
41
1
10
18.0427207112571
20
8.66000167963912
30
0
41
1
10
18.0254588140249
20
8.7010840417698
30
0
41
1
10
18.0138320902942
20
8.72359630101383
30
0
41
1
10
17.9855856709955
20
8.77091813911099
30
0
41
1
10
17.9683365732786
20
8.79567947940254
30
0
41
1
10
17.9306627156319
20
8.84340689315459
30
0
41
1
10
17.9100620910383
20
8.86650423646785
30
0
41
1
10
17.8613377449302
20
8.91522858257591
30
0
41
1
10
17.8323477876055
20
8.94040062898728
30
0
41
1
10
17.7782192285712
20
8.98060056985133
30
0
41
1
10
17.7534129399321
20
8.99678216120967
30
0
41
1
10
17.7126139758015
20
9.01931161568888
30
0
41
1
10
17.6969787078031
20
9.02704203966297
30
0
41
1
10
17.6653050281799
20
9.04060994845241
30
0
41
1
10
17.649200763985
20
9.04647587439808
30
0
41
1
10
17.6167588866755
20
9.05574332032288
30
0
41
1
10
17.6003146021751
20
9.05917248516704
30
0
41
1
10
17.5635239576981
20
9.06304019207118
30
0
41
1
10
17.5428138668375
20
9.06252063378247
30
0
41
1
10
17.5235768931964
20
9.05781579709998
30
0
0
SPLINE
5
F5
100
AcDbEntity
8
1
62
256
6
ByLayer
370
18
48
1
60
0
100
AcDbSpline
70
4
71
3
72
30
73
26
40
0
40
0
40
0
40
0
40
0.0728681126381114
40
0.0728681126381114
40
0.127812593477836
40
0.127812593477836
40
0.199092397893561
40
0.199092397893561
40
0.288874798004159
40
0.288874798004159
40
0.393641276926427
40
0.393641276926427
40
0.499915621932922
40
0.499915621932922
40
0.63162364629774
40
0.63162364629774
40
0.734868911743531
40
0.734868911743531
40
0.796951047610517
40
0.796951047610517
40
0.859105215562994
40
0.859105215562994
40
0.921420364650285
40
0.921420364650285
40
1
40
1
40
1
40
1
41
1
10
20.2780757157269
20
9.79588153214948
30
0
41
1
10
20.2604229537659
20
9.79073394708587
30
0
41
1
10
20.2434727908935
20
9.78182280338709
30
0
41
1
10
20.2160002503175
20
9.76265287274677
30
0
41
1
10
20.2047421807871
20
9.75313409189849
30
0
41
1
10
20.180320664989
20
9.72942816114221
30
0
41
1
10
20.1674759278831
20
9.71459641111599
30
0
41
1
10
20.1405285072466
20
9.6791059885301
30
0
41
1
10
20.1268456807101
20
9.65778082079444
30
0
41
1
10
20.0999869764135
20
9.6096577850673
30
0
41
1
10
20.0871675755477
20
9.58233895810628
30
0
41
1
10
20.0646713516048
20
9.52584873344966
30
0
41
1
10
20.0549687778324
20
9.49645939756115
30
0
41
1
10
20.0371344293741
20
9.42990070299476
30
0
41
1
10
20.029829776379
20
9.39220864029119
30
0
41
1
10
20.0220798858772
20
9.32523196266527
30
0
41
1
10
20.0204693610068
20
9.29565829085101
30
0
41
1
10
20.0213577631597
20
9.24906062422622
30
0
41
1
10
20.0224806536153
20
9.23165487295762
30
0
41
1
10
20.026567339739
20
9.19744070737789
30
0
41
1
10
20.0295394309508
20
9.18056104250297
30
0
41
1
10
20.0377345260065
20
9.14783182964408
30
0
41
1
10
20.0429869243879
20
9.13187607909762
30
0
41
1
10
20.058032714193
20
9.0980805929068
30
0
41
1
10
20.0688377103
20
9.08040490725122
30
0
41
1
10
20.0825307052083
20
9.06609761772739
30
0
0
SPLINE
5
F6
100
AcDbEntity
8
1
62
256
6
ByLayer
370
18
48
1
60
0
100
AcDbSpline
70
4
71
3
72
24
73
20
40
0
40
0
40
0
40
0
40
0.158126111966006
40
0.158126111966006
40
0.271563393607303
40
0.271563393607303
40
0.385066230469784
40
0.385066230469784
40
0.498714519310307
40
0.498714519310307
40
0.612721087896065
40
0.612721087896065
40
0.746221642583601
40
0.746221642583601
40
0.824913378297535
40
0.824913378297535
40
0.908986128606071
40
0.908986128606071
40
1
40
1
40
1
40
1
41
1
10
19.9860568514992
20
8.61526923553697
30
0
41
1
10
19.9662673274513
20
8.59547971148913
30
0
41
1
10
19.9454191952193
20
8.57668466674539
30
0
41
1
10
19.9080095752252
20
8.54648331875453
30
0
41
1
10
19.891857289199
20
8.53446014444776
30
0
41
1
10
19.8586174603255
20
8.51190139092645
30
0
41
1
10
19.841491480395
20
8.50133886568074
30
0
41
1
10
19.8063259920833
20
8.48208405668245
30
0
41
1
10
19.7882248483115
20
8.47335706088228
30
0
41
1
10
19.7511822448678
20
8.45843959136982
30
0
41
1
10
19.7321206107333
20
8.45220342783199
30
0
41
1
10
19.6904255748767
20
8.44280837863522
30
0
41
1
10
19.6672448237996
20
8.44024517062911
30
0
41
1
10
19.6319591996852
20
8.44303561977668
30
0
41
1
10
19.6189980748
20
8.44564684793411
30
0
41
1
10
19.5944895437774
20
8.45486503074397
30
0
41
1
10
19.5828201713461
20
8.46190145260442
30
0
41
1
10
19.5630858970602
20
8.48027824159604
30
0
41
1
10
19.5550933826611
20
8.49217629564816
30
0
41
1
10
19.5496808674153
20
8.5049635086869
30
0
0
SPLINE
5
F7
100
AcDbEntity
8
1
62
256
6
ByLayer
370
18
48
1
60
0
100
AcDbSpline
70
4
71
3
72
26
73
22
40
0
40
0
40
0
40
0
40
0.0611212350797051
40
0.0611212350797051
40
0.145349009858779
40
0.145349009858779
40
0.22893652632873
40
0.22893652632873
40
0.391532191220692
40
0.391532191220692
40
0.475817926908321
40
0.475817926908321
40
0.589557559273579
40
0.589557559273579
40
0.703149060376419
40
0.703149060376419
40
0.816673845780323
40
0.816673845780323
40
0.930168712116175
40
0.930168712116175
40
1
40
1
40
1
40
1
41
1
10
17.5041448127201
20
9.05306324263123
30
0
41
1
10
17.4966088830932
20
9.04737249218218
30
0
41
1
10
17.4883054284231
20
9.04263036831236
30
0
41
1
10
17.4674480897598
20
9.03456182988339
30
0
41
1
10
17.4541186465469
20
9.03236723275964
30
0
41
1
10
17.4275242963678
20
9.03337010587708
30
0
41
1
10
17.4139328839244
20
9.03649274702806
30
0
41
1
10
17.3761934190706
20
9.05110470202428
30
0
41
1
10
17.3529148411127
20
9.06773603371906
30
0
41
1
10
17.3219316817701
20
9.09675392583961
30
0
41
1
10
17.3118774776336
20
9.1075747571376
30
0
41
1
10
17.2896665112255
20
9.13419075741172
30
0
41
1
10
17.2779295546252
20
9.15048177877523
30
0
41
1
10
17.2563134513589
20
9.18420116644643
30
0
41
1
10
17.2463924944578
20
9.20169697664596
30
0
41
1
10
17.2281782809362
20
9.23748131527739
30
0
41
1
10
17.2198629071545
20
9.2558154268194
30
0
41
1
10
17.2047353042506
20
9.29306303857351
30
0
41
1
10
17.1979092034952
20
9.31201205092538
30
0
41
1
10
17.1880619702443
20
9.34296003700516
30
0
41
1
10
17.1845854982456
20
9.35483433068211
30
0
41
1
10
17.1813849883271
20
9.36677879630827
30
0
0
SPLINE
5
F8
100
AcDbEntity
8
1
62
256
6
ByLayer
370
18
48
1
60
0
100
AcDbSpline
70
4
71
3
72
26
73
22
40
0
40
0
40
0
40
0
40
0.0727938302380721
40
0.0727938302380721
40
0.127682300186941
40
0.127682300186941
40
0.198889441338007
40
0.198889441338007
40
0.288580316474555
40
0.288580316474555
40
0.393239995518873
40
0.393239995518873
40
0.49940600351584
40
0.49940600351584
40
0.60053984229349
40
0.60053984229349
40
0.795411350082976
40
0.795411350082976
40
0.921875057553223
40
0.921875057553223
40
1
40
1
40
1
40
1
41
1
10
17.5187953818278
20
10.5352284693088
30
0
41
1
10
17.5315093296012
20
10.5219441488951
30
0
41
1
10
17.5417330293976
20
10.5057517906389
30
0
41
1
10
17.5559399821228
20
10.4754138734276
30
0
41
1
10
17.5609303659095
20
10.4615413326348
30
0
41
1
10
17.5702270536114
20
10.4288006364805
30
0
41
1
10
17.5739350472369
20
10.4095335956223
30
0
41
1
10
17.5795269867817
20
10.3653242777535
30
0
41
1
10
17.5807140782916
20
10.3400147274854
30
0
41
1
10
17.5799128806615
20
10.2849096038901
30
0
41
1
10
17.5773553939906
20
10.2548411053081
30
0
41
1
10
17.5685925830861
20
10.1946710237187
30
0
41
1
10
17.5623005905108
20
10.1643678253527
30
0
41
1
10
17.5467329447245
20
10.1062685803239
30
0
41
1
10
17.5375662167152
20
10.0782523584622
30
0
41
1
10
17.5065980215316
20
9.99917186551181
30
0
41
1
10
17.4805443656936
20
9.94915728615467
30
0
41
1
10
17.427765506642
20
9.87817438334218
30
0
41
1
10
17.4039431829167
20
9.85248917696916
30
0
41
1
10
17.3604577414598
20
9.82089362837309
30
0
41
1
10
17.3422624975155
20
9.81098853361956
30
0
41
1
10
17.3232503713092
20
9.80544455488672
30
0
0
SPLINE
5
F9
100
AcDbEntity
8
1
62
256
6
ByLayer
370
18
48
1
60
0
100
AcDbSpline
70
4
71
3
72
26
73
22
40
0
40
0
40
0
40
0
40
0.0611212350797079
40
0.0611212350797079
40
0.145349009858791
40
0.145349009858791
40
0.228936526328742
40
0.228936526328742
40
0.391532191220704
40
0.391532191220704
40
0.475817926908336
40
0.475817926908336
40
0.589557559273591
40
0.589557559273591
40
0.703149060376436
40
0.703149060376436
40
0.816673845780341
40
0.816673845780341
40
0.930168712116193
40
0.930168712116193
40
1
40
1
40
1
40
1
41
1
10
18.8014817394848
20
11.2972806683022
30
0
41
1
10
18.8003213698428
20
11.3066523500248
30
0
41
1
10
18.8003662974386
20
11.3162144146432
30
0
41
1
10
18.8038074075194
20
11.3383116689954
30
0
41
1
10
18.8085715522657
20
11.350952603998
30
0
41
1
10
18.8227372409517
20
11.3734825502915
30
0
41
1
10
18.832237233737
20
11.3836917381653
30
0
41
1
10
18.8637612903896
20
11.4090690959558
30
0
41
1
10
18.889803735115
20
11.420913269984
30
0
41
1
10
18.930425546527
20
11.4332365270038
30
0
41
1
10
18.9448237633893
20
11.4365333075518
30
0
41
1
10
18.9789793789779
20
11.4424605685669
30
0
41
1
10
18.9989562956325
20
11.4444795604641
30
0
41
1
10
19.0389661935889
20
11.446339961188
30
0
41
1
10
19.059078488132
20
11.4461838567943
30
0
41
1
10
19.0991757412053
20
11.4440656590983
30
0
41
1
10
19.1192112344473
20
11.4420999282642
30
0
41
1
10
19.1590324139087
20
11.4365770108003
30
0
41
1
10
19.1788557903596
20
11.4330140812873
30
0
41
1
10
19.2105811491262
20
11.4260680423997
30
0
41
1
10
19.2226028251018
20
11.4231416086277
30
0
41
1
10
19.2345472907279
20
11.4199410987091
30
0
0
SPLINE
5
FA
100
AcDbEntity
8
1
62
256
6
ByLayer
370
18
48
1
60
0
100
AcDbSpline
70
4
71
3
72
8
73
4
40
0
40
0
40
0
40
0
40
1
40
1
40
1
40
1
41
1
10
18.0530632426312
20
8.50414481272017
30
0
41
1
10
18.0546472224922
20
8.51062133483791
30
0
41
1
10
18.0562314046859
20
8.51709868424626
30
0
41
1
10
18.0578157970999
20
8.52357689319649
30
0
0
SPLINE
5
FB
100
AcDbEntity
8
1
62
256
6
ByLayer
370
18
48
1
60
0
100
AcDbSpline
70
4
71
3
72
8
73
4
40
0
40
0
40
0
40
0
40
1
40
1
40
1
40
1
41
1
10
19.5496808674153
20
8.5049635086869
30
0
41
1
10
19.5448640246637
20
8.50957353654451
30
0
41
1
10
19.5400465666237
20
8.51418415327262
30
0
41
1
10
19.5352284693088
20
8.51879538182786
30
0
0
SPLINE
5
FC
100
AcDbEntity
8
1
62
256
6
ByLayer
370
18
48
1
60
0
100
AcDbSpline
70
4
71
3
72
24
73
20
40
0
40
0
40
0
40
0
40
0.158126111965992
40
0.158126111965992
40
0.271563393607294
40
0.271563393607294
40
0.385066230469774
40
0.385066230469774
40
0.4987145193103
40
0.4987145193103
40
0.612721087896056
40
0.612721087896056
40
0.746221642583599
40
0.746221642583599
40
0.824913378297533
40
0.824913378297533
40
0.908986128606068
40
0.908986128606068
40
1
40
1
40
1
40
1
41
1
10
17.1813849883271
20
9.36677879630827
30
0
41
1
10
17.1741415197967
20
9.39381178888644
30
0
41
1
10
17.1682885996994
20
9.42126432339268
30
0
41
1
10
17.1608382751078
20
9.46876267864891
30
0
41
1
10
17.1585020437371
20
9.48876255583016
30
0
41
1
10
17.1555855045467
20
9.52882846881275
30
0
41
1
10
17.1550010793211
20
9.54894126512008
30
0
41
1
10
17.1559086697394
20
9.58902287583365
30
0
41
1
10
17.1574014415636
20
9.60906242407768
30
0
41
1
10
17.1630038357275
20
9.64860099443851
30
0
41
1
10
17.1671339767489
20
9.6682269356055
30
0
41
1
10
17.179845143403
20
9.70903342046745
30
0
41
1
10
17.189215715693
20
9.73039014378199
30
0
41
1
10
17.2092751276
20
9.75955316607971
30
0
41
1
10
17.218017079962
20
9.7694722154132
30
0
41
1
10
17.2382545259634
20
9.78608813448332
30
0
41
1
10
17.2501829322619
20
9.79267589652483
30
0
41
1
10
17.2759648355116
20
9.80057788488583
30
0
41
1
10
17.2902651097759
20
9.80155057836947
30
0
41
1
10
17.3040454187339
20
9.79984434755136
30
0
0
SPLINE
5
FD
100
AcDbEntity
8
1
62
256
6
ByLayer
370
18
48
1
60
0
100
AcDbSpline
70
4
71
3
72
26
73
22
40
0
40
0
40
0
40
0
40
0.061121235079704
40
0.061121235079704
40
0.145349009858787
40
0.145349009858787
40
0.228936526328736
40
0.228936526328736
40
0.391532191220702
40
0.391532191220702
40
0.475817926908334
40
0.475817926908334
40
0.589557559273588
40
0.589557559273588
40
0.703149060376433
40
0.703149060376433
40
0.816673845780336
40
0.816673845780336
40
0.93016871211619
40
0.93016871211619
40
1
40
1
40
1
40
1
41
1
10
20.0963625783492
20
9.05164521962087
30
0
41
1
10
20.1050588776182
20
9.04796428834737
30
0
41
1
10
20.1133174046924
20
9.0431443475988
30
0
41
1
10
20.1307336332749
20
9.02911563167555
30
0
41
1
10
20.1392989317416
20
9.01866929379671
30
0
41
1
10
20.1517275932347
20
8.99513647438576
30
0
41
1
10
20.1558190128927
20
8.981804645361
30
0
41
1
10
20.162034421094
20
8.94181533257429
30
0
41
1
10
20.1592705543265
20
8.91333982685131
30
0
41
1
10
20.1496319022571
20
8.87199867771088
30
0
41
1
10
20.1452878895312
20
8.85788106586489
30
0
41
1
10
20.1333432403508
20
8.82533780457572
30
0
41
1
10
20.1251032802965
20
8.80702779131502
30
0
41
1
10
20.1067094856064
20
8.77144800291995
30
0
41
1
10
20.0965181479643
20
8.75410829711404
30
0
41
1
10
20.0746351084127
20
8.72044215617868
30
0
41
1
10
20.0629149889523
20
8.70407377547073
30
0
41
1
10
20.0382214123949
20
8.67234908118056
30
0
41
1
10
20.0252241366993
20
8.65696299834167
30
0
41
1
10
20.0033460111837
20
8.63296105114947
30
0
41
1
10
19.9948008072068
20
8.62401319124456
30
0
41
1
10
19.9860568514992
20
8.61526923553697
30
0
0
SPLINE
5
FE
100
AcDbEntity
8
1
62
256
6
ByLayer
370
18
48
1
60
0
100
AcDbSpline
70
4
71
3
72
8
73
4
40
0
40
0
40
0
40
0
40
1
40
1
40
1
40
1
41
1
10
18.0660976177273
20
11.0825307052084
30
0
41
1
10
18.0612795204124
20
11.0871419337636
30
0
41
1
10
18.0564620623724
20
11.0917525504917
30
0
41
1
10
18.0516452196208
20
11.0963625783493
30
0
0
SPLINE
5
FF
100
AcDbEntity
8
1
62
256
6
ByLayer
370
18
48
1
60
0
100
AcDbSpline
70
4
71
3
72
24
73
20
40
0
40
0
40
0
40
0
40
0.158126111965951
40
0.158126111965951
40
0.271563393607255
40
0.271563393607255
40
0.38506623046974
40
0.38506623046974
40
0.498714519310271
40
0.498714519310271
40
0.612721087896036
40
0.612721087896036
40
0.746221642583592
40
0.746221642583592
40
0.824913378297523
40
0.824913378297523
40
0.908986128606064
40
0.908986128606064
40
1
40
1
40
1
40
1
41
1
10
17.6152692355369
20
10.9860568514992
30
0
41
1
10
17.5954797114891
20
10.9662673274514
30
0
41
1
10
17.5766846667453
20
10.9454191952194
30
0
41
1
10
17.5464833187545
20
10.9080095752253
30
0
41
1
10
17.5344601444477
20
10.8918572891991
30
0
41
1
10
17.5119013909263
20
10.8586174603256
30
0
41
1
10
17.50133886568
20
10.8414914803957
30
0
41
1
10
17.4820840566816
20
10.806325992084
30
0
41
1
10
17.4733570608822
20
10.7882248483116
30
0
41
1
10
17.4584395913697
20
10.7511822448678
30
0
41
1
10
17.4522034278319
20
10.7321206107334
30
0
41
1
10
17.4428083786352
20
10.6904255748767
30
0
41
1
10
17.440245170629
20
10.6672448237998
30
0
41
1
10
17.4430356197766
20
10.6319591996853
30
0
41
1
10
17.445646847934
20
10.6189980748001
30
0
41
1
10
17.4548650307439
20
10.5944895437775
30
0
41
1
10
17.4619014526043
20
10.5828201713461
30
0
41
1
10
17.480278241596
20
10.5630858970603
30
0
41
1
10
17.4921762956481
20
10.5550933826612
30
0
41
1
10
17.5049635086868
20
10.5496808674154
30
0
0
SPLINE
5
100
100
AcDbEntity
8
1
62
256
6
ByLayer
370
18
48
1
60
0
100
AcDbSpline
70
4
71
3
72
8
73
4
40
0
40
0
40
0
40
0
40
1
40
1
40
1
40
1
41
1
10
17.5235768931964
20
9.05781579709998
30
0
41
1
10
17.5170986842462
20
9.05623140468592
30
0
41
1
10
17.5106213348379
20
9.05464722249226
30
0
41
1
10
17.5041448127201
20
9.05306324263123
30
0
0
SPLINE
5
101
100
AcDbEntity
8
1
62
256
6
ByLayer
370
18
48
1
60
0
100
AcDbSpline
70
4
71
3
72
8
73
4
40
0
40
0
40
0
40
0
40
1
40
1
40
1
40
1
41
1
10
19.5482628444049
20
11.0971812743161
30
0
41
1
10
19.5466788645439
20
11.0907047521983
30
0
41
1
10
19.5450946823503
20
11.08422740279
30
0
41
1
10
19.5435102899362
20
11.0777491938397
30
0
0
SPLINE
5
102
100
AcDbEntity
8
1
62
256
6
ByLayer
370
18
48
1
60
0
100
AcDbSpline
70
4
71
3
72
24
73
20
40
0
40
0
40
0
40
0
40
0.158126111966013
40
0.158126111966013
40
0.27156339360731
40
0.27156339360731
40
0.385066230469786
40
0.385066230469786
40
0.498714519310315
40
0.498714519310315
40
0.612721087896067
40
0.612721087896067
40
0.746221642583611
40
0.746221642583611
40
0.82491337829754
40
0.82491337829754
40
0.908986128606074
40
0.908986128606074
40
1
40
1
40
1
40
1
41
1
10
19.2345472907279
20
11.4199410987091
30
0
41
1
10
19.2615802833061
20
11.4126976301788
30
0
41
1
10
19.2882813356355
20
11.4040401404163
30
0
41
1
10
19.3331412802211
20
11.3867431331509
30
0
41
1
10
19.351629797618
20
11.3787664302764
30
0
41
1
10
19.3877861656819
20
11.3612592708151
30
0
41
1
10
19.405496570838
20
11.3517089997535
30
0
41
1
10
19.4397544687315
20
11.3308821980382
30
0
41
1
10
19.456362840679
20
11.3195696455944
30
0
41
1
10
19.4878030499589
20
11.294948544746
30
0
41
1
10
19.502734543072
20
11.2815587671168
30
0
41
1
10
19.5317184122745
20
11.2501473314517
30
0
41
1
10
19.5455285910615
20
11.2313538161432
30
0
41
1
10
19.560754803269
20
11.1994003446979
30
0
41
1
10
19.5649739757922
20
11.186870067207
30
0
41
1
10
19.5692450608134
20
11.1610359653271
30
0
41
1
10
19.5689860269462
20
11.1474117814251
30
0
41
1
10
19.5629383979824
20
11.1211330040725
30
0
41
1
10
19.5566306381172
20
11.1082622565367
30
0
41
1
10
19.5482628444049
20
11.0971812743161
30
0
0
SPLINE
5
103
100
AcDbEntity
8
1
62
256
6
ByLayer
370
18
48
1
60
0
100
AcDbSpline
70
4
71
3
72
8
73
4
40
0
40
0
40
0
40
0
40
1
40
1
40
1
40
1
41
1
10
18.7958815321494
20
11.278075715727
30
0
41
1
10
18.7977485125444
20
11.2844782054559
30
0
41
1
10
18.7996152452247
20
11.2908798456896
30
0
41
1
10
18.8014817394848
20
11.2972806683022
30
0
0
LINE
5
7A
100
AcDbEntity
8
80
62
256
6
ByLayer
370
18
48
1
60
0
100
AcDbLine
10
0
20
0
30
0
11
-5
21
0
31
0
39
0
210
0
220
0
230
1
0
LINE
5
7B
100
AcDbEntity
8
81
62
256
6
ByLayer
370
18
48
1
60
0
100
AcDbLine
10
24
20
15
30
0
11
29
21
15
31
0
39
0
210
0
220
0
230
1
0
LINE
5
7C
100
AcDbEntity
8
1
62
256
6
ByLayer
370
18
48
1
60
0
100
AcDbLine
10
16.974686
20
4.839376
30
0
11
16.976524
21
4.860385
31
0
39
0
210
0
220
0
230
1
0
LINE
5
7E
100
AcDbEntity
8
1
62
256
6
ByLayer
370
13
48
1
60
0
100
AcDbLine
10
16.294847
20
-0.565308
30
0
11
17.805914
21
-1.745883
31
0
39
0
210
0
220
0
230
1
0
LINE
5
7F
100
AcDbEntity
8
1
62
256
6
ByLayer
370
13
48
1
60
0
100
AcDbLine
10
0.5
20
-10
30
0
11
0.5
21
9.925
31
0
39
0
210
0
220
0
230
1
0
LINE
5
80
100
AcDbEntity
8
1
62
256
6
ByLayer
370
13
48
1
60
0
100
AcDbLine
10
8.7184
20
1.259509
30
0
11
8.325998
21
1.592177
31
0
39
0
210
0
220
0
230
1
0
LINE
5
81
100
AcDbEntity
8
1
62
256
6
ByLayer
370
13
48
1
60
0
100
AcDbLine
10
5.302651
20
-3.426279
30
0
11
4.868111
21
-3.156514
31
0
39
0
210
0
220
0
230
1
0
LINE
5
82
100
AcDbEntity
8
1
62
256
6
ByLayer
370
13
48
1
60
0
100
AcDbLine
10
10.536557
20
-7.515454
30
0
11
10.903433
21
-7.871825
31
0
39
0
210
0
220
0
230
1
0
LINE
5
83
100
AcDbEntity
8
1
62
256
6
ByLayer
370
13
48
1
60
0
100
AcDbLine
10
14.674529
20
-3.36784
30
0
11
14.256812
21
-3.067573
31
0
39
0
210
0
220
0
230
1
0
LINE
5
84
100
AcDbEntity
8
1
62
256
6
ByLayer
370
13
48
1
60
0
100
AcDbLine
10
14.124607
20
0.37502
30
0
11
14.190721
21
0.4542
31
0
39
0
210
0
220
0
230
1
0
LINE
5
85
100
AcDbEntity
8
1
62
256
6
ByLayer
370
13
48
1
60
0
100
AcDbLine
10
13.85397
20
0.050902
30
0
11
14.023864
21
0.254369
31
0
39
0
210
0
220
0
230
1
0
LINE
5
86
100
AcDbEntity
8
1
62
256
6
ByLayer
370
13
48
1
60
0
100
AcDbLine
10
12.15155
20
2.047375
30
0
11
12.090716
21
1.964069
31
0
39
0
210
0
220
0
230
1
0
LINE
5
87
100
AcDbEntity
8
1
62
256
6
ByLayer
370
13
48
1
60
0
100
AcDbLine
10
11.998021
20
1.83713
30
0
11
11.841699
21
1.62306
31
0
39
0
210
0
220
0
230
1
0
LINE
5
88
100
AcDbEntity
8
1
62
256
6
ByLayer
370
13
48
1
60
0
100
AcDbLine
10
10.903433
20
-7.871825
30
0
11
12.046748
21
-8.982403
31
0
39
0
210
0
220
0
230
1
0
LINE
5
89
100
AcDbEntity
8
1
62
256
6
ByLayer
370
13
48
1
60
0
100
AcDbLine
10
4.868111
20
-3.156514
30
0
11
3.513928
21
-2.315834
31
0
39
0
210
0
220
0
230
1
0
LINE
5
8A
100
AcDbEntity
8
1
62
256
6
ByLayer
370
13
48
1
60
0
100
AcDbLine
10
14.674529
20
-3.36784
30
0
11
15.968762
21
-4.298171
31
0
39
0
210
0
220
0
230
1
0
LINE
5
8B
100
AcDbEntity
8
1
62
256
6
ByLayer
370
18
48
1
60
0
100
AcDbLine
10
17.07768
20
4.869231
30
0
11
17.074305
21
4.83066
31
0
39
0
210
0
220
0
230
1
0
LINE
5
8C
100
AcDbEntity
8
1
62
256
6
ByLayer
370
18
48
1
60
0
100
AcDbLine
10
22.387497
20
5.333773
30
0
11
22.333859
21
4.720694
31
0
39
0
210
0
220
0
230
1
0
LINE
5
8D
100
AcDbEntity
8
1
62
256
6
ByLayer
370
18
48
1
60
0
100
AcDbLine
10
13.959029
20
13.354711
30
0
11
14.333778
21
13.387497
31
0
39
0
210
0
220
0
230
1
0
LINE
5
8E
100
AcDbEntity
8
1
62
256
6
ByLayer
370
13
48
1
60
0
100
AcDbLine
10
8.325998
20
1.592177
30
0
11
7.110198
21
2.622898
31
0
39
0
210
0
220
0
230
1
0
LINE
5
8F
100
AcDbEntity
8
1
62
256
6
ByLayer
370
13
48
1
60
0
100
AcDbLine
10
2.584427
20
10.146446
30
0
11
10.653292
21
3.842358
31
0
39
0
210
0
220
0
230
1
0
LINE
5
90
100
AcDbEntity
8
1
62
256
6
ByLayer
370
13
48
1
60
0
100
AcDbLine
10
17.074305
20
4.83066
30
0
11
16.974686
21
4.839376
31
0
39
0
210
0
220
0
230
1
0
LINE
5
91
100
AcDbEntity
8
1
62
256
6
ByLayer
370
18
48
1
60
0
100
AcDbLine
10
10.690185
20
-10
30
0
11
12.026319
21
-10
31
0
39
0
210
0
220
0
230
1
0
LINE
5
92
100
AcDbEntity
8
1
62
256
6
ByLayer
370
18
48
1
60
0
100
AcDbLine
10
0
20
-10
30
0
11
0.5
21
-10
31
0
39
0
210
0
220
0
230
1
0
LINE
5
93
100
AcDbEntity
8
1
62
256
6
ByLayer
370
18
48
1
60
0
100
AcDbLine
10
0.5
20
-10
30
0
11
1.214772
21
-10
31
0
39
0
210
0
220
0
230
1
0
LINE
5
94
100
AcDbEntity
8
1
62
256
6
ByLayer
370
18
48
1
60
0
100
AcDbLine
10
13.959029
20
13.354711
30
0
11
3.111974
21
10.650237
31
0
39
0
210
0
220
0
230
1
0
LINE
5
95
100
AcDbEntity
8
1
62
256
6
ByLayer
370
18
48
1
60
0
100
AcDbLine
10
9.533968
20
4.08236
30
0
11
2.029163
21
9.945757
31
0
39
0
210
0
220
0
230
1
0
LINE
5
96
100
AcDbEntity
8
1
62
256
6
ByLayer
370
18
48
1
60
0
100
AcDbLine
10
1.214772
20
9.925
30
0
11
1.214772
21
-10
31
0
39
0
210
0
220
0
230
1
0
LINE
5
97
100
AcDbEntity
8
1
62
256
6
ByLayer
370
18
48
1
60
0
100
AcDbLine
10
0.5
20
9.925
30
0
11
1.214772
21
9.925
31
0
39
0
210
0
220
0
230
1
0
LINE
5
98
100
AcDbEntity
8
1
62
256
6
ByLayer
370
18
48
1
60
0
100
AcDbLine
10
17.805914
20
-1.745883
30
0
11
17.518732
21
-2.156021
31
0
39
0
210
0
220
0
230
1
0
LINE
5
99
100
AcDbEntity
8
1
62
256
6
ByLayer
370
18
48
1
60
0
100
AcDbLine
10
1.214772
20
-10
30
0
11
5.590929
21
-10
31
0
39
0
210
0
220
0
230
1
0
LINE
5
9A
100
AcDbEntity
8
1
62
256
6
ByLayer
370
18
48
1
60
0
100
AcDbLine
10
12.026319
20
-10
30
0
11
17.518732
21
-2.156021
31
0
39
0
210
0
220
0
230
1
0
LINE
5
9B
100
AcDbEntity
8
1
62
256
6
ByLayer
370
18
48
1
60
0
100
AcDbLine
10
22.333859
20
4.720694
30
0
11
17.805914
21
-1.745883
31
0
39
0
210
0
220
0
230
1
0
LINE
5
9C
100
AcDbEntity
8
1
62
256
6
ByLayer
370
18
48
1
60
0
100
AcDbLine
10
1.214772
20
9.925
30
0
11
1.772277
21
9.925
31
0
39
0
210
0
220
0
230
1
0
LINE
5
9D
100
AcDbEntity
8
1
62
256
6
ByLayer
370
18
48
1
60
0
100
AcDbLine
10
0
20
9.925
30
0
11
0.5
21
9.925
31
0
39
0
210
0
220
0
230
1
0
LINE
5
9E
100
AcDbEntity
8
1
62
256
6
ByLayer
370
18
48
1
60
0
100
AcDbLine
10
0
20
-10
30
0
11
0
21
9.925
31
0
39
0
210
0
220
0
230
1
0
LINE
5
9F
100
AcDbEntity
8
1
62
256
6
ByLayer
370
18
48
1
60
0
100
AcDbLine
10
17.518732
20
-2.156021
30
0
11
16.798509
21
-1.593321
31
0
39
0
210
0
220
0
230
1
0
LINE
5
A0
100
AcDbEntity
8
SK1
62
256
6
ByLayer
370
18
48
1
60
0
100
AcDbLine
10
-66
20
9.925
30
0
11
0
21
9.925
31
0
39
0
210
0
220
0
230
1
0
LINE
5
A2
100
AcDbEntity
8
SK1
62
256
6
ByLayer
370
18
48
1
60
0
100
AcDbLine
10
-66
20
9.925
30
0
11
-69
21
6.925
31
0
39
0
210
0
220
0
230
1
0
LINE
5
A3
100
AcDbEntity
8
SK1
62
256
6
ByLayer
370
18
48
1
60
0
100
AcDbLine
10
-66
20
-10
30
0
11
0
21
-10
31
0
39
0
210
0
220
0
230
1
0
LINE
5
A4
100
AcDbEntity
8
SK1
62
256
6
ByLayer
370
18
48
1
60
0
100
AcDbLine
10
-69
20
6.925
30
0
11
-69
21
-7
31
0
39
0
210
0
220
0
230
1
0
LINE
5
A5
100
AcDbEntity
8
SK1
62
256
6
ByLayer
370
18
48
1
60
0
100
AcDbLine
10
-66
20
-10
30
0
11
-69
21
-7
31
0
39
0
210
0
220
0
230
1
0
LINE
5
A6
100
AcDbEntity
8
SK1
62
256
6
ByLayer
370
18
48
1
60
0
100
AcDbLine
10
0
20
-10
30
0
11
0
21
9.925
31
0
39
0
210
0
220
0
230
1
0
LINE
5
A7
100
AcDbEntity
8
1
62
256
6
ByLayer
370
13
48
1
60
0
100
AcDbLine
10
14.375554
20
13.864997
30
0
11
13.602836
21
5.032791
31
0
39
0
210
0
220
0
230
1
0
LINE
5
A8
100
AcDbEntity
8
1
62
256
6
ByLayer
370
13
48
1
60
0
100
AcDbLine
10
14.032791
20
4.602836
30
0
11
22.864997
21
5.375554
31
0
39
0
210
0
220
0
230
1
0
LINE
5
A9
100
AcDbEntity
8
1
62
256
6
ByLayer
370
13
48
1
60
0
100
AcDbLine
10
23.225772
20
5.736329
30
0
11
23.99849
21
14.568535
31
0
39
0
210
0
220
0
230
1
0
LINE
5
AA
100
AcDbEntity
8
1
62
256
6
ByLayer
370
13
48
1
60
0
100
AcDbLine
10
23.568535
20
14.99849
30
0
11
14.736329
21
14.225772
31
0
39
0
210
0
220
0
230
1
0
MTEXT
5
104
100
AcDbEntity
8
SK6
62
256
6
ByLayer
370
18
48
1
60
0
100
AcDbMText
10
-39.139499
20
-52.125025
30
0
210
0
220
0
230
1
1
\W0.7839;QS-SCLCR202009C
40
3.5
41
0
44
1.084337
50
0
71
7
72
5
7
iso_b_vert
0
DIMENSION
5
115
100
AcDbEntity
8
2
62
256
6
ByLayer
370
13
48
1
60
0
100
AcDbDimension
2
DimnDraft3D1
10
34.522884
20
15
30
0
11
34.522884
21
-1.607895
31
0
70
32
71
5
72
1
41
1
210
0
220
0
230
1
3
Standard
100
AcDbAlignedDimension
13
19
23
-10
33
0
14
26
24
15
34
0
50
90
100
AcDbRotatedDimension
1001
ACAD
1000
DSTYLE
1002
{
1070
    74
1070
     0
1070
   279
1070
     0
1070
   172
1070
     1
1070
   173
1070
     1
1070
   340
1005
105
1070
   271
1070
     1
1070
    77
1070
     1
1070
    73
1070
     0
1070
   171
1070
     3
1070
   274
1070
     4
1070
   177
1070
     2
1070
   176
1070
     2
1070
   178
1070
     7
1070
    78
1070
     8
1070
    41
1041
3.175
1070
   147
1041
1.75
1070
    42
1041
2.0
1070
    44
1041
2.0
1070
   140
1041
3.5
1070
   343
1005
116
1070
   344
1005
116
1002
}
0
DIMENSION
5
12A
100
AcDbEntity
8
SK2
62
256
6
ByLayer
370
13
48
1
60
0
100
AcDbDimension
2
DimnDraft3D2
10
-83.60005
20
-10
30
0
11
-83.60005
21
-4.107895
31
0
70
32
71
5
72
1
41
1
210
0
220
0
230
1
3
Standard
100
AcDbAlignedDimension
13
-2
23
10
33
0
14
-71
24
-10
34
0
50
90
100
AcDbRotatedDimension
1001
ACAD
1000
DSTYLE
1002
{
1070
    74
1070
     0
1070
   279
1070
     0
1070
   172
1070
     1
1070
   173
1070
     1
1070
   340
1005
105
1070
   271
1070
     1
1070
    77
1070
     1
1070
    73
1070
     0
1070
   171
1070
     3
1070
   274
1070
     4
1070
   177
1070
     2
1070
   176
1070
     2
1070
   178
1070
     7
1070
    78
1070
     8
1070
    41
1041
3.175
1070
   147
1041
1.75
1070
    42
1041
2.0
1070
    44
1041
2.0
1070
   140
1041
3.5
1070
   343
1005
116
1070
   344
1005
116
1002
}
0
DIMENSION
5
138
100
AcDbEntity
8
2
62
256
6
ByLayer
370
13
48
1
60
0
100
AcDbDimension
2
DimnDraft3D3
10
29
20
15
30
0
11
17.556998
21
22.795799
31
0
70
34
71
5
72
1
41
1
210
0
220
0
230
1
3
Standard
100
AcDb2LineAngularDimension
13
24
23
15
33
0
14
23.562557
24
10
34
0
15
24
25
15
35
0
16
19.19406
26
20.244763
36
0
40
0
0
DIMENSION
5
146
100
AcDbEntity
8
SK2
62
256
6
ByLayer
370
13
48
1
60
0
100
AcDbDimension
2
DimnDraft3D4
10
24
20
-37.844955
30
0
11
-26.607895
21
-37.844955
31
0
70
32
71
5
72
1
41
1
210
0
220
0
230
1
3
Standard
100
AcDbAlignedDimension
13
-69
23
-12
33
0
14
24
24
13
34
0
50
0
100
AcDbRotatedDimension
1001
ACAD
1000
DSTYLE
1002
{
1070
   279
1070
     0
1070
   172
1070
     1
1070
   173
1070
     1
1070
   340
1005
105
1070
   271
1070
     1
1070
    77
1070
     1
1070
    73
1070
     0
1070
   171
1070
     3
1070
   274
1070
     4
1070
   177
1070
     2
1070
   176
1070
     2
1070
   178
1070
     7
1070
    78
1070
     8
1070
    41
1041
3.175
1070
   147
1041
1.75
1070
    42
1041
2.0
1070
    44
1041
2.0
1070
   140
1041
3.5
1070
   343
1005
116
1070
   344
1005
116
1002
}
0
DIMENSION
5
154
100
AcDbEntity
8
2
62
256
6
ByLayer
370
13
48
1
60
0
100
AcDbDimension
2
DimnDraft3D5
10
24
20
-23.10005
30
0
11
7.707895
21
-23.10005
31
0
70
32
71
5
72
1
41
1
210
0
220
0
230
1
3
Standard
100
AcDbAlignedDimension
13
0
23
8
33
0
14
24
24
13
34
0
50
0
100
AcDbRotatedDimension
1001
ACAD
1000
DSTYLE
1002
{
1070
   279
1070
     0
1070
   172
1070
     1
1070
   173
1070
     1
1070
   340
1005
105
1070
   271
1070
     1
1070
    77
1070
     1
1070
    73
1070
     0
1070
   171
1070
     3
1070
   274
1070
     4
1070
   177
1070
     2
1070
   176
1070
     2
1070
   178
1070
     7
1070
    78
1070
     8
1070
    41
1041
3.175
1070
   147
1041
1.75
1070
    42
1041
2.0
1070
    44
1041
2.0
1070
   140
1041
3.5
1070
   343
1005
116
1070
   344
1005
116
1002
}
0
DIMENSION
5
162
100
AcDbEntity
8
SK2
62
256
6
ByLayer
370
13
48
1
60
0
100
AcDbDimension
2
DimnDraft3D6
10
-66
20
-23.10005
30
0
11
-50.145
21
-23.10005
31
0
70
32
71
5
72
1
41
1
210
0
220
0
230
1
3
Standard
100
AcDbAlignedDimension
13
-69
23
-12
33
0
14
-66
24
-12
34
0
50
0
100
AcDbRotatedDimension
1001
ACAD
1000
DSTYLE
1002
{
1070
   279
1070
     0
1070
   172
1070
     1
1070
   173
1070
     1
1070
   340
1005
105
1070
    77
1070
     1
1070
    73
1070
     0
1070
   171
1070
     3
1070
   274
1070
     4
1070
   177
1070
     2
1070
   176
1070
     2
1070
   178
1070
     7
1070
    78
1070
     8
1070
    41
1041
3.175
1070
   147
1041
1.75
1070
    42
1041
2.0
1070
    44
1041
2.0
1070
   140
1041
3.5
1070
   343
1005
116
1070
   344
1005
116
1002
}
0
ENDSEC
0
SECTION
2
OBJECTS
0
DICTIONARY
5
1cc
330
0
100
AcDbDictionary
280
0
281
1
3
ACAD_GROUP
350
1cd
3
ACAD_MLINESTYLE
350
1ce
0
DICTIONARY
5
1cd
330
0
100
AcDbDictionary
280
0
281
1
0
DICTIONARY
5
1ce
330
0
100
AcDbDictionary
280
0
281
1
3
Standard
350
18
0
MLINESTYLE
5
18
330
1ce
100
AcDbMlineStyle
2
Standard
70
0
3

62
256
51
90
52
90
71
2
49
-0.5
62
256
6
ByLayer
49
0.5
62
256
6
ByLayer
0
RASTERVARIABLES
5
1bb
330

100
AcDbRasterVariables
90
0
70
1
71
1
72
1
0
ENDSEC
0
EOF
