0
SECTION
2
HEADER
9
$ACADVER
1
AC1015
9
$DWGCODEPAGE
3
ANSI_1252
9
$HANDSEED
5
22c
9
$ANGBASE
50
0
9
$ANGDIR
70
0
9
$ATTMODE
70
1
9
$AUNITS
70
0
9
$AUPREC
70
0
9
$CECOLOR
62
256
9
$CELTSCALE
40
1
9
$CELTYPE
6
ByLayer
9
$CELWEIGHT
370
18
9
$CLAYER
8
0
9
$CMLJUST
70
0
9
$CMLSCALE
40
1
9
$CMLSTYLE
2
Standard
9
$DIMSTYLE
2
Standard
9
$TEXTSIZE
40
0.2
9
$TEXTSTYLE
7
Standard
9
$LUNITS
70
2
9
$LUPREC
70
4
9
$EXTNAMES
290
1
9
$INSUNITS
70
4
9
$LTSCALE
40
1
9
$LWDISPLAY
290
1
9
$PDMODE
70
0
9
$PDSIZE
40
0
9
$PLINEGEN
70
0
0
ENDSEC
0
SECTION
2
CLASSES
0
CLASS
1
RASTERVARIABLES
2
AcDbRasterVariables
3
ISM
90
0
280
0
281
0
0
ENDSEC
0
SECTION
2
TABLES
0
TABLE
2
VPORT
5
222
100
AcDbSymbolTable
0
VPORT
5
1
100
AcDbSymbolTableRecord
100
AcDbViewportTableRecord
2
*Active
70
0
10
0
20
0
11
1
21
1
12
-1
22
1
13
0
23
0
14
0.5
24
0.5
15
10
25
10
16
0
26
0
36
1
17
0
27
0
37
0
0
ENDTAB
0
TABLE
2
LTYPE
5
223
100
AcDbSymbolTable
0
LTYPE
5
14
100
AcDbSymbolTableRecord
100
AcDbLinetypeTableRecord
70
0
2
ByBlock
3

72
65
73
0
40
0
0
LTYPE
5
15
100
AcDbSymbolTableRecord
100
AcDbLinetypeTableRecord
70
0
2
ByLayer
3

72
65
73
0
40
0
0
LTYPE
5
16
100
AcDbSymbolTableRecord
100
AcDbLinetypeTableRecord
70
0
2
CONTINUOUS
3
Solid line
72
65
73
0
40
0
0
LTYPE
5
6A
100
AcDbSymbolTableRecord
100
AcDbLinetypeTableRecord
70
0
2
CENTER
3
____ _ ____ _ ____ _ ____
72
65
73
4
40
47.5
49
22
74
0
49
-8.5
74
0
49
8.5
74
0
49
-8.5
74
0
0
LTYPE
5
6B
100
AcDbSymbolTableRecord
100
AcDbLinetypeTableRecord
70
0
2
DASHED
3
__ __ __ __ __ __ __ __ __
72
65
73
2
40
25.72
49
12.86
74
0
49
-12.86
74
0
0
ENDTAB
0
TABLE
2
LAYER
5
224
100
AcDbSymbolTable
0
LAYER
5
10
100
AcDbSymbolTableRecord
100
AcDbLayerTableRecord
2
0
70
0
62
7
6
CONTINUOUS
290
1
370
-3
390
0
0
LAYER
5
6D
100
AcDbSymbolTableRecord
100
AcDbLayerTableRecord
2
80
70
0
62
-6
6
CONTINUOUS
290
1
370
-3
390
0
0
LAYER
5
6F
100
AcDbSymbolTableRecord
100
AcDbLayerTableRecord
2
81
70
0
62
-3
6
CONTINUOUS
290
1
370
-3
390
0
0
LAYER
5
71
100
AcDbSymbolTableRecord
100
AcDbLayerTableRecord
2
1
70
0
62
4
6
CONTINUOUS
290
1
370
-3
390
0
0
LAYER
5
83
100
AcDbSymbolTableRecord
100
AcDbLayerTableRecord
2
4
70
0
62
-2
6
CENTER
290
1
370
-3
390
0
0
LAYER
5
199
100
AcDbSymbolTableRecord
100
AcDbLayerTableRecord
2
2
70
0
62
7
6
CONTINUOUS
290
1
370
-3
390
0
0
LAYER
5
20e
100
AcDbSymbolTableRecord
100
AcDbLayerTableRecord
2
SK6
70
0
62
5
6
CONTINUOUS
290
1
370
-3
390
0
0
LAYER
5
20f
100
AcDbSymbolTableRecord
100
AcDbLayerTableRecord
2
SK2
70
0
62
7
6
CONTINUOUS
290
1
370
-3
390
0
0
ENDTAB
0
TABLE
2
STYLE
5
225
100
AcDbSymbolTable
0
STYLE
5
11
100
AcDbSymbolTableRecord
100
AcDbTextStyleTableRecord
2
Standard
3
txt
70
0
71
0
40
0
41
1
42
0
50
0
0
STYLE
5
189
100
AcDbSymbolTableRecord
100
AcDbTextStyleTableRecord
2
iso_b_vert
3
simplex.shx
70
0
71
0
40
0
41
1
42
0
50
0
0
STYLE
5
18A
100
AcDbSymbolTableRecord
100
AcDbTextStyleTableRecord
2
DWGDirectTextStyle
3
simplex
70
0
71
0
40
0
41
1
42
0
50
0
0
ENDTAB
0
TABLE
2
DIMSTYLE
5
226
100
AcDbSymbolTable
100
AcDbDimStyleTable
0
DIMSTYLE
105
27
100
AcDbSymbolTableRecord
100
AcDbDimStyleTableRecord
2
Standard
70
0
3
<>
41
0.18
42
0.0625
44
0.18
140
0.18
147
0.09
73
0
74
0
77
1
271
2
275
0
278
52
280
0
340
11
0
ENDTAB
0
TABLE
2
VIEW
5
227
100
AcDbSymbolTable
0
ENDTAB
0
TABLE
2
UCS
5
228
100
AcDbSymbolTable
0
ENDTAB
0
TABLE
2
APPID
5
229
100
AcDbSymbolTable
0
APPID
5
12
100
AcDbSymbolTableRecord
100
AcDbRegAppTableRecord
2
ACAD
70
0
0
ENDTAB
0
TABLE
2
BLOCK_RECORD
5
22a
100
AcDbSymbolTable
0
BLOCK_RECORD
5
1F
100
AcDbSymbolTableRecord
100
AcDbBlockTableRecord
2
*Model_Space
340
0
70
0
0
BLOCK_RECORD
5
1B
100
AcDbSymbolTableRecord
100
AcDbBlockTableRecord
2
*Paper_Space
340
0
70
0
0
BLOCK_RECORD
5
23
100
AcDbSymbolTableRecord
100
AcDbBlockTableRecord
2
*Paper_Space0
340
0
70
0
0
BLOCK_RECORD
5
18C
100
AcDbSymbolTableRecord
100
AcDbBlockTableRecord
2
DimnDraft3D1
340
0
70
0
0
BLOCK_RECORD
5
197
100
AcDbSymbolTableRecord
100
AcDbBlockTableRecord
2
DimnDraft3D2
340
0
70
0
0
BLOCK_RECORD
5
1A2
100
AcDbSymbolTableRecord
100
AcDbBlockTableRecord
2
DimnDraft3D3
340
0
70
0
0
ENDTAB
0
ENDSEC
0
SECTION
2
BLOCKS
0
BLOCK
5
20
100
AcDbEntity
8
0
100
AcDbBlockBegin
2
*Model_Space
70
0
10
0
20
0
30
0
3
*Model_Space
0
ENDBLK
5
21
100
AcDbEntity
8
0
100
AcDbBlockEnd
0
BLOCK
5
1C
100
AcDbEntity
8
0
100
AcDbBlockBegin
2
*Paper_Space
70
0
10
0
20
0
30
0
3
*Paper_Space
0
ENDBLK
5
1D
100
AcDbEntity
8
0
100
AcDbBlockEnd
0
BLOCK
5
24
100
AcDbEntity
8
0
100
AcDbBlockBegin
2
*Paper_Space0
70
0
10
0
20
0
30
0
3
*Paper_Space0
0
ENDBLK
5
25
100
AcDbEntity
8
0
100
AcDbBlockEnd
0
BLOCK
5
194
100
AcDbEntity
8
0
100
AcDbBlockBegin
2
DimnDraft3D1
70
0
10
0
20
0
30
0
3
DimnDraft3D1
0
MTEXT
5
18D
100
AcDbEntity
8
SK2
62
256
6
ByLayer
370
18
48
1
60
0
100
AcDbMText
10
-14.125
20
15.646053
30
0
210
0
220
0
230
1
1
\W0.6754;34
40
3.5
41
0
44
1.084337
50
90
71
7
72
5
7
iso_b_vert
0
LINE
5
18F
100
AcDbEntity
8
SK2
62
256
6
ByLayer
370
13
48
1
60
0
100
AcDbLine
10
-2
20
34
30
0
11
-15.25
21
34
31
0
39
0
210
0
220
0
230
1
0
LINE
5
190
100
AcDbEntity
8
SK2
62
256
6
ByLayer
370
13
48
1
60
0
100
AcDbLine
10
-7
20
0
30
0
11
-15.25
21
0
31
0
39
0
210
0
220
0
230
1
0
LINE
5
191
100
AcDbEntity
8
SK2
62
256
6
ByLayer
370
13
48
1
60
0
100
AcDbLine
10
-13.25
20
34
30
0
11
-13.25
21
0
31
0
39
0
210
0
220
0
230
1
0
SOLID
5
192
100
AcDbEntity
8
SK2
62
256
6
ByLayer
370
13
48
1
60
0
100
AcDbTrace
10
-13.25
20
34
30
0
11
-12.832003
21
30.825002
31
0
12
-13.667997
22
30.824998
32
0
13
-13.25
23
34
33
0
39
0
210
0
220
0
230
1
0
SOLID
5
193
100
AcDbEntity
8
SK2
62
256
6
ByLayer
370
13
48
1
60
0
100
AcDbTrace
10
-13.25
20
0
30
0
11
-13.667997
21
3.174998
31
0
12
-12.832003
22
3.175002
32
0
13
-13.25
23
0
33
0
39
0
210
0
220
0
230
1
0
ENDBLK
5
195
100
AcDbEntity
8
0
100
AcDbBlockEnd
0
BLOCK
5
19F
100
AcDbEntity
8
0
100
AcDbBlockBegin
2
DimnDraft3D2
70
0
10
0
20
0
30
0
3
DimnDraft3D2
0
MTEXT
5
198
100
AcDbEntity
8
2
62
256
6
ByLayer
370
18
48
1
60
0
100
AcDbMText
10
30.6
20
74.125
30
0
210
0
220
0
230
1
1
\W0.6920;64
40
3.5
41
0
44
1.084337
50
0
71
7
72
5
7
iso_b_vert
0
LINE
5
19A
100
AcDbEntity
8
2
62
256
6
ByLayer
370
13
48
1
60
0
100
AcDbLine
10
0
20
2
30
0
11
0
21
75.25
31
0
39
0
210
0
220
0
230
1
0
LINE
5
19B
100
AcDbEntity
8
2
62
256
6
ByLayer
370
13
48
1
60
0
100
AcDbLine
10
64
20
51.7
30
0
11
64
21
75.25
31
0
39
0
210
0
220
0
230
1
0
LINE
5
19C
100
AcDbEntity
8
2
62
256
6
ByLayer
370
13
48
1
60
0
100
AcDbLine
10
0
20
73.25
30
0
11
64
21
73.25
31
0
39
0
210
0
220
0
230
1
0
SOLID
5
19D
100
AcDbEntity
8
2
62
256
6
ByLayer
370
13
48
1
60
0
100
AcDbTrace
10
0
20
73.25
30
0
11
3.174998
21
73.667997
31
0
12
3.175002
22
72.832003
32
0
13
0
23
73.25
33
0
39
0
210
0
220
0
230
1
0
SOLID
5
19E
100
AcDbEntity
8
2
62
256
6
ByLayer
370
13
48
1
60
0
100
AcDbTrace
10
64
20
73.25
30
0
11
60.825002
21
72.832003
31
0
12
60.824998
22
73.667997
32
0
13
64
23
73.25
33
0
39
0
210
0
220
0
230
1
0
ENDBLK
5
1A0
100
AcDbEntity
8
0
100
AcDbBlockEnd
0
BLOCK
5
1AA
100
AcDbEntity
8
0
100
AcDbBlockBegin
2
DimnDraft3D3
70
0
10
0
20
0
30
0
3
DimnDraft3D3
0
MTEXT
5
1A3
100
AcDbEntity
8
SK2
62
256
6
ByLayer
370
18
48
1
60
0
100
AcDbMText
10
75.875
20
35.708553
30
0
210
0
220
0
230
1
1
\W0.6337;32
40
3.5
41
0
44
1.084337
50
90
71
7
72
5
7
iso_b_vert
0
MTEXT
5
1A4
100
AcDbEntity
8
SK2
62
256
6
ByLayer
370
18
48
1
60
0
100
AcDbMText
10
75.875
20
29.859868
30
0
210
0
220
0
230
1
1
\W1.1719;%%c
40
3.5
41
0
44
1.084337
50
90
71
7
72
5
7
iso_b_vert
0
LINE
5
1A5
100
AcDbEntity
8
SK2
62
256
6
ByLayer
370
13
48
1
60
0
100
AcDbLine
10
65.7
20
50
30
0
11
78.75
21
50
31
0
39
0
210
0
220
0
230
1
0
LINE
5
1A6
100
AcDbEntity
8
SK2
62
256
6
ByLayer
370
13
48
1
60
0
100
AcDbLine
10
65.7
20
18
30
0
11
78.75
21
18
31
0
39
0
210
0
220
0
230
1
0
LINE
5
1A7
100
AcDbEntity
8
SK2
62
256
6
ByLayer
370
13
48
1
60
0
100
AcDbLine
10
76.75
20
50
30
0
11
76.75
21
18
31
0
39
0
210
0
220
0
230
1
0
SOLID
5
1A8
100
AcDbEntity
8
SK2
62
256
6
ByLayer
370
13
48
1
60
0
100
AcDbTrace
10
76.75
20
50
30
0
11
77.167997
21
46.825002
31
0
12
76.332003
22
46.824998
32
0
13
76.75
23
50
33
0
39
0
210
0
220
0
230
1
0
SOLID
5
1A9
100
AcDbEntity
8
SK2
62
256
6
ByLayer
370
13
48
1
60
0
100
AcDbTrace
10
76.75
20
18
30
0
11
76.332003
21
21.174998
31
0
12
77.167997
22
21.175002
32
0
13
76.75
23
18
33
0
39
0
210
0
220
0
230
1
0
ENDBLK
5
1AB
100
AcDbEntity
8
0
100
AcDbBlockEnd
0
ENDSEC
0
SECTION
2
ENTITIES
0
ARC
5
109
100
AcDbEntity
8
1
62
256
6
ByLayer
370
13
48
1
60
0
100
AcDbCircle
39
0
10
6.5
20
34
30
0
40
2
210
0
220
0
230
1
100
AcDbArc
50
75
51
345
0
ARC
5
10C
100
AcDbEntity
8
1
62
256
6
ByLayer
370
13
48
1
60
0
100
AcDbCircle
39
0
10
3.982956
20
0
30
0
40
5.25000000002108
210
0
220
0
230
-1
100
AcDbArc
50
233.067383
51
233.809195
0
ARC
5
10D
100
AcDbEntity
8
1
62
256
6
ByLayer
370
13
48
1
60
0
100
AcDbCircle
39
0
10
3.982956
20
0
30
0
40
5.25000000006809
210
0
220
0
230
-1
100
AcDbArc
50
126.190805
51
126.932617
0
CIRCLE
5
10A
100
AcDbEntity
8
1
62
256
6
ByLayer
370
13
48
1
60
0
100
AcDbCircle
10
6.5
20
34
30
0
40
1.71585
39
0
210
0
220
0
230
1
0
CIRCLE
5
10B
100
AcDbEntity
8
1
62
256
6
ByLayer
370
18
48
1
60
0
100
AcDbCircle
10
6.5
20
34
30
0
40
1.5
39
0
210
0
220
0
230
1
0
ELLIPSE
5
10E
100
AcDbEntity
8
1
62
256
6
ByLayer
370
13
48
1
60
0
100
AcDbEllipse
10
27.500008
20
60.000025
30
0
11
27.3009879824479
21
85.7593193210702
31
0
210
0
220
0
230
-1
40
1
41
-3.13547650718078
42
-3.13226165210104
0
ELLIPSE
5
10F
100
AcDbEntity
8
1
62
256
6
ByLayer
370
13
48
1
60
0
100
AcDbEllipse
10
-0.649453
20
59.990382
30
0
11
155.876242741256
21
5.75159250989596E-05
31
0
210
0
220
0
230
-1
40
0.577319
41
1.56441673901977
42
1.56871506248444
0
ELLIPSE
5
110
100
AcDbEntity
8
1
62
256
6
ByLayer
370
13
48
1
60
0
100
AcDbEllipse
10
1.94822
20
59.984129
30
0
11
155.87082451821
21
-0.000292032821085917
31
0
210
0
220
0
230
-1
40
0.577299
41
1.58108099390784
42
1.58537976067977
0
ELLIPSE
5
111
100
AcDbEntity
8
1
62
256
6
ByLayer
370
13
48
1
60
0
100
AcDbEllipse
10
-3.247847
20
60.007132
30
0
11
155.890752664847
21
-0.00021822961024551
31
0
210
0
220
0
230
-1
40
0.577373
41
1.54774626531401
42
1.55204508907565
0
ELLIPSE
5
112
100
AcDbEntity
8
1
62
256
6
ByLayer
370
13
48
1
60
0
100
AcDbEllipse
10
4.547103
20
60.009244
30
0
11
155.892588289204
21
0.000406803266368988
31
0
210
0
220
0
230
-1
40
0.57738
41
1.59775621764794
42
1.60205587336214
0
ELLIPSE
5
113
100
AcDbEntity
8
1
62
256
6
ByLayer
370
13
48
1
60
0
100
AcDbEllipse
10
-5.844688
20
59.984889
30
0
11
155.871458320191
21
0.000851370881638917
31
0
210
0
220
0
230
-1
40
0.577302
41
1.53107883126012
42
1.53538028358862
0
ELLIPSE
5
114
100
AcDbEntity
8
1
62
256
6
ByLayer
370
13
48
1
60
0
100
AcDbEllipse
10
7.145449
20
60.009361
30
0
11
155.892704335571
21
0.000639695032770905
31
0
210
0
220
0
230
-1
40
0.57738
41
1.61443516770716
42
1.61873750798927
0
ELLIPSE
5
115
100
AcDbEntity
8
1
62
256
6
ByLayer
370
13
48
1
60
0
100
AcDbEllipse
10
-8.443403
20
59.996325
30
0
11
155.881376095673
21
0.000298474228659694
31
0
210
0
220
0
230
-1
40
0.577339
41
1.51438873760651
42
1.5186932151937
0
ELLIPSE
5
116
100
AcDbEntity
8
1
62
256
6
ByLayer
370
13
48
1
60
0
100
AcDbEllipse
10
9.743955
20
60.010712
30
0
11
155.893904207601
21
0.00101047414676419
31
0
210
0
220
0
230
-1
40
0.577384
41
1.63112736878274
42
1.63543356937341
0
ELLIPSE
5
117
100
AcDbEntity
8
1
62
256
6
ByLayer
370
13
48
1
60
0
100
AcDbEllipse
10
-11.041348
20
59.996152
30
0
11
155.881214635523
21
0.000410883418322015
31
0
210
0
220
0
230
-1
40
0.577338
41
1.49768770445753
42
1.50199669507286
0
ELLIPSE
5
118
100
AcDbEntity
8
1
62
256
6
ByLayer
370
13
48
1
60
0
100
AcDbEllipse
10
12.341796
20
60.006802
30
0
11
155.890518764004
21
0.000806443279842328
31
0
210
0
220
0
230
-1
40
0.577372
41
1.64783202399824
42
1.65214342630968
0
ELLIPSE
5
119
100
AcDbEntity
8
1
62
256
6
ByLayer
370
13
48
1
60
0
100
AcDbEllipse
10
-13.639721
20
59.998827
30
0
11
155.883544727739
21
0.000154905378628973
31
0
210
0
220
0
230
-1
40
0.577347
41
1.48096350707616
42
1.48527816371855
0
ELLIPSE
5
11A
100
AcDbEntity
8
1
62
256
6
ByLayer
370
13
48
1
60
0
100
AcDbEllipse
10
14.938867
20
59.999574
30
0
11
155.884198899195
21
-6.10121371289139E-05
31
0
210
0
220
0
230
-1
40
0.577349
41
1.66455332910097
42
1.66887124174042
0
ELLIPSE
5
11B
100
AcDbEntity
8
1
62
256
6
ByLayer
370
13
48
1
60
0
100
AcDbEllipse
10
-0.847176
20
30.397368
30
0
11
-6.123031768696E-16
21
9.99999999932078
31
0
210
0
220
0
230
-1
40
0.008727
41
0.707584436669597
42
1.5707963267949
0
ELLIPSE
5
11C
100
AcDbEntity
8
1
62
256
6
ByLayer
370
13
48
1
60
0
100
AcDbEllipse
10
-1.021714
20
0.300754
30
0
11
-1.83690953075152E-15
21
30.0000000002933
31
0
210
0
220
0
230
-1
40
0.008727
41
1.5707963267949
42
2.58299208823804
0
ELLIPSE
5
11D
100
AcDbEntity
8
1
62
256
6
ByLayer
370
13
48
1
60
0
100
AcDbEllipse
10
-0.855903
20
0
30
0
11
-3.21459167878299E-16
21
5.24999999999877
31
0
210
0
220
0
230
-1
40
0.008727
41
-0.631648735561336
42
-2.50994391802845
0
ELLIPSE
5
11E
100
AcDbEntity
8
1
62
256
6
ByLayer
370
13
48
1
60
0
100
AcDbEllipse
10
-1.074075
20
0
30
0
11
-3.06151587814549E-15
21
49.9999998953059
31
0
210
0
220
0
230
-1
40
0.008727
41
0.453372708541777
42
0.707584437237309
0
ELLIPSE
5
11F
100
AcDbEntity
8
1
62
256
6
ByLayer
370
13
48
1
60
0
100
AcDbEllipse
10
-0.838449
20
29
30
0
11
-1.53075794227782E-16
21
2.49999999999976
31
0
210
0
220
0
230
-1
40
0.008727
41
0
42
6.28318530717959
0
ELLIPSE
5
120
100
AcDbEntity
8
1
62
256
6
ByLayer
370
13
48
1
60
0
100
AcDbEllipse
10
-5.845679
20
0.300793
30
0
11
51.9615588393536
21
-6.57609391856947E-06
31
0
210
0
220
0
230
-1
40
0.577351
41
1.45137299288988
42
1.46434989835119
0
ELLIPSE
5
121
100
AcDbEntity
8
1
62
256
6
ByLayer
370
13
48
1
60
0
100
AcDbEllipse
10
7.144707
20
0.300743
30
0
11
51.9615150378941
21
-2.21618992228319E-06
31
0
210
0
220
0
230
-1
40
0.57735
41
1.70203314088122
42
1.7150506916268
0
ELLIPSE
5
122
100
AcDbEntity
8
1
62
256
6
ByLayer
370
13
48
1
60
0
100
AcDbEllipse
10
-8.443778
20
0.300859
30
0
11
51.9616185768639
21
-2.55173420463554E-05
31
0
210
0
220
0
230
-1
40
0.577351
41
1.40083921891349
42
1.41390756312521
0
ELLIPSE
5
123
100
AcDbEntity
8
1
62
256
6
ByLayer
370
13
48
1
60
0
100
AcDbEllipse
10
9.742777
20
0.300727
30
0
11
51.9614995129498
21
-7.63649944124257E-06
31
0
210
0
220
0
230
-1
40
0.57735
41
1.7526574348079
42
1.76578402270388
0
ELLIPSE
5
124
100
AcDbEntity
8
1
62
256
6
ByLayer
370
13
48
1
60
0
100
AcDbEllipse
10
-11.041837
20
0.30079
30
0
11
51.9615574533712
21
-1.14204777603043E-05
31
0
210
0
220
0
230
-1
40
0.577351
41
1.34986360230026
42
1.3630597968305
0
ELLIPSE
5
125
100
AcDbEntity
8
1
62
256
6
ByLayer
370
13
48
1
60
0
100
AcDbEllipse
10
12.340897
20
0.300836
30
0
11
51.9616014654611
21
2.91394082344236E-05
31
0
210
0
220
0
230
-1
40
0.577351
41
1.80375893434575
42
1.81703234445815
0
ELLIPSE
5
126
100
AcDbEntity
8
1
62
256
6
ByLayer
370
13
48
1
60
0
100
AcDbEllipse
10
-13.639891
20
0.300735
30
0
11
51.9615065641865
21
7.26353014317405E-06
31
0
210
0
220
0
230
-1
40
0.57735
41
1.29829700516369
42
1.31166061774057
0
ELLIPSE
5
127
100
AcDbEntity
8
1
62
256
6
ByLayer
370
13
48
1
60
0
100
AcDbEllipse
10
14.939015
20
0.300903
30
0
11
51.9616700457891
21
6.40963642798701E-05
31
0
210
0
220
0
230
-1
40
0.577352
41
1.85548831825606
42
1.86741122940908
0
ELLIPSE
5
128
100
AcDbEntity
8
1
62
256
6
ByLayer
370
13
48
1
60
0
100
AcDbEllipse
10
-9.017044
20
0.300754
30
0
11
29.9999998638407
21
3.0319171514863E-14
31
0
210
0
220
0
230
-1
40
1
41
1.23035676627444
42
1.27418283223535
0
ELLIPSE
5
129
100
AcDbEntity
8
1
62
256
6
ByLayer
370
13
48
1
60
0
100
AcDbEllipse
10
15.017044
20
0.300754
30
0
11
-1.83690953328636E-15
21
30.0000000416917
31
0
210
0
220
0
230
-1
40
1
41
-2.65543205911121
42
-2.58299208345681
0
ELLIPSE
5
12A
100
AcDbEntity
8
1
62
256
6
ByLayer
370
13
48
1
60
0
100
AcDbEllipse
10
21.017043
20
1E-06
30
0
11
45.4342014934615
21
20.8742249351345
31
0
210
0
220
0
230
-1
40
1
41
-1.59349376888559
42
-1.55200986002184
0
ELLIPSE
5
12B
100
AcDbEntity
8
1
62
256
6
ByLayer
370
13
48
1
60
0
100
AcDbEllipse
10
-15.01704
20
1.1E-05
30
0
11
47.5460810886389
21
-15.4715739133713
31
0
210
0
220
0
230
-1
40
1
41
-1.58554874435101
42
-1.55930217139742
0
ELLIPSE
5
12C
100
AcDbEntity
8
1
62
256
6
ByLayer
370
13
48
1
60
0
100
AcDbEllipse
10
25.330788
20
0.000861
30
0
11
86.6016946721434
21
0.000376611916726382
31
0
210
0
220
0
230
-1
40
0.577346
41
-1.87063407201208
42
-1.86346813660042
0
ELLIPSE
5
12D
100
AcDbEntity
8
1
62
256
6
ByLayer
370
13
48
1
60
0
100
AcDbEllipse
10
-24.032353
20
-0.000295
30
0
11
86.602826717611
21
0.000122978029281518
31
0
210
0
220
0
230
-1
40
0.577352
41
-1.29350774394533
42
-1.28545470116275
0
ELLIPSE
5
12E
100
AcDbEntity
8
1
62
256
6
ByLayer
370
13
48
1
60
0
100
AcDbEllipse
10
22.733053
20
0.000241
30
0
11
86.6023089823642
21
9.52286984130883E-05
31
0
210
0
220
0
230
-1
40
0.577349
41
-1.84029844537747
42
-1.83228100318764
0
ELLIPSE
5
12F
100
AcDbEntity
8
1
62
256
6
ByLayer
370
13
48
1
60
0
100
AcDbEllipse
10
-21.434163
20
-7.7E-05
30
0
11
86.6026133375524
21
2.86276297669005E-05
31
0
210
0
220
0
230
-1
40
0.577351
41
-1.32456819605758
42
-1.31658301253284
0
ELLIPSE
5
130
100
AcDbEntity
8
1
62
256
6
ByLayer
370
13
48
1
60
0
100
AcDbEllipse
10
20.134899
20
0.000462
30
0
11
86.6021064274826
21
0.000161111463377879
31
0
210
0
220
0
230
-1
40
0.577348
41
-1.80930183855466
42
-1.80134752698114
0
ELLIPSE
5
131
100
AcDbEntity
8
1
62
256
6
ByLayer
370
13
48
1
60
0
100
AcDbEllipse
10
-18.83607
20
-4.8E-05
30
0
11
86.6025849690012
21
1.50359082128422E-05
31
0
210
0
220
0
230
-1
40
0.577351
41
-1.35538689457236
42
-1.34746042024831
0
ELLIPSE
5
132
100
AcDbEntity
8
1
62
256
6
ByLayer
370
13
48
1
60
0
100
AcDbEllipse
10
17.537136
20
-0.000339
30
0
11
86.6028527532047
21
-0.000102981889621767
31
0
210
0
220
0
230
-1
40
0.577352
41
-1.77854152572988
42
-1.77064155529747
0
ELLIPSE
5
133
100
AcDbEntity
8
1
62
256
6
ByLayer
370
13
48
1
60
0
100
AcDbEllipse
10
-16.238298
20
-0.000974
30
0
11
86.6034295368735
21
0.000274038206859111
31
0
210
0
220
0
230
-1
40
0.577356
41
-1.38599540140678
42
-1.37811909933934
0
ELLIPSE
5
134
100
AcDbEntity
8
1
62
256
6
ByLayer
370
13
48
1
60
0
100
AcDbEllipse
10
14.938757
20
0.0006
30
0
11
86.6019972270958
21
0.000154992424449264
31
0
210
0
220
0
230
-1
40
0.577347
41
-1.74797260970051
42
-1.74011846866408
0
ELLIPSE
5
135
100
AcDbEntity
8
1
62
256
6
ByLayer
370
13
48
1
60
0
100
AcDbEllipse
10
-13.640124
20
-0.00081
30
0
11
86.6032683595614
21
0.000191650373192217
31
0
210
0
220
0
230
-1
40
0.577355
41
-1.41643426157476
42
-1.40859988483186
0
ELLIPSE
5
136
100
AcDbEntity
8
1
62
256
6
ByLayer
370
13
48
1
60
0
100
AcDbEllipse
10
12.340707
20
0.000621
30
0
11
86.6019861100886
21
0.00013291886461173
31
0
210
0
220
0
230
-1
40
0.577347
41
-1.71757382509004
42
-1.70975762606524
0
ELLIPSE
5
137
100
AcDbEntity
8
1
62
256
6
ByLayer
370
13
48
1
60
0
100
AcDbEllipse
10
-11.041842
20
-8.3E-05
30
0
11
86.6026142656296
21
1.59018186360858E-05
31
0
210
0
220
0
230
-1
40
0.577351
41
-1.44673086078616
42
-1.43893057577338
0
ELLIPSE
5
138
100
AcDbEntity
8
1
62
256
6
ByLayer
370
13
48
1
60
0
100
AcDbEllipse
10
9.742857
20
-0.000366
30
0
11
86.6028629930887
21
-6.15549884972245E-05
31
0
210
0
220
0
230
-1
40
0.577352
41
-1.68731336861549
42
-1.67952755844678
0
ELLIPSE
5
139
100
AcDbEntity
8
1
62
256
6
ByLayer
370
13
48
1
60
0
100
AcDbEllipse
10
-8.443669
20
0.000457
30
0
11
86.602138777531
21
-6.73888452020297E-05
31
0
210
0
220
0
230
-1
40
0.577348
41
-1.47691216021325
42
-1.46913848556113
0
ELLIPSE
5
13A
100
AcDbEntity
8
1
62
256
6
ByLayer
370
13
48
1
60
0
100
AcDbEllipse
10
7.144774
20
-0.000447
30
0
11
86.602931495465
21
-5.55451528009824E-05
31
0
210
0
220
0
230
-1
40
0.577353
41
-1.65715713525675
42
-1.64939426756447
0
ELLIPSE
5
13B
100
AcDbEntity
8
1
62
256
6
ByLayer
370
13
48
1
60
0
100
AcDbEllipse
10
-5.845771
20
-0.000845
30
0
11
86.6032774915884
21
8.59181934584163E-05
31
0
210
0
220
0
230
-1
40
0.577355
41
-1.50700466975172
42
-1.49925047622474
0
ELLIPSE
5
13C
100
AcDbEntity
8
1
62
256
6
ByLayer
370
13
48
1
60
0
100
AcDbEllipse
10
4.546692
20
-0.000645
30
0
11
86.6031010032896
21
-5.060285936505E-05
31
0
210
0
220
0
230
-1
40
0.577354
41
-1.62707946265734
42
-1.61933236262725
0
ELLIPSE
5
13D
100
AcDbEntity
8
1
62
256
6
ByLayer
370
13
48
1
60
0
100
AcDbEllipse
10
-3.24761
20
-0.00023
30
0
11
86.6027402268212
21
1.29666175550249E-05
31
0
210
0
220
0
230
-1
40
0.577352
41
-1.53704251298432
42
-1.5293005387119
0
ELLIPSE
5
13E
100
AcDbEntity
8
1
62
256
6
ByLayer
370
13
48
1
60
0
100
AcDbEllipse
10
1.948585
20
-0.000691
30
0
11
86.603139093539
21
-2.38346982220527E-05
31
0
210
0
220
0
230
-1
40
0.577354
41
-1.59705241540885
42
-1.58931401695423
0
ELLIPSE
5
13F
100
AcDbEntity
8
1
62
256
6
ByLayer
370
13
48
1
60
0
100
AcDbEllipse
10
-0.649519
20
4.5E-05
30
0
11
86.6025014324802
21
8.75238702154908E-14
31
0
210
0
220
0
230
-1
40
0.57735
41
-1.56704909309021
42
-1.55931235235423
0
POINT
5
6C
100
AcDbEntity
8
80
62
256
6
ByLayer
370
13
48
1
60
0
100
AcDbPoint
10
0
20
0
30
0
39
0
210
0
220
0
230
1
50
360
0
POINT
5
6E
100
AcDbEntity
8
81
62
256
6
ByLayer
370
13
48
1
60
0
100
AcDbPoint
10
64
20
34
30
0
39
0
210
0
220
0
230
1
50
360
0
POINT
5
70
100
AcDbEntity
8
1
62
256
6
ByLayer
370
13
48
1
60
1
100
AcDbPoint
10
276.426281
20
175.173124
30
0
39
0
210
0
220
0
230
1
50
360
0
POINT
5
72
100
AcDbEntity
8
1
62
256
6
ByLayer
370
13
48
1
60
1
100
AcDbPoint
10
187.663825
20
175.173124
30
0
39
0
210
0
220
0
230
1
50
360
0
POINT
5
73
100
AcDbEntity
8
1
62
256
6
ByLayer
370
13
48
1
60
1
100
AcDbPoint
10
223.924544
20
165.173124
30
0
39
0
210
0
220
0
230
1
50
360
0
POINT
5
74
100
AcDbEntity
8
1
62
256
6
ByLayer
370
13
48
1
60
1
100
AcDbPoint
10
287.363825
20
165.173124
30
0
39
0
210
0
220
0
230
1
50
360
0
POINT
5
75
100
AcDbEntity
8
1
62
256
6
ByLayer
370
18
48
1
60
1
100
AcDbPoint
10
278.863825
20
196.673124
30
0
39
0
210
0
220
0
230
1
50
360
0
POINT
5
76
100
AcDbEntity
8
1
62
256
6
ByLayer
370
18
48
1
60
1
100
AcDbPoint
10
278.863825
20
133.673124
30
0
39
0
210
0
220
0
230
1
50
360
0
POINT
5
77
100
AcDbEntity
8
1
62
256
6
ByLayer
370
13
48
1
60
1
100
AcDbPoint
10
163.741873
20
151.064532
30
0
39
0
210
0
220
0
230
1
50
360
0
POINT
5
78
100
AcDbEntity
8
1
62
256
6
ByLayer
370
13
48
1
60
1
100
AcDbPoint
10
163.741873
20
151.064532
30
0
39
0
210
0
220
0
230
1
50
360
0
POINT
5
79
100
AcDbEntity
8
1
62
256
6
ByLayer
370
13
48
1
60
1
100
AcDbPoint
10
163.741873
20
151.064532
30
0
39
0
210
0
220
0
230
1
50
360
0
SPLINE
5
140
100
AcDbEntity
8
1
62
256
6
ByLayer
370
18
48
1
60
1
100
AcDbSpline
70
4
71
3
72
11
73
7
40
0
40
0
40
0
40
0
40
0.264736090039167
40
0.505383016247574
40
0.746029942455982
40
1
40
1
40
1
40
1
41
1
10
-414.778517083935
20
873.157104635017
30
-2.38
41
1
10
-414.811380267814
20
873.134093585935
30
-2.16997603523559
41
1
10
-414.874116311811
20
873.090165335011
30
-1.76903884234585
41
1
10
-414.966725215926
20
873.025319882244
30
-1.17718842133077
41
1
10
-415.05799767171
20
872.961410220673
30
-0.593879052761846
41
1
10
-415.119397267377
20
872.918417760945
30
-0.201482912318254
41
1
10
-415.150924002925
20
872.896342503058
30
0
0
SPLINE
5
141
100
AcDbEntity
8
1
62
256
6
ByLayer
370
18
48
1
60
1
100
AcDbSpline
70
4
71
3
72
11
73
7
40
0
40
0
40
0
40
0
40
0.264736090039167
40
0.505383016247574
40
0.746029942455982
40
1
40
1
40
1
40
1
41
1
10
-407.431053779592
20
878.301853827437
30
-2.38
41
1
10
-407.398190595713
20
878.324864876519
30
-2.16997603523559
41
1
10
-407.335454551716
20
878.368793127443
30
-1.76903884234585
41
1
10
-407.242845647601
20
878.433638580209
30
-1.17718842133077
41
1
10
-407.151573191817
20
878.49754824178
30
-0.593879052761846
41
1
10
-407.090173596151
20
878.540540701509
30
-0.201482912318254
41
1
10
-407.058646860602
20
878.562615959395
30
0
0
SPLINE
5
142
100
AcDbEntity
8
1
62
256
6
ByLayer
370
18
48
1
60
1
100
AcDbSpline
70
4
71
3
72
13
73
9
40
0
40
0
40
0
40
0
40
0.194056351224286
40
0.368982012730964
40
0.500176258860972
40
0.63137050499098
40
0.806296166497658
40
1
40
1
40
1
40
1
41
1
10
-413.263264006694
20
878.812106105608
30
-2.38
41
1
10
-413.27741753311
20
878.832319436149
30
-2.22604862802873
41
1
10
-413.304329286483
20
878.870753403086
30
-1.93332289792884
41
1
10
-413.340809710072
20
878.92285284732
30
-1.53651639923246
41
1
10
-413.372705277461
20
878.968404438311
30
-1.18958050391089
41
1
10
-413.404600844851
20
879.013956029301
30
-0.84264460858931
41
1
10
-413.441055557512
20
879.066018754525
30
-0.446117773952347
41
1
10
-413.467941599956
20
879.104416002451
30
-0.153671707911858
41
1
10
-413.482069415445
20
879.124592613981
30
0
0
SPLINE
5
143
100
AcDbEntity
8
1
62
256
6
ByLayer
370
18
48
1
60
1
100
AcDbSpline
70
4
71
3
72
13
73
9
40
0
40
0
40
0
40
0
40
0.194056351224286
40
0.368982012730964
40
0.500176258860972
40
0.63137050499098
40
0.806296166497658
40
1
40
1
40
1
40
1
41
1
10
-408.946306856834
20
872.646852356845
30
-2.38
41
1
10
-408.932153330417
20
872.626639026305
30
-2.22604862802873
41
1
10
-408.905241577045
20
872.588205059368
30
-1.93332289792884
41
1
10
-408.868761153456
20
872.536105615134
30
-1.53651639923246
41
1
10
-408.836865586066
20
872.490554024143
30
-1.18958050391089
41
1
10
-408.804970018677
20
872.445002433152
30
-0.84264460858931
41
1
10
-408.768515306016
20
872.392939707929
30
-0.446117773952347
41
1
10
-408.741629263572
20
872.354542460003
30
-0.153671707911858
41
1
10
-408.727501448083
20
872.334365848473
30
0
0
SPLINE
5
144
100
AcDbEntity
8
1
62
256
6
ByLayer
370
18
48
1
60
1
100
AcDbSpline
70
4
71
3
72
11
73
7
40
0
40
0
40
0
40
0
40
0.264736090039167
40
0.505383016247574
40
0.746029942455982
40
1
40
1
40
1
40
1
41
1
10
-428.7908907235
20
879.333951406164
30
-2.7260753721363
41
1
10
-428.746836858612
20
879.372452995544
30
-2.52041437045278
41
1
10
-428.66273772762
20
879.445952794415
30
-2.12780610408481
41
1
10
-428.538593330525
20
879.554450802774
30
-1.54825057303238
41
1
10
-428.416240473605
20
879.661383065556
30
-0.977058665642987
41
1
10
-428.333932882788
20
879.733317118847
30
-0.592814022938045
41
1
10
-428.291670558074
20
879.77025296265
30
-0.39551664491756
0
SPLINE
5
145
100
AcDbEntity
8
1
62
256
6
ByLayer
370
18
48
1
60
1
100
AcDbSpline
70
4
71
3
72
11
73
7
40
0
40
0
40
0
40
0
40
0.264736090039167
40
0.505383016247574
40
0.746029942455982
40
1
40
1
40
1
40
1
41
1
10
-433.89928183315
20
871.996230220737
30
-2.00784884981668
41
1
10
-433.900924827004
20
871.96909259
30
-1.79576298847968
41
1
10
-433.904061313567
20
871.917286666321
30
-1.39088962085497
41
1
10
-433.908691292841
20
871.840812449701
30
-0.793228746942546
41
1
10
-433.913254456422
20
871.765441840126
30
-0.204192776701463
41
1
10
-433.916324127293
20
871.714739523494
30
0.192055687251906
41
1
10
-433.917900305453
20
871.688705499804
30
0.395516644917561
0
SPLINE
5
146
100
AcDbEntity
8
1
62
256
6
ByLayer
370
18
48
1
60
1
100
AcDbSpline
70
4
71
3
72
13
73
9
40
0
40
0
40
0
40
0
40
0.194056351224286
40
0.368982012730964
40
0.500176258860972
40
0.63137050499098
40
0.806296166497658
40
1
40
1
40
1
40
1
41
1
10
-428.275259052307
20
873.503182583078
30
-2.61980951740564
41
1
10
-428.239585682835
20
873.493171561608
30
-2.46835947239721
41
1
10
-428.171755737638
20
873.474136436871
30
-2.1803898074888
41
1
10
-428.079808360648
20
873.448333234684
30
-1.79003042765541
41
1
10
-427.999416921336
20
873.425772976517
30
-1.44873137790546
41
1
10
-427.919025482024
20
873.40321271835
30
-1.10743232815552
41
1
10
-427.827142908349
20
873.377427701924
30
-0.717348068536015
41
1
10
-427.759377766467
20
873.358410762948
30
-0.429653523841492
41
1
10
-427.723769200311
20
873.348417927239
30
-0.278478599046945
0
SPLINE
5
147
100
AcDbEntity
8
1
62
256
6
ByLayer
370
18
48
1
60
1
100
AcDbSpline
70
4
71
3
72
13
73
9
40
0
40
0
40
0
40
0
40
0.194056351224286
40
0.368982012730964
40
0.500176258860972
40
0.63137050499098
40
0.806296166497658
40
1
40
1
40
1
40
1
41
1
10
-434.414913504343
20
877.826999043823
30
-2.11411470454734
41
1
10
-434.419498936828
20
877.845340052903
30
-1.95934872906095
41
1
10
-434.428217755341
20
877.880213956298
30
-1.66507409812534
41
1
10
-434.440036613376
20
877.92748753043
30
-1.2661679756028
41
1
10
-434.450370078446
20
877.968819766219
30
-0.917396336979738
41
1
10
-434.460703543516
20
878.010152002007
30
-0.568624698356674
41
1
10
-434.472514071773
20
878.057392258339
30
-0.169999719681113
41
1
10
-434.481224560509
20
878.092232843935
30
0.123993767407529
41
1
10
-434.485801663216
20
878.110540535215
30
0.278478599046944
0
SPLINE
5
148
100
AcDbEntity
8
1
62
256
6
ByLayer
370
18
48
1
60
1
100
AcDbSpline
70
4
71
3
72
11
73
7
40
0
40
0
40
0
40
0
40
0.264736090039167
40
0.505383016247574
40
0.746029942455982
40
1
40
1
40
1
40
1
41
1
10
-343.967257520151
20
1505.05327841336
30
-2.38
41
1
10
-344.00012070403
20
1505.03026736428
30
-2.16997603523559
41
1
10
-344.062856748027
20
1504.98633911335
30
-1.76903884234585
41
1
10
-344.155465652142
20
1504.92149366059
30
-1.17718842133077
41
1
10
-344.246738107926
20
1504.85758399902
30
-0.593879052761846
41
1
10
-344.308137703593
20
1504.81459153929
30
-0.201482912318254
41
1
10
-344.339664439141
20
1504.7925162814
30
0
0
SPLINE
5
149
100
AcDbEntity
8
1
62
256
6
ByLayer
370
18
48
1
60
1
100
AcDbSpline
70
4
71
3
72
11
73
7
40
0
40
0
40
0
40
0
40
0.264736090039167
40
0.505383016247574
40
0.746029942455982
40
1
40
1
40
1
40
1
41
1
10
-336.619794215808
20
1510.19802760578
30
-2.38
41
1
10
-336.586931031929
20
1510.22103865486
30
-2.16997603523559
41
1
10
-336.524194987932
20
1510.26496690579
30
-1.76903884234585
41
1
10
-336.431586083817
20
1510.32981235855
30
-1.17718842133077
41
1
10
-336.340313628033
20
1510.39372202012
30
-0.593879052761846
41
1
10
-336.278914032366
20
1510.43671447985
30
-0.201482912318254
41
1
10
-336.247387296818
20
1510.45878973774
30
0
0
SPLINE
5
14A
100
AcDbEntity
8
1
62
256
6
ByLayer
370
18
48
1
60
1
100
AcDbSpline
70
4
71
3
72
13
73
9
40
0
40
0
40
0
40
0
40
0.194056351224286
40
0.368982012730964
40
0.500176258860972
40
0.63137050499098
40
0.806296166497658
40
1
40
1
40
1
40
1
41
1
10
-342.452004442909
20
1510.70827988395
30
-2.38
41
1
10
-342.466157969326
20
1510.72849321449
30
-2.22604862802873
41
1
10
-342.493069722699
20
1510.76692718143
30
-1.93332289792884
41
1
10
-342.529550146288
20
1510.81902662566
30
-1.53651639923246
41
1
10
-342.561445713677
20
1510.86457821665
30
-1.18958050391089
41
1
10
-342.593341281066
20
1510.91012980765
30
-0.84264460858931
41
1
10
-342.629795993727
20
1510.96219253287
30
-0.446117773952347
41
1
10
-342.656682036172
20
1511.00058978079
30
-0.153671707911858
41
1
10
-342.670809851661
20
1511.02076639232
30
0
0
SPLINE
5
14B
100
AcDbEntity
8
1
62
256
6
ByLayer
370
18
48
1
60
1
100
AcDbSpline
70
4
71
3
72
13
73
9
40
0
40
0
40
0
40
0
40
0.194056351224286
40
0.368982012730964
40
0.500176258860972
40
0.63137050499098
40
0.806296166497658
40
1
40
1
40
1
40
1
41
1
10
-338.13504729305
20
1504.54302613519
30
-2.38
41
1
10
-338.120893766633
20
1504.52281280465
30
-2.22604862802873
41
1
10
-338.09398201326
20
1504.48437883771
30
-1.93332289792884
41
1
10
-338.057501589671
20
1504.43227939348
30
-1.53651639923246
41
1
10
-338.025606022282
20
1504.38672780249
30
-1.18958050391089
41
1
10
-337.993710454893
20
1504.3411762115
30
-0.84264460858931
41
1
10
-337.957255742232
20
1504.28911348627
30
-0.446117773952347
41
1
10
-337.930369699787
20
1504.25071623835
30
-0.153671707911858
41
1
10
-337.916241884298
20
1504.23053962682
30
0
0
SPLINE
5
14C
100
AcDbEntity
8
1
62
256
6
ByLayer
370
18
48
1
60
1
100
AcDbSpline
70
4
71
3
72
11
73
7
40
0
40
0
40
0
40
0
40
0.264736090039167
40
0.505383016247574
40
0.746029942455982
40
1
40
1
40
1
40
1
41
1
10
-357.979631159715
20
1511.23012518451
30
-2.7260753721363
41
1
10
-357.935577294827
20
1511.26862677389
30
-2.52041437045278
41
1
10
-357.851478163836
20
1511.34212657276
30
-2.12780610408481
41
1
10
-357.727333766741
20
1511.45062458112
30
-1.54825057303238
41
1
10
-357.60498090982
20
1511.5575568439
30
-0.977058665642987
41
1
10
-357.522673319003
20
1511.62949089719
30
-0.592814022938045
41
1
10
-357.48041099429
20
1511.66642674099
30
-0.39551664491756
0
SPLINE
5
14D
100
AcDbEntity
8
1
62
256
6
ByLayer
370
18
48
1
60
1
100
AcDbSpline
70
4
71
3
72
11
73
7
40
0
40
0
40
0
40
0
40
0.264736090039167
40
0.505383016247574
40
0.746029942455982
40
1
40
1
40
1
40
1
41
1
10
-363.088022269366
20
1503.89240399908
30
-2.00784884981668
41
1
10
-363.089665263219
20
1503.86526636834
30
-1.79576298847968
41
1
10
-363.092801749783
20
1503.81346044467
30
-1.39088962085497
41
1
10
-363.097431729056
20
1503.73698622804
30
-0.793228746942546
41
1
10
-363.101994892637
20
1503.66161561847
30
-0.204192776701463
41
1
10
-363.105064563508
20
1503.61091330184
30
0.192055687251906
41
1
10
-363.106640741669
20
1503.58487927815
30
0.395516644917561
0
SPLINE
5
14E
100
AcDbEntity
8
1
62
256
6
ByLayer
370
18
48
1
60
1
100
AcDbSpline
70
4
71
3
72
13
73
9
40
0
40
0
40
0
40
0
40
0.194056351224286
40
0.368982012730964
40
0.500176258860972
40
0.63137050499098
40
0.806296166497658
40
1
40
1
40
1
40
1
41
1
10
-357.463999488523
20
1505.39935636142
30
-2.61980951740564
41
1
10
-357.428326119051
20
1505.38934533995
30
-2.46835947239721
41
1
10
-357.360496173854
20
1505.37031021521
30
-2.1803898074888
41
1
10
-357.268548796864
20
1505.34450701303
30
-1.79003042765541
41
1
10
-357.188157357552
20
1505.32194675486
30
-1.44873137790546
41
1
10
-357.107765918239
20
1505.29938649669
30
-1.10743232815552
41
1
10
-357.015883344564
20
1505.27360148027
30
-0.717348068536015
41
1
10
-356.948118202683
20
1505.25458454129
30
-0.429653523841492
41
1
10
-356.912509636527
20
1505.24459170558
30
-0.278478599046945
0
SPLINE
5
14F
100
AcDbEntity
8
1
62
256
6
ByLayer
370
18
48
1
60
1
100
AcDbSpline
70
4
71
3
72
13
73
9
40
0
40
0
40
0
40
0
40
0.194056351224286
40
0.368982012730964
40
0.500176258860972
40
0.63137050499098
40
0.806296166497658
40
1
40
1
40
1
40
1
41
1
10
-363.603653940558
20
1509.72317282217
30
-2.11411470454734
41
1
10
-363.608239373044
20
1509.74151383125
30
-1.95934872906095
41
1
10
-363.616958191557
20
1509.77638773464
30
-1.66507409812534
41
1
10
-363.628777049591
20
1509.82366130877
30
-1.2661679756028
41
1
10
-363.639110514662
20
1509.86499354456
30
-0.917396336979738
41
1
10
-363.649443979731
20
1509.90632578035
30
-0.568624698356674
41
1
10
-363.661254507988
20
1509.95356603668
30
-0.169999719681113
41
1
10
-363.669964996724
20
1509.98840662228
30
0.123993767407529
41
1
10
-363.674542099432
20
1510.00671431356
30
0.278478599046944
0
SPLINE
5
150
100
AcDbEntity
8
1
62
256
6
ByLayer
370
13
48
1
60
0
100
AcDbSpline
70
4
71
3
72
50
73
46
40
0
40
0
40
0
40
0
40
0.0071581806685523
40
0.0071581806685523
40
0.0544363625414784
40
0.0544363625414784
40
0.101714544414404
40
0.101714544414404
40
0.14899272628733
40
0.14899272628733
40
0.196270908160256
40
0.196270908160256
40
0.243549090033182
40
0.243549090033182
40
0.290827271906108
40
0.290827271906108
40
0.338105453779034
40
0.338105453779034
40
0.38538363565196
40
0.38538363565196
40
0.432661817524886
40
0.432661817524886
40
0.479939999397812
40
0.479939999397812
40
0.527218181270738
40
0.527218181270738
40
0.574496363143665
40
0.574496363143665
40
0.621774545016591
40
0.621774545016591
40
0.669052726889517
40
0.669052726889517
40
0.716330908762443
40
0.716330908762443
40
0.763609090635369
40
0.763609090635369
40
0.810887272508296
40
0.810887272508296
40
0.858165454381221
40
0.858165454381221
40
0.905443636254148
40
0.905443636254148
40
0.952721818127074
40
0.952721818127074
40
1
40
1
40
1
40
1
41
1
10
38.7370007149092
20
17.7955593232198
30
0
41
1
10
38.7370007149091
20
17.7955409579602
30
0
41
1
10
38.7370007149091
20
17.7967261913842
30
0
41
1
10
38.7370007149092
20
17.814902128816
30
0
41
1
10
38.7370007149092
20
17.8832464104091
30
0
41
1
10
38.7370007149093
20
18.1237274812759
30
0
41
1
10
38.7370007149092
20
18.2958627582561
30
0
41
1
10
38.7370007149092
20
18.7405873028138
30
0
41
1
10
38.7370007149092
20
19.0131737736884
30
0
41
1
10
38.7370007149092
20
19.6535131614567
30
0
41
1
10
38.7370007149092
20
20.0212620515003
30
0
41
1
10
38.7370007149093
20
20.8447922954817
30
0
41
1
10
38.7370007149092
20
21.300568470552
30
0
41
1
10
38.7370007149093
20
22.2913112797985
30
0
41
1
10
38.7370007149092
20
22.8262716835711
30
0
41
1
10
38.7370007149093
20
23.9650044770342
30
0
41
1
10
38.7370007149093
20
24.5687697056686
30
0
41
1
10
38.7370007149093
20
25.833398572385
30
0
41
1
10
38.7370007149093
20
26.4942542576986
30
0
41
1
10
38.7370007149093
20
27.8602426270673
30
0
41
1
10
38.7370007149093
20
28.5653667209425
30
0
41
1
10
38.7370007149093
20
30.0062114259493
30
0
41
1
10
38.7370007149092
20
30.741922976158
30
0
41
1
10
38.7370007149092
20
32.2296684728798
30
0
41
1
10
38.7370007149092
20
32.981693063529
30
0
41
1
10
38.7370007149093
20
34.487473829932
30
0
41
1
10
38.7370007149093
20
35.241220536405
30
0
41
1
10
38.7370007149092
20
36.7358211267112
30
0
41
1
10
38.7370007149092
20
37.4766656115715
30
0
41
1
10
38.7370007149092
20
38.9310874999131
30
0
41
1
10
38.7370007149092
20
39.64465575709
30
0
41
1
10
38.7370007149092
20
41.0306799724421
30
0
41
1
10
38.7370007149092
20
41.7031272144396
30
0
41
1
10
38.7370007149092
20
42.9938618504808
30
0
41
1
10
38.7370007149092
20
43.6121411275867
30
0
41
1
10
38.7370007149092
20
44.7825431045976
30
0
41
1
10
38.7370007149092
20
45.334658444291
30
0
41
1
10
38.7370007149092
20
46.3620193997658
30
0
41
1
10
38.7370007149092
20
46.8372585548659
30
0
41
1
10
38.7370007149092
20
47.7016454354951
30
0
41
1
10
38.7370007149092
20
48.0907877252248
30
0
41
1
10
38.7370007149092
20
48.7754295317995
30
0
41
1
10
38.7370007149092
20
49.0709247431933
30
0
41
1
10
38.7370007149092
20
49.5625379247321
30
0
41
1
10
38.7370007149091
20
49.7586528033093
30
0
41
1
10
38.7370007149092
20
49.9031758951793
30
0
0
SPLINE
5
151
100
AcDbEntity
8
1
62
256
6
ByLayer
370
13
48
1
60
0
100
AcDbSpline
70
4
71
3
72
50
73
46
40
0
40
0
40
0
40
0
40
0.0465796697609574
40
0.0465796697609574
40
0.0931593395219147
40
0.0931593395219147
40
0.139739009282872
40
0.139739009282872
40
0.186318679043829
40
0.186318679043829
40
0.232898348804787
40
0.232898348804787
40
0.279478018565744
40
0.279478018565744
40
0.326057688326702
40
0.326057688326702
40
0.372637358087659
40
0.372637358087659
40
0.419217027848616
40
0.419217027848616
40
0.465796697609574
40
0.465796697609574
40
0.512376367370531
40
0.512376367370531
40
0.558956037131488
40
0.558956037131488
40
0.605535706892446
40
0.605535706892446
40
0.652115376653403
40
0.652115376653403
40
0.69869504641436
40
0.69869504641436
40
0.745274716175318
40
0.745274716175318
40
0.791854385936275
40
0.791854385936275
40
0.838434055697233
40
0.838434055697233
40
0.88501372545819
40
0.88501372545819
40
0.931593395219147
40
0.931593395219147
40
0.978173064980105
40
0.978173064980105
40
1
40
1
40
1
40
1
41
1
10
40.2899149855243
20
49.7025318459961
30
0
41
1
10
40.2899149855243
20
49.5619536133571
30
0
41
1
10
40.2899149855244
20
49.3719402019544
30
0
41
1
10
40.2899149855243
20
48.8966165861076
30
0
41
1
10
40.2899149855243
20
48.6113091970405
30
0
41
1
10
40.2899149855243
20
47.9507690060442
30
0
41
1
10
40.2899149855243
20
47.5755401165437
30
0
41
1
10
40.2899149855243
20
46.7422216442255
30
0
41
1
10
40.2899149855243
20
46.2841369972149
30
0
41
1
10
40.2899149855243
20
45.2937320366734
30
0
41
1
10
40.2899149855243
20
44.7614175893845
30
0
41
1
10
40.2899149855244
20
43.6325759488755
30
0
41
1
10
40.2899149855244
20
43.0360554418682
30
0
41
1
10
40.2899149855243
20
41.7900337598228
30
0
41
1
10
40.2899149855243
20
41.1405399650637
30
0
41
1
10
40.2899149855242
20
39.8008014372237
30
0
41
1
10
40.2899149855243
20
39.1105646395136
30
0
41
1
10
40.2899149855244
20
37.7023371955164
30
0
41
1
10
40.2899149855243
20
36.984354890265
30
0
41
1
10
40.2899149855243
20
35.5341561394295
30
0
41
1
10
40.2899149855244
20
34.8019482834802
30
0
41
1
10
40.2899149855243
20
33.3370861752952
30
0
41
1
10
40.2899149855244
20
32.6044405995464
30
0
41
1
10
40.2899149855244
20
31.1524992016682
30
0
41
1
10
40.2899149855244
20
30.4332119794954
30
0
41
1
10
40.2899149855243
20
29.0215320563063
30
0
41
1
10
40.2899149855243
20
28.3291477167748
30
0
41
1
10
40.2899149855244
20
26.9843118894599
30
0
41
1
10
40.2899149855243
20
26.3318683672389
30
0
41
1
10
40.2899149855243
20
25.0792005500699
30
0
41
1
10
40.2899149855243
20
24.4789836747663
30
0
41
1
10
40.2899149855243
20
23.3420722134494
30
0
41
1
10
40.2899149855243
20
22.805384361447
30
0
41
1
10
40.2899149855244
20
21.8056378530734
30
0
41
1
10
40.2899149855243
20
21.3425851182751
30
0
41
1
10
40.2899149855244
20
20.4988292770006
30
0
41
1
10
40.2899149855243
20
20.118131168153
30
0
41
1
10
40.2899149855243
20
19.4462543278222
30
0
41
1
10
40.2899149855243
20
19.1550795759155
30
0
41
1
10
40.2899149855244
20
18.6677335049898
30
0
41
1
10
40.2899149855243
20
18.4715650725577
30
0
41
1
10
40.2899149855244
20
18.1779267351468
30
0
41
1
10
40.2899149855243
20
18.0804585694095
30
0
41
1
10
40.2899149855243
20
18.0111400331189
30
0
41
1
10
40.2899149855243
20
18.0000599894971
30
0
41
1
10
40.2899149855243
20
18.0000148451658
30
0
0
SPLINE
5
152
100
AcDbEntity
8
1
62
256
6
ByLayer
370
13
48
1
60
0
100
AcDbSpline
70
4
71
3
72
38
73
34
40
0
40
0
40
0
40
0
40
0.0625023010364011
40
0.0625023010364011
40
0.125004602072802
40
0.125004602072802
40
0.187506903109203
40
0.187506903109203
40
0.250009204145604
40
0.250009204145604
40
0.312511505182005
40
0.312511505182005
40
0.375013806218406
40
0.375013806218406
40
0.437516107254807
40
0.437516107254807
40
0.500018408291208
40
0.500018408291208
40
0.562520709327609
40
0.562520709327609
40
0.62502301036401
40
0.62502301036401
40
0.687525311400411
40
0.687525311400411
40
0.750027612436811
40
0.750027612436811
40
0.812529913473212
40
0.812529913473212
40
0.875032214509613
40
0.875032214509613
40
0.937534515546014
40
0.937534515546014
40
1
40
1
40
1
40
1
41
1
10
15.9823688917488
20
46.4506116683829
30
0
41
1
10
15.9823688917492
20
45.6168013724172
30
0
41
1
10
15.9823688917492
20
44.7450102080993
30
0
41
1
10
15.9823688917491
20
42.941356810449
30
0
41
1
10
15.9823688917491
20
42.0095046108197
30
0
41
1
10
15.9823688917492
20
40.1027346464659
30
0
41
1
10
15.9823688917491
20
39.1278274890806
30
0
41
1
10
15.9823688917492
20
37.1527390492943
30
0
41
1
10
15.9823688917491
20
36.1525687542873
30
0
41
1
10
15.9823688917491
20
34.1452067260139
30
0
41
1
10
15.9823688917491
20
33.1380261596792
30
0
41
1
10
15.9823688917491
20
31.1350244150584
30
0
41
1
10
15.9823688917491
20
30.1392143794479
30
0
41
1
10
15.9823688917491
20
28.1771272164961
30
0
41
1
10
15.9823688917491
20
27.2108610042228
30
0
41
1
10
15.982368891749
20
25.3254960397236
30
0
41
1
10
15.982368891749
20
24.406407775761
30
0
41
1
10
15.9823688917489
20
22.6321724649084
30
0
41
1
10
15.9823688917491
20
21.7770352880688
30
0
41
1
10
15.982368891749
20
20.1463089967212
30
0
41
1
10
15.9823688917489
20
19.3707289539246
30
0
41
1
10
15.9823688917489
20
17.9132720429988
30
0
41
1
10
15.9823688917489
20
17.2314032826854
30
0
41
1
10
15.9823688917489
20
15.9738139887585
30
0
41
1
10
15.9823688917489
20
15.3981004510995
30
0
41
1
10
15.9823688917489
20
14.3633294750162
30
0
41
1
10
15.9823688917489
20
13.9042777930108
30
0
41
1
10
15.9823688917489
20
13.1112094551368
30
0
41
1
10
15.9823688917488
20
12.7771972110981
30
0
41
1
10
15.9823688917489
20
12.2403048170346
30
0
41
1
10
15.9823688917489
20
12.037427653736
30
0
41
1
10
15.9823688917488
20
11.7665891513369
30
0
41
1
10
15.9823688917495
20
11.6985389285188
30
0
41
1
10
15.9823688917491
20
11.6984666682666
30
0
0
SPLINE
5
153
100
AcDbEntity
8
1
62
256
6
ByLayer
370
13
48
1
60
0
100
AcDbSpline
70
4
71
3
72
107
73
103
40
0
40
0
40
0
40
0
40
0.0311419032440788
40
0.0311419032440788
40
0.0623953902362177
40
0.0623953902362177
40
0.0663020761102352
40
0.0663020761102352
40
0.0702087619842524
40
0.0702087619842524
40
0.0780221337322865
40
0.0936488772283547
40
0.0936488772283547
40
0.12490236422049
40
0.12490236422049
40
0.156155851212626
40
0.156155851212626
40
0.171782594708693
40
0.171782594708693
40
0.17568928058271
40
0.17568928058271
40
0.179595966456727
40
0.187409338204761
40
0.187409338204761
40
0.218662825196897
40
0.218662825196897
40
0.249916312189032
40
0.249916312189032
40
0.265543055685101
40
0.265543055685101
40
0.273356427433135
40
0.273356427433135
40
0.281169799181168
40
0.281169799181168
40
0.312423286173306
40
0.312423286173306
40
0.343676773165444
40
0.343676773165444
40
0.374930260157581
40
0.374930260157581
40
0.382743631905614
40
0.386650317779629
40
0.386650317779629
40
0.390557003653645
40
0.390557003653645
40
0.406183747149703
40
0.406183747149703
40
0.437437234141821
40
0.46869072113394
40
0.46869072113394
40
0.484317464629997
40
0.484317464629997
40
0.492130836378025
40
0.492130836378025
40
0.499944208126052
40
0.499944208126052
40
0.531197695118165
40
0.531197695118165
40
0.562451182110277
40
0.562451182110277
40
0.59370466910239
40
0.59370466910239
40
0.601518040850416
40
0.601518040850416
40
0.609331412598443
40
0.624958156094497
40
0.624958156094497
40
0.656211643086604
40
0.656211643086604
40
0.68746513007871
40
0.68746513007871
40
0.703091873574765
40
0.703091873574765
40
0.710905245322794
40
0.710905245322794
40
0.718718617070822
40
0.718718617070822
40
0.749972104062941
40
0.749972104062941
40
0.781225591055059
40
0.781225591055059
40
0.812479078047178
40
0.812479078047178
40
0.816385763921193
40
0.816385763921193
40
0.820292449795209
40
0.828105821543242
40
0.84373256503931
40
0.84373256503931
40
0.874986052031447
40
0.874986052031447
40
0.906239539023584
40
0.906239539023584
40
0.921866282519652
40
0.921866282519652
40
0.929679654267687
40
0.929679654267687
40
0.937493026015721
40
0.937493026015721
40
0.968746513007861
40
0.968746513007861
40
1
40
1
40
1
40
1
41
1
10
8.97500000868757
20
49.9999999982029
30
0
41
1
10
8.97498593607099
20
50.0000024958544
30
0
41
1
10
8.98927917267969
20
49.9974166635317
30
0
41
1
10
9.04659055048614
20
49.9871195237853
30
0
41
1
10
9.08970932745854
20
49.9793897609561
30
0
41
1
10
9.15491493940192
20
49.967838195039
30
0
41
1
10
9.16239249058981
20
49.966515026386
30
0
41
1
10
9.17781525933742
20
49.963789497896
30
0
41
1
10
9.18576331826085
20
49.962386640035
30
0
41
1
10
9.21024222248894
20
49.9580719516777
30
0
41
1
10
9.261802333606
20
49.9490073635009
30
0
41
1
10
9.32106951209187
20
49.9386766537108
30
0
41
1
10
9.44970229146315
20
49.9164284774497
30
0
41
1
10
9.54889781714047
20
49.8994810359744
30
0
41
1
10
9.77383280561548
20
49.8618782865668
30
0
41
1
10
9.89957194141562
20
49.8412220809911
30
0
41
1
10
10.1084238170482
20
49.8078470409024
30
0
41
1
10
10.1814210851413
20
49.7963236480087
30
0
41
1
10
10.2769763464168
20
49.7814635477342
30
0
41
1
10
10.2963100327803
20
49.7784676645892
30
0
41
1
10
10.3353041640848
20
49.7724478602146
30
0
41
1
10
10.39432153054
20
49.7633704792657
30
0
41
1
10
10.4549077971327
20
49.7541570332577
30
0
41
1
10
10.6603134207176
20
49.7231735303243
30
0
41
1
10
10.8356562173151
20
49.6975174106875
30
0
41
1
10
11.2079131630517
20
49.6452198962774
30
0
41
1
10
11.4048281023366
20
49.6185772270897
30
0
41
1
10
11.7165164117545
20
49.5784320614719
30
0
41
1
10
11.8231367790981
20
49.5650202075401
30
0
41
1
10
11.9872170282977
20
49.5449289791178
30
0
41
1
10
12.0426023924549
20
49.5382363474536
30
0
41
1
10
12.1547716967905
20
49.5248722166795
30
0
41
1
10
12.2116077140265
20
49.518194702839
30
0
41
1
10
12.4987406277244
20
49.4849590444645
30
0
41
1
10
12.7359006778461
20
49.4590841445221
30
0
41
1
10
13.2246873984048
20
49.4094512536253
30
0
41
1
10
13.4763153485503
20
49.3856921579507
30
0
41
1
10
13.9940337259523
20
49.3409630315716
30
0
41
1
10
14.2601233506486
20
49.3199919242528
30
0
41
1
10
14.6020361973484
20
49.2959519630683
30
0
41
1
10
14.7053092214567
20
49.2889031460406
30
0
41
1
10
14.8096435970451
20
49.2821117260722
30
0
41
1
10
14.8794372866546
20
49.2776427383769
30
0
41
1
10
14.9144579063017
20
49.2754373084988
30
0
41
1
10
15.0896559402352
20
49.2645908179006
30
0
41
1
10
15.2305129748098
20
49.2564661338881
30
0
41
1
10
15.6551420570751
20
49.2338077365254
30
0
41
1
10
16.2267925079557
20
49.2081725920548
30
0
41
1
10
16.8092395357484
20
49.1922849874754
30
0
41
1
10
17.250178102094
20
49.1842455678648
30
0
41
1
10
17.3978426878127
20
49.1822118161305
30
0
41
1
10
17.6203851462468
20
49.1801583986033
30
0
41
1
10
17.6947403095985
20
49.1796401334415
30
0
41
1
10
17.843803330452
20
49.1789407935531
30
0
41
1
10
17.9185693230132
20
49.1787601741348
30
0
41
1
10
18.2911847481204
20
49.1787078369905
30
0
41
1
10
18.5869483220185
20
49.1813761814325
30
0
41
1
10
19.1739673569801
20
49.1918840269623
30
0
41
1
10
19.4652224435891
20
49.1997238913983
30
0
41
1
10
20.0432430764348
20
49.2203290973357
30
0
41
1
10
20.3300088699921
20
49.2330947943101
30
0
41
1
10
20.685592391562
20
49.2519719215568
30
0
41
1
10
20.7565716804274
20
49.2558936922166
30
0
41
1
10
20.8982127602658
20
49.2640234849097
30
0
41
1
10
21.1093376529606
20
49.276598225139
30
0
41
1
10
21.3165082758126
20
49.2902636518115
30
0
41
1
10
21.7256815729216
20
49.3189216535503
30
0
41
1
10
21.9915854453659
20
49.3397960030528
30
0
41
1
10
22.5098817040857
20
49.384428195941
30
0
41
1
10
22.762274045196
20
49.4081870482974
30
0
41
1
10
23.1306165485108
20
49.4455021285794
30
0
41
1
10
23.2516866551609
20
49.4582199009174
30
0
41
1
10
23.4306826244791
20
49.4776532464778
30
0
41
1
10
23.4899757433564
20
49.4841977109746
30
0
41
1
10
23.6070852532239
20
49.4973271447369
30
0
41
1
10
23.6649613657753
20
49.5039183656187
30
0
41
1
10
23.9509874805677
20
49.536975759323
30
0
41
1
10
24.1690997413391
20
49.5637442646606
30
0
41
1
10
24.5844758013292
20
49.6171570678165
30
0
41
1
10
24.7817384985541
20
49.643802650402
30
0
41
1
10
25.1553552157879
20
49.6962199044695
30
0
41
1
10
25.3317112071998
20
49.7219929039991
30
0
41
1
10
25.5179604036579
20
49.7500621617862
30
0
41
1
10
25.5384942114875
20
49.7531694170135
30
0
41
1
10
25.57911234007
20
49.759339981647
30
0
41
1
10
25.6394033488194
20
49.7685355329742
30
0
41
1
10
25.7756490975442
20
49.7895578843944
30
0
41
1
10
25.8849155438471
20
49.8067922477834
30
0
41
1
10
26.0935708707956
20
49.8401084264633
30
0
41
1
10
26.2195280342667
20
49.8607824442553
30
0
41
1
10
26.4453229584328
20
49.8985016279998
30
0
41
1
10
26.5451616949077
20
49.9155477605833
30
0
41
1
10
26.6748805073426
20
49.9379726563705
30
0
41
1
10
26.7147741301789
20
49.944923404224
30
0
41
1
10
26.7694801806022
20
49.954507657632
30
0
41
1
10
26.7868063126182
20
49.9575527776971
30
0
41
1
10
26.8196081797748
20
49.963332583062
30
0
41
1
10
26.8350914704979
20
49.9660685928769
30
0
41
1
10
26.9079481308455
20
49.9789718209374
30
0
41
1
10
26.9516754221252
20
49.9868086518224
30
0
41
1
10
27.0102007949532
20
49.997322575276
30
0
41
1
10
27.0250078729957
20
50.0000014243385
30
0
41
1
10
27.0250015376939
20
50.0000002781946
30
0
0
SPLINE
5
154
100
AcDbEntity
8
1
62
256
6
ByLayer
370
13
48
1
60
0
100
AcDbSpline
70
4
71
2
72
6
73
3
40
0
40
0
40
0
40
1
40
1
40
1
41
1
10
38.7370007149092
20
49.9031758951793
30
0
41
0.991444861373811
10
39.5
20
49.7025318459961
30
0
41
1
10
40.2899149855243
20
49.7025318459961
30
0
0
SPLINE
5
155
100
AcDbEntity
8
1
62
256
6
ByLayer
370
13
48
1
60
0
100
AcDbSpline
70
4
71
3
72
21
73
17
40
0
40
0
40
0
40
0
40
0.018583614242604
40
0.0325787340307131
40
0.0650946598833353
40
0.129581621767523
40
0.256695354869299
40
0.381192788061009
40
0.506029196919141
40
0.629058977362144
40
0.75309789835828
40
0.802040472875867
40
0.851173986671048
40
0.900526614019241
40
0.950126155803673
40
1
40
1
40
1
40
1
41
1
10
39.5
20
50
30
0
41
1
10
39.5097059745283
20
49.9999838134703
30
0
41
1
10
39.5267214139654
20
49.9999554370394
30
0
41
1
10
39.5600543811537
20
49.9996693670584
30
0
41
1
10
39.615691534735
20
49.9987640547262
30
0
41
1
10
39.7225955573916
20
49.9950299511835
30
0
41
1
10
39.8579929017267
20
49.984239008601
30
0
41
1
10
39.9941303594386
20
49.9620406728804
30
0
41
1
10
40.1036741486325
20
49.9304041062906
30
0
41
1
10
40.1880263479408
20
49.8888443338099
30
0
41
1
10
40.2353934940849
20
49.8477097209812
30
0
41
1
10
40.2607481743415
20
49.8126108287928
30
0
41
1
10
40.2738025372224
20
49.7877320544582
30
0
41
1
10
40.2830576872934
20
49.7611179302353
30
0
41
1
10
40.2888477152627
20
49.7328852208177
30
0
41
1
10
40.2895585753607
20
49.7126682207042
30
0
41
1
10
40.2899149855243
20
49.7025318459961
30
0
0
SPLINE
5
156
100
AcDbEntity
8
1
62
256
6
ByLayer
370
13
48
1
60
0
100
AcDbSpline
70
4
71
3
72
144
73
140
40
0
40
0
40
0
40
0
40
0.0078125000000051
40
0.0078125000000051
40
0.0156250000000102
40
0.0156250000000102
40
0.0312500000000164
40
0.0312500000000164
40
0.0468750000000225
40
0.0468750000000225
40
0.0546875000000259
40
0.0546875000000259
40
0.0625000000000294
40
0.0625000000000294
40
0.0937500000000353
40
0.0937500000000353
40
0.109375000000037
40
0.109375000000037
40
0.11718750000004
40
0.11718750000004
40
0.125000000000042
40
0.125000000000042
40
0.156250000000045
40
0.156250000000045
40
0.171875000000048
40
0.171875000000048
40
0.179687500000049
40
0.179687500000049
40
0.18750000000005
40
0.18750000000005
40
0.21875000000005
40
0.21875000000005
40
0.234375000000051
40
0.234375000000051
40
0.242187500000051
40
0.242187500000051
40
0.250000000000051
40
0.250000000000051
40
0.281250000000048
40
0.281250000000048
40
0.296875000000047
40
0.296875000000047
40
0.300781250000046
40
0.300781250000046
40
0.304687500000045
40
0.304687500000045
40
0.312500000000044
40
0.312500000000044
40
0.343750000000038
40
0.343750000000038
40
0.359375000000035
40
0.359375000000035
40
0.363281250000035
40
0.363281250000035
40
0.367187500000035
40
0.375000000000035
40
0.375000000000035
40
0.406250000000027
40
0.406250000000027
40
0.414062500000024
40
0.414062500000024
40
0.417968750000024
40
0.417968750000024
40
0.421875000000025
40
0.437500000000026
40
0.437500000000026
40
0.468750000000035
40
0.468750000000035
40
0.476562500000033
40
0.476562500000033
40
0.484375000000031
40
0.484375000000031
40
0.500000000000026
40
0.515625000000022
40
0.515625000000022
40
0.523437500000022
40
0.523437500000022
40
0.531250000000023
40
0.531250000000023
40
0.562500000000042
40
0.562500000000042
40
0.578125000000049
40
0.578125000000049
40
0.58203125000005
40
0.58203125000005
40
0.58593750000005
40
0.58593750000005
40
0.593750000000051
40
0.593750000000051
40
0.625000000000057
40
0.625000000000057
40
0.632812500000056
40
0.632812500000056
40
0.640625000000055
40
0.640625000000055
40
0.656250000000057
40
0.656250000000057
40
0.687500000000058
40
0.687500000000058
40
0.695312500000058
40
0.695312500000058
40
0.703125000000057
40
0.703125000000057
40
0.718750000000057
40
0.718750000000057
40
0.750000000000057
40
0.750000000000057
40
0.757812500000057
40
0.757812500000057
40
0.765625000000056
40
0.765625000000056
40
0.781250000000055
40
0.781250000000055
40
0.812500000000052
40
0.812500000000052
40
0.820312500000052
40
0.820312500000052
40
0.828125000000051
40
0.828125000000051
40
0.843750000000052
40
0.843750000000052
40
0.87500000000005
40
0.87500000000005
40
0.882812500000049
40
0.882812500000049
40
0.890625000000049
40
0.890625000000049
40
0.906250000000045
40
0.906250000000045
40
0.937500000000036
40
0.937500000000036
40
0.945312500000034
40
0.945312500000034
40
0.953125000000031
40
0.953125000000031
40
0.968750000000021
40
0.98437500000001
40
0.98437500000001
40
1
40
1
40
1
40
1
41
1
10
5.79103935235139
20
36.3973683071413
30
0
41
1
10
5.75441368993711
20
36.3865371998524
30
0
41
1
10
5.71805213108769
20
36.3748719920957
30
0
41
1
10
5.6458529047718
20
36.3498706747926
30
0
41
1
10
5.61017534670748
20
36.3365868650786
30
0
41
1
10
5.50492286996678
20
36.2946733693372
30
0
41
1
10
5.43687826461155
20
36.2639033170315
30
0
41
1
10
5.30471458009623
20
36.196993131097
30
0
41
1
10
5.24059639834388
20
36.1608519358929
30
0
41
1
10
5.14721839841411
20
36.1026950726603
30
0
41
1
10
5.11655984778389
20
36.082650691351
30
0
41
1
10
5.05616356805626
20
36.0412439625729
30
0
41
1
10
5.02653585325049
20
36.0199546757122
30
0
41
1
10
4.88170013117804
20
35.9110523994786
30
0
41
1
10
4.77571355697472
20
35.8157416133872
30
0
41
1
10
4.63010784176788
20
35.6608803848046
30
0
41
1
10
4.58382054874835
20
35.6072633724662
30
0
41
1
10
4.51773384163272
20
35.5237718618151
30
0
41
1
10
4.496321883495
20
35.4954998487227
30
0
41
1
10
4.45490104600913
20
35.4383379507183
30
0
41
1
10
4.43486099376696
20
35.4094089796533
30
0
41
1
10
4.33794510634709
20
35.2630293855292
30
0
41
1
10
4.27083666984834
20
35.1404109946355
30
0
41
1
10
4.18559418477133
20
34.9478672479469
30
0
41
1
10
4.15976674388054
20
34.8822429116202
30
0
41
1
10
4.12503225502621
20
34.781530084112
30
0
41
1
10
4.11411029450255
20
34.7475268320006
30
0
41
1
10
4.09380244924546
20
34.6793227495838
30
0
41
1
10
4.08439334166178
20
34.6450615699117
30
0
41
1
10
4.04104288559813
20
34.4729579453711
30
0
41
1
10
4.01810150194359
20
34.3327319742667
30
0
41
1
10
4.0017789688286
20
34.1184244896607
30
0
41
1
10
3.99936955191157
20
34.0463253767912
30
0
41
1
10
4.00052531016485
20
33.9371434610905
30
0
41
1
10
4.0017067530498
20
33.900577136081
30
0
41
1
10
4.00571519569291
20
33.8270914443141
30
0
41
1
10
4.00854820909183
20
33.7901667476979
30
0
41
1
10
4.02674699568138
20
33.6065385664537
30
0
41
1
10
4.05418470168632
20
33.4613016286199
30
0
41
1
10
4.11517190244138
20
33.2462447033062
30
0
41
1
10
4.13882300849275
20
33.1750289931475
30
0
41
1
10
4.17273424088432
20
33.0866586299971
30
0
41
1
10
4.17973427125503
20
33.069017114053
30
0
41
1
10
4.19417651626071
20
33.0338011344701
30
0
41
1
10
4.20162696074988
20
33.0162089359132
30
0
41
1
10
4.22453414821018
20
32.9638006472433
30
0
41
1
10
4.24057377530971
20
32.9292814382717
30
0
41
1
10
4.32457212758737
20
32.7587767227891
30
0
41
1
10
4.40384662348924
20
32.6290154897995
30
0
41
1
10
4.54111904148817
20
32.4447991233778
30
0
41
1
10
4.58995297533733
20
32.3851407959572
30
0
41
1
10
4.65500380925636
20
32.3128819916874
30
0
41
1
10
4.66821836398594
20
32.2985435449452
30
0
41
1
10
4.69490348269954
20
32.2702588073022
30
0
41
1
10
4.73536884832527
20
32.2283594668638
30
0
41
1
10
4.7771349104757
20
32.1880316354633
30
0
41
1
10
4.9192080648977
20
32.0570660354894
30
0
41
1
10
5.04192574508227
20
31.9632826319239
30
0
41
1
10
5.20675755421564
20
31.8601316951588
30
0
41
1
10
5.24030009286241
20
31.8402107860849
30
0
41
1
10
5.2914941756751
20
31.8114166685458
30
0
41
1
10
5.30872908186228
20
31.8019876457536
30
0
41
1
10
5.34336309237915
20
31.7835668803798
30
0
41
1
10
5.43033548500114
20
31.7386181054928
30
0
41
1
10
5.51921694104533
20
31.6991118147606
30
0
41
1
10
5.73610321724891
20
31.614512816188
30
0
41
1
10
5.88542342638721
20
31.5716462607675
30
0
41
1
10
6.0781495303458
20
31.5355365550018
30
0
41
1
10
6.11706480046212
20
31.5291910366421
30
0
41
1
10
6.19470997966857
20
31.5184008575234
30
0
41
1
10
6.23352930387455
20
31.5139363127272
30
0
41
1
10
6.3499776469672
20
31.5032880723095
30
0
41
1
10
6.50521646827121
20
31.4963996642629
30
0
41
1
10
6.66040472105192
20
31.5039342500752
30
0
41
1
10
6.77677669822219
20
31.5150627503009
30
0
41
1
10
6.81556414990098
20
31.5196866488351
30
0
41
1
10
6.89313253008436
20
31.5307932718262
30
0
41
1
10
6.93201362212869
20
31.537297563388
30
0
41
1
10
7.12466217436082
20
31.5742172100711
30
0
41
1
10
7.27379584366554
20
31.6177097991883
30
0
41
1
10
7.49023772406866
20
31.7031661135444
30
0
41
1
10
7.56116710819288
20
31.7350433060507
30
0
41
1
10
7.6482681590403
20
31.7792204604025
30
0
41
1
10
7.66561017046467
20
31.7882728692102
30
0
41
1
10
7.70013615982009
20
31.8068157468067
30
0
41
1
10
7.71733984308912
20
31.8163178625948
30
0
41
1
10
7.76845989395656
20
31.8453433265125
30
0
41
1
10
7.8019446163637
20
31.8654147170016
30
0
41
1
10
7.9664480887563
20
31.9692967143055
30
0
41
1
10
8.08877842650605
20
32.0635971133989
30
0
41
1
10
8.23024809314518
20
32.195080721915
30
0
41
1
10
8.25796542201351
20
32.2220630938999
30
0
41
1
10
8.31223269728946
20
32.2774104615599
30
0
41
1
10
8.33881256924883
20
32.305809077169
30
0
41
1
10
8.41657672348015
20
32.3928933282652
30
0
41
1
10
8.4652065832579
20
32.4527967415775
30
0
41
1
10
8.60184351447231
20
32.6377396755079
30
0
41
1
10
8.68066368301186
20
32.7679736523069
30
0
41
1
10
8.76403754016354
20
32.9390650559674
30
0
41
1
10
8.77994941251779
20
32.9737013932373
30
0
41
1
10
8.81023051353463
20
33.0438132357031
30
0
41
1
10
8.82449373273369
20
33.0790448838221
30
0
41
1
10
8.86467292349732
20
33.1851136747942
30
0
41
1
10
8.88800792202517
20
33.256380209793
30
0
41
1
10
8.94808180247281
20
33.4716966774956
30
0
41
1
10
8.97495754168256
20
33.6172487185324
30
0
41
1
10
8.99237918015865
20
33.8014663546172
30
0
41
1
10
8.99504202847959
20
33.8383676731515
30
0
41
1
10
8.99872369479596
20
33.9120248328952
30
0
41
1
10
8.99973873069052
20
33.948667113358
30
0
41
1
10
9.00038967090751
20
34.058022766901
30
0
41
1
10
8.99763711694936
20
34.1302300879265
30
0
41
1
10
8.98025997153945
20
34.3448400334016
30
0
41
1
10
8.95658254233831
20
34.4852382585015
30
0
41
1
10
8.91224643840121
20
34.6575203362623
30
0
41
1
10
8.90261819689562
20
34.6918754765884
30
0
41
1
10
8.88195606190027
20
34.7599678903315
30
0
41
1
10
8.87094370690397
20
34.793645053834
30
0
41
1
10
8.8359072974651
20
34.8936012694566
30
0
41
1
10
8.80988812951267
20
34.9588068637892
30
0
41
1
10
8.72404081171874
20
35.1503119400664
30
0
41
1
10
8.65649125847716
20
35.2725264251975
30
0
41
1
10
8.55878966341186
20
35.4186688302768
30
0
41
1
10
8.53858063923576
20
35.4475638793488
30
0
41
1
10
8.49679271352568
20
35.5046830452532
30
0
41
1
10
8.47532823679086
20
35.5327495501267
30
0
41
1
10
8.40932077461895
20
35.6153840055901
30
0
41
1
10
8.36312986114831
20
35.6684416531473
30
0
41
1
10
8.21794923269124
20
35.8216619202622
30
0
41
1
10
8.11242411627143
20
35.9159268892917
30
0
41
1
10
7.9684444170482
20
36.0236017283622
30
0
41
1
10
7.93903904654064
20
36.0446244831293
30
0
41
1
10
7.8789550482802
20
36.0856187641329
30
0
41
1
10
7.84823060298152
20
36.1056186165787
30
0
41
1
10
7.75434578265697
20
36.1638019148537
30
0
41
1
10
7.62596600207439
20
36.2357258510723
30
0
41
1
10
7.4910291452702
20
36.296388912906
30
0
41
1
10
7.35264638350804
20
36.3512836814776
30
0
41
1
10
7.28173260960045
20
36.3758478519312
30
0
41
1
10
7.20896064764861
20
36.3973683071413
30
0
0
SPLINE
5
157
100
AcDbEntity
8
1
62
256
6
ByLayer
370
13
48
1
60
0
100
AcDbSpline
70
4
71
3
72
14
73
10
40
0
40
0
40
0
40
0
40
0.25
40
0.25
40
0.5
40
0.5
40
0.75
40
0.75
40
1
40
1
40
1
40
1
41
1
10
0.345000000000027
20
-29.4855718735902
30
0
41
1
10
0.360326161897888
20
-29.484510097409
30
0
41
1
10
0.374142712278513
20
-29.4832292035151
30
0
41
1
10
0.398861324522329
20
-29.4802328676696
30
0
41
1
10
0.409648218954828
20
-29.478516871735
30
0
41
1
10
0.426996590528347
20
-29.4748260977331
30
0
41
1
10
0.433784751833287
20
-29.4727978398795
30
0
41
1
10
0.442719895321602
20
-29.4686365222685
30
0
41
1
10
0.444999999999936
20
-29.4664912553092
30
0
41
1
10
0.444999999999936
20
-29.4642770724339
30
0
0
SPLINE
5
158
100
AcDbEntity
8
1
62
256
6
ByLayer
370
13
48
1
60
0
100
AcDbSpline
70
4
71
3
72
14
73
10
40
0
40
0
40
0
40
0
40
0.25
40
0.25
40
0.5
40
0.5
40
0.75
40
0.75
40
1
40
1
40
1
40
1
41
1
10
0.444999999999936
20
-29.4636196469805
30
0
41
1
10
0.444999999999936
20
-29.4614013450771
30
0
41
1
10
0.442717821969552
20
-29.459216010447
30
0
41
1
10
0.433721686291335
20
-29.4549123859047
30
0
41
1
10
0.426941048941103
20
-29.4528031189031
30
0
41
1
10
0.409584403008353
20
-29.4489051505345
30
0
41
1
10
0.398741653236186
20
-29.4470610757603
30
0
41
1
10
0.374112319633696
20
-29.4438366348464
30
0
41
1
10
0.360327709973262
20
-29.4424381737827
30
0
41
1
10
0.345000000000027
20
-29.4412700849661
30
0
0
SPLINE
5
159
100
AcDbEntity
8
1
62
256
6
ByLayer
370
13
48
1
60
0
100
AcDbSpline
70
4
71
3
72
14
73
10
40
0
40
0
40
0
40
0
40
0.25
40
0.25
40
0.5
40
0.5
40
0.75
40
0.75
40
1
40
1
40
1
40
1
41
1
10
0.345000000000027
20
-29.2670097203108
30
0
41
1
10
0.360380158856742
20
-29.2654858497211
30
0
41
1
10
0.374224801566811
20
-29.2636495482349
30
0
41
1
10
0.398966353966557
20
-29.259365512774
30
0
41
1
10
0.409744758739805
20
-29.2569177840851
30
0
41
1
10
0.427064616935354
20
-29.251668531481
30
0
41
1
10
0.433829581061218
20
-29.2487920627085
30
0
41
1
10
0.442730845068468
20
-29.2429067376786
30
0
41
1
10
0.444999999999936
20
-29.2398795456167
30
0
41
1
10
0.444999999999936
20
-29.2367628534705
30
0
0
SPLINE
5
15A
100
AcDbEntity
8
1
62
256
6
ByLayer
370
13
48
1
60
0
100
AcDbSpline
70
4
71
3
72
14
73
10
40
0
40
0
40
0
40
0
40
0.25
40
0.25
40
0.5
40
0.5
40
0.75
40
0.75
40
1
40
1
40
1
40
1
41
1
10
0.444999999999936
20
-29.2358353641227
30
0
41
1
10
0.444999999999936
20
-29.2327135122489
30
0
41
1
10
0.442727994779602
20
-29.2296435938549
30
0
41
1
10
0.433768674463295
20
-29.2236076983201
30
0
41
1
10
0.427008948428977
20
-29.2206513096617
30
0
41
1
10
0.409689514050683
20
-29.2151938381412
30
0
41
1
10
0.398864237975772
20
-29.2126140720485
30
0
41
1
10
0.37419936698177
20
-29.2080988781786
30
0
41
1
10
0.360382258330901
20
-29.2061423047491
30
0
41
1
10
0.345000000000027
20
-29.204509159174
30
0
0
SPLINE
5
15B
100
AcDbEntity
8
1
62
256
6
ByLayer
370
13
48
1
60
0
100
AcDbSpline
70
4
71
3
72
14
73
10
40
0
40
0
40
0
40
0
40
0.25
40
0.25
40
0.5
40
0.5
40
0.75
40
0.75
40
1
40
1
40
1
40
1
41
1
10
0.345000000000027
20
-28.970052168554
30
0
41
1
10
0.360453850498971
20
-28.9680482347308
30
0
41
1
10
0.374336274043969
20
-28.9656354582393
30
0
41
1
10
0.399108079303915
20
-28.9600193412953
30
0
41
1
10
0.409874540935107
20
-28.9568172295951
30
0
41
1
10
0.427155518253244
20
-28.949966282515
30
0
41
1
10
0.433889246737181
20
-28.9462215098214
30
0
41
1
10
0.442745346623156
20
-28.938574972147
30
0
41
1
10
0.444999999999936
20
-28.9346478769662
30
0
41
1
10
0.444999999999936
20
-28.9306114994006
30
0
0
SPLINE
5
15C
100
AcDbEntity
8
1
62
256
6
ByLayer
370
13
48
1
60
0
100
AcDbSpline
70
4
71
3
72
14
73
10
40
0
40
0
40
0
40
0
40
0.25
40
0.25
40
0.5
40
0.5
40
0.75
40
0.75
40
1
40
1
40
1
40
1
41
1
10
0.444999999999936
20
-28.9294065178101
30
0
41
1
10
0.444999999999936
20
-28.9253635115344
30
0
41
1
10
0.442741673342084
20
-28.9213909972897
30
0
41
1
10
0.433831650502498
20
-28.9135861109882
30
0
41
1
10
0.427100189946657
20
-28.9097607682785
30
0
41
1
10
0.409830478205493
20
-28.902700740555
30
0
41
1
10
0.399031043397145
20
-28.8993631329425
30
0
41
1
10
0.374317766796366
20
-28.8935071189967
30
0
41
1
10
0.360456475942897
20
-28.8909695724484
30
0
41
1
10
0.345000000000027
20
-28.888852223411
30
0
0
SPLINE
5
15D
100
AcDbEntity
8
1
62
256
6
ByLayer
370
13
48
1
60
0
100
AcDbSpline
70
4
71
3
72
14
73
10
40
0
40
0
40
0
40
0
40
0.25
40
0.25
40
0.5
40
0.5
40
0.75
40
0.75
40
1
40
1
40
1
40
1
41
1
10
0.345000000000027
20
-28.5922821169849
30
0
41
1
10
0.360548701994901
20
-28.5897734727444
30
0
41
1
10
0.374478923459833
20
-28.5867554198754
30
0
41
1
10
0.399288165536973
20
-28.579746852226
30
0
41
1
10
0.410038753504239
20
-28.5757596878048
30
0
41
1
10
0.427269792525863
20
-28.5672485746654
30
0
41
1
10
0.433963959434948
20
-28.5626083701081
30
0
41
1
10
0.44276342778636
20
-28.5531500718827
30
0
41
1
10
0.444999999999936
20
-28.5482986242232
30
0
41
1
10
0.444999999999936
20
-28.5433191522666
30
0
0
SPLINE
5
15E
100
AcDbEntity
8
1
62
256
6
ByLayer
370
13
48
1
60
0
100
AcDbSpline
70
4
71
3
72
14
73
10
40
0
40
0
40
0
40
0
40
0.25
40
0.25
40
0.5
40
0.5
40
0.75
40
0.75
40
1
40
1
40
1
40
1
41
1
10
0.444999999999936
20
-28.5418266142989
30
0
41
1
10
0.444999999999936
20
-28.5368385045227
30
0
41
1
10
0.442758841883688
20
-28.5319389372218
30
0
41
1
10
0.433910641075045
20
-28.5223152837401
30
0
41
1
10
0.42721511900362
20
-28.5175916795317
30
0
41
1
10
0.410007779302475
20
-28.5088708801913
30
0
41
1
10
0.399245243476344
20
-28.5047466529069
30
0
41
1
10
0.374469804364594
20
-28.4974817192929
30
0
41
1
10
0.360551861016688
20
-28.4943321143202
30
0
41
1
10
0.345000000000027
20
-28.4917045408502
30
0
0
SPLINE
5
15F
100
AcDbEntity
8
1
62
256
6
ByLayer
370
13
48
1
60
0
100
AcDbSpline
70
4
71
3
72
14
73
10
40
0
40
0
40
0
40
0
40
0.25
40
0.25
40
0.5
40
0.5
40
0.75
40
0.75
40
1
40
1
40
1
40
1
41
1
10
0.34499999999997
20
47.873749444805
30
0
41
1
10
0.36035354710998
20
47.8764205499818
30
0
41
1
10
0.374596113669327
20
47.8797315730115
30
0
41
1
10
0.399373643351339
20
47.8872392509701
30
0
41
1
10
0.409986804702271
20
47.8914334409516
30
0
41
1
10
0.427370859327596
20
47.9005557090994
30
0
41
1
10
0.43389432272852
20
47.9053398225645
30
0
41
1
10
0.442762912418914
20
47.915332647409
30
0
41
1
10
0.444999999999936
20
47.9204939727204
30
0
41
1
10
0.444999999999936
20
47.9255999911957
30
0
0
SPLINE
5
160
100
AcDbEntity
8
1
62
256
6
ByLayer
370
13
48
1
60
0
100
AcDbSpline
70
4
71
3
72
14
73
10
40
0
40
0
40
0
40
0
40
0.25
40
0.25
40
0.5
40
0.5
40
0.75
40
0.75
40
1
40
1
40
1
40
1
41
1
10
0.444999999999936
20
47.9271515100714
30
0
41
1
10
0.444999999999936
20
47.9322558287307
30
0
41
1
10
0.442734343650329
20
47.9374310919667
30
0
41
1
10
0.433896954637135
20
47.9472970863473
30
0
41
1
10
0.427328367783105
20
47.9520587115081
30
0
41
1
10
0.409920863761727
20
47.9610408863048
30
0
41
1
10
0.399379357774933
20
47.9651250417856
30
0
41
1
10
0.374576057090735
20
47.972476856833
30
0
41
1
10
0.360334723628171
20
47.9757030985987
30
0
41
1
10
0.345000000000027
20
47.9783002289613
30
0
0
SPLINE
5
161
100
AcDbEntity
8
1
62
256
6
ByLayer
370
13
48
1
60
0
100
AcDbSpline
70
4
71
3
72
14
73
10
40
0
40
0
40
0
40
0
40
0.25
40
0.25
40
0.5
40
0.5
40
0.75
40
0.75
40
1
40
1
40
1
40
1
41
1
10
0.345000000000027
20
48.3003450130053
30
0
41
1
10
0.360295600176414
20
48.3027082842457
30
0
41
1
10
0.374478122954372
20
48.3056312090398
30
0
41
1
10
0.399262551991001
20
48.3122883345198
30
0
41
1
10
0.409833244430843
20
48.3159860916911
30
0
41
1
10
0.427303580763351
20
48.3241025746313
30
0
41
1
10
0.433846382181912
20
48.3283543427492
30
0
41
1
10
0.44274102685165
20
48.3372228216254
30
0
41
1
10
0.444999999999936
20
48.3418257873321
30
0
41
1
10
0.444999999999936
20
48.346364514255
30
0
0
SPLINE
5
162
100
AcDbEntity
8
1
62
256
6
ByLayer
370
13
48
1
60
0
100
AcDbSpline
70
4
71
3
72
14
73
10
40
0
40
0
40
0
40
0
40
0.25
40
0.25
40
0.5
40
0.5
40
0.75
40
0.75
40
1
40
1
40
1
40
1
41
1
10
0.444999999999936
20
48.3477406363547
30
0
41
1
10
0.444999999999936
20
48.3522773677679
30
0
41
1
10
0.442727458587513
20
48.3568737208822
30
0
41
1
10
0.433846645406391
20
48.3656440047528
30
0
41
1
10
0.427280471343693
20
48.3698540506159
30
0
41
1
10
0.409813916202779
20
48.3778271475078
30
0
41
1
10
0.399255872245931
20
48.3814416566616
30
0
41
1
10
0.374494739461625
20
48.3879346821947
30
0
41
1
10
0.360273647446547
20
48.3907851883964
30
0
41
1
10
0.345000000000027
20
48.3930764716293
30
0
0
SPLINE
5
163
100
AcDbEntity
8
1
62
256
6
ByLayer
370
13
48
1
60
0
100
AcDbSpline
70
4
71
3
72
14
73
10
40
0
40
0
40
0
40
0
40
0.25
40
0.25
40
0.5
40
0.5
40
0.75
40
0.75
40
1
40
1
40
1
40
1
41
1
10
0.345000000000027
20
48.6770045385574
30
0
41
1
10
0.360248384222473
20
48.6790709962117
30
0
41
1
10
0.374364493904409
20
48.6816184253682
30
0
41
1
10
0.399167094355903
20
48.6874513784806
30
0
41
1
10
0.409730880359348
20
48.6906867146366
30
0
41
1
10
0.427202657885573
20
48.6977846667964
30
0
41
1
10
0.433804810096319
20
48.7015328918568
30
0
41
1
10
0.442721826485581
20
48.7093036290386
30
0
41
1
10
0.44500000000005
20
48.7133529264432
30
0
41
1
10
0.444999999999936
20
48.7173356103794
30
0
0
SPLINE
5
164
100
AcDbEntity
8
1
62
256
6
ByLayer
370
13
48
1
60
0
100
AcDbSpline
70
4
71
3
72
14
73
10
40
0
40
0
40
0
40
0
40
0.25
40
0.25
40
0.5
40
0.5
40
0.75
40
0.75
40
1
40
1
40
1
40
1
41
1
10
0.444999999999936
20
48.7185405919667
30
0
41
1
10
0.444999999999936
20
48.722521179095
30
0
41
1
10
0.442723868164592
20
48.7265470058596
30
0
41
1
10
0.43380189291139
20
48.7342434591283
30
0
41
1
10
0.427241826684735
20
48.7379162465524
30
0
41
1
10
0.409726998592873
20
48.744899753079
30
0
41
1
10
0.399145814910639
20
48.7480600622757
30
0
41
1
10
0.374427122994575
20
48.75372061851
30
0
41
1
10
0.36022059351609
20
48.7562076105725
30
0
41
1
10
0.345000000000027
20
48.7582034935412
30
0
0
SPLINE
5
165
100
AcDbEntity
8
1
62
256
6
ByLayer
370
13
48
1
60
0
100
AcDbSpline
70
4
71
3
72
14
73
10
40
0
40
0
40
0
40
0
40
0.25
40
0.25
40
0.5
40
0.5
40
0.75
40
0.75
40
1
40
1
40
1
40
1
41
1
10
0.345000000000027
20
49.0048794847832
30
0
41
1
10
0.36021295858302
20
49.0066585008471
30
0
41
1
10
0.374251288992127
20
49.008841006759
30
0
41
1
10
0.399087372295867
20
49.0138722241793
30
0
41
1
10
0.409648627554248
20
49.0166593061964
30
0
41
1
10
0.427108632007048
20
49.0227619386842
30
0
41
1
10
0.433769690037252
20
49.0260118570055
30
0
41
1
10
0.442705409296764
20
49.0327075637386
30
0
41
1
10
0.444999999999936
20
49.0362071149356
30
0
41
1
10
0.444999999999936
20
49.0396433123596
30
0
0
SPLINE
5
166
100
AcDbEntity
8
1
62
256
6
ByLayer
370
13
48
1
60
0
100
AcDbSpline
70
4
71
3
72
14
73
10
40
0
40
0
40
0
40
0
40
0.25
40
0.25
40
0.5
40
0.5
40
0.75
40
0.75
40
1
40
1
40
1
40
1
41
1
10
0.444999999999936
20
49.0406807679297
30
0
41
1
10
0.444999999999936
20
49.0441149700905
30
0
41
1
10
0.442724612483403
20
49.0475771026943
30
0
41
1
10
0.433762564224139
20
49.0542185422958
30
0
41
1
10
0.427180924089726
20
49.0573776340658
30
0
41
1
10
0.409687428207064
20
49.0633678097157
30
0
41
1
10
0.399048199115669
20
49.0660960153579
30
0
41
1
10
0.374372419934502
20
49.0709466518786
30
0
41
1
10
0.360176095630322
20
49.0730801133564
30
0
41
1
10
0.345000000000027
20
49.0747895099529
30
0
0
SPLINE
5
167
100
AcDbEntity
8
1
62
256
6
ByLayer
370
13
48
1
60
0
100
AcDbSpline
70
4
71
3
72
14
73
10
40
0
40
0
40
0
40
0
40
0.25
40
0.25
40
0.5
40
0.5
40
0.75
40
0.75
40
1
40
1
40
1
40
1
41
1
10
0.345000000000027
20
49.284943499912
30
0
41
1
10
0.360191888870077
20
49.2864430078198
30
0
41
1
10
0.37413136023838
20
49.2882691563916
30
0
41
1
10
0.39902403761289
20
49.2925176261721
30
0
41
1
10
0.409583807576837
20
49.2948669111094
30
0
41
1
10
0.427025771816261
20
49.2999972537509
30
0
41
1
10
0.433741322581739
20
49.3027511919746
30
0
41
1
10
0.442692233523928
20
49.3083912387739
30
0
41
1
10
0.444999999999936
20
49.3113439566227
30
0
41
1
10
0.444999999999936
20
49.3142417911152
30
0
0
SPLINE
5
168
100
AcDbEntity
8
1
62
256
6
ByLayer
370
13
48
1
60
0
100
AcDbSpline
70
4
71
3
72
14
73
10
40
0
40
0
40
0
40
0
40
0.25
40
0.25
40
0.5
40
0.5
40
0.75
40
0.75
40
1
40
1
40
1
40
1
41
1
10
0.444999999999936
20
49.3151147514925
30
0
41
1
10
0.444999999999936
20
49.3180109586702
30
0
41
1
10
0.442731902092532
20
49.3209143480552
30
0
41
1
10
0.433728578460205
20
49.3265171233883
30
0
41
1
10
0.427124819004007
20
49.3291716935325
30
0
41
1
10
0.409663210268263
20
49.3341888209779
30
0
41
1
10
0.398961799935023
20
49.336490667415
30
0
41
1
10
0.374328780669885
20
49.3405506574871
30
0
41
1
10
0.360141974411818
20
49.3423383348896
30
0
41
1
10
0.345000000000027
20
49.3437688363464
30
0
0
SPLINE
5
169
100
AcDbEntity
8
1
62
256
6
ByLayer
370
13
48
1
60
0
100
AcDbSpline
70
4
71
3
72
14
73
10
40
0
40
0
40
0
40
0
40
0.25
40
0.25
40
0.5
40
0.5
40
0.75
40
0.75
40
1
40
1
40
1
40
1
41
1
10
0.345000000000027
20
49.5180078179737
30
0
41
1
10
0.360191192314801
20
49.5192345194958
30
0
41
1
10
0.374026582036322
20
49.5207157880633
30
0
41
1
10
0.398945585709043
20
49.5241879125774
30
0
41
1
10
0.409539889862685
20
49.5261128565
30
0
41
1
10
0.426956404907173
20
49.5302907057334
30
0
41
1
10
0.433720466712486
20
49.5325495399779
30
0
41
1
10
0.44268370924658
20
49.5371505640469
30
0
41
1
10
0.444999999999936
20
49.5395579289458
30
0
41
1
10
0.444999999999936
20
49.541924373824
30
0
0
SPLINE
5
16A
100
AcDbEntity
8
1
62
256
6
ByLayer
370
13
48
1
60
0
100
AcDbSpline
70
4
71
3
72
14
73
10
40
0
40
0
40
0
40
0
40
0.25
40
0.25
40
0.5
40
0.5
40
0.75
40
0.75
40
1
40
1
40
1
40
1
41
1
10
0.444999999999936
20
49.5426353328499
30
0
41
1
10
0.444999999999936
20
49.5450009779199
30
0
41
1
10
0.442750870782732
20
49.5473479408574
30
0
41
1
10
0.433700014965325
20
49.5519267573916
30
0
41
1
10
0.42707004389581
20
49.5540848280124
30
0
41
1
10
0.409651731130566
20
49.5581464971654
30
0
41
1
10
0.398884829432802
20
49.5600253476502
30
0
41
1
10
0.374290627830874
20
49.5633112660063
30
0
41
1
10
0.360123545182319
20
49.5647584050149
30
0
41
1
10
0.345000000000027
20
49.5659165203611
30
0
0
SPLINE
5
16B
100
AcDbEntity
8
1
62
256
6
ByLayer
370
13
48
1
60
0
100
AcDbSpline
70
4
71
3
72
14
73
10
40
0
40
0
40
0
40
0
40
0.25
40
0.25
40
0.5
40
0.5
40
0.75
40
0.75
40
1
40
1
40
1
40
1
41
1
10
0.345000000000027
20
49.7047335847633
30
0
41
1
10
0.360226229567843
20
49.7056932039222
30
0
41
1
10
0.374028390035448
20
49.7068480507806
30
0
41
1
10
0.398812482231506
20
49.7095374350337
30
0
41
1
10
0.409526350024692
20
49.7110511875313
30
0
41
1
10
0.426909801447664
20
49.7142940130535
30
0
41
1
10
0.433709049193396
20
49.7160563197599
30
0
41
1
10
0.442684130750308
20
49.7196330643304
30
0
41
1
10
0.444999999999993
20
49.7214942812112
30
0
41
1
10
0.444999999999936
20
49.723335546711
30
0
0
SPLINE
5
16C
100
AcDbEntity
8
1
62
256
6
ByLayer
370
13
48
1
60
0
100
AcDbSpline
70
4
71
3
72
14
73
10
40
0
40
0
40
0
40
0
40
0.25
40
0.25
40
0.5
40
0.5
40
0.75
40
0.75
40
1
40
1
40
1
40
1
41
1
10
0.444999999999936
20
49.7238864982881
30
0
41
1
10
0.444999999999936
20
49.7257262055947
30
0
41
1
10
0.442759447253081
20
49.7275325483852
30
0
41
1
10
0.433693989373182
20
49.7310788396848
30
0
41
1
10
0.427018234249943
20
49.7327535914569
30
0
41
1
10
0.409632488924615
20
49.7358790303519
30
0
41
1
10
0.398820703164688
20
49.7373325776188
30
0
41
1
10
0.374246452153045
20
49.7398593380328
30
0
41
1
10
0.360121874561514
20
49.7409694041557
30
0
41
1
10
0.345000000000027
20
49.7418600178161
30
0
0
SPLINE
5
16D
100
AcDbEntity
8
1
62
256
6
ByLayer
370
13
48
1
60
0
100
AcDbSpline
70
4
71
3
72
14
73
10
40
0
40
0
40
0
40
0
40
0.250000000000003
40
0.250000000000003
40
0.500000000000002
40
0.500000000000002
40
0.750000000000001
40
0.750000000000001
40
1
40
1
40
1
40
1
41
1
10
0.34499999999997
20
49.8456415667778
30
0
41
1
10
0.360215898029423
20
49.8463334606884
30
0
41
1
10
0.374120127252013
20
49.8471735112046
30
0
41
1
10
0.398749838578169
20
49.849097896012
30
0
41
1
10
0.409566488710823
20
49.8501957503272
30
0
41
1
10
0.426919378910498
20
49.8525205356737
30
0
41
1
10
0.433710540830134
20
49.8537807095212
30
0
41
1
10
0.442708040974708
20
49.8563478162754
30
0
41
1
10
0.444999999999879
20
49.8576580124801
30
0
41
1
10
0.444999999999936
20
49.8589803858836
30
0
0
SPLINE
5
16E
100
AcDbEntity
8
1
62
256
6
ByLayer
370
13
48
1
60
0
100
AcDbSpline
70
4
71
3
72
19
73
15
40
0
40
0
40
0
40
0
40
0.250000000000005
40
0.250000000000005
40
0.375000000000004
40
0.375000000000004
40
0.500000000000003
40
0.625000000000002
40
0.625000000000002
40
0.750000000000001
40
0.750000000000001
40
0.875000000000001
40
0.875000000000001
40
1
40
1
40
1
40
1
41
1
10
0.444999999999936
20
49.8593728527096
30
0
41
1
10
0.444999999999936
20
49.8606941202052
30
0
41
1
10
0.442711034791841
20
49.8619819040859
30
0
41
1
10
0.435961887336987
20
49.8638526064683
30
0
41
1
10
0.433124324901087
20
49.8644710736774
30
0
41
1
10
0.426432133702917
20
49.8656605415454
30
0
41
1
10
0.418737301856026
20
49.8668045669339
30
0
41
1
10
0.409079716986184
20
49.8678610235264
30
0
41
1
10
0.398410921217248
20
49.8688732032225
30
0
41
1
10
0.392592882692782
20
49.8693539732312
30
0
41
1
10
0.380278830604311
20
49.8702445599902
30
0
41
1
10
0.373747395004102
20
49.8706578716778
30
0
41
1
10
0.35993569746887
20
49.8714214136332
30
0
41
1
10
0.352608115997782
20
49.871773540704
30
0
41
1
10
0.345000000000027
20
49.8720883416829
30
0
0
SPLINE
5
16F
100
AcDbEntity
8
1
62
256
6
ByLayer
370
13
48
1
60
0
100
AcDbSpline
70
4
71
3
72
14
73
10
40
0
40
0
40
0
40
0
40
0.25
40
0.25
40
0.5
40
0.5
40
0.75
40
0.75
40
1
40
1
40
1
40
1
41
1
10
0.345000000000027
20
49.9411195877212
30
0
41
1
10
0.360061401491862
20
49.9415419683675
30
0
41
1
10
0.374194878764342
20
49.9420666920092
30
0
41
1
10
0.39877696913959
20
49.9432460937839
30
0
41
1
10
0.40953235046004
20
49.9439130746954
30
0
41
1
10
0.427001056727249
20
49.9453402629145
30
0
41
1
10
0.433651160196234
20
49.9460893120467
30
0
41
1
10
0.442733869087192
20
49.9476540766195
30
0
41
1
10
0.444999999999993
20
49.948446542783
30
0
41
1
10
0.444999999999936
20
49.9492317493377
30
0
0
SPLINE
5
170
100
AcDbEntity
8
1
62
256
6
ByLayer
370
13
48
1
60
0
100
AcDbSpline
70
4
71
3
72
18
73
14
40
0
40
0
40
0
40
0
40
0.124999999999963
40
0.124999999999963
40
0.249999999999927
40
0.249999999999927
40
0.499999999999857
40
0.499999999999857
40
0.749999999999788
40
0.749999999999788
40
0.874999999999894
40
0.874999999999894
40
1
40
1
40
1
40
1
41
1
10
0.444999999999936
20
49.9494668043253
30
0
41
1
10
0.44500000000005
20
49.9498575722429
30
0
41
1
10
0.444436710370042
20
49.9502456342246
30
0
41
1
10
0.442162115402311
20
49.9510163605536
30
0
41
1
10
0.440434476074131
20
49.9514002570032
30
0
41
1
10
0.433657213130004
20
49.9525111557652
30
0
41
1
10
0.427026119378922
20
49.9532088649637
30
0
41
1
10
0.409408250381262
20
49.9545210095197
30
0
41
1
10
0.398807517098362
20
49.9551066857764
30
0
41
1
10
0.380304532561809
20
49.9558872924215
30
0
41
1
10
0.373644939267024
20
49.9561324346309
30
0
41
1
10
0.359763937931575
20
49.9565774879248
30
0
41
1
10
0.352527287924545
20
49.9567785669689
30
0
41
1
10
0.345000000000027
20
49.9569590056204
30
0
0
SPLINE
5
171
100
AcDbEntity
8
1
62
256
6
ByLayer
370
13
48
1
60
0
100
AcDbSpline
70
4
71
3
72
17
73
13
40
0
40
0
40
0
40
0
40
0.12500000000005
40
0.12500000000005
40
0.250000000000099
40
0.375000000000149
40
0.375000000000149
40
0.500000000000199
40
0.500000000000199
40
0.750000000000099
40
0.750000000000099
40
1
40
1
40
1
40
1
41
1
10
0.345000000000027
20
49.9914279466636
30
0
41
1
10
0.352586002927751
20
49.9915090578314
30
0
41
1
10
0.359919519810319
20
49.9915992856097
30
0
41
1
10
0.373831027641643
20
49.991794162604
30
0
41
1
10
0.386910737083042
20
49.9920020963169
30
0
41
1
10
0.398376918770054
20
49.9922336239242
30
0
41
1
10
0.409019449591938
20
49.9924763057529
30
0
41
1
10
0.413930533124528
20
49.9926035719991
30
0
41
1
10
0.426987287842337
20
49.9929898949809
30
0
41
1
10
0.433659841092322
20
49.9932572439716
30
0
41
1
10
0.442755654291204
20
49.9938043181279
30
0
41
1
10
0.444999999999936
20
49.9940728096924
30
0
41
1
10
0.444999999999936
20
49.9943354749132
30
0
0
SPLINE
5
172
100
AcDbEntity
8
1
62
256
6
ByLayer
370
13
48
1
60
0
100
AcDbSpline
70
4
71
3
72
18
73
14
40
0
40
0
40
0
40
0
40
0.2500000000001
40
0.2500000000001
40
0.37500000000015
40
0.37500000000015
40
0.500000000000199
40
0.500000000000199
40
0.7500000000001
40
0.7500000000001
40
0.87500000000005
40
0.87500000000005
40
1
40
1
40
1
40
1
41
1
10
0.444999999999936
20
49.9944137560116
30
0
41
1
10
0.444999999999936
20
49.9946736399172
30
0
41
1
10
0.442671976958593
20
49.9949281637213
30
0
41
1
10
0.435913954521936
20
49.9952785533615
30
0
41
1
10
0.433121783036825
20
49.9953909186735
30
0
41
1
10
0.426446551248034
20
49.9956072327678
30
0
41
1
10
0.422528843236023
20
49.9957118282079
30
0
41
1
10
0.409404592465762
20
49.9960057947622
30
0
41
1
10
0.398831643961785
20
49.9961774866778
30
0
41
1
10
0.380197988931514
20
49.9964032884965
30
0
41
1
10
0.373577846748731
20
49.9964723637028
30
0
41
1
10
0.35976665685439
20
49.9965970106982
30
0
41
1
10
0.352542895743227
20
49.9966529838214
30
0
41
1
10
0.345000000000027
20
49.9967029974762
30
0
0
SPLINE
5
173
100
AcDbEntity
8
1
62
256
6
ByLayer
370
13
48
1
60
0
100
AcDbSpline
70
4
71
3
72
62
73
58
40
0
40
0
40
0
40
0
40
0.014851886250876
40
0.0296614439801807
40
0.0444291014648154
40
0.0591552906373956
40
0.0738404470896428
40
0.0884850100747439
40
0.103089422508643
40
0.117654130970254
40
0.132179585700516
40
0.146666240600368
40
0.161114553227504
40
0.175524984791905
40
0.189898000150235
40
0.204234067798873
40
0.218533659865743
40
0.23279725210084
40
0.247025323865355
40
0.261218358119553
40
0.275376841409178
40
0.289501263850524
40
0.303592119114055
40
0.317649904406599
40
0.331675120452063
40
0.345668271470683
40
0.359629865156759
40
0.373560412654884
40
0.38746042853463
40
0.401330430763693
40
0.415170940679452
40
0.428982482958996
40
0.442765585587519
40
0.45652077982512
40
0.470248600172042
40
0.483949584332225
40
0.497624273175314
40
0.523272144018001
40
0.548841531977189
40
0.574336116437747
40
0.599759609262092
40
0.625115753533788
40
0.650408322237435
40
0.675641116876452
40
0.700817966030492
40
0.7259427238546
40
0.751019268522458
40
0.77605150061635
40
0.801043341466719
40
0.825998731444481
40
0.850921628209475
40
0.875816004918669
40
0.900685848397955
40
0.925535157281574
40
0.950367940123358
40
0.975188213484164
40
1
40
1
40
1
40
1
41
1
10
38.737000714909
20
49.9031758951793
30
0
41
1
10
38.743986096856
20
49.9040678786396
30
0
41
1
10
38.7579369521076
20
49.9058493033684
30
0
41
1
10
38.7785408006737
20
49.9084791789396
30
0
41
1
10
38.7988701035897
20
49.9110732353855
30
0
41
1
10
38.818904062686
20
49.9136287664392
30
0
41
1
10
38.8386482270179
20
49.9161465310273
30
0
41
1
10
38.8581011157457
20
49.9186263635311
30
0
41
1
10
38.877263123784
20
49.9210683450522
30
0
41
1
10
38.8961341455263
20
49.9234724908863
30
0
41
1
10
38.9147142089241
20
49.9258388339166
30
0
41
1
10
38.9330033062846
20
49.9281674023603
30
0
41
1
10
38.9510014394244
20
49.9304582257074
30
0
41
1
10
38.968708607618
20
49.9327113331353
30
0
41
1
10
38.9861248108161
20
49.934926753932
30
0
41
1
10
39.0032500487848
20
49.9371045173833
30
0
41
1
10
39.020084321337
20
49.9392446528025
30
0
41
1
10
39.0366276282701
20
49.9413471895225
30
0
41
1
10
39.0528799693831
20
49.9434121568979
30
0
41
1
10
39.0688413444711
20
49.9454395843041
30
0
41
1
10
39.084511753329
20
49.947429501138
30
0
41
1
10
39.0998911957483
20
49.9493819368171
30
0
41
1
10
39.1149796715196
20
49.95129692078
30
0
41
1
10
39.1297771804318
20
49.9531744824863
30
0
41
1
10
39.1442837222723
20
49.9550146514163
30
0
41
1
10
39.1584992968271
20
49.9568174570712
30
0
41
1
10
39.1724239038814
20
49.9585829289726
30
0
41
1
10
39.186057543219
20
49.9603110966631
30
0
41
1
10
39.1994002146231
20
49.9620019897058
30
0
41
1
10
39.2124519178765
20
49.9636556376844
30
0
41
1
10
39.2252126527595
20
49.9652720702022
30
0
41
1
10
39.237682419059
20
49.9668513168871
30
0
41
1
10
39.2498612165388
20
49.9683934073717
30
0
41
1
10
39.2617490450449
20
49.9698983713664
30
0
41
1
10
39.2733459041187
20
49.9713662383894
30
0
41
1
10
39.2846517944381
20
49.9727970387691
30
0
41
1
10
39.2988883705034
20
49.9745984490501
30
0
41
1
10
39.3156952701913
20
49.9767246716896
30
0
41
1
10
39.3346024284898
20
49.9791159940149
30
0
41
1
10
39.3524876332287
20
49.9813774881942
30
0
41
1
10
39.3693508541293
20
49.9835092150606
30
0
41
1
10
39.3851920936726
20
49.9855112387221
30
0
41
1
10
39.4000113457687
20
49.9873836228509
30
0
41
1
10
39.413808606827
20
49.9891264316776
30
0
41
1
10
39.4265838727489
20
49.9907397297188
30
0
41
1
10
39.438337140023
20
49.9922235818858
30
0
41
1
10
39.4490684044462
20
49.9935780533304
30
0
41
1
10
39.458777665232
20
49.9948032099597
30
0
41
1
10
39.4674649099837
20
49.9958991165446
30
0
41
1
10
39.4751301706583
20
49.9968658437624
30
0
41
1
10
39.481773315233
20
49.997703441975
30
0
41
1
10
39.487394823798
20
49.998412038912
30
0
41
1
10
39.4919928969905
20
49.9989914757167
30
0
41
1
10
39.4955742322225
20
49.9994426633212
30
0
41
1
10
39.4981138536494
20
49.9997625263471
30
0
41
1
10
39.4997048884103
20
49.9999628550571
30
0
41
1
10
39.4999016406847
20
49.9999876197639
30
0
41
1
10
39.5
20
50
30
0
0
SPLINE
5
174
100
AcDbEntity
8
1
62
256
6
ByLayer
370
13
48
1
60
0
100
AcDbSpline
70
4
71
3
72
55
73
51
40
0
40
0
40
0
40
0
40
0.124999999999991
40
0.124999999999991
40
0.249999999999982
40
0.249999999999982
40
0.312499999999978
40
0.312499999999978
40
0.343749999999974
40
0.343749999999974
40
0.374999999999971
40
0.374999999999971
40
0.437499999999961
40
0.437499999999961
40
0.499999999999951
40
0.499999999999951
40
0.562499999999942
40
0.562499999999942
40
0.593749999999937
40
0.593749999999937
40
0.609374999999937
40
0.609374999999937
40
0.624999999999937
40
0.624999999999937
40
0.687499999999947
40
0.687499999999947
40
0.749999999999957
40
0.749999999999957
40
0.781249999999965
40
0.781249999999965
40
0.812499999999972
40
0.812499999999972
40
0.84374999999998
40
0.84374999999998
40
0.874999999999987
40
0.874999999999987
40
0.882812499999988
40
0.882812499999988
40
0.890624999999989
40
0.90624999999999
40
0.90624999999999
40
0.937499999999994
40
0.937499999999994
40
0.968749999999997
40
0.968749999999997
40
0.984374999999998
40
0.984374999999998
40
0.992187499999999
40
0.992187499999999
40
1
40
1
40
1
40
1
41
1
10
15.982368604915
20
46.4506138894835
30
0
41
1
10
17.0403622118948
20
46.6365617750895
30
0
41
1
10
18.0944614438688
20
46.8182776247876
30
0
41
1
10
20.1929948963847
20
47.1730965277258
30
0
41
1
10
21.2374422002282
20
47.3462009281232
30
0
41
1
10
22.7948592967164
20
47.5992278292549
30
0
41
1
10
23.3124485391963
20
47.6824644421531
30
0
41
1
10
24.086166258144
20
47.8056304577156
30
0
41
1
10
24.3436572598961
20
47.8464089829562
30
0
41
1
10
24.85752094686
20
47.9273714812384
30
0
41
1
10
25.1138796413991
20
47.9675533055134
30
0
41
1
10
25.8811080694821
20
48.0871890969075
30
0
41
1
10
26.3901364165387
20
48.1657340312114
30
0
41
1
10
27.4024630525
20
48.3203250039481
30
0
41
1
10
27.9057639694661
20
48.3963713306422
30
0
41
1
10
28.90559270687
20
48.5458670037249
30
0
41
1
10
29.4021246719758
20
48.6193168116782
30
0
41
1
10
30.1408132277965
20
48.7274439772024
30
0
41
1
10
30.3860215641302
20
48.7631447929873
30
0
41
1
10
30.7521403342792
20
48.8161675906044
30
0
41
1
10
30.873923872894
20
48.8337575647682
30
0
41
1
10
31.1167154908522
20
48.8687323803885
30
0
41
1
10
31.2377314982016
20
48.8861183929299
30
0
41
1
10
31.8408163433685
20
48.97253213859
30
0
41
1
10
32.316937642023
20
49.040015073817
30
0
41
1
10
33.2534678590075
20
49.1713851375525
30
0
41
1
10
33.7138976379408
20
49.2352746774247
30
0
41
1
10
34.3895575900569
20
49.328083932629
30
0
41
1
10
34.6122683882556
20
49.3585148699632
30
0
41
1
10
35.0519468423283
20
49.4182895007291
30
0
41
1
10
35.2689163137416
20
49.4476334092962
30
0
41
1
10
35.6962117265925
20
49.5051376446721
30
0
41
1
10
35.9065403981309
20
49.5332982977544
30
0
41
1
10
36.3194090950163
20
49.5883114068313
30
0
41
1
10
36.5219533955113
20
49.6151643781114
30
0
41
1
10
36.7693333433051
20
49.647809744432
30
0
41
1
10
36.8185233251145
20
49.6542933081246
30
0
41
1
10
36.9160730435466
20
49.6671360343025
30
0
41
1
10
37.0612337244396
20
49.686224290192
30
0
41
1
10
37.2027726916723
20
49.7047711720481
30
0
41
1
10
37.4806328592115
20
49.7411011499789
30
0
41
1
10
37.6589366781885
20
49.7643052321377
30
0
41
1
10
37.9991656287101
20
49.8084064672994
30
0
41
1
10
38.1611004874938
20
49.8293048414714
30
0
41
1
10
38.3892669738676
20
49.8586470157909
30
0
41
1
10
38.4628595670258
20
49.8680926702465
30
0
41
1
10
38.5691694548083
20
49.8817145999828
30
0
41
1
10
38.6039292282422
20
49.8861645251619
30
0
41
1
10
38.6717175941111
20
49.8948356312613
30
0
41
1
10
38.7047856279868
20
49.8990618694341
30
0
41
1
10
38.737000714909
20
49.9031758951793
30
0
0
SPLINE
5
175
100
AcDbEntity
8
1
62
256
6
ByLayer
370
13
48
1
60
0
100
AcDbSpline
70
4
71
3
72
30
73
26
40
0
40
0
40
0
40
0
40
0.0178320405970062
40
0.0356619873805747
40
0.053492521126596
40
0.0713263223462681
40
0.0891660700779277
40
0.107014440682196
40
0.124874106643154
40
0.187022086327413
40
0.248823847231778
40
0.311211264612544
40
0.372804175560085
40
0.497875686943867
40
0.623088013944926
40
0.687224324127256
40
0.748622183748213
40
0.812990711264044
40
0.87387104740906
40
0.90589543605676
40
0.936952982878556
40
0.953072989589034
40
0.968937917320316
40
0.984571861541072
40
1
40
1
40
1
40
1
41
1
10
14.5
20
45.1285861235075
30
0
41
1
10
14.5000796037943
20
45.1382655619808
30
0
41
1
10
14.5002388020359
20
45.157623302381
30
0
41
1
10
14.5015268340878
20
45.1865509855564
30
0
41
1
10
14.5035830143156
20
45.2153945355018
30
0
41
1
10
14.506482648291
20
45.2441464872804
30
0
41
1
10
14.510205541393
20
45.2728088201763
30
0
41
1
10
14.5147571562864
20
45.3013811544015
30
0
41
1
10
14.5245802260583
20
45.3533976398512
30
0
41
1
10
14.5436945723003
20
45.4281229314354
30
0
41
1
10
14.5788884328493
20
45.5247753768256
30
0
41
1
10
14.6241200345793
20
45.6194421000782
30
0
41
1
10
14.6987609239628
20
45.7437905530444
30
0
41
1
10
14.8193694382461
20
45.8942622624651
30
0
41
1
10
14.9813584930596
20
46.0369423863537
30
0
41
1
10
15.1382348929121
20
46.1433744910727
30
0
41
1
10
15.2723753667633
20
46.2195781673335
30
0
41
1
10
15.4204298489449
20
46.2892811047205
30
0
41
1
10
15.5602543378245
20
46.3425019730418
30
0
41
1
10
15.6796466043552
20
46.3803723995553
30
0
41
1
10
15.7600596857777
20
46.4025506435689
30
0
41
1
10
15.8264715584377
20
46.4188480601879
30
0
41
1
10
15.8778916897745
20
46.4303989726485
30
0
41
1
10
15.9296626048867
20
46.4410737146564
30
0
41
1
10
15.9648645009136
20
46.4474578262394
30
0
41
1
10
15.9823488316174
20
46.4506287326612
30
0
0
SPLINE
5
176
100
AcDbEntity
8
1
62
256
6
ByLayer
370
13
48
1
60
0
100
AcDbSpline
70
4
71
3
72
52
73
48
40
0
40
0
40
0
40
0
40
0.0624999999999976
40
0.0624999999999976
40
0.0937499999999964
40
0.0937499999999964
40
0.124999999999995
40
0.124999999999995
40
0.187499999999994
40
0.187499999999994
40
0.218749999999981
40
0.218749999999981
40
0.249999999999969
40
0.249999999999969
40
0.281249999999956
40
0.281249999999956
40
0.312499999999944
40
0.343749999999932
40
0.343749999999932
40
0.374999999999919
40
0.374999999999919
40
0.437499999999917
40
0.437499999999917
40
0.468749999999915
40
0.468749999999915
40
0.499999999999913
40
0.531249999999911
40
0.531249999999911
40
0.562499999999908
40
0.562499999999908
40
0.62499999999992
40
0.62499999999992
40
0.687499999999931
40
0.687499999999931
40
0.718749999999937
40
0.718749999999937
40
0.749999999999943
40
0.749999999999943
40
0.812499999999956
40
0.812499999999956
40
0.874999999999969
40
0.874999999999969
40
0.906249999999977
40
0.906249999999977
40
0.937499999999985
40
0.937499999999985
40
1
40
1
40
1
40
1
41
1
10
11.4141428428544
20
43.301270189222
30
0
41
1
10
11.3682542259031
20
43.3282992770369
30
0
41
1
10
11.317505035
20
43.3528328822302
30
0
41
1
10
11.2333374023548
20
43.3855745667298
30
0
41
1
10
11.2037081770333
20
43.3958721107635
30
0
41
1
10
11.1426419679543
20
43.414626591972
30
0
41
1
10
11.1113337489814
20
43.4230633134241
30
0
41
1
10
11.015084058756
20
43.445567265632
30
0
41
1
10
10.947848230532
20
43.4568659419505
30
0
41
1
10
10.8419019961094
20
43.4677143375864
30
0
41
1
10
10.8062856766847
20
43.4702388332112
30
0
41
1
10
10.7352317792843
20
43.473102962078
30
0
41
1
10
10.6996705978391
20
43.4734554105103
30
0
41
1
10
10.6284797618391
20
43.4720013230452
30
0
41
1
10
10.5928276928462
20
43.4701931676563
30
0
41
1
10
10.5215433632972
20
43.4643458620125
30
0
41
1
10
10.451706915733
20
43.456388462117
30
0
41
1
10
10.3846095452324
20
43.4444287521195
30
0
41
1
10
10.3188533777195
20
43.430501672692
30
0
41
1
10
10.2864631919533
20
43.4224992177276
30
0
41
1
10
10.1928229151121
20
43.3959323821506
30
0
41
1
10
10.1352693897602
20
43.3749655745129
30
0
41
1
10
10.0556102971613
20
43.3389942569194
30
0
41
1
10
10.030078304835
20
43.3261788114006
30
0
41
1
10
9.98211295538277
20
43.2995207395891
30
0
41
1
10
9.93705888719416
20
43.2717741666102
30
0
41
1
10
9.89749604182458
20
43.2419528526107
30
0
41
1
10
9.86059921628208
20
43.2111139980292
30
0
41
1
10
9.84341813551669
20
43.1951114794533
30
0
41
1
10
9.79647505679134
20
43.1462321461725
30
0
41
1
10
9.7711946658012
20
43.1125027622266
30
0
41
1
10
9.73174369238353
20
43.0428757349834
30
0
41
1
10
9.7175621341396
20
43.0067437972012
30
0
41
1
10
9.70501317589913
20
42.9520736738505
30
0
41
1
10
9.70226141960563
20
42.9337511070747
30
0
41
1
10
9.69960039976331
20
42.8969070846831
30
0
41
1
10
9.69970606165941
20
42.8783848944443
30
0
41
1
10
9.70420505493479
20
42.8233938198375
30
0
41
1
10
9.7127148284444
20
42.7871481949896
30
0
41
1
10
9.74053896436902
20
42.7154882942465
30
0
41
1
10
9.75984694920913
20
42.6800732542255
30
0
41
1
10
9.79760774720364
20
42.6276604952889
30
0
41
1
10
9.81166869413096
20
42.6103419317318
30
0
41
1
10
9.84223251869366
20
42.5766979644331
30
0
41
1
10
9.85879803598675
20
42.5602799252646
30
0
41
1
10
9.91240222669722
20
42.5122686129518
30
0
41
1
10
9.95330150884672
20
42.4819021922364
30
0
41
1
10
9.99999999999955
20
42.4534222163218
30
0
0
SPLINE
5
177
100
AcDbEntity
8
1
62
256
6
ByLayer
370
13
48
1
60
0
100
AcDbSpline
70
4
71
3
72
104
73
100
40
0
40
0
40
0
40
0
40
0.0312500000000092
40
0.0312500000000092
40
0.046875000000014
40
0.046875000000014
40
0.0625000000000189
40
0.0625000000000189
40
0.0937500000000286
40
0.0937500000000286
40
0.109375000000033
40
0.109375000000033
40
0.125000000000038
40
0.125000000000038
40
0.156250000000046
40
0.156250000000046
40
0.171875000000051
40
0.171875000000051
40
0.187500000000057
40
0.187500000000057
40
0.218750000000067
40
0.218750000000067
40
0.250000000000077
40
0.250000000000077
40
0.265625000000081
40
0.265625000000081
40
0.281250000000085
40
0.281250000000085
40
0.312500000000093
40
0.312500000000093
40
0.328125000000096
40
0.328125000000096
40
0.343750000000098
40
0.343750000000098
40
0.375000000000103
40
0.375000000000103
40
0.390625000000107
40
0.390625000000107
40
0.398437500000107
40
0.398437500000107
40
0.406250000000107
40
0.406250000000107
40
0.437500000000102
40
0.437500000000102
40
0.453125000000099
40
0.453125000000099
40
0.468750000000097
40
0.468750000000097
40
0.500000000000086
40
0.500000000000086
40
0.507812500000084
40
0.507812500000084
40
0.515625000000081
40
0.515625000000081
40
0.531250000000076
40
0.54687500000007
40
0.54687500000007
40
0.562500000000065
40
0.562500000000065
40
0.59375000000006
40
0.59375000000006
40
0.609375000000059
40
0.609375000000059
40
0.625000000000059
40
0.625000000000059
40
0.640625000000058
40
0.640625000000058
40
0.656250000000058
40
0.656250000000058
40
0.687500000000054
40
0.687500000000054
40
0.703125000000052
40
0.703125000000052
40
0.718750000000049
40
0.718750000000049
40
0.750000000000044
40
0.750000000000044
40
0.781250000000039
40
0.781250000000039
40
0.812500000000034
40
0.843750000000029
40
0.843750000000029
40
0.859375000000026
40
0.859375000000026
40
0.875000000000023
40
0.875000000000023
40
0.906250000000019
40
0.906250000000019
40
0.921875000000016
40
0.921875000000016
40
0.929687500000015
40
0.929687500000015
40
0.937500000000013
40
0.937500000000013
40
0.968750000000004
40
0.968750000000004
40
0.984375000000002
40
0.984375000000002
40
1
40
1
40
1
40
1
41
1
10
7.4277210953411
20
40.5
30
0
41
1
10
7.57219366876734
20
40.5417990467404
30
0
41
1
10
7.7063188317772
20
40.5916108656845
30
0
41
1
10
7.89425438948138
20
40.6763317298488
30
0
41
1
10
7.95466921222248
20
40.7062559806414
30
0
41
1
10
8.07120507840705
20
40.7692981669906
30
0
41
1
10
8.12756771274672
20
40.8025797766598
30
0
41
1
10
8.28818081926386
20
40.9056693156602
30
0
41
1
10
8.3840631175874
20
40.9785642223289
30
0
41
1
10
8.51293064207118
20
41.0932156387119
30
0
41
1
10
8.55337455274343
20
41.1323254687487
30
0
41
1
10
8.62934656499351
20
41.2122522231242
30
0
41
1
10
8.6648524343654
20
41.2530781112139
30
0
41
1
10
8.76273046821041
20
41.3762575537427
30
0
41
1
10
8.81710171729071
20
41.459881333981
30
0
41
1
10
8.88327895206231
20
41.5872816141521
30
0
41
1
10
8.9027598635098
20
41.6300786265561
30
0
41
1
10
8.93655637243216
20
41.7163150836642
30
0
41
1
10
8.95089932999161
20
41.7598959417822
30
0
41
1
10
8.98563938624091
20
41.8899901705253
30
0
41
1
10
8.99799263476854
20
41.9761573187715
30
0
41
1
10
9.00155923263878
20
42.1473582318281
30
0
41
1
10
8.99277554016999
20
42.2323920041629
30
0
41
1
10
8.96284614171736
20
42.3590935861851
30
0
41
1
10
8.95001372570539
20
42.4012505859567
30
0
41
1
10
8.91901683587969
20
42.483922725858
30
0
41
1
10
8.90082415849236
20
42.5246061171475
30
0
41
1
10
8.83814014968044
20
42.6447274799089
30
0
41
1
10
8.78560137630245
20
42.722247015154
30
0
41
1
10
8.68959905279087
20
42.8346227016482
30
0
41
1
10
8.65471896779553
20
42.8714282123849
30
0
41
1
10
8.57882087980579
20
42.9436877543311
30
0
41
1
10
8.53770075465741
20
42.979187440516
30
0
41
1
10
8.40709346139477
20
43.0815650212979
30
0
41
1
10
8.3097549187097
20
43.1450477428665
30
0
41
1
10
8.1473230814812
20
43.2329463116686
30
0
41
1
10
8.09042739971773
20
43.2610187372019
30
0
41
1
10
8.00066519603462
20
43.3011970463074
30
0
41
1
10
7.96998242641621
20
43.3142730161529
30
0
41
1
10
7.90781270617737
20
43.3394760856089
30
0
41
1
10
7.87624250767919
20
43.351641999802
30
0
41
1
10
7.71596794526272
20
43.4103121653453
30
0
41
1
10
7.58005728578325
20
43.4503970631418
30
0
41
1
10
7.36397121262024
20
43.4999205696581
30
0
41
1
10
7.2898936942297
20
43.5146499667979
30
0
41
1
10
7.13734348016595
20
43.5403324518624
30
0
41
1
10
7.06036156848643
20
43.5510316917916
30
0
41
1
10
6.82763726451356
20
43.5768439117572
30
0
41
1
10
6.67000250747105
20
43.5857583023915
30
0
41
1
10
6.46973352036434
20
43.586199018592
30
0
41
1
10
6.42939475115486
20
43.5857431767253
30
0
41
1
10
6.34900840448665
20
43.5837383448468
30
0
41
1
10
6.30904626893852
20
43.5821954189329
30
0
41
1
10
6.18983648482271
20
43.5759820830809
30
0
41
1
10
6.03269115738715
20
43.5634804566766
30
0
41
1
10
5.879055030774
20
43.5427282799113
30
0
41
1
10
5.72717642913017
20
43.5178162158429
30
0
41
1
10
5.651838594644
20
43.5031963855226
30
0
41
1
10
5.43330100929506
20
43.4540562481253
30
0
41
1
10
5.29602413121774
20
43.4141284264148
30
0
41
1
10
5.10192573450786
20
43.3439024775972
30
0
41
1
10
5.0389414959435
20
43.318627136494
30
0
41
1
10
4.91893361357018
20
43.265463071035
30
0
41
1
10
4.86174770982251
20
43.2375402333732
30
0
41
1
10
4.75269831360669
20
43.1791118742186
30
0
41
1
10
4.70083585225478
20
43.1486059315073
30
0
41
1
10
4.60226203107663
20
43.0850449744776
30
0
41
1
10
4.55548265856265
20
43.0519361640196
30
0
41
1
10
4.4232246741642
20
42.9490937877747
30
0
41
1
10
4.34734605596168
20
42.8771488243572
30
0
41
1
10
4.25014468204859
20
42.7644160586755
30
0
41
1
10
4.22053228041455
20
42.7260315965317
30
0
41
1
10
4.16677219999679
20
42.6476465087644
30
0
41
1
10
4.14255260476125
20
42.6074952205858
30
0
41
1
10
4.07873389655083
20
42.4858813619
30
0
41
1
10
4.04783221012372
20
42.4033403450819
30
0
41
1
10
4.00770873949364
20
42.2353724886414
30
0
41
1
10
3.99849593214174
20
42.1498929811038
30
0
41
1
10
4.00190060804357
20
41.9761746461382
30
0
41
1
10
4.02703457067844
20
41.8031878822162
30
0
41
1
10
4.09380033928721
20
41.6316663843383
30
0
41
1
10
4.16007434673225
20
41.5036943956093
30
0
41
1
10
4.18498427210119
20
41.4609935626185
30
0
41
1
10
4.23998224124182
20
41.3766431777064
30
0
41
1
10
4.2699646338574
20
41.3351182046945
30
0
41
1
10
4.36735009143445
20
41.2125364541029
30
0
41
1
10
4.44213172875419
20
41.1334535040779
30
0
41
1
10
4.57004336018485
20
41.0192720261202
30
0
41
1
10
4.61531764828362
20
40.9819564657671
30
0
41
1
10
4.68745790817047
20
40.927211764648
30
0
41
1
10
4.71221069649334
20
40.909168712691
30
0
41
1
10
4.76319104286972
20
40.8735172494714
30
0
41
1
10
4.78947783046476
20
40.8558731097908
30
0
41
1
10
4.92351001585951
20
40.7696108750876
30
0
41
1
10
5.03960406582951
20
40.70632645687
30
0
41
1
10
5.2282002716787
20
40.6210435497331
30
0
41
1
10
5.29348920820291
20
40.5942327927084
30
0
41
1
10
5.42932793443481
20
40.5441718941855
30
0
41
1
10
5.49989830245534
20
40.5209412769694
30
0
41
1
10
5.5722789046589
20
40.5
30
0
0
SPLINE
5
178
100
AcDbEntity
8
1
62
256
6
ByLayer
370
13
48
1
60
0
100
AcDbSpline
70
4
71
3
72
17
73
13
40
0
40
0
40
0
40
0
40
0.249999999999993
40
0.249999999999993
40
0.375000000000042
40
0.375000000000042
40
0.50000000000009
40
0.625000000000138
40
0.625000000000138
40
0.750000000000186
40
0.750000000000186
40
1
40
1
40
1
40
1
41
1
10
0.444999999999936
20
-29.9968966509806
30
0
41
1
10
0.44500000000005
20
-29.9970430921981
30
0
41
1
10
0.442707878140141
20
-29.9971811138718
30
0
41
1
10
0.435932712725276
20
-29.9973766502383
30
0
41
1
10
0.433083155098871
20
-29.9974403051445
30
0
41
1
10
0.426378728220243
20
-29.9975607377588
30
0
41
1
10
0.418668272919604
20
-29.9976748438612
30
0
41
1
10
0.408983199078421
20
-29.9977773049426
30
0
41
1
10
0.398277870143602
20
-29.9978742171457
30
0
41
1
10
0.392468487332565
20
-29.9979193311496
30
0
41
1
10
0.374023261235266
20
-29.9980433271793
30
0
41
1
10
0.360271678635286
20
-29.9981121207778
30
0
41
1
10
0.345000000000027
20
-29.9981683736833
30
0
0
SPLINE
5
179
100
AcDbEntity
8
1
62
256
6
ByLayer
370
13
48
1
60
0
100
AcDbSpline
70
4
71
3
72
17
73
13
40
0
40
0
40
0
40
0
40
0.25000000000021
40
0.25000000000021
40
0.375000000000175
40
0.375000000000175
40
0.50000000000014
40
0.625000000000105
40
0.625000000000105
40
0.75000000000007
40
0.75000000000007
40
1
40
1
40
1
40
1
41
1
10
0.345000000000027
20
-29.9952380303894
30
0
41
1
10
0.360271716284899
20
-29.9953287354479
30
0
41
1
10
0.374059120217225
20
-29.9954366042559
30
0
41
1
10
0.392579423525433
20
-29.9956205511265
30
0
41
1
10
0.398422052746014
20
-29.9956861032366
30
0
41
1
10
0.409063953702685
20
-29.9958209980852
30
0
41
1
10
0.418719987240252
20
-29.9959600419689
30
0
41
1
10
0.426441010492454
20
-29.9961063291094
30
0
41
1
10
0.433162259845176
20
-29.996255957217
30
0
41
1
10
0.435979641344602
20
-29.9963316263275
30
0
41
1
10
0.442707974761504
20
-29.9965566693761
30
0
41
1
10
0.444999999999993
20
-29.9967056996491
30
0
41
1
10
0.444999999999936
20
-29.9968531648644
30
0
0
SPLINE
5
17A
100
AcDbEntity
8
1
62
256
6
ByLayer
370
13
48
1
60
0
100
AcDbSpline
70
4
71
3
72
17
73
13
40
0
40
0
40
0
40
0
40
0.249999999999993
40
0.249999999999993
40
0.37500000000004
40
0.37500000000004
40
0.500000000000088
40
0.625000000000136
40
0.625000000000136
40
0.750000000000183
40
0.750000000000183
40
1
40
1
40
1
40
1
41
1
10
0.444999999999936
20
-29.9719358135435
30
0
41
1
10
0.44500000000005
20
-29.9723762389404
30
0
41
1
10
0.442708315359482
20
-29.9728017410324
30
0
41
1
10
0.435934221782077
20
-29.9734190282815
30
0
41
1
10
0.433085087739073
20
-29.9736225919235
30
0
41
1
10
0.426381357274806
20
-29.9740124458688
30
0
41
1
10
0.418671598071512
20
-29.9743866805459
30
0
41
1
10
0.408987145414415
20
-29.9747310295182
30
0
41
1
10
0.398282364960437
20
-29.9750604045275
30
0
41
1
10
0.392472592849003
20
-29.9752157059992
30
0
41
1
10
0.374026363476332
20
-29.9756468450355
30
0
41
1
10
0.360273593498618
20
-29.9758921706482
30
0
41
1
10
0.345000000000027
20
-29.9760954536772
30
0
0
SPLINE
5
17B
100
AcDbEntity
8
1
62
256
6
ByLayer
370
13
48
1
60
0
100
AcDbSpline
70
4
71
3
72
17
73
13
40
0
40
0
40
0
40
0
40
0.250000000000209
40
0.250000000000209
40
0.375000000000175
40
0.375000000000175
40
0.500000000000141
40
0.625000000000108
40
0.625000000000108
40
0.750000000000074
40
0.750000000000074
40
1
40
1
40
1
40
1
41
1
10
0.344999999999629
20
-29.9673019806366
30
0
41
1
10
0.360273710069123
20
-29.9675397504652
30
0
41
1
10
0.374062108390319
20
-29.9678245336099
30
0
41
1
10
0.392582969767545
20
-29.9683172879741
30
0
41
1
10
0.398425609197716
20
-29.9684939713191
30
0
41
1
10
0.409067287311814
20
-29.9688604317292
30
0
41
1
10
0.418722898383407
20
-29.9692409133796
30
0
41
1
10
0.426443273826862
20
-29.9696480123951
30
0
41
1
10
0.433163845191984
20
-29.9700684613037
30
0
41
1
10
0.435980844400206
20
-29.9702830954494
30
0
41
1
10
0.442708319044755
20
-29.970928021276
30
0
41
1
10
0.444999999999936
20
-29.971363856579
30
0
41
1
10
0.444999999999936
20
-29.9718053189389
30
0
0
SPLINE
5
17C
100
AcDbEntity
8
1
62
256
6
ByLayer
370
13
48
1
60
0
100
AcDbSpline
70
4
71
3
72
17
73
13
40
0
40
0
40
0
40
0
40
0.249999999999918
40
0.249999999999918
40
0.374999999999933
40
0.374999999999933
40
0.499999999999947
40
0.624999999999961
40
0.624999999999961
40
0.749999999999976
40
0.749999999999976
40
1
40
1
40
1
40
1
41
1
10
0.444999999999936
20
-29.9219498302028
30
0
41
1
10
0.444999999999993
20
-29.9226844860109
30
0
41
1
10
0.442709145519075
20
-29.923397721293
30
0
41
1
10
0.435937158708953
20
-29.9244371456526
30
0
41
1
10
0.43308886481941
20
-29.9247807539378
30
0
41
1
10
0.426386517625588
20
-29.9254403304773
30
0
41
1
10
0.41867815399155
20
-29.9260749944794
30
0
41
1
10
0.408994981121282
20
-29.9266615282142
30
0
41
1
10
0.398291354185574
20
-29.9272236595796
30
0
41
1
10
0.392480812882582
20
-29.9274893464217
30
0
41
1
10
0.374032603581668
20
-29.9282281339032
30
0
41
1
10
0.360277464933461
20
-29.9286502947713
30
0
41
1
10
0.345000000000027
20
-29.929000859348
30
0
0
SPLINE
5
17D
100
AcDbEntity
8
1
62
256
6
ByLayer
370
13
48
1
60
0
100
AcDbSpline
70
4
71
3
72
14
73
10
40
0
40
0
40
0
40
0
40
0.249999999999997
40
0.249999999999997
40
0.499999999999998
40
0.499999999999998
40
0.749999999999999
40
0.749999999999999
40
1
40
1
40
1
40
1
41
1
10
0.344999999996276
20
-29.9143369168881
30
0
41
1
10
0.36027766494027
20
-29.9147220378386
30
0
41
1
10
0.374068075907871
20
-29.9151840691878
30
0
41
1
10
0.398764125072319
20
-29.916253516784
30
0
41
1
10
0.409558022580882
20
-29.9168610276879
30
0
41
1
10
0.426931840217662
20
-29.9181515297632
30
0
41
1
10
0.433741451702588
20
-29.9188532701249
30
0
41
1
10
0.442709052128293
20
-29.9202735850106
30
0
41
1
10
0.444999999999993
20
-29.9209964988274
30
0
41
1
10
0.444999999999936
20
-29.9217322181903
30
0
0
SPLINE
5
17E
100
AcDbEntity
8
1
62
256
6
ByLayer
370
13
48
1
60
0
100
AcDbSpline
70
4
71
3
72
20
73
16
40
0
40
0
40
0
40
0
40
0.125000000000036
40
0.125000000000036
40
0.250000000000073
40
0.250000000000073
40
0.500000000000043
40
0.500000000000043
40
0.625000000000032
40
0.625000000000032
40
0.750000000000021
40
0.750000000000021
40
0.875000000000011
40
0.875000000000011
40
1
40
1
40
1
40
1
41
1
10
0.444999999999936
20
-29.8468969330306
30
0
41
1
10
0.444999999999993
20
-29.8474040756996
30
0
41
1
10
0.444436885653943
20
-29.8479083437606
30
0
41
1
10
0.442177294878832
20
-29.8489111583759
30
0
41
1
10
0.440461301001619
20
-29.8494133509778
30
0
41
1
10
0.433680694527936
20
-29.8508784829606
30
0
41
1
10
0.427055536727607
20
-29.8518010229549
30
0
41
1
10
0.413945570243527
20
-29.8531052234559
30
0
41
1
10
0.409048680999263
20
-29.8535245477116
30
0
41
1
10
0.398465217700789
20
-29.8543125101195
30
0
41
1
10
0.392748708124032
20
-29.854684293581
30
0
41
1
10
0.380467651746812
20
-29.8553840318859
30
0
41
1
10
0.373874981068866
20
-29.8557131909492
30
0
41
1
10
0.359929445192734
20
-29.8563203978443
30
0
41
1
10
0.352629231647427
20
-29.856596514479
30
0
41
1
10
0.345000000000027
20
-29.8568452486065
30
0
0
SPLINE
5
17F
100
AcDbEntity
8
1
62
256
6
ByLayer
370
13
48
1
60
0
100
AcDbSpline
70
4
71
3
72
14
73
10
40
0
40
0
40
0
40
0
40
0.25
40
0.25
40
0.5
40
0.5
40
0.75
40
0.75
40
1
40
1
40
1
40
1
41
1
10
0.345000000000027
20
-29.8362985698559
30
0
41
1
10
0.360283588816856
20
-29.836831509199
30
0
41
1
10
0.374077032459127
20
-29.8374713347618
30
0
41
1
10
0.398775471326132
20
-29.8389543699868
30
0
41
1
10
0.409568404120364
20
-29.839797738181
30
0
41
1
10
0.426939066938075
20
-29.8415922690381
30
0
41
1
10
0.433746160858504
20
-29.8425694997368
30
0
41
1
10
0.44271017403446
20
-29.8445511702027
30
0
41
1
10
0.444999999999993
20
-29.8455616150066
30
0
41
1
10
0.444999999999936
20
-29.846592021572
30
0
0
SPLINE
5
180
100
AcDbEntity
8
1
62
256
6
ByLayer
370
13
48
1
60
0
100
AcDbSpline
70
4
71
3
72
17
73
13
40
0
40
0
40
0
40
0
40
0.250000000000005
40
0.250000000000005
40
0.375000000000051
40
0.375000000000051
40
0.500000000000097
40
0.625000000000143
40
0.625000000000143
40
0.75000000000019
40
0.75000000000019
40
1
40
1
40
1
40
1
41
1
10
0.444999999999936
20
-29.7467142335793
30
0
41
1
10
0.444999999999936
20
-29.7480387692331
30
0
41
1
10
0.44271198502463
20
-29.7493289272412
30
0
41
1
10
0.435947319363663
20
-29.7512148530475
30
0
41
1
10
0.43310196276866
20
-29.7518393332049
30
0
41
1
10
0.426404445286153
20
-29.7530400954922
30
0
41
1
10
0.418700974357819
20
-29.7541973576768
30
0
41
1
10
0.409022341791228
20
-29.7552699825932
30
0
41
1
10
0.398322843144115
20
-29.7562993315543
30
0
41
1
10
0.392509667508307
20
-29.7567869361301
30
0
41
1
10
0.374054552325049
20
-29.7581439691292
30
0
41
1
10
0.360291113212725
20
-29.7589215776307
30
0
41
1
10
0.345000000000027
20
-29.7595681835836
30
0
0
SPLINE
5
181
100
AcDbEntity
8
1
62
256
6
ByLayer
370
13
48
1
60
0
100
AcDbSpline
70
4
71
3
72
14
73
10
40
0
40
0
40
0
40
0
40
0.25
40
0.25
40
0.5
40
0.5
40
0.75
40
0.75
40
1
40
1
40
1
40
1
41
1
10
0.345000000000027
20
-29.7331215229967
30
0
41
1
10
0.360291493600812
20
-29.7338029311693
30
0
41
1
10
0.374088992697807
20
-29.734621311596
30
0
41
1
10
0.398790642461108
20
-29.7365195325325
30
0
41
1
10
0.409582294231313
20
-29.7375995738754
30
0
41
1
10
0.426948751892724
20
-29.739899680214
30
0
41
1
10
0.433752481608508
20
-29.7411531176792
30
0
41
1
10
0.442711684836866
20
-29.7436974612436
30
0
41
1
10
0.444999999999936
20
-29.7449960704766
30
0
41
1
10
0.444999999999936
20
-29.7463217667537
30
0
0
SPLINE
5
182
100
AcDbEntity
8
1
62
256
6
ByLayer
370
13
48
1
60
0
100
AcDbSpline
70
4
71
3
72
17
73
13
40
0
40
0
40
0
40
0
40
0.249999999999983
40
0.249999999999983
40
0.374999999999989
40
0.374999999999989
40
0.499999999999995
40
0.625
40
0.625
40
0.750000000000006
40
0.750000000000006
40
1
40
1
40
1
40
1
41
1
10
0.444999999999936
20
-29.6213174582525
30
0
41
1
10
0.444999999999936
20
-29.6229379891326
30
0
41
1
10
0.442713994556811
20
-29.6245176912402
30
0
41
1
10
0.435954545268317
20
-29.6268285238862
30
0
41
1
10
0.433111291497767
20
-29.6275940204358
30
0
41
1
10
0.42641722233293
20
-29.629066670757
30
0
41
1
10
0.41871725084178
20
-29.6304865267696
30
0
41
1
10
0.409041882491635
20
-29.6318034796569
30
0
41
1
10
0.398345363282715
20
-29.6330677078635
30
0
41
1
10
0.392530357504086
20
-29.6336671222479
30
0
41
1
10
0.374070303904603
20
-29.6353354806155
30
0
41
1
10
0.360300918029338
20
-29.6362921425682
30
0
41
1
10
0.345000000000027
20
-29.6370878764744
30
0
0
SPLINE
5
183
100
AcDbEntity
8
1
62
256
6
ByLayer
370
13
48
1
60
0
100
AcDbSpline
70
4
71
3
72
14
73
10
40
0
40
0
40
0
40
0
40
0.25
40
0.25
40
0.5
40
0.5
40
0.75
40
0.75
40
1
40
1
40
1
40
1
41
1
10
0.345000000000027
20
-29.60471893706
30
0
41
1
10
0.360301395275656
20
-29.6055496508137
30
0
41
1
10
0.374103976306003
20
-29.6065475648999
30
0
41
1
10
0.398809656632807
20
-29.6088630286425
30
0
41
1
10
0.409599705675191
20
-29.6101807934027
30
0
41
1
10
0.426960900083714
20
-29.6129884676245
30
0
41
1
10
0.433760415763402
20
-29.6145190352064
30
0
41
1
10
0.442713584660623
20
-29.6176277507418
30
0
41
1
10
0.444999999999936
20
-29.6192153415975
30
0
41
1
10
0.444999999999936
20
-29.6208371051764
30
0
0
SPLINE
5
184
100
AcDbEntity
8
1
62
256
6
ByLayer
370
13
48
1
60
0
100
AcDbSpline
70
4
71
3
72
54
73
50
40
0
40
0
40
0
40
0
40
0.124999999999955
40
0.124999999999955
40
0.187499999999932
40
0.187499999999932
40
0.24999999999991
40
0.24999999999991
40
0.281249999999898
40
0.281249999999898
40
0.312499999999886
40
0.312499999999886
40
0.343749999999873
40
0.343749999999873
40
0.374999999999861
40
0.374999999999861
40
0.390624999999855
40
0.390624999999855
40
0.406249999999849
40
0.406249999999849
40
0.421874999999843
40
0.421874999999843
40
0.437499999999836
40
0.437499999999836
40
0.45312499999983
40
0.45312499999983
40
0.460937499999827
40
0.460937499999827
40
0.468749999999824
40
0.468749999999824
40
0.484374999999834
40
0.484374999999834
40
0.499999999999843
40
0.499999999999843
40
0.515624999999853
40
0.515624999999853
40
0.531249999999863
40
0.531249999999863
40
0.562499999999875
40
0.562499999999875
40
0.624999999999891
40
0.624999999999891
40
0.687499999999908
40
0.687499999999908
40
0.749999999999924
40
0.749999999999924
40
0.874999999999962
40
0.874999999999962
40
1
40
1
40
1
40
1
41
1
10
10
20
19.2572426389915
30
0
41
1
10
10.0110191181273
20
19.0543737771301
30
0
41
1
10
10.0285224848648
20
18.8529020758524
30
0
41
1
10
10.0691632285256
20
18.5533148439552
30
0
41
1
10
10.0851473311705
20
18.4538938747573
30
0
41
1
10
10.1237961195383
20
18.2561430382062
30
0
41
1
10
10.1463834104305
20
18.1580747441184
30
0
41
1
10
10.1873295198995
20
18.0135367916176
30
0
41
1
10
10.2021758160281
20
17.9657511691557
30
0
41
1
10
10.2349670601075
20
17.8711563497105
30
0
41
1
10
10.2529573876528
20
17.8242268565587
30
0
41
1
10
10.2928042618424
20
17.7325179133862
30
0
41
1
10
10.3146452440908
20
17.6876812463838
30
0
41
1
10
10.3639181413474
20
17.6008905755476
30
0
41
1
10
10.3915268199814
20
17.5586124015838
30
0
41
1
10
10.4388097675853
20
17.5001241219454
30
0
41
1
10
10.4555530799947
20
17.4814493771694
30
0
41
1
10
10.4917006105446
20
17.4463069010037
30
0
41
1
10
10.5111018886873
20
17.4298797658791
30
0
41
1
10
10.5523554980559
20
17.4010565315122
30
0
41
1
10
10.5744977825119
20
17.3884467914867
30
0
41
1
10
10.6217323699716
20
17.3689667804832
30
0
41
1
10
10.6462427058378
20
17.3623094691082
30
0
41
1
10
10.6974557970127
20
17.3565508082065
30
0
41
1
10
10.7229393068244
20
17.3576335770492
30
0
41
1
10
10.7605841656606
20
17.364871720586
30
0
41
1
10
10.773080209073
20
17.3682443983638
30
0
41
1
10
10.7971936666772
20
17.3765181360466
30
0
41
1
10
10.8089130604386
20
17.3814328841938
30
0
41
1
10
10.8431851469925
20
17.3982230666496
30
0
41
1
10
10.8647105114373
20
17.4121087643055
30
0
41
1
10
10.9044619372862
20
17.4428304733147
30
0
41
1
10
10.9229428400532
20
17.4598057543965
30
0
41
1
10
10.9578263191472
20
17.496176447335
30
0
41
1
10
10.9740748612413
20
17.5154352584883
30
0
41
1
10
11.0044039120546
20
17.5550522843465
30
0
41
1
10
11.0185606239244
20
17.5755009246639
30
0
41
1
10
11.0586935061764
20
17.6383474055201
30
0
41
1
10
11.082419051719
20
17.6823381444314
30
0
41
1
10
11.1469955538836
20
17.8176941634224
30
0
41
1
10
11.1807505037817
20
17.9106658683182
30
0
41
1
10
11.2385988569066
20
18.0997062194768
30
0
41
1
10
11.2624498647701
20
18.1958397359474
30
0
41
1
10
11.3034758125426
20
18.390420191788
30
0
41
1
10
11.3206256675771
20
18.4890749298735
30
0
41
1
10
11.3643555527477
20
18.7864403593935
30
0
41
1
10
11.3833622031639
20
18.9857666079777
30
0
41
1
10
11.4083213306573
20
19.3860906341803
30
0
41
1
10
11.4141428428544
20
19.5870972753398
30
0
41
1
10
11.4141428428543
20
19.7888974490721
30
0
0
SPLINE
5
185
100
AcDbEntity
8
1
62
256
6
ByLayer
370
13
48
1
60
0
100
AcDbSpline
70
4
71
3
72
11
73
7
40
0
40
0
40
0
40
0
40
0.243185442340031
40
0.499999999998784
40
0.756814557657585
40
1
40
1
40
1
40
1
41
1
10
14.5
20
9.76661621326403
30
0
41
1
10
14.5017281788884
20
9.98583668210046
30
0
41
1
10
14.5693273798561
20
10.4115458657785
30
0
41
1
10
14.8824520252815
20
11.0078044286123
30
0
41
1
10
15.3773509485415
20
11.464582682346
30
0
41
1
10
15.7710584829022
20
11.6400601408097
30
0
41
1
10
15.982361909795
20
11.6984678658422
30
0
0
SPLINE
5
186
100
AcDbEntity
8
1
62
256
6
ByLayer
370
13
48
1
60
0
100
AcDbSpline
70
2053
71
2
72
6
73
3
40
0
40
0
40
0
40
1
40
1
40
1
41
1
10
14.5
20
9.78889744907207
30
0
41
1
10
14.5
20
9.7443178638936
30
0
41
1
10
14.5
20
9.78889744907207
30
0
0
SPLINE
5
187
100
AcDbEntity
8
1
62
256
6
ByLayer
370
13
48
1
60
0
100
AcDbSpline
70
4
71
2
72
6
73
3
40
0
40
0
40
0
40
1
40
1
40
1
41
1
10
38.7370007149092
20
17.7955549635087
30
0
41
1
10
39.5000578141819
20
17.9995608623944
30
0
41
1
10
40.2899149855244
20
18.0000000040117
30
0
0
LINE
5
7A
100
AcDbEntity
8
81
62
256
6
ByLayer
370
13
48
0.05
60
0
100
AcDbLine
10
64
20
34
30
0
11
69
21
34
31
0
39
0
210
0
220
0
230
1
0
LINE
5
7B
100
AcDbEntity
8
1
62
256
6
ByLayer
370
18
48
1
60
1
100
AcDbLine
10
301.795592
20
175.173124
30
0
11
301.377595
21
178.348123
31
0
39
0
210
0
220
0
230
1
0
LINE
5
7C
100
AcDbEntity
8
1
62
256
6
ByLayer
370
18
48
1
60
1
100
AcDbLine
10
301.377595
20
178.348123
30
0
11
302.213588
21
178.348126
31
0
39
0
210
0
220
0
230
1
0
LINE
5
7D
100
AcDbEntity
8
1
62
256
6
ByLayer
370
18
48
1
60
1
100
AcDbLine
10
302.213588
20
178.348126
30
0
11
301.795592
21
175.173124
31
0
39
0
210
0
220
0
230
1
0
LINE
5
7E
100
AcDbEntity
8
1
62
256
6
ByLayer
370
18
48
1
60
1
100
AcDbLine
10
301.795592
20
165.173124
30
0
11
302.213588
21
161.998126
31
0
39
0
210
0
220
0
230
1
0
LINE
5
7F
100
AcDbEntity
8
1
62
256
6
ByLayer
370
18
48
1
60
1
100
AcDbLine
10
302.213588
20
161.998126
30
0
11
301.377595
21
161.998123
31
0
39
0
210
0
220
0
230
1
0
LINE
5
80
100
AcDbEntity
8
1
62
256
6
ByLayer
370
18
48
1
60
1
100
AcDbLine
10
301.377595
20
161.998123
30
0
11
301.795592
21
165.173124
31
0
39
0
210
0
220
0
230
1
0
LINE
5
81
100
AcDbEntity
8
80
62
256
6
ByLayer
370
13
48
0.05
60
0
100
AcDbLine
10
0
20
0
30
0
11
-5
21
0
31
0
39
0
210
0
220
0
230
1
0
LINE
5
82
100
AcDbEntity
8
4
62
256
6
ByLayer
370
13
48
0.05
60
0
100
AcDbLine
10
0
20
34
30
0
11
64
21
34
31
0
39
0
210
0
220
0
230
1
0
LINE
5
84
100
AcDbEntity
8
1
62
256
6
ByLayer
370
18
48
1
60
1
100
AcDbLine
10
100
20
0
30
0
11
100
21
297
31
0
39
0
210
0
220
0
230
1
0
LINE
5
85
100
AcDbEntity
8
1
62
256
6
ByLayer
370
18
48
1
60
1
100
AcDbLine
10
520
20
297
30
0
11
100
21
297
31
0
39
0
210
0
220
0
230
1
0
LINE
5
86
100
AcDbEntity
8
1
62
256
6
ByLayer
370
18
48
1
60
1
100
AcDbLine
10
520
20
297
30
0
11
520
21
0
31
0
39
0
210
0
220
0
230
1
0
LINE
5
87
100
AcDbEntity
8
1
62
256
6
ByLayer
370
18
48
1
60
1
100
AcDbLine
10
100
20
0
30
0
11
520
21
0
31
0
39
0
210
0
220
0
230
1
0
LINE
5
88
100
AcDbEntity
8
1
62
256
6
ByLayer
370
18
48
1
60
1
100
AcDbLine
10
100
20
0
30
0
11
100
21
297
31
0
39
0
210
0
220
0
230
1
0
LINE
5
89
100
AcDbEntity
8
1
62
256
6
ByLayer
370
18
48
1
60
1
100
AcDbLine
10
520
20
297
30
0
11
100
21
297
31
0
39
0
210
0
220
0
230
1
0
LINE
5
8A
100
AcDbEntity
8
1
62
256
6
ByLayer
370
18
48
1
60
1
100
AcDbLine
10
520
20
297
30
0
11
520
21
0
31
0
39
0
210
0
220
0
230
1
0
LINE
5
8B
100
AcDbEntity
8
1
62
256
6
ByLayer
370
18
48
1
60
1
100
AcDbLine
10
100
20
0
30
0
11
520
21
0
31
0
39
0
210
0
220
0
230
1
0
LINE
5
8C
100
AcDbEntity
8
1
62
256
6
ByLayer
370
13
48
1
60
0
100
AcDbLine
10
11.414143
20
19.788897
30
0
11
14.5
21
19.788897
31
0
39
0
210
0
220
0
230
1
0
LINE
5
8D
100
AcDbEntity
8
1
62
256
6
ByLayer
370
13
48
1
60
0
100
AcDbLine
10
10
20
30.397368
30
0
11
-0.759907
21
30.397368
31
0
39
0
210
0
220
0
230
1
0
LINE
5
8E
100
AcDbEntity
8
1
62
256
6
ByLayer
370
13
48
1
60
0
100
AcDbLine
10
0.345
20
48.300339
30
0
11
0.345
21
48.393076
31
0
39
0
210
0
220
0
230
1
0
LINE
5
8F
100
AcDbEntity
8
1
62
256
6
ByLayer
370
13
48
1
60
0
100
AcDbLine
10
-0.325
20
-28.697599
30
0
11
-0.325
21
-25.47894
31
0
39
0
210
0
220
0
230
1
0
LINE
5
90
100
AcDbEntity
8
1
62
256
6
ByLayer
370
13
48
1
60
0
100
AcDbLine
10
0.345
20
-29.976095
30
0
11
0.345
21
-29.967089
31
0
39
0
210
0
220
0
230
1
0
LINE
5
91
100
AcDbEntity
8
1
62
256
6
ByLayer
370
13
48
1
60
0
100
AcDbLine
10
0.345
20
-29.856845
30
0
11
0.345
21
-29.83613
31
0
39
0
210
0
220
0
230
1
0
LINE
5
92
100
AcDbEntity
8
1
62
256
6
ByLayer
370
13
48
1
60
0
100
AcDbLine
10
8.975
20
50.002801
30
0
11
8.975
21
49.999999
31
0
39
0
210
0
220
0
230
1
0
LINE
5
93
100
AcDbEntity
8
1
62
256
6
ByLayer
370
13
48
1
60
0
100
AcDbLine
10
-0.759907
20
0.300754
30
0
11
10
21
0.300754
31
0
39
0
210
0
220
0
230
1
0
LINE
5
94
100
AcDbEntity
8
1
62
256
6
ByLayer
370
13
48
1
60
0
100
AcDbLine
10
0.345
20
-29.637088
30
0
11
0.345
21
-29.603768
31
0
39
0
210
0
220
0
230
1
0
LINE
5
95
100
AcDbEntity
8
1
62
256
6
ByLayer
370
13
48
1
60
0
100
AcDbLine
10
0.345
20
49.284533
30
0
11
0.345
21
49.343769
31
0
39
0
210
0
220
0
230
1
0
LINE
5
96
100
AcDbEntity
8
1
62
256
6
ByLayer
370
13
48
1
60
0
100
AcDbLine
10
0.345
20
48.676814
30
0
11
0.345
21
48.758203
31
0
39
0
210
0
220
0
230
1
0
LINE
5
97
100
AcDbEntity
8
1
62
256
6
ByLayer
370
13
48
1
60
0
100
AcDbLine
10
0.345
20
-29.485572
30
0
11
0.345
21
-29.440154
31
0
39
0
210
0
220
0
230
1
0
LINE
5
98
100
AcDbEntity
8
1
62
256
6
ByLayer
370
13
48
1
60
0
100
AcDbLine
10
0.345
20
49.004822
30
0
11
0.345
21
49.07479
31
0
39
0
210
0
220
0
230
1
0
LINE
5
99
100
AcDbEntity
8
1
62
256
6
ByLayer
370
13
48
1
60
0
100
AcDbLine
10
0.345
20
-28.592282
30
0
11
0.345
21
-28.490883
31
0
39
0
210
0
220
0
230
1
0
LINE
5
9A
100
AcDbEntity
8
1
62
256
6
ByLayer
370
13
48
1
60
0
100
AcDbLine
10
10
20
-29.548869
30
0
11
-0.325
21
-29.548869
31
0
39
0
210
0
220
0
230
1
0
LINE
5
9B
100
AcDbEntity
8
1
62
256
6
ByLayer
370
13
48
1
60
0
100
AcDbLine
10
0.345
20
-29.998168
30
0
11
0.345
21
-29.995181
31
0
39
0
210
0
220
0
230
1
0
LINE
5
9C
100
AcDbEntity
8
1
62
256
6
ByLayer
370
13
48
1
60
0
100
AcDbLine
10
-0.248546
20
-25.524499
30
0
11
-0.248546
21
-28.3892
31
0
39
0
210
0
220
0
230
1
0
LINE
5
9D
100
AcDbEntity
8
1
62
256
6
ByLayer
370
13
48
1
60
0
100
AcDbLine
10
27.025
20
49.999986
30
0
11
27.025
21
50.002801
31
0
39
0
210
0
220
0
230
1
0
LINE
5
9E
100
AcDbEntity
8
1
62
256
6
ByLayer
370
13
48
1
60
0
100
AcDbLine
10
-0.325
20
-29.529444
30
0
11
-0.325
21
-29.38684
31
0
39
0
210
0
220
0
230
1
0
LINE
5
9F
100
AcDbEntity
8
1
62
256
6
ByLayer
370
13
48
1
60
0
100
AcDbLine
10
-0.325
20
48.924936
30
0
11
-0.325
21
49.148676
31
0
39
0
210
0
220
0
230
1
0
LINE
5
A0
100
AcDbEntity
8
1
62
256
6
ByLayer
370
13
48
1
60
0
100
AcDbLine
10
0.345
20
49.991272
30
0
11
0.345
21
49.996703
31
0
39
0
210
0
220
0
230
1
0
LINE
5
A1
100
AcDbEntity
8
1
62
256
6
ByLayer
370
13
48
1
60
0
100
AcDbLine
10
-0.325
20
45.216223
30
0
11
-0.325
21
48.090084
31
0
39
0
210
0
220
0
230
1
0
LINE
5
A2
100
AcDbEntity
8
1
62
256
6
ByLayer
370
13
48
1
60
0
100
AcDbLine
10
0.345
20
49.845546
30
0
11
0.345
21
49.872088
31
0
39
0
210
0
220
0
230
1
0
LINE
5
A3
100
AcDbEntity
8
1
62
256
6
ByLayer
370
13
48
1
60
0
100
AcDbLine
10
-0.325
20
48.195029
30
0
11
-0.325
21
48.49194
31
0
39
0
210
0
220
0
230
1
0
LINE
5
A4
100
AcDbEntity
8
1
62
256
6
ByLayer
370
13
48
1
60
0
100
AcDbLine
10
-0.325
20
-29.054255
30
0
11
-0.325
21
-28.793977
31
0
39
0
210
0
220
0
230
1
0
LINE
5
A5
100
AcDbEntity
8
1
62
256
6
ByLayer
370
13
48
1
60
0
100
AcDbLine
10
0.345
20
47.873736
30
0
11
0.345
21
47.9783
31
0
39
0
210
0
220
0
230
1
0
LINE
5
A6
100
AcDbEntity
8
1
62
256
6
ByLayer
370
13
48
1
60
0
100
AcDbLine
10
0.345
20
49.940832
30
0
11
0.345
21
49.956959
31
0
39
0
210
0
220
0
230
1
0
LINE
5
A7
100
AcDbEntity
8
1
62
256
6
ByLayer
370
13
48
1
60
0
100
AcDbLine
10
-0.248546
20
47.769148
30
0
11
-0.248546
21
45.252281
31
0
39
0
210
0
220
0
230
1
0
LINE
5
A8
100
AcDbEntity
8
1
62
256
6
ByLayer
370
13
48
1
60
0
100
AcDbLine
10
0.345
20
-29.929001
30
0
11
0.345
21
-29.913988
31
0
39
0
210
0
220
0
230
1
0
LINE
5
A9
100
AcDbEntity
8
1
62
256
6
ByLayer
370
13
48
1
60
0
100
AcDbLine
10
0.345
20
-28.970052
30
0
11
0.345
21
-28.888794
31
0
39
0
210
0
220
0
230
1
0
LINE
5
AA
100
AcDbEntity
8
1
62
256
6
ByLayer
370
13
48
1
60
0
100
AcDbLine
10
0.345
20
-29.26701
30
0
11
0.345
21
-29.203883
31
0
39
0
210
0
220
0
230
1
0
LINE
5
AB
100
AcDbEntity
8
1
62
256
6
ByLayer
370
13
48
1
60
0
100
AcDbLine
10
-0.325
20
-29.671091
30
0
11
-0.325
21
-29.567302
31
0
39
0
210
0
220
0
230
1
0
LINE
5
AC
100
AcDbEntity
8
1
62
256
6
ByLayer
370
13
48
1
60
0
100
AcDbLine
10
-0.325
20
49.216468
30
0
11
-0.325
21
49.405511
31
0
39
0
210
0
220
0
230
1
0
LINE
5
AD
100
AcDbEntity
8
1
62
256
6
ByLayer
370
13
48
1
60
0
100
AcDbLine
10
-0.325
20
-29.787062
30
0
11
-0.325
21
-29.701456
31
0
39
0
210
0
220
0
230
1
0
LINE
5
AE
100
AcDbEntity
8
1
62
256
6
ByLayer
370
13
48
1
60
0
100
AcDbLine
10
-0.325
20
49.461846
30
0
11
-0.325
21
49.615689
31
0
39
0
210
0
220
0
230
1
0
LINE
5
AF
100
AcDbEntity
8
1
62
256
6
ByLayer
370
13
48
1
60
0
100
AcDbLine
10
-0.325
20
49.660423
30
0
11
-0.325
21
49.779802
31
0
39
0
210
0
220
0
230
1
0
LINE
5
B0
100
AcDbEntity
8
1
62
256
6
ByLayer
370
13
48
1
60
0
100
AcDbLine
10
-0.325
20
-29.877854
30
0
11
-0.325
21
-29.811729
31
0
39
0
210
0
220
0
230
1
0
LINE
5
B1
100
AcDbEntity
8
1
62
256
6
ByLayer
370
13
48
1
60
0
100
AcDbLine
10
-0.790452
20
37.99671
30
0
11
10
21
37.99671
31
0
39
0
210
0
220
0
230
1
0
LINE
5
B2
100
AcDbEntity
8
1
62
256
6
ByLayer
370
13
48
1
60
0
100
AcDbLine
10
-0.325
20
-29.943542
30
0
11
-0.325
21
-29.896553
31
0
39
0
210
0
220
0
230
1
0
LINE
5
B3
100
AcDbEntity
8
1
62
256
6
ByLayer
370
13
48
1
60
0
100
AcDbLine
10
-0.325
20
49.813588
30
0
11
-0.325
21
49.898304
31
0
39
0
210
0
220
0
230
1
0
LINE
5
B4
100
AcDbEntity
8
1
62
256
6
ByLayer
370
13
48
1
60
0
100
AcDbLine
10
-0.325
20
49.920608
30
0
11
-0.325
21
49.97152
31
0
39
0
210
0
220
0
230
1
0
LINE
5
B5
100
AcDbEntity
8
1
62
256
6
ByLayer
370
13
48
1
60
0
100
AcDbLine
10
0.345
20
-29.759568
30
0
11
0.345
21
-29.7323
31
0
39
0
210
0
220
0
230
1
0
LINE
5
B6
100
AcDbEntity
8
1
62
256
6
ByLayer
370
13
48
1
60
0
100
AcDbLine
10
0.345
20
49.517578
30
0
11
0.345
21
49.565917
31
0
39
0
210
0
220
0
230
1
0
LINE
5
B7
100
AcDbEntity
8
1
62
256
6
ByLayer
370
13
48
1
60
0
100
AcDbLine
10
-0.325
20
-29.984181
30
0
11
-0.325
21
-29.956
31
0
39
0
210
0
220
0
230
1
0
LINE
5
B8
100
AcDbEntity
8
1
62
256
6
ByLayer
370
13
48
1
60
0
100
AcDbLine
10
0.345
20
49.704288
30
0
11
0.345
21
49.74186
31
0
39
0
210
0
220
0
230
1
0
LINE
5
B9
100
AcDbEntity
8
1
62
256
6
ByLayer
370
13
48
1
60
0
100
AcDbLine
10
-0.325
20
49.982583
30
0
11
-0.325
21
49.999649
31
0
39
0
210
0
220
0
230
1
0
LINE
5
BA
100
AcDbEntity
8
1
62
256
6
ByLayer
370
13
48
1
60
0
100
AcDbLine
10
-0.325
20
-29.999805
30
0
11
-0.325
21
-29.990387
31
0
39
0
210
0
220
0
230
1
0
LINE
5
BB
100
AcDbEntity
8
1
62
256
6
ByLayer
370
13
48
1
60
0
100
AcDbLine
10
-0.325
20
-29.330794
30
0
11
-0.325
21
-29.130565
31
0
39
0
210
0
220
0
230
1
0
LINE
5
BC
100
AcDbEntity
8
1
62
256
6
ByLayer
370
13
48
1
60
0
100
AcDbLine
10
-0.6
20
-25.313831
30
0
11
-0.6
21
-25.500819
31
0
39
0
210
0
220
0
230
1
0
LINE
5
BD
100
AcDbEntity
8
1
62
256
6
ByLayer
370
13
48
1
60
0
100
AcDbLine
10
-0.325
20
48.584456
30
0
11
-0.325
21
48.84445
31
0
39
0
210
0
220
0
230
1
0
LINE
5
BE
100
AcDbEntity
8
1
62
256
6
ByLayer
370
18
48
1
60
0
100
AcDbLine
10
7.07735
20
33
30
0
11
5.92265
21
33
31
0
39
0
210
0
220
0
230
1
0
LINE
5
BF
100
AcDbEntity
8
1
62
256
6
ByLayer
370
18
48
1
60
0
100
AcDbLine
10
7.07735
20
35
30
0
11
7.654701
21
34
31
0
39
0
210
0
220
0
230
1
0
LINE
5
C0
100
AcDbEntity
8
1
62
256
6
ByLayer
370
18
48
1
60
0
100
AcDbLine
10
5.92265
20
35
30
0
11
7.07735
21
35
31
0
39
0
210
0
220
0
230
1
0
LINE
5
C1
100
AcDbEntity
8
1
62
256
6
ByLayer
370
18
48
1
60
0
100
AcDbLine
10
5.345299
20
34
30
0
11
5.92265
21
35
31
0
39
0
210
0
220
0
230
1
0
LINE
5
C2
100
AcDbEntity
8
1
62
256
6
ByLayer
370
18
48
1
60
0
100
AcDbLine
10
5.92265
20
33
30
0
11
5.345299
21
34
31
0
39
0
210
0
220
0
230
1
0
LINE
5
C3
100
AcDbEntity
8
1
62
256
6
ByLayer
370
18
48
1
60
0
100
AcDbLine
10
7.654701
20
34
30
0
11
7.07735
21
33
31
0
39
0
210
0
220
0
230
1
0
LINE
5
C4
100
AcDbEntity
8
1
62
256
6
ByLayer
370
13
48
1
60
0
100
AcDbLine
10
63.7
20
18
30
0
11
64
21
18.3
31
0
39
0
210
0
220
0
230
1
0
LINE
5
C5
100
AcDbEntity
8
1
62
256
6
ByLayer
370
13
48
1
60
0
100
AcDbLine
10
64
20
49.7
30
0
11
63.7
21
50
31
0
39
0
210
0
220
0
230
1
0
LINE
5
C6
100
AcDbEntity
8
1
62
256
6
ByLayer
370
13
48
1
60
0
100
AcDbLine
10
5.791039
20
36.397368
30
0
11
7.208961
21
36.397368
31
0
39
0
210
0
220
0
230
1
0
LINE
5
C7
100
AcDbEntity
8
1
62
256
6
ByLayer
370
13
48
1
60
0
100
AcDbLine
10
-0.325
20
-30
30
0
11
10
21
-30
31
0
39
0
210
0
220
0
230
1
0
LINE
5
C8
100
AcDbEntity
8
1
62
256
6
ByLayer
370
13
48
1
60
0
100
AcDbLine
10
-0.882956
20
-25.139175
30
0
11
-0.882956
21
-4.237039
31
0
39
0
210
0
220
0
230
1
0
LINE
5
C9
100
AcDbEntity
8
1
62
256
6
ByLayer
370
13
48
1
60
0
100
AcDbLine
10
-0.882956
20
4.237039
30
0
11
-0.882956
21
44.948749
31
0
39
0
210
0
220
0
230
1
0
LINE
5
CA
100
AcDbEntity
8
1
62
256
6
ByLayer
370
13
48
1
60
0
100
AcDbLine
10
-0.759907
20
30.397368
30
0
11
-0.759907
21
0.300754
31
0
39
0
210
0
220
0
230
1
0
LINE
5
CB
100
AcDbEntity
8
1
62
256
6
ByLayer
370
13
48
1
60
0
100
AcDbLine
10
10
20
0.300754
30
0
11
10
21
30.397368
31
0
39
0
210
0
220
0
230
1
0
LINE
5
CC
100
AcDbEntity
8
1
62
256
6
ByLayer
370
13
48
1
60
0
100
AcDbLine
10
8.998915
20
50
30
0
11
-0.325
21
50
31
0
39
0
210
0
220
0
230
1
0
LINE
5
CD
100
AcDbEntity
8
1
62
256
6
ByLayer
370
13
48
1
60
0
100
AcDbLine
10
39.5005
20
50
30
0
11
27.025
21
50
31
0
39
0
210
0
220
0
230
1
0
LINE
5
CE
100
AcDbEntity
8
1
62
256
6
ByLayer
370
13
48
1
60
0
100
AcDbLine
10
14.5
20
43.30127
30
0
11
11.414143
21
43.30127
31
0
39
0
210
0
220
0
230
1
0
LINE
5
CF
100
AcDbEntity
8
1
62
256
6
ByLayer
370
13
48
1
60
0
100
AcDbLine
10
5.572279
20
40.5
30
0
11
7.427721
21
40.5
31
0
39
0
210
0
220
0
230
1
0
LINE
5
D0
100
AcDbEntity
8
1
62
256
6
ByLayer
370
13
48
1
60
0
100
AcDbLine
10
11.414143
20
43.30127
30
0
11
11.414143
21
19.788897
31
0
39
0
210
0
220
0
230
1
0
LINE
5
D1
100
AcDbEntity
8
1
62
256
6
ByLayer
370
13
48
1
60
0
100
AcDbLine
10
14.5
20
9.788897
30
0
11
10
21
9.788897
31
0
39
0
210
0
220
0
230
1
0
LINE
5
D2
100
AcDbEntity
8
1
62
256
6
ByLayer
370
13
48
1
60
0
100
AcDbLine
10
14.5
20
19.788897
30
0
11
14.5
21
43.30127
31
0
39
0
210
0
220
0
230
1
0
LINE
5
D3
100
AcDbEntity
8
1
62
256
6
ByLayer
370
13
48
1
60
0
100
AcDbLine
10
15.981859
20
11.698333
30
0
11
38.737001
21
17.795555
31
0
39
0
210
0
220
0
230
1
0
LINE
5
D4
100
AcDbEntity
8
1
62
256
6
ByLayer
370
13
48
1
60
0
100
AcDbLine
10
63.7
20
50
30
0
11
39.4995
21
50
31
0
39
0
210
0
220
0
230
1
0
LINE
5
D5
100
AcDbEntity
8
1
62
256
6
ByLayer
370
13
48
1
60
0
100
AcDbLine
10
40.289915
20
18
30
0
11
63.7
21
18
31
0
39
0
210
0
220
0
230
1
0
LINE
5
D6
100
AcDbEntity
8
1
62
256
6
ByLayer
370
13
48
1
60
0
100
AcDbLine
10
10
20
37.99671
30
0
11
10
21
30.397368
31
0
39
0
210
0
220
0
230
1
0
LINE
5
D7
100
AcDbEntity
8
1
62
256
6
ByLayer
370
13
48
1
60
0
100
AcDbLine
10
-0.325
20
-29.548869
30
0
11
-0.325
21
-29.529444
31
0
39
0
210
0
220
0
230
1
0
LINE
5
D8
100
AcDbEntity
8
1
62
256
6
ByLayer
370
13
48
1
60
0
100
AcDbLine
10
0.445
20
-29.464277
30
0
11
0.445
21
-29.46362
31
0
39
0
210
0
220
0
230
1
0
LINE
5
D9
100
AcDbEntity
8
1
62
256
6
ByLayer
370
13
48
1
60
0
100
AcDbLine
10
-0.325
20
-29.387647
30
0
11
-0.325
21
-29.330794
31
0
39
0
210
0
220
0
230
1
0
LINE
5
DA
100
AcDbEntity
8
1
62
256
6
ByLayer
370
13
48
1
60
0
100
AcDbLine
10
0.445
20
-29.236763
30
0
11
0.445
21
-29.235835
31
0
39
0
210
0
220
0
230
1
0
LINE
5
DB
100
AcDbEntity
8
1
62
256
6
ByLayer
370
13
48
1
60
0
100
AcDbLine
10
-0.325
20
-29.130747
30
0
11
-0.325
21
-29.054255
31
0
39
0
210
0
220
0
230
1
0
LINE
5
DC
100
AcDbEntity
8
1
62
256
6
ByLayer
370
13
48
1
60
0
100
AcDbLine
10
0.445
20
-28.930611
30
0
11
0.445
21
-28.929407
31
0
39
0
210
0
220
0
230
1
0
LINE
5
DD
100
AcDbEntity
8
1
62
256
6
ByLayer
370
13
48
1
60
0
100
AcDbLine
10
-0.325
20
-28.794354
30
0
11
-0.325
21
-28.697599
31
0
39
0
210
0
220
0
230
1
0
LINE
5
DE
100
AcDbEntity
8
1
62
256
6
ByLayer
370
13
48
1
60
0
100
AcDbLine
10
0.445
20
-28.543319
30
0
11
0.445
21
-28.541827
31
0
39
0
210
0
220
0
230
1
0
LINE
5
DF
100
AcDbEntity
8
1
62
256
6
ByLayer
370
13
48
1
60
0
100
AcDbLine
10
1
20
-27.977486
30
0
11
1
21
-26.223245
31
0
39
0
210
0
220
0
230
1
0
LINE
5
E0
100
AcDbEntity
8
1
62
256
6
ByLayer
370
13
48
1
60
0
100
AcDbLine
10
10
20
0.300754
30
0
11
10
21
-29.548869
31
0
39
0
210
0
220
0
230
1
0
LINE
5
E1
100
AcDbEntity
8
1
62
256
6
ByLayer
370
13
48
1
60
0
100
AcDbLine
10
1
20
45.818315
30
0
11
1
21
47.365117
31
0
39
0
210
0
220
0
230
1
0
LINE
5
E2
100
AcDbEntity
8
1
62
256
6
ByLayer
370
13
48
1
60
0
100
AcDbLine
10
0.445
20
47.9256
30
0
11
0.445
21
47.927152
31
0
39
0
210
0
220
0
230
1
0
LINE
5
E3
100
AcDbEntity
8
1
62
256
6
ByLayer
370
13
48
1
60
0
100
AcDbLine
10
-0.325
20
48.090084
30
0
11
-0.325
21
48.195162
31
0
39
0
210
0
220
0
230
1
0
LINE
5
E4
100
AcDbEntity
8
1
62
256
6
ByLayer
370
13
48
1
60
0
100
AcDbLine
10
0.445
20
48.346365
30
0
11
0.445
21
48.347741
31
0
39
0
210
0
220
0
230
1
0
LINE
5
E5
100
AcDbEntity
8
1
62
256
6
ByLayer
370
13
48
1
60
0
100
AcDbLine
10
-0.325
20
48.49194
30
0
11
-0.325
21
48.584582
31
0
39
0
210
0
220
0
230
1
0
LINE
5
E6
100
AcDbEntity
8
1
62
256
6
ByLayer
370
13
48
1
60
0
100
AcDbLine
10
0.445
20
48.717336
30
0
11
0.445
21
48.718541
31
0
39
0
210
0
220
0
230
1
0
LINE
5
E7
100
AcDbEntity
8
1
62
256
6
ByLayer
370
13
48
1
60
0
100
AcDbLine
10
-0.325
20
48.84445
30
0
11
-0.325
21
48.924937
31
0
39
0
210
0
220
0
230
1
0
LINE
5
E8
100
AcDbEntity
8
1
62
256
6
ByLayer
370
13
48
1
60
0
100
AcDbLine
10
0.445
20
49.039643
30
0
11
0.445
21
49.040681
31
0
39
0
210
0
220
0
230
1
0
LINE
5
E9
100
AcDbEntity
8
1
62
256
6
ByLayer
370
13
48
1
60
0
100
AcDbLine
10
-0.325
20
49.148676
30
0
11
-0.325
21
49.217247
31
0
39
0
210
0
220
0
230
1
0
LINE
5
EA
100
AcDbEntity
8
1
62
256
6
ByLayer
370
13
48
1
60
0
100
AcDbLine
10
0.445
20
49.314242
30
0
11
0.445
21
49.315115
31
0
39
0
210
0
220
0
230
1
0
LINE
5
EB
100
AcDbEntity
8
1
62
256
6
ByLayer
370
13
48
1
60
0
100
AcDbLine
10
-0.325
20
49.405511
30
0
11
-0.325
21
49.462363
31
0
39
0
210
0
220
0
230
1
0
LINE
5
EC
100
AcDbEntity
8
1
62
256
6
ByLayer
370
13
48
1
60
0
100
AcDbLine
10
0.445
20
49.541924
30
0
11
0.445
21
49.542635
31
0
39
0
210
0
220
0
230
1
0
LINE
5
ED
100
AcDbEntity
8
1
62
256
6
ByLayer
370
13
48
1
60
0
100
AcDbLine
10
-0.325
20
49.615689
30
0
11
-0.325
21
49.660983
31
0
39
0
210
0
220
0
230
1
0
LINE
5
EE
100
AcDbEntity
8
1
62
256
6
ByLayer
370
13
48
1
60
0
100
AcDbLine
10
0.445
20
49.723336
30
0
11
0.445
21
49.723886
31
0
39
0
210
0
220
0
230
1
0
LINE
5
EF
100
AcDbEntity
8
1
62
256
6
ByLayer
370
13
48
1
60
0
100
AcDbLine
10
-0.325
20
49.779802
30
0
11
-0.325
21
49.813664
31
0
39
0
210
0
220
0
230
1
0
LINE
5
F0
100
AcDbEntity
8
1
62
256
6
ByLayer
370
13
48
1
60
0
100
AcDbLine
10
0.445
20
49.85898
30
0
11
0.445
21
49.859373
31
0
39
0
210
0
220
0
230
1
0
LINE
5
F1
100
AcDbEntity
8
1
62
256
6
ByLayer
370
13
48
1
60
0
100
AcDbLine
10
-0.325
20
49.898304
30
0
11
-0.325
21
49.920828
31
0
39
0
210
0
220
0
230
1
0
LINE
5
F2
100
AcDbEntity
8
1
62
256
6
ByLayer
370
13
48
1
60
0
100
AcDbLine
10
0.445
20
49.949232
30
0
11
0.445
21
49.949467
31
0
39
0
210
0
220
0
230
1
0
LINE
5
F3
100
AcDbEntity
8
1
62
256
6
ByLayer
370
13
48
1
60
0
100
AcDbLine
10
-0.325
20
49.97152
30
0
11
-0.325
21
49.982767
31
0
39
0
210
0
220
0
230
1
0
LINE
5
F4
100
AcDbEntity
8
1
62
256
6
ByLayer
370
13
48
1
60
0
100
AcDbLine
10
0.445
20
49.994335
30
0
11
0.445
21
49.994414
31
0
39
0
210
0
220
0
230
1
0
LINE
5
F5
100
AcDbEntity
8
1
62
256
6
ByLayer
370
13
48
1
60
0
100
AcDbLine
10
-0.325
20
50
30
0
11
-0.325
21
49.999649
31
0
39
0
210
0
220
0
230
1
0
LINE
5
F6
100
AcDbEntity
8
1
62
256
6
ByLayer
370
13
48
1
60
0
100
AcDbLine
10
14.5
20
43.30127
30
0
11
14.5
21
45.128586
31
0
39
0
210
0
220
0
230
1
0
LINE
5
F7
100
AcDbEntity
8
1
62
256
6
ByLayer
370
13
48
1
60
0
100
AcDbLine
10
10
20
42.453422
30
0
11
10
21
37.99671
31
0
39
0
210
0
220
0
230
1
0
LINE
5
F8
100
AcDbEntity
8
1
62
256
6
ByLayer
370
13
48
1
60
0
100
AcDbLine
10
14.5
20
19.788897
30
0
11
14.5
21
9.788897
31
0
39
0
210
0
220
0
230
1
0
LINE
5
F9
100
AcDbEntity
8
1
62
256
6
ByLayer
370
13
48
1
60
0
100
AcDbLine
10
63.7
20
50
30
0
11
63.7
21
18
31
0
39
0
210
0
220
0
230
1
0
LINE
5
FA
100
AcDbEntity
8
1
62
256
6
ByLayer
370
13
48
1
60
0
100
AcDbLine
10
64
20
49.7
30
0
11
64
21
18.3
31
0
39
0
210
0
220
0
230
1
0
LINE
5
FB
100
AcDbEntity
8
1
62
256
6
ByLayer
370
13
48
1
60
0
100
AcDbLine
10
-0.325
20
-29.999805
30
0
11
-0.325
21
-30
31
0
39
0
210
0
220
0
230
1
0
LINE
5
FC
100
AcDbEntity
8
1
62
256
6
ByLayer
370
13
48
1
60
0
100
AcDbLine
10
0.445
20
-29.996853
30
0
11
0.445
21
-29.996897
31
0
39
0
210
0
220
0
230
1
0
LINE
5
FD
100
AcDbEntity
8
1
62
256
6
ByLayer
370
13
48
1
60
0
100
AcDbLine
10
-0.325
20
-29.984181
30
0
11
-0.325
21
-29.990427
31
0
39
0
210
0
220
0
230
1
0
LINE
5
FE
100
AcDbEntity
8
1
62
256
6
ByLayer
370
13
48
1
60
0
100
AcDbLine
10
0.445
20
-29.971805
30
0
11
0.445
21
-29.971936
31
0
39
0
210
0
220
0
230
1
0
LINE
5
FF
100
AcDbEntity
8
1
62
256
6
ByLayer
370
13
48
1
60
0
100
AcDbLine
10
-0.325
20
-29.943542
30
0
11
-0.325
21
-29.95604
31
0
39
0
210
0
220
0
230
1
0
LINE
5
100
100
AcDbEntity
8
1
62
256
6
ByLayer
370
13
48
1
60
0
100
AcDbLine
10
0.445
20
-29.921732
30
0
11
0.445
21
-29.92195
31
0
39
0
210
0
220
0
230
1
0
LINE
5
101
100
AcDbEntity
8
1
62
256
6
ByLayer
370
13
48
1
60
0
100
AcDbLine
10
-0.325
20
-29.877854
30
0
11
-0.325
21
-29.896614
31
0
39
0
210
0
220
0
230
1
0
LINE
5
102
100
AcDbEntity
8
1
62
256
6
ByLayer
370
13
48
1
60
0
100
AcDbLine
10
0.445
20
-29.846592
30
0
11
0.445
21
-29.846897
31
0
39
0
210
0
220
0
230
1
0
LINE
5
103
100
AcDbEntity
8
1
62
256
6
ByLayer
370
13
48
1
60
0
100
AcDbLine
10
-0.325
20
-29.787062
30
0
11
-0.325
21
-29.8121
31
0
39
0
210
0
220
0
230
1
0
LINE
5
104
100
AcDbEntity
8
1
62
256
6
ByLayer
370
13
48
1
60
0
100
AcDbLine
10
0.445
20
-29.746322
30
0
11
0.445
21
-29.746714
31
0
39
0
210
0
220
0
230
1
0
LINE
5
105
100
AcDbEntity
8
1
62
256
6
ByLayer
370
13
48
1
60
0
100
AcDbLine
10
-0.325
20
-29.671091
30
0
11
-0.325
21
-29.702426
31
0
39
0
210
0
220
0
230
1
0
LINE
5
106
100
AcDbEntity
8
1
62
256
6
ByLayer
370
13
48
1
60
0
100
AcDbLine
10
0.445
20
-29.620837
30
0
11
0.445
21
-29.621317
31
0
39
0
210
0
220
0
230
1
0
LINE
5
107
100
AcDbEntity
8
1
62
256
6
ByLayer
370
13
48
1
60
0
100
AcDbLine
10
-0.325
20
-29.548869
30
0
11
-0.325
21
-29.567502
31
0
39
0
210
0
220
0
230
1
0
LINE
5
108
100
AcDbEntity
8
1
62
256
6
ByLayer
370
13
48
1
60
0
100
AcDbLine
10
10
20
-30
30
0
11
10
21
-29.548869
31
0
39
0
210
0
220
0
230
1
0
MTEXT
5
188
100
AcDbEntity
8
SK6
62
256
6
ByLayer
370
18
48
1
60
0
100
AcDbMText
10
15.75
20
59.25
30
0
210
0
220
0
230
1
1
\W0.7093;C3-QC-SL100-R
40
3
41
0
44
1.084337
50
0
71
7
72
5
7
iso_b_vert
0
DIMENSION
5
196
100
AcDbEntity
8
SK2
62
256
6
ByLayer
370
13
48
1
60
0
100
AcDbDimension
2
DimnDraft3D1
10
-13.25
20
0
30
0
11
-13.25
21
14.771053
31
0
70
32
71
5
72
1
41
1
210
0
220
0
230
1
3
Standard
100
AcDbAlignedDimension
13
-2
23
34
33
0
14
-7
24
0
34
0
50
90
100
AcDbRotatedDimension
1001
ACAD
1000
DSTYLE
1002
{
1070
    74
1070
     0
1070
   279
1070
     0
1070
   172
1070
     1
1070
   173
1070
     1
1070
   340
1005
189
1070
   271
1070
     1
1070
    77
1070
     1
1070
    73
1070
     0
1070
   171
1070
     4
1070
   274
1070
     4
1070
   177
1070
     7
1070
   176
1070
     7
1070
   178
1070
     7
1070
    78
1070
     8
1070
    41
1041
3.175
1070
   147
1041
1.75
1070
    42
1041
2.0
1070
    44
1041
2.0
1070
   140
1041
3.5
1070
   343
1005
0
1070
   344
1005
0
1002
}
0
DIMENSION
5
1A1
100
AcDbEntity
8
2
62
256
6
ByLayer
370
13
48
1
60
0
100
AcDbDimension
2
DimnDraft3D2
10
64
20
73.25
30
0
11
29.725
21
73.25
31
0
70
32
71
5
72
1
41
1
210
0
220
0
230
1
3
Standard
100
AcDbAlignedDimension
13
0
23
2
33
0
14
64
24
51.7
34
0
50
0
100
AcDbRotatedDimension
1001
ACAD
1000
DSTYLE
1002
{
1070
   279
1070
     0
1070
   172
1070
     1
1070
   173
1070
     1
1070
   340
1005
189
1070
    77
1070
     1
1070
    73
1070
     0
1070
   171
1070
     4
1070
   274
1070
     4
1070
   177
1070
     7
1070
   176
1070
     7
1070
   178
1070
     7
1070
    78
1070
     8
1070
    41
1041
3.175
1070
   147
1041
1.75
1070
    42
1041
2.0
1070
    44
1041
2.0
1070
   140
1041
3.5
1070
   343
1005
0
1070
   344
1005
0
1002
}
0
DIMENSION
5
1AC
100
AcDbEntity
8
SK2
62
256
6
ByLayer
370
13
48
1
60
0
100
AcDbDimension
2
DimnDraft3D3
10
78.75
20
18
30
0
11
75
21
34.833553
31
0
70
33
71
5
72
1
41
1
210
0
220
0
230
1
3
Standard
100
AcDbAlignedDimension
13
65.7
23
50
33
0
14
65.7
24
18
34
0
1001
ACAD
1000
DSTYLE
1002
{
1070
   279
1070
     0
1070
    74
1070
     0
1070
   173
1070
     1
1070
   340
1005
189
1070
    77
1070
     1
1070
    73
1070
     0
1070
   171
1070
     4
1070
   274
1070
     4
1070
   177
1070
     7
1070
   176
1070
     7
1070
   178
1070
     7
1070
    78
1070
     8
1070
    41
1041
3.175
1070
   147
1041
1.75
1070
    42
1041
2.0
1070
    44
1041
2.0
1070
   140
1041
3.5
1070
   343
1005
0
1070
   344
1005
0
1002
}
0
ENDSEC
0
SECTION
2
OBJECTS
0
DICTIONARY
5
21e
330
0
100
AcDbDictionary
280
0
281
1
3
ACAD_GROUP
350
21f
3
ACAD_GROUP
350
220
3
ACAD_MLINESTYLE
350
221
0
DICTIONARY
5
21f
330
0
100
AcDbDictionary
280
0
281
1
0
DICTIONARY
5
220
330
0
100
AcDbDictionary
280
0
281
1
3
_DC_215-200(215)
350
1B6
3
<201243662MOD000_00>
350
1B5
3
C8_391_02_63090L_2D
350
1B9
3
C8_QC_C6_120R09_2D
350
1BA
3
DIT-000-00-C6_ABB_2D
350
1BB
3
DIT-000-00-C6_ABB_2D10
350
1BC
3
IV_RC1207SR1
350
1B7
3
IV_RC1207SR15
350
1B8
0
DICTIONARY
5
221
330
0
100
AcDbDictionary
280
0
281
1
3
Standard
350
18
0
GROUP
5
1B6
330
220
100
AcDbGroup
300

70
0
71
1
340
140
340
141
340
142
340
143
340
144
340
145
340
146
340
147
340
148
340
149
340
14A
340
14B
340
14C
340
14D
340
14E
340
14F
340
140
340
141
340
142
340
143
340
144
340
145
340
146
340
147
340
148
340
149
340
14A
340
14B
340
14C
340
14D
340
14E
340
14F
0
GROUP
5
1B5
330
220
100
AcDbGroup
300

70
0
71
1
340
6C
340
6E
340
70
340
72
340
73
340
74
340
75
340
76
340
77
340
78
340
79
340
7A
340
7B
340
7C
340
7D
340
7E
340
7F
340
80
340
81
340
82
340
84
340
85
340
86
340
87
340
88
340
89
340
8A
340
8B
340
8C
340
8D
340
8E
340
8F
340
90
340
91
340
92
340
93
340
94
340
95
340
96
340
97
340
98
340
99
340
9A
340
9B
340
9C
340
9D
340
9E
340
9F
340
A0
340
A1
340
A2
340
A3
340
A4
340
A5
340
A6
340
A7
340
A8
340
A9
340
AA
340
AB
340
AC
340
AD
340
AE
340
AF
340
B0
340
B1
340
B2
340
B3
340
B4
340
B5
340
B6
340
B7
340
B8
340
B9
340
BA
340
BB
340
BC
340
BD
340
BE
340
BF
340
C0
340
C1
340
C2
340
C3
340
C4
340
C5
340
C6
340
C7
340
C8
340
C9
340
CA
340
CB
340
CC
340
CD
340
CE
340
CF
340
D0
340
D1
340
D2
340
D3
340
D4
340
D5
340
D6
340
D7
340
D8
340
D9
340
DA
340
DB
340
DC
340
DD
340
DE
340
DF
340
E0
340
E1
340
E2
340
E3
340
E4
340
E5
340
E6
340
E7
340
E8
340
E9
340
EA
340
EB
340
EC
340
ED
340
EE
340
EF
340
F0
340
F1
340
F2
340
F3
340
F4
340
F5
340
F6
340
F7
340
F8
340
F9
340
FA
340
FB
340
FC
340
FD
340
FE
340
FF
340
100
340
101
340
102
340
103
340
104
340
105
340
106
340
107
340
108
340
109
340
10A
340
10B
340
10C
340
10D
340
10E
340
10F
340
110
340
111
340
112
340
113
340
114
340
115
340
116
340
117
340
118
340
119
340
11A
340
11B
340
11C
340
11D
340
11E
340
11F
340
120
340
121
340
122
340
123
340
124
340
125
340
126
340
127
340
128
340
129
340
12A
340
12B
340
12C
340
12D
340
12E
340
12F
340
130
340
131
340
132
340
133
340
134
340
135
340
136
340
137
340
138
340
139
340
13A
340
13B
340
13C
340
13D
340
13E
340
13F
340
140
340
141
340
142
340
143
340
144
340
145
340
146
340
147
340
148
340
149
340
14A
340
14B
340
14C
340
14D
340
14E
340
14F
340
150
340
151
340
152
340
153
340
154
340
155
340
156
340
157
340
158
340
159
340
15A
340
15B
340
15C
340
15D
340
15E
340
15F
340
160
340
161
340
162
340
163
340
164
340
165
340
166
340
167
340
168
340
169
340
16A
340
16B
340
16C
340
16D
340
16E
340
16F
340
170
340
171
340
172
340
173
340
174
340
175
340
176
340
177
340
178
340
179
340
17A
340
17B
340
17C
340
17D
340
17E
340
17F
340
180
340
181
340
182
340
183
340
184
340
185
340
186
340
187
340
140
340
141
340
142
340
143
340
144
340
145
340
146
340
147
340
148
340
149
340
14A
340
14B
340
14C
340
14D
340
14E
340
14F
340
140
340
141
340
142
340
143
340
144
340
145
340
146
340
147
340
148
340
149
340
14A
340
14B
340
14C
340
14D
340
14E
340
14F
340
140
340
141
340
142
340
143
340
144
340
145
340
146
340
147
340
148
340
149
340
14A
340
14B
340
14C
340
14D
340
14E
340
14F
340
70
340
72
340
73
340
74
340
75
340
76
340
7B
340
7C
340
7D
340
7E
340
7F
340
80
340
77
340
78
340
79
340
84
340
85
340
86
340
87
340
88
340
89
340
8A
340
8B
340
8C
340
8D
340
8E
340
8F
340
90
340
91
340
92
340
93
340
94
340
95
340
96
340
97
340
98
340
99
340
9A
340
9B
340
9C
340
9D
340
9E
340
9F
340
A0
340
A1
340
A2
340
A3
340
A4
340
A5
340
A6
340
A7
340
A8
340
A9
340
AA
340
AB
340
AC
340
AD
340
AE
340
AF
340
B0
340
B1
340
B2
340
B3
340
B4
340
B5
340
B6
340
B7
340
B8
340
B9
340
BA
340
BB
340
BC
340
BD
340
BE
340
BF
340
C0
340
C1
340
C2
340
C3
340
C4
340
C5
340
C6
340
C7
340
C8
340
C9
340
CA
340
CB
340
CC
340
CD
340
CE
340
CF
340
D0
340
D1
340
D2
340
D3
340
D4
340
D5
340
D6
340
D7
340
D8
340
D9
340
DA
340
DB
340
DC
340
DD
340
DE
340
DF
340
E0
340
E1
340
E2
340
E3
340
E4
340
E5
340
E6
340
E7
340
E8
340
E9
340
EA
340
EB
340
EC
340
ED
340
EE
340
EF
340
F0
340
F1
340
F2
340
F3
340
F4
340
F5
340
F6
340
F7
340
F8
340
F9
340
FA
340
FB
340
FC
340
FD
340
FE
340
FF
340
100
340
101
340
102
340
103
340
104
340
105
340
106
340
107
340
108
340
109
340
10A
340
10B
340
10C
340
10D
340
10E
340
10F
340
110
340
111
340
112
340
113
340
114
340
115
340
116
340
117
340
118
340
119
340
11A
340
11B
340
11C
340
11D
340
11E
340
11F
340
120
340
121
340
122
340
123
340
124
340
125
340
126
340
127
340
128
340
129
340
12A
340
12B
340
12C
340
12D
340
12E
340
12F
340
130
340
131
340
132
340
133
340
134
340
135
340
136
340
137
340
138
340
139
340
13A
340
13B
340
13C
340
13D
340
13E
340
13F
340
150
340
151
340
152
340
153
340
154
340
155
340
156
340
157
340
158
340
159
340
15A
340
15B
340
15C
340
15D
340
15E
340
15F
340
160
340
161
340
162
340
163
340
164
340
165
340
166
340
167
340
168
340
169
340
16A
340
16B
340
16C
340
16D
340
16E
340
16F
340
170
340
171
340
172
340
173
340
174
340
175
340
176
340
177
340
178
340
179
340
17A
340
17B
340
17C
340
17D
340
17E
340
17F
340
180
340
181
340
182
340
183
340
184
340
185
340
186
340
187
340
188
340
196
340
1A1
340
1AC
0
GROUP
5
1B9
330
220
100
AcDbGroup
300

70
0
71
1
340
70
340
72
340
73
340
74
340
75
340
76
340
7B
340
7C
340
7D
340
7E
340
7F
340
80
0
GROUP
5
1BA
330
220
100
AcDbGroup
300

70
0
71
1
340
77
340
78
340
79
0
GROUP
5
1BB
330
220
100
AcDbGroup
300

70
0
71
1
340
84
340
85
340
86
340
87
0
GROUP
5
1BC
330
220
100
AcDbGroup
300

70
0
71
1
340
88
340
89
340
8A
340
8B
340
8C
340
8D
340
8E
340
8F
340
90
340
91
340
92
340
93
340
94
340
95
340
96
340
97
340
98
340
99
340
9A
340
9B
340
9C
340
9D
340
9E
340
9F
340
A0
340
A1
340
A2
340
A3
340
A4
340
A5
340
A6
340
A7
340
A8
340
A9
340
AA
340
AB
340
AC
340
AD
340
AE
340
AF
340
B0
340
B1
340
B2
340
B3
340
B4
340
B5
340
B6
340
B7
340
B8
340
B9
340
BA
340
BB
340
BC
340
BD
340
BE
340
BF
340
C0
340
C1
340
C2
340
C3
340
C4
340
C5
340
C6
340
C7
340
C8
340
C9
340
CA
340
CB
340
CC
340
CD
340
CE
340
CF
340
D0
340
D1
340
D2
340
D3
340
D4
340
D5
340
D6
340
D7
340
D8
340
D9
340
DA
340
DB
340
DC
340
DD
340
DE
340
DF
340
E0
340
E1
340
E2
340
E3
340
E4
340
E5
340
E6
340
E7
340
E8
340
E9
340
EA
340
EB
340
EC
340
ED
340
EE
340
EF
340
F0
340
F1
340
F2
340
F3
340
F4
340
F5
340
F6
340
F7
340
F8
340
F9
340
FA
340
FB
340
FC
340
FD
340
FE
340
FF
340
100
340
101
340
102
340
103
340
104
340
105
340
106
340
107
340
108
340
109
340
10A
340
10B
340
10C
340
10D
340
10E
340
10F
340
110
340
111
340
112
340
113
340
114
340
115
340
116
340
117
340
118
340
119
340
11A
340
11B
340
11C
340
11D
340
11E
340
11F
340
120
340
121
340
122
340
123
340
124
340
125
340
126
340
127
340
128
340
129
340
12A
340
12B
340
12C
340
12D
340
12E
340
12F
340
130
340
131
340
132
340
133
340
134
340
135
340
136
340
137
340
138
340
139
340
13A
340
13B
340
13C
340
13D
340
13E
340
13F
340
150
340
151
340
152
340
153
340
154
340
155
340
156
340
157
340
158
340
159
340
15A
340
15B
340
15C
340
15D
340
15E
340
15F
340
160
340
161
340
162
340
163
340
164
340
165
340
166
340
167
340
168
340
169
340
16A
340
16B
340
16C
340
16D
340
16E
340
16F
340
170
340
171
340
172
340
173
340
174
340
175
340
176
340
177
340
178
340
179
340
17A
340
17B
340
17C
340
17D
340
17E
340
17F
340
180
340
181
340
182
340
183
340
184
340
185
340
186
340
187
0
GROUP
5
1B7
330
220
100
AcDbGroup
300

70
0
71
1
340
140
340
141
340
142
340
143
340
144
340
145
340
146
340
147
0
GROUP
5
1B8
330
220
100
AcDbGroup
300

70
0
71
1
340
148
340
149
340
14A
340
14B
340
14C
340
14D
340
14E
340
14F
0
MLINESTYLE
5
18
330
221
100
AcDbMlineStyle
2
Standard
70
0
3

62
256
51
90
52
90
71
2
49
-0.5
62
256
6
ByLayer
49
0.5
62
256
6
ByLayer
0
RASTERVARIABLES
5
20d
330

100
AcDbRasterVariables
90
0
70
1
71
1
72
1
0
ENDSEC
0
EOF
