0
SECTION
2
HEADER
9
$ACADVER
1
AC1015
9
$DWGCODEPAGE
3
ANSI_1252
9
$HANDSEED
5
21c
9
$ANGBASE
50
0
9
$ANGDIR
70
0
9
$ATTMODE
70
1
9
$AUNITS
70
0
9
$AUPREC
70
0
9
$CECOLOR
62
256
9
$CELTSCALE
40
1
9
$CELTYPE
6
ByLayer
9
$CELWEIGHT
370
18
9
$CLAYER
8
0
9
$CMLJUST
70
0
9
$CMLSCALE
40
1
9
$CMLSTYLE
2
Standard
9
$DIMSTYLE
2
Standard
9
$TEXTSIZE
40
0.2
9
$TEXTSTYLE
7
Standard
9
$LUNITS
70
2
9
$LUPREC
70
4
9
$EXTNAMES
290
1
9
$INSUNITS
70
4
9
$LTSCALE
40
1
9
$LWDISPLAY
290
1
9
$PDMODE
70
0
9
$PDSIZE
40
0
9
$PLINEGEN
70
0
0
ENDSEC
0
SECTION
2
CLASSES
0
CLASS
1
RASTERVARIABLES
2
AcDbRasterVariables
3
ISM
90
0
280
0
281
0
0
ENDSEC
0
SECTION
2
TABLES
0
TABLE
2
VPORT
5
212
100
AcDbSymbolTable
0
VPORT
5
1
100
AcDbSymbolTableRecord
100
AcDbViewportTableRecord
2
*Active
70
0
10
0
20
0
11
1
21
1
12
-1
22
1
13
0
23
0
14
0.5
24
0.5
15
10
25
10
16
0
26
0
36
1
17
0
27
0
37
0
0
ENDTAB
0
TABLE
2
LTYPE
5
213
100
AcDbSymbolTable
0
LTYPE
5
14
100
AcDbSymbolTableRecord
100
AcDbLinetypeTableRecord
70
0
2
ByBlock
3

72
65
73
0
40
0
0
LTYPE
5
15
100
AcDbSymbolTableRecord
100
AcDbLinetypeTableRecord
70
0
2
ByLayer
3

72
65
73
0
40
0
0
LTYPE
5
16
100
AcDbSymbolTableRecord
100
AcDbLinetypeTableRecord
70
0
2
CONTINUOUS
3
Solid line
72
65
73
0
40
0
0
LTYPE
5
6A
100
AcDbSymbolTableRecord
100
AcDbLinetypeTableRecord
70
0
2
CENTER
3
____ _ ____ _ ____ _ ____
72
65
73
4
40
47.5
49
22
74
0
49
-8.5
74
0
49
8.5
74
0
49
-8.5
74
0
0
LTYPE
5
6B
100
AcDbSymbolTableRecord
100
AcDbLinetypeTableRecord
70
0
2
DASHED
3
__ __ __ __ __ __ __ __ __
72
65
73
2
40
25.72
49
12.86
74
0
49
-12.86
74
0
0
ENDTAB
0
TABLE
2
LAYER
5
214
100
AcDbSymbolTable
0
LAYER
5
10
100
AcDbSymbolTableRecord
100
AcDbLayerTableRecord
2
0
70
0
62
7
6
CONTINUOUS
290
1
370
-3
390
0
0
LAYER
5
6D
100
AcDbSymbolTableRecord
100
AcDbLayerTableRecord
2
80
70
0
62
-6
6
CONTINUOUS
290
1
370
-3
390
0
0
LAYER
5
6F
100
AcDbSymbolTableRecord
100
AcDbLayerTableRecord
2
81
70
0
62
-3
6
CONTINUOUS
290
1
370
-3
390
0
0
LAYER
5
71
100
AcDbSymbolTableRecord
100
AcDbLayerTableRecord
2
1
70
0
62
4
6
CONTINUOUS
290
1
370
-3
390
0
0
LAYER
5
83
100
AcDbSymbolTableRecord
100
AcDbLayerTableRecord
2
4
70
0
62
-2
6
CENTER
290
1
370
-3
390
0
0
LAYER
5
18A
100
AcDbSymbolTableRecord
100
AcDbLayerTableRecord
2
2
70
0
62
7
6
CONTINUOUS
290
1
370
-3
390
0
0
LAYER
5
1fe
100
AcDbSymbolTableRecord
100
AcDbLayerTableRecord
2
SK6
70
0
62
5
6
CONTINUOUS
290
1
370
-3
390
0
0
LAYER
5
1ff
100
AcDbSymbolTableRecord
100
AcDbLayerTableRecord
2
SK2
70
0
62
7
6
CONTINUOUS
290
1
370
-3
390
0
0
ENDTAB
0
TABLE
2
STYLE
5
215
100
AcDbSymbolTable
0
STYLE
5
11
100
AcDbSymbolTableRecord
100
AcDbTextStyleTableRecord
2
Standard
3
txt
70
0
71
0
40
0
41
1
42
0
50
0
0
STYLE
5
17A
100
AcDbSymbolTableRecord
100
AcDbTextStyleTableRecord
2
iso_b_vert
3
simplex.shx
70
0
71
0
40
0
41
1
42
0
50
0
0
STYLE
5
17B
100
AcDbSymbolTableRecord
100
AcDbTextStyleTableRecord
2
DWGDirectTextStyle
3
simplex
70
0
71
0
40
0
41
1
42
0
50
0
0
ENDTAB
0
TABLE
2
DIMSTYLE
5
216
100
AcDbSymbolTable
100
AcDbDimStyleTable
0
DIMSTYLE
105
27
100
AcDbSymbolTableRecord
100
AcDbDimStyleTableRecord
2
Standard
70
0
3
<>
41
0.18
42
0.0625
44
0.18
140
0.18
147
0.09
73
0
74
0
77
1
271
2
275
0
278
52
280
0
340
11
0
ENDTAB
0
TABLE
2
VIEW
5
217
100
AcDbSymbolTable
0
ENDTAB
0
TABLE
2
UCS
5
218
100
AcDbSymbolTable
0
ENDTAB
0
TABLE
2
APPID
5
219
100
AcDbSymbolTable
0
APPID
5
12
100
AcDbSymbolTableRecord
100
AcDbRegAppTableRecord
2
ACAD
70
0
0
ENDTAB
0
TABLE
2
BLOCK_RECORD
5
21a
100
AcDbSymbolTable
0
BLOCK_RECORD
5
1F
100
AcDbSymbolTableRecord
100
AcDbBlockTableRecord
2
*Model_Space
340
0
70
0
0
BLOCK_RECORD
5
1B
100
AcDbSymbolTableRecord
100
AcDbBlockTableRecord
2
*Paper_Space
340
0
70
0
0
BLOCK_RECORD
5
23
100
AcDbSymbolTableRecord
100
AcDbBlockTableRecord
2
*Paper_Space0
340
0
70
0
0
BLOCK_RECORD
5
17D
100
AcDbSymbolTableRecord
100
AcDbBlockTableRecord
2
DimnDraft3D1
340
0
70
0
0
BLOCK_RECORD
5
188
100
AcDbSymbolTableRecord
100
AcDbBlockTableRecord
2
DimnDraft3D2
340
0
70
0
0
BLOCK_RECORD
5
193
100
AcDbSymbolTableRecord
100
AcDbBlockTableRecord
2
DimnDraft3D3
340
0
70
0
0
ENDTAB
0
ENDSEC
0
SECTION
2
BLOCKS
0
BLOCK
5
20
100
AcDbEntity
8
0
100
AcDbBlockBegin
2
*Model_Space
70
0
10
0
20
0
30
0
3
*Model_Space
0
ENDBLK
5
21
100
AcDbEntity
8
0
100
AcDbBlockEnd
0
BLOCK
5
1C
100
AcDbEntity
8
0
100
AcDbBlockBegin
2
*Paper_Space
70
0
10
0
20
0
30
0
3
*Paper_Space
0
ENDBLK
5
1D
100
AcDbEntity
8
0
100
AcDbBlockEnd
0
BLOCK
5
24
100
AcDbEntity
8
0
100
AcDbBlockBegin
2
*Paper_Space0
70
0
10
0
20
0
30
0
3
*Paper_Space0
0
ENDBLK
5
25
100
AcDbEntity
8
0
100
AcDbBlockEnd
0
BLOCK
5
185
100
AcDbEntity
8
0
100
AcDbBlockBegin
2
DimnDraft3D1
70
0
10
0
20
0
30
0
3
DimnDraft3D1
0
MTEXT
5
17E
100
AcDbEntity
8
SK2
62
256
6
ByLayer
370
18
48
1
60
0
100
AcDbMText
10
-14.125
20
10.646053
30
0
210
0
220
0
230
1
1
\W0.6754;24
40
3.5
41
0
44
1.084337
50
90
71
7
72
5
7
iso_b_vert
0
LINE
5
180
100
AcDbEntity
8
SK2
62
256
6
ByLayer
370
13
48
1
60
0
100
AcDbLine
10
-2
20
24
30
0
11
-15.25
21
24
31
0
39
0
210
0
220
0
230
1
0
LINE
5
181
100
AcDbEntity
8
SK2
62
256
6
ByLayer
370
13
48
1
60
0
100
AcDbLine
10
-7
20
0
30
0
11
-15.25
21
0
31
0
39
0
210
0
220
0
230
1
0
LINE
5
182
100
AcDbEntity
8
SK2
62
256
6
ByLayer
370
13
48
1
60
0
100
AcDbLine
10
-13.25
20
24
30
0
11
-13.25
21
0
31
0
39
0
210
0
220
0
230
1
0
SOLID
5
183
100
AcDbEntity
8
SK2
62
256
6
ByLayer
370
13
48
1
60
0
100
AcDbTrace
10
-13.25
20
24
30
0
11
-12.832003
21
20.825002
31
0
12
-13.667997
22
20.824998
32
0
13
-13.25
23
24
33
0
39
0
210
0
220
0
230
1
0
SOLID
5
184
100
AcDbEntity
8
SK2
62
256
6
ByLayer
370
13
48
1
60
0
100
AcDbTrace
10
-13.25
20
0
30
0
11
-13.667997
21
3.174998
31
0
12
-12.832003
22
3.175002
32
0
13
-13.25
23
0
33
0
39
0
210
0
220
0
230
1
0
ENDBLK
5
186
100
AcDbEntity
8
0
100
AcDbBlockEnd
0
BLOCK
5
190
100
AcDbEntity
8
0
100
AcDbBlockBegin
2
DimnDraft3D2
70
0
10
0
20
0
30
0
3
DimnDraft3D2
0
MTEXT
5
189
100
AcDbEntity
8
2
62
256
6
ByLayer
370
18
48
1
60
0
100
AcDbMText
10
30.6
20
59.125
30
0
210
0
220
0
230
1
1
\W0.6920;64
40
3.5
41
0
44
1.084337
50
0
71
7
72
5
7
iso_b_vert
0
LINE
5
18B
100
AcDbEntity
8
2
62
256
6
ByLayer
370
13
48
1
60
0
100
AcDbLine
10
0
20
2
30
0
11
0
21
60.25
31
0
39
0
210
0
220
0
230
1
0
LINE
5
18C
100
AcDbEntity
8
2
62
256
6
ByLayer
370
13
48
1
60
0
100
AcDbLine
10
64
20
41.7
30
0
11
64
21
60.25
31
0
39
0
210
0
220
0
230
1
0
LINE
5
18D
100
AcDbEntity
8
2
62
256
6
ByLayer
370
13
48
1
60
0
100
AcDbLine
10
0
20
58.25
30
0
11
64
21
58.25
31
0
39
0
210
0
220
0
230
1
0
SOLID
5
18E
100
AcDbEntity
8
2
62
256
6
ByLayer
370
13
48
1
60
0
100
AcDbTrace
10
0
20
58.25
30
0
11
3.174998
21
58.667997
31
0
12
3.175002
22
57.832003
32
0
13
0
23
58.25
33
0
39
0
210
0
220
0
230
1
0
SOLID
5
18F
100
AcDbEntity
8
2
62
256
6
ByLayer
370
13
48
1
60
0
100
AcDbTrace
10
64
20
58.25
30
0
11
60.825002
21
57.832003
31
0
12
60.824998
22
58.667997
32
0
13
64
23
58.25
33
0
39
0
210
0
220
0
230
1
0
ENDBLK
5
191
100
AcDbEntity
8
0
100
AcDbBlockEnd
0
BLOCK
5
19B
100
AcDbEntity
8
0
100
AcDbBlockBegin
2
DimnDraft3D3
70
0
10
0
20
0
30
0
3
DimnDraft3D3
0
MTEXT
5
194
100
AcDbEntity
8
SK2
62
256
6
ByLayer
370
18
48
1
60
0
100
AcDbMText
10
75.875
20
25.708553
30
0
210
0
220
0
230
1
1
\W0.6337;32
40
3.5
41
0
44
1.084337
50
90
71
7
72
5
7
iso_b_vert
0
MTEXT
5
195
100
AcDbEntity
8
SK2
62
256
6
ByLayer
370
18
48
1
60
0
100
AcDbMText
10
75.875
20
19.859868
30
0
210
0
220
0
230
1
1
\W1.1719;%%c
40
3.5
41
0
44
1.084337
50
90
71
7
72
5
7
iso_b_vert
0
LINE
5
196
100
AcDbEntity
8
SK2
62
256
6
ByLayer
370
13
48
1
60
0
100
AcDbLine
10
65.7
20
40
30
0
11
78.75
21
40
31
0
39
0
210
0
220
0
230
1
0
LINE
5
197
100
AcDbEntity
8
SK2
62
256
6
ByLayer
370
13
48
1
60
0
100
AcDbLine
10
65.7
20
8
30
0
11
78.75
21
8
31
0
39
0
210
0
220
0
230
1
0
LINE
5
198
100
AcDbEntity
8
SK2
62
256
6
ByLayer
370
13
48
1
60
0
100
AcDbLine
10
76.75
20
40
30
0
11
76.75
21
8
31
0
39
0
210
0
220
0
230
1
0
SOLID
5
199
100
AcDbEntity
8
SK2
62
256
6
ByLayer
370
13
48
1
60
0
100
AcDbTrace
10
76.75
20
40
30
0
11
77.167997
21
36.825002
31
0
12
76.332003
22
36.824998
32
0
13
76.75
23
40
33
0
39
0
210
0
220
0
230
1
0
SOLID
5
19A
100
AcDbEntity
8
SK2
62
256
6
ByLayer
370
13
48
1
60
0
100
AcDbTrace
10
76.75
20
8
30
0
11
76.332003
21
11.174998
31
0
12
77.167997
22
11.175002
32
0
13
76.75
23
8
33
0
39
0
210
0
220
0
230
1
0
ENDBLK
5
19C
100
AcDbEntity
8
0
100
AcDbBlockEnd
0
ENDSEC
0
SECTION
2
ENTITIES
0
ARC
5
FD
100
AcDbEntity
8
1
62
256
6
ByLayer
370
13
48
1
60
0
100
AcDbCircle
39
0
10
6.5
20
16
30
0
40
2
210
0
220
0
230
1
100
AcDbArc
50
75
51
345
0
CIRCLE
5
FE
100
AcDbEntity
8
1
62
256
6
ByLayer
370
13
48
1
60
0
100
AcDbCircle
10
6.5
20
16
30
0
40
1.71585
39
0
210
0
220
0
230
1
0
CIRCLE
5
FF
100
AcDbEntity
8
1
62
256
6
ByLayer
370
18
48
1
60
0
100
AcDbCircle
10
6.5
20
16
30
0
40
1.5
39
0
210
0
220
0
230
1
0
ELLIPSE
5
100
100
AcDbEntity
8
1
62
256
6
ByLayer
370
13
48
1
60
0
100
AcDbEllipse
10
-8.443714
20
0.000158
30
0
11
69.2818919764766
21
-2.91740241679258E-05
31
0
210
0
220
0
230
-1
40
0.577349
41
-1.4533429271388
42
-1.44359944484829
0
ELLIPSE
5
101
100
AcDbEntity
8
1
62
256
6
ByLayer
370
13
48
1
60
0
100
AcDbEllipse
10
-0.86463
20
0
30
0
11
-3.21459167878367E-16
21
5.24999999999989
31
0
210
0
220
0
230
-1
40
0.008727
41
-0.411516840963391
42
-2.73007581262652
0
ELLIPSE
5
102
100
AcDbEntity
8
1
62
256
6
ByLayer
370
13
48
1
60
0
100
AcDbEllipse
10
-1.074075
20
0
30
0
11
-2.4492127072798E-15
21
39.9999999940397
31
0
210
0
220
0
230
-1
40
0.008727
41
0.579373756386649
42
0.989592886707735
0
ELLIPSE
5
103
100
AcDbEntity
8
1
62
256
6
ByLayer
370
13
48
1
60
0
100
AcDbEllipse
10
-0.957372
20
8.784483
30
0
11
-1.46952762458664E-15
21
23.9999999999965
31
0
210
0
220
0
230
-1
40
0.008727
41
0.989592886679762
42
2.77835946992286
0
ELLIPSE
5
104
100
AcDbEntity
8
1
62
256
6
ByLayer
370
13
48
1
60
0
100
AcDbEllipse
10
-0.838449
20
16
30
0
11
-1.53075794227776E-16
21
2.49999999999966
31
0
210
0
220
0
230
-1
40
0.008727
41
0
42
6.28318530717959
0
ELLIPSE
5
105
100
AcDbEntity
8
1
62
256
6
ByLayer
370
13
48
1
60
0
100
AcDbEllipse
10
7.644204
20
8.784483
30
0
11
-1.4695276256411E-15
21
24.0000000172177
31
0
210
0
220
0
230
-1
40
1
41
-2.8610867585544
42
-2.77835946365798
0
ELLIPSE
5
106
100
AcDbEntity
8
1
62
256
6
ByLayer
370
13
48
1
60
0
100
AcDbEllipse
10
21.017044
20
0
30
0
11
39.999999977252
21
4.04255621803045E-14
31
0
210
0
220
0
230
-1
40
1
41
-2.15017008712999
42
-2.0948871852499
0
ELLIPSE
5
107
100
AcDbEntity
8
1
62
256
6
ByLayer
370
13
48
1
60
0
100
AcDbEllipse
10
-15.017043
20
2E-06
30
0
11
36.9317035951337
21
-15.3638928497906
31
0
210
0
220
0
230
-1
40
1
41
-1.58686483387489
42
-1.55304448687552
0
ELLIPSE
5
108
100
AcDbEntity
8
1
62
256
6
ByLayer
370
13
48
1
60
0
100
AcDbEllipse
10
25.331404
20
-0.000238
30
0
11
69.2822827886249
21
-0.000129906977772615
31
0
210
0
220
0
230
-1
40
0.577352
41
-1.94895992619315
42
-1.93975822263908
0
ELLIPSE
5
109
100
AcDbEntity
8
1
62
256
6
ByLayer
370
13
48
1
60
0
100
AcDbEllipse
10
-24.032334
20
-0.000201
30
0
11
69.2822399133706
21
0.0001045985736506
31
0
210
0
220
0
230
-1
40
0.577351
41
-1.2215543081216
42
-1.21124288372127
0
ELLIPSE
5
10A
100
AcDbEntity
8
1
62
256
6
ByLayer
370
13
48
1
60
0
100
AcDbEllipse
10
22.733103
20
0.000106
30
0
11
69.2819248833428
21
5.20040025455346E-05
31
0
210
0
220
0
230
-1
40
0.57735
41
-1.91008368480734
42
-1.89984673406471
0
ELLIPSE
5
10B
100
AcDbEntity
8
1
62
256
6
ByLayer
370
13
48
1
60
0
100
AcDbEllipse
10
-21.434447
20
-0.000565
30
0
11
69.2825965009061
21
0.000262413401838193
31
0
210
0
220
0
230
-1
40
0.577354
41
-1.26118524889087
42
-1.25101523128441
0
ELLIPSE
5
10C
100
AcDbEntity
8
1
62
256
6
ByLayer
370
13
48
1
60
0
100
AcDbEllipse
10
20.134953
20
0.000262
30
0
11
69.2817753873779
21
0.00011424832422984
31
0
210
0
220
0
230
-1
40
0.577349
41
-1.87058066069933
42
-1.86047417515355
0
ELLIPSE
5
10D
100
AcDbEntity
8
1
62
256
6
ByLayer
370
13
48
1
60
0
100
AcDbEllipse
10
-18.836044
20
1.7E-05
30
0
11
69.282015437975
21
-7.34191927646087E-06
31
0
210
0
220
0
230
-1
40
0.57735
41
-1.30032681654331
42
-1.29027719356223
0
ELLIPSE
5
10E
100
AcDbEntity
8
1
62
256
6
ByLayer
370
13
48
1
60
0
100
AcDbEllipse
10
17.536975
20
8.7E-05
30
0
11
69.2819494141241
21
3.29744721463428E-05
31
0
210
0
220
0
230
-1
40
0.57735
41
-1.83155685665749
42
-1.8215610293364
0
ELLIPSE
5
10F
100
AcDbEntity
8
1
62
256
6
ByLayer
370
13
48
1
60
0
100
AcDbEllipse
10
-16.237928
20
0.000117
30
0
11
69.2819225261237
21
-4.09235365084195E-05
31
0
210
0
220
0
230
-1
40
0.577349
41
-1.33904399455601
42
-1.32909587766676
0
ELLIPSE
5
110
100
AcDbEntity
8
1
62
256
6
ByLayer
370
13
48
1
60
0
100
AcDbEllipse
10
14.938841
20
0.000254
30
0
11
69.2817964700043
21
8.21794873588564E-05
31
0
210
0
220
0
230
-1
40
0.577349
41
-1.79293336184495
42
-1.78303001984246
0
ELLIPSE
5
111
100
AcDbEntity
8
1
62
256
6
ByLayer
370
13
48
1
60
0
100
AcDbEllipse
10
-13.639881
20
5.5E-05
30
0
11
69.2819815348999
21
-1.62600197540556E-05
31
0
210
0
220
0
230
-1
40
0.57735
41
-1.37740942168461
42
-1.36754541545221
0
ELLIPSE
5
112
100
AcDbEntity
8
1
62
256
6
ByLayer
370
13
48
1
60
0
100
AcDbEllipse
10
12.340966
20
-0.000332
30
0
11
69.2823339725035
21
-8.87676981550235E-05
31
0
210
0
220
0
230
-1
40
0.577353
41
-1.75464772048604
42
-1.74482019513823
0
ELLIPSE
5
113
100
AcDbEntity
8
1
62
256
6
ByLayer
370
13
48
1
60
0
100
AcDbEllipse
10
-11.041851
20
-9.8E-05
30
0
11
69.2821202518125
21
2.327185640408E-05
31
0
210
0
220
0
230
-1
40
0.577351
41
-1.41548830896338
42
-1.40569222141097
0
ELLIPSE
5
114
100
AcDbEntity
8
1
62
256
6
ByLayer
370
13
48
1
60
0
100
AcDbEllipse
10
9.742756
20
0.000122
30
0
11
69.281923781065
21
2.56800222491872E-05
31
0
210
0
220
0
230
-1
40
0.577349
41
-1.71662823179445
42
-1.70686069866787
0
ELLIPSE
5
115
100
AcDbEntity
8
1
62
256
6
ByLayer
370
13
48
1
60
0
100
AcDbEllipse
10
7.144744
20
-0.000189
30
0
11
69.282198589565
21
-2.92553250528233E-05
31
0
210
0
220
0
230
-1
40
0.577352
41
-1.67882275514091
42
-1.66910043167491
0
ELLIPSE
5
116
100
AcDbEntity
8
1
62
256
6
ByLayer
370
13
48
1
60
0
100
AcDbEllipse
10
-5.845665
20
4.5E-05
30
0
11
69.281993328001
21
-5.71514215134683E-06
31
0
210
0
220
0
230
-1
40
0.57735
41
-1.49102782822127
42
-1.4813224395959
0
ELLIPSE
5
117
100
AcDbEntity
8
1
62
256
6
ByLayer
370
13
48
1
60
0
100
AcDbEllipse
10
4.546616
20
0.000154
30
0
11
69.2818984769658
21
1.4964014848394E-05
31
0
210
0
220
0
230
-1
40
0.577349
41
-1.64117013224278
42
-1.63147865882924
0
ELLIPSE
5
118
100
AcDbEntity
8
1
62
256
6
ByLayer
370
13
48
1
60
0
100
AcDbEllipse
10
-3.247595
20
8E-06
30
0
11
69.2820249962668
21
-4.41451073691554E-07
31
0
210
0
220
0
230
-1
40
0.57735
41
-1.52859978327023
42
-1.51891841943532
0
ELLIPSE
5
119
100
AcDbEntity
8
1
62
256
6
ByLayer
370
13
48
1
60
0
100
AcDbEllipse
10
1.948549
20
0.000182
30
0
11
69.2818744487044
21
7.46580224838253E-06
31
0
210
0
220
0
230
-1
40
0.577349
41
-1.60361807849276
42
-1.59394361376882
0
ELLIPSE
5
11A
100
AcDbEntity
8
1
62
256
6
ByLayer
370
13
48
1
60
0
100
AcDbEllipse
10
-0.649515
20
0.000258
30
0
11
69.2818086392016
21
-3.53835104340664E-06
31
0
210
0
220
0
230
-1
40
0.577348
41
-1.56611235394423
42
-1.55644122982231
0
ELLIPSE
5
11B
100
AcDbEntity
8
1
62
256
6
ByLayer
370
13
48
1
60
0
100
AcDbEllipse
10
-0.649591
20
58.008211
30
0
11
129.910921415015
21
-6.25925846129013E-05
31
0
210
0
220
0
230
-1
40
0.577382
41
1.5631400253327
42
1.56829747761859
0
ELLIPSE
5
11C
100
AcDbEntity
8
1
62
256
6
ByLayer
370
13
48
1
60
0
100
AcDbEllipse
10
1.948493
20
57.997544
30
0
11
129.901682502338
21
-5.51581809848735E-05
31
0
210
0
220
0
230
-1
40
0.577341
41
1.5831402957591
42
1.58829862276324
0
ELLIPSE
5
11D
100
AcDbEntity
8
1
62
256
6
ByLayer
370
13
48
1
60
0
100
AcDbEllipse
10
-3.247558
20
57.999149
30
0
11
129.903073048055
21
3.21500390112046E-05
31
0
210
0
220
0
230
-1
40
0.577347
41
1.54313726074252
42
1.54829658062935
0
ELLIPSE
5
11E
100
AcDbEntity
8
1
62
256
6
ByLayer
370
13
48
1
60
0
100
AcDbEllipse
10
4.546815
20
58.002981
30
0
11
129.906397217147
21
0.000157200270601356
31
0
210
0
220
0
230
-1
40
0.577362
41
1.60314761082446
42
1.60830832441076
0
ELLIPSE
5
11F
100
AcDbEntity
8
1
62
256
6
ByLayer
370
13
48
1
60
0
100
AcDbEllipse
10
-5.84528
20
57.994993
30
0
11
129.899461009682
21
0.000339045964798225
31
0
210
0
220
0
230
-1
40
0.577331
41
1.52312538865833
42
1.52828847737055
0
ELLIPSE
5
120
100
AcDbEntity
8
1
62
256
6
ByLayer
370
13
48
1
60
0
100
AcDbEllipse
10
7.144937
20
58.002403
30
0
11
129.905900926347
21
0.000196655814213973
31
0
210
0
220
0
230
-1
40
0.577359
41
1.62316623172968
42
1.6283316138431
0
ELLIPSE
5
121
100
AcDbEntity
8
1
62
256
6
ByLayer
370
13
48
1
60
0
100
AcDbEllipse
10
-8.443018
20
57.993542
30
0
11
129.898182203271
21
0.000630345206373816
31
0
210
0
220
0
230
-1
40
0.577326
41
1.5030942872856
42
1.50826313472115
0
ELLIPSE
5
122
100
AcDbEntity
8
1
62
256
6
ByLayer
370
13
48
1
60
0
100
AcDbEllipse
10
9.743936
20
58.008831
30
0
11
129.911522530553
21
0.000993155964746054
31
0
210
0
220
0
230
-1
40
0.577384
41
1.64321275185036
42
1.64838465219024
0
ELLIPSE
5
123
100
AcDbEntity
8
1
62
256
6
ByLayer
370
13
48
1
60
0
100
AcDbEllipse
10
-11.041169
20
57.995591
30
0
11
129.899949962781
21
0.000564747519930893
31
0
210
0
220
0
230
-1
40
0.577333
41
1.48303282757205
42
1.48820941637476
0
ELLIPSE
5
124
100
AcDbEntity
8
1
62
256
6
ByLayer
370
13
48
1
60
0
100
AcDbEllipse
10
12.340724
20
57.999157
30
0
11
129.903070582785
21
-0.000118688550495997
31
0
210
0
220
0
230
-1
40
0.577347
41
1.66327120169203
42
1.66845229376822
0
ELLIPSE
5
125
100
AcDbEntity
8
1
62
256
6
ByLayer
370
13
48
1
60
0
100
AcDbEllipse
10
-13.639475
20
57.997682
30
0
11
129.90176999527
21
0.000365672828572454
31
0
210
0
220
0
230
-1
40
0.577341
41
1.46293468440518
42
1.46812114468944
0
ELLIPSE
5
126
100
AcDbEntity
8
1
62
256
6
ByLayer
370
13
48
1
60
0
100
AcDbEllipse
10
14.939845
20
58.00454
30
0
11
129.9078205054
21
0.000780205072319636
31
0
210
0
220
0
230
-1
40
0.577367
41
1.68338519060505
42
1.68857710141465
0
ELLIPSE
5
127
100
AcDbEntity
8
1
62
256
6
ByLayer
370
13
48
1
60
0
100
AcDbEllipse
10
-16.236933
20
57.995216
30
0
11
129.899569801689
21
0.000896364918000662
31
0
210
0
220
0
230
-1
40
0.577332
41
1.44279911433906
42
1.44799777348315
0
ELLIPSE
5
128
100
AcDbEntity
8
1
62
256
6
ByLayer
370
13
48
1
60
0
100
AcDbEllipse
10
17.538539
20
58.006458
30
0
11
129.909557844239
21
0.00130819696033021
31
0
210
0
220
0
230
-1
40
0.577374
41
1.7035416728332
42
1.70874671173179
0
ELLIPSE
5
129
100
AcDbEntity
8
1
62
256
6
ByLayer
370
13
48
1
60
0
100
AcDbEllipse
10
-18.835545
20
57.998018
30
0
11
129.902037931116
21
0.00043514269928126
31
0
210
0
220
0
230
-1
40
0.577343
41
1.42260249460214
42
1.42781538255143
0
ELLIPSE
5
12A
100
AcDbEntity
8
1
62
256
6
ByLayer
370
13
48
1
60
0
100
AcDbEllipse
10
20.135162
20
58.000252
30
0
11
129.904037849594
21
6.13906287307857E-05
31
0
210
0
220
0
230
-1
40
0.577351
41
1.72373660548248
42
1.72895729717085
0
ELLIPSE
5
12B
100
AcDbEntity
8
1
62
256
6
ByLayer
370
13
48
1
60
0
100
AcDbEllipse
10
-21.43269
20
57.995033
30
0
11
129.899330753399
21
0.0012289924575696
31
0
210
0
220
0
230
-1
40
0.577332
41
1.40235582018417
42
1.40758540848532
0
ELLIPSE
5
12C
100
AcDbEntity
8
1
62
256
6
ByLayer
370
13
48
1
60
0
100
AcDbEllipse
10
22.734745
20
58.005125
30
0
11
129.908456909417
21
0.00134564675830844
31
0
210
0
220
0
230
-1
40
0.577369
41
1.74401735608073
42
1.74925560874067
0
ELLIPSE
5
12D
100
AcDbEntity
8
1
62
256
6
ByLayer
370
13
48
1
60
0
100
AcDbEllipse
10
-24.029026
20
57.990256
30
0
11
129.89492876538
21
0.00270525738521475
31
0
210
0
220
0
230
-1
40
0.577315
41
1.38204519072069
42
1.38729387682149
0
ELLIPSE
5
12E
100
AcDbEntity
8
1
62
256
6
ByLayer
370
13
48
1
60
0
100
AcDbEllipse
10
25.330721
20
57.998485
30
0
11
129.902421947113
21
-0.000443693856431646
31
0
210
0
220
0
230
-1
40
0.577345
41
1.76434273533669
42
1.76900098403763
0
ELLIPSE
5
12F
100
AcDbEntity
8
1
62
256
6
ByLayer
370
13
48
1
60
0
100
AcDbEllipse
10
-15.017031
20
57.99994
30
0
11
73.4108892818733
21
15.3569772401077
31
0
210
0
220
0
230
-1
40
1
41
1.56179642146988
42
1.57880602709676
0
POINT
5
6C
100
AcDbEntity
8
80
62
256
6
ByLayer
370
13
48
1
60
0
100
AcDbPoint
10
0
20
0
30
0
39
0
210
0
220
0
230
1
50
360
0
POINT
5
6E
100
AcDbEntity
8
81
62
256
6
ByLayer
370
13
48
1
60
0
100
AcDbPoint
10
64
20
24
30
0
39
0
210
0
220
0
230
1
50
360
0
POINT
5
70
100
AcDbEntity
8
1
62
256
6
ByLayer
370
13
48
1
60
1
100
AcDbPoint
10
276.426281
20
175.173124
30
0
39
0
210
0
220
0
230
1
50
360
0
POINT
5
72
100
AcDbEntity
8
1
62
256
6
ByLayer
370
13
48
1
60
1
100
AcDbPoint
10
187.663825
20
175.173124
30
0
39
0
210
0
220
0
230
1
50
360
0
POINT
5
73
100
AcDbEntity
8
1
62
256
6
ByLayer
370
13
48
1
60
1
100
AcDbPoint
10
223.924544
20
165.173124
30
0
39
0
210
0
220
0
230
1
50
360
0
POINT
5
74
100
AcDbEntity
8
1
62
256
6
ByLayer
370
13
48
1
60
1
100
AcDbPoint
10
287.363825
20
165.173124
30
0
39
0
210
0
220
0
230
1
50
360
0
POINT
5
75
100
AcDbEntity
8
1
62
256
6
ByLayer
370
18
48
1
60
1
100
AcDbPoint
10
278.863825
20
196.673124
30
0
39
0
210
0
220
0
230
1
50
360
0
POINT
5
76
100
AcDbEntity
8
1
62
256
6
ByLayer
370
18
48
1
60
1
100
AcDbPoint
10
278.863825
20
133.673124
30
0
39
0
210
0
220
0
230
1
50
360
0
POINT
5
77
100
AcDbEntity
8
1
62
256
6
ByLayer
370
13
48
1
60
1
100
AcDbPoint
10
163.741873
20
151.064532
30
0
39
0
210
0
220
0
230
1
50
360
0
POINT
5
78
100
AcDbEntity
8
1
62
256
6
ByLayer
370
13
48
1
60
1
100
AcDbPoint
10
163.741873
20
151.064532
30
0
39
0
210
0
220
0
230
1
50
360
0
POINT
5
79
100
AcDbEntity
8
1
62
256
6
ByLayer
370
13
48
1
60
1
100
AcDbPoint
10
163.741873
20
151.064532
30
0
39
0
210
0
220
0
230
1
50
360
0
SPLINE
5
130
100
AcDbEntity
8
1
62
256
6
ByLayer
370
18
48
1
60
1
100
AcDbSpline
70
4
71
3
72
11
73
7
40
0
40
0
40
0
40
0
40
0.264736090039167
40
0.505383016247574
40
0.746029942455982
40
1
40
1
40
1
40
1
41
1
10
-414.778517083935
20
873.157104635017
30
-2.38
41
1
10
-414.811380267814
20
873.134093585935
30
-2.16997603523559
41
1
10
-414.874116311811
20
873.090165335011
30
-1.76903884234585
41
1
10
-414.966725215926
20
873.025319882244
30
-1.17718842133077
41
1
10
-415.05799767171
20
872.961410220673
30
-0.593879052761846
41
1
10
-415.119397267377
20
872.918417760945
30
-0.201482912318254
41
1
10
-415.150924002925
20
872.896342503058
30
0
0
SPLINE
5
131
100
AcDbEntity
8
1
62
256
6
ByLayer
370
18
48
1
60
1
100
AcDbSpline
70
4
71
3
72
11
73
7
40
0
40
0
40
0
40
0
40
0.264736090039167
40
0.505383016247574
40
0.746029942455982
40
1
40
1
40
1
40
1
41
1
10
-407.431053779592
20
878.301853827437
30
-2.38
41
1
10
-407.398190595713
20
878.324864876519
30
-2.16997603523559
41
1
10
-407.335454551716
20
878.368793127443
30
-1.76903884234585
41
1
10
-407.242845647601
20
878.433638580209
30
-1.17718842133077
41
1
10
-407.151573191817
20
878.49754824178
30
-0.593879052761846
41
1
10
-407.090173596151
20
878.540540701509
30
-0.201482912318254
41
1
10
-407.058646860602
20
878.562615959395
30
0
0
SPLINE
5
132
100
AcDbEntity
8
1
62
256
6
ByLayer
370
18
48
1
60
1
100
AcDbSpline
70
4
71
3
72
13
73
9
40
0
40
0
40
0
40
0
40
0.194056351224286
40
0.368982012730964
40
0.500176258860972
40
0.63137050499098
40
0.806296166497658
40
1
40
1
40
1
40
1
41
1
10
-413.263264006694
20
878.812106105608
30
-2.38
41
1
10
-413.27741753311
20
878.832319436149
30
-2.22604862802873
41
1
10
-413.304329286483
20
878.870753403086
30
-1.93332289792884
41
1
10
-413.340809710072
20
878.92285284732
30
-1.53651639923246
41
1
10
-413.372705277461
20
878.968404438311
30
-1.18958050391089
41
1
10
-413.404600844851
20
879.013956029301
30
-0.84264460858931
41
1
10
-413.441055557512
20
879.066018754525
30
-0.446117773952347
41
1
10
-413.467941599956
20
879.104416002451
30
-0.153671707911858
41
1
10
-413.482069415445
20
879.124592613981
30
0
0
SPLINE
5
133
100
AcDbEntity
8
1
62
256
6
ByLayer
370
18
48
1
60
1
100
AcDbSpline
70
4
71
3
72
13
73
9
40
0
40
0
40
0
40
0
40
0.194056351224286
40
0.368982012730964
40
0.500176258860972
40
0.63137050499098
40
0.806296166497658
40
1
40
1
40
1
40
1
41
1
10
-408.946306856834
20
872.646852356845
30
-2.38
41
1
10
-408.932153330417
20
872.626639026305
30
-2.22604862802873
41
1
10
-408.905241577045
20
872.588205059368
30
-1.93332289792884
41
1
10
-408.868761153456
20
872.536105615134
30
-1.53651639923246
41
1
10
-408.836865586066
20
872.490554024143
30
-1.18958050391089
41
1
10
-408.804970018677
20
872.445002433152
30
-0.84264460858931
41
1
10
-408.768515306016
20
872.392939707929
30
-0.446117773952347
41
1
10
-408.741629263572
20
872.354542460003
30
-0.153671707911858
41
1
10
-408.727501448083
20
872.334365848473
30
0
0
SPLINE
5
134
100
AcDbEntity
8
1
62
256
6
ByLayer
370
18
48
1
60
1
100
AcDbSpline
70
4
71
3
72
11
73
7
40
0
40
0
40
0
40
0
40
0.264736090039167
40
0.505383016247574
40
0.746029942455982
40
1
40
1
40
1
40
1
41
1
10
-428.7908907235
20
879.333951406164
30
-2.7260753721363
41
1
10
-428.746836858612
20
879.372452995544
30
-2.52041437045278
41
1
10
-428.66273772762
20
879.445952794415
30
-2.12780610408481
41
1
10
-428.538593330525
20
879.554450802774
30
-1.54825057303238
41
1
10
-428.416240473605
20
879.661383065556
30
-0.977058665642987
41
1
10
-428.333932882788
20
879.733317118847
30
-0.592814022938045
41
1
10
-428.291670558074
20
879.77025296265
30
-0.39551664491756
0
SPLINE
5
135
100
AcDbEntity
8
1
62
256
6
ByLayer
370
18
48
1
60
1
100
AcDbSpline
70
4
71
3
72
11
73
7
40
0
40
0
40
0
40
0
40
0.264736090039167
40
0.505383016247574
40
0.746029942455982
40
1
40
1
40
1
40
1
41
1
10
-433.89928183315
20
871.996230220737
30
-2.00784884981668
41
1
10
-433.900924827004
20
871.96909259
30
-1.79576298847968
41
1
10
-433.904061313567
20
871.917286666321
30
-1.39088962085497
41
1
10
-433.908691292841
20
871.840812449701
30
-0.793228746942546
41
1
10
-433.913254456422
20
871.765441840126
30
-0.204192776701463
41
1
10
-433.916324127293
20
871.714739523494
30
0.192055687251906
41
1
10
-433.917900305453
20
871.688705499804
30
0.395516644917561
0
SPLINE
5
136
100
AcDbEntity
8
1
62
256
6
ByLayer
370
18
48
1
60
1
100
AcDbSpline
70
4
71
3
72
13
73
9
40
0
40
0
40
0
40
0
40
0.194056351224286
40
0.368982012730964
40
0.500176258860972
40
0.63137050499098
40
0.806296166497658
40
1
40
1
40
1
40
1
41
1
10
-428.275259052307
20
873.503182583078
30
-2.61980951740564
41
1
10
-428.239585682835
20
873.493171561608
30
-2.46835947239721
41
1
10
-428.171755737638
20
873.474136436871
30
-2.1803898074888
41
1
10
-428.079808360648
20
873.448333234684
30
-1.79003042765541
41
1
10
-427.999416921336
20
873.425772976517
30
-1.44873137790546
41
1
10
-427.919025482024
20
873.40321271835
30
-1.10743232815552
41
1
10
-427.827142908349
20
873.377427701924
30
-0.717348068536015
41
1
10
-427.759377766467
20
873.358410762948
30
-0.429653523841492
41
1
10
-427.723769200311
20
873.348417927239
30
-0.278478599046945
0
SPLINE
5
137
100
AcDbEntity
8
1
62
256
6
ByLayer
370
18
48
1
60
1
100
AcDbSpline
70
4
71
3
72
13
73
9
40
0
40
0
40
0
40
0
40
0.194056351224286
40
0.368982012730964
40
0.500176258860972
40
0.63137050499098
40
0.806296166497658
40
1
40
1
40
1
40
1
41
1
10
-434.414913504343
20
877.826999043823
30
-2.11411470454734
41
1
10
-434.419498936828
20
877.845340052903
30
-1.95934872906095
41
1
10
-434.428217755341
20
877.880213956298
30
-1.66507409812534
41
1
10
-434.440036613376
20
877.92748753043
30
-1.2661679756028
41
1
10
-434.450370078446
20
877.968819766219
30
-0.917396336979738
41
1
10
-434.460703543516
20
878.010152002007
30
-0.568624698356674
41
1
10
-434.472514071773
20
878.057392258339
30
-0.169999719681113
41
1
10
-434.481224560509
20
878.092232843935
30
0.123993767407529
41
1
10
-434.485801663216
20
878.110540535215
30
0.278478599046944
0
SPLINE
5
138
100
AcDbEntity
8
1
62
256
6
ByLayer
370
18
48
1
60
1
100
AcDbSpline
70
4
71
3
72
11
73
7
40
0
40
0
40
0
40
0
40
0.264736090039167
40
0.505383016247574
40
0.746029942455982
40
1
40
1
40
1
40
1
41
1
10
-343.967257520151
20
1505.05327841336
30
-2.38
41
1
10
-344.00012070403
20
1505.03026736428
30
-2.16997603523559
41
1
10
-344.062856748027
20
1504.98633911335
30
-1.76903884234585
41
1
10
-344.155465652142
20
1504.92149366059
30
-1.17718842133077
41
1
10
-344.246738107926
20
1504.85758399902
30
-0.593879052761846
41
1
10
-344.308137703593
20
1504.81459153929
30
-0.201482912318254
41
1
10
-344.339664439141
20
1504.7925162814
30
0
0
SPLINE
5
139
100
AcDbEntity
8
1
62
256
6
ByLayer
370
18
48
1
60
1
100
AcDbSpline
70
4
71
3
72
11
73
7
40
0
40
0
40
0
40
0
40
0.264736090039167
40
0.505383016247574
40
0.746029942455982
40
1
40
1
40
1
40
1
41
1
10
-336.619794215808
20
1510.19802760578
30
-2.38
41
1
10
-336.586931031929
20
1510.22103865486
30
-2.16997603523559
41
1
10
-336.524194987932
20
1510.26496690579
30
-1.76903884234585
41
1
10
-336.431586083817
20
1510.32981235855
30
-1.17718842133077
41
1
10
-336.340313628033
20
1510.39372202012
30
-0.593879052761846
41
1
10
-336.278914032366
20
1510.43671447985
30
-0.201482912318254
41
1
10
-336.247387296818
20
1510.45878973774
30
0
0
SPLINE
5
13A
100
AcDbEntity
8
1
62
256
6
ByLayer
370
18
48
1
60
1
100
AcDbSpline
70
4
71
3
72
13
73
9
40
0
40
0
40
0
40
0
40
0.194056351224286
40
0.368982012730964
40
0.500176258860972
40
0.63137050499098
40
0.806296166497658
40
1
40
1
40
1
40
1
41
1
10
-342.452004442909
20
1510.70827988395
30
-2.38
41
1
10
-342.466157969326
20
1510.72849321449
30
-2.22604862802873
41
1
10
-342.493069722699
20
1510.76692718143
30
-1.93332289792884
41
1
10
-342.529550146288
20
1510.81902662566
30
-1.53651639923246
41
1
10
-342.561445713677
20
1510.86457821665
30
-1.18958050391089
41
1
10
-342.593341281066
20
1510.91012980765
30
-0.84264460858931
41
1
10
-342.629795993727
20
1510.96219253287
30
-0.446117773952347
41
1
10
-342.656682036172
20
1511.00058978079
30
-0.153671707911858
41
1
10
-342.670809851661
20
1511.02076639232
30
0
0
SPLINE
5
13B
100
AcDbEntity
8
1
62
256
6
ByLayer
370
18
48
1
60
1
100
AcDbSpline
70
4
71
3
72
13
73
9
40
0
40
0
40
0
40
0
40
0.194056351224286
40
0.368982012730964
40
0.500176258860972
40
0.63137050499098
40
0.806296166497658
40
1
40
1
40
1
40
1
41
1
10
-338.13504729305
20
1504.54302613519
30
-2.38
41
1
10
-338.120893766633
20
1504.52281280465
30
-2.22604862802873
41
1
10
-338.09398201326
20
1504.48437883771
30
-1.93332289792884
41
1
10
-338.057501589671
20
1504.43227939348
30
-1.53651639923246
41
1
10
-338.025606022282
20
1504.38672780249
30
-1.18958050391089
41
1
10
-337.993710454893
20
1504.3411762115
30
-0.84264460858931
41
1
10
-337.957255742232
20
1504.28911348627
30
-0.446117773952347
41
1
10
-337.930369699787
20
1504.25071623835
30
-0.153671707911858
41
1
10
-337.916241884298
20
1504.23053962682
30
0
0
SPLINE
5
13C
100
AcDbEntity
8
1
62
256
6
ByLayer
370
18
48
1
60
1
100
AcDbSpline
70
4
71
3
72
11
73
7
40
0
40
0
40
0
40
0
40
0.264736090039167
40
0.505383016247574
40
0.746029942455982
40
1
40
1
40
1
40
1
41
1
10
-357.979631159715
20
1511.23012518451
30
-2.7260753721363
41
1
10
-357.935577294827
20
1511.26862677389
30
-2.52041437045278
41
1
10
-357.851478163836
20
1511.34212657276
30
-2.12780610408481
41
1
10
-357.727333766741
20
1511.45062458112
30
-1.54825057303238
41
1
10
-357.60498090982
20
1511.5575568439
30
-0.977058665642987
41
1
10
-357.522673319003
20
1511.62949089719
30
-0.592814022938045
41
1
10
-357.48041099429
20
1511.66642674099
30
-0.39551664491756
0
SPLINE
5
13D
100
AcDbEntity
8
1
62
256
6
ByLayer
370
18
48
1
60
1
100
AcDbSpline
70
4
71
3
72
11
73
7
40
0
40
0
40
0
40
0
40
0.264736090039167
40
0.505383016247574
40
0.746029942455982
40
1
40
1
40
1
40
1
41
1
10
-363.088022269366
20
1503.89240399908
30
-2.00784884981668
41
1
10
-363.089665263219
20
1503.86526636834
30
-1.79576298847968
41
1
10
-363.092801749783
20
1503.81346044467
30
-1.39088962085497
41
1
10
-363.097431729056
20
1503.73698622804
30
-0.793228746942546
41
1
10
-363.101994892637
20
1503.66161561847
30
-0.204192776701463
41
1
10
-363.105064563508
20
1503.61091330184
30
0.192055687251906
41
1
10
-363.106640741669
20
1503.58487927815
30
0.395516644917561
0
SPLINE
5
13E
100
AcDbEntity
8
1
62
256
6
ByLayer
370
18
48
1
60
1
100
AcDbSpline
70
4
71
3
72
13
73
9
40
0
40
0
40
0
40
0
40
0.194056351224286
40
0.368982012730964
40
0.500176258860972
40
0.63137050499098
40
0.806296166497658
40
1
40
1
40
1
40
1
41
1
10
-357.463999488523
20
1505.39935636142
30
-2.61980951740564
41
1
10
-357.428326119051
20
1505.38934533995
30
-2.46835947239721
41
1
10
-357.360496173854
20
1505.37031021521
30
-2.1803898074888
41
1
10
-357.268548796864
20
1505.34450701303
30
-1.79003042765541
41
1
10
-357.188157357552
20
1505.32194675486
30
-1.44873137790546
41
1
10
-357.107765918239
20
1505.29938649669
30
-1.10743232815552
41
1
10
-357.015883344564
20
1505.27360148027
30
-0.717348068536015
41
1
10
-356.948118202683
20
1505.25458454129
30
-0.429653523841492
41
1
10
-356.912509636527
20
1505.24459170558
30
-0.278478599046945
0
SPLINE
5
13F
100
AcDbEntity
8
1
62
256
6
ByLayer
370
18
48
1
60
1
100
AcDbSpline
70
4
71
3
72
13
73
9
40
0
40
0
40
0
40
0
40
0.194056351224286
40
0.368982012730964
40
0.500176258860972
40
0.63137050499098
40
0.806296166497658
40
1
40
1
40
1
40
1
41
1
10
-363.603653940558
20
1509.72317282217
30
-2.11411470454734
41
1
10
-363.608239373044
20
1509.74151383125
30
-1.95934872906095
41
1
10
-363.616958191557
20
1509.77638773464
30
-1.66507409812534
41
1
10
-363.628777049591
20
1509.82366130877
30
-1.2661679756028
41
1
10
-363.639110514662
20
1509.86499354456
30
-0.917396336979738
41
1
10
-363.649443979731
20
1509.90632578035
30
-0.568624698356674
41
1
10
-363.661254507988
20
1509.95356603668
30
-0.169999719681113
41
1
10
-363.669964996724
20
1509.98840662228
30
0.123993767407529
41
1
10
-363.674542099432
20
1510.00671431356
30
0.278478599046944
0
SPLINE
5
140
100
AcDbEntity
8
1
62
256
6
ByLayer
370
13
48
1
60
0
100
AcDbSpline
70
4
71
3
72
8
73
4
40
0
40
0
40
0
40
0
40
1
40
1
40
1
40
1
41
1
10
10
20
5.90195187077589
30
0
41
1
10
11.5
20
5.90195187077589
30
0
41
1
10
13
20
5.90195187077589
30
0
41
1
10
14.5
20
5.90195187077589
30
0
0
SPLINE
5
141
100
AcDbEntity
8
1
62
256
6
ByLayer
370
13
48
1
60
0
100
AcDbSpline
70
4
71
3
72
110
73
106
40
0
40
0
40
0
40
0
40
0.0311404219321469
40
0.0311404219321469
40
0.0623939567084993
40
0.0623939567084993
40
0.0663006485555436
40
0.0663006485555436
40
0.0702073404025878
40
0.0780207240966771
40
0.0936474914848551
40
0.0936474914848551
40
0.124901026261211
40
0.124901026261211
40
0.156154561037567
40
0.156154561037567
40
0.163967944731656
40
0.163967944731656
40
0.171781328425746
40
0.171781328425746
40
0.187408095813924
40
0.187408095813924
40
0.218661630590279
40
0.218661630590279
40
0.249915165366635
40
0.249915165366635
40
0.265541932754813
40
0.265541932754813
40
0.273355316448901
40
0.273355316448901
40
0.277262008295947
40
0.277262008295947
40
0.281168700142992
40
0.312422234919357
40
0.312422234919357
40
0.343675769695721
40
0.343675769695721
40
0.374929304472086
40
0.374929304472086
40
0.382742688166179
40
0.382742688166179
40
0.390556071860272
40
0.390556071860272
40
0.406182839248458
40
0.406182839248458
40
0.437436374024828
40
0.468689908801198
40
0.468689908801198
40
0.484316676189384
40
0.484316676189384
40
0.488223368036433
40
0.488223368036433
40
0.492130059883482
40
0.492130059883482
40
0.499943443577582
40
0.499943443577582
40
0.531196978353984
40
0.531196978353984
40
0.562450513130386
40
0.562450513130386
40
0.593704047906788
40
0.593704047906788
40
0.597610739753839
40
0.597610739753839
40
0.60151743160089
40
0.609330815294992
40
0.624957582683194
40
0.624957582683194
40
0.656211117459598
40
0.656211117459598
40
0.687464652236002
40
0.687464652236002
40
0.695278035930102
40
0.699184727777151
40
0.699184727777151
40
0.703091419624199
40
0.703091419624199
40
0.718718187012401
40
0.718718187012401
40
0.749971721788805
40
0.749971721788805
40
0.781225256565209
40
0.781225256565209
40
0.796852023953411
40
0.796852023953411
40
0.804665407647512
40
0.804665407647512
40
0.812478791341613
40
0.812478791341613
40
0.843732326118014
40
0.843732326118014
40
0.874985860894414
40
0.874985860894414
40
0.906239395670815
40
0.906239395670815
40
0.914052779364914
40
0.914052779364914
40
0.917959471211964
40
0.917959471211964
40
0.921866163059013
40
0.937492930447211
40
0.937492930447211
40
0.968746465223606
40
0.968746465223606
40
1
40
1
40
1
40
1
41
1
10
8.97500001518074
20
39.9999999962843
30
0
41
1
10
8.97498197279572
20
40.0000040139691
30
0
41
1
10
8.98929094065886
20
39.9967682665495
30
0
41
1
10
9.04675279090588
20
39.9838620435696
30
0
41
1
10
9.09000772764887
20
39.9741681097817
30
0
41
1
10
9.15548459477918
20
39.9596643807422
30
0
41
1
10
9.16299915539071
20
39.9580017279347
30
0
41
1
10
9.17845950462879
20
39.9545854004936
30
0
41
1
10
9.2023036843234
20
39.949322779175
30
0
41
1
10
9.26249294616144
20
39.9360902407155
30
0
41
1
10
9.32179442288952
20
39.9231621028348
30
0
41
1
10
9.45051212697467
20
39.8953142473342
30
0
41
1
10
9.54978580645002
20
39.8740939882327
30
0
41
1
10
9.77498370187971
20
39.8269775977274
30
0
41
1
10
9.90090721581862
20
39.8010803306476
30
0
41
1
10
10.0752942072351
20
39.7661812245893
30
0
41
1
10
10.1110227388571
20
39.7590750746245
30
0
41
1
10
10.1841984836106
20
39.7446202888692
30
0
41
1
10
10.2216991425154
20
39.7372612898726
30
0
41
1
10
10.3363217584241
20
39.7149307131545
30
0
41
1
10
10.4155623081903
20
39.699705097713
30
0
41
1
10
10.6615922605303
20
39.6531923321244
30
0
41
1
10
10.8366693331953
20
39.6210698758464
30
0
41
1
10
11.2085683901626
20
39.5555231943128
30
0
41
1
10
11.4053907101955
20
39.5220973483294
30
0
41
1
10
11.7171522370824
20
39.4716738186185
30
0
41
1
10
11.8238325192081
20
39.4548186572642
30
0
41
1
10
11.9880681389458
20
39.4295545699373
30
0
41
1
10
12.0435162258287
20
39.4211363452902
30
0
41
1
10
12.1277553833993
20
39.4085252329708
30
0
41
1
10
12.1560262738063
20
39.4043223051467
30
0
41
1
10
12.2127754462742
20
39.3959459036428
30
0
41
1
10
12.4692271090857
20
39.3583627955856
30
0
41
1
10
12.7352927346233
20
39.3218512888699
30
0
41
1
10
13.2231467964626
20
39.2595106021718
30
0
41
1
10
13.4744989759083
20
39.2296231982239
30
0
41
1
10
13.9921545937518
20
39.1732817307403
30
0
41
1
10
14.2584567572181
20
39.1468262595039
30
0
41
1
10
14.601022066099
20
39.116464165742
30
0
41
1
10
14.6700206785864
20
39.1105272511851
30
0
41
1
10
14.8090024935539
20
39.098939175773
30
0
41
1
10
14.8787885120455
20
39.0933047472336
30
0
41
1
10
15.0885717580085
20
39.0769286029289
30
0
41
1
10
15.2291854825278
20
39.0666980402564
30
0
41
1
10
15.6532680581956
20
39.0381474524606
30
0
41
1
10
16.224678411981
20
39.0057907586946
30
0
41
1
10
16.8079250379979
20
38.9856851993432
30
0
41
1
10
17.24988641664
20
38.9755096640795
30
0
41
1
10
17.3979625701867
20
38.9729351154211
30
0
41
1
10
17.5840218356535
20
38.970771461423
30
0
41
1
10
17.6212819210795
20
38.9703914601463
30
0
41
1
10
17.6958991601158
20
38.9697377524479
30
0
41
1
10
17.7332827087276
20
38.969463907428
30
0
41
1
10
17.8453691278908
20
38.9688042180163
30
0
41
1
10
17.919958452377
20
38.9685801378797
30
0
41
1
10
18.2922381558333
20
38.9685267767192
30
0
41
1
10
18.5879325730002
20
38.9718984355513
30
0
41
1
10
19.1751842722777
20
38.9851800179804
30
0
41
1
10
19.4667412939901
20
38.9950903321447
30
0
41
1
10
20.0457227577322
20
39.0211573584143
30
0
41
1
10
20.3331475035631
20
39.0373144629515
30
0
41
1
10
20.6541130876036
20
39.0588328699157
30
0
41
1
10
20.6897675065985
20
39.061271962133
30
0
41
1
10
20.7608474073789
20
39.0662308936198
30
0
41
1
10
20.8671411693118
20
39.073791288833
30
0
41
1
10
21.112890031053
20
39.092268541434
30
0
41
1
10
21.3196921243827
20
39.1094787350082
30
0
41
1
10
21.7282720812642
20
39.1455715529282
30
0
41
1
10
21.9939716710778
20
39.17186277702
30
0
41
1
10
22.5122058098523
20
39.2280897442481
30
0
41
1
10
22.764740569129
20
39.2580267195226
30
0
41
1
10
23.0720701134158
20
39.2972206857449
30
0
41
1
10
23.163642133597
20
39.3091117697873
30
0
41
1
10
23.2542661939601
20
39.321187653193
30
0
41
1
10
23.3144705624554
20
39.3292776768126
30
0
41
1
10
23.3444747370016
20
39.3333435233736
30
0
41
1
10
23.4935620897687
20
39.3537118915918
30
0
41
1
10
23.6101617797984
20
39.3701736217821
30
0
41
1
10
23.9521305882121
20
39.4198726126066
30
0
41
1
10
24.169688849261
20
39.4534226033927
30
0
41
1
10
24.5844270048157
20
39.5204019919706
30
0
41
1
10
24.7816063656405
20
39.5538330183025
30
0
41
1
10
25.0619740869421
20
39.6031866096651
30
0
41
1
10
25.152858352048
20
39.6195056196109
30
0
41
1
10
25.2852679717585
20
39.6436958595539
30
0
41
1
10
25.3287513938242
20
39.6517112052986
30
0
41
1
10
25.4143980979276
20
39.6676304267154
30
0
41
1
10
25.4565761057636
20
39.6755372828475
30
0
41
1
10
25.6629970061475
20
39.7145389184047
30
0
41
1
10
25.8148147892765
20
39.7442094716905
30
0
41
1
10
26.0925926275851
20
39.7997601974555
30
0
41
1
10
26.2185507350957
20
39.825641678661
30
0
41
1
10
26.4445992504947
20
39.8729032731905
30
0
41
1
10
26.5446915214915
20
39.8942847052319
30
0
41
1
10
26.6531474608544
20
39.9177390075619
30
0
41
1
10
26.6740036542624
20
39.9222661299168
30
0
41
1
10
26.7040198786123
20
39.9288021569107
30
0
41
1
10
26.7138188939972
20
39.9309394782695
30
0
41
1
10
26.7329464892229
20
39.9351178771107
30
0
41
1
10
26.7796106614918
20
39.9453281796947
30
0
41
1
10
26.8205340012017
20
39.95435382073
30
0
41
1
10
26.9078640782618
20
39.9736937760283
30
0
41
1
10
26.9515957148199
20
39.9834919255852
30
0
41
1
10
27.0101628660032
20
39.996644804204
30
0
41
1
10
27.0250078037608
20
40.0000017646864
30
0
41
1
10
27.0250015241713
20
40.0000003446686
30
0
0
SPLINE
5
142
100
AcDbEntity
8
1
62
256
6
ByLayer
370
13
48
1
60
0
100
AcDbSpline
70
4
71
3
72
38
73
34
40
0
40
0
40
0
40
0
40
0.062504172559568
40
0.062504172559568
40
0.125008345119136
40
0.125008345119136
40
0.187512517678704
40
0.187512517678704
40
0.250016690238272
40
0.250016690238272
40
0.31252086279784
40
0.31252086279784
40
0.375025035357408
40
0.375025035357408
40
0.437529207916976
40
0.437529207916976
40
0.500033380476544
40
0.500033380476544
40
0.562537553036112
40
0.562537553036112
40
0.62504172559568
40
0.62504172559568
40
0.687545898155248
40
0.687545898155248
40
0.750050070714816
40
0.750050070714816
40
0.812554243274384
40
0.812554243274384
40
0.875058415833952
40
0.875058415833952
40
0.937562588393521
40
0.937562588393521
40
1
40
1
40
1
40
1
41
1
10
15.9823679384332
20
34.9717005484184
30
0
41
1
10
15.9823679384331
20
34.1282591995101
30
0
41
1
10
15.9823679384331
20
33.2537212281902
30
0
41
1
10
15.9823679384331
20
31.4572672442295
30
0
41
1
10
15.9823679384331
20
30.535359861005
30
0
41
1
10
15.9823679384331
20
28.6598019819624
30
0
41
1
10
15.9823679384332
20
27.7061604955428
30
0
41
1
10
15.9823679384332
20
25.7833076937454
30
0
41
1
10
15.9823679384332
20
24.8141056149513
30
0
41
1
10
15.9823679384332
20
22.8765689722775
30
0
41
1
10
15.9823679384332
20
21.9082437155167
30
0
41
1
10
15.9823679384332
20
19.9888833479555
30
0
41
1
10
15.9823679384332
20
19.0378574569627
30
0
41
1
10
15.9823679384332
20
17.1692252156192
30
0
41
1
10
15.9823679384332
20
16.2516278413991
30
0
41
1
10
15.9823679384332
20
14.4654152415915
30
0
41
1
10
15.9823679384332
20
13.5968085962251
30
0
41
1
10
15.9823679384332
20
11.9233093376534
30
0
41
1
10
15.9823679384332
20
11.1184247632412
30
0
41
1
10
15.9823679384332
20
9.58602095674283
30
0
41
1
10
15.9823679384331
20
8.85850908568602
30
0
41
1
10
15.9823679384332
20
7.49318990004082
30
0
41
1
10
15.9823679384332
20
6.85538914387689
30
0
41
1
10
15.9823679384332
20
5.68031003628451
30
0
41
1
10
15.9823679384332
20
5.14303732944649
30
0
41
1
10
15.9823679384332
20
4.17812733501333
30
0
41
1
10
15.9823679384332
20
3.75049468244376
30
0
41
1
10
15.9823679384332
20
3.01211842294654
30
0
41
1
10
15.9823679384332
20
2.70137836287083
30
0
41
1
10
15.9823679384332
20
2.2020585070407
30
0
41
1
10
15.9823679384332
20
2.01348110981087
30
0
41
1
10
15.9823679384332
20
1.76182046381737
30
0
41
1
10
15.9823679384329
20
1.69859361872142
30
0
41
1
10
15.9823679384331
20
1.69846654708874
30
0
0
SPLINE
5
143
100
AcDbEntity
8
1
62
256
6
ByLayer
370
13
48
1
60
0
100
AcDbSpline
70
4
71
3
72
50
73
46
40
0
40
0
40
0
40
0
40
0.0057213723860988
40
0.0057213723860988
40
0.0530679737010465
40
0.0530679737010465
40
0.100414575015994
40
0.100414575015994
40
0.147761176330942
40
0.147761176330942
40
0.195107777645889
40
0.195107777645889
40
0.242454378960837
40
0.242454378960837
40
0.289800980275785
40
0.289800980275785
40
0.337147581590732
40
0.337147581590732
40
0.38449418290568
40
0.38449418290568
40
0.431840784220627
40
0.431840784220627
40
0.479187385535575
40
0.479187385535575
40
0.526533986850523
40
0.526533986850523
40
0.57388058816547
40
0.57388058816547
40
0.621227189480418
40
0.621227189480418
40
0.668573790795366
40
0.668573790795366
40
0.715920392110313
40
0.715920392110313
40
0.763266993425261
40
0.763266993425261
40
0.810613594740209
40
0.810613594740209
40
0.857960196055157
40
0.857960196055157
40
0.905306797370104
40
0.905306797370104
40
0.952653398685052
40
0.952653398685052
40
1
40
1
40
1
40
1
41
1
10
38.7370007149092
20
7.79555798885951
30
0
41
1
10
38.7370007149092
20
7.79554249663906
30
0
41
1
10
38.7370007149092
20
7.79628954406718
30
0
41
1
10
38.7370007149092
20
7.81029782730923
30
0
41
1
10
38.7370007149092
20
7.87506232133836
30
0
41
1
10
38.7370007149092
20
8.10787634630626
30
0
41
1
10
38.7370007149092
20
8.27592442958854
30
0
41
1
10
38.7370007149092
20
8.71206471284845
30
0
41
1
10
38.7370007149092
20
8.98015420087043
30
0
41
1
10
38.7370007149092
20
9.61120620269983
30
0
41
1
10
38.7370007149092
20
9.97416479257475
30
0
41
1
10
38.7370007149092
20
10.7879535033721
30
0
41
1
10
38.7370007149092
20
11.2387785640903
30
0
41
1
10
38.7370007149093
20
12.2196033992144
30
0
41
1
10
38.7370007149092
20
12.7495970747719
30
0
41
1
10
38.7370007149092
20
13.8785347889902
30
0
41
1
10
38.7370007149092
20
14.4774718078247
30
0
41
1
10
38.7370007149092
20
15.7327415851816
30
0
41
1
10
38.7370007149093
20
16.3890665383348
30
0
41
1
10
38.7370007149093
20
17.7464502136907
30
0
41
1
10
38.7370007149093
20
18.4475004955718
30
0
41
1
10
38.7370007149093
20
19.8808098003963
30
0
41
1
10
38.7370007149092
20
20.6130599109065
30
0
41
1
10
38.7370007149092
20
22.0946417286613
30
0
41
1
10
38.7370007149093
20
22.8439642233103
30
0
41
1
10
38.7370007149092
20
24.3452341064311
30
0
41
1
10
38.7370007149093
20
25.097172159885
30
0
41
1
10
38.7370007149092
20
26.5891658151142
30
0
41
1
10
38.7370007149093
20
27.329212139552
30
0
41
1
10
38.7370007149092
20
28.7831442417099
30
0
41
1
10
38.7370007149092
20
29.4970209787624
30
0
41
1
10
38.7370007149092
20
30.8848405316513
30
0
41
1
10
38.7370007149092
20
31.5587747179132
30
0
41
1
10
38.7370007149092
20
32.8537062476693
30
0
41
1
10
38.7370007149092
20
33.4746955391741
30
0
41
1
10
38.7370007149092
20
34.6517556787173
30
0
41
1
10
38.7370007149092
20
35.2078192077003
30
0
41
1
10
38.7370007149092
20
36.2442987057184
30
0
41
1
10
38.7370007149092
20
36.72470822984
30
0
41
1
10
38.7370007149092
20
37.6006100848123
30
0
41
1
10
38.7370007149092
20
37.9960969692342
30
0
41
1
10
38.7370007149092
20
38.6945222354899
30
0
41
1
10
38.7370007149092
20
38.9974562744587
30
0
41
1
10
38.7370007149092
20
39.5049300968383
30
0
41
1
10
38.7370007149092
20
39.7094667247358
30
0
41
1
10
38.7370007149092
20
39.8628325181707
30
0
0
SPLINE
5
144
100
AcDbEntity
8
1
62
256
6
ByLayer
370
13
48
1
60
0
100
AcDbSpline
70
4
71
3
72
50
73
46
40
0
40
0
40
0
40
0
40
0.046646037129545
40
0.046646037129545
40
0.0932920742590901
40
0.0932920742590901
40
0.139938111388635
40
0.139938111388635
40
0.18658414851818
40
0.18658414851818
40
0.233230185647725
40
0.233230185647725
40
0.27987622277727
40
0.27987622277727
40
0.326522259906815
40
0.326522259906815
40
0.37316829703636
40
0.37316829703636
40
0.419814334165906
40
0.419814334165906
40
0.46646037129545
40
0.46646037129545
40
0.513106408424996
40
0.513106408424996
40
0.559752445554541
40
0.559752445554541
40
0.606398482684086
40
0.606398482684086
40
0.653044519813631
40
0.653044519813631
40
0.699690556943176
40
0.699690556943176
40
0.746336594072721
40
0.746336594072721
40
0.792982631202265
40
0.792982631202265
40
0.83962866833181
40
0.83962866833181
40
0.886274705461355
40
0.886274705461355
40
0.9329207425909
40
0.9329207425909
40
0.979566779720445
40
0.979566779720445
40
1
40
1
40
1
40
1
41
1
10
40.2899149855244
20
39.6626974653398
30
0
41
1
10
40.2899149855244
20
39.5135242592303
30
0
41
1
10
40.2899149855244
20
39.3153234022719
30
0
41
1
10
40.2899149855243
20
38.8245727013668
30
0
41
1
10
40.2899149855244
20
38.5320257310784
30
0
41
1
10
40.2899149855244
20
37.8580591181919
30
0
41
1
10
40.2899149855244
20
37.4766434220981
30
0
41
1
10
40.2899149855244
20
36.632079644619
30
0
41
1
10
40.2899149855244
20
36.1689365086932
30
0
41
1
10
40.2899149855244
20
35.169588422567
30
0
41
1
10
40.2899149855244
20
34.633389324187
30
0
41
1
10
40.2899149855244
20
33.4979678281603
30
0
41
1
10
40.2899149855244
20
32.8987520791306
30
0
41
1
10
40.2899149855244
20
31.6485157886366
30
0
41
1
10
40.2899149855244
20
30.9975025681032
30
0
41
1
10
40.2899149855244
20
29.6558597879813
30
0
41
1
10
40.2899149855244
20
28.9652380845669
30
0
41
1
10
40.2899149855244
20
27.5573085329228
30
0
41
1
10
40.2899149855244
20
26.8400089290183
30
0
41
1
10
40.2899149855244
20
25.3921534181142
30
0
41
1
10
40.2899149855244
20
24.6616059892319
30
0
41
1
10
40.2899149855244
20
23.2009328692416
30
0
41
1
10
40.2899149855244
20
22.4708157313062
30
0
41
1
10
40.2899149855244
20
21.0246733378391
30
0
41
1
10
40.2899149855244
20
20.3086565503933
30
0
41
1
10
40.2899149855244
20
18.9041211587461
30
0
41
1
10
40.2899149855244
20
18.2156107789952
30
0
41
1
10
40.2899149855244
20
16.8789796522177
30
0
41
1
10
40.2899149855244
20
16.2308667320188
30
0
41
1
10
40.2899149855244
20
14.9871657545068
30
0
41
1
10
40.2899149855244
20
14.3915849798561
30
0
41
1
10
40.2899149855244
20
13.2641000951006
30
0
41
1
10
40.2899149855244
20
12.7322025871386
30
0
41
1
10
40.2899149855244
20
11.7420438125696
30
0
41
1
10
40.2899149855244
20
11.2837883439735
30
0
41
1
10
40.2899149855244
20
10.4494945258962
30
0
41
1
10
40.2899149855244
20
10.0734610617372
30
0
41
1
10
40.2899149855244
20
9.41065277057291
30
0
41
1
10
40.2899149855244
20
9.12388182473288
30
0
41
1
10
40.2899149855244
20
8.64496888944578
30
0
41
1
10
40.2899149855244
20
8.45282970433939
30
0
41
1
10
40.2899149855244
20
8.16677886191027
30
0
41
1
10
40.2899149855244
20
8.07286887959768
30
0
41
1
10
40.2899149855244
20
8.00971483597971
30
0
41
1
10
40.2899149855244
20
8.00007045473282
30
0
41
1
10
40.2899149855244
20
8.00001446461803
30
0
0
SPLINE
5
145
100
AcDbEntity
8
1
62
256
6
ByLayer
370
13
48
1
60
0
100
AcDbSpline
70
4
71
3
72
22
73
18
40
0
40
0
40
0
40
0
40
0.0184978704737917
40
0.0324324745329264
40
0.0648214839345761
40
0.129109380476944
40
0.256003725648443
40
0.380537906634307
40
0.505316622327746
40
0.62847075849122
40
0.752486095533255
40
0.793403279992779
40
0.834435001685976
40
0.875596005457351
40
0.916900897699652
40
0.958364132741387
40
1
40
1
40
1
40
1
41
1
10
39.5
20
40
30
0
41
1
10
39.5096545456297
20
39.9999813621861
30
0
41
1
10
39.5265819430675
20
39.9999486843475
30
0
41
1
10
39.5597511061576
20
39.9996195787049
30
0
41
1
10
39.6151532700807
20
39.998578329778
30
0
41
1
10
39.7217166641967
20
39.994287205171
30
0
41
1
10
39.8568699256615
20
39.9819171209976
30
0
41
1
10
39.9929350739322
20
39.9565838859989
30
0
41
1
10
40.102650565917
20
39.920591344604
30
0
41
1
10
40.1872533814186
20
39.8734670257158
30
0
41
1
10
40.2335798965284
20
39.8281859802714
30
0
41
1
10
40.2576966708616
20
39.7916309194619
30
0
41
1
10
40.2694544923058
20
39.7685381043781
30
0
41
1
10
40.2786104246952
20
39.7441350608589
30
0
41
1
10
40.2851022638236
20
39.7183772133741
30
0
41
1
10
40.2891649406779
20
39.6913618715556
30
0
41
1
10
40.289664624558
20
39.6722654911826
30
0
41
1
10
40.2899149855261
20
39.6626974653398
30
0
0
SPLINE
5
146
100
AcDbEntity
8
1
62
256
6
ByLayer
370
13
48
1
60
0
100
AcDbSpline
70
4
71
2
72
6
73
3
40
0
40
0
40
0
40
1
40
1
40
1
41
1
10
38.7370007149099
20
39.8628325181711
30
0
41
0.991444861373799
10
39.5000000000012
20
39.6626974653398
30
0
41
1
10
40.2899149855261
20
39.6626974653397
30
0
0
SPLINE
5
147
100
AcDbEntity
8
1
62
256
6
ByLayer
370
13
48
1
60
0
100
AcDbSpline
70
4
71
3
72
17
73
13
40
0
40
0
40
0
40
0
40
0.249999999999931
40
0.249999999999931
40
0.374999999999895
40
0.374999999999895
40
0.49999999999986
40
0.624999999999825
40
0.624999999999825
40
0.749999999999789
40
0.749999999999789
40
1
40
1
40
1
40
1
41
1
10
0.444999999999936
20
-16.996275952925
30
0
41
1
10
0.44500000000005
20
-16.9964516838542
30
0
41
1
10
0.442707908664715
20
-16.9966173113888
30
0
41
1
10
0.435932806490825
20
-16.9968519573333
30
0
41
1
10
0.433083272747012
20
-16.996928344027
30
0
41
1
10
0.426378884927317
20
-16.9970728648902
30
0
41
1
10
0.418668466652775
20
-16.9972097939007
30
0
41
1
10
0.408983420311529
20
-16.9973327487857
30
0
41
1
10
0.398278111719208
20
-16.997449044958
30
0
41
1
10
0.392468708063347
20
-16.9975031827467
30
0
41
1
10
0.374023424664415
20
-16.9976519804017
30
0
41
1
10
0.360271777193987
20
-16.9977345340521
30
0
41
1
10
0.345000000000027
20
-16.9978020385788
30
0
0
SPLINE
5
148
100
AcDbEntity
8
1
62
256
6
ByLayer
370
13
48
1
60
0
100
AcDbSpline
70
4
71
3
72
17
73
13
40
0
40
0
40
0
40
0
40
0.249999999999789
40
0.249999999999789
40
0.374999999999825
40
0.374999999999825
40
0.49999999999986
40
0.624999999999896
40
0.624999999999896
40
0.749999999999931
40
0.749999999999931
40
1
40
1
40
1
40
1
41
1
10
0.344999999999743
20
-16.994285569945
30
0
41
1
10
0.360271831408909
20
-16.9943944193699
30
0
41
1
10
0.374059284815644
20
-16.9945238656833
30
0
41
1
10
0.392579607206073
20
-16.9947446074579
30
0
41
1
10
0.398422232750249
20
-16.9948232718276
30
0
41
1
10
0.409064116525826
20
-16.9949851491766
30
0
41
1
10
0.41872012285603
20
-16.9951520052348
30
0
41
1
10
0.426441109866687
20
-16.9953275528793
30
0
41
1
10
0.433162323254408
20
-16.9955071094984
30
0
41
1
10
0.435979688324153
20
-16.9955979137896
30
0
41
1
10
0.442707985511959
20
-16.9958679694267
30
0
41
1
10
0.44500000000005
20
-16.996046808222
30
0
41
1
10
0.444999999999936
20
-16.9962237687882
30
0
0
SPLINE
5
149
100
AcDbEntity
8
1
62
256
6
ByLayer
370
13
48
1
60
0
100
AcDbSpline
70
4
71
3
72
18
73
14
40
0
40
0
40
0
40
0
40
0.124999999999914
40
0.124999999999914
40
0.249999999999828
40
0.249999999999828
40
0.499999999999655
40
0.499999999999655
40
0.624999999999671
40
0.624999999999671
40
0.749999999999687
40
0.749999999999687
40
1
40
1
40
1
40
1
41
1
10
0.444999999999936
20
-16.9663206649252
30
0
41
1
10
0.444999999999936
20
-16.966581168643
30
0
41
1
10
0.444436076542957
20
-16.966839230999
30
0
41
1
10
0.442175864387082
20
-16.9673505302333
30
0
41
1
10
0.440461010290846
20
-16.9676055810261
30
0
41
1
10
0.433671887179798
20
-16.9683484022096
30
0
41
1
10
0.427040468268558
20
-16.9688124031189
30
0
41
1
10
0.413935620533152
20
-16.9694641032272
30
0
41
1
10
0.409033299211956
20
-16.9696732946312
30
0
41
1
10
0.398444544195343
20
-16.9700650271788
30
0
41
1
10
0.392727268793578
20
-16.9702492180337
30
0
41
1
10
0.374311992007961
20
-16.9707677842931
30
0
41
1
10
0.360249981587685
20
-16.9710692765826
30
0
41
1
10
0.345000000000027
20
-16.9713128675845
30
0
0
SPLINE
5
14A
100
AcDbEntity
8
1
62
256
6
ByLayer
370
13
48
1
60
0
100
AcDbSpline
70
4
71
3
72
17
73
13
40
0
40
0
40
0
40
0
40
0.249999999999972
40
0.249999999999972
40
0.374999999999959
40
0.374999999999959
40
0.499999999999946
40
0.624999999999932
40
0.624999999999932
40
0.749999999999919
40
0.749999999999919
40
1
40
1
40
1
40
1
41
1
10
0.345000000000027
20
-16.9607592389183
30
0
41
1
10
0.360274702976199
20
-16.9610446269106
30
0
41
1
10
0.374063588371655
20
-16.9613864406168
30
0
41
1
10
0.392584714278826
20
-16.9619778598778
30
0
41
1
10
0.398427354445971
20
-16.9621899185163
30
0
41
1
10
0.409068917192144
20
-16.9626297458607
30
0
41
1
10
0.418724315034581
20
-16.9630863972716
30
0
41
1
10
0.426444369102171
20
-16.9635749851932
30
0
41
1
10
0.43316460611743
20
-16.9640795900298
30
0
41
1
10
0.435981420690837
20
-16.9643371807374
30
0
41
1
10
0.442708481255693
20
-16.9651111815907
30
0
41
1
10
0.444999999999993
20
-16.9656342409961
30
0
41
1
10
0.444999999999936
20
-16.9661640498501
30
0
0
SPLINE
5
14B
100
AcDbEntity
8
1
62
256
6
ByLayer
370
13
48
1
60
0
100
AcDbSpline
70
4
71
3
72
17
73
13
40
0
40
0
40
0
40
0
40
0.25
40
0.25
40
0.375
40
0.375
40
0.5
40
0.625
40
0.625
40
0.75
40
0.75
40
1
40
1
40
1
40
1
41
1
10
0.444999999999936
20
-16.906321904533
30
0
41
1
10
0.444999999999936
20
-16.9072037130716
30
0
41
1
10
0.442709733823904
20
-16.9080598229664
30
0
41
1
10
0.435939209346998
20
-16.9093074793804
30
0
41
1
10
0.433091496239854
20
-16.9097199313605
30
0
41
1
10
0.426390103580843
20
-16.9105116931341
30
0
41
1
10
0.418682759767535
20
-16.9112735591335
30
0
41
1
10
0.409000389471032
20
-16.911977663613
30
0
41
1
10
0.398297532505751
20
-16.912652481929
30
0
41
1
10
0.392486465194452
20
-16.9129714812376
30
0
41
1
10
0.374036884008547
20
-16.9138584723223
30
0
41
1
10
0.360280113524254
20
-16.9143653311065
30
0
41
1
10
0.345000000000027
20
-16.9147862278244
30
0
0
SPLINE
5
14C
100
AcDbEntity
8
1
62
256
6
ByLayer
370
13
48
1
60
0
100
AcDbSpline
70
4
71
3
72
14
73
10
40
0
40
0
40
0
40
0
40
0.25
40
0.25
40
0.5
40
0.5
40
0.75
40
0.75
40
1
40
1
40
1
40
1
41
1
10
0.344999999996276
20
-16.8971827454388
30
0
41
1
10
0.360280401533146
20
-16.8976451673392
30
0
41
1
10
0.374072185797218
20
-16.8981999259373
30
0
41
1
10
0.398769276670862
20
-16.8994839296199
30
0
41
1
10
0.409562709816441
20
-16.9002132805082
30
0
41
1
10
0.426935063019073
20
-16.9017625171121
30
0
41
1
10
0.433743529604783
20
-16.9026048964233
30
0
41
1
10
0.44270953683133
20
-16.9043098105032
30
0
41
1
10
0.444999999999993
20
-16.9051775635368
30
0
41
1
10
0.444999999999936
20
-16.9060606701482
30
0
0
SPLINE
5
14D
100
AcDbEntity
8
1
62
256
6
ByLayer
370
13
48
1
60
0
100
AcDbSpline
70
4
71
3
72
20
73
16
40
0
40
0
40
0
40
0
40
0.124999999999967
40
0.124999999999967
40
0.249999999999935
40
0.249999999999935
40
0.499999999999957
40
0.499999999999957
40
0.624999999999967
40
0.624999999999967
40
0.749999999999978
40
0.749999999999978
40
0.874999999999989
40
0.874999999999989
40
1
40
1
40
1
40
1
41
1
10
0.444999999999936
20
-16.816207391812
30
0
41
1
10
0.444999999999936
20
-16.8168162822747
30
0
41
1
10
0.444437139589752
20
-16.8174217207556
30
0
41
1
10
0.4421785667206
20
-16.8186257270224
30
0
41
1
10
0.440463396591326
20
-16.8192286690016
30
0
41
1
10
0.433685081292424
20
-16.8209879209246
30
0
41
1
10
0.427061854072917
20
-16.8220956899381
30
0
41
1
10
0.41395507951438
20
-16.8236617913957
30
0
41
1
10
0.409058163643636
20
-16.824165449712
30
0
41
1
10
0.398474665630431
20
-16.8251118402023
30
0
41
1
10
0.392758003311315
20
-16.8255583757556
30
0
41
1
10
0.380476359739419
20
-16.8263988076987
30
0
41
1
10
0.373884002058674
20
-16.8267941143685
30
0
41
1
10
0.35993449517963
20
-16.827523552719
30
0
41
1
10
0.352631948353064
20
-16.8278552497375
30
0
41
1
10
0.345000000000027
20
-16.8281540466689
30
0
0
SPLINE
5
14E
100
AcDbEntity
8
1
62
256
6
ByLayer
370
13
48
1
60
0
100
AcDbSpline
70
4
71
3
72
14
73
10
40
0
40
0
40
0
40
0
40
0.25
40
0.25
40
0.5
40
0.5
40
0.75
40
0.75
40
1
40
1
40
1
40
1
41
1
10
0.345000000000027
20
-16.8034794694223
30
0
41
1
10
0.360288943519549
20
-16.8041197347202
30
0
41
1
10
0.374085097209616
20
-16.8048883839703
30
0
41
1
10
0.398785627589746
20
-16.8066698166739
30
0
41
1
10
0.409577667525014
20
-16.8076827682588
30
0
41
1
10
0.426945472243745
20
-16.8098379192622
30
0
41
1
10
0.43375031149202
20
-16.811011385138
30
0
41
1
10
0.442711152284346
20
-16.81339084313
30
0
41
1
10
0.444999999999936
20
-16.8146040734142
30
0
41
1
10
0.444999999999936
20
-16.8158412229042
30
0
0
SPLINE
5
14F
100
AcDbEntity
8
1
62
256
6
ByLayer
370
13
48
1
60
0
100
AcDbSpline
70
4
71
3
72
17
73
13
40
0
40
0
40
0
40
0
40
0.249999999999921
40
0.249999999999921
40
0.374999999999932
40
0.374999999999932
40
0.499999999999943
40
0.624999999999954
40
0.624999999999954
40
0.749999999999966
40
0.749999999999966
40
1
40
1
40
1
40
1
41
1
10
0.444999999999936
20
-16.6958681301968
30
0
41
1
10
0.444999999999936
20
-16.6974589017424
30
0
41
1
10
0.442713823397355
20
-16.6990084550672
30
0
41
1
10
0.435953845008555
20
-16.7012736494292
30
0
41
1
10
0.433110369658493
20
-16.7020237562671
30
0
41
1
10
0.426415934955514
20
-16.7034662962493
30
0
41
1
10
0.418715578388742
20
-16.7048566330918
30
0
41
1
10
0.409039813656477
20
-16.7061453840433
30
0
41
1
10
0.398342908197833
20
-16.7073821859045
30
0
41
1
10
0.392528094328668
20
-16.7079683718863
30
0
41
1
10
0.374068550616471
20
-16.709599541757
30
0
41
1
10
0.360299806052808
20
-16.7105343106051
30
0
41
1
10
0.34499999999997
20
-16.7113115967281
30
0
0
SPLINE
5
150
100
AcDbEntity
8
1
62
256
6
ByLayer
370
13
48
1
60
0
100
AcDbSpline
70
4
71
3
72
14
73
10
40
0
40
0
40
0
40
0
40
0.25
40
0.25
40
0.5
40
0.5
40
0.75
40
0.75
40
1
40
1
40
1
40
1
41
1
10
0.345000000000027
20
-16.6795360072684
30
0
41
1
10
0.36030035371914
20
-16.6803552452268
30
0
41
1
10
0.37410235308198
20
-16.681339105405
30
0
41
1
10
0.398807503654552
20
-16.683620739903
30
0
41
1
10
0.409597689535644
20
-16.6849187072633
30
0
41
1
10
0.426959425720611
20
-16.687682455276
30
0
41
1
10
0.433759415500276
20
-16.6891882501413
30
0
41
1
10
0.442713327766114
20
-16.6922445380187
30
0
41
1
10
0.444999999999936
20
-16.6938043447314
30
0
41
1
10
0.444999999999936
20
-16.6953965827995
30
0
0
SPLINE
5
151
100
AcDbEntity
8
1
62
256
6
ByLayer
370
13
48
1
60
0
100
AcDbSpline
70
4
71
3
72
14
73
10
40
0
40
0
40
0
40
0
40
0.25
40
0.25
40
0.5
40
0.5
40
0.75
40
0.75
40
1
40
1
40
1
40
1
41
1
10
0.444999999999936
20
-16.5451577431617
30
0
41
1
10
0.444999999999993
20
-16.5471048310609
30
0
41
1
10
0.442716717815188
20
-16.549002988188
30
0
41
1
10
0.433713434654578
20
-16.5527054436428
30
0
41
1
10
0.426928340279232
20
-16.5545008327181
30
0
41
1
10
0.409561903711392
20
-16.5577909545174
30
0
41
1
10
0.398713554914309
20
-16.5593322972109
30
0
41
1
10
0.374091315576607
20
-16.5620084166805
30
0
41
1
10
0.360313978551119
20
-16.5631594528058
30
0
41
1
10
0.345000000000027
20
-16.5641168590817
30
0
0
SPLINE
5
152
100
AcDbEntity
8
1
62
256
6
ByLayer
370
13
48
1
60
0
100
AcDbSpline
70
4
71
3
72
14
73
10
40
0
40
0
40
0
40
0
40
0.25
40
0.25
40
0.5
40
0.5
40
0.75
40
0.75
40
1
40
1
40
1
40
1
41
1
10
0.345000000000027
20
-16.5252014810394
30
0
41
1
10
0.360314665487692
20
-16.5262011486126
30
0
41
1
10
0.374123994428373
20
-16.527401923318
30
0
41
1
10
0.39883494262682
20
-16.5301873378364
30
0
41
1
10
0.409622802362719
20
-16.5317721468604
30
0
41
1
10
0.426976933815126
20
-16.5351479554998
30
0
41
1
10
0.433770845381559
20
-16.5369876841884
30
0
41
1
10
0.442716063533965
20
-16.5407237570834
30
0
41
1
10
0.444999999999993
20
-16.5426315619557
30
0
41
1
10
0.444999999999936
20
-16.544580241843
30
0
0
SPLINE
5
153
100
AcDbEntity
8
1
62
256
6
ByLayer
370
13
48
1
60
0
100
AcDbSpline
70
4
71
3
72
14
73
10
40
0
40
0
40
0
40
0
40
0.25
40
0.25
40
0.5
40
0.5
40
0.75
40
0.75
40
1
40
1
40
1
40
1
41
1
10
0.444999999999936
20
-16.3638915750244
30
0
41
1
10
0.444999999999993
20
-16.3661966195451
30
0
41
1
10
0.442720178897048
20
-16.3684450620786
30
0
41
1
10
0.433728915463576
20
-16.3728331420266
30
0
41
1
10
0.426950545263708
20
-16.3749629945396
30
0
41
1
10
0.409595838636847
20
-16.3788681536432
30
0
41
1
10
0.398752484710485
20
-16.3806990969014
30
0
41
1
10
0.374118783941754
20
-16.3838810199086
30
0
41
1
10
0.360331088843395
20
-16.3852503974314
30
0
41
1
10
0.345000000000027
20
-16.3863896519127
30
0
0
SPLINE
5
154
100
AcDbEntity
8
1
62
256
6
ByLayer
370
13
48
1
60
0
100
AcDbSpline
70
4
71
3
72
14
73
10
40
0
40
0
40
0
40
0
40
0.25
40
0.25
40
0.5
40
0.5
40
0.75
40
0.75
40
1
40
1
40
1
40
1
41
1
10
0.345000000000027
20
-16.3402866104115
30
0
41
1
10
0.360331920996828
20
-16.3414685025769
30
0
41
1
10
0.374150073055944
20
-16.3428882902195
30
0
41
1
10
0.39886799220136
20
-16.3461818906506
30
0
41
1
10
0.409653039527598
20
-16.3480557884495
30
0
41
1
10
0.426998009701151
20
-16.3520479220105
30
0
41
1
10
0.433784605976427
20
-16.3542235605731
30
0
41
1
10
0.442719359951809
20
-16.3586430612771
30
0
41
1
10
0.444999999999993
20
-16.3609006177395
30
0
41
1
10
0.444999999999936
20
-16.3632074093328
30
0
0
SPLINE
5
155
100
AcDbEntity
8
1
62
256
6
ByLayer
370
13
48
1
60
0
100
AcDbSpline
70
4
71
3
72
14
73
10
40
0
40
0
40
0
40
0
40
0.25
40
0.25
40
0.5
40
0.5
40
0.75
40
0.75
40
1
40
1
40
1
40
1
41
1
10
0.444999999999936
20
-16.1518455428528
30
0
41
1
10
0.444999999999936
20
-16.1545105106737
30
0
41
1
10
0.442724206804314
20
-16.1571112538312
30
0
41
1
10
0.433746965579758
20
-16.1621890653986
30
0
41
1
10
0.426976466741792
20
-16.1646558377054
30
0
41
1
10
0.409635479866722
20
-16.1691808278718
30
0
41
1
10
0.398798175410093
20
-16.1713038998978
30
0
41
1
10
0.374151035238356
20
-16.1749971224652
30
0
41
1
10
0.36035118876066
20
-16.1765873329516
30
0
41
1
10
0.345000000000027
20
-16.1779105119413
30
0
0
SPLINE
5
156
100
AcDbEntity
8
1
62
256
6
ByLayer
370
13
48
1
60
0
100
AcDbSpline
70
4
71
3
72
14
73
10
40
0
40
0
40
0
40
0
40
0.25
40
0.25
40
0.5
40
0.5
40
0.75
40
0.75
40
1
40
1
40
1
40
1
41
1
10
0.345000000000027
20
-16.1245625339316
30
0
41
1
10
0.360352171572401
20
-16.125928796596
30
0
41
1
10
0.374180651885354
20
-16.1275701047339
30
0
41
1
10
0.39890671020504
20
-16.1313771523427
30
0
41
1
10
0.409688441662524
20
-16.1335428202346
30
0
41
1
10
0.427022669371013
20
-16.1381563682392
30
0
41
1
10
0.433800703224392
20
-16.1406702749569
30
0
41
1
10
0.442723217490766
20
-16.1457775570419
30
0
41
1
10
0.444999999999936
20
-16.1483869616581
30
0
41
1
10
0.444999999999936
20
-16.1510538628706
30
0
0
SPLINE
5
157
100
AcDbEntity
8
1
62
256
6
ByLayer
370
13
48
1
60
0
100
AcDbSpline
70
4
71
3
72
14
73
10
40
0
40
0
40
0
40
0
40
0.25
40
0.25
40
0.5
40
0.5
40
0.75
40
0.75
40
1
40
1
40
1
40
1
41
1
10
0.444999999999936
20
-15.9087547225647
30
0
41
1
10
0.444999999999936
20
-15.9117819206423
30
0
41
1
10
0.442728801666476
20
-15.9147373269439
30
0
41
1
10
0.433767589685658
20
-15.9205096833026
30
0
41
1
10
0.427006123419233
20
-15.9233162473876
30
0
41
1
10
0.409680856527075
20
-15.9284666852376
30
0
41
1
10
0.398850758724279
20
-15.9308848210076
30
0
41
1
10
0.374188164174086
20
-15.9350957981563
30
0
41
1
10
0.360374340005762
20
-15.9369097689428
30
0
41
1
10
0.345000000000027
20
-15.9384193122152
30
0
0
SPLINE
5
158
100
AcDbEntity
8
1
62
256
6
ByLayer
370
13
48
1
60
0
100
AcDbSpline
70
4
71
3
72
14
73
10
40
0
40
0
40
0
40
0
40
0.25
40
0.25
40
0.5
40
0.5
40
0.75
40
0.75
40
1
40
1
40
1
40
1
41
1
10
0.345000000000027
20
-15.8777593621744
30
0
41
1
10
0.360375478107585
20
-15.8793125078583
30
0
41
1
10
0.374215805345614
20
-15.8811782705997
30
0
41
1
10
0.398951164839332
20
-15.8855049156187
30
0
41
1
10
0.409729056639037
20
-15.8879654848656
30
0
41
1
10
0.427050931647159
20
-15.893206391846
30
0
41
1
10
0.433819144175118
20
-15.8960613206208
30
0
41
1
10
0.442727636730353
20
-15.9018614765339
30
0
41
1
10
0.444999999999993
20
-15.9048251828978
30
0
41
1
10
0.444999999999936
20
-15.9078545335015
30
0
0
SPLINE
5
159
100
AcDbEntity
8
1
62
256
6
ByLayer
370
13
48
1
60
0
100
AcDbSpline
70
4
71
3
72
14
73
10
40
0
40
0
40
0
40
0
40
0.25
40
0.25
40
0.5
40
0.5
40
0.75
40
0.75
40
1
40
1
40
1
40
1
41
1
10
0.444999999999936
20
-15.634311647963
30
0
41
1
10
0.444999999999936
20
-15.6377037401231
30
0
41
1
10
0.442733963566298
20
-15.6410165357755
30
0
41
1
10
0.433790792769855
20
-15.6474889885956
30
0
41
1
10
0.427039536573545
20
-15.650638648096
30
0
41
1
10
0.409732000971928
20
-15.6564210098031
30
0
41
1
10
0.39891038912765
20
-15.6591375563673
30
0
41
1
10
0.374230281636301
20
-15.6638737503363
30
0
41
1
10
0.360400614775131
20
-15.6659148664936
30
0
41
1
10
0.34499999999997
20
-15.6676135955302
30
0
0
SPLINE
5
15A
100
AcDbEntity
8
1
62
256
6
ByLayer
370
13
48
1
60
0
100
AcDbSpline
70
4
71
3
72
14
73
10
40
0
40
0
40
0
40
0
40
0.25
40
0.25
40
0.5
40
0.5
40
0.75
40
0.75
40
1
40
1
40
1
40
1
41
1
10
0.345000000000027
20
-15.5995644409935
30
0
41
1
10
0.360401911560189
20
-15.6013073675483
30
0
41
1
10
0.374255619845599
20
-15.603400966283
30
0
41
1
10
0.399001434968568
20
-15.6082542878849
30
0
41
1
10
0.409774939720023
20
-15.6110133584076
30
0
41
1
10
0.427082818197221
20
-15.6168884593631
30
0
41
1
10
0.433839937004677
20
-15.6200875756986
30
0
41
1
10
0.442732618360651
20
-15.6265864702699
30
0
41
1
10
0.444999999999936
20
-15.6299073055825
30
0
41
1
10
0.444999999999936
20
-15.633301803709
30
0
0
SPLINE
5
15B
100
AcDbEntity
8
1
62
256
6
ByLayer
370
13
48
1
60
0
100
AcDbSpline
70
4
71
1
72
4
73
2
40
0
40
0
40
1
40
1
41
1
10
14.5
20
-0.211102550927905
30
0
41
1
10
10
20
-0.211102550927905
30
0
0
SPLINE
5
15C
100
AcDbEntity
8
1
62
256
6
ByLayer
370
13
48
1
60
0
100
AcDbSpline
70
4
71
2
72
16
73
13
40
0
40
0
40
0
40
0.125
40
0.125
40
0.25
40
0.375
40
0.375
40
0.5
40
0.5
40
0.625
40
0.75
40
0.875
40
1
40
1
40
1
41
1
10
14.5
20
5.90195187077589
30
0
41
1
10
14.5
20
5.17791727699515
30
0
41
1
10
14.5
20
4.52732187526834
30
0
41
1
10
14.5
20
3.88167025789426
30
0
41
1
10
14.5
20
2.74641266245646
30
0
41
1
10
14.5
20
2.26308583985554
30
0
41
1
10
14.5
20
1.77711483073858
30
0
41
1
10
14.5
20
1.38218594781168
30
0
41
1
10
14.5
20
0.990920127479171
30
0
41
1
10
14.5
20
0.395941778702962
30
0
41
1
10
14.5
20
-0.0070949489918917
30
0
41
1
10
14.5
20
-0.211113552027911
30
0
41
1
10
14.5
20
-0.211097800452904
30
0
0
SPLINE
5
15D
100
AcDbEntity
8
1
62
256
6
ByLayer
370
13
48
1
60
0
100
AcDbSpline
70
4
71
2
72
6
73
3
40
0
40
0
40
0
40
1
40
1
40
1
41
1
10
38.7370007149092
20
7.79555495812778
30
0
41
1
10
39.5000578141906
20
7.99956085794383
30
0
41
1
10
40.2899149855243
20
8.00000000027319
30
0
0
SPLINE
5
15E
100
AcDbEntity
8
1
62
256
6
ByLayer
370
13
48
1
60
0
100
AcDbSpline
70
4
71
3
72
11
73
7
40
0
40
0
40
0
40
0
40
0.243185442340246
40
0.499999999999227
40
0.756814557658245
40
1
40
1
40
1
40
1
41
1
10
14.5
20
-0.23338378673597
30
0
41
1
10
14.5017281788884
20
-0.0141633178993743
30
0
41
1
10
14.5693273798563
20
0.41154586577909
30
0
41
1
10
14.882452025282
20
1.00780442861321
30
0
41
1
10
15.3773509485426
20
1.46458268234642
30
0
41
1
10
15.7710584829027
20
1.64006014080982
30
0
41
1
10
15.9823619097949
20
1.69846786584216
30
0
0
SPLINE
5
15F
100
AcDbEntity
8
1
62
256
6
ByLayer
370
13
48
1
60
0
100
AcDbSpline
70
2053
71
3
72
160
73
156
40
0
40
0
40
0
40
0
40
0.0156250000000327
40
0.0312500000000655
40
0.0468750000000982
40
0.0468750000000982
40
0.0546875000001146
40
0.0546875000001146
40
0.0585937500001222
40
0.0585937500001222
40
0.0625000000001299
40
0.0781250000001647
40
0.0937500000001995
40
0.0937500000001995
40
0.109375000000234
40
0.109375000000234
40
0.113281250000242
40
0.113281250000242
40
0.11718750000025
40
0.12500000000027
40
0.12500000000027
40
0.140625000000311
40
0.156250000000353
40
0.156250000000353
40
0.164062500000376
40
0.164062500000376
40
0.167968750000388
40
0.167968750000388
40
0.171875000000399
40
0.18750000000044
40
0.203125000000481
40
0.203125000000481
40
0.218750000000522
40
0.218750000000522
40
0.234375000000563
40
0.234375000000563
40
0.250000000000605
40
0.265625000000646
40
0.265625000000646
40
0.269531250000655
40
0.269531250000655
40
0.273437500000664
40
0.273437500000664
40
0.281250000000682
40
0.281250000000682
40
0.296875000000718
40
0.312500000000754
40
0.312500000000754
40
0.320312500000772
40
0.320312500000772
40
0.324218750000778
40
0.324218750000778
40
0.328125000000785
40
0.343750000000798
40
0.35937500000081
40
0.35937500000081
40
0.367187500000817
40
0.371093750000818
40
0.371093750000818
40
0.375000000000818
40
0.375000000000818
40
0.390625000000811
40
0.390625000000811
40
0.406250000000804
40
0.421875000000796
40
0.421875000000796
40
0.429687500000792
40
0.429687500000792
40
0.437500000000787
40
0.437500000000787
40
0.453125000000774
40
0.468750000000762
40
0.468750000000762
40
0.476562500000756
40
0.476562500000756
40
0.480468750000753
40
0.480468750000753
40
0.484375000000749
40
0.500000000000735
40
0.515625000000721
40
0.531250000000706
40
0.531250000000706
40
0.535156250000703
40
0.535156250000703
40
0.5390625000007
40
0.546875000000694
40
0.546875000000694
40
0.562500000000683
40
0.578125000000671
40
0.578125000000671
40
0.585937500000665
40
0.585937500000665
40
0.59375000000066
40
0.59375000000066
40
0.609375000000646
40
0.625000000000632
40
0.640625000000619
40
0.640625000000619
40
0.648437500000612
40
0.648437500000612
40
0.656250000000605
40
0.656250000000605
40
0.671875000000591
40
0.687500000000578
40
0.687500000000578
40
0.703125000000564
40
0.703125000000564
40
0.707031250000559
40
0.707031250000559
40
0.710937500000555
40
0.71875000000054
40
0.71875000000054
40
0.734375000000516
40
0.750000000000492
40
0.750000000000492
40
0.75781250000048
40
0.75781250000048
40
0.765625000000468
40
0.765625000000468
40
0.78125000000045
40
0.796875000000431
40
0.796875000000431
40
0.804687500000419
40
0.804687500000419
40
0.808593750000411
40
0.808593750000411
40
0.812500000000402
40
0.828125000000374
40
0.843750000000347
40
0.843750000000347
40
0.85156250000033
40
0.85156250000033
40
0.855468750000322
40
0.855468750000322
40
0.859375000000314
40
0.875000000000282
40
0.890625000000249
40
0.890625000000249
40
0.898437500000232
40
0.902343750000223
40
0.902343750000223
40
0.906250000000214
40
0.906250000000214
40
0.92187500000018
40
0.92187500000018
40
0.937500000000146
40
0.953125000000112
40
0.953125000000112
40
0.960937500000094
40
0.960937500000094
40
0.968750000000076
40
0.968750000000076
40
0.984375000000038
40
0.984375000000038
40
1
40
1
40
1
40
1
41
1
10
4.00542800167967
20
16.1646493152767
30
0
41
1
10
4.00012454790487
20
16.0842941438133
30
0
41
1
10
3.99732900053698
20
15.9240884399624
30
0
41
1
10
4.01603030376032
20
15.6852630315696
30
0
41
1
10
4.04381276524038
20
15.5270540948759
30
0
41
1
10
4.07057328432427
20
15.4087984916256
30
0
41
1
10
4.08048243322924
20
15.3694469750302
30
0
41
1
10
4.09686881335381
20
15.3105247697914
30
0
41
1
10
4.10258600213217
20
15.2909008596366
30
0
41
1
10
4.11446633304161
20
15.2519042527589
30
0
41
1
10
4.14532346919657
20
15.1549069137337
30
0
41
1
10
4.21114353868256
20
14.9847107527061
30
0
41
1
10
4.28409380650771
20
14.839654092972
30
0
41
1
10
4.36437703193167
20
14.6977874902409
30
0
41
1
10
4.40818411304838
20
14.6284487180678
30
0
41
1
10
4.46772730599662
20
14.5438765123793
30
0
41
1
10
4.47989381640878
20
14.5270433489352
30
0
41
1
10
4.50461349438785
20
14.4937252708102
30
0
41
1
10
4.5422568015141
20
14.4442887916662
30
0
41
1
10
4.58157428760785
20
14.3964598542376
30
0
41
1
10
4.66241285374576
20
14.3029234479262
30
0
41
1
10
4.7760656381509
20
14.1838578560944
30
0
41
1
10
4.90140117237445
20
14.0761001303313
30
0
41
1
10
4.99989163602584
20
13.9996494991167
30
0
41
1
10
5.0334712635912
20
13.9748951994044
30
0
41
1
10
5.08499145505925
20
13.9388862683559
30
0
41
1
10
5.10238255706639
20
13.9270537968951
30
0
41
1
10
5.13738168807674
20
13.9038809952694
30
0
41
1
10
5.2254571363228
20
13.8471568624435
30
0
41
1
10
5.38910702969213
20
13.7557583332533
30
0
41
1
10
5.54168996034718
20
13.689458520363
30
0
41
1
10
5.69785961598558
20
13.6307108944758
30
0
41
1
10
5.77773733869583
20
13.605112168081
30
0
41
1
10
5.94122021345322
20
13.5617801105038
30
0
41
1
10
6.02348135830368
20
13.5444090386856
30
0
41
1
10
6.18868748995999
20
13.5180483682429
30
0
41
1
10
6.35468558538719
20
13.5000440426358
30
0
41
1
10
6.522259575156
20
13.4986792322321
30
0
41
1
10
6.62749886399615
20
13.5031644313899
30
0
41
1
10
6.6485720622361
20
13.5043290355036
30
0
41
1
10
6.6907697284127
20
13.5071995403906
30
0
41
1
10
6.71188842707704
20
13.5089060573602
30
0
41
1
10
6.77495038461075
20
13.5148068018068
30
0
41
1
10
6.81672343003396
20
13.5197892281511
30
0
41
1
10
6.94125348485306
20
13.5378197377742
30
0
41
1
10
7.10519344061925
20
13.5700665220819
30
0
41
1
10
7.26499917199726
20
13.6184471983299
30
0
41
1
10
7.38328014026899
20
13.6608611490805
30
0
41
1
10
7.4224444152008
20
13.6760224232424
30
0
41
1
10
7.48078920664983
20
13.7003268925299
30
0
41
1
10
7.50018663033279
20
13.7086969092281
30
0
41
1
10
7.53863001071107
20
13.7258641209872
30
0
41
1
10
7.6339807148978
20
13.769905524557
30
0
41
1
10
7.79891692666138
20
13.8590977039181
30
0
41
1
10
7.93625860132056
20
13.9520612757595
30
0
41
1
10
8.03578123001552
20
14.0269062463837
30
0
41
1
10
8.08467019993202
20
14.0656114006707
30
0
41
1
10
8.1322341158002
20
14.1062608368295
30
0
41
1
10
8.16364625379993
20
14.1337960001315
30
0
41
1
10
8.17922484014844
20
14.147801241824
30
0
41
1
10
8.25601037185572
20
14.2185936929205
30
0
41
1
10
8.3140154348722
20
14.2777535568084
30
0
41
1
10
8.42344729806746
20
14.4008954154382
30
0
41
1
10
8.52629896577355
20
14.528860741819
30
0
41
1
10
8.61613846223543
20
14.6663032633934
30
0
41
1
10
8.67855688414522
20
14.7729763055711
30
0
41
1
10
8.69855982341346
20
14.8091927328
30
0
41
1
10
8.73649350039864
20
14.882062583407
30
0
41
1
10
8.75447739155595
20
14.9188002805027
30
0
41
1
10
8.80554579873501
20
15.0298961758113
30
0
41
1
10
8.865963185243
20
15.1803730763881
30
0
41
1
10
8.91139652304514
20
15.3353875377191
30
0
41
1
10
8.93983575677589
20
15.4533399511115
30
0
41
1
10
8.94837463746444
20
15.4929398627524
30
0
41
1
10
8.95975499093703
20
15.5527668710824
30
0
41
1
10
8.96331242961458
20
15.5727965035409
30
0
41
1
10
8.96991682619449
20
15.6127990301687
30
0
41
1
10
8.98516834019415
20
15.7127739373595
30
0
41
1
10
9.00150409898117
20
15.8924443088595
30
0
41
1
10
9.00034814026958
20
16.1313907036196
30
0
41
1
10
8.98438621230059
20
16.2902770353014
30
0
41
1
10
8.96956043249492
20
16.3894528159142
30
0
41
1
10
8.96634852375888
20
16.4093003566154
30
0
41
1
10
8.95946823229457
20
16.4487965980493
30
0
41
1
10
8.94845547433744
20
16.5077985229838
30
0
41
1
10
8.93539077959542
20
16.5660827031941
30
0
41
1
10
8.90657025279518
20
16.6817125292968
30
0
41
1
10
8.8609780400833
20
16.8333867260376
30
0
41
1
10
8.80121981971854
20
16.9801605147319
30
0
41
1
10
8.75099644543809
20
17.088391853126
30
0
41
1
10
8.73335293583125
20
17.1241603026708
30
0
41
1
10
8.69622525981322
20
17.1950716841453
30
0
41
1
10
8.67669086983369
20
17.230294437049
30
0
41
1
10
8.61583366413601
20
17.3340455083692
30
0
41
1
10
8.52851307239496
20
17.4677038572678
30
0
41
1
10
8.3792896366254
20
17.6545079577929
30
0
41
1
10
8.2674903867005
20
17.769896573977
30
0
41
1
10
8.17881712720964
20
17.8528928978225
30
0
41
1
10
8.14845383865077
20
17.8799663626328
30
0
41
1
10
8.08606101580381
20
17.9328952472755
30
0
41
1
10
8.05428886596883
20
17.9585314618086
30
0
41
1
10
7.95733918981779
20
18.0329293640945
30
0
41
1
10
7.82365781685343
20
18.125498334425
30
0
41
1
10
7.6811438600086
20
18.2049097103808
30
0
41
1
10
7.53407802365467
20
18.277588700789
30
0
41
1
10
7.45827014331928
20
18.3105633950481
30
0
41
1
10
7.36048745833568
20
18.3473384690813
30
0
41
1
10
7.34075296972031
20
18.354479231311
30
0
41
1
10
7.301217139595
20
18.3682250161222
30
0
41
1
10
7.24174666041972
20
18.3880665046228
30
0
41
1
10
7.1817801795512
20
18.4055987676587
30
0
41
1
10
7.0611919421691
20
18.4376187881213
30
0
41
1
10
6.8986625262238
20
18.4722048811821
30
0
41
1
10
6.73263116801206
20
18.4905722985595
30
0
41
1
10
6.60675062935775
20
18.4980735000801
30
0
41
1
10
6.56452145456029
20
18.4995264824218
30
0
41
1
10
6.47977445474726
20
18.50027730097
30
0
41
1
10
6.4375884186669
20
18.4995743898684
30
0
41
1
10
6.31157944293727
20
18.4943065791637
30
0
41
1
10
6.14502882399927
20
18.4788765752089
30
0
41
1
10
5.9813278150084
20
18.4470317207596
30
0
41
1
10
5.85962432737409
20
18.4169537164333
30
0
41
1
10
5.81923552801879
20
18.4058933943132
30
0
41
1
10
5.75892430594661
20
18.387728552089
30
0
41
1
10
5.73886837463806
20
18.3814107435035
30
0
41
1
10
5.69908438480172
20
18.368327675487
30
0
41
1
10
5.60029708686614
20
18.3344503368668
30
0
41
1
10
5.42839581206817
20
18.263172079709
30
0
41
1
10
5.28365893758996
20
18.1856926713905
30
0
41
1
10
5.17809148574008
20
18.1223200485308
30
0
41
1
10
5.14340079824126
20
18.1003169936318
30
0
41
1
10
5.0921159935977
20
18.0659830206234
30
0
41
1
10
5.07512417113065
20
18.0543007747246
30
0
41
1
10
5.04152611513001
20
18.0305861070607
30
0
41
1
10
4.95849514020677
20
17.97042030514
30
0
41
1
10
4.81750724438587
20
17.854381044626
30
0
41
1
10
4.70369206218561
20
17.7406161784604
30
0
41
1
10
4.62257891392898
20
17.6513348502406
30
0
41
1
10
4.58308624909319
20
17.6057030776858
30
0
41
1
10
4.54519555727018
20
17.5585720202029
30
0
41
1
10
4.52029278148882
20
17.5268157978128
30
0
41
1
10
4.50800556449383
20
17.5107499864927
30
0
41
1
10
4.44767577161974
20
17.4298541555021
30
0
41
1
10
4.40298701009823
20
17.363407551757
30
0
41
1
10
4.32045466808972
20
17.2271617241443
30
0
41
1
10
4.24476947228101
20
17.0875622638041
30
0
41
1
10
4.1825944582676
20
16.9412756897757
30
0
41
1
10
4.14110922739098
20
16.828991203303
30
0
41
1
10
4.12812550817853
20
16.7910875375067
30
0
41
1
10
4.10397349336654
20
16.7146083378059
30
0
41
1
10
4.092847128485
20
16.6761737939563
30
0
41
1
10
4.06228373998215
20
16.5602885163452
30
0
41
1
10
4.04565585200669
20
16.4822572722501
30
0
41
1
10
4.01988118272141
20
16.3246350652774
30
0
41
1
10
4.01073145545445
20
16.2450044867398
30
0
41
1
10
4.00542800167967
20
16.1646493152767
30
0
0
SPLINE
5
160
100
AcDbEntity
8
1
62
256
6
ByLayer
370
13
48
1
60
0
100
AcDbSpline
70
4
71
3
72
14
73
10
40
0
40
0
40
0
40
0
40
0.25
40
0.25
40
0.5
40
0.5
40
0.75
40
0.75
40
1
40
1
40
1
40
1
41
1
10
0.345000000000027
20
37.3081209109218
30
0
41
1
10
0.360757366671009
20
37.311638620418
30
0
41
1
10
0.374783552480153
20
37.3158539008804
30
0
41
1
10
0.399656874787809
20
37.3255559320836
30
0
41
1
10
0.410367324726622
20
37.3310334910497
30
0
41
1
10
0.427488311524598
20
37.3426258142854
30
0
41
1
10
0.434102063111254
20
37.3488903767895
30
0
41
1
10
0.442794761229038
20
37.3615724377927
30
0
41
1
10
0.444999999999993
20
37.3680385137713
30
0
41
1
10
0.444999999999936
20
37.3746322325197
30
0
0
SPLINE
5
161
100
AcDbEntity
8
1
62
256
6
ByLayer
370
13
48
1
60
0
100
AcDbSpline
70
4
71
3
72
14
73
10
40
0
40
0
40
0
40
0
40
0.25
40
0.25
40
0.5
40
0.5
40
0.75
40
0.75
40
1
40
1
40
1
40
1
41
1
10
0.444999999999936
20
37.3766217289543
30
0
41
1
10
0.444999999999993
20
37.3832046573082
30
0
41
1
10
0.442799939368797
20
37.3896436586345
30
0
41
1
10
0.434086795515896
20
37.4022418171045
30
0
41
1
10
0.427469634183126
20
37.4084195683025
30
0
41
1
10
0.410388054716464
20
37.4197985858205
30
0
41
1
10
0.399710973981655
20
37.4251571447908
30
0
41
1
10
0.374795347173176
20
37.4346589438282
30
0
41
1
10
0.360753547510058
20
37.4387671571139
30
0
41
1
10
0.345000000000027
20
37.4421860053649
30
0
0
SPLINE
5
162
100
AcDbEntity
8
1
62
256
6
ByLayer
370
13
48
1
60
0
100
AcDbSpline
70
4
71
3
72
14
73
10
40
0
40
0
40
0
40
0
40
0.25
40
0.25
40
0.5
40
0.5
40
0.75
40
0.75
40
1
40
1
40
1
40
1
41
1
10
0.345000000000027
20
37.853973746165
30
0
41
1
10
0.360654258501199
20
37.8570599052173
30
0
41
1
10
0.374631462254115
20
37.8607604041156
30
0
41
1
10
0.399469432592639
20
37.8692937179913
30
0
41
1
10
0.410198670041837
20
37.8741203800627
30
0
41
1
10
0.427373517128672
20
37.8843506316551
30
0
41
1
10
0.43402800646868
20
37.889889984261
30
0
41
1
10
0.442777200235014
20
37.901111934507
30
0
41
1
10
0.444999999999936
20
37.9068359143074
30
0
41
1
10
0.444999999999936
20
37.9126754759568
30
0
0
SPLINE
5
163
100
AcDbEntity
8
1
62
256
6
ByLayer
370
13
48
1
60
0
100
AcDbSpline
70
4
71
3
72
14
73
10
40
0
40
0
40
0
40
0
40
0.25
40
0.25
40
0.5
40
0.5
40
0.75
40
0.75
40
1
40
1
40
1
40
1
41
1
10
0.444999999999936
20
37.9144302956041
30
0
41
1
10
0.444999999999936
20
37.9202609669234
30
0
41
1
10
0.442781754353575
20
37.92596048685
30
0
41
1
10
0.434004509878548
20
37.9371051918019
30
0
41
1
10
0.427349063244719
20
37.9425576913617
30
0
41
1
10
0.410203947123932
20
37.9525883939488
30
0
41
1
10
0.399478283681901
20
37.9573108358853
30
0
41
1
10
0.374630920076015
20
37.9656367807652
30
0
41
1
10
0.360650613755752
20
37.9692325642842
30
0
41
1
10
0.345000000000027
20
37.9722247226701
30
0
0
SPLINE
5
164
100
AcDbEntity
8
1
62
256
6
ByLayer
370
13
48
1
60
0
100
AcDbSpline
70
4
71
3
72
14
73
10
40
0
40
0
40
0
40
0
40
0.25
40
0.25
40
0.5
40
0.5
40
0.75
40
0.75
40
1
40
1
40
1
40
1
41
1
10
0.345000000000027
20
38.3334158515353
30
0
41
1
10
0.360565388540408
20
38.3360944583782
30
0
41
1
10
0.374499571139381
20
38.3393078370774
30
0
41
1
10
0.399305760982429
20
38.3467293754785
30
0
41
1
10
0.410050806680147
20
38.3509336688995
30
0
41
1
10
0.427272292093846
20
38.3598560091509
30
0
41
1
10
0.43396252390005
20
38.3646951616567
30
0
41
1
10
0.442761635709303
20
38.3745043155817
30
0
41
1
10
0.444999999999993
20
38.3795091170674
30
0
41
1
10
0.444999999999936
20
38.3846165667228
30
0
0
SPLINE
5
165
100
AcDbEntity
8
1
62
256
6
ByLayer
370
13
48
1
60
0
100
AcDbSpline
70
4
71
3
72
14
73
10
40
0
40
0
40
0
40
0
40
0.25
40
0.25
40
0.5
40
0.5
40
0.75
40
0.75
40
1
40
1
40
1
40
1
41
1
10
0.444999999999936
20
38.3861459046243
30
0
41
1
10
0.444999999999936
20
38.3912460869036
30
0
41
1
10
0.442765562070122
20
38.3962282549094
30
0
41
1
10
0.43393143851398
20
38.405964339494
30
0
41
1
10
0.42724260448972
20
38.4107173339862
30
0
41
1
10
0.410041230829051
20
38.4194517538898
30
0
41
1
10
0.399277933639212
20
38.4235608610556
30
0
41
1
10
0.374489363645637
20
38.4307724628537
30
0
41
1
10
0.360562093772842
20
38.4338837016675
30
0
41
1
10
0.345000000000027
20
38.4364723656785
30
0
0
SPLINE
5
166
100
AcDbEntity
8
1
62
256
6
ByLayer
370
13
48
1
60
0
100
AcDbSpline
70
4
71
3
72
14
73
10
40
0
40
0
40
0
40
0
40
0.25
40
0.25
40
0.5
40
0.5
40
0.75
40
0.75
40
1
40
1
40
1
40
1
41
1
10
0.345000000000027
20
38.7489124146488
30
0
41
1
10
0.360489670224524
20
38.7512032198816
30
0
41
1
10
0.374386621728945
20
38.7539523276413
30
0
41
1
10
0.399164779720877
20
38.7603093556276
30
0
41
1
10
0.409923000586559
20
38.7639150618239
30
0
41
1
10
0.427184370297937
20
38.7715746248159
30
0
41
1
10
0.433905512732395
20
38.7757344262085
30
0
41
1
10
0.442748059679616
20
38.7841699903705
30
0
41
1
10
0.444999999999936
20
38.7884745753576
30
0
41
1
10
0.444999999999936
20
38.7928681100464
30
0
0
SPLINE
5
167
100
AcDbEntity
8
1
62
256
6
ByLayer
370
13
48
1
60
0
100
AcDbSpline
70
4
71
3
72
14
73
10
40
0
40
0
40
0
40
0
40
0.25
40
0.25
40
0.5
40
0.5
40
0.75
40
0.75
40
1
40
1
40
1
40
1
41
1
10
0.444999999999936
20
38.7941795915571
30
0
41
1
10
0.444999999999936
20
38.7985672155461
30
0
41
1
10
0.442751367561755
20
38.8028502947807
30
0
41
1
10
0.433867561369482
20
38.8112148124425
30
0
41
1
10
0.4271499841376
20
38.8152898334959
30
0
41
1
10
0.409899627684922
20
38.8227710212534
30
0
41
1
10
0.399107298440185
20
38.8262868035792
30
0
41
1
10
0.374368841906858
20
38.8324345411208
30
0
41
1
10
0.360486810633518
20
38.8350841211321
30
0
41
1
10
0.345000000000027
20
38.8372883379643
30
0
0
SPLINE
5
168
100
AcDbEntity
8
1
62
256
6
ByLayer
370
13
48
1
60
0
100
AcDbSpline
70
4
71
3
72
14
73
10
40
0
40
0
40
0
40
0
40
0.25
40
0.25
40
0.5
40
0.5
40
0.75
40
0.75
40
1
40
1
40
1
40
1
41
1
10
0.345000000000027
20
39.1025019121477
30
0
41
1
10
0.360426217398185
20
39.1044210499061
30
0
41
1
10
0.374291572015409
20
39.1067246088629
30
0
41
1
10
0.399045577128959
20
39.112056016238
30
0
41
1
10
0.40981462702257
20
39.1150827765473
30
0
41
1
10
0.427109520482247
20
39.1215168298218
30
0
41
1
10
0.433856885132229
20
39.125014504454
30
0
41
1
10
0.442736465442238
20
39.1321086918602
30
0
41
1
10
0.444999999999993
20
39.1357286181485
30
0
41
1
10
0.444999999999936
20
39.1394231361753
30
0
0
SPLINE
5
169
100
AcDbEntity
8
1
62
256
6
ByLayer
370
13
48
1
60
0
100
AcDbSpline
70
4
71
3
72
14
73
10
40
0
40
0
40
0
40
0
40
0.25
40
0.25
40
0.5
40
0.5
40
0.75
40
0.75
40
1
40
1
40
1
40
1
41
1
10
0.444999999999936
20
39.1405230286064
30
0
41
1
10
0.444999999999936
20
39.1442127436714
30
0
41
1
10
0.442739172755182
20
39.1478116814923
30
0
41
1
10
0.433812845677494
20
39.1548349979506
30
0
41
1
10
0.42707096427705
20
39.1582498621628
30
0
41
1
10
0.409778851490955
20
39.1645131359922
30
0
41
1
10
0.398964314652005
20
39.1674527706339
30
0
41
1
10
0.374267899307824
20
39.1725777551055
30
0
41
1
10
0.360423826305237
20
39.174784312058
30
0
41
1
10
0.345000000000027
20
39.1766195960651
30
0
0
SPLINE
5
16A
100
AcDbEntity
8
1
62
256
6
ByLayer
370
13
48
1
60
0
100
AcDbSpline
70
4
71
3
72
14
73
10
40
0
40
0
40
0
40
0
40
0.25
40
0.25
40
0.5
40
0.5
40
0.75
40
0.75
40
1
40
1
40
1
40
1
41
1
10
0.345000000000027
20
39.3958512823483
30
0
41
1
10
0.360374314966691
20
39.3974117525902
30
0
41
1
10
0.374213569932408
20
39.3992848845647
30
0
41
1
10
0.39894739644086
20
39.4036221910618
30
0
41
1
10
0.409725163799067
20
39.406085975717
30
0
41
1
10
0.427047546212066
20
39.4113248139156
30
0
41
1
10
0.433816567599933
20
39.4141743713369
30
0
41
1
10
0.442726847552194
20
39.4199532556763
30
0
41
1
10
0.444999999999993
20
39.4229011000219
30
0
41
1
10
0.444999999999936
20
39.4259086218909
30
0
0
SPLINE
5
16B
100
AcDbEntity
8
1
62
256
6
ByLayer
370
13
48
1
60
0
100
AcDbSpline
70
4
71
3
72
14
73
10
40
0
40
0
40
0
40
0
40
0.25
40
0.25
40
0.5
40
0.5
40
0.75
40
0.75
40
1
40
1
40
1
40
1
41
1
10
0.444999999999936
20
39.4268019971663
30
0
41
1
10
0.444999999999936
20
39.429805594827
30
0
41
1
10
0.442728977590605
20
39.432732441894
30
0
41
1
10
0.433767252974064
20
39.4384390659912
30
0
41
1
10
0.427005341256518
20
39.4412082658471
30
0
41
1
10
0.409678628188772
20
39.4462821578306
30
0
41
1
10
0.398847363116659
20
39.4486600071613
30
0
41
1
10
0.374185385824433
20
39.4527952353507
30
0
41
1
10
0.360372396814114
20
39.4545737210103
30
0
41
1
10
0.345000000000027
20
39.4560525205374
30
0
0
SPLINE
5
16C
100
AcDbEntity
8
1
62
256
6
ByLayer
370
13
48
1
60
0
100
AcDbSpline
70
4
71
3
72
14
73
10
40
0
40
0
40
0
40
0
40
0.25
40
0.25
40
0.5
40
0.5
40
0.75
40
0.75
40
1
40
1
40
1
40
1
41
1
10
0.345000000000027
20
39.6302982670115
30
0
41
1
10
0.360333396400733
20
39.631510302425
30
0
41
1
10
0.374151933258531
20
39.6329649318945
30
0
41
1
10
0.398869624587974
20
39.6363330589879
30
0
41
1
10
0.409654185645991
20
39.6382465275981
30
0
41
1
10
0.42699828573484
20
39.6423141574346
30
0
41
1
10
0.433784500544277
20
39.6445267042564
30
0
41
1
10
0.442719201809268
20
39.6490108715188
30
0
41
1
10
0.444999999999993
20
39.6512965521291
30
0
41
1
10
0.444999999999936
20
39.6536265414755
30
0
0
SPLINE
5
16D
100
AcDbEntity
8
1
62
256
6
ByLayer
370
13
48
1
60
0
100
AcDbSpline
70
4
71
3
72
14
73
10
40
0
40
0
40
0
40
0
40
0.25
40
0.25
40
0.5
40
0.5
40
0.75
40
0.75
40
1
40
1
40
1
40
1
41
1
10
0.444999999999936
20
39.6543174004374
30
0
41
1
10
0.444999999999993
20
39.6566441355417
30
0
41
1
10
0.442720780800073
20
39.6589083633297
30
0
41
1
10
0.433730744074296
20
39.6633175761783
30
0
41
1
10
0.426952944688992
20
39.6654525827469
30
0
41
1
10
0.409598710203284
20
39.6693595527156
30
0
41
1
10
0.398755187374832
20
39.6711872179853
30
0
41
1
10
0.374120404387838
20
39.6743585139953
30
0
41
1
10
0.36033194033439
20
39.6757206228627
30
0
41
1
10
0.345000000000027
20
39.676852672963
30
0
0
SPLINE
5
16E
100
AcDbEntity
8
1
62
256
6
ByLayer
370
13
48
1
60
0
100
AcDbSpline
70
4
71
3
72
14
73
10
40
0
40
0
40
0
40
0
40
0.25
40
0.25
40
0.5
40
0.5
40
0.75
40
0.75
40
1
40
1
40
1
40
1
41
1
10
0.345000000000027
20
39.806883615823
30
0
41
1
10
0.360303026686324
20
39.8077549570563
30
0
41
1
10
0.37410613401903
20
39.8088001147678
30
0
41
1
10
0.398811783218321
20
39.8112179690285
30
0
41
1
10
0.409601359671001
20
39.8125907433326
30
0
41
1
10
0.426961611815273
20
39.8155054005744
30
0
41
1
10
0.433760637951536
20
39.8170893743884
30
0
41
1
10
0.442713525248109
20
39.8202944125651
30
0
41
1
10
0.444999999999936
20
39.8219254313466
30
0
41
1
10
0.444999999999936
20
39.8235850360051
30
0
0
SPLINE
5
16F
100
AcDbEntity
8
1
62
256
6
ByLayer
370
13
48
1
60
0
100
AcDbSpline
70
4
71
3
72
14
73
10
40
0
40
0
40
0
40
0
40
0.25
40
0.25
40
0.5
40
0.5
40
0.75
40
0.75
40
1
40
1
40
1
40
1
41
1
10
0.444999999999936
20
39.8240764019144
30
0
41
1
10
0.444999999999936
20
39.8257332324914
30
0
41
1
10
0.442714580444999
20
39.8273419702015
30
0
41
1
10
0.433703282613351
20
39.8304682943871
30
0
41
1
10
0.426913636845484
20
39.8319777871579
30
0
41
1
10
0.409538886652115
20
39.8347347536018
30
0
41
1
10
0.398686836651734
20
39.8360211392275
30
0
41
1
10
0.374072273718525
20
39.8382478528347
30
0
41
1
10
0.360302014367505
20
39.8392023392316
30
0
41
1
10
0.345000000000027
20
39.8399949242043
30
0
0
SPLINE
5
170
100
AcDbEntity
8
1
62
256
6
ByLayer
370
13
48
1
60
0
100
AcDbSpline
70
4
71
3
72
14
73
10
40
0
40
0
40
0
40
0
40
0.25
40
0.25
40
0.5
40
0.5
40
0.75
40
0.75
40
1
40
1
40
1
40
1
41
1
10
0.345000000000027
20
39.9263750630466
30
0
41
1
10
0.36028288970931
20
39.9269111589589
30
0
41
1
10
0.374075786736682
20
39.9275532035433
30
0
41
1
10
0.398773521788201
20
39.9290341034344
30
0
41
1
10
0.409566441860704
20
39.9298729670269
30
0
41
1
10
0.426937431603847
20
39.9316474942067
30
0
41
1
10
0.4337449471534
20
39.9326088336291
30
0
41
1
10
0.442709816136812
20
39.9345456891942
30
0
41
1
10
0.444999999999936
20
39.9355273080185
30
0
41
1
10
0.444999999999936
20
39.9365215354197
30
0
0
SPLINE
5
171
100
AcDbEntity
8
1
62
256
6
ByLayer
370
13
48
1
60
0
100
AcDbSpline
70
4
71
3
72
17
73
13
40
0
40
0
40
0
40
0
40
0.250000000000006
40
0.250000000000006
40
0.374999999999958
40
0.374999999999958
40
0.49999999999991
40
0.624999999999862
40
0.624999999999862
40
0.749999999999814
40
0.749999999999814
40
1
40
1
40
1
40
1
41
1
10
0.444999999999936
20
39.9368155219767
30
0
41
1
10
0.44500000000005
20
39.9378072825009
30
0
41
1
10
0.442710374281034
20
39.9387654880552
30
0
41
1
10
0.435941221715609
20
39.9401556416114
30
0
41
1
10
0.43309403265539
20
39.9406141014202
30
0
41
1
10
0.426393494157765
20
39.941492245195
30
0
41
1
10
0.41868690707571
20
39.9423352390581
30
0
41
1
10
0.409005234804909
20
39.9431109666654
30
0
41
1
10
0.398302873657144
20
39.943852986528
30
0
41
1
10
0.392491345236692
20
39.9442030342227
30
0
41
1
10
0.374040502248988
20
39.9451746654669
30
0
41
1
10
0.360282299581854
20
39.9457275715572
30
0
41
1
10
0.345000000000027
20
39.9461857138981
30
0
0
SPLINE
5
172
100
AcDbEntity
8
1
62
256
6
ByLayer
370
13
48
1
60
0
100
AcDbSpline
70
4
71
3
72
17
73
13
40
0
40
0
40
0
40
0
40
0.250000000000187
40
0.250000000000187
40
0.375000000000139
40
0.375000000000139
40
0.500000000000091
40
0.625000000000044
40
0.625000000000044
40
0.749999999999996
40
0.749999999999996
40
1
40
1
40
1
40
1
41
1
10
0.345000000000027
20
39.9892844165341
30
0
41
1
10
0.360272779358524
20
39.9894885610112
30
0
41
1
10
0.374060640052107
20
39.989731330658
30
0
41
1
10
0.39258111945685
20
39.9901453068725
30
0
41
1
10
0.398423714695696
20
39.9902928309384
30
0
41
1
10
0.409065456971007
20
39.9905964054817
30
0
41
1
10
0.418721239267256
20
39.9909093130539
30
0
41
1
10
0.42644192789578
20
39.9912385123816
30
0
41
1
10
0.433162845191646
20
39.9915752256666
30
0
41
1
10
0.435980075020325
20
39.9917455046909
30
0
41
1
10
0.442708073986864
20
39.9922519204459
30
0
41
1
10
0.444999999999993
20
39.9925872812922
30
0
41
1
10
0.444999999999936
20
39.9929191179909
30
0
0
SPLINE
5
173
100
AcDbEntity
8
1
62
256
6
ByLayer
370
13
48
1
60
0
100
AcDbSpline
70
4
71
3
72
17
73
13
40
0
40
0
40
0
40
0
40
0.249999999999928
40
0.249999999999928
40
0.374999999999893
40
0.374999999999893
40
0.499999999999858
40
0.624999999999823
40
0.624999999999823
40
0.749999999999788
40
0.749999999999788
40
1
40
1
40
1
40
1
41
1
10
0.444999999999936
20
39.9930169755581
30
0
41
1
10
0.444999999999936
20
39.9933464937181
30
0
41
1
10
0.442708159990161
20
39.9936570689085
30
0
41
1
10
0.435933578523304
20
39.994097065637
30
0
41
1
10
0.43308424143629
20
39.9942403031346
30
0
41
1
10
0.426380175220572
20
39.9945113064035
30
0
41
1
10
0.418670061813259
20
39.994768074355
30
0
41
1
10
0.408985241911637
20
39.9949986392709
30
0
41
1
10
0.398280100829083
20
39.9952167181954
30
0
41
1
10
0.39247052565031
20
39.9953182417399
30
0
41
1
10
0.374024770403992
20
39.9955972746962
30
0
41
1
10
0.360272588762996
20
39.9957520833592
30
0
41
1
10
0.345000000000027
20
39.9958786704061
30
0
0
SPLINE
5
174
100
AcDbEntity
8
1
62
256
6
ByLayer
370
13
48
1
60
0
100
AcDbSpline
70
4
71
3
72
62
73
58
40
0
40
0
40
0
40
0
40
0.0148233714235098
40
0.0296079250626263
40
0.044354058388013
40
0.059062171985131
40
0.0737326695538837
40
0.0883659579074054
40
0.102962446969965
40
0.11752254977396
40
0.132046682456017
40
0.146535264252124
40
0.160988717491834
40
0.175407467591475
40
0.189791943046389
40
0.204142575422121
40
0.218459799344628
40
0.232744052489431
40
0.246995775569663
40
0.261215412323113
40
0.275403409498119
40
0.289560216838379
40
0.303686287066652
40
0.317782075867301
40
0.331848041867699
40
0.345884646618477
40
0.359892354572613
40
0.373871633063318
40
0.38782295228074
40
0.401746785247479
40
0.415643607792882
40
0.429513898526123
40
0.443358138808072
40
0.457176812721928
40
0.470970407042633
40
0.484739411205037
40
0.498484317270849
40
0.524029899791605
40
0.549505990642044
40
0.574915836646951
40
0.600262710088151
40
0.625549907694312
40
0.650780749586331
40
0.675958578179455
40
0.70108675704358
40
0.726168669723202
40
0.751207718518766
40
0.776207323231303
40
0.801170919872361
40
0.826101959341459
40
0.85100390607339
40
0.875880236657865
40
0.900734438434105
40
0.925570008063127
40
0.950390450080542
40
0.975199275432816
40
1
40
1
40
1
40
1
41
1
10
38.7370007149093
20
39.8628325181707
30
0
41
1
10
38.7440206990539
20
39.8641024206646
30
0
41
1
10
38.7580422841951
20
39.8666389001739
30
0
41
1
10
38.7787450128967
20
39.8703824333296
30
0
41
1
10
38.7991708527792
20
39.8740747913148
30
0
41
1
10
38.8192983124378
20
39.8777120140707
30
0
41
1
10
38.8391331279021
20
39.8812952108803
30
0
41
1
10
38.8586737679362
20
39.8848241380545
30
0
41
1
10
38.8779206410642
20
39.8882989131191
30
0
41
1
10
38.8968736380347
20
39.8917195572652
30
0
41
1
10
38.9155327878058
20
39.8950861174812
30
0
41
1
10
38.933898082439
20
39.8983986339515
30
0
41
1
10
38.951969523843
20
39.9016571487586
30
0
41
1
10
38.969747111295
20
39.9048617035602
30
0
41
1
10
38.9872308447726
20
39.9080123402088
30
0
41
1
10
39.0044207240645
20
39.9111091005863
30
0
41
1
10
39.0213167490069
20
39.9141520266475
30
0
41
1
10
39.0379189194224
20
39.9171411604088
30
0
41
1
10
39.0542272351345
20
39.9200765439505
30
0
41
1
10
39.070241695965
20
39.9229582194163
30
0
41
1
10
39.0859623017344
20
39.9257862290129
30
0
41
1
10
39.1013890522623
20
39.9285606150101
30
0
41
1
10
39.1165219473668
20
39.9312814197404
30
0
41
1
10
39.1313609868655
20
39.9339486855991
30
0
41
1
10
39.1459061705749
20
39.9365624550437
30
0
41
1
10
39.1601574983106
20
39.9391227705939
30
0
41
1
10
39.1741149698883
20
39.941629674832
30
0
41
1
10
39.1877785851222
20
39.9440832104015
30
0
41
1
10
39.2011483438271
20
39.9464834200079
30
0
41
1
10
39.2142242458173
20
39.9488303464187
30
0
41
1
10
39.2270062909058
20
39.951124032461
30
0
41
1
10
39.2394944789113
20
39.9533645210287
30
0
41
1
10
39.2516888096321
20
39.955551855057
30
0
41
1
10
39.2635892829427
20
39.9576860776141
30
0
41
1
10
39.2751958984364
20
39.9597672315611
30
0
41
1
10
39.2865086567554
20
39.9617953608155
30
0
41
1
10
39.3006872456863
20
39.9643368823867
30
0
41
1
10
39.3173754287412
20
39.9673276705329
30
0
41
1
10
39.3361102579647
20
39.9706844217226
30
0
41
1
10
39.3538324398819
20
39.9738589425461
30
0
41
1
10
39.3705419480976
20
39.9768513153615
30
0
41
1
10
39.3862387852642
20
39.9796616270693
30
0
41
1
10
39.4009229464242
20
39.9822899644237
30
0
41
1
10
39.4145944288298
20
39.9847364152885
30
0
41
1
10
39.4272532292645
20
39.9870010682897
30
0
41
1
10
39.4388993450401
20
39.9890840129569
30
0
41
1
10
39.4495327727487
20
39.9909853395082
30
0
41
1
10
39.4591535123172
20
39.9927051395697
30
0
41
1
10
39.4677615521334
20
39.9942435035219
30
0
41
1
10
39.4753569244394
20
39.9956005303756
30
0
41
1
10
39.4819394990493
20
39.9967762909889
30
0
41
1
10
39.4875097519386
20
39.9977709651082
30
0
41
1
10
39.4920659011399
20
39.9985843306872
30
0
41
1
10
39.4956145820657
20
39.9992176673306
30
0
41
1
10
39.4981310493689
20
39.9996666601522
30
0
41
1
10
39.4997075778701
20
39.9999478601544
30
0
41
1
10
39.4999025365684
20
39.9999826219436
30
0
41
1
10
39.5
20
40
30
0
0
SPLINE
5
175
100
AcDbEntity
8
1
62
256
6
ByLayer
370
13
48
1
60
0
100
AcDbSpline
70
4
71
3
72
52
73
48
40
0
40
0
40
0
40
0
40
0.125000000000005
40
0.125000000000005
40
0.250000000000009
40
0.250000000000009
40
0.31250000000001
40
0.31250000000001
40
0.343750000000009
40
0.343750000000009
40
0.375000000000009
40
0.375000000000009
40
0.437500000000007
40
0.437500000000007
40
0.500000000000006
40
0.500000000000006
40
0.562500000000004
40
0.562500000000004
40
0.593750000000002
40
0.593750000000002
40
0.609375000000001
40
0.609375000000001
40
0.625
40
0.625
40
0.687499999999999
40
0.687499999999999
40
0.749999999999998
40
0.749999999999998
40
0.781249999999998
40
0.781249999999998
40
0.812499999999997
40
0.812499999999997
40
0.843749999999997
40
0.843749999999997
40
0.874999999999997
40
0.874999999999997
40
0.882812499999996
40
0.882812499999996
40
0.890624999999995
40
0.890624999999995
40
0.906249999999996
40
0.906249999999996
40
0.937499999999997
40
0.937499999999997
40
0.968749999999999
40
0.968749999999999
40
1
40
1
40
1
40
1
41
1
10
15.9823676386243
20
34.9717027695083
30
0
41
1
10
17.0493746474571
20
35.2373731596405
30
0
41
1
10
18.1120877803468
20
35.4968625807939
30
0
41
1
10
20.2269497378644
20
36.0032706788656
30
0
41
1
10
21.279112705102
20
36.2501914029098
30
0
41
1
10
22.8473008970469
20
36.6108960773957
30
0
41
1
10
23.3683461203246
20
36.7295170840866
30
0
41
1
10
24.1470225054468
20
36.9049826175253
30
0
41
1
10
24.4061385891033
20
36.96306891022
30
0
41
1
10
24.9231057172763
20
37.0783594573166
30
0
41
1
10
25.1809494700104
20
37.1355621976502
30
0
41
1
10
25.9524233310865
20
37.3058260140438
30
0
41
1
10
26.4640027940949
20
37.4175436751326
30
0
41
1
10
27.4808109249885
20
37.637285563372
30
0
41
1
10
27.9860423804979
20
37.7453102218581
30
0
41
1
10
28.9890319845414
20
37.9575196837682
30
0
41
1
10
29.4867945044736
20
38.0617051744931
30
0
41
1
10
30.2267268719352
20
38.2149539972079
30
0
41
1
10
30.4722492745514
20
38.2655315602833
30
0
41
1
10
30.83867658964
20
38.3406157471074
30
0
41
1
10
30.9605416205093
20
38.3655199687557
30
0
41
1
10
31.2034267069979
20
38.4150237285064
30
0
41
1
10
31.3244462702565
20
38.4396232119373
30
0
41
1
10
31.9273271013332
20
38.5618449526389
30
0
41
1
10
32.4025764044924
20
38.6571461857153
30
0
41
1
10
33.3357782630357
20
38.8423579314116
30
0
41
1
10
33.7937511570938
20
38.9322717685973
30
0
41
1
10
34.4643982080701
20
39.0626225610125
30
0
41
1
10
34.6852166592967
20
39.1053176377476
30
0
41
1
10
35.1206452402375
20
39.1890875977114
30
0
41
1
10
35.3352570657876
20
39.2301627655387
30
0
41
1
10
35.7573528813888
20
39.3105553035971
30
0
41
1
10
35.9648393709026
20
39.3498730970852
30
0
41
1
10
36.3715286940006
20
39.4265747153288
30
0
41
1
10
36.5707353483887
20
39.4639591929318
30
0
41
1
10
36.8136385188059
20
39.509337018033
30
0
41
1
10
36.861912914086
20
39.5183447812855
30
0
41
1
10
36.95782165802
20
39.5362203738285
30
0
41
1
10
37.0054863550204
20
39.545093841419
30
0
41
1
10
37.1471877729607
20
39.5714437742908
30
0
41
1
10
37.2399509808379
20
39.588653390195
30
0
41
1
10
37.5127614032094
20
39.6391565367409
30
0
41
1
10
37.6873462353833
20
39.6713272209655
30
0
41
1
10
38.0196312793744
20
39.7323209273799
30
0
41
1
10
38.1773382186267
20
39.7611451630833
30
0
41
1
10
38.4729533242511
20
39.8149906886513
30
0
41
1
10
38.6108719174691
20
39.840013884934
30
0
41
1
10
38.7370007149092
20
39.8628325181707
30
0
0
SPLINE
5
176
100
AcDbEntity
8
1
62
256
6
ByLayer
370
13
48
1
60
0
100
AcDbSpline
70
4
71
3
72
42
73
38
40
0
40
0
40
0
40
0
40
0.0104081229491146
40
0.0208144760072695
40
0.031219494110263
40
0.0416236123613135
40
0.0520272659765444
40
0.0624308902303857
40
0.0728349204009561
40
0.0832397917154271
40
0.093645939295432
40
0.104053798102537
40
0.114463802883805
40
0.124876388117496
40
0.187094160448804
40
0.248907359544978
40
0.311333824142433
40
0.372889961623616
40
0.436052260161486
40
0.49776987037979
40
0.56155024579009
40
0.623177570368229
40
0.687419267915449
40
0.74864007592524
40
0.813283366282172
40
0.87392355998563
40
0.890129555155236
40
0.906028306264798
40
0.921637723458395
40
0.936976730411967
40
0.946272785015967
40
0.955462647554093
40
0.964551319487577
40
0.973543971117448
40
0.982445940053396
40
0.991262728602313
40
1
40
1
40
1
40
1
41
1
10
14.5
20
33.0988375058633
30
0
41
1
10
14.5000260997806
20
33.1066917080378
30
0
41
1
10
14.5000782949036
20
33.1223987767876
30
0
41
1
10
14.5005005738842
20
33.1459104778953
30
0
41
1
10
14.5011746856094
20
33.1693833289626
30
0
41
1
10
14.5021253146893
20
33.192814009119
30
0
41
1
10
14.5033458480497
20
33.2162034046306
30
0
41
1
10
14.5048380574393
20
33.2395512746223
30
0
41
1
10
14.506601468213
20
33.2628576806979
30
0
41
1
10
14.5086362072289
20
33.2861226019946
30
0
41
1
10
14.5109422416124
20
33.3093460454615
30
0
41
1
10
14.5135195758681
20
33.332527989676
30
0
41
1
10
14.5163682247003
20
33.3556684993245
30
0
41
1
10
14.5246618427681
20
33.417072016143
30
0
41
1
10
14.5421491096748
20
33.515773343609
30
0
41
1
10
14.5761892446415
20
33.6507320093304
30
0
41
1
10
14.619992169505
20
33.7830901607738
30
0
41
1
10
14.6744215006479
20
33.9140295650485
30
0
41
1
10
14.7392889109541
20
34.0418388618055
30
0
41
1
10
14.8163730260219
20
34.1681613675407
30
0
41
1
10
14.9048325500327
20
34.2900917648356
30
0
41
1
10
15.0077182801787
20
34.4097084854016
30
0
41
1
10
15.123322891416
20
34.5231836927291
30
0
41
1
10
15.2567799377867
20
34.6328970906696
30
0
41
1
10
15.4049815111242
20
34.7338561362226
30
0
41
1
10
15.5323317205035
20
34.80391374475
30
0
41
1
10
15.622262257555
20
34.846379489409
30
0
41
1
10
15.6699723294847
20
34.8674257752843
30
0
41
1
10
15.7182275028853
20
34.8872552761423
30
0
41
1
10
15.7608903450895
20
34.9035320741054
30
0
41
1
10
15.7975571871149
20
34.9166668035015
30
0
41
1
10
15.8279468208789
20
34.9270253581688
30
0
41
1
10
15.8584899887164
20
34.9369115504264
30
0
41
1
10
15.8891839165468
20
34.9463294362012
30
0
41
1
10
15.9200392017413
20
34.9552699977262
30
0
41
1
10
15.9510168207427
20
34.9637717998523
30
0
41
1
10
15.9719360459477
20
34.9690788511622
30
0
41
1
10
15.982348278138
20
34.9717203567602
30
0
0
SPLINE
5
177
100
AcDbEntity
8
1
62
256
6
ByLayer
370
13
48
1
60
0
100
AcDbSpline
70
4
71
3
72
53
73
49
40
0
40
0
40
0
40
0
40
0.0312499999999819
40
0.0312499999999819
40
0.0624999999999639
40
0.0624999999999639
40
0.12499999999993
40
0.12499999999993
40
0.156249999999925
40
0.156249999999925
40
0.187499999999919
40
0.187499999999919
40
0.218749999999913
40
0.218749999999913
40
0.249999999999908
40
0.281249999999902
40
0.281249999999902
40
0.312499999999897
40
0.312499999999897
40
0.343749999999891
40
0.343749999999891
40
0.374999999999886
40
0.374999999999886
40
0.437499999999877
40
0.437499999999877
40
0.468749999999879
40
0.468749999999879
40
0.499999999999881
40
0.499999999999881
40
0.562499999999899
40
0.562499999999899
40
0.624999999999916
40
0.624999999999916
40
0.687499999999933
40
0.687499999999933
40
0.749999999999951
40
0.749999999999951
40
0.812499999999968
40
0.812499999999968
40
0.843749999999976
40
0.843749999999976
40
0.874999999999984
40
0.874999999999984
40
0.937499999999992
40
0.937499999999992
40
0.968749999999996
40
0.968749999999996
40
1
40
1
40
1
40
1
41
1
10
11.4141428428543
20
31.224989991992
30
0
41
1
10
11.3911088435331
20
31.2438045533895
30
0
41
1
10
11.3665928810482
20
31.261935581906
30
0
41
1
10
11.3142847759196
20
31.2967035963692
30
0
41
1
10
11.2865001469904
20
31.3133068837608
30
0
41
1
10
11.1998270780864
20
31.3595250963095
30
0
41
1
10
11.1370956925155
20
31.3860167618923
30
0
41
1
10
11.0342048217626
20
31.4181835275269
30
0
41
1
10
10.9989764130037
20
31.4274432445484
30
0
41
1
10
10.9274135107331
20
31.4428055105583
30
0
41
1
10
10.8909585754021
20
31.4489467969914
30
0
41
1
10
10.8166473078735
20
31.4580345182022
30
0
41
1
10
10.7786067399763
20
31.4609871849996
30
0
41
1
10
10.7018126701888
20
31.4634134153179
30
0
41
1
10
10.6256412002065
20
31.4623521549187
30
0
41
1
10
10.5506640787136
20
31.4545991526227
30
0
41
1
10
10.4762831076659
20
31.4435000049094
30
0
41
1
10
10.4394182361317
20
31.4362473084491
30
0
41
1
10
10.3684693247308
20
31.4189327108126
30
0
41
1
10
10.3340873595836
20
31.4088333285566
30
0
41
1
10
10.2673819602739
20
31.385903821101
30
0
41
1
10
10.23487805973
20
31.3729837704237
30
0
41
1
10
10.1420456384824
20
31.3309864334584
30
0
41
1
10
10.0862117778977
20
31.2987742267067
30
0
41
1
10
10.0102950566735
20
31.2449083248391
30
0
41
1
10
9.98642797009609
20
31.226084345718
30
0
41
1
10
9.94204355747183
20
31.1874196440495
30
0
41
1
10
9.92140540133516
20
31.1674942216542
30
0
41
1
10
9.86378458561853
20
31.1060584632274
30
0
41
1
10
9.83104074787286
20
31.06286826318
30
0
41
1
10
9.77614419309805
20
30.9724639119192
30
0
41
1
10
9.75469028469081
20
30.9264275799748
30
0
41
1
10
9.72222305555363
20
30.8328387440016
30
0
41
1
10
9.71122483043604
20
30.7852846409262
30
0
41
1
10
9.69928547808286
20
30.6886808151507
30
0
41
1
10
9.69841782704054
20
30.6392998892006
30
0
41
1
10
9.7068519906349
20
30.5416085525946
30
0
41
1
10
9.71605997123493
20
30.4930840490452
30
0
41
1
10
9.73743247013908
20
30.4208009038103
30
0
41
1
10
9.74582371774176
20
30.3967911355854
30
0
41
1
10
9.76524599317287
20
30.3489536574385
30
0
41
1
10
9.77632683856689
20
30.3250381986049
30
0
41
1
10
9.81332758339261
20
30.2544508242791
30
0
41
1
10
9.84295181429945
20
30.2088472112671
30
0
41
1
10
9.89543065781072
20
30.1428657119791
30
0
41
1
10
9.91427240699466
20
30.1212785873649
30
0
41
1
10
9.95488599144323
20
30.0790011972925
30
0
41
1
10
9.97677138611357
20
30.0582149274503
30
0
41
1
10
9.99999999999994
20
30.0381933191277
30
0
0
SPLINE
5
178
100
AcDbEntity
8
1
62
256
6
ByLayer
370
13
48
1
60
0
100
AcDbSpline
70
2053
71
3
72
117
73
113
40
0
40
0
40
0
40
0
40
0.0312500000000065
40
0.0312500000000065
40
0.0468750000000094
40
0.0468750000000094
40
0.0546875000000107
40
0.0546875000000107
40
0.062500000000012
40
0.062500000000012
40
0.0937500000000106
40
0.0937500000000106
40
0.109375000000009
40
0.109375000000009
40
0.125000000000007
40
0.125000000000007
40
0.156250000000006
40
0.156250000000006
40
0.171875000000006
40
0.171875000000006
40
0.179687500000005
40
0.179687500000005
40
0.187500000000005
40
0.187500000000005
40
0.218749999999995
40
0.218749999999995
40
0.23437499999999
40
0.23437499999999
40
0.249999999999985
40
0.26562499999998
40
0.26562499999998
40
0.27343749999998
40
0.27343749999998
40
0.28124999999998
40
0.28124999999998
40
0.31249999999999
40
0.31249999999999
40
0.320312499999993
40
0.320312499999993
40
0.328124999999997
40
0.328124999999997
40
0.34375
40
0.34375
40
0.375000000000006
40
0.375000000000006
40
0.406250000000013
40
0.406250000000013
40
0.421875000000016
40
0.421875000000016
40
0.437500000000019
40
0.437500000000019
40
0.468750000000028
40
0.468750000000028
40
0.484375000000032
40
0.484375000000032
40
0.500000000000037
40
0.500000000000037
40
0.531250000000045
40
0.531250000000045
40
0.539062500000048
40
0.539062500000048
40
0.546875000000051
40
0.546875000000051
40
0.562500000000055
40
0.562500000000055
40
0.593750000000062
40
0.593750000000062
40
0.609375000000066
40
0.609375000000066
40
0.625000000000069
40
0.625000000000069
40
0.656250000000072
40
0.656250000000072
40
0.687500000000076
40
0.687500000000076
40
0.703125000000075
40
0.703125000000075
40
0.710937500000074
40
0.710937500000074
40
0.718750000000074
40
0.718750000000074
40
0.750000000000068
40
0.750000000000068
40
0.757812500000065
40
0.757812500000065
40
0.765625000000062
40
0.765625000000062
40
0.781250000000056
40
0.79687500000005
40
0.79687500000005
40
0.80468750000005
40
0.80468750000005
40
0.812500000000049
40
0.812500000000049
40
0.843750000000043
40
0.843750000000043
40
0.859375000000042
40
0.859375000000042
40
0.867187500000039
40
0.867187500000039
40
0.875000000000037
40
0.875000000000037
40
0.906250000000027
40
0.906250000000027
40
0.921875000000022
40
0.921875000000022
40
0.937500000000018
40
0.953125000000013
40
0.953125000000013
40
0.968750000000009
40
0.968750000000009
40
1
40
1
40
1
40
1
41
1
10
4
20
37.9967103839267
30
0
41
1
10
4
20
37.9437572884576
30
0
41
1
10
4.01539816133504
20
37.8906024725428
30
0
41
1
10
4.06048039595248
20
37.8106437477879
30
0
41
1
10
4.07919850533097
20
37.7839543539187
30
0
41
1
10
4.11290706350593
20
37.7438872494669
30
0
41
1
10
4.12508343012064
20
37.7305261353727
30
0
41
1
10
4.15135306667241
20
37.703797892474
30
0
41
1
10
4.16547061661311
20
37.6904135795231
30
0
41
1
10
4.24016471808739
20
37.6241704878889
30
0
41
1
10
4.31340121609406
20
37.5728117657866
30
0
41
1
10
4.4433018839419
20
37.4985488325313
30
0
41
1
10
4.48996628826865
20
37.4742609567125
30
0
41
1
10
4.59029222357168
20
37.4267259811583
30
0
41
1
10
4.64415469752316
20
37.4034206532172
30
0
41
1
10
4.81298675430105
20
37.3367486178902
30
0
41
1
10
4.9360797857675
20
37.2960873950351
30
0
41
1
10
5.1369441233303
20
37.2413859501355
30
0
41
1
10
5.20662170016601
20
37.2242073910872
30
0
41
1
10
5.31546831668675
20
37.2001740004109
30
0
41
1
10
5.35235505813262
20
37.1924814647638
30
0
41
1
10
5.42670344214355
20
37.1778702731289
30
0
41
1
10
5.4642568919146
20
37.1709310586495
30
0
41
1
10
5.65390601548944
20
37.1380726010703
30
0
41
1
10
5.8115904406086
20
37.1176168901924
30
0
41
1
10
6.05746400026396
20
37.0963673386696
30
0
41
1
10
6.14146640933552
20
37.0908595732858
30
0
41
1
10
6.30875799320756
20
37.0833820747661
30
0
41
1
10
6.47600999594783
20
37.0793457057694
30
0
41
1
10
6.64318432003085
20
37.0820828082663
30
0
41
1
10
6.76853562555982
20
37.0866973241559
30
0
41
1
10
6.81031447891775
20
37.0886630867184
30
0
41
1
10
6.89386219200617
20
37.09346148689
30
0
41
1
10
6.93571624184153
20
37.0963030434152
30
0
41
1
10
7.14250208693437
20
37.1125066496086
30
0
41
1
10
7.3017717558954
20
37.1318735867572
30
0
41
1
10
7.49353206058476
20
37.1634739435785
30
0
41
1
10
7.5315142370722
20
37.1701667670632
30
0
41
1
10
7.60673415680236
20
37.1842948899955
30
0
41
1
10
7.64407417062489
20
37.1917526062954
30
0
41
1
10
7.75406735327783
20
37.2150481574531
30
0
41
1
10
7.82467618818669
20
37.2317876230985
30
0
41
1
10
8.02873795414848
20
37.2853525279465
30
0
41
1
10
8.15449873452877
20
37.3254956420633
30
0
41
1
10
8.38563766964029
20
37.4139604393049
30
0
41
1
10
8.48763135434831
20
37.4609890568252
30
0
41
1
10
8.62131555762943
20
37.5348642376425
30
0
41
1
10
8.66265482205137
20
37.5600589847872
30
0
41
1
10
8.73883905137222
20
37.6115328516451
30
0
41
1
10
8.77370891996378
20
37.6378676725613
30
0
41
1
10
8.86659174403519
20
37.7168857628844
30
0
41
1
10
8.9137766704622
20
37.7700600301285
30
0
41
1
10
8.96283514050447
20
37.850324737494
30
0
41
1
10
8.97554306453162
20
37.8771657866492
30
0
41
1
10
8.99342102576247
20
37.9310060803171
30
0
41
1
10
8.9984560901305
20
37.9576043393072
30
0
41
1
10
9.00217681608899
20
38.0364007006889
30
0
41
1
10
8.9895873396905
20
38.0876259270867
30
0
41
1
10
8.95457803866486
20
38.1500604217905
30
0
41
1
10
8.94660436534292
20
38.162467309771
30
0
41
1
10
8.92866812531497
20
38.1871212993535
30
0
41
1
10
8.91868315670166
20
38.1993873539992
30
0
41
1
10
8.88603004681886
20
38.2355637867991
30
0
41
1
10
8.86059715304236
20
38.258972934913
30
0
41
1
10
8.77348907460157
20
38.3271797215041
30
0
41
1
10
8.70110711006231
20
38.3699693697403
30
0
41
1
10
8.56999838128729
20
38.4303086955244
30
0
41
1
10
8.52234513316836
20
38.4498147514341
30
0
41
1
10
8.42147571596786
20
38.4867026183504
30
0
41
1
10
8.36803816666873
20
38.5042001836833
30
0
41
1
10
8.19879253823655
20
38.5539925281058
30
0
41
1
10
8.07396265363377
20
38.5836470821926
30
0
41
1
10
7.7997114047397
20
38.6357995127471
30
0
41
1
10
7.654869198131
20
38.6574474245356
30
0
41
1
10
7.42633130280706
20
38.6838570536386
30
0
41
1
10
7.34825901566205
20
38.6916408366463
30
0
41
1
10
7.22821865655806
20
38.7017787194508
30
0
41
1
10
7.18759399110843
20
38.7049092190538
30
0
41
1
10
7.10599762621996
20
38.7106033188604
30
0
41
1
10
7.06507282350276
20
38.7131658121598
30
0
41
1
10
6.85982743472948
20
38.7245935918761
30
0
41
1
10
6.6936616614048
20
38.7293566172619
30
0
41
1
10
6.48348551887716
20
38.7299106301039
30
0
41
1
10
6.44132565741461
20
38.7297482088044
30
0
41
1
10
6.35675156970433
20
38.7288654218709
30
0
41
1
10
6.31435937016772
20
38.728143154198
30
0
41
1
10
6.1883116938792
20
38.7251638253392
30
0
41
1
10
6.02224015834645
20
38.7190230655267
30
0
41
1
10
5.86004635662414
20
38.7086161585182
30
0
41
1
10
5.73986047098873
20
38.6991768748554
30
0
41
1
10
5.70004221127215
20
38.6957574761722
30
0
41
1
10
5.62089962802077
20
38.6883592856357
30
0
41
1
10
5.58147783813365
20
38.6843696268532
30
0
41
1
10
5.38682570672825
20
38.663108247326
30
0
41
1
10
5.24046832372238
20
38.6421426012436
30
0
41
1
10
5.03432652812569
20
38.6046402355669
30
0
41
1
10
4.96786234060397
20
38.5911222652482
30
0
41
1
10
4.87161158348192
20
38.5692289860849
30
0
41
1
10
4.84013249796305
20
38.561665119416
30
0
41
1
10
4.77901179727468
20
38.5461576505835
30
0
41
1
10
4.7492804017632
20
38.5381941815891
30
0
41
1
10
4.60468196961648
20
38.4973254424054
30
0
41
1
10
4.50187747817995
20
38.4612940504983
30
0
41
1
10
4.36674598773175
20
38.4018493874483
30
0
41
1
10
4.32481702833161
20
38.381054359785
30
0
41
1
10
4.24903527110098
20
38.3384307511475
30
0
41
1
10
4.18086103256962
20
38.2945971277533
30
0
41
1
10
4.12744826984283
20
38.2483000975828
30
0
41
1
10
4.08139481529122
20
38.2007267493701
30
0
41
1
10
4.06200917838328
20
38.1762377858289
30
0
41
1
10
4.01542176691919
20
38.1011844444434
30
0
41
1
10
4
20
38.0496634793957
30
0
41
1
10
4
20
37.9967103839267
30
0
0
LINE
5
7A
100
AcDbEntity
8
81
62
256
6
ByLayer
370
13
48
0.05
60
0
100
AcDbLine
10
64
20
24
30
0
11
69
21
24
31
0
39
0
210
0
220
0
230
1
0
LINE
5
7B
100
AcDbEntity
8
1
62
256
6
ByLayer
370
18
48
1
60
1
100
AcDbLine
10
301.795592
20
175.173124
30
0
11
301.377595
21
178.348123
31
0
39
0
210
0
220
0
230
1
0
LINE
5
7C
100
AcDbEntity
8
1
62
256
6
ByLayer
370
18
48
1
60
1
100
AcDbLine
10
301.377595
20
178.348123
30
0
11
302.213588
21
178.348126
31
0
39
0
210
0
220
0
230
1
0
LINE
5
7D
100
AcDbEntity
8
1
62
256
6
ByLayer
370
18
48
1
60
1
100
AcDbLine
10
302.213588
20
178.348126
30
0
11
301.795592
21
175.173124
31
0
39
0
210
0
220
0
230
1
0
LINE
5
7E
100
AcDbEntity
8
1
62
256
6
ByLayer
370
18
48
1
60
1
100
AcDbLine
10
301.795592
20
165.173124
30
0
11
302.213588
21
161.998126
31
0
39
0
210
0
220
0
230
1
0
LINE
5
7F
100
AcDbEntity
8
1
62
256
6
ByLayer
370
18
48
1
60
1
100
AcDbLine
10
302.213588
20
161.998126
30
0
11
301.377595
21
161.998123
31
0
39
0
210
0
220
0
230
1
0
LINE
5
80
100
AcDbEntity
8
1
62
256
6
ByLayer
370
18
48
1
60
1
100
AcDbLine
10
301.377595
20
161.998123
30
0
11
301.795592
21
165.173124
31
0
39
0
210
0
220
0
230
1
0
LINE
5
81
100
AcDbEntity
8
80
62
256
6
ByLayer
370
13
48
0.05
60
0
100
AcDbLine
10
0
20
0
30
0
11
-5
21
0
31
0
39
0
210
0
220
0
230
1
0
LINE
5
82
100
AcDbEntity
8
4
62
256
6
ByLayer
370
13
48
0.05
60
0
100
AcDbLine
10
0
20
24
30
0
11
64
21
24
31
0
39
0
210
0
220
0
230
1
0
LINE
5
84
100
AcDbEntity
8
1
62
256
6
ByLayer
370
18
48
1
60
1
100
AcDbLine
10
100
20
0
30
0
11
100
21
297
31
0
39
0
210
0
220
0
230
1
0
LINE
5
85
100
AcDbEntity
8
1
62
256
6
ByLayer
370
18
48
1
60
1
100
AcDbLine
10
520
20
297
30
0
11
100
21
297
31
0
39
0
210
0
220
0
230
1
0
LINE
5
86
100
AcDbEntity
8
1
62
256
6
ByLayer
370
18
48
1
60
1
100
AcDbLine
10
520
20
297
30
0
11
520
21
0
31
0
39
0
210
0
220
0
230
1
0
LINE
5
87
100
AcDbEntity
8
1
62
256
6
ByLayer
370
18
48
1
60
1
100
AcDbLine
10
100
20
0
30
0
11
520
21
0
31
0
39
0
210
0
220
0
230
1
0
LINE
5
88
100
AcDbEntity
8
1
62
256
6
ByLayer
370
13
48
1
60
0
100
AcDbLine
10
0.345
20
39.806359
30
0
11
0.345
21
39.839995
31
0
39
0
210
0
220
0
230
1
0
LINE
5
89
100
AcDbEntity
8
1
62
256
6
ByLayer
370
13
48
1
60
0
100
AcDbLine
10
-0.325
20
-16.60499
30
0
11
-0.325
21
-16.480179
31
0
39
0
210
0
220
0
230
1
0
LINE
5
8A
100
AcDbEntity
8
1
62
256
6
ByLayer
370
13
48
1
60
0
100
AcDbLine
10
-0.325
20
39.016954
30
0
11
-0.325
21
39.254356
31
0
39
0
210
0
220
0
230
1
0
LINE
5
8B
100
AcDbEntity
8
1
62
256
6
ByLayer
370
13
48
1
60
0
100
AcDbLine
10
0.345
20
-16.914786
30
0
11
0.345
21
-16.897178
31
0
39
0
210
0
220
0
230
1
0
LINE
5
8C
100
AcDbEntity
8
1
62
256
6
ByLayer
370
13
48
1
60
0
100
AcDbLine
10
0.345
20
38.333346
30
0
11
0.345
21
38.436472
31
0
39
0
210
0
220
0
230
1
0
LINE
5
8D
100
AcDbEntity
8
1
62
256
6
ByLayer
370
13
48
1
60
0
100
AcDbLine
10
0.345
20
37.307959
30
0
11
0.345
21
37.442186
31
0
39
0
210
0
220
0
230
1
0
LINE
5
8E
100
AcDbEntity
8
1
62
256
6
ByLayer
370
13
48
1
60
0
100
AcDbLine
10
-0.325
20
37.719654
30
0
11
-0.325
21
38.098139
31
0
39
0
210
0
220
0
230
1
0
LINE
5
8F
100
AcDbEntity
8
1
62
256
6
ByLayer
370
13
48
1
60
0
100
AcDbLine
10
-0.325
20
-16.003164
30
0
11
-0.325
21
-15.808514
31
0
39
0
210
0
220
0
230
1
0
LINE
5
90
100
AcDbEntity
8
1
62
256
6
ByLayer
370
13
48
1
60
0
100
AcDbLine
10
0.345
20
37.853906
30
0
11
0.345
21
37.972225
31
0
39
0
210
0
220
0
230
1
0
LINE
5
91
100
AcDbEntity
8
1
62
256
6
ByLayer
370
13
48
1
60
0
100
AcDbLine
10
0.345
20
39.926144
30
0
11
0.345
21
39.946186
31
0
39
0
210
0
220
0
230
1
0
LINE
5
92
100
AcDbEntity
8
1
62
256
6
ByLayer
370
13
48
1
60
0
100
AcDbLine
10
8.975
20
40.002801
30
0
11
8.975
21
39.999999
31
0
39
0
210
0
220
0
230
1
0
LINE
5
93
100
AcDbEntity
8
1
62
256
6
ByLayer
370
13
48
1
60
0
100
AcDbLine
10
-0.325
20
-15.740465
30
0
11
-0.325
21
-13.853472
31
0
39
0
210
0
220
0
230
1
0
LINE
5
94
100
AcDbEntity
8
1
62
256
6
ByLayer
370
13
48
1
60
0
100
AcDbLine
10
0.345
20
-16.711312
30
0
11
0.345
21
-16.67884
31
0
39
0
210
0
220
0
230
1
0
LINE
5
95
100
AcDbEntity
8
1
62
256
6
ByLayer
370
13
48
1
60
0
100
AcDbLine
10
0.345
20
39.395497
30
0
11
0.345
21
39.456053
31
0
39
0
210
0
220
0
230
1
0
LINE
5
96
100
AcDbEntity
8
1
62
256
6
ByLayer
370
13
48
1
60
0
100
AcDbLine
10
-0.882956
20
4.811705
30
0
11
-0.882956
21
33.472227
31
0
39
0
210
0
220
0
230
1
0
LINE
5
97
100
AcDbEntity
8
1
62
256
6
ByLayer
370
13
48
1
60
0
100
AcDbLine
10
10
20
-14.375761
30
0
11
1
21
-14.375761
31
0
39
0
210
0
220
0
230
1
0
LINE
5
98
100
AcDbEntity
8
1
62
256
6
ByLayer
370
13
48
1
60
0
100
AcDbLine
10
-0.325
20
-16.744341
30
0
11
-0.325
21
-16.642365
31
0
39
0
210
0
220
0
230
1
0
LINE
5
99
100
AcDbEntity
8
1
62
256
6
ByLayer
370
13
48
1
60
0
100
AcDbLine
10
-0.325
20
39.325156
30
0
11
-0.325
21
39.51856
31
0
39
0
210
0
220
0
230
1
0
LINE
5
9A
100
AcDbEntity
8
1
62
256
6
ByLayer
370
13
48
1
60
0
100
AcDbLine
10
0.345
20
39.629912
30
0
11
0.345
21
39.676853
31
0
39
0
210
0
220
0
230
1
0
LINE
5
9B
100
AcDbEntity
8
1
62
256
6
ByLayer
370
13
48
1
60
0
100
AcDbLine
10
-0.325
20
39.574908
30
0
11
-0.325
21
39.724409
31
0
39
0
210
0
220
0
230
1
0
LINE
5
9C
100
AcDbEntity
8
1
62
256
6
ByLayer
370
13
48
1
60
0
100
AcDbLine
10
-0.325
20
-16.853381
30
0
11
-0.325
21
-16.774377
31
0
39
0
210
0
220
0
230
1
0
LINE
5
9D
100
AcDbEntity
8
1
62
256
6
ByLayer
370
13
48
1
60
0
100
AcDbLine
10
27.025
20
39.999986
30
0
11
27.025
21
40.002801
31
0
39
0
210
0
220
0
230
1
0
LINE
5
9E
100
AcDbEntity
8
1
62
256
6
ByLayer
370
13
48
1
60
0
100
AcDbLine
10
-0.325
20
33.830667
30
0
11
-0.325
21
37.585318
31
0
39
0
210
0
220
0
230
1
0
LINE
5
9F
100
AcDbEntity
8
1
62
256
6
ByLayer
370
13
48
1
60
0
100
AcDbLine
10
-0.325
20
-16.932241
30
0
11
-0.325
21
-16.875805
31
0
39
0
210
0
220
0
230
1
0
LINE
5
A0
100
AcDbEntity
8
1
62
256
6
ByLayer
370
13
48
1
60
0
100
AcDbLine
10
-0.325
20
39.766828
30
0
11
-0.325
21
39.872807
31
0
39
0
210
0
220
0
230
1
0
LINE
5
A1
100
AcDbEntity
8
1
62
256
6
ByLayer
370
13
48
1
60
0
100
AcDbLine
10
-0.325
20
39.900667
30
0
11
-0.325
21
39.964394
31
0
39
0
210
0
220
0
230
1
0
LINE
5
A2
100
AcDbEntity
8
1
62
256
6
ByLayer
370
13
48
1
60
0
100
AcDbLine
10
-0.325
20
-16.981016
30
0
11
-0.325
21
-16.947214
31
0
39
0
210
0
220
0
230
1
0
LINE
5
A3
100
AcDbEntity
8
1
62
256
6
ByLayer
370
13
48
1
60
0
100
AcDbLine
10
0.345
20
-15.667614
30
0
11
0.345
21
-15.599236
31
0
39
0
210
0
220
0
230
1
0
LINE
5
A4
100
AcDbEntity
8
1
62
256
6
ByLayer
370
13
48
1
60
0
100
AcDbLine
10
0.345
20
-16.564117
30
0
11
0.345
21
-16.524924
31
0
39
0
210
0
220
0
230
1
0
LINE
5
A5
100
AcDbEntity
8
1
62
256
6
ByLayer
370
13
48
1
60
0
100
AcDbLine
10
0.345
20
39.101718
30
0
11
0.345
21
39.17662
31
0
39
0
210
0
220
0
230
1
0
LINE
5
A6
100
AcDbEntity
8
1
62
256
6
ByLayer
370
13
48
1
60
0
100
AcDbLine
10
0.345
20
-16.38639
30
0
11
0.345
21
-16.339795
31
0
39
0
210
0
220
0
230
1
0
LINE
5
A7
100
AcDbEntity
8
1
62
256
6
ByLayer
370
13
48
1
60
0
100
AcDbLine
10
0.345
20
38.748413
30
0
11
0.345
21
38.837288
31
0
39
0
210
0
220
0
230
1
0
LINE
5
A8
100
AcDbEntity
8
1
62
256
6
ByLayer
370
13
48
1
60
0
100
AcDbLine
10
-0.325
20
39.978432
30
0
11
-0.325
21
39.999561
31
0
39
0
210
0
220
0
230
1
0
LINE
5
A9
100
AcDbEntity
8
1
62
256
6
ByLayer
370
13
48
1
60
0
100
AcDbLine
10
-0.325
20
-16.999766
30
0
11
-0.325
21
-16.988495
31
0
39
0
210
0
220
0
230
1
0
LINE
5
AA
100
AcDbEntity
8
1
62
256
6
ByLayer
370
13
48
1
60
0
100
AcDbLine
10
0.345
20
-16.971313
30
0
11
0.345
21
-16.960726
31
0
39
0
210
0
220
0
230
1
0
LINE
5
AB
100
AcDbEntity
8
1
62
256
6
ByLayer
370
13
48
1
60
0
100
AcDbLine
10
0.345
20
39.989194
30
0
11
0.345
21
39.995879
31
0
39
0
210
0
220
0
230
1
0
LINE
5
AC
100
AcDbEntity
8
1
62
256
6
ByLayer
370
13
48
1
60
0
100
AcDbLine
10
0.345
20
-16.997802
30
0
11
0.345
21
-16.994238
31
0
39
0
210
0
220
0
230
1
0
LINE
5
AD
100
AcDbEntity
8
1
62
256
6
ByLayer
370
13
48
1
60
0
100
AcDbLine
10
0.345
20
-15.938419
30
0
11
0.345
21
-15.87758
31
0
39
0
210
0
220
0
230
1
0
LINE
5
AE
100
AcDbEntity
8
1
62
256
6
ByLayer
370
13
48
1
60
0
100
AcDbLine
10
-0.248546
20
37.173801
30
0
11
-0.248546
21
33.878773
31
0
39
0
210
0
220
0
230
1
0
LINE
5
AF
100
AcDbEntity
8
1
62
256
6
ByLayer
370
13
48
1
60
0
100
AcDbLine
10
0.345
20
-16.828154
30
0
11
0.345
21
-16.803251
31
0
39
0
210
0
220
0
230
1
0
LINE
5
B0
100
AcDbEntity
8
1
62
256
6
ByLayer
370
13
48
1
60
0
100
AcDbLine
10
-0.248546
20
-13.880497
30
0
11
-0.248546
21
-15.531568
31
0
39
0
210
0
220
0
230
1
0
LINE
5
B1
100
AcDbEntity
8
1
62
256
6
ByLayer
370
13
48
1
60
0
100
AcDbLine
10
-0.325
20
-16.23463
30
0
11
-0.325
21
-16.063729
31
0
39
0
210
0
220
0
230
1
0
LINE
5
B2
100
AcDbEntity
8
1
62
256
6
ByLayer
370
13
48
1
60
0
100
AcDbLine
10
-0.325
20
38.215801
30
0
11
-0.325
21
38.545821
31
0
39
0
210
0
220
0
230
1
0
LINE
5
B3
100
AcDbEntity
8
1
62
256
6
ByLayer
370
13
48
1
60
0
100
AcDbLine
10
0.345
20
-16.177911
30
0
11
0.345
21
-16.124298
31
0
39
0
210
0
220
0
230
1
0
LINE
5
B4
100
AcDbEntity
8
1
62
256
6
ByLayer
370
13
48
1
60
0
100
AcDbLine
10
-0.325
20
-16.435156
30
0
11
-0.325
21
-16.287225
31
0
39
0
210
0
220
0
230
1
0
LINE
5
B5
100
AcDbEntity
8
1
62
256
6
ByLayer
370
13
48
1
60
0
100
AcDbLine
10
-0.325
20
38.647726
30
0
11
-0.325
21
38.93061
31
0
39
0
210
0
220
0
230
1
0
LINE
5
B6
100
AcDbEntity
8
1
62
256
6
ByLayer
370
13
48
1
60
0
100
AcDbLine
10
-0.782317
20
21.961207
30
0
11
10
21
21.961207
31
0
39
0
210
0
220
0
230
1
0
LINE
5
B7
100
AcDbEntity
8
1
62
256
6
ByLayer
370
13
48
1
60
0
100
AcDbLine
10
63.7
20
8
30
0
11
64
21
8.3
31
0
39
0
210
0
220
0
230
1
0
LINE
5
B8
100
AcDbEntity
8
1
62
256
6
ByLayer
370
13
48
1
60
0
100
AcDbLine
10
64
20
39.7
30
0
11
63.7
21
40
31
0
39
0
210
0
220
0
230
1
0
LINE
5
B9
100
AcDbEntity
8
1
62
256
6
ByLayer
370
18
48
1
60
0
100
AcDbLine
10
7.654701
20
16
30
0
11
7.07735
21
15
31
0
39
0
210
0
220
0
230
1
0
LINE
5
BA
100
AcDbEntity
8
1
62
256
6
ByLayer
370
18
48
1
60
0
100
AcDbLine
10
5.92265
20
17
30
0
11
7.07735
21
17
31
0
39
0
210
0
220
0
230
1
0
LINE
5
BB
100
AcDbEntity
8
1
62
256
6
ByLayer
370
18
48
1
60
0
100
AcDbLine
10
5.92265
20
15
30
0
11
5.345299
21
16
31
0
39
0
210
0
220
0
230
1
0
LINE
5
BC
100
AcDbEntity
8
1
62
256
6
ByLayer
370
18
48
1
60
0
100
AcDbLine
10
7.07735
20
17
30
0
11
7.654701
21
16
31
0
39
0
210
0
220
0
230
1
0
LINE
5
BD
100
AcDbEntity
8
1
62
256
6
ByLayer
370
18
48
1
60
0
100
AcDbLine
10
5.345299
20
16
30
0
11
5.92265
21
17
31
0
39
0
210
0
220
0
230
1
0
LINE
5
BE
100
AcDbEntity
8
1
62
256
6
ByLayer
370
18
48
1
60
0
100
AcDbLine
10
7.07735
20
15
30
0
11
5.92265
21
15
31
0
39
0
210
0
220
0
230
1
0
LINE
5
BF
100
AcDbEntity
8
1
62
256
6
ByLayer
370
13
48
1
60
0
100
AcDbLine
10
8.995059
20
40
30
0
11
-0.325
21
40
31
0
39
0
210
0
220
0
230
1
0
LINE
5
C0
100
AcDbEntity
8
1
62
256
6
ByLayer
370
13
48
1
60
0
100
AcDbLine
10
39.5005
20
40
30
0
11
27.025
21
40
31
0
39
0
210
0
220
0
230
1
0
LINE
5
C1
100
AcDbEntity
8
1
62
256
6
ByLayer
370
13
48
1
60
0
100
AcDbLine
10
14.5
20
31.22499
30
0
11
11.414143
21
31.22499
31
0
39
0
210
0
220
0
230
1
0
LINE
5
C2
100
AcDbEntity
8
1
62
256
6
ByLayer
370
13
48
1
60
0
100
AcDbLine
10
11.414143
20
31.22499
30
0
11
11.414143
21
8.5
31
0
39
0
210
0
220
0
230
1
0
LINE
5
C3
100
AcDbEntity
8
1
62
256
6
ByLayer
370
13
48
1
60
0
100
AcDbLine
10
11.414143
20
8.5
30
0
11
14.5
21
8.5
31
0
39
0
210
0
220
0
230
1
0
LINE
5
C4
100
AcDbEntity
8
1
62
256
6
ByLayer
370
13
48
1
60
0
100
AcDbLine
10
14.5
20
8.5
30
0
11
14.5
21
31.22499
31
0
39
0
210
0
220
0
230
1
0
LINE
5
C5
100
AcDbEntity
8
1
62
256
6
ByLayer
370
13
48
1
60
0
100
AcDbLine
10
15.981858
20
1.698333
30
0
11
38.737001
21
7.795555
31
0
39
0
210
0
220
0
230
1
0
LINE
5
C6
100
AcDbEntity
8
1
62
256
6
ByLayer
370
13
48
1
60
0
100
AcDbLine
10
-0.325
20
-17
30
0
11
10
21
-17
31
0
39
0
210
0
220
0
230
1
0
LINE
5
C7
100
AcDbEntity
8
1
62
256
6
ByLayer
370
13
48
1
60
0
100
AcDbLine
10
63.7
20
40
30
0
11
39.4995
21
40
31
0
39
0
210
0
220
0
230
1
0
LINE
5
C8
100
AcDbEntity
8
1
62
256
6
ByLayer
370
13
48
1
60
0
100
AcDbLine
10
40.289915
20
8
30
0
11
63.7
21
8
31
0
39
0
210
0
220
0
230
1
0
LINE
5
C9
100
AcDbEntity
8
1
62
256
6
ByLayer
370
13
48
1
60
0
100
AcDbLine
10
-0.882956
20
-13.649588
30
0
11
-0.882956
21
-4.811705
31
0
39
0
210
0
220
0
230
1
0
LINE
5
CA
100
AcDbEntity
8
1
62
256
6
ByLayer
370
13
48
1
60
0
100
AcDbLine
10
10
20
21.961207
30
0
11
10
21
-14.375761
31
0
39
0
210
0
220
0
230
1
0
LINE
5
CB
100
AcDbEntity
8
1
62
256
6
ByLayer
370
13
48
1
60
0
100
AcDbLine
10
1
20
-14.375761
30
0
11
1
21
-14.277489
31
0
39
0
210
0
220
0
230
1
0
LINE
5
CC
100
AcDbEntity
8
1
62
256
6
ByLayer
370
13
48
1
60
0
100
AcDbLine
10
1
20
34.63117
30
0
11
1
21
36.653162
31
0
39
0
210
0
220
0
230
1
0
LINE
5
CD
100
AcDbEntity
8
1
62
256
6
ByLayer
370
13
48
1
60
0
100
AcDbLine
10
0.445
20
37.374632
30
0
11
0.445
21
37.376622
31
0
39
0
210
0
220
0
230
1
0
LINE
5
CE
100
AcDbEntity
8
1
62
256
6
ByLayer
370
13
48
1
60
0
100
AcDbLine
10
-0.325
20
37.585318
30
0
11
-0.325
21
37.719672
31
0
39
0
210
0
220
0
230
1
0
LINE
5
CF
100
AcDbEntity
8
1
62
256
6
ByLayer
370
13
48
1
60
0
100
AcDbLine
10
0.445
20
37.912675
30
0
11
0.445
21
37.91443
31
0
39
0
210
0
220
0
230
1
0
LINE
5
D0
100
AcDbEntity
8
1
62
256
6
ByLayer
370
13
48
1
60
0
100
AcDbLine
10
-0.325
20
38.098139
30
0
11
-0.325
21
38.215986
31
0
39
0
210
0
220
0
230
1
0
LINE
5
D1
100
AcDbEntity
8
1
62
256
6
ByLayer
370
13
48
1
60
0
100
AcDbLine
10
0.445
20
38.384617
30
0
11
0.445
21
38.386146
31
0
39
0
210
0
220
0
230
1
0
LINE
5
D2
100
AcDbEntity
8
1
62
256
6
ByLayer
370
13
48
1
60
0
100
AcDbLine
10
-0.325
20
38.545821
30
0
11
-0.325
21
38.647762
31
0
39
0
210
0
220
0
230
1
0
LINE
5
D3
100
AcDbEntity
8
1
62
256
6
ByLayer
370
13
48
1
60
0
100
AcDbLine
10
0.445
20
38.792868
30
0
11
0.445
21
38.79418
31
0
39
0
210
0
220
0
230
1
0
LINE
5
D4
100
AcDbEntity
8
1
62
256
6
ByLayer
370
13
48
1
60
0
100
AcDbLine
10
-0.325
20
38.93061
30
0
11
-0.325
21
39.017142
31
0
39
0
210
0
220
0
230
1
0
LINE
5
D5
100
AcDbEntity
8
1
62
256
6
ByLayer
370
13
48
1
60
0
100
AcDbLine
10
0.445
20
39.139423
30
0
11
0.445
21
39.140523
31
0
39
0
210
0
220
0
230
1
0
LINE
5
D6
100
AcDbEntity
8
1
62
256
6
ByLayer
370
13
48
1
60
0
100
AcDbLine
10
-0.325
20
39.254356
30
0
11
-0.325
21
39.325886
31
0
39
0
210
0
220
0
230
1
0
LINE
5
D7
100
AcDbEntity
8
1
62
256
6
ByLayer
370
13
48
1
60
0
100
AcDbLine
10
0.445
20
39.425909
30
0
11
0.445
21
39.426802
31
0
39
0
210
0
220
0
230
1
0
LINE
5
D8
100
AcDbEntity
8
1
62
256
6
ByLayer
370
13
48
1
60
0
100
AcDbLine
10
-0.325
20
39.51856
30
0
11
-0.325
21
39.575412
31
0
39
0
210
0
220
0
230
1
0
LINE
5
D9
100
AcDbEntity
8
1
62
256
6
ByLayer
370
13
48
1
60
0
100
AcDbLine
10
0.445
20
39.653627
30
0
11
0.445
21
39.654317
31
0
39
0
210
0
220
0
230
1
0
LINE
5
DA
100
AcDbEntity
8
1
62
256
6
ByLayer
370
13
48
1
60
0
100
AcDbLine
10
-0.325
20
39.724409
30
0
11
-0.325
21
39.766835
31
0
39
0
210
0
220
0
230
1
0
LINE
5
DB
100
AcDbEntity
8
1
62
256
6
ByLayer
370
13
48
1
60
0
100
AcDbLine
10
0.445
20
39.823585
30
0
11
0.445
21
39.824076
31
0
39
0
210
0
220
0
230
1
0
LINE
5
DC
100
AcDbEntity
8
1
62
256
6
ByLayer
370
13
48
1
60
0
100
AcDbLine
10
-0.325
20
39.872807
30
0
11
-0.325
21
39.900991
31
0
39
0
210
0
220
0
230
1
0
LINE
5
DD
100
AcDbEntity
8
1
62
256
6
ByLayer
370
13
48
1
60
0
100
AcDbLine
10
0.445
20
39.936522
30
0
11
0.445
21
39.936816
31
0
39
0
210
0
220
0
230
1
0
LINE
5
DE
100
AcDbEntity
8
1
62
256
6
ByLayer
370
13
48
1
60
0
100
AcDbLine
10
-0.325
20
39.964394
30
0
11
-0.325
21
39.978456
31
0
39
0
210
0
220
0
230
1
0
LINE
5
DF
100
AcDbEntity
8
1
62
256
6
ByLayer
370
13
48
1
60
0
100
AcDbLine
10
0.445
20
39.992919
30
0
11
0.445
21
39.993017
31
0
39
0
210
0
220
0
230
1
0
LINE
5
E0
100
AcDbEntity
8
1
62
256
6
ByLayer
370
13
48
1
60
0
100
AcDbLine
10
-0.325
20
40
30
0
11
-0.325
21
39.999561
31
0
39
0
210
0
220
0
230
1
0
LINE
5
E1
100
AcDbEntity
8
1
62
256
6
ByLayer
370
13
48
1
60
0
100
AcDbLine
10
14.5
20
31.22499
30
0
11
14.5
21
33.098838
31
0
39
0
210
0
220
0
230
1
0
LINE
5
E2
100
AcDbEntity
8
1
62
256
6
ByLayer
370
13
48
1
60
0
100
AcDbLine
10
10
20
30.038193
30
0
11
10
21
21.961207
31
0
39
0
210
0
220
0
230
1
0
LINE
5
E3
100
AcDbEntity
8
1
62
256
6
ByLayer
370
13
48
1
60
0
100
AcDbLine
10
14.5
20
8.5
30
0
11
14.5
21
5.901952
31
0
39
0
210
0
220
0
230
1
0
LINE
5
E4
100
AcDbEntity
8
1
62
256
6
ByLayer
370
13
48
1
60
0
100
AcDbLine
10
11.414143
20
8.5
30
0
11
10
21
8.5
31
0
39
0
210
0
220
0
230
1
0
LINE
5
E5
100
AcDbEntity
8
1
62
256
6
ByLayer
370
13
48
1
60
0
100
AcDbLine
10
-0.325
20
-16.999766
30
0
11
-0.325
21
-17
31
0
39
0
210
0
220
0
230
1
0
LINE
5
E6
100
AcDbEntity
8
1
62
256
6
ByLayer
370
13
48
1
60
0
100
AcDbLine
10
0.445
20
-16.996224
30
0
11
0.445
21
-16.996276
31
0
39
0
210
0
220
0
230
1
0
LINE
5
E7
100
AcDbEntity
8
1
62
256
6
ByLayer
370
13
48
1
60
0
100
AcDbLine
10
-0.325
20
-16.981016
30
0
11
-0.325
21
-16.988512
31
0
39
0
210
0
220
0
230
1
0
LINE
5
E8
100
AcDbEntity
8
1
62
256
6
ByLayer
370
13
48
1
60
0
100
AcDbLine
10
0.445
20
-16.966164
30
0
11
0.445
21
-16.966321
31
0
39
0
210
0
220
0
230
1
0
LINE
5
E9
100
AcDbEntity
8
1
62
256
6
ByLayer
370
13
48
1
60
0
100
AcDbLine
10
-0.325
20
-16.932241
30
0
11
-0.325
21
-16.947242
31
0
39
0
210
0
220
0
230
1
0
LINE
5
EA
100
AcDbEntity
8
1
62
256
6
ByLayer
370
13
48
1
60
0
100
AcDbLine
10
0.445
20
-16.906061
30
0
11
0.445
21
-16.906322
31
0
39
0
210
0
220
0
230
1
0
LINE
5
EB
100
AcDbEntity
8
1
62
256
6
ByLayer
370
13
48
1
60
0
100
AcDbLine
10
-0.325
20
-16.853381
30
0
11
-0.325
21
-16.875905
31
0
39
0
210
0
220
0
230
1
0
LINE
5
EC
100
AcDbEntity
8
1
62
256
6
ByLayer
370
13
48
1
60
0
100
AcDbLine
10
0.445
20
-16.815841
30
0
11
0.445
21
-16.816207
31
0
39
0
210
0
220
0
230
1
0
LINE
5
ED
100
AcDbEntity
8
1
62
256
6
ByLayer
370
13
48
1
60
0
100
AcDbLine
10
-0.325
20
-16.744341
30
0
11
-0.325
21
-16.774416
31
0
39
0
210
0
220
0
230
1
0
LINE
5
EE
100
AcDbEntity
8
1
62
256
6
ByLayer
370
13
48
1
60
0
100
AcDbLine
10
0.445
20
-16.695397
30
0
11
0.445
21
-16.695868
31
0
39
0
210
0
220
0
230
1
0
LINE
5
EF
100
AcDbEntity
8
1
62
256
6
ByLayer
370
13
48
1
60
0
100
AcDbLine
10
-0.325
20
-16.60499
30
0
11
-0.325
21
-16.642651
31
0
39
0
210
0
220
0
230
1
0
LINE
5
F0
100
AcDbEntity
8
1
62
256
6
ByLayer
370
13
48
1
60
0
100
AcDbLine
10
0.445
20
-16.54458
30
0
11
0.445
21
-16.545158
31
0
39
0
210
0
220
0
230
1
0
LINE
5
F1
100
AcDbEntity
8
1
62
256
6
ByLayer
370
13
48
1
60
0
100
AcDbLine
10
-0.325
20
-16.435156
30
0
11
-0.325
21
-16.48045
31
0
39
0
210
0
220
0
230
1
0
LINE
5
F2
100
AcDbEntity
8
1
62
256
6
ByLayer
370
13
48
1
60
0
100
AcDbLine
10
0.445
20
-16.363207
30
0
11
0.445
21
-16.363892
31
0
39
0
210
0
220
0
230
1
0
LINE
5
F3
100
AcDbEntity
8
1
62
256
6
ByLayer
370
13
48
1
60
0
100
AcDbLine
10
-0.325
20
-16.23463
30
0
11
-0.325
21
-16.287613
31
0
39
0
210
0
220
0
230
1
0
LINE
5
F4
100
AcDbEntity
8
1
62
256
6
ByLayer
370
13
48
1
60
0
100
AcDbLine
10
0.445
20
-16.151054
30
0
11
0.445
21
-16.151846
31
0
39
0
210
0
220
0
230
1
0
LINE
5
F5
100
AcDbEntity
8
1
62
256
6
ByLayer
370
13
48
1
60
0
100
AcDbLine
10
-0.325
20
-16.003164
30
0
11
-0.325
21
-16.063902
31
0
39
0
210
0
220
0
230
1
0
LINE
5
F6
100
AcDbEntity
8
1
62
256
6
ByLayer
370
13
48
1
60
0
100
AcDbLine
10
0.445
20
-15.907855
30
0
11
0.445
21
-15.908755
31
0
39
0
210
0
220
0
230
1
0
LINE
5
F7
100
AcDbEntity
8
1
62
256
6
ByLayer
370
13
48
1
60
0
100
AcDbLine
10
-0.325
20
-15.740465
30
0
11
-0.325
21
-15.809035
31
0
39
0
210
0
220
0
230
1
0
LINE
5
F8
100
AcDbEntity
8
1
62
256
6
ByLayer
370
13
48
1
60
0
100
AcDbLine
10
0.445
20
-15.633302
30
0
11
0.445
21
-15.634312
31
0
39
0
210
0
220
0
230
1
0
LINE
5
F9
100
AcDbEntity
8
1
62
256
6
ByLayer
370
13
48
1
60
0
100
AcDbLine
10
1
20
-14.375761
30
0
11
1
21
-15.269737
31
0
39
0
210
0
220
0
230
1
0
LINE
5
FA
100
AcDbEntity
8
1
62
256
6
ByLayer
370
13
48
1
60
0
100
AcDbLine
10
10
20
-17
30
0
11
10
21
-14.375761
31
0
39
0
210
0
220
0
230
1
0
LINE
5
FB
100
AcDbEntity
8
1
62
256
6
ByLayer
370
13
48
1
60
0
100
AcDbLine
10
63.7
20
40
30
0
11
63.7
21
8
31
0
39
0
210
0
220
0
230
1
0
LINE
5
FC
100
AcDbEntity
8
1
62
256
6
ByLayer
370
13
48
1
60
0
100
AcDbLine
10
64
20
39.7
30
0
11
64
21
8.3
31
0
39
0
210
0
220
0
230
1
0
MTEXT
5
179
100
AcDbEntity
8
SK6
62
256
6
ByLayer
370
18
48
1
60
0
100
AcDbMText
10
15.75
20
44.25
30
0
210
0
220
0
230
1
1
\W0.7130;C3-QC-SL80-R
40
3
41
0
44
1.084337
50
0
71
7
72
5
7
iso_b_vert
0
DIMENSION
5
187
100
AcDbEntity
8
SK2
62
256
6
ByLayer
370
13
48
1
60
0
100
AcDbDimension
2
DimnDraft3D1
10
-13.25
20
0
30
0
11
-13.25
21
9.771053
31
0
70
32
71
5
72
1
41
1
210
0
220
0
230
1
3
Standard
100
AcDbAlignedDimension
13
-2
23
24
33
0
14
-7
24
0
34
0
50
90
100
AcDbRotatedDimension
1001
ACAD
1000
DSTYLE
1002
{
1070
    74
1070
     0
1070
   279
1070
     0
1070
   172
1070
     1
1070
   173
1070
     1
1070
   340
1005
17A
1070
   271
1070
     1
1070
    77
1070
     1
1070
    73
1070
     0
1070
   171
1070
     4
1070
   274
1070
     4
1070
   177
1070
     7
1070
   176
1070
     7
1070
   178
1070
     7
1070
    78
1070
     8
1070
    41
1041
3.175
1070
   147
1041
1.75
1070
    42
1041
2.0
1070
    44
1041
2.0
1070
   140
1041
3.5
1070
   343
1005
0
1070
   344
1005
0
1002
}
0
DIMENSION
5
192
100
AcDbEntity
8
2
62
256
6
ByLayer
370
13
48
1
60
0
100
AcDbDimension
2
DimnDraft3D2
10
64
20
58.25
30
0
11
29.725
21
58.25
31
0
70
32
71
5
72
1
41
1
210
0
220
0
230
1
3
Standard
100
AcDbAlignedDimension
13
0
23
2
33
0
14
64
24
41.7
34
0
50
0
100
AcDbRotatedDimension
1001
ACAD
1000
DSTYLE
1002
{
1070
   279
1070
     0
1070
   172
1070
     1
1070
   173
1070
     1
1070
   340
1005
17A
1070
    77
1070
     1
1070
    73
1070
     0
1070
   171
1070
     4
1070
   274
1070
     4
1070
   177
1070
     7
1070
   176
1070
     7
1070
   178
1070
     7
1070
    78
1070
     8
1070
    41
1041
3.175
1070
   147
1041
1.75
1070
    42
1041
2.0
1070
    44
1041
2.0
1070
   140
1041
3.5
1070
   343
1005
0
1070
   344
1005
0
1002
}
0
DIMENSION
5
19D
100
AcDbEntity
8
SK2
62
256
6
ByLayer
370
13
48
1
60
0
100
AcDbDimension
2
DimnDraft3D3
10
78.75
20
8
30
0
11
75
21
24.833553
31
0
70
33
71
5
72
1
41
1
210
0
220
0
230
1
3
Standard
100
AcDbAlignedDimension
13
65.7
23
40
33
0
14
65.7
24
8
34
0
1001
ACAD
1000
DSTYLE
1002
{
1070
   279
1070
     0
1070
    74
1070
     0
1070
   173
1070
     1
1070
   340
1005
17A
1070
    77
1070
     1
1070
    73
1070
     0
1070
   171
1070
     4
1070
   274
1070
     4
1070
   177
1070
     7
1070
   176
1070
     7
1070
   178
1070
     7
1070
    78
1070
     8
1070
    41
1041
3.175
1070
   147
1041
1.75
1070
    42
1041
2.0
1070
    44
1041
2.0
1070
   140
1041
3.5
1070
   343
1005
0
1070
   344
1005
0
1002
}
0
ENDSEC
0
SECTION
2
OBJECTS
0
DICTIONARY
5
20e
330
0
100
AcDbDictionary
280
0
281
1
3
ACAD_GROUP
350
20f
3
ACAD_GROUP
350
210
3
ACAD_MLINESTYLE
350
211
0
DICTIONARY
5
20f
330
0
100
AcDbDictionary
280
0
281
1
0
DICTIONARY
5
210
330
0
100
AcDbDictionary
280
0
281
1
3
_DC_215-200(215)
350
1A7
3
<201243554MOD000_00>
350
1A6
3
C8_391_02_63090L_2D
350
1AA
3
C8_QC_C6_120R09_2D
350
1AB
3
DIT-000-00-C6_ABB_2D
350
1AC
3
IV_RC1207SR1
350
1A8
3
IV_RC1207SR15
350
1A9
0
DICTIONARY
5
211
330
0
100
AcDbDictionary
280
0
281
1
3
Standard
350
18
0
GROUP
5
1A7
330
210
100
AcDbGroup
300

70
0
71
1
340
130
340
131
340
132
340
133
340
134
340
135
340
136
340
137
340
138
340
139
340
13A
340
13B
340
13C
340
13D
340
13E
340
13F
340
130
340
131
340
132
340
133
340
134
340
135
340
136
340
137
340
138
340
139
340
13A
340
13B
340
13C
340
13D
340
13E
340
13F
0
GROUP
5
1A6
330
210
100
AcDbGroup
300

70
0
71
1
340
6C
340
6E
340
70
340
72
340
73
340
74
340
75
340
76
340
77
340
78
340
79
340
7A
340
7B
340
7C
340
7D
340
7E
340
7F
340
80
340
81
340
82
340
84
340
85
340
86
340
87
340
88
340
89
340
8A
340
8B
340
8C
340
8D
340
8E
340
8F
340
90
340
91
340
92
340
93
340
94
340
95
340
96
340
97
340
98
340
99
340
9A
340
9B
340
9C
340
9D
340
9E
340
9F
340
A0
340
A1
340
A2
340
A3
340
A4
340
A5
340
A6
340
A7
340
A8
340
A9
340
AA
340
AB
340
AC
340
AD
340
AE
340
AF
340
B0
340
B1
340
B2
340
B3
340
B4
340
B5
340
B6
340
B7
340
B8
340
B9
340
BA
340
BB
340
BC
340
BD
340
BE
340
BF
340
C0
340
C1
340
C2
340
C3
340
C4
340
C5
340
C6
340
C7
340
C8
340
C9
340
CA
340
CB
340
CC
340
CD
340
CE
340
CF
340
D0
340
D1
340
D2
340
D3
340
D4
340
D5
340
D6
340
D7
340
D8
340
D9
340
DA
340
DB
340
DC
340
DD
340
DE
340
DF
340
E0
340
E1
340
E2
340
E3
340
E4
340
E5
340
E6
340
E7
340
E8
340
E9
340
EA
340
EB
340
EC
340
ED
340
EE
340
EF
340
F0
340
F1
340
F2
340
F3
340
F4
340
F5
340
F6
340
F7
340
F8
340
F9
340
FA
340
FB
340
FC
340
FD
340
FE
340
FF
340
100
340
101
340
102
340
103
340
104
340
105
340
106
340
107
340
108
340
109
340
10A
340
10B
340
10C
340
10D
340
10E
340
10F
340
110
340
111
340
112
340
113
340
114
340
115
340
116
340
117
340
118
340
119
340
11A
340
11B
340
11C
340
11D
340
11E
340
11F
340
120
340
121
340
122
340
123
340
124
340
125
340
126
340
127
340
128
340
129
340
12A
340
12B
340
12C
340
12D
340
12E
340
12F
340
130
340
131
340
132
340
133
340
134
340
135
340
136
340
137
340
138
340
139
340
13A
340
13B
340
13C
340
13D
340
13E
340
13F
340
140
340
141
340
142
340
143
340
144
340
145
340
146
340
147
340
148
340
149
340
14A
340
14B
340
14C
340
14D
340
14E
340
14F
340
150
340
151
340
152
340
153
340
154
340
155
340
156
340
157
340
158
340
159
340
15A
340
15B
340
15C
340
15D
340
15E
340
15F
340
160
340
161
340
162
340
163
340
164
340
165
340
166
340
167
340
168
340
169
340
16A
340
16B
340
16C
340
16D
340
16E
340
16F
340
170
340
171
340
172
340
173
340
174
340
175
340
176
340
177
340
178
340
130
340
131
340
132
340
133
340
134
340
135
340
136
340
137
340
138
340
139
340
13A
340
13B
340
13C
340
13D
340
13E
340
13F
340
130
340
131
340
132
340
133
340
134
340
135
340
136
340
137
340
138
340
139
340
13A
340
13B
340
13C
340
13D
340
13E
340
13F
340
130
340
131
340
132
340
133
340
134
340
135
340
136
340
137
340
138
340
139
340
13A
340
13B
340
13C
340
13D
340
13E
340
13F
340
70
340
72
340
73
340
74
340
75
340
76
340
7B
340
7C
340
7D
340
7E
340
7F
340
80
340
77
340
78
340
79
340
84
340
85
340
86
340
87
340
88
340
89
340
8A
340
8B
340
8C
340
8D
340
8E
340
8F
340
90
340
91
340
92
340
93
340
94
340
95
340
96
340
97
340
98
340
99
340
9A
340
9B
340
9C
340
9D
340
9E
340
9F
340
A0
340
A1
340
A2
340
A3
340
A4
340
A5
340
A6
340
A7
340
A8
340
A9
340
AA
340
AB
340
AC
340
AD
340
AE
340
AF
340
B0
340
B1
340
B2
340
B3
340
B4
340
B5
340
B6
340
B7
340
B8
340
B9
340
BA
340
BB
340
BC
340
BD
340
BE
340
BF
340
C0
340
C1
340
C2
340
C3
340
C4
340
C5
340
C6
340
C7
340
C8
340
C9
340
CA
340
CB
340
CC
340
CD
340
CE
340
CF
340
D0
340
D1
340
D2
340
D3
340
D4
340
D5
340
D6
340
D7
340
D8
340
D9
340
DA
340
DB
340
DC
340
DD
340
DE
340
DF
340
E0
340
E1
340
E2
340
E3
340
E4
340
E5
340
E6
340
E7
340
E8
340
E9
340
EA
340
EB
340
EC
340
ED
340
EE
340
EF
340
F0
340
F1
340
F2
340
F3
340
F4
340
F5
340
F6
340
F7
340
F8
340
F9
340
FA
340
FB
340
FC
340
FD
340
FE
340
FF
340
100
340
101
340
102
340
103
340
104
340
105
340
106
340
107
340
108
340
109
340
10A
340
10B
340
10C
340
10D
340
10E
340
10F
340
110
340
111
340
112
340
113
340
114
340
115
340
116
340
117
340
118
340
119
340
11A
340
11B
340
11C
340
11D
340
11E
340
11F
340
120
340
121
340
122
340
123
340
124
340
125
340
126
340
127
340
128
340
129
340
12A
340
12B
340
12C
340
12D
340
12E
340
12F
340
140
340
141
340
142
340
143
340
144
340
145
340
146
340
147
340
148
340
149
340
14A
340
14B
340
14C
340
14D
340
14E
340
14F
340
150
340
151
340
152
340
153
340
154
340
155
340
156
340
157
340
158
340
159
340
15A
340
15B
340
15C
340
15D
340
15E
340
15F
340
160
340
161
340
162
340
163
340
164
340
165
340
166
340
167
340
168
340
169
340
16A
340
16B
340
16C
340
16D
340
16E
340
16F
340
170
340
171
340
172
340
173
340
174
340
175
340
176
340
177
340
178
340
179
340
187
340
192
340
19D
0
GROUP
5
1AA
330
210
100
AcDbGroup
300

70
0
71
1
340
70
340
72
340
73
340
74
340
75
340
76
340
7B
340
7C
340
7D
340
7E
340
7F
340
80
0
GROUP
5
1AB
330
210
100
AcDbGroup
300

70
0
71
1
340
77
340
78
340
79
0
GROUP
5
1AC
330
210
100
AcDbGroup
300

70
0
71
1
340
84
340
85
340
86
340
87
340
88
340
89
340
8A
340
8B
340
8C
340
8D
340
8E
340
8F
340
90
340
91
340
92
340
93
340
94
340
95
340
96
340
97
340
98
340
99
340
9A
340
9B
340
9C
340
9D
340
9E
340
9F
340
A0
340
A1
340
A2
340
A3
340
A4
340
A5
340
A6
340
A7
340
A8
340
A9
340
AA
340
AB
340
AC
340
AD
340
AE
340
AF
340
B0
340
B1
340
B2
340
B3
340
B4
340
B5
340
B6
340
B7
340
B8
340
B9
340
BA
340
BB
340
BC
340
BD
340
BE
340
BF
340
C0
340
C1
340
C2
340
C3
340
C4
340
C5
340
C6
340
C7
340
C8
340
C9
340
CA
340
CB
340
CC
340
CD
340
CE
340
CF
340
D0
340
D1
340
D2
340
D3
340
D4
340
D5
340
D6
340
D7
340
D8
340
D9
340
DA
340
DB
340
DC
340
DD
340
DE
340
DF
340
E0
340
E1
340
E2
340
E3
340
E4
340
E5
340
E6
340
E7
340
E8
340
E9
340
EA
340
EB
340
EC
340
ED
340
EE
340
EF
340
F0
340
F1
340
F2
340
F3
340
F4
340
F5
340
F6
340
F7
340
F8
340
F9
340
FA
340
FB
340
FC
340
FD
340
FE
340
FF
340
100
340
101
340
102
340
103
340
104
340
105
340
106
340
107
340
108
340
109
340
10A
340
10B
340
10C
340
10D
340
10E
340
10F
340
110
340
111
340
112
340
113
340
114
340
115
340
116
340
117
340
118
340
119
340
11A
340
11B
340
11C
340
11D
340
11E
340
11F
340
120
340
121
340
122
340
123
340
124
340
125
340
126
340
127
340
128
340
129
340
12A
340
12B
340
12C
340
12D
340
12E
340
12F
340
140
340
141
340
142
340
143
340
144
340
145
340
146
340
147
340
148
340
149
340
14A
340
14B
340
14C
340
14D
340
14E
340
14F
340
150
340
151
340
152
340
153
340
154
340
155
340
156
340
157
340
158
340
159
340
15A
340
15B
340
15C
340
15D
340
15E
340
15F
340
160
340
161
340
162
340
163
340
164
340
165
340
166
340
167
340
168
340
169
340
16A
340
16B
340
16C
340
16D
340
16E
340
16F
340
170
340
171
340
172
340
173
340
174
340
175
340
176
340
177
340
178
0
GROUP
5
1A8
330
210
100
AcDbGroup
300

70
0
71
1
340
130
340
131
340
132
340
133
340
134
340
135
340
136
340
137
0
GROUP
5
1A9
330
210
100
AcDbGroup
300

70
0
71
1
340
138
340
139
340
13A
340
13B
340
13C
340
13D
340
13E
340
13F
0
MLINESTYLE
5
18
330
211
100
AcDbMlineStyle
2
Standard
70
0
3

62
256
51
90
52
90
71
2
49
-0.5
62
256
6
ByLayer
49
0.5
62
256
6
ByLayer
0
RASTERVARIABLES
5
1fd
330

100
AcDbRasterVariables
90
0
70
1
71
1
72
1
0
ENDSEC
0
EOF
