0
SECTION
2
HEADER
9
$ACADVER
1
AC1015
9
$DWGCODEPAGE
3
ANSI_1252
9
$HANDSEED
5
199
9
$ANGBASE
50
0
9
$ANGDIR
70
0
9
$ATTMODE
70
1
9
$AUNITS
70
0
9
$AUPREC
70
0
9
$CECOLOR
62
256
9
$CELTSCALE
40
1
9
$CELTYPE
6
ByLayer
9
$CELWEIGHT
370
18
9
$CLAYER
8
0
9
$CMLJUST
70
0
9
$CMLSCALE
40
1
9
$CMLSTYLE
2
Standard
9
$DIMSTYLE
2
Standard
9
$TEXTSIZE
40
0.2
9
$TEXTSTYLE
7
Standard
9
$LUNITS
70
2
9
$LUPREC
70
4
9
$EXTNAMES
290
1
9
$INSUNITS
70
4
9
$LTSCALE
40
1
9
$LWDISPLAY
290
1
9
$PDMODE
70
0
9
$PDSIZE
40
0
9
$PLINEGEN
70
0
0
ENDSEC
0
SECTION
2
CLASSES
0
CLASS
1
RASTERVARIABLES
2
AcDbRasterVariables
3
ISM
90
0
280
0
281
0
0
ENDSEC
0
SECTION
2
TABLES
0
TABLE
2
VPORT
5
18f
100
AcDbSymbolTable
0
VPORT
5
1
100
AcDbSymbolTableRecord
100
AcDbViewportTableRecord
2
*Active
70
0
10
0
20
0
11
1
21
1
12
-1
22
1
13
0
23
0
14
0.5
24
0.5
15
10
25
10
16
0
26
0
36
1
17
0
27
0
37
0
0
ENDTAB
0
TABLE
2
LTYPE
5
190
100
AcDbSymbolTable
0
LTYPE
5
14
100
AcDbSymbolTableRecord
100
AcDbLinetypeTableRecord
70
0
2
ByBlock
3

72
65
73
0
40
0
0
LTYPE
5
15
100
AcDbSymbolTableRecord
100
AcDbLinetypeTableRecord
70
0
2
ByLayer
3

72
65
73
0
40
0
0
LTYPE
5
16
100
AcDbSymbolTableRecord
100
AcDbLinetypeTableRecord
70
0
2
CONTINUOUS
3
Solid line
72
65
73
0
40
0
0
LTYPE
5
6A
100
AcDbSymbolTableRecord
100
AcDbLinetypeTableRecord
70
0
2
CENTER
3
____ _ ____ _ ____ _ ____
72
65
73
4
40
47.5
49
22
74
0
49
-8.5
74
0
49
8.5
74
0
49
-8.5
74
0
0
LTYPE
5
6B
100
AcDbSymbolTableRecord
100
AcDbLinetypeTableRecord
70
0
2
DASHED
3
__ __ __ __ __ __ __ __ __
72
65
73
2
40
25.72
49
12.86
74
0
49
-12.86
74
0
0
ENDTAB
0
TABLE
2
LAYER
5
191
100
AcDbSymbolTable
0
LAYER
5
10
100
AcDbSymbolTableRecord
100
AcDbLayerTableRecord
2
0
70
0
62
7
6
CONTINUOUS
290
1
370
-3
390
0
0
LAYER
5
6D
100
AcDbSymbolTableRecord
100
AcDbLayerTableRecord
2
80
70
0
62
-6
6
CONTINUOUS
290
1
370
-3
390
0
0
LAYER
5
6F
100
AcDbSymbolTableRecord
100
AcDbLayerTableRecord
2
81
70
0
62
-3
6
CONTINUOUS
290
1
370
-3
390
0
0
LAYER
5
71
100
AcDbSymbolTableRecord
100
AcDbLayerTableRecord
2
1
70
0
62
4
6
CONTINUOUS
290
1
370
-3
390
0
0
LAYER
5
B1
100
AcDbSymbolTableRecord
100
AcDbLayerTableRecord
2
4
70
0
62
-2
6
CENTER
290
1
370
-3
390
0
0
LAYER
5
106
100
AcDbSymbolTableRecord
100
AcDbLayerTableRecord
2
2
70
0
62
7
6
CONTINUOUS
290
1
370
-3
390
0
0
LAYER
5
179
100
AcDbSymbolTableRecord
100
AcDbLayerTableRecord
2
SK4
70
0
62
2
6
CENTER
290
1
370
-3
390
0
0
LAYER
5
17a
100
AcDbSymbolTableRecord
100
AcDbLayerTableRecord
2
SK1
70
0
62
4
6
CONTINUOUS
290
1
370
-3
390
0
0
LAYER
5
17b
100
AcDbSymbolTableRecord
100
AcDbLayerTableRecord
2
SK6
70
0
62
5
6
CONTINUOUS
290
1
370
-3
390
0
0
LAYER
5
17c
100
AcDbSymbolTableRecord
100
AcDbLayerTableRecord
2
SK2
70
0
62
7
6
CONTINUOUS
290
1
370
-3
390
0
0
ENDTAB
0
TABLE
2
STYLE
5
192
100
AcDbSymbolTable
0
STYLE
5
11
100
AcDbSymbolTableRecord
100
AcDbTextStyleTableRecord
2
Standard
3
txt
70
0
71
0
40
0
41
1
42
0
50
0
0
STYLE
5
EB
100
AcDbSymbolTableRecord
100
AcDbTextStyleTableRecord
2
iso_b_vert
3
simplex.shx
70
0
71
0
40
0
41
1
42
0
50
0
0
STYLE
5
EC
100
AcDbSymbolTableRecord
100
AcDbTextStyleTableRecord
2
DWGDirectTextStyle
3
simplex
70
0
71
0
40
0
41
1
42
0
50
0
0
ENDTAB
0
TABLE
2
DIMSTYLE
5
193
100
AcDbSymbolTable
100
AcDbDimStyleTable
0
DIMSTYLE
105
27
100
AcDbSymbolTableRecord
100
AcDbDimStyleTableRecord
2
Standard
70
0
3
<>
41
0.18
42
0.0625
44
0.18
140
0.18
147
0.09
73
0
74
0
77
1
271
2
275
0
278
52
280
0
340
11
0
ENDTAB
0
TABLE
2
VIEW
5
194
100
AcDbSymbolTable
0
ENDTAB
0
TABLE
2
UCS
5
195
100
AcDbSymbolTable
0
ENDTAB
0
TABLE
2
APPID
5
196
100
AcDbSymbolTable
0
APPID
5
12
100
AcDbSymbolTableRecord
100
AcDbRegAppTableRecord
2
ACAD
70
0
0
ENDTAB
0
TABLE
2
BLOCK_RECORD
5
197
100
AcDbSymbolTable
0
BLOCK_RECORD
5
1F
100
AcDbSymbolTableRecord
100
AcDbBlockTableRecord
2
*Model_Space
340
0
70
0
0
BLOCK_RECORD
5
1B
100
AcDbSymbolTableRecord
100
AcDbBlockTableRecord
2
*Paper_Space
340
0
70
0
0
BLOCK_RECORD
5
23
100
AcDbSymbolTableRecord
100
AcDbBlockTableRecord
2
*Paper_Space0
340
0
70
0
0
BLOCK_RECORD
5
EE
100
AcDbSymbolTableRecord
100
AcDbBlockTableRecord
2
DimnDraft3D1
340
0
70
0
0
BLOCK_RECORD
5
F9
100
AcDbSymbolTableRecord
100
AcDbBlockTableRecord
2
DimnDraft3D2
340
0
70
0
0
BLOCK_RECORD
5
104
100
AcDbSymbolTableRecord
100
AcDbBlockTableRecord
2
DimnDraft3D3
340
0
70
0
0
BLOCK_RECORD
5
10F
100
AcDbSymbolTableRecord
100
AcDbBlockTableRecord
2
DimnDraft3D4
340
0
70
0
0
ENDTAB
0
ENDSEC
0
SECTION
2
BLOCKS
0
BLOCK
5
20
100
AcDbEntity
8
0
100
AcDbBlockBegin
2
*Model_Space
70
0
10
0
20
0
30
0
3
*Model_Space
0
ENDBLK
5
21
100
AcDbEntity
8
0
100
AcDbBlockEnd
0
BLOCK
5
1C
100
AcDbEntity
8
0
100
AcDbBlockBegin
2
*Paper_Space
70
0
10
0
20
0
30
0
3
*Paper_Space
0
ENDBLK
5
1D
100
AcDbEntity
8
0
100
AcDbBlockEnd
0
BLOCK
5
24
100
AcDbEntity
8
0
100
AcDbBlockBegin
2
*Paper_Space0
70
0
10
0
20
0
30
0
3
*Paper_Space0
0
ENDBLK
5
25
100
AcDbEntity
8
0
100
AcDbBlockEnd
0
BLOCK
5
F6
100
AcDbEntity
8
0
100
AcDbBlockBegin
2
DimnDraft3D1
70
0
10
0
20
0
30
0
3
DimnDraft3D1
0
MTEXT
5
EF
100
AcDbEntity
8
SK2
62
256
6
ByLayer
370
18
48
1
60
0
100
AcDbMText
10
120.875
20
7.55
30
0
210
0
220
0
230
1
1
\W0.6611;6.5
40
3.5
41
0
44
1.084337
50
90
71
7
72
5
7
iso_b_vert
0
LINE
5
F1
100
AcDbEntity
8
SK2
62
256
6
ByLayer
370
13
48
1
60
0
100
AcDbLine
10
104
20
-6.5
30
0
11
123.75
21
-6.5
31
0
39
0
210
0
220
0
230
1
0
LINE
5
F2
100
AcDbEntity
8
SK2
62
256
6
ByLayer
370
13
48
1
60
0
100
AcDbLine
10
104
20
0
30
0
11
123.75
21
0
31
0
39
0
210
0
220
0
230
1
0
LINE
5
F3
100
AcDbEntity
8
SK2
62
256
6
ByLayer
370
13
48
1
60
0
100
AcDbLine
10
121.75
20
12.136842
30
0
11
121.75
21
-15.25
31
0
39
0
210
0
220
0
230
1
0
SOLID
5
F4
100
AcDbEntity
8
SK2
62
256
6
ByLayer
370
13
48
1
60
0
100
AcDbTrace
10
121.75
20
-6.5
30
0
11
122.167997
21
-9.674998
31
0
12
121.332003
22
-9.675002
32
0
13
121.75
23
-6.5
33
0
39
0
210
0
220
0
230
1
0
SOLID
5
F5
100
AcDbEntity
8
SK2
62
256
6
ByLayer
370
13
48
1
60
0
100
AcDbTrace
10
121.75
20
0
30
0
11
121.332003
21
3.174998
31
0
12
122.167997
22
3.175002
32
0
13
121.75
23
0
33
0
39
0
210
0
220
0
230
1
0
ENDBLK
5
F7
100
AcDbEntity
8
0
100
AcDbBlockEnd
0
BLOCK
5
101
100
AcDbEntity
8
0
100
AcDbBlockBegin
2
DimnDraft3D2
70
0
10
0
20
0
30
0
3
DimnDraft3D2
0
MTEXT
5
FA
100
AcDbEntity
8
SK2
62
256
6
ByLayer
370
18
48
1
60
0
100
AcDbMText
10
-59.125
20
1.708553
30
0
210
0
220
0
230
1
1
\W0.6337;63
40
3.5
41
0
44
1.084337
50
90
71
7
72
5
7
iso_b_vert
0
MTEXT
5
FB
100
AcDbEntity
8
SK2
62
256
6
ByLayer
370
18
48
1
60
0
100
AcDbMText
10
-59.125
20
-4.140132
30
0
210
0
220
0
230
1
1
\W1.1719;%%c
40
3.5
41
0
44
1.084337
50
90
71
7
72
5
7
iso_b_vert
0
LINE
5
FC
100
AcDbEntity
8
SK2
62
256
6
ByLayer
370
13
48
1
60
0
100
AcDbLine
10
-1.7
20
-31.5
30
0
11
-60.25
21
-31.5
31
0
39
0
210
0
220
0
230
1
0
LINE
5
FD
100
AcDbEntity
8
SK2
62
256
6
ByLayer
370
13
48
1
60
0
100
AcDbLine
10
-1.7
20
31.5
30
0
11
-60.25
21
31.5
31
0
39
0
210
0
220
0
230
1
0
LINE
5
FE
100
AcDbEntity
8
SK2
62
256
6
ByLayer
370
13
48
1
60
0
100
AcDbLine
10
-58.25
20
-31.5
30
0
11
-58.25
21
31.5
31
0
39
0
210
0
220
0
230
1
0
SOLID
5
FF
100
AcDbEntity
8
SK2
62
256
6
ByLayer
370
13
48
1
60
0
100
AcDbTrace
10
-58.25
20
-31.5
30
0
11
-58.667997
21
-28.325002
31
0
12
-57.832003
22
-28.324998
32
0
13
-58.25
23
-31.5
33
0
39
0
210
0
220
0
230
1
0
SOLID
5
100
100
AcDbEntity
8
SK2
62
256
6
ByLayer
370
13
48
1
60
0
100
AcDbTrace
10
-58.25
20
31.5
30
0
11
-57.832003
21
28.325002
31
0
12
-58.667997
22
28.324998
32
0
13
-58.25
23
31.5
33
0
39
0
210
0
220
0
230
1
0
ENDBLK
5
102
100
AcDbEntity
8
0
100
AcDbBlockEnd
0
BLOCK
5
10C
100
AcDbEntity
8
0
100
AcDbBlockBegin
2
DimnDraft3D3
70
0
10
0
20
0
30
0
3
DimnDraft3D3
0
MTEXT
5
105
100
AcDbEntity
8
2
62
256
6
ByLayer
370
18
48
1
60
0
100
AcDbMText
10
47.913816
20
59.125
30
0
210
0
220
0
230
1
1
\W0.6433;100
40
3.5
41
0
44
1.084337
50
0
71
7
72
5
7
iso_b_vert
0
LINE
5
107
100
AcDbEntity
8
2
62
256
6
ByLayer
370
13
48
1
60
0
100
AcDbLine
10
0
20
33.2
30
0
11
0
21
60.25
31
0
39
0
210
0
220
0
230
1
0
LINE
5
108
100
AcDbEntity
8
2
62
256
6
ByLayer
370
13
48
1
60
0
100
AcDbLine
10
100
20
20.3
30
0
11
100
21
60.25
31
0
39
0
210
0
220
0
230
1
0
LINE
5
109
100
AcDbEntity
8
2
62
256
6
ByLayer
370
13
48
1
60
0
100
AcDbLine
10
0
20
58.25
30
0
11
100
21
58.25
31
0
39
0
210
0
220
0
230
1
0
SOLID
5
10A
100
AcDbEntity
8
2
62
256
6
ByLayer
370
13
48
1
60
0
100
AcDbTrace
10
0
20
58.25
30
0
11
3.174998
21
58.667997
31
0
12
3.175002
22
57.832003
32
0
13
0
23
58.25
33
0
39
0
210
0
220
0
230
1
0
SOLID
5
10B
100
AcDbEntity
8
2
62
256
6
ByLayer
370
13
48
1
60
0
100
AcDbTrace
10
100
20
58.25
30
0
11
96.825002
21
57.832003
31
0
12
96.824998
22
58.667997
32
0
13
100
23
58.25
33
0
39
0
210
0
220
0
230
1
0
ENDBLK
5
10D
100
AcDbEntity
8
0
100
AcDbBlockEnd
0
BLOCK
5
117
100
AcDbEntity
8
0
100
AcDbBlockBegin
2
DimnDraft3D4
70
0
10
0
20
0
30
0
3
DimnDraft3D4
0
MTEXT
5
110
100
AcDbEntity
8
SK2
62
256
6
ByLayer
370
18
48
1
60
0
100
AcDbMText
10
135.875
20
-4.791447
30
0
210
0
220
0
230
1
1
\W0.6337;50
40
3.5
41
0
44
1.084337
50
90
71
7
72
5
7
iso_b_vert
0
MTEXT
5
111
100
AcDbEntity
8
SK2
62
256
6
ByLayer
370
18
48
1
60
0
100
AcDbMText
10
135.875
20
-10.640132
30
0
210
0
220
0
230
1
1
\W1.1719;%%c
40
3.5
41
0
44
1.084337
50
90
71
7
72
5
7
iso_b_vert
0
LINE
5
112
100
AcDbEntity
8
SK2
62
256
6
ByLayer
370
13
48
1
60
0
100
AcDbLine
10
101.8
20
18.5
30
0
11
138.75
21
18.5
31
0
39
0
210
0
220
0
230
1
0
LINE
5
113
100
AcDbEntity
8
SK2
62
256
6
ByLayer
370
13
48
1
60
0
100
AcDbLine
10
101.8
20
-31.5
30
0
11
138.75
21
-31.5
31
0
39
0
210
0
220
0
230
1
0
LINE
5
114
100
AcDbEntity
8
SK2
62
256
6
ByLayer
370
13
48
1
60
0
100
AcDbLine
10
136.75
20
18.5
30
0
11
136.75
21
-31.5
31
0
39
0
210
0
220
0
230
1
0
SOLID
5
115
100
AcDbEntity
8
SK2
62
256
6
ByLayer
370
13
48
1
60
0
100
AcDbTrace
10
136.75
20
18.5
30
0
11
137.167997
21
15.325002
31
0
12
136.332003
22
15.324998
32
0
13
136.75
23
18.5
33
0
39
0
210
0
220
0
230
1
0
SOLID
5
116
100
AcDbEntity
8
SK2
62
256
6
ByLayer
370
13
48
1
60
0
100
AcDbTrace
10
136.75
20
-31.5
30
0
11
136.332003
21
-28.325002
31
0
12
137.167997
22
-28.324998
32
0
13
136.75
23
-31.5
33
0
39
0
210
0
220
0
230
1
0
ENDBLK
5
118
100
AcDbEntity
8
0
100
AcDbBlockEnd
0
ENDSEC
0
SECTION
2
ENTITIES
0
ELLIPSE
5
B2
100
AcDbEntity
8
1
62
256
6
ByLayer
370
18
48
1
60
0
100
AcDbEllipse
10
26.347154
20
0
30
0
11
-14.7536831606557
21
31.0932549155802
31
0
210
0
220
0
230
-1
40
0.341999
41
-1.09123958575284
42
-0.15780618664543
0
ELLIPSE
5
B3
100
AcDbEntity
8
1
62
256
6
ByLayer
370
18
48
1
60
0
100
AcDbEllipse
10
-2.347154
20
0
30
0
11
14.7536831606551
21
31.0932549155797
31
0
210
0
220
0
230
-1
40
0.341999
41
0.15780618664543
42
1.09123958575285
0
ELLIPSE
5
B4
100
AcDbEntity
8
1
62
256
6
ByLayer
370
18
48
1
60
0
100
AcDbEllipse
10
-2.347154
20
0
30
0
11
-14.7536831606544
21
31.0932549155788
31
0
210
0
220
0
230
-1
40
0.341999
41
2.05035306783691
42
2.98378646694434
0
ELLIPSE
5
B5
100
AcDbEntity
8
1
62
256
6
ByLayer
370
18
48
1
60
0
100
AcDbEllipse
10
26.347154
20
0
30
0
11
14.7536831606562
21
31.0932549155809
31
0
210
0
220
0
230
-1
40
0.341999
41
-2.98378646694436
42
-2.05035306783696
0
POINT
5
6C
100
AcDbEntity
8
80
62
256
6
ByLayer
370
13
48
1
60
0
100
AcDbPoint
10
0
20
0
30
0
39
0
210
0
220
0
230
1
50
360
0
POINT
5
6E
100
AcDbEntity
8
81
62
256
6
ByLayer
370
13
48
1
60
0
100
AcDbPoint
10
100
20
-6.5
30
0
39
0
210
0
220
0
230
1
50
360
0
POINT
5
70
100
AcDbEntity
8
1
62
256
6
ByLayer
370
13
48
1
60
1
100
AcDbPoint
10
276.426281
20
175.173124
30
0
39
0
210
0
220
0
230
1
50
360
0
POINT
5
72
100
AcDbEntity
8
1
62
256
6
ByLayer
370
13
48
1
60
1
100
AcDbPoint
10
187.663825
20
175.173124
30
0
39
0
210
0
220
0
230
1
50
360
0
POINT
5
73
100
AcDbEntity
8
1
62
256
6
ByLayer
370
13
48
1
60
1
100
AcDbPoint
10
223.924544
20
165.173124
30
0
39
0
210
0
220
0
230
1
50
360
0
POINT
5
74
100
AcDbEntity
8
1
62
256
6
ByLayer
370
13
48
1
60
1
100
AcDbPoint
10
287.363825
20
165.173124
30
0
39
0
210
0
220
0
230
1
50
360
0
POINT
5
75
100
AcDbEntity
8
1
62
256
6
ByLayer
370
18
48
1
60
1
100
AcDbPoint
10
278.863825
20
196.673124
30
0
39
0
210
0
220
0
230
1
50
360
0
POINT
5
76
100
AcDbEntity
8
1
62
256
6
ByLayer
370
18
48
1
60
1
100
AcDbPoint
10
278.863825
20
133.673124
30
0
39
0
210
0
220
0
230
1
50
360
0
POINT
5
77
100
AcDbEntity
8
1
62
256
6
ByLayer
370
13
48
1
60
1
100
AcDbPoint
10
165.724777
20
150.159403
30
0
39
0
210
0
220
0
230
1
50
360
0
POINT
5
78
100
AcDbEntity
8
1
62
256
6
ByLayer
370
13
48
1
60
1
100
AcDbPoint
10
165.724777
20
150.159403
30
0
39
0
210
0
220
0
230
1
50
360
0
POINT
5
79
100
AcDbEntity
8
1
62
256
6
ByLayer
370
13
48
1
60
1
100
AcDbPoint
10
165.724777
20
150.159403
30
0
39
0
210
0
220
0
230
1
50
360
0
SPLINE
5
B6
100
AcDbEntity
8
1
62
256
6
ByLayer
370
18
48
1
60
1
100
AcDbSpline
70
4
71
3
72
11
73
7
40
0
40
0
40
0
40
0
40
0.264736090039167
40
0.505383016247574
40
0.746029942455982
40
1
40
1
40
1
40
1
41
1
10
-414.778517083935
20
873.157104635017
30
-2.38
41
1
10
-414.811380267814
20
873.134093585935
30
-2.16997603523559
41
1
10
-414.874116311811
20
873.090165335011
30
-1.76903884234585
41
1
10
-414.966725215926
20
873.025319882244
30
-1.17718842133077
41
1
10
-415.05799767171
20
872.961410220673
30
-0.593879052761846
41
1
10
-415.119397267377
20
872.918417760945
30
-0.201482912318254
41
1
10
-415.150924002925
20
872.896342503058
30
0
0
SPLINE
5
B7
100
AcDbEntity
8
1
62
256
6
ByLayer
370
18
48
1
60
1
100
AcDbSpline
70
4
71
3
72
11
73
7
40
0
40
0
40
0
40
0
40
0.264736090039167
40
0.505383016247574
40
0.746029942455982
40
1
40
1
40
1
40
1
41
1
10
-407.431053779592
20
878.301853827437
30
-2.38
41
1
10
-407.398190595713
20
878.324864876519
30
-2.16997603523559
41
1
10
-407.335454551716
20
878.368793127443
30
-1.76903884234585
41
1
10
-407.242845647601
20
878.433638580209
30
-1.17718842133077
41
1
10
-407.151573191817
20
878.49754824178
30
-0.593879052761846
41
1
10
-407.090173596151
20
878.540540701509
30
-0.201482912318254
41
1
10
-407.058646860602
20
878.562615959395
30
0
0
SPLINE
5
B8
100
AcDbEntity
8
1
62
256
6
ByLayer
370
18
48
1
60
1
100
AcDbSpline
70
4
71
3
72
13
73
9
40
0
40
0
40
0
40
0
40
0.194056351224286
40
0.368982012730964
40
0.500176258860972
40
0.63137050499098
40
0.806296166497658
40
1
40
1
40
1
40
1
41
1
10
-413.263264006694
20
878.812106105608
30
-2.38
41
1
10
-413.27741753311
20
878.832319436149
30
-2.22604862802873
41
1
10
-413.304329286483
20
878.870753403086
30
-1.93332289792884
41
1
10
-413.340809710072
20
878.92285284732
30
-1.53651639923246
41
1
10
-413.372705277461
20
878.968404438311
30
-1.18958050391089
41
1
10
-413.404600844851
20
879.013956029301
30
-0.84264460858931
41
1
10
-413.441055557512
20
879.066018754525
30
-0.446117773952347
41
1
10
-413.467941599956
20
879.104416002451
30
-0.153671707911858
41
1
10
-413.482069415445
20
879.124592613981
30
0
0
SPLINE
5
B9
100
AcDbEntity
8
1
62
256
6
ByLayer
370
18
48
1
60
1
100
AcDbSpline
70
4
71
3
72
13
73
9
40
0
40
0
40
0
40
0
40
0.194056351224286
40
0.368982012730964
40
0.500176258860972
40
0.63137050499098
40
0.806296166497658
40
1
40
1
40
1
40
1
41
1
10
-408.946306856834
20
872.646852356845
30
-2.38
41
1
10
-408.932153330417
20
872.626639026305
30
-2.22604862802873
41
1
10
-408.905241577045
20
872.588205059368
30
-1.93332289792884
41
1
10
-408.868761153456
20
872.536105615134
30
-1.53651639923246
41
1
10
-408.836865586066
20
872.490554024143
30
-1.18958050391089
41
1
10
-408.804970018677
20
872.445002433152
30
-0.84264460858931
41
1
10
-408.768515306016
20
872.392939707929
30
-0.446117773952347
41
1
10
-408.741629263572
20
872.354542460003
30
-0.153671707911858
41
1
10
-408.727501448083
20
872.334365848473
30
0
0
SPLINE
5
BA
100
AcDbEntity
8
1
62
256
6
ByLayer
370
18
48
1
60
1
100
AcDbSpline
70
4
71
3
72
11
73
7
40
0
40
0
40
0
40
0
40
0.264736090039167
40
0.505383016247574
40
0.746029942455982
40
1
40
1
40
1
40
1
41
1
10
-428.7908907235
20
879.333951406164
30
-2.7260753721363
41
1
10
-428.746836858612
20
879.372452995544
30
-2.52041437045278
41
1
10
-428.66273772762
20
879.445952794415
30
-2.12780610408481
41
1
10
-428.538593330525
20
879.554450802774
30
-1.54825057303238
41
1
10
-428.416240473605
20
879.661383065556
30
-0.977058665642987
41
1
10
-428.333932882788
20
879.733317118847
30
-0.592814022938045
41
1
10
-428.291670558074
20
879.77025296265
30
-0.39551664491756
0
SPLINE
5
BB
100
AcDbEntity
8
1
62
256
6
ByLayer
370
18
48
1
60
1
100
AcDbSpline
70
4
71
3
72
11
73
7
40
0
40
0
40
0
40
0
40
0.264736090039167
40
0.505383016247574
40
0.746029942455982
40
1
40
1
40
1
40
1
41
1
10
-433.89928183315
20
871.996230220737
30
-2.00784884981668
41
1
10
-433.900924827004
20
871.96909259
30
-1.79576298847968
41
1
10
-433.904061313567
20
871.917286666321
30
-1.39088962085497
41
1
10
-433.908691292841
20
871.840812449701
30
-0.793228746942546
41
1
10
-433.913254456422
20
871.765441840126
30
-0.204192776701463
41
1
10
-433.916324127293
20
871.714739523494
30
0.192055687251906
41
1
10
-433.917900305453
20
871.688705499804
30
0.395516644917561
0
SPLINE
5
BC
100
AcDbEntity
8
1
62
256
6
ByLayer
370
18
48
1
60
1
100
AcDbSpline
70
4
71
3
72
13
73
9
40
0
40
0
40
0
40
0
40
0.194056351224286
40
0.368982012730964
40
0.500176258860972
40
0.63137050499098
40
0.806296166497658
40
1
40
1
40
1
40
1
41
1
10
-428.275259052307
20
873.503182583078
30
-2.61980951740564
41
1
10
-428.239585682835
20
873.493171561608
30
-2.46835947239721
41
1
10
-428.171755737638
20
873.474136436871
30
-2.1803898074888
41
1
10
-428.079808360648
20
873.448333234684
30
-1.79003042765541
41
1
10
-427.999416921336
20
873.425772976517
30
-1.44873137790546
41
1
10
-427.919025482024
20
873.40321271835
30
-1.10743232815552
41
1
10
-427.827142908349
20
873.377427701924
30
-0.717348068536015
41
1
10
-427.759377766467
20
873.358410762948
30
-0.429653523841492
41
1
10
-427.723769200311
20
873.348417927239
30
-0.278478599046945
0
SPLINE
5
BD
100
AcDbEntity
8
1
62
256
6
ByLayer
370
18
48
1
60
1
100
AcDbSpline
70
4
71
3
72
13
73
9
40
0
40
0
40
0
40
0
40
0.194056351224286
40
0.368982012730964
40
0.500176258860972
40
0.63137050499098
40
0.806296166497658
40
1
40
1
40
1
40
1
41
1
10
-434.414913504343
20
877.826999043823
30
-2.11411470454734
41
1
10
-434.419498936828
20
877.845340052903
30
-1.95934872906095
41
1
10
-434.428217755341
20
877.880213956298
30
-1.66507409812534
41
1
10
-434.440036613376
20
877.92748753043
30
-1.2661679756028
41
1
10
-434.450370078446
20
877.968819766219
30
-0.917396336979738
41
1
10
-434.460703543516
20
878.010152002007
30
-0.568624698356674
41
1
10
-434.472514071773
20
878.057392258339
30
-0.169999719681113
41
1
10
-434.481224560509
20
878.092232843935
30
0.123993767407529
41
1
10
-434.485801663216
20
878.110540535215
30
0.278478599046944
0
SPLINE
5
BE
100
AcDbEntity
8
1
62
256
6
ByLayer
370
18
48
1
60
1
100
AcDbSpline
70
4
71
3
72
11
73
7
40
0
40
0
40
0
40
0
40
0.264736090039167
40
0.505383016247574
40
0.746029942455982
40
1
40
1
40
1
40
1
41
1
10
-343.967257520151
20
1505.05327841336
30
-2.38
41
1
10
-344.00012070403
20
1505.03026736428
30
-2.16997603523559
41
1
10
-344.062856748027
20
1504.98633911335
30
-1.76903884234585
41
1
10
-344.155465652142
20
1504.92149366059
30
-1.17718842133077
41
1
10
-344.246738107926
20
1504.85758399902
30
-0.593879052761846
41
1
10
-344.308137703593
20
1504.81459153929
30
-0.201482912318254
41
1
10
-344.339664439141
20
1504.7925162814
30
0
0
SPLINE
5
BF
100
AcDbEntity
8
1
62
256
6
ByLayer
370
18
48
1
60
1
100
AcDbSpline
70
4
71
3
72
11
73
7
40
0
40
0
40
0
40
0
40
0.264736090039167
40
0.505383016247574
40
0.746029942455982
40
1
40
1
40
1
40
1
41
1
10
-336.619794215808
20
1510.19802760578
30
-2.38
41
1
10
-336.586931031929
20
1510.22103865486
30
-2.16997603523559
41
1
10
-336.524194987932
20
1510.26496690579
30
-1.76903884234585
41
1
10
-336.431586083817
20
1510.32981235855
30
-1.17718842133077
41
1
10
-336.340313628033
20
1510.39372202012
30
-0.593879052761846
41
1
10
-336.278914032366
20
1510.43671447985
30
-0.201482912318254
41
1
10
-336.247387296818
20
1510.45878973774
30
0
0
SPLINE
5
C0
100
AcDbEntity
8
1
62
256
6
ByLayer
370
18
48
1
60
1
100
AcDbSpline
70
4
71
3
72
13
73
9
40
0
40
0
40
0
40
0
40
0.194056351224286
40
0.368982012730964
40
0.500176258860972
40
0.63137050499098
40
0.806296166497658
40
1
40
1
40
1
40
1
41
1
10
-342.452004442909
20
1510.70827988395
30
-2.38
41
1
10
-342.466157969326
20
1510.72849321449
30
-2.22604862802873
41
1
10
-342.493069722699
20
1510.76692718143
30
-1.93332289792884
41
1
10
-342.529550146288
20
1510.81902662566
30
-1.53651639923246
41
1
10
-342.561445713677
20
1510.86457821665
30
-1.18958050391089
41
1
10
-342.593341281066
20
1510.91012980765
30
-0.84264460858931
41
1
10
-342.629795993727
20
1510.96219253287
30
-0.446117773952347
41
1
10
-342.656682036172
20
1511.00058978079
30
-0.153671707911858
41
1
10
-342.670809851661
20
1511.02076639232
30
0
0
SPLINE
5
C1
100
AcDbEntity
8
1
62
256
6
ByLayer
370
18
48
1
60
1
100
AcDbSpline
70
4
71
3
72
13
73
9
40
0
40
0
40
0
40
0
40
0.194056351224286
40
0.368982012730964
40
0.500176258860972
40
0.63137050499098
40
0.806296166497658
40
1
40
1
40
1
40
1
41
1
10
-338.13504729305
20
1504.54302613519
30
-2.38
41
1
10
-338.120893766633
20
1504.52281280465
30
-2.22604862802873
41
1
10
-338.09398201326
20
1504.48437883771
30
-1.93332289792884
41
1
10
-338.057501589671
20
1504.43227939348
30
-1.53651639923246
41
1
10
-338.025606022282
20
1504.38672780249
30
-1.18958050391089
41
1
10
-337.993710454893
20
1504.3411762115
30
-0.84264460858931
41
1
10
-337.957255742232
20
1504.28911348627
30
-0.446117773952347
41
1
10
-337.930369699787
20
1504.25071623835
30
-0.153671707911858
41
1
10
-337.916241884298
20
1504.23053962682
30
0
0
SPLINE
5
C2
100
AcDbEntity
8
1
62
256
6
ByLayer
370
18
48
1
60
1
100
AcDbSpline
70
4
71
3
72
11
73
7
40
0
40
0
40
0
40
0
40
0.264736090039167
40
0.505383016247574
40
0.746029942455982
40
1
40
1
40
1
40
1
41
1
10
-357.979631159715
20
1511.23012518451
30
-2.7260753721363
41
1
10
-357.935577294827
20
1511.26862677389
30
-2.52041437045278
41
1
10
-357.851478163836
20
1511.34212657276
30
-2.12780610408481
41
1
10
-357.727333766741
20
1511.45062458112
30
-1.54825057303238
41
1
10
-357.60498090982
20
1511.5575568439
30
-0.977058665642987
41
1
10
-357.522673319003
20
1511.62949089719
30
-0.592814022938045
41
1
10
-357.48041099429
20
1511.66642674099
30
-0.39551664491756
0
SPLINE
5
C3
100
AcDbEntity
8
1
62
256
6
ByLayer
370
18
48
1
60
1
100
AcDbSpline
70
4
71
3
72
11
73
7
40
0
40
0
40
0
40
0
40
0.264736090039167
40
0.505383016247574
40
0.746029942455982
40
1
40
1
40
1
40
1
41
1
10
-363.088022269366
20
1503.89240399908
30
-2.00784884981668
41
1
10
-363.089665263219
20
1503.86526636834
30
-1.79576298847968
41
1
10
-363.092801749783
20
1503.81346044467
30
-1.39088962085497
41
1
10
-363.097431729056
20
1503.73698622804
30
-0.793228746942546
41
1
10
-363.101994892637
20
1503.66161561847
30
-0.204192776701463
41
1
10
-363.105064563508
20
1503.61091330184
30
0.192055687251906
41
1
10
-363.106640741669
20
1503.58487927815
30
0.395516644917561
0
SPLINE
5
C4
100
AcDbEntity
8
1
62
256
6
ByLayer
370
18
48
1
60
1
100
AcDbSpline
70
4
71
3
72
13
73
9
40
0
40
0
40
0
40
0
40
0.194056351224286
40
0.368982012730964
40
0.500176258860972
40
0.63137050499098
40
0.806296166497658
40
1
40
1
40
1
40
1
41
1
10
-357.463999488523
20
1505.39935636142
30
-2.61980951740564
41
1
10
-357.428326119051
20
1505.38934533995
30
-2.46835947239721
41
1
10
-357.360496173854
20
1505.37031021521
30
-2.1803898074888
41
1
10
-357.268548796864
20
1505.34450701303
30
-1.79003042765541
41
1
10
-357.188157357552
20
1505.32194675486
30
-1.44873137790546
41
1
10
-357.107765918239
20
1505.29938649669
30
-1.10743232815552
41
1
10
-357.015883344564
20
1505.27360148027
30
-0.717348068536015
41
1
10
-356.948118202683
20
1505.25458454129
30
-0.429653523841492
41
1
10
-356.912509636527
20
1505.24459170558
30
-0.278478599046945
0
SPLINE
5
C5
100
AcDbEntity
8
1
62
256
6
ByLayer
370
18
48
1
60
1
100
AcDbSpline
70
4
71
3
72
13
73
9
40
0
40
0
40
0
40
0
40
0.194056351224286
40
0.368982012730964
40
0.500176258860972
40
0.63137050499098
40
0.806296166497658
40
1
40
1
40
1
40
1
41
1
10
-363.603653940558
20
1509.72317282217
30
-2.11411470454734
41
1
10
-363.608239373044
20
1509.74151383125
30
-1.95934872906095
41
1
10
-363.616958191557
20
1509.77638773464
30
-1.66507409812534
41
1
10
-363.628777049591
20
1509.82366130877
30
-1.2661679756028
41
1
10
-363.639110514662
20
1509.86499354456
30
-0.917396336979738
41
1
10
-363.649443979731
20
1509.90632578035
30
-0.568624698356674
41
1
10
-363.661254507988
20
1509.95356603668
30
-0.169999719681113
41
1
10
-363.669964996724
20
1509.98840662228
30
0.123993767407529
41
1
10
-363.674542099432
20
1510.00671431356
30
0.278478599046944
0
SPLINE
5
C6
100
AcDbEntity
8
SK1
62
256
6
ByLayer
370
18
48
1
60
0
100
AcDbSpline
70
4
71
2
72
6
73
3
40
0
40
0
40
0
40
1
40
1
40
1
41
1
10
-36.5000001
20
21.1531994879396
30
2E-16
41
1
10
-37.2500000497684
20
20.7202970811886
30
-2E-16
41
1
10
-38
20
20.2873944861421
30
-1E-16
0
SPLINE
5
C7
100
AcDbEntity
8
SK1
62
256
6
ByLayer
370
18
48
1
60
0
100
AcDbSpline
70
4
71
2
72
6
73
3
40
0
40
0
40
0
40
1
40
1
40
1
41
1
10
-38
20
-20.287394486142
30
-1E-16
41
1
10
-37.2500000497684
20
-20.7202970811886
30
0
41
1
10
-36.5000001
20
-21.1531994879396
30
0
0
SPLINE
5
C8
100
AcDbEntity
8
SK1
62
256
6
ByLayer
370
18
48
1
60
0
100
AcDbSpline
70
4
71
2
72
6
73
3
40
0
40
0
40
0
40
1
40
1
40
1
41
1
10
-1.99993701093305
20
22.0186170099467
30
1E-16
41
1
10
-19.2499685554644
20
21.5853665411568
30
-1E-16
41
1
10
-36.5000001
20
21.1521159930589
30
2E-16
0
SPLINE
5
C9
100
AcDbEntity
8
SK1
62
256
6
ByLayer
370
18
48
1
60
0
100
AcDbSpline
70
4
71
2
72
6
73
3
40
0
40
0
40
0
40
1
40
1
40
1
41
1
10
-36.5000001
20
-21.1521159930588
30
0
41
1
10
-19.2499685554644
20
-21.5853665411567
30
-1E-16
41
1
10
-1.99993701093305
20
-22.0186170099465
30
2E-16
0
SPLINE
5
CA
100
AcDbEntity
8
SK1
62
256
6
ByLayer
370
18
48
1
60
0
100
AcDbSpline
70
4
71
3
72
13
73
9
40
0
40
0
40
0
40
0
40
0.239458297730097
40
0.368362581389971
40
0.500002081186438
40
0.631641235243707
40
0.760544565267511
40
1
40
1
40
1
40
1
41
1
10
-1.79497698875898
20
21.8302117626708
30
-4E-16
41
1
10
-1.82104729975202
20
21.8298100952193
30
-3E-16
41
1
10
-1.85877761444021
20
21.8359822843511
30
-3E-16
41
1
10
-1.90621411558303
20
21.8590259016248
30
-3E-16
41
1
10
-1.93880077750268
20
21.8841930786273
30
-3E-16
41
1
10
-1.96557291878364
20
21.9154744026857
30
-3E-16
41
1
10
-1.99096984377454
20
21.9616932399186
30
-3E-16
41
1
10
-1.99902898853242
20
21.9990655663822
30
-3E-16
41
1
10
-1.99993701093305
20
22.025122867844
30
-4E-16
0
SPLINE
5
CB
100
AcDbEntity
8
SK1
62
256
6
ByLayer
370
18
48
1
60
0
100
AcDbSpline
70
4
71
3
72
13
73
9
40
0
40
0
40
0
40
0
40
0.239455434732474
40
0.368358764756292
40
0.499997918813555
40
0.631637418610019
40
0.760541702269897
40
1
40
1
40
1
40
1
41
1
10
-1.99993701093305
20
-22.0251228678438
30
-3E-16
41
1
10
-1.99902898853242
20
-21.9990655663821
30
-3E-16
41
1
10
-1.99096984377454
20
-21.9616932399185
30
-4E-16
41
1
10
-1.96557291878364
20
-21.9154744026856
30
4E-16
41
1
10
-1.93880077750268
20
-21.8841930786272
30
4E-16
41
1
10
-1.90621411558303
20
-21.8590259016247
30
3E-16
41
1
10
-1.85877761444021
20
-21.835982284351
30
2E-16
41
1
10
-1.82104729975202
20
-21.8298100952192
30
2E-16
41
1
10
-1.79497698875898
20
-21.8302117626707
30
1E-16
0
SPLINE
5
CC
100
AcDbEntity
8
SK1
62
256
6
ByLayer
370
18
48
1
60
0
100
AcDbSpline
70
4
71
2
72
6
73
3
40
0
40
0
40
0
40
1
40
1
40
1
41
1
10
-0.19491389969204
20
21.8639488909105
30
-1E-16
41
1
10
-0.994945444225493
20
21.8438553578975
30
0
41
1
10
-1.79497698875898
20
21.823761824719
30
1E-16
0
SPLINE
5
CD
100
AcDbEntity
8
SK1
62
256
6
ByLayer
370
18
48
1
60
0
100
AcDbSpline
70
4
71
2
72
6
73
3
40
0
40
0
40
0
40
1
40
1
40
1
41
1
10
-1.79497698875898
20
-21.8237618247189
30
1E-16
41
1
10
-0.994945444225493
20
-21.8438553578974
30
1E-16
41
1
10
-0.19491389969204
20
-21.8639488909104
30
1E-16
0
SPLINE
5
CE
100
AcDbEntity
8
1
62
256
6
ByLayer
370
18
48
1
60
0
100
AcDbSpline
70
4
71
2
72
6
73
3
40
0
40
0
40
0
40
1
40
1
40
1
41
1
10
-0.0011766917465366
20
-22.0556408271564
30
1E-16
41
1
10
-0.0011189089211427
20
-22.0272192475807
30
0
41
1
10
-0.012189029523455
20
-21.9850919659509
30
0
0
SPLINE
5
CF
100
AcDbEntity
8
SK1
62
256
6
ByLayer
370
18
48
1
60
0
100
AcDbSpline
70
4
71
3
72
11
73
7
40
0
40
0
40
0
40
0
40
0.235689728908152
40
0.486953115118447
40
0.745208277029232
40
1
40
1
40
1
40
1
41
1
10
-0.19491389969204
20
-21.8704110510007
30
1E-16
41
1
10
-0.175933015451534
20
-21.8709392621536
30
1E-16
41
1
10
-0.138426534613899
20
-21.8771286911994
30
0
41
1
10
-0.0840821869904573
20
-21.9033442883192
30
0
41
1
10
-0.0390358600793661
20
-21.9462319791508
30
0
41
1
10
-0.0195232513433439
20
-21.981644129825
30
0
41
1
10
-0.012189029523455
20
-22.0012103834952
30
0
0
SPLINE
5
D0
100
AcDbEntity
8
1
62
256
6
ByLayer
370
18
48
1
60
0
100
AcDbSpline
70
4
71
1
72
4
73
2
40
0
40
0
40
1
40
1
41
1
10
-0.0027608436205924
20
-6.49082321686419
30
5E-16
41
1
10
-0.002760843688236
20
-6.35725611285892
30
3E-16
0
SPLINE
5
D1
100
AcDbEntity
8
1
62
256
6
ByLayer
370
18
48
1
60
0
100
AcDbSpline
70
4
71
1
72
4
73
2
40
0
40
0
40
1
40
1
41
1
10
-0.0027608435493676
20
6.35163872078471
30
-3E-16
41
1
10
-0.0027608434425019
20
6.48993203483019
30
-5E-16
0
SPLINE
5
D2
100
AcDbEntity
8
SK1
62
256
6
ByLayer
370
18
48
1
60
0
100
AcDbSpline
70
4
71
3
72
11
73
7
40
0
40
0
40
0
40
0
40
0.254791729019038
40
0.513046902513602
40
0.764310291103298
40
1
40
1
40
1
40
1
41
1
10
-0.0121890295235403
20
22.0012103894157
30
0
41
1
10
-0.019523251523907
20
21.9816441349605
30
0
41
1
10
-0.0390358605650363
20
21.9462319825125
30
1E-16
41
1
10
-0.0840821862254018
20
21.9033442916588
30
2E-16
41
1
10
-0.138426531783125
20
21.8771286930992
30
3E-16
41
1
10
-0.175933014718055
20
21.8709392631579
30
3E-16
41
1
10
-0.19491389969204
20
21.8704110511936
30
4E-16
0
SPLINE
5
D3
100
AcDbEntity
8
1
62
256
6
ByLayer
370
18
48
1
60
0
100
AcDbSpline
70
4
71
2
72
6
73
3
40
0
40
0
40
0
40
1
40
1
40
1
41
1
10
-0.0121890295235403
20
21.9850934125025
30
0
41
1
10
-0.0011189141371517
20
22.0272195113931
30
0
41
1
10
-0.0011766942584472
20
22.0556409684859
30
-1E-16
0
SPLINE
5
D4
100
AcDbEntity
8
SK1
62
256
6
ByLayer
370
18
48
1
60
0
100
AcDbSpline
70
4
71
3
72
70
73
66
40
0
40
0
40
0
40
0
40
0.0080562934391211
40
0.0210948937622792
40
0.0344553106222583
40
0.0481344353786478
40
0.0621282858348498
40
0.0764320171530026
40
0.0910399351333422
40
0.105945511821611
40
0.121141403401725
40
0.136619470324664
40
0.152370799618409
40
0.168385729317775
40
0.184653874947197
40
0.201164157983842
40
0.217904836223078
40
0.234863535963041
40
0.252027285920084
40
0.269382552782176
40
0.286915278302757
40
0.304610917833422
40
0.322454480189791
40
0.340430568741299
40
0.358523423612294
40
0.376716964878759
40
0.394994836642266
40
0.413340451860357
40
0.431737037810475
40
0.450167682062826
40
0.468615378836182
40
0.48706307560954
40
0.505493719861892
40
0.523890305812008
40
0.542235921030099
40
0.560513792793606
40
0.578707334060072
40
0.596800188931067
40
0.614776277482575
40
0.632619839838943
40
0.650315479369609
40
0.66784820489019
40
0.685203471752282
40
0.702367221709326
40
0.719325921449288
40
0.736066599688524
40
0.752576882725169
40
0.76884502835459
40
0.784859958053957
40
0.800611287347701
40
0.816089354270641
40
0.831285245850755
40
0.846190822539024
40
0.860798740519363
40
0.875102471837515
40
0.889096322293717
40
0.902775447050107
40
0.916135863910086
40
0.929174464233244
40
0.941889021455927
40
0.954278197194091
40
0.966341544911724
40
0.978079511144763
40
0.989493434277178
40
1
40
1
40
1
40
1
41
1
10
-0.194913899692068
20
-21.8640126804319
30
1E-16
41
1
10
-0.194913899692068
20
-21.862008653311
30
1E-16
41
1
10
-0.19491389969204
20
-21.8555430703602
30
1E-16
41
1
10
-0.19491389969204
20
-21.8398572846152
30
1E-16
41
1
10
-0.19491389969204
20
-21.8143373379494
30
0
41
1
10
-0.19491389969204
20
-21.7807676405211
30
0
41
1
10
-0.19491389969204
20
-21.7388225236984
30
-1E-16
41
1
10
-0.19491389969204
20
-21.6881889730554
30
1E-16
41
1
10
-0.19491389969204
20
-21.6285686309767
30
0
41
1
10
-0.19491389969204
20
-21.5596797339207
30
0
41
1
10
-0.19491389969204
20
-21.4812589743687
30
0
41
1
10
-0.19491389969204
20
-21.3930632778552
30
0
41
1
10
-0.194913899692011
20
-21.2948714858927
30
1E-16
41
1
10
-0.194913899692011
20
-21.186485936063
30
0
41
1
10
-0.194913899692011
20
-21.067733931053
30
0
41
1
10
-0.194913899692011
20
-20.9384690889587
30
-1E-16
41
1
10
-0.194913899692011
20
-20.7985725677638
30
2E-16
41
1
10
-0.194913899692011
20
-20.6479541575161
30
0
41
1
10
-0.194913899692011
20
-20.4865532343791
30
2E-16
41
1
10
-0.194913899692011
20
-20.314339571411
30
0
41
1
10
-0.194913899692011
20
-20.1313140016336
30
-2E-16
41
1
10
-0.194913899692011
20
-19.9375089296753
30
-4E-16
41
1
10
-0.194913899692011
20
-19.7329886890233
30
3E-16
41
1
10
-0.194913899692011
20
-19.5178497426779
30
0
41
1
10
-0.194913899692011
20
-19.2922207257748
30
-3E-16
41
1
10
-0.194913899692011
20
-19.0562623295215
30
3E-16
41
1
10
-0.194913899692011
20
-18.8101670265766
30
-8E-16
41
1
10
-0.194913899692011
20
-18.5541586387842
30
6E-16
41
1
10
-0.194913899692011
20
-18.2884917489548
30
3E-16
41
1
10
-0.194913899692011
20
-18.0134509591554
30
0
41
1
10
-0.194913899692011
20
-17.7293499987314
30
-3E-16
41
1
10
-0.194913899692011
20
-17.4365306860275
30
-7E-16
41
1
10
-0.194913899692011
20
-17.1353617485003
30
8E-16
41
1
10
-0.194913899692011
20
-16.8262375066188
30
4E-16
41
1
10
-0.194913899692011
20
-16.5095764276249
30
0
41
1
10
-0.194913899692011
20
-16.1858195558761
30
-4E-16
41
1
10
-0.194913899691983
20
-15.8554288271059
30
-7E-16
41
1
10
-0.194913899691983
20
-15.5188852745188
30
6E-16
41
1
10
-0.194913899691983
20
-15.1766871351786
30
2E-16
41
1
10
-0.194913899691983
20
-14.8293478656485
30
-2E-16
41
1
10
-0.194913899691983
20
-14.4773940762996
30
-6E-16
41
1
10
-0.194913899691983
20
-14.1213633941172
30
8E-16
41
1
10
-0.194913899691983
20
-13.7618022641957
30
4E-16
41
1
10
-0.194913899691983
20
-13.3992637004306
30
1.7E-15
41
1
10
-0.194913899691983
20
-13.0343049961768
30
1.3E-15
41
1
10
-0.194913899691983
20
-12.6674854058559
30
9E-16
41
1
10
-0.194913899691983
20
-12.2993638086526
30
4E-16
41
1
10
-0.194913899691983
20
-11.9304963655418
30
0
41
1
10
-0.194913899691983
20
-11.5614341809396
30
-4E-16
41
1
10
-0.194913899691983
20
-11.1927209802655
30
-9E-16
41
1
10
-0.194913899691983
20
-10.8248908146383
30
-1.3E-15
41
1
10
-0.194913899691983
20
-10.458465803818
30
-1.7E-15
41
1
10
-0.194913899691983
20
-10.0939539283315
30
1.4E-15
41
1
10
-0.194913899691983
20
-9.73184688149922
30
1E-15
41
1
10
-0.194913899691983
20
-9.3726179918045
30
5E-16
41
1
10
-0.194913899691983
20
-9.01672022571876
30
1E-16
41
1
10
-0.194913899691983
20
-8.66458428072281
30
-3E-16
41
1
10
-0.194913899691983
20
-8.31661677783927
30
-7E-16
41
1
10
-0.194913899691983
20
-7.9731985625223
30
-1.1E-15
41
1
10
-0.194913899691983
20
-7.63468312223949
30
-1.5E-15
41
1
10
-0.194913899691983
20
-7.30139512852702
30
1.7E-15
41
1
10
-0.194913899691983
20
-6.973629110708
30
1.3E-15
41
1
10
-0.194913899691983
20
-6.65164826783771
30
9E-16
41
1
10
-0.194913899691983
20
-6.3410861333349
30
6E-16
41
1
10
-0.194913899691983
20
-6.13710523892468
30
3E-16
41
1
10
-0.194913899691983
20
-6.03894368023617
30
2E-16
0
SPLINE
5
D5
100
AcDbEntity
8
1
62
256
6
ByLayer
370
18
48
1
60
0
100
AcDbSpline
70
4
71
3
72
34
73
30
40
0
40
0
40
0
40
0
40
0.125003106063909
40
0.125003106063909
40
0.250006212127819
40
0.250006212127819
40
0.281256988643797
40
0.281256988643797
40
0.312507765159775
40
0.312507765159775
40
0.375009318191731
40
0.375009318191731
40
0.500012424255644
40
0.500012424255644
40
0.5625139772876
40
0.5625139772876
40
0.593764753803578
40
0.593764753803578
40
0.625015530319556
40
0.625015530319556
40
0.750018636383468
40
0.750018636383468
40
0.812520189415424
40
0.812520189415424
40
0.843770965931402
40
0.843770965931402
40
0.87502174244738
40
0.87502174244738
40
1
40
1
40
1
40
1
41
1
10
45.9999999999998
20
-29.7774977961548
30
0
41
1
10
46.5193435751691
20
-29.8472610218932
30
6E-16
41
1
10
47.0152185155608
20
-29.927153598091
30
-5E-16
41
1
10
47.9634557112514
20
-30.1005798905099
30
9E-16
41
1
10
48.4158051544785
20
-30.1941373491691
30
-3E-16
41
1
10
48.9541410287048
20
-30.3158119207558
30
5E-16
41
1
10
49.0604454698925
20
-30.3403834610943
30
6E-16
41
1
10
49.2702999698671
20
-30.3899035863026
30
-8E-16
41
1
10
49.3734198770155
20
-30.4147514611799
30
-7E-16
41
1
10
49.676472112526
20
-30.4891659798145
30
-2E-16
41
1
10
49.8705328523754
20
-30.5387026961103
30
0
41
1
10
50.4294358075357
20
-30.6859179911197
30
0
41
1
10
50.7711406595896
20
-30.782203868552
30
-4E-16
41
1
10
51.2372628236038
20
-30.919319969172
30
3E-16
41
1
10
51.3848624546217
20
-30.9638074385728
30
-3E-16
41
1
10
51.5942497814728
20
-31.0281258227033
30
0
41
1
10
51.6618574180099
20
-31.0491070201295
30
1E-16
41
1
10
51.7919617919965
20
-31.0898387534806
30
3E-16
41
1
10
51.8545796726405
20
-31.1096264496083
30
4E-16
41
1
10
52.155639788554
20
-31.2055166832841
30
0
41
1
10
52.3582069921535
20
-31.2724776655938
30
-2E-16
41
1
10
52.6047536173496
20
-31.3552895433592
30
2E-16
41
1
10
52.6773434964978
20
-31.3799547889444
30
-1E-16
41
1
10
52.771463700934
20
-31.4121463149853
30
0
41
1
10
52.8003735227261
20
-31.4220755061072
30
1E-16
41
1
10
52.8531672879352
20
-31.440260830041
30
-1E-16
41
1
10
52.8770394714953
20
-31.4485130003784
30
0
41
1
10
52.9826518351771
20
-31.485103384912
30
-1E-16
41
1
10
53.0245251554346
20
-31.4998337747197
30
0
41
1
10
53.0249960056737
20
-31.4999986019773
30
0
0
SPLINE
5
D6
100
AcDbEntity
8
SK1
62
256
6
ByLayer
370
18
48
1
60
0
100
AcDbSpline
70
4
71
3
72
190
73
186
40
0
40
0
40
0
40
0
40
0.0047929139549662
40
0.0098140920657033
40
0.0149671432261276
40
0.0202515250059111
40
0.0256663350066277
40
0.0312103133351652
40
0.0368818460570039
40
0.0426789696198997
40
0.0485993762358438
40
0.0546404202065491
40
0.0607991251751259
40
0.0670721922840681
40
0.0734560092171933
40
0.07994666010075
40
0.0865399362365551
40
0.093231347637743
40
0.100016135335508
40
0.106889284423106
40
0.113845537801367
40
0.120879410588036
40
0.127985205151456
40
0.135157026727379
40
0.142388799576107
40
0.149674283635668
40
0.157007091625398
40
0.164380706553029
40
0.171788499577311
40
0.179223748177209
40
0.186679654577865
40
0.194149364382821
40
0.201625985361451
40
0.209102606340081
40
0.216572316145037
40
0.224028222545692
40
0.23146347114559
40
0.238871264169873
40
0.246244879097503
40
0.253577687087233
40
0.260863171146795
40
0.268094943995522
40
0.275266765571446
40
0.282372560134865
40
0.289406432921535
40
0.296362686299795
40
0.303235835387394
40
0.310020623085159
40
0.316712034486346
40
0.323305310622152
40
0.329795961505708
40
0.336179778438834
40
0.342452845547776
40
0.348611550516353
40
0.354652594487058
40
0.360573001103002
40
0.366370124665898
40
0.372041657387737
40
0.377585635716274
40
0.383000445716991
40
0.388284827496774
40
0.393437878657199
40
0.398459056767936
40
0.403348180853519
40
0.408105431889385
40
0.412731352305832
40
0.417226844501255
40
0.421593168368737
40
0.425831937842768
40
0.429945116475563
40
0.433935012055103
40
0.437804270279649
40
0.441555867506061
40
0.445193102591822
40
0.448719587853091
40
0.452139239163597
40
0.455456265221503
40
0.458675156013659
40
0.461800670508858
40
0.464837823613831
40
0.467791872427745
40
0.470668301832853
40
0.473472809460815
40
0.47621129007589
40
0.478889819417789
40
0.481514637548505
40
0.48409213174873
40
0.486628819010765
40
0.489131328175898
40
0.491606381765207
40
0.4940607775536
40
0.496501369937583
40
0.498935051147837
40
0.501368732358091
40
0.503809324742074
40
0.506263720530467
40
0.508738774119776
40
0.511241283284908
40
0.513777970546944
40
0.516355464747169
40
0.518980282877885
40
0.521658812219784
40
0.524397292834858
40
0.527201800462821
40
0.530078229867928
40
0.533032278681842
40
0.536069431786816
40
0.539194946282014
40
0.54241383707417
40
0.545730863132076
40
0.549150514442582
40
0.552676999703851
40
0.556314234789612
40
0.560065832016025
40
0.563935090240569
40
0.56792498582011
40
0.572038164452905
40
0.576276933926936
40
0.580643257794418
40
0.585138749989841
40
0.589764670406287
40
0.594521921442153
40
0.599411045527737
40
0.604432223638474
40
0.609585274798898
40
0.614869656578682
40
0.620284466579398
40
0.625828444907936
40
0.631499977629774
40
0.63729710119267
40
0.643217507808614
40
0.64925855177932
40
0.655417256747896
40
0.661690323856839
40
0.668074140789964
40
0.674564791673521
40
0.681158067809326
40
0.687849479210513
40
0.694634266908279
40
0.701507415995877
40
0.708463669374138
40
0.715497542160807
40
0.722603336724227
40
0.72977515830015
40
0.737006931148877
40
0.744292415208439
40
0.751625223198169
40
0.758998838125799
40
0.766406631150082
40
0.77384187974998
40
0.781297786150635
40
0.788767495955591
40
0.796244116934222
40
0.803720737912851
40
0.811190447717807
40
0.818646354118463
40
0.826081602718361
40
0.833489395742643
40
0.840863010670273
40
0.848195818660004
40
0.855481302719565
40
0.862713075568293
40
0.869884897144216
40
0.876990691707636
40
0.884024564494305
40
0.890980817872565
40
0.897853966960164
40
0.904638754657929
40
0.911330166059117
40
0.917923442194922
40
0.924414093078478
40
0.930797910011604
40
0.937070977120546
40
0.943229682089123
40
0.949270726059828
40
0.955191132675772
40
0.960988256238668
40
0.966659788960507
40
0.972203767289044
40
0.977618577289761
40
0.982902959069545
40
0.988056010229969
40
0.993077188340706
40
0.99796631242629
40
1
40
1
40
1
40
1
41
1
10
-1.99993701093308
20
22.0219582129406
30
-4E-16
41
1
10
-1.99993701093305
20
22.0240782487231
30
-4E-16
41
1
10
-1.99993701093305
20
22.0262201439036
30
-4E-16
41
1
10
-1.99993701093305
20
22.0227981434459
30
1E-16
41
1
10
-1.99993701093305
20
22.0122894339892
30
1E-16
41
1
10
-1.99993701093305
20
21.9943649168613
30
1E-16
41
1
10
-1.99993701093305
20
21.9686798691876
30
1E-16
41
1
10
-1.99993701093305
20
21.9348980766807
30
2E-16
41
1
10
-1.99993701093305
20
21.8926939357887
30
0
41
1
10
-1.99993701093305
20
21.8417545113479
30
1E-16
41
1
10
-1.99993701093305
20
21.7817815391795
30
0
41
1
10
-1.99993701093305
20
21.7124933633393
30
0
41
1
10
-1.99993701093305
20
21.6336267980465
30
0
41
1
10
-1.99993701093305
20
21.5449389046883
30
0
41
1
10
-1.99993701093305
20
21.4462086747131
30
1E-16
41
1
10
-1.99993701093305
20
21.337238609684
30
0
41
1
10
-1.99993701093305
20
21.2178561902724
30
1E-16
41
1
10
-1.99993701093305
20
21.087915226514
30
-2E-16
41
1
10
-1.99993701093305
20
20.9472970822338
30
0
41
1
10
-1.99993701093305
20
20.7959117671648
30
2E-16
41
1
10
-1.99993701093305
20
20.6336988909359
30
4E-16
41
1
10
-1.99993701093305
20
20.4606284737834
30
-3E-16
41
1
10
-1.99993701093305
20
20.276701609547
30
-1E-16
41
1
10
-1.99993701093302
20
20.0819509772354
30
1E-16
41
1
10
-1.99993701093302
20
19.8764411981966
30
4E-16
41
1
10
-1.99993701093302
20
19.6602690366857
30
-3E-16
41
1
10
-1.99993701093302
20
19.4335634423965
30
0
41
1
10
-1.99993701093302
20
19.1964854343025
30
3E-16
41
1
10
-1.99993701093302
20
18.9492278259365
30
-3E-16
41
1
10
-1.99993701093302
20
18.6920147930213
30
0
41
1
10
-1.99993701093302
20
18.4251012851426
30
3E-16
41
1
10
-1.99993701093302
20
18.1487722839265
30
6E-16
41
1
10
-1.99993701093302
20
17.8633419109451
30
-8E-16
41
1
10
-1.99993701093302
20
17.569152389317
30
-5E-16
41
1
10
-1.99993701093302
20
17.2665728636949
30
-1E-16
41
1
10
-1.99993701093302
20
16.9559980840378
30
2E-16
41
1
10
-1.99993701093302
20
16.6378469592385
30
6E-16
41
1
10
-1.99993701093302
20
16.3125609873296
30
-8E-16
41
1
10
-1.99993701093302
20
15.9806025696029
30
-4E-16
41
1
10
-1.99993701093302
20
15.6424532165602
30
0
41
1
10
-1.99993701093302
20
15.2986116541524
30
4E-16
41
1
10
-1.99993701093302
20
14.9495918392671
30
8E-16
41
1
10
-1.99993701093302
20
14.5959208938807
30
-5E-16
41
1
10
-1.99993701093302
20
14.2381369677036
30
-1E-16
41
1
10
-1.99993701093302
20
13.8767870395109
30
3E-16
41
1
10
-1.99993701093302
20
13.5124246676655
30
7E-16
41
1
10
-1.99993701093302
20
13.1456077006041
30
1.2E-15
41
1
10
-1.99993701093302
20
12.7768959582681
30
1.6E-15
41
1
10
-1.999937010933
20
12.4068488956183
30
-1.5E-15
41
1
10
-1.999937010933
20
12.0360232594784
30
-1.1E-15
41
1
10
-1.999937010933
20
11.6649707499965
30
-7E-16
41
1
10
-1.999937010933
20
11.2942356980139
30
-2E-16
41
1
10
-1.999937010933
20
10.9243527695645
30
2E-16
41
1
10
-1.999937010933
20
10.5558447086141
30
6E-16
41
1
10
-1.999937010933
20
10.1892201289807
30
1.1E-15
41
1
10
-1.999937010933
20
9.82497136615092
30
1.5E-15
41
1
10
-1.999937010933
20
9.4635723994343
30
-1.6E-15
41
1
10
-1.999937010933
20
9.10547685456984
30
-1.2E-15
41
1
10
-1.999937010933
20
8.75111609652382
30
-8E-16
41
1
10
-1.999937010933
20
8.4008974217947
30
-4E-16
41
1
10
-1.999937010933
20
8.05520235907122
30
0
41
1
10
-1.999937010933
20
7.71438508657906
30
4E-16
41
1
10
-1.999937010933
20
7.37877097389693
30
8E-16
41
1
10
-1.999937010933
20
7.0486552554336
30
1.2E-15
41
1
10
-1.999937010933
20
6.72430184212899
30
1.6E-15
41
1
10
-1.999937010933
20
6.40594227728664
30
-1.6E-15
41
1
10
-1.999937010933
20
6.09377484175442
30
-1.2E-15
41
1
10
-1.999937010933
20
5.78796381295956
30
-9E-16
41
1
10
-1.999937010933
20
5.48863888156666
30
-5E-16
41
1
10
-1.999937010933
20
5.1958947287749
30
-2E-16
41
1
10
-1.999937010933
20
4.90979076649975
30
1E-16
41
1
10
-1.999937010933
20
4.63035104190567
30
5E-16
41
1
10
-1.999937010933
20
4.35756430696645
30
8E-16
41
1
10
-1.999937010933
20
4.09138425294043
30
1.1E-15
41
1
10
-1.999937010933
20
3.83172990885345
30
1.4E-15
41
1
10
-1.999937010933
20
3.57848620229734
30
1.7E-15
41
1
10
-1.999937010933
20
3.33150468007034
30
-1.6E-15
41
1
10
-1.999937010933
20
3.09060438541749
30
-1.3E-15
41
1
10
-1.999937010933
20
2.85557288787678
30
-1E-15
41
1
10
-1.999937010933
20
2.62616746100142
30
-7E-16
41
1
10
-1.999937010933
20
2.40211640251727
30
-5E-16
41
1
10
-1.999937010933
20
2.18312049078836
30
-2E-16
41
1
10
-1.999937010933
20
1.96885457080603
30
0
41
1
10
-1.999937010933
20
1.75896926229339
30
3E-16
41
1
10
-1.999937010933
20
1.55309278192755
30
5E-16
41
1
10
-1.999937010933
20
1.35083287113133
30
8E-16
41
1
10
-1.999937010933
20
1.15177882037872
30
1E-15
41
1
10
-1.999937010933
20
0.955503580490841
30
1.2E-15
41
1
10
-1.999937010933
20
0.761565950983481
30
1.5E-15
41
1
10
-1.999937010933
20
0.569512835155024
30
1.7E-15
41
1
10
-1.999937010933
20
0.378881551284707
30
-1.7E-15
41
1
10
-1.999937010933
20
0.189202189042959
30
-1.4E-15
41
1
10
-1.999937010933
20
1.137E-13
30
-1.2E-15
41
1
10
-1.999937010933
20
-0.189202189042732
30
-1E-15
41
1
10
-1.999937010933
20
-0.378881551284479
30
-8E-16
41
1
10
-1.999937010933
20
-0.569512835154796
30
-5E-16
41
1
10
-1.999937010933
20
-0.761565950983254
30
-3E-16
41
1
10
-1.999937010933
20
-0.955503580490614
30
-1E-16
41
1
10
-1.999937010933
20
-1.1517788203785
30
1E-16
41
1
10
-1.999937010933
20
-1.3508328711311
30
4E-16
41
1
10
-1.999937010933
20
-1.55309278192732
30
6E-16
41
1
10
-1.999937010933
20
-1.75896926229316
30
9E-16
41
1
10
-1.999937010933
20
-1.96885457080577
30
1.1E-15
41
1
10
-1.999937010933
20
-2.18312049078813
30
1.3E-15
41
1
10
-1.999937010933
20
-2.40211640251704
30
1.6E-15
41
1
10
-1.999937010933
20
-2.62616746100119
30
-1.7E-15
41
1
10
-1.999937010933
20
-2.85557288787655
30
-1.4E-15
41
1
10
-1.999937010933
20
-3.09060438541727
30
-1.1E-15
41
1
10
-1.999937010933
20
-3.33150468007008
30
-9E-16
41
1
10
-1.999937010933
20
-3.57848620229709
30
-6E-16
41
1
10
-1.999937010933
20
-3.83172990885319
30
-3E-16
41
1
10
-1.999937010933
20
-4.0913842529402
30
0
41
1
10
-1.999937010933
20
-4.35756430696622
30
3E-16
41
1
10
-1.999937010933
20
-4.63035104190541
30
7E-16
41
1
10
-1.999937010933
20
-4.90979076649953
30
1E-15
41
1
10
-1.999937010933
20
-5.19589472877465
30
1.3E-15
41
1
10
-1.999937010933
20
-5.48863888156643
30
1.7E-15
41
1
10
-1.999937010933
20
-5.7879638129593
30
-1.5E-15
41
1
10
-1.999937010933
20
-6.0937748417542
30
-1.2E-15
41
1
10
-1.999937010933
20
-6.40594227728639
30
-8E-16
41
1
10
-1.999937010933
20
-6.72430184212874
30
-4E-16
41
1
10
-1.999937010933
20
-7.04865525543335
30
-1E-16
41
1
10
-1.999937010933
20
-7.37877097389668
30
3E-16
41
1
10
-1.999937010933
20
-7.71438508657877
30
7E-16
41
1
10
-1.999937010933
20
-8.05520235907096
30
1.1E-15
41
1
10
-1.999937010933
20
-8.40089742179444
30
1.5E-15
41
1
10
-1.999937010933
20
-8.75111609652359
30
-1.6E-15
41
1
10
-1.999937010933
20
-9.10547685456956
30
-1.2E-15
41
1
10
-1.999937010933
20
-9.46357239943404
30
-8E-16
41
1
10
-1.999937010933
20
-9.82497136615066
30
-4E-16
41
1
10
-1.999937010933
20
-10.1892201289804
30
1E-16
41
1
10
-1.999937010933
20
-10.5558447086139
30
5E-16
41
1
10
-1.999937010933
20
-10.9243527695643
30
9E-16
41
1
10
-1.999937010933
20
-11.2942356980137
30
1.4E-15
41
1
10
-1.999937010933
20
-11.6649707499962
30
-1.8E-15
41
1
10
-1.999937010933
20
-12.0360232594781
30
-1.3E-15
41
1
10
-1.999937010933
20
-12.406848895618
30
-9E-16
41
1
10
-1.99993701093302
20
-12.7768959582678
30
-5E-16
41
1
10
-1.99993701093302
20
-13.1456077006039
30
0
41
1
10
-1.99993701093302
20
-13.5124246676653
30
4E-16
41
1
10
-1.99993701093302
20
-13.8767870395107
30
8E-16
41
1
10
-1.99993701093302
20
-14.2381369677034
30
-5E-16
41
1
10
-1.99993701093302
20
-14.5959208938805
30
-1E-16
41
1
10
-1.99993701093302
20
-14.9495918392669
30
3E-16
41
1
10
-1.99993701093302
20
-15.2986116541522
30
7E-16
41
1
10
-1.99993701093302
20
-15.6424532165599
30
-6E-16
41
1
10
-1.99993701093302
20
-15.9806025696026
30
-3E-16
41
1
10
-1.99993701093302
20
-16.3125609873293
30
1E-16
41
1
10
-1.99993701093302
20
-16.6378469592383
30
5E-16
41
1
10
-1.99993701093302
20
-16.9559980840376
30
-9E-16
41
1
10
-1.99993701093302
20
-17.2665728636947
30
-5E-16
41
1
10
-1.99993701093302
20
-17.5691523893167
30
-2E-16
41
1
10
-1.99993701093302
20
-17.8633419109449
30
2E-16
41
1
10
-1.99993701093302
20
-18.1487722839263
30
5E-16
41
1
10
-1.99993701093302
20
-18.4251012851424
30
8E-16
41
1
10
-1.99993701093302
20
-18.6920147930211
30
-6E-16
41
1
10
-1.99993701093302
20
-18.9492278259362
30
-3E-16
41
1
10
-1.99993701093302
20
-19.1964854343023
30
0
41
1
10
-1.99993701093302
20
-19.4335634423963
30
2E-16
41
1
10
-1.99993701093302
20
-19.6602690366855
30
-4E-16
41
1
10
-1.99993701093302
20
-19.8764411981964
30
-1E-16
41
1
10
-1.99993701093302
20
-20.0819509772351
30
1E-16
41
1
10
-1.99993701093305
20
-20.2767016095468
30
3E-16
41
1
10
-1.99993701093305
20
-20.4606284737832
30
-3E-16
41
1
10
-1.99993701093305
20
-20.6336988909357
30
-1E-16
41
1
10
-1.99993701093305
20
-20.7959117671647
30
1E-16
41
1
10
-1.99993701093305
20
-20.9472970822337
30
-2E-16
41
1
10
-1.99993701093305
20
-21.0879152265138
30
0
41
1
10
-1.99993701093305
20
-21.2178561902722
30
1E-16
41
1
10
-1.99993701093305
20
-21.3372386096838
30
0
41
1
10
-1.99993701093305
20
-21.446208674713
30
-1E-16
41
1
10
-1.99993701093305
20
-21.5449389046882
30
0
41
1
10
-1.99993701093305
20
-21.6336267980463
30
0
41
1
10
-1.99993701093305
20
-21.7124933633392
30
0
41
1
10
-1.99993701093305
20
-21.7817815391793
30
0
41
1
10
-1.99993701093305
20
-21.8417545113477
30
0
41
1
10
-1.99993701093305
20
-21.8926939357886
30
0
41
1
10
-1.99993701093305
20
-21.9348980766806
30
1E-16
41
1
10
-1.99993701093305
20
-21.9686798691875
30
1E-16
41
1
10
-1.99993701093305
20
-21.9943649168612
30
1E-16
41
1
10
-1.99993701093305
20
-22.0122894339891
30
2E-16
41
1
10
-1.99993701093305
20
-22.0227981434458
30
2E-16
41
1
10
-1.99993701093305
20
-22.0262421408274
30
-3E-16
41
1
10
-1.99993701093305
20
-22.0235830767326
30
-3E-16
41
1
10
-1.99993701093305
20
-22.0198000713421
30
-3E-16
41
1
10
-1.99993701093305
20
-22.0184930009072
30
-3E-16
0
SPLINE
5
D7
100
AcDbEntity
8
SK1
62
256
6
ByLayer
370
18
48
1
60
0
100
AcDbSpline
70
4
71
3
72
189
73
185
40
0
40
0
40
0
40
0
40
0.0046076402458452
40
0.0096415240952048
40
0.0148076146897438
40
0.020105368226552
40
0.0255338800237479
40
0.0310918870001479
40
0.0367777711372845
40
0.0425895639142828
40
0.0485249517034381
40
0.0545812821117096
40
0.0607555712507455
40
0.0670445119155123
40
0.0734444826491161
40
0.0799515576689603
40
0.0865615176270477
40
0.0932698611749158
40
0.100071817301523
40
0.106962358410255
40
0.113936214099222
40
0.12098788560706
40
0.128111660884654
40
0.13530163025147
40
0.142551702593577
40
0.149855622058965
40
0.157206985204403
40
0.164599258546833
40
0.172025796471189
40
0.179479859445567
40
0.186954632493815
40
0.19444324387491
40
0.201938783917919
40
0.209434323960928
40
0.216922935342023
40
0.224397708390271
40
0.231851771364649
40
0.239278309289005
40
0.246670582631435
40
0.254021945776874
40
0.261325865242261
40
0.268575937584368
40
0.275765906951184
40
0.282889682228779
40
0.289941353736616
40
0.296915209425583
40
0.303805750534315
40
0.310607706660923
40
0.31731605020879
40
0.323926010166878
40
0.330433085186722
40
0.336833055920325
40
0.343121996585093
40
0.349296285724128
40
0.3553526161324
40
0.361288003921555
40
0.367099796698553
40
0.37278568083569
40
0.37834368781209
40
0.383772199609286
40
0.389069953146094
40
0.394236043740633
40
0.399269927589992
40
0.40417142326076
40
0.408940712186319
40
0.413578338169547
40
0.418085205892298
40
0.422462578435723
40
0.426712073818262
40
0.430835660560761
40
0.434835652290895
40
0.438714701401678
40
0.442475791781435
40
0.446122230635174
40
0.449657639419767
40
0.453085943917786
40
0.456411363477211
40
0.459638399446486
40
0.462771822836641
40
0.465816661244278
40
0.468778185071282
40
0.471661893079017
40
0.474473497316599
40
0.477218907464574
40
0.479904214636887
40
0.482535674685568
40
0.485119691053876
40
0.487662797224902
40
0.490171638813751
40
0.492652955352369
40
0.495113561816957
40
0.497560329948589
40
0.500000169418253
40
0.502440008887917
40
0.504886777019549
40
0.507347383484137
40
0.509828700022755
40
0.512337541611605
40
0.51488064778263
40
0.517464664150938
40
0.520096124199619
40
0.522781431371932
40
0.525526841519907
40
0.528338445757489
40
0.531222153765224
40
0.534183677592229
40
0.537228515999866
40
0.54036193939002
40
0.543588975359296
40
0.54691439491872
40
0.55034269941674
40
0.553878108201332
40
0.557524547055072
40
0.561285637434829
40
0.565164686545612
40
0.569164678275746
40
0.573288265018245
40
0.577537760400784
40
0.581915132944209
40
0.58642200066696
40
0.591059626650188
40
0.595828915575747
40
0.600730411246515
40
0.605764295095874
40
0.610930385690413
40
0.616228139227221
40
0.621656651024417
40
0.627214658000818
40
0.632900542137954
40
0.638712334914952
40
0.644647722704108
40
0.650704053112379
40
0.656878342251415
40
0.663167282916182
40
0.669567253649786
40
0.67607432866963
40
0.682684288627717
40
0.689392632175585
40
0.696194588302192
40
0.703085129410924
40
0.710058985099892
40
0.717110656607729
40
0.724234431885323
40
0.73142440125214
40
0.738674473594246
40
0.745978393059634
40
0.753329756205073
40
0.760722029547503
40
0.768148567471859
40
0.775602630446237
40
0.783077403494485
40
0.79056601487558
40
0.798061554918589
40
0.805557094961597
40
0.813045706342692
40
0.820520479390941
40
0.827974542365319
40
0.835401080289674
40
0.842793353632105
40
0.850144716777544
40
0.857448636242932
40
0.864698708585038
40
0.871888677951855
40
0.879012453229449
40
0.886064124737286
40
0.893037980426253
40
0.899928521534985
40
0.906730477661592
40
0.91343882120946
40
0.920048781167548
40
0.926555856187392
40
0.932955826920996
40
0.939244767585762
40
0.945419056724798
40
0.95147538713307
40
0.957410774922225
40
0.963222567699223
40
0.96890845183636
40
0.97446645881276
40
0.979894970609956
40
0.985192724146764
40
0.990358814741303
40
0.995392698590662
40
1
40
1
40
1
40
1
41
1
10
-36.5000001
20
-21.1555815426976
30
0
41
1
10
-36.5000001
20
-21.1574506826994
30
0
41
1
10
-36.5000001
20
-21.1593830503645
30
0
41
1
10
-36.5000001
20
-21.1561371947573
30
0
41
1
10
-36.5000001
20
-21.1460261066864
30
0
41
1
10
-36.5000001
20
-21.1287629778415
30
0
41
1
10
-36.5000001
20
-21.1040028796377
30
0
41
1
10
-36.5000001
20
-21.0714093126483
30
-1E-16
41
1
10
-36.5000001
20
-21.030656308722
30
-1E-16
41
1
10
-36.5000001
20
-20.9814304886427
30
1E-16
41
1
10
-36.5000001
20
-20.923433064769
30
0
41
1
10
-36.5000001
20
-20.8563817783615
30
0
41
1
10
-36.5000001
20
-20.7800127616236
30
0
41
1
10
-36.5000001
20
-20.6940823148518
30
0
41
1
10
-36.5000001
20
-20.5983685895057
30
1E-16
41
1
10
-36.5000001
20
-20.4926731684709
30
-1E-16
41
1
10
-36.5000001
20
-20.3768225352916
30
0
41
1
10
-36.5000001
20
-20.250669424696
30
-1E-16
41
1
10
-36.5000001
20
-20.1140940473184
30
2E-16
41
1
10
-36.5000001
20
-19.9670051821449
30
0
41
1
10
-36.5000001
20
-19.8093411308544
30
-2E-16
41
1
10
-36.5000001
20
-19.6410705289117
30
0
41
1
10
-36.5000001
20
-19.4621930089698
30
-2E-16
41
1
10
-36.5000001
20
-19.27273971287
30
-4E-16
41
1
10
-36.5000001
20
-19.0727736492705
30
3E-16
41
1
10
-36.5000001
20
-18.862389894699
30
0
41
1
10
-36.5000001
20
-18.6417156365927
30
-2E-16
41
1
10
-36.5000001
20
-18.4109100576737
30
4E-16
41
1
10
-36.5000001
20
-18.1701640617868
30
1E-16
41
1
10
-36.5000001
20
-17.919699842111
30
-2E-16
41
1
10
-36.5000001
20
-17.6597702934389
30
-5E-16
41
1
10
-36.5000001
20
-17.3906582709829
30
-8E-16
41
1
10
-36.5000001
20
-17.1126756989335
30
6E-16
41
1
10
-36.5000001
20
-16.8261625327347
30
3E-16
41
1
10
-36.5000001
20
-16.5314855797708
30
0
41
1
10
-36.5000001
20
-16.2290371838586
30
-4E-16
41
1
10
-36.5000001
20
-15.9192337796193
30
-8E-16
41
1
10
-36.5000001
20
-15.6025143234505
30
6E-16
41
1
10
-36.5000001
20
-15.2793386084343
30
3E-16
41
1
10
-36.5000001
20
-14.9501854710986
30
-1E-16
41
1
10
-36.5000001
20
-14.6155508984898
30
-5E-16
41
1
10
-36.5000001
20
-14.2759460445152
30
9E-16
41
1
10
-36.5000001
20
-13.9318951649732
30
5E-16
41
1
10
-36.5000001
20
-13.5839334810978
30
1E-16
41
1
10
-36.5000001
20
-13.232604981812
30
-4E-16
41
1
10
-36.5000001
20
-12.8784601751947
30
-8E-16
41
1
10
-36.5000001
20
-12.5220537999339
30
6E-16
41
1
10
-36.5000001
20
-12.163942507747
30
2E-16
41
1
10
-36.5000001
20
-11.8046825279084
30
-3E-16
41
1
10
-36.5000001
20
-11.4448273251269
30
-7E-16
41
1
10
-36.5000001
20
-11.0849252620673
30
-1.1E-15
41
1
10
-36.5000001
20
-10.7255172778
30
-1.5E-15
41
1
10
-36.5000001
20
-10.3671345934062
30
1.6E-15
41
1
10
-36.5000001
20
-10.0102964558473
30
1.2E-15
41
1
10
-36.5000001
20
-9.65550793103859
30
8E-16
41
1
10
-36.5000001
20
-9.30325775684386
30
4E-16
41
1
10
-36.5000001
20
-8.95401626643226
30
0
41
1
10
-36.5000001
20
-8.60823339211177
30
-4E-16
41
1
10
-36.5000001
20
-8.26633675937856
30
-8E-16
41
1
10
-36.5000001
20
-7.92872988049592
30
-1.2E-15
41
1
10
-36.5000001
20
-7.59579045645043
30
-1.6E-15
41
1
10
-36.5000001
20
-7.26786879561692
30
1.5E-15
41
1
10
-36.5000001
20
-6.94528635691253
30
1.2E-15
41
1
10
-36.5000001
20
-6.62833442462764
30
8E-16
41
1
10
-36.5000001
20
-6.31727292149316
30
4E-16
41
1
10
-36.5000001
20
-6.01232936588545
30
1E-16
41
1
10
-36.5000001
20
-5.71369797837986
30
-3E-16
41
1
10
-36.5000001
20
-5.42153894214817
30
-6E-16
41
1
10
-36.5000001
20
-5.1359778209592
30
-1E-15
41
1
10
-36.5000001
20
-4.85710513778378
30
-1.3E-15
41
1
10
-36.5000001
20
-4.58497611623247
30
-1.6E-15
41
1
10
-36.5000001
20
-4.31961058627377
30
1.6E-15
41
1
10
-36.5000001
20
-4.06099305488766
30
1.3E-15
41
1
10
-36.5000001
20
-3.80907294151353
30
1E-15
41
1
10
-36.5000001
20
-3.56376497736346
30
7E-16
41
1
10
-36.5000001
20
-3.32494976687931
30
5E-16
41
1
10
-36.5000001
20
-3.09247450883495
30
2E-16
41
1
10
-36.5000001
20
-2.86615387382389
30
-1E-16
41
1
10
-36.5000001
20
-2.64577103412444
30
-3E-16
41
1
10
-36.5000001
20
-2.43107884121608
30
-6E-16
41
1
10
-36.5000001
20
-2.22180114552449
30
-8E-16
41
1
10
-36.5000001
20
-2.01763425231041
30
-1.1E-15
41
1
10
-36.5000001
20
-1.81824850698735
30
-1.3E-15
41
1
10
-36.5000001
20
-1.6232900025569
30
-1.5E-15
41
1
10
-36.5000001
20
-1.43238240129034
30
-1.7E-15
41
1
10
-36.5000001
20
-1.2451288622585
30
1.6E-15
41
1
10
-36.5000001
20
-1.06111406581368
30
1.4E-15
41
1
10
-36.5000001
20
-0.879906325664905
30
1.2E-15
41
1
10
-36.5000001
20
-0.701059778745872
30
9E-16
41
1
10
-36.5000001
20
-0.524116642663614
30
7E-16
41
1
10
-36.5000001
20
-0.348609530138503
30
5E-16
41
1
10
-36.5000001
20
-0.174063809498648
30
3E-16
41
1
10
-36.5000001
20
1.137E-13
30
1E-16
41
1
10
-36.5000001
20
0.174063809498847
30
-1E-16
41
1
10
-36.5000001
20
0.348609530138702
30
-3E-16
41
1
10
-36.5000001
20
0.524116642663842
30
-5E-16
41
1
10
-36.5000001
20
0.701059778746071
30
-7E-16
41
1
10
-36.5000001
20
0.879906325665161
30
-9E-16
41
1
10
-36.5000001
20
1.06111406581388
30
-1.1E-15
41
1
10
-36.5000001
20
1.24512886225864
30
-1.3E-15
41
1
10
-36.5000001
20
1.4323824012906
30
-1.6E-15
41
1
10
-36.5000001
20
1.62329000255716
30
-1.8E-15
41
1
10
-36.5000001
20
1.8182485069876
30
1.5E-15
41
1
10
-36.5000001
20
2.01763425231064
30
1.3E-15
41
1
10
-36.5000001
20
2.22180114552469
30
1.1E-15
41
1
10
-36.5000001
20
2.4310788412163
30
8E-16
41
1
10
-36.5000001
20
2.64577103412466
30
6E-16
41
1
10
-36.5000001
20
2.86615387382412
30
3E-16
41
1
10
-36.5000001
20
3.09247450883518
30
1E-16
41
1
10
-36.5000001
20
3.32494976687957
30
-2E-16
41
1
10
-36.5000001
20
3.56376497736369
30
-5E-16
41
1
10
-36.5000001
20
3.80907294151373
30
-8E-16
41
1
10
-36.5000001
20
4.06099305488789
30
-1.1E-15
41
1
10
-36.5000001
20
4.31961058627405
30
-1.4E-15
41
1
10
-36.5000001
20
4.5849761162327
30
-1.7E-15
41
1
10
-36.5000001
20
4.85710513778398
30
1.5E-15
41
1
10
-36.5000001
20
5.13597782095948
30
1.2E-15
41
1
10
-36.5000001
20
5.4215389421484
30
9E-16
41
1
10
-36.5000001
20
5.71369797838008
30
5E-16
41
1
10
-36.5000001
20
6.01232936588571
30
2E-16
41
1
10
-36.5000001
20
6.31727292149338
30
-2E-16
41
1
10
-36.5000001
20
6.62833442462789
30
-5E-16
41
1
10
-36.5000001
20
6.94528635691279
30
-9E-16
41
1
10
-36.5000001
20
7.26786879561718
30
-1.3E-15
41
1
10
-36.5000001
20
7.59579045645066
30
-1.7E-15
41
1
10
-36.5000001
20
7.92872988049618
30
1.5E-15
41
1
10
-36.5000001
20
8.26633675937887
30
1.1E-15
41
1
10
-36.5000001
20
8.60823339211206
30
7E-16
41
1
10
-36.5000001
20
8.95401626643252
30
3E-16
41
1
10
-36.5000001
20
9.30325775684415
30
-1E-16
41
1
10
-36.5000001
20
9.65550793103887
30
-5E-16
41
1
10
-36.5000001
20
10.0102964558476
30
-9E-16
41
1
10
-36.5000001
20
10.3671345934064
30
-1.4E-15
41
1
10
-36.5000001
20
10.7255172778003
30
1.8E-15
41
1
10
-36.5000001
20
11.0849252620676
30
1.4E-15
41
1
10
-36.5000001
20
11.4448273251272
30
9E-16
41
1
10
-36.5000001
20
11.8046825279086
30
5E-16
41
1
10
-36.5000001
20
12.1639425077473
30
1E-16
41
1
10
-36.5000001
20
12.5220537999341
30
-3E-16
41
1
10
-36.5000001
20
12.8784601751949
30
-8E-16
41
1
10
-36.5000001
20
13.2326049818122
30
6E-16
41
1
10
-36.5000001
20
13.5839334810981
30
2E-16
41
1
10
-36.5000001
20
13.9318951649734
30
-2E-16
41
1
10
-36.5000001
20
14.2759460445155
30
-6E-16
41
1
10
-36.5000001
20
14.6155508984901
30
8E-16
41
1
10
-36.5000001
20
14.9501854710989
30
4E-16
41
1
10
-36.5000001
20
15.2793386084345
30
0
41
1
10
-36.5000001
20
15.6025143234507
30
-4E-16
41
1
10
-36.5000001
20
15.9192337796195
30
-8E-16
41
1
10
-36.5000001
20
16.2290371838588
30
7E-16
41
1
10
-36.5000001
20
16.531485579771
30
3E-16
41
1
10
-36.5000001
20
16.8261625327349
30
0
41
1
10
-36.5000001
20
17.1126756989337
30
-4E-16
41
1
10
-36.5000001
20
17.3906582709831
30
-7E-16
41
1
10
-36.5000001
20
17.6597702934391
30
8E-16
41
1
10
-36.5000001
20
17.9196998421112
30
4E-16
41
1
10
-36.5000001
20
18.170164061787
30
2E-16
41
1
10
-36.5000001
20
18.410910057674
30
-1E-16
41
1
10
-36.5000001
20
18.6417156365928
30
-4E-16
41
1
10
-36.5000001
20
18.8623898946991
30
2E-16
41
1
10
-36.5000001
20
19.0727736492707
30
0
41
1
10
-36.5000001
20
19.2727397128702
30
-2E-16
41
1
10
-36.5000001
20
19.46219300897
30
4E-16
41
1
10
-36.5000001
20
19.6410705289119
30
2E-16
41
1
10
-36.5000001
20
19.8093411308546
30
0
41
1
10
-36.5000001
20
19.967005182145
30
-2E-16
41
1
10
-36.5000001
20
20.1140940473186
30
1E-16
41
1
10
-36.5000001
20
20.2506694246961
30
-1E-16
41
1
10
-36.5000001
20
20.3768225352918
30
0
41
1
10
-36.5000001
20
20.492673168471
30
1E-16
41
1
10
-36.5000001
20
20.5983685895059
30
0
41
1
10
-36.5000001
20
20.694082314852
30
0
41
1
10
-36.5000001
20
20.7800127616238
30
0
41
1
10
-36.5000001
20
20.8563817783617
30
0
41
1
10
-36.5000001
20
20.9234330647691
30
0
41
1
10
-36.5000001
20
20.9814304886428
30
0
41
1
10
-36.5000001
20
21.0306563087221
30
-1E-16
41
1
10
-36.5000001
20
21.0714093126484
30
-1E-16
41
1
10
-36.5000001
20
21.1040028796379
30
-2E-16
41
1
10
-36.5000001
20
21.1287629778416
30
-2E-16
41
1
10
-36.5000001
20
21.1460261066865
30
-2E-16
41
1
10
-36.5000001
20
21.1561371947574
30
2E-16
41
1
10
-36.5000001
20
21.1593829760911
30
2E-16
41
1
10
-36.5000001
20
21.1574508185147
30
2E-16
41
1
10
-36.5000001
20
21.1555819550406
30
2E-16
0
SPLINE
5
D8
100
AcDbEntity
8
1
62
256
6
ByLayer
370
18
48
1
60
0
100
AcDbSpline
70
4
71
3
72
20
73
16
40
0
40
0
40
0
40
0
40
0.250000000000001
40
0.250000000000001
40
0.500000000000001
40
0.500000000000001
40
0.625000000000001
40
0.625000000000001
40
0.75
40
0.75
40
0.874999999999999
40
0.874999999999999
40
0.9375
40
0.9375
40
1
40
1
40
1
40
1
41
1
10
13.8943375672974
20
9.86941261896644
30
6E-16
41
1
10
13.8790249127082
20
9.81343636868371
30
7E-16
41
1
10
13.860611602374
20
9.75789783444387
30
8E-16
41
1
10
13.8147108154357
20
9.6481580139029
30
9E-16
41
1
10
13.7876605975645
20
9.59489249704646
30
1E-15
41
1
10
13.7379442674413
20
9.52026673309268
30
1.2E-15
41
1
10
13.7196762004308
20
9.49608650120291
30
1.2E-15
41
1
10
13.6792434886587
20
9.45084968787103
30
1.3E-15
41
1
10
13.6572629271527
20
9.42992239529636
30
1.4E-15
41
1
10
13.6081451575973
20
9.39302697821745
30
1.5E-15
41
1
10
13.5815067158171
20
9.37748626146268
30
1.5E-15
41
1
10
13.5380698687603
20
9.36093169281367
30
1.6E-15
41
1
10
13.522932242936
20
9.35655715360147
30
1.6E-15
41
1
10
13.4924813332178
20
9.3507343694005
30
1.7E-15
41
1
10
13.4770269413865
20
9.34922131452529
30
1.7E-15
41
1
10
13.4613248654051
20
9.34922131452529
30
1.7E-15
0
SPLINE
5
D9
100
AcDbEntity
8
1
62
256
6
ByLayer
370
18
48
1
60
0
100
AcDbSpline
70
4
71
3
72
20
73
16
40
0
40
0
40
0
40
0
40
0.250000000000002
40
0.250000000000002
40
0.500000000000004
40
0.500000000000004
40
0.625000000000004
40
0.625000000000004
40
0.750000000000003
40
0.750000000000003
40
0.875000000000002
40
0.875000000000002
40
0.937500000000001
40
0.937500000000001
40
1
40
1
40
1
40
1
41
1
10
10.1056624327025
20
29.9139548464692
30
-7E-16
41
1
10
10.1209750872917
20
29.932422906401
30
-7E-16
41
1
10
10.1393883976259
20
29.9505718839342
30
-8E-16
41
1
10
10.1852891845642
20
29.9861030022395
30
-9E-16
41
1
10
10.2123394024354
20
30.0031792203674
30
9E-16
41
1
10
10.2620557325586
20
30.0269079771897
30
8E-16
41
1
10
10.2803237995691
20
30.0345618184732
30
7E-16
41
1
10
10.3207565113412
20
30.0488269761613
30
7E-16
41
1
10
10.3427370728471
20
30.0553978062802
30
6E-16
41
1
10
10.3918548424026
20
30.0669489283756
30
6E-16
41
1
10
10.4184932841828
20
30.0717955072762
30
5E-16
41
1
10
10.4619301312396
20
30.076951162748
30
5E-16
41
1
10
10.4770677570639
20
30.0783119128594
30
5E-16
41
1
10
10.5075186667821
20
30.0801226069439
30
4E-16
41
1
10
10.5229730586134
20
30.080592760317
30
4E-16
41
1
10
10.5386751345947
20
30.080592760317
30
4E-16
0
SPLINE
5
DA
100
AcDbEntity
8
SK1
62
256
6
ByLayer
370
18
48
1
60
0
100
AcDbSpline
70
4
71
3
72
28
73
24
40
0
40
0
40
0
40
0
40
0.125
40
0.125
40
0.25
40
0.25
40
0.3125
40
0.3125
40
0.34375
40
0.34375
40
0.375
40
0.375
40
0.5
40
0.5
40
0.625
40
0.625
40
0.6875
40
0.6875
40
0.75
40
0.75
40
0.875
40
0.875
40
1
40
1
40
1
40
1
41
1
10
-1.30710678118652
20
4.8110199191776
30
-6E-16
41
1
10
-1.37461336828272
20
4.42906866554017
30
0
41
1
10
-1.43842277737795
20
4.04271351411225
30
5E-16
41
1
10
-1.55482827283629
20
3.25964495390292
30
1.6E-15
41
1
10
-1.60743606466258
20
2.86293836409129
30
-1.5E-15
41
1
10
-1.67407856453932
20
2.25842370710026
30
-7E-16
41
1
10
-1.69423542256669
20
2.05533651749971
30
-4E-16
41
1
10
-1.72080085568879
20
1.74806382695331
30
0
41
1
10
-1.72904382528583
20
1.64516593335523
30
1E-16
41
1
10
-1.74412615810627
20
1.43961429439398
30
4E-16
41
1
10
-1.75097824495566
20
1.33682032531715
30
5E-16
41
1
10
-1.78162925606145
20
0.822757365117184
30
1.1E-15
41
1
10
-1.79445356104944
20
0.411206954771529
30
1.6E-15
41
1
10
-1.79442646754879
20
-0.412527976924281
30
-1E-15
41
1
10
-1.78157243876066
20
-0.824712542606449
30
-5E-16
41
1
10
-1.74459060936527
20
-1.44344348346146
30
2E-16
41
1
10
-1.72930619669216
20
-1.65006397088789
30
4E-16
41
1
10
-1.69390822926047
20
-2.05873540419771
30
8E-16
41
1
10
-1.67377213524361
20
-2.26137320789724
30
1.1E-15
41
1
10
-1.60720375364306
20
-2.86470264531445
30
1.7E-15
41
1
10
-1.55465989265738
20
-3.26083487555871
30
-1.5E-15
41
1
10
-1.43835972701117
20
-4.04308032923629
30
-7E-16
41
1
10
-1.37459239752042
20
-4.42918731779776
30
-3E-16
41
1
10
-1.3071067811866
20
-4.81101991917737
30
1E-16
0
SPLINE
5
DB
100
AcDbEntity
8
1
62
256
6
ByLayer
370
18
48
1
60
0
100
AcDbSpline
70
4
71
3
72
18
73
14
40
0
40
0
40
0
40
0
40
0.125000000000001
40
0.125000000000001
40
0.250000000000002
40
0.250000000000002
40
0.375000000000003
40
0.375000000000003
40
0.500000000000004
40
0.500000000000004
40
0.750000000000002
40
0.750000000000002
40
1
40
1
40
1
40
1
41
1
10
10.5386751345948
20
9.34922131452529
30
1.6E-15
41
1
10
10.5072756412305
20
9.34922131452529
30
1.6E-15
41
1
10
10.4764586959748
20
9.35538953951169
30
1.6E-15
41
1
10
10.4183632336902
20
9.37754088736847
30
1.7E-15
41
1
10
10.3919291019262
20
9.39297468348789
30
1.7E-15
41
1
10
10.3427194975198
20
9.42993211500854
30
1.7E-15
41
1
10
10.3208062022522
20
9.45082003408547
30
1.7E-15
41
1
10
10.2806931514085
20
9.49564759237842
30
1.7E-15
41
1
10
10.2624018249832
20
9.51978166417447
30
1.7E-15
41
1
10
10.2124241495699
20
9.59469723248415
30
1.7E-15
41
1
10
10.1856493851624
20
9.6474604488252
30
1.6E-15
41
1
10
10.1399780841698
20
9.75632777527142
30
1.6E-15
41
1
10
10.1211537798005
20
9.81278314839855
30
1.5E-15
41
1
10
10.1056624327025
20
9.86941261896644
30
1.5E-15
0
SPLINE
5
DC
100
AcDbEntity
8
SK1
62
256
6
ByLayer
370
18
48
1
60
0
100
AcDbSpline
70
4
71
3
72
30
73
26
40
0
40
0
40
0
40
0
40
0.25
40
0.25
40
0.499999999999999
40
0.499999999999999
40
0.624999999999997
40
0.624999999999997
40
0.687499999999995
40
0.687499999999995
40
0.718749999999995
40
0.718749999999995
40
0.749999999999996
40
0.749999999999996
40
0.781249999999996
40
0.781249999999996
40
0.812499999999997
40
0.812499999999997
40
0.843749999999997
40
0.843749999999997
40
0.874999999999998
40
0.874999999999998
40
0.937499999999999
40
0.937499999999999
40
1
40
1
40
1
40
1
41
1
10
-9.99999372E-08
20
-6.55638998421938
30
6E-16
41
1
10
0.0003094107748041
20
-6.49108792995551
30
5E-16
41
1
10
-0.00044785738001
20
-6.42554816644568
30
4E-16
41
1
10
-0.0054792995627224
20
-6.29380249991416
30
3E-16
41
1
10
-0.0095396389045561
20
-6.22756595932293
30
2E-16
41
1
10
-0.0218185914821447
20
-6.12744948764643
30
1E-16
41
1
10
-0.0269089328686505
20
-6.09400635423634
30
1E-16
41
1
10
-0.0381288776639792
20
-6.04427605717771
30
0
41
1
10
-0.0424850566759005
20
-6.02771846012436
30
0
41
1
10
-0.0507542250382187
20
-6.0035300465965
30
0
41
1
10
-0.053803232316028
20
-5.99557276832951
30
0
41
1
10
-0.0608764449505657
20
-5.98001034590305
30
0
41
1
10
-0.0649061006195097
20
-5.97237045409071
30
0
41
1
10
-0.0745352634830283
20
-5.95834328583237
30
0
41
1
10
-0.0801301069716374
20
-5.95194674487615
30
0
41
1
10
-0.0935962462806117
20
-5.94284001759078
30
0
41
1
10
-0.101234697519061
20
-5.94065578094097
30
0
41
1
10
-0.116024102420766
20
-5.94174135617607
30
0
41
1
10
-0.122835580858578
20
-5.9446692585735
30
0
41
1
10
-0.13514144456704
20
-5.95246477672509
30
0
41
1
10
-0.14068207434832
20
-5.95734389319901
30
0
41
1
10
-0.156252064808257
20
-5.97346770216313
30
1E-16
41
1
10
-0.164906851058276
20
-5.9857479660181
30
1E-16
41
1
10
-0.180883491005659
20
-6.01148751473093
30
1E-16
41
1
10
-0.188120855715766
20
-6.02502139888352
30
2E-16
41
1
10
-0.194913899691983
20
-6.03894368023595
30
2E-16
0
SPLINE
5
DD
100
AcDbEntity
8
SK1
62
256
6
ByLayer
370
18
48
1
60
0
100
AcDbSpline
70
4
71
3
72
40
73
36
40
0
40
0
40
0
40
0
40
0.0624999999999993
40
0.0624999999999993
40
0.124999999999999
40
0.124999999999999
40
0.156249999999998
40
0.156249999999998
40
0.187499999999996
40
0.187499999999996
40
0.218749999999995
40
0.218749999999995
40
0.234374999999995
40
0.234374999999995
40
0.249999999999994
40
0.249999999999994
40
0.265624999999994
40
0.265624999999994
40
0.281249999999993
40
0.281249999999993
40
0.312499999999993
40
0.312499999999993
40
0.343749999999993
40
0.343749999999993
40
0.374999999999993
40
0.374999999999993
40
0.437499999999993
40
0.437499999999993
40
0.499999999999993
40
0.499999999999993
40
0.624999999999995
40
0.624999999999995
40
0.749999999999997
40
0.749999999999997
40
1
40
1
40
1
40
1
41
1
10
-0.194913899691983
20
-6.03894368023595
30
2E-16
41
1
10
-0.21630870027667
20
-6.08279212789245
30
3E-16
41
1
10
-0.239442705981418
20
-6.12573144150804
30
4E-16
41
1
10
-0.291327639892273
20
-6.20880507327621
30
5E-16
41
1
10
-0.320101542135035
20
-6.24909829159185
30
6E-16
41
1
10
-0.369833557877371
20
-6.30388492719393
30
7E-16
41
1
10
-0.387551839473503
20
-6.3212475266013
30
8E-16
41
1
10
-0.426577354598521
20
-6.35317166963867
30
8E-16
41
1
10
-0.448198356327367
20
-6.36790620860464
30
9E-16
41
1
10
-0.495063521099866
20
-6.39098479397623
30
1E-15
41
1
10
-0.520845823981517
20
-6.39942303232479
30
1E-15
41
1
10
-0.560540747922857
20
-6.40431927433298
30
1.1E-15
41
1
10
-0.574207681294695
20
-6.40470019046279
30
1.1E-15
41
1
10
-0.601212911344248
20
-6.40278172202611
30
1.1E-15
41
1
10
-0.614440647515409
20
-6.40053140012603
30
1.1E-15
41
1
10
-0.64040672445654
20
-6.39373116464526
30
1.1E-15
41
1
10
-0.653172563987908
20
-6.3891445908049
30
1.1E-15
41
1
10
-0.677357039573025
20
-6.37839184184875
30
1.2E-15
41
1
10
-0.688916782736953
20
-6.3721966735713
30
1.2E-15
41
1
10
-0.722335129625634
20
-6.35166867849196
30
1.2E-15
41
1
10
-0.742834148223608
20
-6.33544405436183
30
1.2E-15
41
1
10
-0.780312974580482
20
-6.30093163753412
30
1.2E-15
41
1
10
-0.797540688580085
20
-6.28244945746957
30
1.2E-15
41
1
10
-0.829973453145982
20
-6.24382818653598
30
1.2E-15
41
1
10
-0.845138623745498
20
-6.22369652831713
30
1.2E-15
41
1
10
-0.887745413246705
20
-6.16246576136638
30
1.2E-15
41
1
10
-0.912693515218734
20
-6.12016543403482
30
1.1E-15
41
1
10
-0.958636096510787
20
-6.03379191929426
30
1.1E-15
41
1
10
-0.979568807922419
20
-5.98969375501193
30
1.1E-15
41
1
10
-1.03822203778526
20
-5.85544877302044
30
1E-15
41
1
10
-1.07190384134947
20
-5.76323161407527
30
9E-16
41
1
10
-1.13236268675587
20
-5.57738905494094
30
8E-16
41
1
10
-1.1591673302319
20
-5.48344673102162
30
7E-16
41
1
10
-1.23267055488895
20
-5.19917171450126
30
4E-16
41
1
10
-1.27257253989737
20
-5.00641413656621
30
3E-16
41
1
10
-1.30710678118763
20
-4.81101991917757
30
1E-16
0
SPLINE
5
DE
100
AcDbEntity
8
SK1
62
256
6
ByLayer
370
18
48
1
60
0
100
AcDbSpline
70
4
71
3
72
40
73
36
40
0
40
0
40
0
40
0
40
0.25
40
0.25
40
0.375
40
0.375
40
0.499999999999999
40
0.499999999999999
40
0.562499999999999
40
0.562499999999999
40
0.625
40
0.625
40
0.65625
40
0.65625
40
0.687500000000001
40
0.687500000000001
40
0.718750000000001
40
0.718750000000001
40
0.750000000000002
40
0.750000000000002
40
0.765625000000002
40
0.765625000000002
40
0.781250000000002
40
0.781250000000002
40
0.812500000000002
40
0.812500000000002
40
0.843750000000002
40
0.843750000000002
40
0.875000000000002
40
0.875000000000002
40
0.906250000000002
40
0.906250000000002
40
0.937500000000002
40
0.937500000000002
40
1
40
1
40
1
40
1
41
1
10
-1.30710678118652
20
4.81101991917762
30
-6E-16
41
1
10
-1.27267859693961
20
5.00581406741117
30
-8E-16
41
1
10
-1.23294663929076
20
5.19773966995302
30
-1.1E-15
41
1
10
-1.16003580444666
20
5.48026628902826
30
-1.5E-15
41
1
10
-1.13348546476999
20
5.57354141941661
30
-1.6E-15
41
1
10
-1.07378508724625
20
5.75782583206117
30
1.6E-15
41
1
10
-1.04074929389202
20
5.8488622083166
30
1.5E-15
41
1
10
-0.982692460902626
20
5.98290169673101
30
1.2E-15
41
1
10
-0.961903272799162
20
6.02715770615657
30
1.2E-15
41
1
10
-0.915949523172372
20
6.11447071619742
30
1E-15
41
1
10
-0.890674024149945
20
6.15777307836183
30
9E-16
41
1
10
-0.848059763859339
20
6.21970498404642
30
8E-16
41
1
10
-0.833046620204414
20
6.23987489093219
30
8E-16
41
1
10
-0.8007308337707
20
6.27889245736944
30
7E-16
41
1
10
-0.783425423841436
20
6.29773663175911
30
6E-16
41
1
10
-0.746116816224003
20
6.33269819949709
30
6E-16
41
1
10
-0.726047387002239
20
6.34895159616812
30
5E-16
41
1
10
-0.681429405423529
20
6.37716613670202
30
4E-16
41
1
10
-0.657383183035904
20
6.38875390723692
30
4E-16
41
1
10
-0.618359101363808
20
6.39971471165131
30
3E-16
41
1
10
-0.605138748143986
20
6.40220810310336
30
3E-16
41
1
10
-0.578229070218413
20
6.40463339070354
30
3E-16
41
1
10
-0.564438602334661
20
6.40452391195402
30
3E-16
41
1
10
-0.524312160762804
20
6.4003009332402
30
2E-16
41
1
10
-0.498274615453653
20
6.39218550752929
30
2E-16
41
1
10
-0.451116330762744
20
6.36967727777613
30
2E-16
41
1
10
-0.429308609870503
20
6.35514524843904
30
2E-16
41
1
10
-0.389634040082655
20
6.32318168558558
30
2E-16
41
1
10
-0.371596555068265
20
6.30568880631475
30
2E-16
41
1
10
-0.337824957125946
20
6.26874994368399
30
2E-16
41
1
10
-0.322070108373367
20
6.24922425298317
30
2E-16
41
1
10
-0.292612852176973
20
6.20928245218326
30
2E-16
41
1
10
-0.278859303464856
20
6.18880748404882
30
2E-16
41
1
10
-0.239730688332628
20
6.12625960870216
30
2E-16
41
1
10
-0.216450213401515
20
6.08308215774466
30
2E-16
41
1
10
-0.194913899691983
20
6.03894368023614
30
3E-16
0
SPLINE
5
DF
100
AcDbEntity
8
SK1
62
256
6
ByLayer
370
18
48
1
60
0
100
AcDbSpline
70
4
71
3
72
30
73
26
40
0
40
0
40
0
40
0
40
0.0624999999999979
40
0.0624999999999979
40
0.124999999999996
40
0.124999999999996
40
0.156249999999995
40
0.156249999999995
40
0.187499999999994
40
0.187499999999994
40
0.218749999999993
40
0.218749999999993
40
0.249999999999992
40
0.249999999999992
40
0.281249999999991
40
0.281249999999991
40
0.31249999999999
40
0.31249999999999
40
0.374999999999991
40
0.374999999999991
40
0.499999999999993
40
0.499999999999993
40
0.749999999999996
40
0.749999999999996
40
1
40
1
40
1
40
1
41
1
10
-0.194913899691983
20
6.03894368023612
30
3E-16
41
1
10
-0.188058272047272
20
6.02489313422885
30
3E-16
41
1
10
-0.180749921486807
20
6.01123599475477
30
3E-16
41
1
10
-0.164591480022438
20
5.98527723304349
30
3E-16
41
1
10
-0.155806521396528
20
5.97286785458454
30
3E-16
41
1
10
-0.140008532817177
20
5.95672168242658
30
3E-16
41
1
10
-0.134336015778871
20
5.95181858650713
30
3E-16
41
1
10
-0.121791130582921
20
5.94416520597377
30
3E-16
41
1
10
-0.114887633465798
20
5.94141411824504
30
3E-16
41
1
10
-0.100029321158161
20
5.94085274530269
30
3E-16
41
1
10
-0.0922711039227693
20
5.94343779030578
30
3E-16
41
1
10
-0.0789772184702997
20
5.95308591734602
30
2E-16
41
1
10
-0.0734178921939588
20
5.95974465431058
30
2E-16
41
1
10
-0.0640003201890806
20
5.97397056662851
30
2E-16
41
1
10
-0.0600287373599144
20
5.9817040269904
30
2E-16
41
1
10
-0.0530512981166851
20
5.9974428365731
30
1E-16
41
1
10
-0.0500523084384099
20
6.00544490871636
30
1E-16
41
1
10
-0.0419264467947755
20
6.02968593114755
30
1E-16
41
1
10
-0.0376565930669699
20
6.04615584851928
30
1E-16
41
1
10
-0.0265594429975806
20
6.09602198009171
30
0
41
1
10
-0.0215555051174761
20
6.12931220208168
30
0
41
1
10
-0.0094809446544559
20
6.22863021187618
30
-2E-16
41
1
10
-0.0054442031289454
20
6.2944928077892
30
-3E-16
41
1
10
-0.0004464211826587
20
6.42581612145122
30
-4E-16
41
1
10
0.0003084452837356
20
6.49129163384484
30
-5E-16
41
1
10
-9.99999372E-08
20
6.55638998421946
30
-6E-16
0
SPLINE
5
E0
100
AcDbEntity
8
1
62
256
6
ByLayer
370
18
48
1
60
0
100
AcDbSpline
70
4
71
3
72
18
73
14
40
0
40
0
40
0
40
0
40
0.125000000000002
40
0.125000000000002
40
0.250000000000005
40
0.250000000000005
40
0.375000000000007
40
0.375000000000007
40
0.500000000000009
40
0.500000000000009
40
0.750000000000005
40
0.750000000000005
40
1
40
1
40
1
40
1
41
1
10
13.4613248654051
20
30.080592760317
30
5E-16
41
1
10
13.4927243587694
20
30.080592760317
30
5E-16
41
1
10
13.5235413040251
20
30.0786771838882
30
4E-16
41
1
10
13.5816367663097
20
30.0717784887142
30
4E-16
41
1
10
13.6080708980737
20
30.0669652862983
30
4E-16
41
1
10
13.6572805024801
20
30.0553947776176
30
3E-16
41
1
10
13.6791937977476
20
30.0488361341244
30
3E-16
41
1
10
13.7193068485914
20
30.0347004169093
30
3E-16
41
1
10
13.7375981750167
20
30.0270618559792
30
2E-16
41
1
10
13.78757585043
20
30.0032420175277
30
2E-16
41
1
10
13.8143506148375
20
29.9863265580875
30
2E-16
41
1
10
13.8600219158301
20
29.9510824829651
30
2E-16
41
1
10
13.8788462201994
20
29.9326384212187
30
2E-16
41
1
10
13.8943375672974
20
29.9139548464692
30
2E-16
0
SPLINE
5
E1
100
AcDbEntity
8
1
62
256
6
ByLayer
370
18
48
1
60
0
100
AcDbSpline
70
4
71
3
72
38
73
34
40
0
40
0
40
0
40
0
40
0.124996112903744
40
0.124996112903744
40
0.15624625172861
40
0.15624625172861
40
0.187496390553477
40
0.187496390553477
40
0.249996668203211
40
0.249996668203211
40
0.374997223502678
40
0.374997223502678
40
0.406247362327544
40
0.406247362327544
40
0.437497501152411
40
0.437497501152411
40
0.499997778802144
40
0.499997778802144
40
0.624998334101609
40
0.624998334101609
40
0.656248472926474
40
0.656248472926474
40
0.68749861175134
40
0.68749861175134
40
0.749998889401072
40
0.749998889401072
40
0.874999444700537
40
0.874999444700537
40
0.937499722350269
40
0.937499722350269
40
0.968749861175135
40
0.968749861175135
40
1
40
1
40
1
40
1
41
1
10
30.9750036700906
20
-31.4999987154681
30
0
41
1
10
30.9745521526002
20
-31.5001567411503
30
0
41
1
10
31.0155112627326
20
-31.4857451915979
30
-1E-16
41
1
10
31.1205865530778
20
-31.4493342270491
30
0
41
1
10
31.1442168156443
20
-31.4411641309057
30
0
41
1
10
31.1964730595568
20
-31.4231597347195
30
1E-16
41
1
10
31.2251199797509
20
-31.4133181781724
30
1E-16
41
1
10
31.3185014210474
20
-31.3813697110481
30
2E-16
41
1
10
31.3906656247454
20
-31.3568397653213
30
-2E-16
41
1
10
31.6363776492577
20
-31.274274411361
30
0
41
1
10
31.8389710246667
20
-31.2072622505546
30
1E-16
41
1
10
32.1416126703169
20
-31.1108322616599
30
4E-16
41
1
10
32.2047375162255
20
-31.090878345467
30
4E-16
41
1
10
32.3349962645558
20
-31.0500860928394
30
-4E-16
41
1
10
32.4022141576276
20
-31.0292204602742
30
-3E-16
41
1
10
32.6100354376963
20
-30.965358494071
30
-1E-16
41
1
10
32.7567967496095
20
-30.9210977217973
30
0
41
1
10
33.2213054052294
20
-30.7843672301365
30
4E-16
41
1
10
33.5631261679213
20
-30.6879385565241
30
-2E-16
41
1
10
34.0314923578334
20
-30.5644944977858
30
2E-16
41
1
10
34.1272321608413
20
-30.5396610448676
30
3E-16
41
1
10
34.3229176075391
20
-30.489801858109
30
4E-16
41
1
10
34.4225998134669
20
-30.4648449269311
30
-4E-16
41
1
10
34.725703020496
20
-30.3903998474248
30
-1E-16
41
1
10
34.9337398565186
20
-30.3411928005838
30
1E-16
41
1
10
35.5755487525549
20
-30.1960136676711
30
7E-16
41
1
10
36.0269109722263
20
-30.1024673985868
30
-7E-16
41
1
10
36.7403380711869
20
-29.9717994553668
30
0
41
1
10
36.9842375812448
20
-29.9298548158124
30
2E-16
41
1
10
37.3596285109165
20
-29.8700044019122
30
6E-16
41
1
10
37.4862646516151
20
-29.8505821210518
30
7E-16
41
1
10
37.7414569648399
20
-29.8130614823891
30
-8E-16
41
1
10
37.8701662821186
20
-29.7949383103001
30
-7E-16
41
1
10
37.9999999999997
20
-29.7774977961548
30
-5E-16
0
SPLINE
5
E2
100
AcDbEntity
8
SK1
62
256
6
ByLayer
370
18
48
1
60
0
100
AcDbSpline
70
4
71
3
72
188
73
184
40
0
40
0
40
0
40
0
40
0.0020764716797364
40
0.0070206467515994
40
0.0120983627620587
40
0.0173094366978849
40
0.0226533200210453
40
0.0281291001722094
40
0.0337355030720104
40
0.039470896613208
40
0.0453332951341812
40
0.0513203648614879
40
0.0574294303065764
40
0.063657481599114
40
0.0700011827368306
40
0.0764568807292714
40
0.0830206156103865
40
0.0896881312925264
40
0.0964548872320789
40
0.103316070874786
40
0.110266610846619
40
0.117301190854063
40
0.124414264255708
40
0.131600069265205
40
0.138852644743926
40
0.146165846540028
40
0.153533364329145
40
0.160948738910552
40
0.168405379911381
40
0.175896583850379
40
0.183415552511682
40
0.19095541157825
40
0.198509229473895
40
0.206070036362251
40
0.213630843250608
40
0.221184661146254
40
0.228724520212822
40
0.236243488874124
40
0.243734692813122
40
0.251191333813952
40
0.258606708395359
40
0.265974226184476
40
0.273287427980578
40
0.280540003459299
40
0.287725808468796
40
0.294838881870441
40
0.301873461877885
40
0.308824001849717
40
0.315685185492425
40
0.322451941431977
40
0.329119457114117
40
0.335683191995232
40
0.342138889987673
40
0.34848259112539
40
0.354710642417927
40
0.360819707863016
40
0.366806777590322
40
0.372669176111295
40
0.378404569652493
40
0.384010972552294
40
0.389486752703458
40
0.394830636026618
40
0.400041709962444
40
0.405119425972904
40
0.410063601044767
40
0.414874418191232
40
0.419552425950302
40
0.424098536881277
40
0.428514025063493
40
0.432800522604162
40
0.436960015164875
40
0.440994836519045
40
0.444907662155195
40
0.448701501943634
40
0.452379691886604
40
0.455945884974537
40
0.45940404117346
40
0.462758416571004
40
0.466013551710764
40
0.469174259146983
40
0.472245610253681
40
0.475232921324367
40
0.47814173900045
40
0.480977825068281
40
0.483747140666498
40
0.486455829946961
40
0.489110203234055
40
0.491716719728533
40
0.494281969803296
40
0.496812656939636
40
0.499315579353462
40
0.501797611361862
40
0.504265684541074
40
0.506726768727519
40
0.509187852913965
40
0.511655926093177
40
0.514137958101576
40
0.516640880515403
40
0.519171567651743
40
0.521736817726506
40
0.524343334220984
40
0.526997707508078
40
0.529706396788541
40
0.532475712386758
40
0.535311798454589
40
0.538220616130672
40
0.541207927201358
40
0.544279278308056
40
0.547439985744275
40
0.550695120884035
40
0.554049496281579
40
0.557507652480502
40
0.561073845568436
40
0.564752035511406
40
0.568545875299844
40
0.572458700935995
40
0.576493522290165
40
0.580653014850878
40
0.584939512391546
40
0.589355000573763
40
0.593901111504738
40
0.598579119263808
40
0.603389936410273
40
0.608334111482136
40
0.613411827492595
40
0.618622901428422
40
0.623966784751582
40
0.629442564902746
40
0.635048967802547
40
0.640784361343745
40
0.646646759864718
40
0.652633829592024
40
0.658742895037113
40
0.66497094632965
40
0.671314647467367
40
0.677770345459808
40
0.684334080340923
40
0.691001596023063
40
0.697768351962616
40
0.704629535605323
40
0.711580075577156
40
0.7186146555846
40
0.725727728986245
40
0.732913533995741
40
0.740166109474463
40
0.747479311270564
40
0.754846829059681
40
0.762262203641088
40
0.769718844641918
40
0.777210048580916
40
0.784729017242219
40
0.792268876308787
40
0.799822694204432
40
0.807383501092789
40
0.814944307981145
40
0.822498125876791
40
0.830037984943359
40
0.837556953604661
40
0.845048157543659
40
0.852504798544489
40
0.859920173125896
40
0.867287690915013
40
0.874600892711115
40
0.881853468189836
40
0.889039273199333
40
0.896152346600977
40
0.903186926608421
40
0.910137466580255
40
0.916998650222962
40
0.923765406162514
40
0.930432921844654
40
0.936996656725769
40
0.94345235471821
40
0.949796055855927
40
0.956024107148464
40
0.962133172593553
40
0.968120242320859
40
0.973982640841832
40
0.97971803438303
40
0.985324437282831
40
0.990800217433995
40
0.996144100757155
40
1
40
1
40
1
40
1
41
1
10
-38
20
-20.2862335205945
30
-1E-16
41
1
10
-38.0000000000001
20
-20.2874482756345
30
-1E-16
41
1
10
-38.0000000000001
20
-20.2909380429711
30
-1E-16
41
1
10
-38.0000000000001
20
-20.2933891586695
30
-1E-16
41
1
10
-38.0000000000001
20
-20.2902125039614
30
-1E-16
41
1
10
-38.0000000000001
20
-20.2804986994833
30
-1E-16
41
1
10
-38.0000000000001
20
-20.2638963970496
30
-1E-16
41
1
10
-38.0000000000001
20
-20.2400604625398
30
-2E-16
41
1
10
-38.0000000000001
20
-20.20865411163
30
-2E-16
41
1
10
-38.0000000000001
20
-20.1693510118792
30
0
41
1
10
-38.0000000000001
20
-20.1218373403964
30
-1E-16
41
1
10
-38.0000000000001
20
-20.0658137865221
30
1E-16
41
1
10
-38.0000000000001
20
-20.0009974892339
30
0
41
1
10
-38.0000000000001
20
-19.9271238992987
30
0
41
1
10
-38.0000000000001
20
-19.8439485565688
30
0
41
1
10
-38.0000000000001
20
-19.7512487732286
30
0
41
1
10
-38.0000000000001
20
-19.6488252142668
30
0
41
1
10
-38.0000000000001
20
-19.5365033669477
30
-1E-16
41
1
10
-38.0000000000001
20
-19.414134891605
30
2E-16
41
1
10
-38.0000000000001
20
-19.2815988466623
30
0
41
1
10
-38
20
-19.1388027814042
30
-1E-16
41
1
10
-38
20
-18.985683690671
30
1E-16
41
1
10
-38
20
-18.8222088263321
30
0
41
1
10
-38
20
-18.6483763610955
30
-3E-16
41
1
10
-38
20
-18.4642159009406
30
4E-16
41
1
10
-38
20
-18.269788843206
30
2E-16
41
1
10
-38
20
-18.0651885781255
30
0
41
1
10
-38
20
-17.8505405323773
30
-3E-16
41
1
10
-38
20
-17.626002053992
30
3E-16
41
1
10
-38
20
-17.3917621387483
30
1E-16
41
1
10
-38
20
-17.148040998966
30
7E-16
41
1
10
-38
20
-16.89508947639
30
4E-16
41
1
10
-38
20
-16.6331883016258
30
1E-16
41
1
10
-38
20
-16.3626472033486
30
-3E-16
41
1
10
-38
20
-16.0838038712548
30
-6E-16
41
1
10
-38
20
-15.7970227774453
30
8E-16
41
1
10
-38
20
-15.5026938616391
30
5E-16
41
1
10
-38
20
-15.2012310862879
30
2E-16
41
1
10
-38
20
-14.8930708683133
30
-2E-16
41
1
10
-38
20
-14.5786703948036
30
-6E-16
41
1
10
-38
20
-14.2585058305844
30
8E-16
41
1
10
-38
20
-13.9330704261242
30
4E-16
41
1
10
-38
20
-13.6028725347314
30
1E-16
41
1
10
-38
20
-13.2684335484612
30
-3E-16
41
1
10
-38
20
-12.9302857625594
30
-7E-16
41
1
10
-38
20
-12.5889701786365
30
6E-16
41
1
10
-38
20
-12.2450342570787
30
2E-16
41
1
10
-38
20
-11.8990296294674
30
-2E-16
41
1
10
-38
20
-11.5515097819876
30
-6E-16
41
1
10
-38
20
-11.2030277209671
30
8E-16
41
1
10
-38
20
-10.8541336317886
30
4E-16
41
1
10
-38
20
-10.5053725424686
30
0
41
1
10
-38
20
-10.157282003188
30
-4E-16
41
1
10
-38
20
-9.81038979300212
30
-8E-16
41
1
10
-38
20
-9.46521166483876
30
-1.2E-15
41
1
10
-38
20
-9.12224913972443
30
-1.6E-15
41
1
10
-38
20
-8.78198736095644
30
1.5E-15
41
1
10
-38
20
-8.44489301866105
30
1.1E-15
41
1
10
-38
20
-8.11141235485306
30
7E-16
41
1
10
-38
20
-7.78196925873507
30
3E-16
41
1
10
-38
20
-7.45696346155026
30
0
41
1
10
-38
20
-7.13676883983476
30
-4E-16
41
1
10
-38
20
-6.82173183540007
30
-8E-16
41
1
10
-38
20
-6.51216999982404
30
-1.1E-15
41
1
10
-38
20
-6.20837067063445
30
-1.5E-15
41
1
10
-38
20
-5.91058978574119
30
1.7E-15
41
1
10
-38
20
-5.61905084201297
30
1.4E-15
41
1
10
-38
20
-5.33394400320171
30
1E-15
41
1
10
-38
20
-5.05542536170211
30
7E-16
41
1
10
-38
20
-4.78361635789318
30
4E-16
41
1
10
-38
20
-4.51860336004981
30
1E-16
41
1
10
-38
20
-4.26043740703577
30
-2E-16
41
1
10
-38
20
-4.00913411520651
30
-5E-16
41
1
10
-38
20
-3.76467375015409
30
-8E-16
41
1
10
-38
20
-3.52700146312822
30
-1.1E-15
41
1
10
-38
20
-3.29602769117841
30
-1.4E-15
41
1
10
-38
20
-3.07162871926909
30
-1.6E-15
41
1
10
-38
20
-2.8536474018436
30
1.7E-15
41
1
10
-38
20
-2.64189404055853
30
1.4E-15
41
1
10
-38
20
-2.43614741416829
30
1.2E-15
41
1
10
-38
20
-2.23615595583527
30
9E-16
41
1
10
-38
20
-2.04163907246308
30
7E-16
41
1
10
-38
20
-1.8522886000093
30
5E-16
41
1
10
-38
20
-1.66777038813205
30
3E-16
41
1
10
-38
20
-1.48772600695705
30
1E-16
41
1
10
-38
20
-1.31177456821899
30
-1E-16
41
1
10
-38
20
-1.13951465252927
30
-3E-16
41
1
10
-38
20
-0.970526334035242
30
-5E-16
41
1
10
-38
20
-0.804373293273159
30
-7E-16
41
1
10
-38
20
-0.640605008555497
30
-9E-16
41
1
10
-38
20
-0.478759015778792
30
-1.1E-15
41
1
10
-38
20
-0.318363226102008
30
-1.3E-15
41
1
10
-38
20
-0.158938290521832
30
-1.5E-15
41
1
10
-38
20
1.137E-13
30
-1.7E-15
41
1
10
-38
20
0.158938290522002
30
1.7E-15
41
1
10
-38
20
0.318363226102207
30
1.5E-15
41
1
10
-38
20
0.478759015779048
30
1.3E-15
41
1
10
-38
20
0.640605008555724
30
1.1E-15
41
1
10
-38
20
0.804373293273386
30
9E-16
41
1
10
-38
20
0.970526334035441
30
7E-16
41
1
10
-38
20
1.13951465252941
30
5E-16
41
1
10
-38
20
1.31177456821922
30
3E-16
41
1
10
-38
20
1.4877260069573
30
1E-16
41
1
10
-38
20
1.66777038813231
30
-1E-16
41
1
10
-38
20
1.85228860000953
30
-3E-16
41
1
10
-38
20
2.04163907246328
30
-5E-16
41
1
10
-38
20
2.23615595583547
30
-7E-16
41
1
10
-38
20
2.43614741416852
30
-1E-15
41
1
10
-38
20
2.64189404055878
30
-1.2E-15
41
1
10
-38
20
2.85364740184383
30
-1.5E-15
41
1
10
-38
20
3.07162871926931
30
-1.7E-15
41
1
10
-38
20
3.29602769117864
30
1.6E-15
41
1
10
-38
20
3.52700146312839
30
1.3E-15
41
1
10
-38
20
3.76467375015432
30
1E-15
41
1
10
-38
20
4.00913411520682
30
7E-16
41
1
10
-38
20
4.26043740703599
30
4E-16
41
1
10
-38
20
4.51860336005001
30
1E-16
41
1
10
-38
20
4.78361635789347
30
-2E-16
41
1
10
-38
20
5.05542536170236
30
-5E-16
41
1
10
-38
20
5.33394400320194
30
-8E-16
41
1
10
-38
20
5.61905084201322
30
-1.1E-15
41
1
10
-38
20
5.91058978574142
30
-1.5E-15
41
1
10
-38
20
6.20837067063471
30
1.7E-15
41
1
10
-38
20
6.51216999982429
30
1.4E-15
41
1
10
-38
20
6.8217318354003
30
1E-15
41
1
10
-38
20
7.13676883983499
30
6E-16
41
1
10
-38
20
7.45696346155052
30
3E-16
41
1
10
-38
20
7.78196925873539
30
-1E-16
41
1
10
-38
20
8.11141235485334
30
-5E-16
41
1
10
-38
20
8.44489301866128
30
-9E-16
41
1
10
-38
20
8.78198736095672
30
-1.3E-15
41
1
10
-38
20
9.12224913972472
30
-1.7E-15
41
1
10
-38
20
9.46521166483902
30
1.5E-15
41
1
10
-38
20
9.81038979300237
30
1E-15
41
1
10
-38
20
10.1572820031882
30
6E-16
41
1
10
-38
20
10.5053725424689
30
2E-16
41
1
10
-38
20
10.8541336317889
30
-2E-16
41
1
10
-38
20
11.2030277209674
30
-6E-16
41
1
10
-38
20
11.5515097819879
30
8E-16
41
1
10
-38
20
11.8990296294677
30
4E-16
41
1
10
-38
20
12.245034257079
30
0
41
1
10
-38
20
12.5889701786367
30
-4E-16
41
1
10
-38
20
12.9302857625597
30
-8E-16
41
1
10
-38
20
13.2684335484615
30
6E-16
41
1
10
-38
20
13.6028725347317
30
2E-16
41
1
10
-38
20
13.9330704261244
30
-2E-16
41
1
10
-38
20
14.2585058305846
30
-6E-16
41
1
10
-38
20
14.5786703948039
30
8E-16
41
1
10
-38
20
14.8930708683136
30
4E-16
41
1
10
-38
20
15.2012310862881
30
1E-16
41
1
10
-38
20
15.5026938616393
30
-3E-16
41
1
10
-38
20
15.7970227774455
30
-6E-16
41
1
10
-38
20
16.083803871255
30
8E-16
41
1
10
-38
20
16.3626472033488
30
5E-16
41
1
10
-38
20
16.633188301626
30
2E-16
41
1
10
-38
20
16.8950894763902
30
-1E-16
41
1
10
-38
20
17.1480409989662
30
-4E-16
41
1
10
-38
20
17.3917621387485
30
2E-16
41
1
10
-38
20
17.6260020539923
30
-1E-16
41
1
10
-38
20
17.8505405323775
30
-4E-16
41
1
10
-38
20
18.0651885781257
30
3E-16
41
1
10
-38
20
18.2697888432062
30
0
41
1
10
-38
20
18.4642159009408
30
-2E-16
41
1
10
-38
20
18.6483763610956
30
-4E-16
41
1
10
-38
20
18.8222088263323
30
3E-16
41
1
10
-38
20
18.9856836906712
30
1E-16
41
1
10
-38
20
19.1388027814044
30
-1E-16
41
1
10
-38.0000000000001
20
19.2815988466625
30
2E-16
41
1
10
-38.0000000000001
20
19.4141348916051
30
0
41
1
10
-38.0000000000001
20
19.5365033669479
30
1E-16
41
1
10
-38.0000000000001
20
19.648825214267
30
0
41
1
10
-38.0000000000001
20
19.7512487732288
30
0
41
1
10
-38.0000000000001
20
19.8439485565689
30
0
41
1
10
-38.0000000000001
20
19.9271238992988
30
0
41
1
10
-38.0000000000001
20
20.000997489234
30
0
41
1
10
-38.0000000000001
20
20.0658137865223
30
-1E-16
41
1
10
-38.0000000000001
20
20.1218373403965
30
1E-16
41
1
10
-38.0000000000001
20
20.1693510118793
30
0
41
1
10
-38.0000000000001
20
20.2086541116301
30
0
41
1
10
-38.0000000000001
20
20.24006046254
30
-1E-16
41
1
10
-38.0000000000001
20
20.2638963970497
30
-1E-16
41
1
10
-38.0000000000001
20
20.2790952069598
30
-1E-16
41
1
10
-38
20
20.2853010873526
30
-1E-16
41
1
10
-38
20
20.287308960148
30
-1E-16
0
SPLINE
5
E3
100
AcDbEntity
8
SK1
62
256
6
ByLayer
370
18
48
1
60
0
100
AcDbSpline
70
4
71
3
72
186
73
182
40
0
40
0
40
0
40
0
40
0.001996334988687
40
0.0074120981293447
40
0.0129615322235536
40
0.0186433460544855
40
0.0244558855616569
40
0.0303971383745939
40
0.0364647393285981
40
0.0426559769475007
40
0.0489678008756292
40
0.05539683023862
40
0.0619393629101609
40
0.0685913856592597
40
0.075348585150235
40
0.0822063597652658
40
0.0891598322171085
40
0.0962038629174012
40
0.103333064063917
40
0.110541814408159
40
0.117824274662806
40
0.125174403506799
40
0.132585974144179
40
0.140052591371301
40
0.147567709105647
40
0.155124648328176
40
0.162716615390058
40
0.170336720633591
40
0.177977997276271
40
0.185633420506261
40
0.193295926736913
40
0.200958432967565
40
0.208613856197555
40
0.216255132840235
40
0.223875238083767
40
0.23146720514565
40
0.23902414436818
40
0.246539262102525
40
0.254005879329647
40
0.261417449967027
40
0.26876757881102
40
0.276050039065668
40
0.283258789409909
40
0.290387990556425
40
0.297432021256718
40
0.304385493708561
40
0.311243268323591
40
0.318000467814566
40
0.324652490563665
40
0.331195023235206
40
0.337624052598197
40
0.343935876526326
40
0.350127114145228
40
0.356194715099232
40
0.362135967912169
40
0.36794850741934
40
0.373630321250272
40
0.379179755344481
40
0.384595518485139
40
0.389876685838209
40
0.395022701487351
40
0.400033379957651
40
0.404908906723992
40
0.409649837702683
40
0.414257097727731
40
0.418731978015932
40
0.42307613262774
40
0.4272915739336
40
0.431380667098181
40
0.435346123597623
40
0.439190993787572
40
0.442918658542366
40
0.446532819988293
40
0.450037491356321
40
0.453436985982115
40
0.456735905483475
40
0.459939127147633
40
0.46305179056294
40
0.466079283531617
40
0.469027227302161
40
0.471901461161895
40
0.474708026431887
40
0.477453149908114
40
0.48014322679424
40
0.482784803172814
40
0.485384558062906
40
0.487949285113388
40
0.490485873982007
40
0.493001291451315
40
0.495502562333202
40
0.497996750214371
40
0.50049093809554
40
0.502992208977427
40
0.505507626446735
40
0.508044215315354
40
0.510608942365836
40
0.513208697255928
40
0.515850273634502
40
0.518540350520628
40
0.521285473996855
40
0.524092039266848
40
0.526966273126581
40
0.529914216897125
40
0.532941709865802
40
0.53605437328111
40
0.539257594945267
40
0.542556514446628
40
0.545956009072421
40
0.54946068044045
40
0.553074841886376
40
0.55680250664117
40
0.560647376831119
40
0.564612833330562
40
0.568701926495143
40
0.572917367801003
40
0.577261522412811
40
0.581736402701013
40
0.58634366272606
40
0.591084593704751
40
0.595960120471092
40
0.600970798941392
40
0.606116814590534
40
0.611397981943604
40
0.616813745084262
40
0.622363179178471
40
0.628044993009403
40
0.633857532516575
40
0.639798785329511
40
0.645866386283516
40
0.652057623902418
40
0.658369447830547
40
0.664798477193538
40
0.671341009865078
40
0.677993032614177
40
0.684750232105152
40
0.691608006720183
40
0.698561479172026
40
0.705605509872318
40
0.712734711018835
40
0.719943461363076
40
0.727225921617723
40
0.734576050461717
40
0.741987621099096
40
0.749454238326219
40
0.756969356060564
40
0.764526295283094
40
0.772118262344976
40
0.779738367588509
40
0.787379644231189
40
0.795035067461179
40
0.802697573691831
40
0.810360079922482
40
0.818015503152473
40
0.825656779795153
40
0.833276885038685
40
0.840868852100568
40
0.848425791323097
40
0.855940909057443
40
0.863407526284565
40
0.870819096921945
40
0.878169225765938
40
0.885451686020586
40
0.892660436364827
40
0.899789637511343
40
0.906833668211635
40
0.913787140663478
40
0.920644915278509
40
0.927402114769485
40
0.934054137518583
40
0.940596670190124
40
0.947025699553115
40
0.953337523481243
40
0.959528761100146
40
0.96559636205415
40
0.971537614867087
40
0.977350154374258
40
0.98303196820519
40
0.988581402299399
40
0.993997165440057
40
0.999278332793127
40
1
40
1
40
1
40
1
41
1
10
-1.79497698875898
20
-21.8211780416596
30
1E-16
41
1
10
-1.79497698875898
20
-21.8197617666645
30
1E-16
41
1
10
-1.79497698875895
20
-21.8138936395804
30
1E-16
41
1
10
-1.79497698875895
20
-21.7997119170872
30
1E-16
41
1
10
-1.79497698875895
20
-21.7742348682417
30
1E-16
41
1
10
-1.79497698875895
20
-21.7407202789964
30
0
41
1
10
-1.79497698875895
20
-21.6988424638099
30
0
41
1
10
-1.79497698875895
20
-21.6482883876618
30
-1E-16
41
1
10
-1.79497698875895
20
-21.5887596686593
30
0
41
1
10
-1.79497698875895
20
-21.5199745153039
30
0
41
1
10
-1.79497698875895
20
-21.441669588446
30
0
41
1
10
-1.79497698875895
20
-21.3536017783219
30
0
41
1
10
-1.79497698875895
20
-21.2555498874867
30
-1E-16
41
1
10
-1.79497698875895
20
-21.147316210915
30
0
41
1
10
-1.79497698875895
20
-21.0287280050486
30
1E-16
41
1
10
-1.79497698875895
20
-20.8996388381123
30
-1E-16
41
1
10
-1.79497698875895
20
-20.7599298146063
30
2E-16
41
1
10
-1.79497698875895
20
-20.6095106674984
30
0
41
1
10
-1.79497698875895
20
-20.448320712291
30
3E-16
41
1
10
-1.79497698875895
20
-20.2763296578188
30
1E-16
41
1
10
-1.79497698875895
20
-20.0935382693357
30
-1E-16
41
1
10
-1.79497698875895
20
-19.8999788801787
30
-3E-16
41
1
10
-1.79497698875895
20
-19.6957157490406
30
3E-16
41
1
10
-1.79497698875895
20
-19.4808452606474
30
1E-16
41
1
10
-1.79497698875895
20
-19.2554959684039
30
-2E-16
41
1
10
-1.79497698875895
20
-19.0198284783549
30
4E-16
41
1
10
-1.79497698875895
20
-18.7740351745905
30
-8E-16
41
1
10
-1.79497698875895
20
-18.5183397870071
30
7E-16
41
1
10
-1.79497698875892
20
-18.2529968031171
30
4E-16
41
1
10
-1.79497698875892
20
-17.9782907263674
30
1E-16
41
1
10
-1.79497698875892
20
-17.6945351841919
30
-3E-16
41
1
10
-1.79497698875892
20
-17.4020718897639
30
-6E-16
41
1
10
-1.79497698875892
20
-17.1012694621409
30
8E-16
41
1
10
-1.79497698875892
20
-16.7925221101985
30
5E-16
41
1
10
-1.79497698875892
20
-16.4762481864255
30
1E-16
41
1
10
-1.79497698875892
20
-16.152888617302
30
-3E-16
41
1
10
-1.79497698875892
20
-15.8229052175965
30
-7E-16
41
1
10
-1.79497698875892
20
-15.4867788964984
30
7E-16
41
1
10
-1.79497698875892
20
-15.1450077640452
30
3E-16
41
1
10
-1.79497698875892
20
-14.7981051468017
30
-1E-16
41
1
10
-1.79497698875892
20
-14.44659752221
30
-5E-16
41
1
10
-1.79497698875892
20
-14.0910223814369
30
8E-16
41
1
10
-1.79497698875892
20
-13.7319260309117
30
4E-16
41
1
10
-1.79497698875892
20
-13.3698613430621
30
0
41
1
10
-1.79497698875892
20
-13.0053854670173
30
-4E-16
41
1
10
-1.79497698875892
20
-12.6390575102615
30
-9E-16
41
1
10
-1.79497698875892
20
-12.2714362023766
30
-1.3E-15
41
1
10
-1.79497698875892
20
-11.9030775521176
30
-1.7E-15
41
1
10
-1.79497698875892
20
-11.5345325091131
30
1.4E-15
41
1
10
-1.79497698875892
20
-11.1663446414771
30
1E-15
41
1
10
-1.79497698875892
20
-10.7990478405566
30
5E-16
41
1
10
-1.79497698875892
20
-10.4331640639254
30
1E-16
41
1
10
-1.79497698875892
20
-10.0692011275639
30
-3E-16
41
1
10
-1.79497698875892
20
-9.70765055794001
30
-7E-16
41
1
10
-1.79497698875892
20
-9.34898551443428
30
-1.2E-15
41
1
10
-1.79497698875892
20
-8.99365879222208
30
-1.6E-15
41
1
10
-1.79497698875892
20
-8.64210091535313
30
1.6E-15
41
1
10
-1.79497698875892
20
-8.2947183293426
30
1.2E-15
41
1
10
-1.79497698875889
20
-7.95189170212137
30
8E-16
41
1
10
-1.79497698875889
20
-7.61397434167898
30
4E-16
41
1
10
-1.79497698875889
20
-7.2812907381807
30
0
41
1
10
-1.79497698875889
20
-6.95413523774891
30
-4E-16
41
1
10
-1.79497698875889
20
-6.63277085447152
30
-8E-16
41
1
10
-1.79497698875889
20
-6.317428226543
30
-1.2E-15
41
1
10
-1.79497698875889
20
-6.00830472175389
30
-1.5E-15
41
1
10
-1.79497698875889
20
-5.70556369683206
30
1.7E-15
41
1
10
-1.79497698875889
20
-5.40933391440288
30
1.3E-15
41
1
10
-1.79497698875889
20
-5.11970912058013
30
1E-15
41
1
10
-1.79497698875889
20
-4.83674778543062
30
7E-16
41
1
10
-1.79497698875889
20
-4.56047300777308
30
3E-16
41
1
10
-1.79497698875889
20
-4.29087258498464
30
0
41
1
10
-1.79497698875889
20
-4.02789924769451
30
-3E-16
41
1
10
-1.79497698875889
20
-3.77147105845393
30
-6E-16
41
1
10
-1.79497698875889
20
-3.52147197268255
30
-9E-16
41
1
10
-1.79497698875889
20
-3.27775255941276
30
-1.2E-15
41
1
10
-1.79497698875889
20
-3.04013087858579
30
-1.4E-15
41
1
10
-1.79497698875889
20
-2.80839351090191
30
-1.7E-15
41
1
10
-1.79497698875889
20
-2.58229673549664
30
1.6E-15
41
1
10
-1.79497698875889
20
-2.36156785000529
30
1.3E-15
41
1
10
-1.79497698875889
20
-2.14590662689881
30
1.1E-15
41
1
10
-1.79497698875889
20
-1.93498689932204
30
8E-16
41
1
10
-1.79497698875889
20
-1.72845826904759
30
6E-16
41
1
10
-1.79497698875889
20
-1.52594792857653
30
3E-16
41
1
10
-1.79497698875889
20
-1.32706258887126
30
1E-16
41
1
10
-1.79497698875889
20
-1.13139050370052
30
-1E-16
41
1
10
-1.79497698875889
20
-0.93850358111078
30
-4E-16
41
1
10
-1.79497698875889
20
-0.747959572115633
30
-6E-16
41
1
10
-1.79497698875889
20
-0.559304326314418
30
-8E-16
41
1
10
-1.79497698875889
20
-0.372074103819699
30
-1E-15
41
1
10
-1.79497698875889
20
-0.185797932585871
30
-1.2E-15
41
1
10
-1.79497698875889
20
1.137E-13
30
-1.4E-15
41
1
10
-1.79497698875889
20
0.185797932586098
30
-1.7E-15
41
1
10
-1.79497698875889
20
0.372074103819926
30
1.7E-15
41
1
10
-1.79497698875889
20
0.559304326314646
30
1.4E-15
41
1
10
-1.79497698875889
20
0.74795957211586
30
1.2E-15
41
1
10
-1.79497698875889
20
0.938503581111007
30
1E-15
41
1
10
-1.79497698875889
20
1.13139050370074
30
8E-16
41
1
10
-1.79497698875889
20
1.32706258887146
30
5E-16
41
1
10
-1.79497698875889
20
1.52594792857675
30
3E-16
41
1
10
-1.79497698875889
20
1.72845826904782
30
1E-16
41
1
10
-1.79497698875889
20
1.93498689932227
30
-2E-16
41
1
10
-1.79497698875889
20
2.14590662689903
30
-4E-16
41
1
10
-1.79497698875889
20
2.36156785000551
30
-7E-16
41
1
10
-1.79497698875889
20
2.58229673549687
30
-9E-16
41
1
10
-1.79497698875889
20
2.80839351090214
30
-1.2E-15
41
1
10
-1.79497698875889
20
3.04013087858601
30
-1.5E-15
41
1
10
-1.79497698875889
20
3.27775255941299
30
-1.7E-15
41
1
10
-1.79497698875889
20
3.52147197268277
30
1.5E-15
41
1
10
-1.79497698875889
20
3.77147105845415
30
1.2E-15
41
1
10
-1.79497698875889
20
4.02789924769476
30
9E-16
41
1
10
-1.79497698875889
20
4.2908725849849
30
6E-16
41
1
10
-1.79497698875889
20
4.56047300777334
30
3E-16
41
1
10
-1.79497698875889
20
4.83674778543084
30
0
41
1
10
-1.79497698875889
20
5.11970912058038
30
-3E-16
41
1
10
-1.79497698875889
20
5.40933391440311
30
-7E-16
41
1
10
-1.79497698875889
20
5.70556369683231
30
-1E-15
41
1
10
-1.79497698875889
20
6.00830472175414
30
-1.4E-15
41
1
10
-1.79497698875889
20
6.31742822654326
30
-1.7E-15
41
1
10
-1.79497698875889
20
6.63277085447177
30
1.4E-15
41
1
10
-1.79497698875889
20
6.95413523774917
30
1.1E-15
41
1
10
-1.79497698875889
20
7.28129073818099
30
7E-16
41
1
10
-1.79497698875892
20
7.61397434167924
30
3E-16
41
1
10
-1.79497698875892
20
7.95189170212163
30
-1E-16
41
1
10
-1.79497698875892
20
8.29471832934286
30
-5E-16
41
1
10
-1.79497698875892
20
8.64210091535338
30
-9E-16
41
1
10
-1.79497698875892
20
8.99365879222236
30
-1.3E-15
41
1
10
-1.79497698875892
20
9.34898551443453
30
-1.7E-15
41
1
10
-1.79497698875892
20
9.7076505579403
30
1.4E-15
41
1
10
-1.79497698875892
20
10.0692011275642
30
1E-15
41
1
10
-1.79497698875892
20
10.4331640639257
30
5E-16
41
1
10
-1.79497698875892
20
10.7990478405569
30
1E-16
41
1
10
-1.79497698875892
20
11.1663446414774
30
-3E-16
41
1
10
-1.79497698875892
20
11.5345325091134
30
-8E-16
41
1
10
-1.79497698875892
20
11.9030775521178
30
-1.2E-15
41
1
10
-1.79497698875892
20
12.2714362023769
30
-1.6E-15
41
1
10
-1.79497698875892
20
12.6390575102618
30
1.5E-15
41
1
10
-1.79497698875892
20
13.0053854670176
30
1.1E-15
41
1
10
-1.79497698875892
20
13.3698613430624
30
7E-16
41
1
10
-1.79497698875892
20
13.731926030912
30
2E-16
41
1
10
-1.79497698875892
20
14.0910223814371
30
-2E-16
41
1
10
-1.79497698875892
20
14.4465975222103
30
-6E-16
41
1
10
-1.79497698875892
20
14.798105146802
30
8E-16
41
1
10
-1.79497698875892
20
15.1450077640455
30
3E-16
41
1
10
-1.79497698875892
20
15.4867788964987
30
-1E-16
41
1
10
-1.79497698875892
20
15.8229052175967
30
-4E-16
41
1
10
-1.79497698875892
20
16.1528886173022
30
-8E-16
41
1
10
-1.79497698875892
20
16.4762481864258
30
6E-16
41
1
10
-1.79497698875892
20
16.7925221101988
30
2E-16
41
1
10
-1.79497698875892
20
17.1012694621412
30
-2E-16
41
1
10
-1.79497698875892
20
17.4020718897641
30
-5E-16
41
1
10
-1.79497698875892
20
17.6945351841921
30
-9E-16
41
1
10
-1.79497698875892
20
17.9782907263676
30
6E-16
41
1
10
-1.79497698875892
20
18.2529968031173
30
3E-16
41
1
10
-1.79497698875892
20
18.5183397870073
30
-1E-16
41
1
10
-1.79497698875895
20
18.7740351745907
30
-4E-16
41
1
10
-1.79497698875895
20
19.0198284783552
30
2E-16
41
1
10
-1.79497698875895
20
19.2554959684042
30
0
41
1
10
-1.79497698875895
20
19.4808452606477
30
-3E-16
41
1
10
-1.79497698875895
20
19.6957157490408
30
3E-16
41
1
10
-1.79497698875895
20
19.8999788801789
30
1E-16
41
1
10
-1.79497698875895
20
20.0935382693359
30
-1E-16
41
1
10
-1.79497698875895
20
20.276329657819
30
-3E-16
41
1
10
-1.79497698875895
20
20.4483207122912
30
4E-16
41
1
10
-1.79497698875895
20
20.6095106674986
30
2E-16
41
1
10
-1.79497698875895
20
20.7599298146065
30
0
41
1
10
-1.79497698875895
20
20.8996388381124
30
-2E-16
41
1
10
-1.79497698875895
20
21.0287280050488
30
1E-16
41
1
10
-1.79497698875895
20
21.1473162109152
30
0
41
1
10
-1.79497698875895
20
21.2555498874868
30
1E-16
41
1
10
-1.79497698875895
20
21.3536017783221
30
0
41
1
10
-1.79497698875895
20
21.4416695884462
30
0
41
1
10
-1.79497698875895
20
21.5199745153041
30
0
41
1
10
-1.79497698875895
20
21.5887596686594
30
0
41
1
10
-1.79497698875895
20
21.648288387662
30
1E-16
41
1
10
-1.79497698875895
20
21.69884246381
30
0
41
1
10
-1.79497698875895
20
21.7407202789965
30
2E-16
41
1
10
-1.79497698875895
20
21.7742348682418
30
1E-16
41
1
10
-1.79497698875895
20
21.7997119170873
30
1E-16
41
1
10
-1.79497698875895
20
21.8174877039415
30
1E-16
41
1
10
-1.79497698875898
20
21.8249972747878
30
1E-16
41
1
10
-1.794976988759
20
21.8274365857902
30
0
41
1
10
-1.79497698875898
20
21.8277079588628
30
0
0
SPLINE
5
E4
100
AcDbEntity
8
1
62
256
6
ByLayer
370
18
48
1
60
0
100
AcDbSpline
70
4
71
3
72
126
73
122
40
0
40
0
40
0
40
0
40
0.015624537947354
40
0.015624537947354
40
0.0195307897808962
40
0.0195307897808962
40
0.0234370416144384
40
0.0312495452815227
40
0.0312495452815227
40
0.0624995599498601
40
0.0624995599498601
40
0.0781245672840286
40
0.0781245672840286
40
0.0820308191175708
40
0.0820308191175708
40
0.085937070951113
40
0.0937495746181976
40
0.0937495746181976
40
0.124999589286535
40
0.124999589286535
40
0.140624596620704
40
0.140624596620704
40
0.144530848454246
40
0.144530848454246
40
0.148437100287788
40
0.156249603954873
40
0.156249603954873
40
0.187499618623211
40
0.187499618623211
40
0.218749633291549
40
0.218749633291549
40
0.234374640625718
40
0.234374640625718
40
0.238280892459261
40
0.238280892459261
40
0.242187144292803
40
0.249999647959887
40
0.249999647959887
40
0.281249662628226
40
0.281249662628226
40
0.312499677296565
40
0.312499677296565
40
0.343749691964904
40
0.343749691964904
40
0.359374699299073
40
0.359374699299073
40
0.367187202966157
40
0.367187202966157
40
0.374999706633242
40
0.374999706633242
40
0.406249721301581
40
0.406249721301581
40
0.437499735969919
40
0.437499735969919
40
0.453124743304088
40
0.453124743304088
40
0.460937246971173
40
0.460937246971173
40
0.468749750638258
40
0.468749750638258
40
0.499999765306596
40
0.499999765306596
40
0.531249779974934
40
0.531249779974934
40
0.562499794643272
40
0.562499794643272
40
0.59374980931161
40
0.59374980931161
40
0.624999823979948
40
0.624999823979948
40
0.640624831314117
40
0.640624831314117
40
0.656249838648286
40
0.656249838648286
40
0.687499853316624
40
0.687499853316624
40
0.718749867984962
40
0.718749867984962
40
0.749999882653299
40
0.749999882653299
40
0.781249897321637
40
0.781249897321637
40
0.796874904655806
40
0.796874904655806
40
0.80468740832289
40
0.80468740832289
40
0.812499911989975
40
0.812499911989975
40
0.843749926658313
40
0.843749926658313
40
0.859374933992482
40
0.859374933992482
40
0.874999941326651
40
0.874999941326651
40
0.878906193160193
40
0.878906193160193
40
0.882812444993735
40
0.882812444993735
40
0.890624948660819
40
0.890624948660819
40
0.906249955994988
40
0.906249955994988
40
0.921874963329157
40
0.921874963329157
40
0.937499970663326
40
0.937499970663326
40
0.941406222496868
40
0.941406222496868
40
0.94531247433041
40
0.94531247433041
40
0.953124977997494
40
0.953124977997494
40
0.968749985331663
40
0.968749985331663
40
0.984374992665831
40
0.984374992665831
40
0.992187496332916
40
0.992187496332916
40
0.996093748166458
40
0.996093748166458
40
1
40
1
40
1
40
1
41
1
10
22.0002597534017
20
31.4997295719654
30
0
41
1
10
21.9976331396208
20
31.5024641252689
30
0
41
1
10
22.0148905727308
20
31.4844945458977
30
0
41
1
10
22.0621089965344
20
31.4353477717482
30
1E-16
41
1
10
22.072852362084
20
31.4241663026457
30
1E-16
41
1
10
22.0968098625423
20
31.3992341343146
30
2E-16
41
1
10
22.1364688050846
20
31.3579649929624
30
-1E-16
41
1
10
22.1871492564219
20
31.3052414902453
30
0
41
1
10
22.380036369752
20
31.1046399382093
30
4E-16
41
1
10
22.610655479281
20
30.8649349241249
30
1E-16
41
1
10
23.0650364181938
20
30.393906110406
30
3E-16
41
1
10
23.2346392525833
20
30.2182548682536
30
7E-16
41
1
10
23.469154104807
20
29.9757297442608
30
-5E-16
41
1
10
23.5171213159829
20
29.9261402503229
30
-4E-16
41
1
10
23.6149231885414
20
29.825066376046
30
-2E-16
41
1
10
23.7645311470329
20
29.6705057539432
30
2E-16
41
1
10
23.9227020802394
20
29.5072719461374
30
6E-16
41
1
10
24.4683855386207
20
28.9445726468142
30
1E-16
41
1
10
24.9636963161154
20
28.4351998793491
30
-5E-16
41
1
10
25.7871873043373
20
27.5919800231828
30
-3E-16
41
1
10
26.0751582170825
20
27.2976606602722
30
3E-16
41
1
10
26.4515085839851
20
26.9138794888744
30
-5E-16
41
1
10
26.5275683653714
20
26.8363594987709
30
-4E-16
41
1
10
26.6808089918276
20
26.6802636631569
30
0
41
1
10
26.9125314519911
20
26.4443525860082
30
5E-16
41
1
10
27.1497313052652
20
26.2032674840911
30
1.1E-15
41
1
10
27.9521535762121
20
25.3886583943742
30
-5E-16
41
1
10
28.6315475745857
20
24.7019650744048
30
1.1E-15
41
1
10
30.0575345997857
20
23.2684743091385
30
8E-16
41
1
10
30.8041756190894
20
22.5216249626718
30
-1E-15
41
1
10
31.9712613036037
20
21.3611397075486
30
1.8E-15
41
1
10
32.3681647026718
20
20.9675884684817
30
-9E-16
41
1
10
32.8739238379461
20
20.4676273954423
30
3E-16
41
1
10
32.9755792119086
20
20.3672124240541
30
6E-16
41
1
10
33.1793377113573
20
20.1660927293337
30
1E-15
41
1
10
33.4858330798197
20
19.8637945467211
30
1.7E-15
41
1
10
33.7948662484937
20
19.5596865575118
30
-1.1E-15
41
1
10
34.8304783255077
20
18.5421576986917
30
1.3E-15
41
1
10
35.6765223090617
20
17.7159134660894
30
-3E-16
41
1
10
37.4010762669038
20
16.0428174221985
30
2E-16
41
1
10
38.2795994833515
20
15.1959509107171
30
-1.4E-15
41
1
10
40.0675363737109
20
13.484347003584
30
-8E-16
41
1
10
40.9769572011821
20
12.6196013264831
30
1.2E-15
41
1
10
42.3636220650947
20
11.3105929245696
30
9E-16
41
1
10
42.8296043984074
20
10.8722702201441
30
-1.6E-15
41
1
10
43.5341803689037
20
10.2119576404119
30
0
41
1
10
43.7699730420355
20
9.99138177900636
30
5E-16
41
1
10
44.2434231368492
20
9.54930911616066
30
1.6E-15
41
1
10
44.480724832932
20
9.32814468408367
30
-1.5E-15
41
1
10
45.6691810015343
20
8.22257911102901
30
1.2E-15
41
1
10
46.6271186556746
20
7.33806983176012
30
-2E-16
41
1
10
48.5571419729005
20
5.56971915628191
30
6E-16
41
1
10
49.5292287686875
20
4.6858763100611
30
-8E-16
41
1
10
50.9979572684356
20
3.36107656345808
30
-1E-15
41
1
10
51.4893011012162
20
2.91963628791143
30
1E-16
41
1
10
52.2289775354155
20
2.25776438809797
30
1.7E-15
41
1
10
52.4759798677707
20
2.03718844787727
30
-1.3E-15
41
1
10
52.9708739761475
20
1.59614010935573
30
-2E-16
41
1
10
53.2178863829633
20
1.37645068310525
30
3E-16
41
1
10
54.4537681194054
20
0.279508035646387
30
-5E-16
41
1
10
55.4423207339637
20
-0.590757242532533
30
1.7E-15
41
1
10
57.4194610448
20
-2.31701586222093
30
-1.1E-15
41
1
10
58.4080482028166
20
-3.17300839122771
30
1.1E-15
41
1
10
60.3854551161754
20
-4.87088605651761
30
-1.7E-15
41
1
10
61.3742748236163
20
-5.71277083008576
30
4E-16
41
1
10
63.3522119477274
20
-7.38247626609163
30
1.2E-15
41
1
10
64.3413297921239
20
-8.21029695424326
30
-3E-16
41
1
10
66.3197902510265
20
-9.8518011454062
30
4E-16
41
1
10
67.3091338726071
20
-10.6654850972574
30
-1E-15
41
1
10
68.7931439025375
20
-11.8752609005509
30
-1.4E-15
41
1
10
69.287811677054
20
-12.2767268098769
30
-4E-16
41
1
10
70.277095364663
20
-13.076035395255
30
1.7E-15
41
1
10
70.771818650955
20
-13.4739640208196
30
-8E-16
41
1
10
72.2551616030678
20
-14.6617175781548
30
-1.2E-15
41
1
10
73.2350130015707
20
-15.4391525865919
30
8E-16
41
1
10
75.1754527422459
20
-16.9650919484485
30
1.4E-15
41
1
10
76.1360480380079
20
-17.7135999867435
30
-2E-16
41
1
10
78.0359976521912
20
-19.1809940748184
30
2E-16
41
1
10
78.975364665725
20
-19.8998876334459
30
-1.4E-15
41
1
10
80.8297862003395
20
-21.3066356764994
30
-1.1E-15
41
1
10
81.7448642024715
20
-21.9945047456982
30
7E-16
41
1
10
83.0957341751665
20
-23.0011851286502
30
-1E-16
41
1
10
83.5423850358672
20
-23.3325486609716
30
9E-16
41
1
10
84.2062889704543
20
-23.8229568092348
30
-1.3E-15
41
1
10
84.4262915425298
20
-23.9851077910104
30
-9E-16
41
1
10
84.8624725660632
20
-24.3058998271905
30
0
41
1
10
85.0788176175009
20
-24.4646639980731
30
4E-16
41
1
10
86.1514851417979
20
-25.2501675909094
30
-9E-16
41
1
10
86.9808236302207
20
-25.8520787851334
30
7E-16
41
1
10
88.1732319079117
20
-26.7108253547712
30
-4E-16
41
1
10
88.5620654280109
20
-26.9896973566077
30
4E-16
41
1
10
89.320489160597
20
-27.5315848927791
30
1E-16
41
1
10
89.6900851403002
20
-27.7946042485974
30
8E-16
41
1
10
90.1384829698107
20
-28.1125578662931
30
0
41
1
10
90.227481071329
20
-28.17560650683
30
1E-16
41
1
10
90.4040679991844
20
-28.3005922047587
30
5E-16
41
1
10
90.4917230017979
20
-28.3625759693882
30
7E-16
41
1
10
90.7517752725256
20
-28.5463040169263
30
-6E-16
41
1
10
90.9213857872548
20
-28.6659145846204
30
-2E-16
41
1
10
91.4184748161535
20
-29.0158764419343
30
8E-16
41
1
10
91.7342328142634
20
-29.2373730692522
30
-4E-16
41
1
10
92.3315017348743
20
-29.6551077550085
30
8E-16
41
1
10
92.6130201275045
20
-29.8513510238814
30
-4E-16
41
1
10
93.1380516208979
20
-30.2164036840005
30
6E-16
41
1
10
93.3815761035661
20
-30.3852211024502
30
-7E-16
41
1
10
93.6592128836712
20
-30.5772747001216
30
-1E-16
41
1
10
93.7133986625227
20
-30.6147348283957
30
0
41
1
10
93.8189978073222
20
-30.687698682254
30
2E-16
41
1
10
93.8704629852234
20
-30.7232381360042
30
3E-16
41
1
10
94.0198408831498
20
-30.8263386925871
30
-3E-16
41
1
10
94.1129361069009
20
-30.8905206431179
30
-1E-16
41
1
10
94.3723270912386
20
-31.0691989079646
30
4E-16
41
1
10
94.5187488988048
20
-31.1698452533926
30
-2E-16
41
1
10
94.75585243483
20
-31.3326645133188
30
-2E-16
41
1
10
94.8465388594879
20
-31.3948412850759
30
0
41
1
10
94.9381827114625
20
-31.457652345701
30
0
41
1
10
94.9613269869087
20
-31.4735085712872
30
0
41
1
10
94.9845537028238
20
-31.4894199085967
30
1E-16
41
1
10
94.9903643294672
20
-31.4934000354848
30
0
41
1
10
94.9980812908324
20
-31.4986858429766
30
0
41
1
10
95.0000066011348
20
-31.5000045208205
30
1E-16
41
1
10
95.0000044763795
20
-31.5000030657033
30
1E-16
0
SPLINE
5
E5
100
AcDbEntity
8
SK1
62
256
6
ByLayer
370
18
48
1
60
0
100
AcDbSpline
70
4
71
3
72
70
73
66
40
0
40
0
40
0
40
0
40
0.0105065657303167
40
0.0219204888708697
40
0.033658455112278
40
0.0457218028385117
40
0.0581109785855091
40
0.0708255358172576
40
0.083864136149712
40
0.0972245530192168
40
0.11090367778536
40
0.124897528251539
40
0.13920125957989
40
0.153809177570644
40
0.168714754269541
40
0.183910645860489
40
0.199388712794464
40
0.215140042099439
40
0.231154971810224
40
0.247423117451244
40
0.26393340049966
40
0.280674078750833
40
0.297632778502886
40
0.314796528472168
40
0.332151795346634
40
0.349684520879714
40
0.367380160422997
40
0.385223722792088
40
0.403199811356413
40
0.421292666240308
40
0.439486207519744
40
0.457764079296284
40
0.476109694527455
40
0.494506280490688
40
0.51293692475618
40
0.53138462154269
40
0.5498323183292
40
0.568262962594692
40
0.586659548557926
40
0.605005163789097
40
0.623283035565635
40
0.641476576845072
40
0.659569431728967
40
0.677545520293292
40
0.695389082662383
40
0.713084722205665
40
0.730617447738747
40
0.747972714613212
40
0.765136464582494
40
0.782095164334547
40
0.798835842585719
40
0.815346125634135
40
0.831614271275156
40
0.847629200985942
40
0.863380530290916
40
0.87885859722489
40
0.894054488815839
40
0.908960065514735
40
0.92356798350549
40
0.93787171483384
40
0.95186556530002
40
0.965544690066162
40
0.978905106935667
40
0.991943707268121
40
1
40
1
40
1
40
1
41
1
10
-0.194913899691983
20
6.03894368023632
30
3E-16
41
1
10
-0.194913899691983
20
6.13710523892487
30
1E-16
41
1
10
-0.194913899691983
20
6.34108613333512
30
-1E-16
41
1
10
-0.194913899691983
20
6.65164826783794
30
-5E-16
41
1
10
-0.194913899691983
20
6.97362911070823
30
-8E-16
41
1
10
-0.194913899691983
20
7.3013951285273
30
-1.2E-15
41
1
10
-0.194913899691983
20
7.63468312223975
30
-1.6E-15
41
1
10
-0.194913899691983
20
7.97319856252255
30
1.5E-15
41
1
10
-0.194913899691983
20
8.31661677783953
30
1.1E-15
41
1
10
-0.194913899691983
20
8.66458428072306
30
7E-16
41
1
10
-0.194913899691983
20
9.01672022571901
30
3E-16
41
1
10
-0.194913899691983
20
9.37261799180479
30
-1E-16
41
1
10
-0.194913899691983
20
9.73184688149951
30
-5E-16
41
1
10
-0.194913899691983
20
10.0939539283317
30
-9E-16
41
1
10
-0.194913899691983
20
10.4584658038183
30
-1.4E-15
41
1
10
-0.194913899691983
20
10.8248908146386
30
1.8E-15
41
1
10
-0.194913899691983
20
11.1927209802658
30
1.3E-15
41
1
10
-0.194913899691983
20
11.5614341809399
30
9E-16
41
1
10
-0.194913899691983
20
11.930496365542
30
5E-16
41
1
10
-0.194913899691983
20
12.2993638086529
30
0
41
1
10
-0.194913899691983
20
12.6674854058562
30
-4E-16
41
1
10
-0.194913899691983
20
13.034304996177
30
-8E-16
41
1
10
-0.194913899691983
20
13.3992637004309
30
-1.3E-15
41
1
10
-0.194913899691983
20
13.761802264196
30
1E-16
41
1
10
-0.194913899691983
20
14.1213633941174
30
-3E-16
41
1
10
-0.194913899691983
20
14.4773940762998
30
-7E-16
41
1
10
-0.194913899691983
20
14.8293478656487
30
6E-16
41
1
10
-0.194913899691983
20
15.1766871351789
30
2E-16
41
1
10
-0.194913899691983
20
15.5188852745191
30
-2E-16
41
1
10
-0.194913899691983
20
15.8554288271061
30
-6E-16
41
1
10
-0.194913899692011
20
16.1858195558764
30
8E-16
41
1
10
-0.194913899692011
20
16.5095764276251
30
4E-16
41
1
10
-0.194913899692011
20
16.826237506619
30
1E-16
41
1
10
-0.194913899692011
20
17.1353617485005
30
-3E-16
41
1
10
-0.194913899692011
20
17.4365306860277
30
-7E-16
41
1
10
-0.194913899692011
20
17.7293499987317
30
8E-16
41
1
10
-0.194913899692011
20
18.0134509591557
30
4E-16
41
1
10
-0.194913899692011
20
18.288491748955
30
1E-16
41
1
10
-0.194913899692011
20
18.5541586387844
30
-2E-16
41
1
10
-0.194913899692011
20
18.8101670265768
30
-5E-16
41
1
10
-0.194913899692011
20
19.0562623295217
30
1E-16
41
1
10
-0.194913899692011
20
19.292220725775
30
-2E-16
41
1
10
-0.194913899692011
20
19.5178497426781
30
-4E-16
41
1
10
-0.194913899692011
20
19.7329886890235
30
2E-16
41
1
10
-0.194913899692011
20
19.9375089296755
30
0
41
1
10
-0.194913899692011
20
20.1313140016338
30
-3E-16
41
1
10
-0.194913899692011
20
20.3143395714112
30
4E-16
41
1
10
-0.194913899692011
20
20.4865532343792
30
2E-16
41
1
10
-0.194913899692011
20
20.6479541575163
30
0
41
1
10
-0.194913899692011
20
20.798572567764
30
-2E-16
41
1
10
-0.194913899692011
20
20.9384690889588
30
1E-16
41
1
10
-0.194913899692011
20
21.0677339310531
30
0
41
1
10
-0.194913899692011
20
21.1864859360632
30
1E-16
41
1
10
-0.194913899692011
20
21.2948714858929
30
-1E-16
41
1
10
-0.19491389969204
20
21.3930632778553
30
0
41
1
10
-0.19491389969204
20
21.4812589743688
30
0
41
1
10
-0.19491389969204
20
21.5596797339209
30
0
41
1
10
-0.19491389969204
20
21.6285686309768
30
0
41
1
10
-0.19491389969204
20
21.6881889730555
30
-1E-16
41
1
10
-0.19491389969204
20
21.7388225236985
30
1E-16
41
1
10
-0.19491389969204
20
21.7807676405212
30
0
41
1
10
-0.19491389969204
20
21.8143373379495
30
0
41
1
10
-0.19491389969204
20
21.8398572846154
30
0
41
1
10
-0.19491389969204
20
21.8555430700357
30
-1E-16
41
1
10
-0.19491389969204
20
21.8620086528741
30
-1E-16
41
1
10
-0.19491389969204
20
21.8640126799
30
-1E-16
0
SPLINE
5
E6
100
AcDbEntity
8
1
62
256
6
ByLayer
370
18
48
1
60
0
100
AcDbSpline
70
4
71
3
72
18
73
14
40
0
40
0
40
0
40
0
40
0.124999999999999
40
0.124999999999999
40
0.249999999999998
40
0.249999999999998
40
0.374999999999997
40
0.374999999999997
40
0.499999999999996
40
0.499999999999996
40
0.749999999999998
40
0.749999999999998
40
1
40
1
40
1
40
1
41
1
10
13.4613248654051
20
-9.34922131452487
30
-1.3E-15
41
1
10
13.4927243587694
20
-9.34922131452487
30
-1.3E-15
41
1
10
13.5235413040251
20
-9.35538953951126
30
-1.3E-15
41
1
10
13.5816367663097
20
-9.37754088736804
30
-1.4E-15
41
1
10
13.6080708980737
20
-9.39297468348747
30
-1.4E-15
41
1
10
13.6572805024801
20
-9.42993211500811
30
-1.4E-15
41
1
10
13.6791937977477
20
-9.45082003408504
30
-1.4E-15
41
1
10
13.7193068485915
20
-9.49564759237796
30
-1.4E-15
41
1
10
13.7375981750167
20
-9.51978166417405
30
-1.4E-15
41
1
10
13.78757585043
20
-9.5946972324837
30
-1.4E-15
41
1
10
13.8143506148375
20
-9.64746044882475
30
-1.3E-15
41
1
10
13.8600219158301
20
-9.75632777527096
30
-1.3E-15
41
1
10
13.8788462201994
20
-9.8127831483981
30
-1.2E-15
41
1
10
13.8943375672974
20
-9.86941261896595
30
-1.2E-15
0
SPLINE
5
E7
100
AcDbEntity
8
1
62
256
6
ByLayer
370
18
48
1
60
0
100
AcDbSpline
70
4
71
3
72
20
73
16
40
0
40
0
40
0
40
0
40
0.250000000000001
40
0.250000000000001
40
0.500000000000001
40
0.500000000000001
40
0.625000000000001
40
0.625000000000001
40
0.75
40
0.75
40
0.874999999999999
40
0.874999999999999
40
0.9375
40
0.9375
40
1
40
1
40
1
40
1
41
1
10
13.8943375672974
20
-29.913954846469
30
-8E-16
41
1
10
13.8790249127082
20
-29.9324229064008
30
-7E-16
41
1
10
13.860611602374
20
-29.950571883934
30
-7E-16
41
1
10
13.8147108154357
20
-29.9861030022393
30
-6E-16
41
1
10
13.7876605975645
20
-30.0031792203672
30
-5E-16
41
1
10
13.7379442674413
20
-30.0269079771895
30
-5E-16
41
1
10
13.7196762004308
20
-30.0345618184729
30
-4E-16
41
1
10
13.6792434886587
20
-30.0488269761611
30
-4E-16
41
1
10
13.6572629271527
20
-30.05539780628
30
-3E-16
41
1
10
13.6081451575973
20
-30.0669489283754
30
-3E-16
41
1
10
13.5815067158171
20
-30.071795507276
30
-2E-16
41
1
10
13.5380698687603
20
-30.0769511627478
30
-2E-16
41
1
10
13.5229322429359
20
-30.0783119128591
30
-1E-16
41
1
10
13.4924813332178
20
-30.0801226069437
30
-1E-16
41
1
10
13.4770269413864
20
-30.0805927603168
30
-1E-16
41
1
10
13.4613248654051
20
-30.0805927603168
30
-1E-16
0
SPLINE
5
E8
100
AcDbEntity
8
1
62
256
6
ByLayer
370
18
48
1
60
0
100
AcDbSpline
70
4
71
3
72
20
73
16
40
0
40
0
40
0
40
0
40
0.250000000000002
40
0.250000000000002
40
0.500000000000003
40
0.500000000000003
40
0.625000000000002
40
0.625000000000002
40
0.750000000000001
40
0.750000000000001
40
0.875
40
0.875
40
0.9375
40
0.9375
40
1
40
1
40
1
40
1
41
1
10
10.1056624327025
20
-9.86941261896598
30
-3E-16
41
1
10
10.1209750872917
20
-9.81343636868326
30
-4E-16
41
1
10
10.139388397626
20
-9.75789783444341
30
-4E-16
41
1
10
10.1852891845642
20
-9.64815801390245
30
-6E-16
41
1
10
10.2123394024354
20
-9.594892497046
30
-7E-16
41
1
10
10.2620557325586
20
-9.52026673309223
30
-9E-16
41
1
10
10.2803237995691
20
-9.49608650120246
30
-9E-16
41
1
10
10.3207565113412
20
-9.45084968787057
30
-1E-15
41
1
10
10.3427370728472
20
-9.4299223952959
30
-1.1E-15
41
1
10
10.3918548424026
20
-9.39302697821699
30
-1.2E-15
41
1
10
10.4184932841828
20
-9.37748626146222
30
-1.2E-15
41
1
10
10.4619301312396
20
-9.36093169281321
30
-1.3E-15
41
1
10
10.4770677570639
20
-9.35655715360102
30
-1.3E-15
41
1
10
10.5075186667821
20
-9.35073436940007
30
-1.4E-15
41
1
10
10.5229730586135
20
-9.34922131452487
30
-1.4E-15
41
1
10
10.5386751345948
20
-9.34922131452484
30
-1.4E-15
0
SPLINE
5
E9
100
AcDbEntity
8
1
62
256
6
ByLayer
370
18
48
1
60
0
100
AcDbSpline
70
4
71
3
72
18
73
14
40
0
40
0
40
0
40
0
40
0.125000000000002
40
0.125000000000002
40
0.250000000000005
40
0.250000000000005
40
0.375000000000007
40
0.375000000000007
40
0.500000000000009
40
0.500000000000009
40
0.750000000000005
40
0.750000000000005
40
1
40
1
40
1
40
1
41
1
10
10.5386751345947
20
-30.0805927603168
30
-2E-16
41
1
10
10.5072756412305
20
-30.0805927603168
30
-2E-16
41
1
10
10.4764586959748
20
-30.078677183888
30
-1E-16
41
1
10
10.4183632336902
20
-30.071778488714
30
-1E-16
41
1
10
10.3919291019262
20
-30.0669652862981
30
0
41
1
10
10.3427194975197
20
-30.0553947776174
30
0
41
1
10
10.3208062022522
20
-30.0488361341242
30
0
41
1
10
10.2806931514084
20
-30.0347004169091
30
0
41
1
10
10.2624018249832
20
-30.027061855979
30
1E-16
41
1
10
10.2124241495698
20
-30.0032420175275
30
1E-16
41
1
10
10.1856493851623
20
-29.9863265580873
30
1E-16
41
1
10
10.1399780841698
20
-29.9510824829649
30
1E-16
41
1
10
10.1211537798005
20
-29.9326384212185
30
1E-16
41
1
10
10.1056624327025
20
-29.913954846469
30
1E-16
0
LINE
5
7A
100
AcDbEntity
8
81
62
256
6
ByLayer
370
13
48
0.05
60
0
100
AcDbLine
10
100
20
-6.5
30
0
11
123
21
-6.5
31
0
39
0
210
0
220
0
230
1
0
LINE
5
7B
100
AcDbEntity
8
1
62
256
6
ByLayer
370
18
48
1
60
1
100
AcDbLine
10
301.795592
20
175.173124
30
0
11
301.377595
21
178.348123
31
0
39
0
210
0
220
0
230
1
0
LINE
5
7C
100
AcDbEntity
8
1
62
256
6
ByLayer
370
18
48
1
60
1
100
AcDbLine
10
301.377595
20
178.348123
30
0
11
302.213588
21
178.348126
31
0
39
0
210
0
220
0
230
1
0
LINE
5
7D
100
AcDbEntity
8
1
62
256
6
ByLayer
370
18
48
1
60
1
100
AcDbLine
10
302.213588
20
178.348126
30
0
11
301.795592
21
175.173124
31
0
39
0
210
0
220
0
230
1
0
LINE
5
7E
100
AcDbEntity
8
1
62
256
6
ByLayer
370
18
48
1
60
1
100
AcDbLine
10
301.795592
20
165.173124
30
0
11
302.213588
21
161.998126
31
0
39
0
210
0
220
0
230
1
0
LINE
5
7F
100
AcDbEntity
8
1
62
256
6
ByLayer
370
18
48
1
60
1
100
AcDbLine
10
302.213588
20
161.998126
30
0
11
301.377595
21
161.998123
31
0
39
0
210
0
220
0
230
1
0
LINE
5
80
100
AcDbEntity
8
1
62
256
6
ByLayer
370
18
48
1
60
1
100
AcDbLine
10
301.377595
20
161.998123
30
0
11
301.795592
21
165.173124
31
0
39
0
210
0
220
0
230
1
0
LINE
5
81
100
AcDbEntity
8
80
62
256
6
ByLayer
370
13
48
0.05
60
0
100
AcDbLine
10
0
20
0
30
0
11
-31
21
0
31
0
39
0
210
0
220
0
230
1
0
LINE
5
82
100
AcDbEntity
8
SK4
62
256
6
ByLayer
370
13
48
0.05
60
0
100
AcDbLine
10
-40
20
0
30
0
11
102
21
0
31
0
39
0
210
0
220
0
230
1
0
LINE
5
84
100
AcDbEntity
8
SK4
62
256
6
ByLayer
370
13
48
0.05
60
0
100
AcDbLine
10
45
20
-6.5
30
0
11
102
21
-6.5
31
0
39
0
210
0
220
0
230
1
0
LINE
5
85
100
AcDbEntity
8
1
62
256
6
ByLayer
370
18
48
1
60
0
100
AcDbLine
10
22
20
31.5
30
0
11
95
21
18.5
31
0
39
0
210
0
220
0
230
1
0
LINE
5
86
100
AcDbEntity
8
1
62
256
6
ByLayer
370
18
48
1
60
0
100
AcDbLine
10
100
20
-31.3
30
0
11
99.8
21
-31.5
31
0
39
0
210
0
220
0
230
1
0
LINE
5
87
100
AcDbEntity
8
1
62
256
6
ByLayer
370
18
48
1
60
0
100
AcDbLine
10
99.8
20
18.5
30
0
11
100
21
18.3
31
0
39
0
210
0
220
0
230
1
0
LINE
5
88
100
AcDbEntity
8
1
62
256
6
ByLayer
370
18
48
1
60
0
100
AcDbLine
10
95
20
18.5
30
0
11
99.8
21
18.5
31
0
39
0
210
0
220
0
230
1
0
LINE
5
89
100
AcDbEntity
8
1
62
256
6
ByLayer
370
18
48
1
60
0
100
AcDbLine
10
99.8
20
-31.5
30
0
11
95
21
-31.5
31
0
39
0
210
0
220
0
230
1
0
LINE
5
8A
100
AcDbEntity
8
1
62
256
6
ByLayer
370
18
48
1
60
0
100
AcDbLine
10
0.3
20
31.5
30
0
11
22.001322
21
31.5
31
0
39
0
210
0
220
0
230
1
0
LINE
5
8B
100
AcDbEntity
8
1
62
256
6
ByLayer
370
18
48
1
60
0
100
AcDbLine
10
0.3
20
31.5
30
0
11
0
21
31.2
31
0
39
0
210
0
220
0
230
1
0
LINE
5
8C
100
AcDbEntity
8
1
62
256
6
ByLayer
370
18
48
1
60
0
100
AcDbLine
10
95
20
-31.5
30
0
11
53.019566
21
-31.5
31
0
39
0
210
0
220
0
230
1
0
LINE
5
8D
100
AcDbEntity
8
1
62
256
6
ByLayer
370
18
48
1
60
0
100
AcDbLine
10
0
20
-31.2
30
0
11
0.3
21
-31.5
31
0
39
0
210
0
220
0
230
1
0
LINE
5
8E
100
AcDbEntity
8
1
62
256
6
ByLayer
370
18
48
1
60
0
100
AcDbLine
10
30.980434
20
-31.5
30
0
11
0.3
21
-31.5
31
0
39
0
210
0
220
0
230
1
0
LINE
5
8F
100
AcDbEntity
8
1
62
256
6
ByLayer
370
18
48
1
60
0
100
AcDbLine
10
34.8
20
-30.5
30
0
11
34.593338
21
-30.424781
31
0
39
0
210
0
220
0
230
1
0
LINE
5
90
100
AcDbEntity
8
1
62
256
6
ByLayer
370
18
48
1
60
0
100
AcDbLine
10
49.407169
20
-30.424597
30
0
11
49.2
21
-30.5
31
0
39
0
210
0
220
0
230
1
0
LINE
5
91
100
AcDbEntity
8
1
62
256
6
ByLayer
370
18
48
1
60
0
100
AcDbLine
10
100
20
-31.3
30
0
11
100
21
18.3
31
0
39
0
210
0
220
0
230
1
0
LINE
5
92
100
AcDbEntity
8
1
62
256
6
ByLayer
370
18
48
1
60
0
100
AcDbLine
10
13.894338
20
-29.913955
30
0
11
13.894338
21
-9.869413
31
0
39
0
210
0
220
0
230
1
0
LINE
5
93
100
AcDbEntity
8
1
62
256
6
ByLayer
370
18
48
1
60
0
100
AcDbLine
10
13.461325
20
-30.080593
30
0
11
13.461325
21
-9.349221
31
0
39
0
210
0
220
0
230
1
0
LINE
5
94
100
AcDbEntity
8
1
62
256
6
ByLayer
370
18
48
1
60
0
100
AcDbLine
10
10.538675
20
-30.080593
30
0
11
10.538675
21
-9.349221
31
0
39
0
210
0
220
0
230
1
0
LINE
5
95
100
AcDbEntity
8
1
62
256
6
ByLayer
370
18
48
1
60
0
100
AcDbLine
10
13.894338
20
9.869413
30
0
11
13.894338
21
29.913955
31
0
39
0
210
0
220
0
230
1
0
LINE
5
96
100
AcDbEntity
8
1
62
256
6
ByLayer
370
18
48
1
60
0
100
AcDbLine
10
95
20
-6.5
30
0
11
95
21
-31.5
31
0
39
0
210
0
220
0
230
1
0
LINE
5
97
100
AcDbEntity
8
1
62
256
6
ByLayer
370
18
48
1
60
0
100
AcDbLine
10
95
20
18.5
30
0
11
95
21
-6.5
31
0
39
0
210
0
220
0
230
1
0
LINE
5
98
100
AcDbEntity
8
1
62
256
6
ByLayer
370
18
48
1
60
0
100
AcDbLine
10
99.8
20
-31.5
30
0
11
99.8
21
-6.5
31
0
39
0
210
0
220
0
230
1
0
LINE
5
99
100
AcDbEntity
8
1
62
256
6
ByLayer
370
18
48
1
60
0
100
AcDbLine
10
99.8
20
-6.5
30
0
11
99.8
21
18.5
31
0
39
0
210
0
220
0
230
1
0
LINE
5
9A
100
AcDbEntity
8
1
62
256
6
ByLayer
370
18
48
1
60
0
100
AcDbLine
10
38
20
-26.5
30
0
11
46
21
-26.5
31
0
39
0
210
0
220
0
230
1
0
LINE
5
9B
100
AcDbEntity
8
1
62
256
6
ByLayer
370
18
48
1
60
0
100
AcDbLine
10
13.461325
20
30.080593
30
0
11
10.538675
21
30.080593
31
0
39
0
210
0
220
0
230
1
0
LINE
5
9C
100
AcDbEntity
8
1
62
256
6
ByLayer
370
18
48
1
60
0
100
AcDbLine
10
13.461325
20
9.349221
30
0
11
13.461325
21
30.080593
31
0
39
0
210
0
220
0
230
1
0
LINE
5
9D
100
AcDbEntity
8
1
62
256
6
ByLayer
370
18
48
1
60
0
100
AcDbLine
10
10.105662
20
-29.913955
30
0
11
10.105662
21
-9.869413
31
0
39
0
210
0
220
0
230
1
0
LINE
5
9E
100
AcDbEntity
8
1
62
256
6
ByLayer
370
18
48
1
60
0
100
AcDbLine
10
10.538675
20
9.349221
30
0
11
13.461325
21
9.349221
31
0
39
0
210
0
220
0
230
1
0
LINE
5
9F
100
AcDbEntity
8
SK1
62
256
6
ByLayer
370
18
48
1
60
0
100
AcDbLine
10
-1.307107
20
4.81102
30
0
11
-1.307107
21
-4.81102
31
0
39
0
210
0
220
0
230
1
0
LINE
5
A1
100
AcDbEntity
8
1
62
256
6
ByLayer
370
18
48
1
60
0
100
AcDbLine
10
0
20
-31.2
30
0
11
0
21
31.2
31
0
39
0
210
0
220
0
230
1
0
LINE
5
A2
100
AcDbEntity
8
1
62
256
6
ByLayer
370
18
48
1
60
0
100
AcDbLine
10
0.3
20
31.5
30
0
11
0.3
21
0
31
0
39
0
210
0
220
0
230
1
0
LINE
5
A3
100
AcDbEntity
8
1
62
256
6
ByLayer
370
18
48
1
60
0
100
AcDbLine
10
0.3
20
0
30
0
11
0.3
21
-31.5
31
0
39
0
210
0
220
0
230
1
0
LINE
5
A4
100
AcDbEntity
8
1
62
256
6
ByLayer
370
18
48
1
60
0
100
AcDbLine
10
38
20
-29.777498
30
0
11
38
21
-26.5
31
0
39
0
210
0
220
0
230
1
0
LINE
5
A5
100
AcDbEntity
8
1
62
256
6
ByLayer
370
18
48
1
60
0
100
AcDbLine
10
10.538675
20
9.349221
30
0
11
10.538675
21
30.080593
31
0
39
0
210
0
220
0
230
1
0
LINE
5
A6
100
AcDbEntity
8
1
62
256
6
ByLayer
370
18
48
1
60
0
100
AcDbLine
10
46
20
-26.5
30
0
11
46
21
-29.777498
31
0
39
0
210
0
220
0
230
1
0
LINE
5
A7
100
AcDbEntity
8
1
62
256
6
ByLayer
370
18
48
1
60
0
100
AcDbLine
10
10.105662
20
9.869413
30
0
11
10.105662
21
29.913955
31
0
39
0
210
0
220
0
230
1
0
LINE
5
A8
100
AcDbEntity
8
1
62
256
6
ByLayer
370
18
48
1
60
0
100
AcDbLine
10
13.461325
20
-9.349221
30
0
11
10.538675
21
-9.349221
31
0
39
0
210
0
220
0
230
1
0
LINE
5
A9
100
AcDbEntity
8
1
62
256
6
ByLayer
370
18
48
1
60
0
100
AcDbLine
10
10.538675
20
-30.080593
30
0
11
13.461325
21
-30.080593
31
0
39
0
210
0
220
0
230
1
0
LINE
5
AA
100
AcDbEntity
8
1
62
256
6
ByLayer
370
13
48
1
60
0
100
AcDbLine
10
46.000937
20
-28.5
30
0
11
38.000526
21
-28.5
31
0
39
0
210
0
220
0
230
1
0
LINE
5
AB
100
AcDbEntity
8
1
62
256
6
ByLayer
370
13
48
1
60
0
100
AcDbLine
10
46.000937
20
-27.3
30
0
11
38.000526
21
-27.3
31
0
39
0
210
0
220
0
230
1
0
LINE
5
AC
100
AcDbEntity
8
1
62
256
6
ByLayer
370
18
48
1
60
0
100
AcDbLine
10
45.99922
20
-27
30
0
11
38.00078
21
-27
31
0
39
0
210
0
220
0
230
1
0
LINE
5
AD
100
AcDbEntity
8
1
62
256
6
ByLayer
370
18
48
1
60
0
100
AcDbLine
10
46.475236
20
-29.844854
30
0
11
37.526297
21
-29.844854
31
0
39
0
210
0
220
0
230
1
0
LINE
5
AE
100
AcDbEntity
8
1
62
256
6
ByLayer
370
18
48
1
60
0
100
AcDbLine
10
42
20
-30.5
30
0
11
49.2
21
-30.5
31
0
39
0
210
0
220
0
230
1
0
LINE
5
AF
100
AcDbEntity
8
1
62
256
6
ByLayer
370
18
48
1
60
0
100
AcDbLine
10
34.8
20
-30.5
30
0
11
42
21
-30.5
31
0
39
0
210
0
220
0
230
1
0
LINE
5
B0
100
AcDbEntity
8
4
62
256
6
ByLayer
370
13
48
0.05
60
0
100
AcDbLine
10
0
20
0
30
0
11
100
21
0
31
0
39
0
210
0
220
0
230
1
0
MTEXT
5
EA
100
AcDbEntity
8
SK6
62
256
6
ByLayer
370
18
48
1
60
0
100
AcDbMText
10
5.583872
20
-16.939875
30
0
210
0
220
0
230
1
1
\W0.6964;C6-QC-C5-100L07
40
3
41
0
44
1.084337
50
89.9999999999987
71
7
72
5
7
iso_b_vert
0
DIMENSION
5
F8
100
AcDbEntity
8
SK2
62
256
6
ByLayer
370
13
48
1
60
0
100
AcDbDimension
2
DimnDraft3D1
10
121.75
20
0
30
0
11
121.75
21
6.675
31
0
70
32
71
5
72
1
41
1
210
0
220
0
230
1
3
Standard
100
AcDbAlignedDimension
13
104
23
-6.5
33
0
14
104
24
0
34
0
50
90
100
AcDbRotatedDimension
1001
ACAD
1000
DSTYLE
1002
{
1070
    74
1070
     0
1070
   279
1070
     0
1070
   172
1070
     1
1070
   173
1070
     1
1070
   340
1005
EB
1070
   271
1070
     1
1070
    77
1070
     1
1070
    73
1070
     0
1070
   171
1070
     4
1070
   274
1070
     4
1070
   177
1070
     7
1070
   176
1070
     7
1070
   178
1070
     7
1070
    78
1070
     8
1070
    41
1041
3.175
1070
   147
1041
1.75
1070
    42
1041
2.0
1070
    44
1041
2.0
1070
   140
1041
3.5
1070
   343
1005
0
1070
   344
1005
0
1002
}
0
DIMENSION
5
103
100
AcDbEntity
8
SK2
62
256
6
ByLayer
370
13
48
1
60
0
100
AcDbDimension
2
DimnDraft3D2
10
-60.25
20
31.5
30
0
11
-60
21
0.833553
31
0
70
33
71
5
72
1
41
1
210
0
220
0
230
1
3
Standard
100
AcDbAlignedDimension
13
-1.7
23
-31.5
33
0
14
-1.7
24
31.5
34
0
1001
ACAD
1000
DSTYLE
1002
{
1070
   279
1070
     0
1070
    74
1070
     0
1070
   173
1070
     1
1070
   340
1005
EB
1070
    77
1070
     1
1070
    73
1070
     0
1070
   171
1070
     4
1070
   274
1070
     4
1070
   177
1070
     7
1070
   176
1070
     7
1070
   178
1070
     7
1070
    78
1070
     8
1070
    41
1041
3.175
1070
   147
1041
1.75
1070
    42
1041
2.0
1070
    44
1041
2.0
1070
   140
1041
3.5
1070
   343
1005
0
1070
   344
1005
0
1002
}
0
DIMENSION
5
10E
100
AcDbEntity
8
2
62
256
6
ByLayer
370
13
48
1
60
0
100
AcDbDimension
2
DimnDraft3D3
10
100
20
58.25
30
0
11
47.038816
21
58.25
31
0
70
32
71
5
72
1
41
1
210
0
220
0
230
1
3
Standard
100
AcDbAlignedDimension
13
0
23
33.2
33
0
14
100
24
20.3
34
0
50
0
100
AcDbRotatedDimension
1001
ACAD
1000
DSTYLE
1002
{
1070
   279
1070
     0
1070
   172
1070
     1
1070
   173
1070
     1
1070
   340
1005
EB
1070
    77
1070
     1
1070
    73
1070
     0
1070
   171
1070
     4
1070
   274
1070
     4
1070
   177
1070
     7
1070
   176
1070
     7
1070
   178
1070
     7
1070
    78
1070
     8
1070
    41
1041
3.175
1070
   147
1041
1.75
1070
    42
1041
2.0
1070
    44
1041
2.0
1070
   140
1041
3.5
1070
   343
1005
0
1070
   344
1005
0
1002
}
0
DIMENSION
5
119
100
AcDbEntity
8
SK2
62
256
6
ByLayer
370
13
48
1
60
0
100
AcDbDimension
2
DimnDraft3D4
10
138.75
20
-31.5
30
0
11
135
21
-5.666447
31
0
70
33
71
5
72
1
41
1
210
0
220
0
230
1
3
Standard
100
AcDbAlignedDimension
13
101.8
23
18.5
33
0
14
101.8
24
-31.5
34
0
1001
ACAD
1000
DSTYLE
1002
{
1070
   279
1070
     0
1070
    74
1070
     0
1070
   173
1070
     1
1070
   340
1005
EB
1070
    77
1070
     1
1070
    73
1070
     0
1070
   171
1070
     4
1070
   274
1070
     4
1070
   177
1070
     7
1070
   176
1070
     7
1070
   178
1070
     7
1070
    78
1070
     8
1070
    41
1041
3.175
1070
   147
1041
1.75
1070
    42
1041
2.0
1070
    44
1041
2.0
1070
   140
1041
3.5
1070
   343
1005
0
1070
   344
1005
0
1002
}
0
ENDSEC
0
SECTION
2
OBJECTS
0
DICTIONARY
5
18b
330
0
100
AcDbDictionary
280
0
281
1
3
ACAD_GROUP
350
18c
3
ACAD_GROUP
350
18d
3
ACAD_MLINESTYLE
350
18e
0
DICTIONARY
5
18c
330
0
100
AcDbDictionary
280
0
281
1
0
DICTIONARY
5
18d
330
0
100
AcDbDictionary
280
0
281
1
3
_DC_215-200(215)
350
123
3
<201241131MOD000_00>
350
122
3
C6_QC_C5_100R07_2D
350
127
3
C8_391_02_63090L_2D
350
126
3
IV_RC1207SR1
350
124
3
IV_RC1207SR15
350
125
0
DICTIONARY
5
18e
330
0
100
AcDbDictionary
280
0
281
1
3
Standard
350
18
0
GROUP
5
123
330
18d
100
AcDbGroup
300

70
0
71
1
340
B6
340
B7
340
B8
340
B9
340
BA
340
BB
340
BC
340
BD
340
BE
340
BF
340
C0
340
C1
340
C2
340
C3
340
C4
340
C5
340
B6
340
B7
340
B8
340
B9
340
BA
340
BB
340
BC
340
BD
340
BE
340
BF
340
C0
340
C1
340
C2
340
C3
340
C4
340
C5
0
GROUP
5
122
330
18d
100
AcDbGroup
300

70
0
71
1
340
6C
340
6E
340
70
340
72
340
73
340
74
340
75
340
76
340
77
340
78
340
79
340
7A
340
7B
340
7C
340
7D
340
7E
340
7F
340
80
340
81
340
82
340
84
340
85
340
86
340
87
340
88
340
89
340
8A
340
8B
340
8C
340
8D
340
8E
340
8F
340
90
340
91
340
92
340
93
340
94
340
95
340
96
340
97
340
98
340
99
340
9A
340
9B
340
9C
340
9D
340
9E
340
9F
340
A1
340
A2
340
A3
340
A4
340
A5
340
A6
340
A7
340
A8
340
A9
340
AA
340
AB
340
AC
340
AD
340
AE
340
AF
340
B0
340
B2
340
B3
340
B4
340
B5
340
B6
340
B7
340
B8
340
B9
340
BA
340
BB
340
BC
340
BD
340
BE
340
BF
340
C0
340
C1
340
C2
340
C3
340
C4
340
C5
340
C6
340
C7
340
C8
340
C9
340
CA
340
CB
340
CC
340
CD
340
CE
340
CF
340
D0
340
D1
340
D2
340
D3
340
D4
340
D5
340
D6
340
D7
340
D8
340
D9
340
DA
340
DB
340
DC
340
DD
340
DE
340
DF
340
E0
340
E1
340
E2
340
E3
340
E4
340
E5
340
E6
340
E7
340
E8
340
E9
340
B6
340
B7
340
B8
340
B9
340
BA
340
BB
340
BC
340
BD
340
BE
340
BF
340
C0
340
C1
340
C2
340
C3
340
C4
340
C5
340
B6
340
B7
340
B8
340
B9
340
BA
340
BB
340
BC
340
BD
340
BE
340
BF
340
C0
340
C1
340
C2
340
C3
340
C4
340
C5
340
B6
340
B7
340
B8
340
B9
340
BA
340
BB
340
BC
340
BD
340
BE
340
BF
340
C0
340
C1
340
C2
340
C3
340
C4
340
C5
340
70
340
72
340
73
340
74
340
75
340
76
340
7B
340
7C
340
7D
340
7E
340
7F
340
80
340
77
340
78
340
79
340
85
340
86
340
87
340
88
340
89
340
8A
340
8B
340
8C
340
8D
340
8E
340
8F
340
90
340
91
340
92
340
93
340
94
340
95
340
96
340
97
340
98
340
99
340
9A
340
9B
340
9C
340
9D
340
9E
340
9F
340
A1
340
A2
340
A3
340
A4
340
A5
340
A6
340
A7
340
A8
340
A9
340
AA
340
AB
340
AC
340
AD
340
AE
340
AF
340
B2
340
B3
340
B4
340
B5
340
C6
340
C7
340
C8
340
C9
340
CA
340
CB
340
CC
340
CD
340
CE
340
CF
340
D0
340
D1
340
D2
340
D3
340
D4
340
D5
340
D6
340
D7
340
D8
340
D9
340
DA
340
DB
340
DC
340
DD
340
DE
340
DF
340
E0
340
E1
340
E2
340
E3
340
E4
340
E5
340
E6
340
E7
340
E8
340
E9
340
EA
340
F8
340
103
340
10E
340
119
0
GROUP
5
127
330
18d
100
AcDbGroup
300

70
0
71
1
340
77
340
78
340
79
340
85
340
86
340
87
340
88
340
89
340
8A
340
8B
340
8C
340
8D
340
8E
340
8F
340
90
340
91
340
92
340
93
340
94
340
95
340
96
340
97
340
98
340
99
340
9A
340
9B
340
9C
340
9D
340
9E
340
9F
340
A1
340
A2
340
A3
340
A4
340
A5
340
A6
340
A7
340
A8
340
A9
340
AA
340
AB
340
AC
340
AD
340
AE
340
AF
340
B2
340
B3
340
B4
340
B5
340
C6
340
C7
340
C8
340
C9
340
CA
340
CB
340
CC
340
CD
340
CE
340
CF
340
D0
340
D1
340
D2
340
D3
340
D4
340
D5
340
D6
340
D7
340
D8
340
D9
340
DA
340
DB
340
DC
340
DD
340
DE
340
DF
340
E0
340
E1
340
E2
340
E3
340
E4
340
E5
340
E6
340
E7
340
E8
340
E9
0
GROUP
5
126
330
18d
100
AcDbGroup
300

70
0
71
1
340
70
340
72
340
73
340
74
340
75
340
76
340
7B
340
7C
340
7D
340
7E
340
7F
340
80
0
GROUP
5
124
330
18d
100
AcDbGroup
300

70
0
71
1
340
B6
340
B7
340
B8
340
B9
340
BA
340
BB
340
BC
340
BD
0
GROUP
5
125
330
18d
100
AcDbGroup
300

70
0
71
1
340
BE
340
BF
340
C0
340
C1
340
C2
340
C3
340
C4
340
C5
0
MLINESTYLE
5
18
330
18e
100
AcDbMlineStyle
2
Standard
70
0
3

62
256
51
90
52
90
71
2
49
-0.5
62
256
6
ByLayer
49
0.5
62
256
6
ByLayer
0
RASTERVARIABLES
5
178
330

100
AcDbRasterVariables
90
0
70
1
71
1
72
1
0
ENDSEC
0
EOF
