0
SECTION
2
HEADER
9
$ACADVER
1
AC1015
9
$DWGCODEPAGE
3
ANSI_1252
9
$HANDSEED
5
206
9
$ANGBASE
50
0
9
$ANGDIR
70
0
9
$ATTMODE
70
1
9
$AUNITS
70
0
9
$AUPREC
70
0
9
$CECOLOR
62
256
9
$CELTSCALE
40
1
9
$CELTYPE
6
ByLayer
9
$CELWEIGHT
370
18
9
$CLAYER
8
0
9
$CMLJUST
70
0
9
$CMLSCALE
40
1
9
$CMLSTYLE
2
Standard
9
$DIMSTYLE
2
Standard
9
$TEXTSIZE
40
0.2
9
$TEXTSTYLE
7
Standard
9
$LUNITS
70
2
9
$LUPREC
70
4
9
$EXTNAMES
290
1
9
$INSUNITS
70
4
9
$LTSCALE
40
1
9
$LWDISPLAY
290
1
9
$PDMODE
70
0
9
$PDSIZE
40
0
9
$PLINEGEN
70
0
0
ENDSEC
0
SECTION
2
CLASSES
0
CLASS
1
RASTERVARIABLES
2
AcDbRasterVariables
3
ISM
90
0
280
0
281
0
0
ENDSEC
0
SECTION
2
TABLES
0
TABLE
2
VPORT
5
1fc
100
AcDbSymbolTable
0
VPORT
5
1
100
AcDbSymbolTableRecord
100
AcDbViewportTableRecord
2
*Active
70
0
10
0
20
0
11
1
21
1
12
-1
22
1
13
0
23
0
14
0.5
24
0.5
15
10
25
10
16
0
26
0
36
1
17
0
27
0
37
0
0
ENDTAB
0
TABLE
2
LTYPE
5
1fd
100
AcDbSymbolTable
0
LTYPE
5
14
100
AcDbSymbolTableRecord
100
AcDbLinetypeTableRecord
70
0
2
ByBlock
3

72
65
73
0
40
0
0
LTYPE
5
15
100
AcDbSymbolTableRecord
100
AcDbLinetypeTableRecord
70
0
2
ByLayer
3

72
65
73
0
40
0
0
LTYPE
5
16
100
AcDbSymbolTableRecord
100
AcDbLinetypeTableRecord
70
0
2
CONTINUOUS
3
Solid line
72
65
73
0
40
0
0
LTYPE
5
6A
100
AcDbSymbolTableRecord
100
AcDbLinetypeTableRecord
70
0
2
CENTER
3
____ _ ____ _ ____ _ ____
72
65
73
4
40
47.5
49
22
74
0
49
-8.5
74
0
49
8.5
74
0
49
-8.5
74
0
0
LTYPE
5
6B
100
AcDbSymbolTableRecord
100
AcDbLinetypeTableRecord
70
0
2
DASHED
3
__ __ __ __ __ __ __ __ __
72
65
73
2
40
25.72
49
12.86
74
0
49
-12.86
74
0
0
ENDTAB
0
TABLE
2
LAYER
5
1fe
100
AcDbSymbolTable
0
LAYER
5
10
100
AcDbSymbolTableRecord
100
AcDbLayerTableRecord
2
0
70
0
62
7
6
CONTINUOUS
290
1
370
-3
390
0
0
LAYER
5
6D
100
AcDbSymbolTableRecord
100
AcDbLayerTableRecord
2
80
70
0
62
-6
6
CONTINUOUS
290
1
370
-3
390
0
0
LAYER
5
6F
100
AcDbSymbolTableRecord
100
AcDbLayerTableRecord
2
81
70
0
62
-3
6
CONTINUOUS
290
1
370
-3
390
0
0
LAYER
5
71
100
AcDbSymbolTableRecord
100
AcDbLayerTableRecord
2
1
70
0
62
4
6
CONTINUOUS
290
1
370
-3
390
0
0
LAYER
5
DE
100
AcDbSymbolTableRecord
100
AcDbLayerTableRecord
2
4
70
0
62
-2
6
CENTER
290
1
370
-3
390
0
0
LAYER
5
138
100
AcDbSymbolTableRecord
100
AcDbLayerTableRecord
2
2
70
0
62
7
6
CONTINUOUS
290
1
370
-3
390
0
0
LAYER
5
1e5
100
AcDbSymbolTableRecord
100
AcDbLayerTableRecord
2
SK1
70
0
62
4
6
CONTINUOUS
290
1
370
-3
390
0
0
LAYER
5
1e6
100
AcDbSymbolTableRecord
100
AcDbLayerTableRecord
2
SK4
70
0
62
2
6
CENTER
290
1
370
-3
390
0
0
LAYER
5
1e7
100
AcDbSymbolTableRecord
100
AcDbLayerTableRecord
2
SK3
70
0
62
1
6
DASHED
290
1
370
-3
390
0
0
LAYER
5
1e8
100
AcDbSymbolTableRecord
100
AcDbLayerTableRecord
2
SK6
70
0
62
5
6
CONTINUOUS
290
1
370
-3
390
0
0
LAYER
5
1e9
100
AcDbSymbolTableRecord
100
AcDbLayerTableRecord
2
SK2
70
0
62
7
6
CONTINUOUS
290
1
370
-3
390
0
0
ENDTAB
0
TABLE
2
STYLE
5
1ff
100
AcDbSymbolTable
0
STYLE
5
11
100
AcDbSymbolTableRecord
100
AcDbTextStyleTableRecord
2
Standard
3
txt
70
0
71
0
40
0
41
1
42
0
50
0
0
STYLE
5
11D
100
AcDbSymbolTableRecord
100
AcDbTextStyleTableRecord
2
iso_b_vert
3
simplex.shx
70
0
71
0
40
0
41
1
42
0
50
0
0
STYLE
5
11E
100
AcDbSymbolTableRecord
100
AcDbTextStyleTableRecord
2
DWGDirectTextStyle
3
simplex
70
0
71
0
40
0
41
1
42
0
50
0
0
ENDTAB
0
TABLE
2
DIMSTYLE
5
200
100
AcDbSymbolTable
100
AcDbDimStyleTable
0
DIMSTYLE
105
27
100
AcDbSymbolTableRecord
100
AcDbDimStyleTableRecord
2
Standard
70
0
3
<>
41
0.18
42
0.0625
44
0.18
140
0.18
147
0.09
73
0
74
0
77
1
271
2
275
0
278
52
280
0
340
11
0
ENDTAB
0
TABLE
2
VIEW
5
201
100
AcDbSymbolTable
0
ENDTAB
0
TABLE
2
UCS
5
202
100
AcDbSymbolTable
0
ENDTAB
0
TABLE
2
APPID
5
203
100
AcDbSymbolTable
0
APPID
5
12
100
AcDbSymbolTableRecord
100
AcDbRegAppTableRecord
2
ACAD
70
0
0
ENDTAB
0
TABLE
2
BLOCK_RECORD
5
204
100
AcDbSymbolTable
0
BLOCK_RECORD
5
1F
100
AcDbSymbolTableRecord
100
AcDbBlockTableRecord
2
*Model_Space
340
0
70
0
0
BLOCK_RECORD
5
1B
100
AcDbSymbolTableRecord
100
AcDbBlockTableRecord
2
*Paper_Space
340
0
70
0
0
BLOCK_RECORD
5
23
100
AcDbSymbolTableRecord
100
AcDbBlockTableRecord
2
*Paper_Space0
340
0
70
0
0
BLOCK_RECORD
5
120
100
AcDbSymbolTableRecord
100
AcDbBlockTableRecord
2
DimnDraft3D1
340
0
70
0
0
BLOCK_RECORD
5
12F
100
AcDbSymbolTableRecord
100
AcDbBlockTableRecord
2
_CLOSED
340
0
70
0
0
BLOCK_RECORD
5
136
100
AcDbSymbolTableRecord
100
AcDbBlockTableRecord
2
DimnDraft3D2
340
0
70
0
0
BLOCK_RECORD
5
145
100
AcDbSymbolTableRecord
100
AcDbBlockTableRecord
2
DimnDraft3D3
340
0
70
0
0
BLOCK_RECORD
5
153
100
AcDbSymbolTableRecord
100
AcDbBlockTableRecord
2
DimnDraft3D4
340
0
70
0
0
BLOCK_RECORD
5
161
100
AcDbSymbolTableRecord
100
AcDbBlockTableRecord
2
DimnDraft3D5
340
0
70
0
0
BLOCK_RECORD
5
16F
100
AcDbSymbolTableRecord
100
AcDbBlockTableRecord
2
DimnDraft3D6
340
0
70
0
0
BLOCK_RECORD
5
17D
100
AcDbSymbolTableRecord
100
AcDbBlockTableRecord
2
DimnDraft3D7
340
0
70
0
0
ENDTAB
0
ENDSEC
0
SECTION
2
BLOCKS
0
BLOCK
5
20
100
AcDbEntity
8
0
100
AcDbBlockBegin
2
*Model_Space
70
0
10
0
20
0
30
0
3
*Model_Space
0
ENDBLK
5
21
100
AcDbEntity
8
0
100
AcDbBlockEnd
0
BLOCK
5
1C
100
AcDbEntity
8
0
100
AcDbBlockBegin
2
*Paper_Space
70
0
10
0
20
0
30
0
3
*Paper_Space
0
ENDBLK
5
1D
100
AcDbEntity
8
0
100
AcDbBlockEnd
0
BLOCK
5
24
100
AcDbEntity
8
0
100
AcDbBlockBegin
2
*Paper_Space0
70
0
10
0
20
0
30
0
3
*Paper_Space0
0
ENDBLK
5
25
100
AcDbEntity
8
0
100
AcDbBlockEnd
0
BLOCK
5
12C
100
AcDbEntity
8
0
100
AcDbBlockBegin
2
DimnDraft3D1
70
0
10
0
20
0
30
0
3
DimnDraft3D1
0
MTEXT
5
121
100
AcDbEntity
8
SK2
62
256
6
ByLayer
370
18
48
1
60
0
100
AcDbMText
10
87.271053
20
-37.835149
30
0
210
0
220
0
230
1
1
\W0.6255;122
40
3
41
0
44
1.084337
50
0
71
7
72
5
7
iso_b_vert
0
LINE
5
123
100
AcDbEntity
8
SK2
62
256
6
ByLayer
370
13
48
1
60
0
100
AcDbLine
10
150
20
15.802906
30
0
11
150
21
-41.585149
31
0
39
0
210
0
220
0
230
1
0
LINE
5
124
100
AcDbEntity
8
SK2
62
256
6
ByLayer
370
13
48
1
60
0
100
AcDbLine
10
28
20
-26.75
30
0
11
28
21
-41.585149
31
0
39
0
210
0
220
0
230
1
0
LINE
5
125
100
AcDbEntity
8
SK2
62
256
6
ByLayer
370
13
48
1
60
0
100
AcDbLine
10
150
20
-38.585149
30
0
11
28
21
-38.585149
31
0
39
0
210
0
220
0
230
1
0
LINE
5
126
100
AcDbEntity
8
SK2
62
256
6
ByLayer
370
13
48
1
60
0
100
AcDbLine
10
150
20
-38.585149
30
0
11
147.000002
21
-39.085149
31
0
39
0
210
0
220
0
230
1
0
LINE
5
127
100
AcDbEntity
8
SK2
62
256
6
ByLayer
370
13
48
1
60
0
100
AcDbLine
10
150
20
-38.585149
30
0
11
146.999998
21
-38.085149
31
0
39
0
210
0
220
0
230
1
0
LINE
5
128
100
AcDbEntity
8
SK2
62
256
6
ByLayer
370
13
48
1
60
0
100
AcDbLine
10
147.000002
20
-39.085149
30
0
11
146.999998
21
-38.085149
31
0
39
0
210
0
220
0
230
1
0
LINE
5
129
100
AcDbEntity
8
SK2
62
256
6
ByLayer
370
13
48
1
60
0
100
AcDbLine
10
28
20
-38.585149
30
0
11
30.999998
21
-38.085149
31
0
39
0
210
0
220
0
230
1
0
LINE
5
12A
100
AcDbEntity
8
SK2
62
256
6
ByLayer
370
13
48
1
60
0
100
AcDbLine
10
28
20
-38.585149
30
0
11
31.000002
21
-39.085149
31
0
39
0
210
0
220
0
230
1
0
LINE
5
12B
100
AcDbEntity
8
SK2
62
256
6
ByLayer
370
13
48
1
60
0
100
AcDbLine
10
30.999998
20
-38.085149
30
0
11
31.000002
21
-39.085149
31
0
39
0
210
0
220
0
230
1
0
ENDBLK
5
12D
100
AcDbEntity
8
0
100
AcDbBlockEnd
0
BLOCK
5
130
100
AcDbEntity
8
0
100
AcDbBlockBegin
2
_CLOSED
70
0
10
0
20
0
30
0
3
_CLOSED
0
LINE
5
132
100
AcDbEntity
8
0
62
256
6
ByLayer
370
-2
48
1
60
0
100
AcDbLine
10
-1
20
0.166667
30
0
11
0
21
0
31
0
39
0
210
0
220
0
230
1
0
LINE
5
133
100
AcDbEntity
8
0
62
256
6
ByLayer
370
-2
48
1
60
0
100
AcDbLine
10
0
20
0
30
0
11
-1
21
-0.166667
31
0
39
0
210
0
220
0
230
1
0
LINE
5
134
100
AcDbEntity
8
0
62
256
6
ByLayer
370
-2
48
1
60
0
100
AcDbLine
10
-1
20
0.166667
30
0
11
-1
21
-0.166667
31
0
39
0
210
0
220
0
230
1
0
LINE
5
135
100
AcDbEntity
8
0
62
256
6
ByLayer
370
-2
48
1
60
0
100
AcDbLine
10
0
20
0
30
0
11
-1
21
0
31
0
39
0
210
0
220
0
230
1
0
ENDBLK
5
131
100
AcDbEntity
8
0
100
AcDbBlockEnd
0
BLOCK
5
142
100
AcDbEntity
8
0
100
AcDbBlockBegin
2
DimnDraft3D2
70
0
10
0
20
0
30
0
3
DimnDraft3D2
0
MTEXT
5
137
100
AcDbEntity
8
2
62
256
6
ByLayer
370
18
48
1
60
0
100
AcDbMText
10
73.244185
20
54.532803
30
0
210
0
220
0
230
1
1
\W0.6255;150
40
3
41
0
44
1.084337
50
0
71
7
72
5
7
iso_b_vert
0
LINE
5
139
100
AcDbEntity
8
2
62
256
6
ByLayer
370
13
48
1
60
0
100
AcDbLine
10
0
20
26.2
30
0
11
0
21
56.782803
31
0
39
0
210
0
220
0
230
1
0
LINE
5
13A
100
AcDbEntity
8
2
62
256
6
ByLayer
370
13
48
1
60
0
100
AcDbLine
10
149.946265
20
31.415564
30
0
11
149.946265
21
56.782803
31
0
39
0
210
0
220
0
230
1
0
LINE
5
13B
100
AcDbEntity
8
2
62
256
6
ByLayer
370
13
48
1
60
0
100
AcDbLine
10
0
20
53.782803
30
0
11
149.946265
21
53.782803
31
0
39
0
210
0
220
0
230
1
0
LINE
5
13C
100
AcDbEntity
8
2
62
256
6
ByLayer
370
13
48
1
60
0
100
AcDbLine
10
0
20
53.782803
30
0
11
2.999998
21
54.311784
31
0
39
0
210
0
220
0
230
1
0
LINE
5
13D
100
AcDbEntity
8
2
62
256
6
ByLayer
370
13
48
1
60
0
100
AcDbLine
10
0
20
53.782803
30
0
11
3.000002
21
53.253822
31
0
39
0
210
0
220
0
230
1
0
LINE
5
13E
100
AcDbEntity
8
2
62
256
6
ByLayer
370
13
48
1
60
0
100
AcDbLine
10
2.999998
20
54.311784
30
0
11
3.000002
21
53.253822
31
0
39
0
210
0
220
0
230
1
0
LINE
5
13F
100
AcDbEntity
8
2
62
256
6
ByLayer
370
13
48
1
60
0
100
AcDbLine
10
149.946265
20
53.782803
30
0
11
146.946267
21
53.253822
31
0
39
0
210
0
220
0
230
1
0
LINE
5
140
100
AcDbEntity
8
2
62
256
6
ByLayer
370
13
48
1
60
0
100
AcDbLine
10
149.946265
20
53.782803
30
0
11
146.946264
21
54.311784
31
0
39
0
210
0
220
0
230
1
0
LINE
5
141
100
AcDbEntity
8
2
62
256
6
ByLayer
370
13
48
1
60
0
100
AcDbLine
10
146.946267
20
53.253822
30
0
11
146.946264
21
54.311784
31
0
39
0
210
0
220
0
230
1
0
ENDBLK
5
143
100
AcDbEntity
8
0
100
AcDbBlockEnd
0
BLOCK
5
150
100
AcDbEntity
8
0
100
AcDbBlockBegin
2
DimnDraft3D3
70
0
10
0
20
0
30
0
3
DimnDraft3D3
0
MTEXT
5
146
100
AcDbEntity
8
SK2
62
256
6
ByLayer
370
18
48
1
60
0
100
AcDbMText
10
-40.837223
20
-3.323684
30
0
210
0
220
0
230
1
1
\W0.8132;%%c 50
40
3
41
0
44
1.084337
50
90
71
7
72
5
7
iso_b_vert
0
LINE
5
147
100
AcDbEntity
8
SK2
62
256
6
ByLayer
370
13
48
1
60
0
100
AcDbLine
10
-1.2
20
-25
30
0
11
-43.087223
21
-25
31
0
39
0
210
0
220
0
230
1
0
LINE
5
148
100
AcDbEntity
8
SK2
62
256
6
ByLayer
370
13
48
1
60
0
100
AcDbLine
10
-1.2
20
25
30
0
11
-43.087223
21
25
31
0
39
0
210
0
220
0
230
1
0
LINE
5
149
100
AcDbEntity
8
SK2
62
256
6
ByLayer
370
13
48
1
60
0
100
AcDbLine
10
-40.087223
20
-25
30
0
11
-40.087223
21
25
31
0
39
0
210
0
220
0
230
1
0
LINE
5
14A
100
AcDbEntity
8
SK2
62
256
6
ByLayer
370
13
48
1
60
0
100
AcDbLine
10
-40.087223
20
-25
30
0
11
-40.616204
21
-22.000002
31
0
39
0
210
0
220
0
230
1
0
LINE
5
14B
100
AcDbEntity
8
SK2
62
256
6
ByLayer
370
13
48
1
60
0
100
AcDbLine
10
-40.087223
20
-25
30
0
11
-39.558242
21
-21.999998
31
0
39
0
210
0
220
0
230
1
0
LINE
5
14C
100
AcDbEntity
8
SK2
62
256
6
ByLayer
370
13
48
1
60
0
100
AcDbLine
10
-40.616204
20
-22.000002
30
0
11
-39.558242
21
-21.999998
31
0
39
0
210
0
220
0
230
1
0
LINE
5
14D
100
AcDbEntity
8
SK2
62
256
6
ByLayer
370
13
48
1
60
0
100
AcDbLine
10
-40.087223
20
25
30
0
11
-39.558242
21
22.000002
31
0
39
0
210
0
220
0
230
1
0
LINE
5
14E
100
AcDbEntity
8
SK2
62
256
6
ByLayer
370
13
48
1
60
0
100
AcDbLine
10
-40.087223
20
25
30
0
11
-40.616204
21
21.999998
31
0
39
0
210
0
220
0
230
1
0
LINE
5
14F
100
AcDbEntity
8
SK2
62
256
6
ByLayer
370
13
48
1
60
0
100
AcDbLine
10
-39.558242
20
22.000002
30
0
11
-40.616204
21
21.999998
31
0
39
0
210
0
220
0
230
1
0
ENDBLK
5
151
100
AcDbEntity
8
0
100
AcDbBlockEnd
0
BLOCK
5
15E
100
AcDbEntity
8
0
100
AcDbBlockBegin
2
DimnDraft3D4
70
0
10
0
20
0
30
0
3
DimnDraft3D4
0
MTEXT
5
154
100
AcDbEntity
8
SK2
62
256
6
ByLayer
370
18
48
1
60
0
100
AcDbMText
10
9.097499
20
44.400807
30
0
210
0
220
0
230
1
1
\W0.6337;20
40
3
41
0
44
1.084337
50
0
71
7
72
5
7
iso_b_vert
0
LINE
5
155
100
AcDbEntity
8
SK2
62
256
6
ByLayer
370
13
48
1
60
0
100
AcDbLine
10
0
20
26.2
30
0
11
0
21
46.650807
31
0
39
0
210
0
220
0
230
1
0
LINE
5
156
100
AcDbEntity
8
SK2
62
256
6
ByLayer
370
13
48
1
60
0
100
AcDbLine
10
20.279208
20
26.5
30
0
11
20.279208
21
46.650807
31
0
39
0
210
0
220
0
230
1
0
LINE
5
157
100
AcDbEntity
8
SK2
62
256
6
ByLayer
370
13
48
1
60
0
100
AcDbLine
10
0
20
43.650807
30
0
11
20.279208
21
43.650807
31
0
39
0
210
0
220
0
230
1
0
LINE
5
158
100
AcDbEntity
8
SK2
62
256
6
ByLayer
370
13
48
1
60
0
100
AcDbLine
10
0
20
43.650807
30
0
11
2.999998
21
44.179788
31
0
39
0
210
0
220
0
230
1
0
LINE
5
159
100
AcDbEntity
8
SK2
62
256
6
ByLayer
370
13
48
1
60
0
100
AcDbLine
10
0
20
43.650807
30
0
11
3.000002
21
43.121826
31
0
39
0
210
0
220
0
230
1
0
LINE
5
15A
100
AcDbEntity
8
SK2
62
256
6
ByLayer
370
13
48
1
60
0
100
AcDbLine
10
2.999998
20
44.179788
30
0
11
3.000002
21
43.121826
31
0
39
0
210
0
220
0
230
1
0
LINE
5
15B
100
AcDbEntity
8
SK2
62
256
6
ByLayer
370
13
48
1
60
0
100
AcDbLine
10
20.279208
20
43.650807
30
0
11
17.27921
21
43.121826
31
0
39
0
210
0
220
0
230
1
0
LINE
5
15C
100
AcDbEntity
8
SK2
62
256
6
ByLayer
370
13
48
1
60
0
100
AcDbLine
10
20.279208
20
43.650807
30
0
11
17.279206
21
44.179788
31
0
39
0
210
0
220
0
230
1
0
LINE
5
15D
100
AcDbEntity
8
SK2
62
256
6
ByLayer
370
13
48
1
60
0
100
AcDbLine
10
17.27921
20
43.121826
30
0
11
17.279206
21
44.179788
31
0
39
0
210
0
220
0
230
1
0
ENDBLK
5
15F
100
AcDbEntity
8
0
100
AcDbBlockEnd
0
BLOCK
5
16C
100
AcDbEntity
8
0
100
AcDbBlockBegin
2
DimnDraft3D5
70
0
10
0
20
0
30
0
3
DimnDraft3D5
0
MTEXT
5
162
100
AcDbEntity
8
SK2
62
256
6
ByLayer
370
18
48
1
60
0
100
AcDbMText
10
185.074632
20
14.832895
30
0
210
0
220
0
230
1
1
\W0.5560;31
40
3
41
0
44
1.084337
50
90
71
7
72
5
7
iso_b_vert
0
LINE
5
163
100
AcDbEntity
8
SK2
62
256
6
ByLayer
370
13
48
1
60
0
100
AcDbLine
10
155.5
20
0
30
0
11
188.824632
21
0
31
0
39
0
210
0
220
0
230
1
0
LINE
5
164
100
AcDbEntity
8
SK2
62
256
6
ByLayer
370
13
48
1
60
0
100
AcDbLine
10
150.5
20
31
30
0
11
188.824632
21
31
31
0
39
0
210
0
220
0
230
1
0
LINE
5
165
100
AcDbEntity
8
SK2
62
256
6
ByLayer
370
13
48
1
60
0
100
AcDbLine
10
185.824632
20
0
30
0
11
185.824632
21
31
31
0
39
0
210
0
220
0
230
1
0
LINE
5
166
100
AcDbEntity
8
SK2
62
256
6
ByLayer
370
13
48
1
60
0
100
AcDbLine
10
185.824632
20
0
30
0
11
185.295651
21
2.999998
31
0
39
0
210
0
220
0
230
1
0
LINE
5
167
100
AcDbEntity
8
SK2
62
256
6
ByLayer
370
13
48
1
60
0
100
AcDbLine
10
185.824632
20
0
30
0
11
186.353613
21
3.000002
31
0
39
0
210
0
220
0
230
1
0
LINE
5
168
100
AcDbEntity
8
SK2
62
256
6
ByLayer
370
13
48
1
60
0
100
AcDbLine
10
185.295651
20
2.999998
30
0
11
186.353613
21
3.000002
31
0
39
0
210
0
220
0
230
1
0
LINE
5
169
100
AcDbEntity
8
SK2
62
256
6
ByLayer
370
13
48
1
60
0
100
AcDbLine
10
185.824632
20
31
30
0
11
186.353613
21
28.000002
31
0
39
0
210
0
220
0
230
1
0
LINE
5
16A
100
AcDbEntity
8
SK2
62
256
6
ByLayer
370
13
48
1
60
0
100
AcDbLine
10
185.824632
20
31
30
0
11
185.295651
21
27.999998
31
0
39
0
210
0
220
0
230
1
0
LINE
5
16B
100
AcDbEntity
8
SK2
62
256
6
ByLayer
370
13
48
1
60
0
100
AcDbLine
10
186.353613
20
28.000002
30
0
11
185.295651
21
27.999998
31
0
39
0
210
0
220
0
230
1
0
ENDBLK
5
16D
100
AcDbEntity
8
0
100
AcDbBlockEnd
0
BLOCK
5
17A
100
AcDbEntity
8
0
100
AcDbBlockBegin
2
DimnDraft3D6
70
0
10
0
20
0
30
0
3
DimnDraft3D6
0
MTEXT
5
170
100
AcDbEntity
8
SK2
62
256
6
ByLayer
370
18
48
1
60
0
100
AcDbMText
10
161.327766
20
11.388694
30
0
210
0
220
0
230
1
1
\W0.6811;7.5
40
3
41
0
44
1.084337
50
90
71
7
72
5
7
iso_b_vert
0
LINE
5
171
100
AcDbEntity
8
SK2
62
256
6
ByLayer
370
13
48
1
60
0
100
AcDbLine
10
155.5
20
0
30
0
11
165.077766
21
0
31
0
39
0
210
0
220
0
230
1
0
LINE
5
172
100
AcDbEntity
8
SK2
62
256
6
ByLayer
370
13
48
1
60
0
100
AcDbLine
10
137.5
20
7.5
30
0
11
165.077766
21
7.5
31
0
39
0
210
0
220
0
230
1
0
LINE
5
173
100
AcDbEntity
8
SK2
62
256
6
ByLayer
370
13
48
1
60
0
100
AcDbLine
10
162.077766
20
0
30
0
11
162.077766
21
15.438694
31
0
39
0
210
0
220
0
230
1
0
LINE
5
174
100
AcDbEntity
8
SK2
62
256
6
ByLayer
370
13
48
1
60
0
100
AcDbLine
10
162.077766
20
0
30
0
11
161.548785
21
2.999998
31
0
39
0
210
0
220
0
230
1
0
LINE
5
175
100
AcDbEntity
8
SK2
62
256
6
ByLayer
370
13
48
1
60
0
100
AcDbLine
10
162.077766
20
0
30
0
11
162.606747
21
3.000002
31
0
39
0
210
0
220
0
230
1
0
LINE
5
176
100
AcDbEntity
8
SK2
62
256
6
ByLayer
370
13
48
1
60
0
100
AcDbLine
10
161.548785
20
2.999998
30
0
11
162.606747
21
3.000002
31
0
39
0
210
0
220
0
230
1
0
LINE
5
177
100
AcDbEntity
8
SK2
62
256
6
ByLayer
370
13
48
1
60
0
100
AcDbLine
10
162.077766
20
7.5
30
0
11
162.606747
21
4.500002
31
0
39
0
210
0
220
0
230
1
0
LINE
5
178
100
AcDbEntity
8
SK2
62
256
6
ByLayer
370
13
48
1
60
0
100
AcDbLine
10
162.077766
20
7.5
30
0
11
161.548785
21
4.499998
31
0
39
0
210
0
220
0
230
1
0
LINE
5
179
100
AcDbEntity
8
SK2
62
256
6
ByLayer
370
13
48
1
60
0
100
AcDbLine
10
162.606747
20
4.500002
30
0
11
161.548785
21
4.499998
31
0
39
0
210
0
220
0
230
1
0
ENDBLK
5
17B
100
AcDbEntity
8
0
100
AcDbBlockEnd
0
BLOCK
5
188
100
AcDbEntity
8
0
100
AcDbBlockBegin
2
DimnDraft3D7
70
0
10
0
20
0
30
0
3
DimnDraft3D7
0
MTEXT
5
17E
100
AcDbEntity
8
SK2
62
256
6
ByLayer
370
18
48
1
60
0
100
AcDbMText
10
173.676136
20
11.957895
30
0
210
0
220
0
230
1
1
\W0.6337;26
40
3
41
0
44
1.084337
50
90
71
7
72
5
7
iso_b_vert
0
LINE
5
17F
100
AcDbEntity
8
SK2
62
256
6
ByLayer
370
13
48
1
60
0
100
AcDbLine
10
155.5
20
0
30
0
11
177.426136
21
0
31
0
39
0
210
0
220
0
230
1
0
LINE
5
180
100
AcDbEntity
8
SK2
62
256
6
ByLayer
370
13
48
1
60
0
100
AcDbLine
10
150.162374
20
26
30
0
11
177.426136
21
26
31
0
39
0
210
0
220
0
230
1
0
LINE
5
181
100
AcDbEntity
8
SK2
62
256
6
ByLayer
370
13
48
1
60
0
100
AcDbLine
10
174.426136
20
0
30
0
11
174.426136
21
26
31
0
39
0
210
0
220
0
230
1
0
LINE
5
182
100
AcDbEntity
8
SK2
62
256
6
ByLayer
370
13
48
1
60
0
100
AcDbLine
10
174.426136
20
0
30
0
11
173.897155
21
2.999998
31
0
39
0
210
0
220
0
230
1
0
LINE
5
183
100
AcDbEntity
8
SK2
62
256
6
ByLayer
370
13
48
1
60
0
100
AcDbLine
10
174.426136
20
0
30
0
11
174.955117
21
3.000002
31
0
39
0
210
0
220
0
230
1
0
LINE
5
184
100
AcDbEntity
8
SK2
62
256
6
ByLayer
370
13
48
1
60
0
100
AcDbLine
10
173.897155
20
2.999998
30
0
11
174.955117
21
3.000002
31
0
39
0
210
0
220
0
230
1
0
LINE
5
185
100
AcDbEntity
8
SK2
62
256
6
ByLayer
370
13
48
1
60
0
100
AcDbLine
10
174.426136
20
26
30
0
11
174.955117
21
23.000002
31
0
39
0
210
0
220
0
230
1
0
LINE
5
186
100
AcDbEntity
8
SK2
62
256
6
ByLayer
370
13
48
1
60
0
100
AcDbLine
10
174.426136
20
26
30
0
11
173.897155
21
22.999998
31
0
39
0
210
0
220
0
230
1
0
LINE
5
187
100
AcDbEntity
8
SK2
62
256
6
ByLayer
370
13
48
1
60
0
100
AcDbLine
10
174.955117
20
23.000002
30
0
11
173.897155
21
22.999998
31
0
39
0
210
0
220
0
230
1
0
ENDBLK
5
189
100
AcDbEntity
8
0
100
AcDbBlockEnd
0
ENDSEC
0
SECTION
2
ENTITIES
0
ARC
5
DF
100
AcDbEntity
8
1
62
256
6
ByLayer
370
18
48
1
60
0
100
AcDbCircle
39
0
10
20.279208
20
-26.2
30
0
40
1.2
210
0
220
0
230
1
100
AcDbArc
50
52.341538
51
90
0
ARC
5
E0
100
AcDbEntity
8
1
62
256
6
ByLayer
370
18
48
1
60
0
100
AcDbCircle
39
0
10
20.279208
20
26.2
30
0
40
1.20000000000001
210
0
220
0
230
1
100
AcDbArc
50
270
51
350.5
0
ARC
5
E1
100
AcDbEntity
8
1
62
256
6
ByLayer
370
18
48
1
60
0
100
AcDbCircle
39
0
10
-48
20
-12.5
30
0
40
20.0000000000003
210
0
220
0
230
-1
100
AcDbArc
50
11.139567
51
90
0
ELLIPSE
5
E2
100
AcDbEntity
8
1
62
256
6
ByLayer
370
18
48
1
60
0
100
AcDbEllipse
10
-1.056258
20
0
30
0
11
11.709272349726
21
-24.6771864409358
31
0
210
0
220
0
230
-1
40
0.341999
41
-1.08183270048933
42
-0.167213071908988
0
ELLIPSE
5
E3
100
AcDbEntity
8
1
62
256
6
ByLayer
370
18
48
1
60
0
100
AcDbEllipse
10
21.056258
20
0
30
0
11
11.7092723497275
21
24.6771864409378
31
0
210
0
220
0
230
-1
40
0.341999
41
-2.97437958168082
42
-2.05975995310053
0
ELLIPSE
5
E4
100
AcDbEntity
8
1
62
256
6
ByLayer
370
18
48
1
60
0
100
AcDbEllipse
10
21.056258
20
0
30
0
11
11.7092723497279
21
24.6771864409382
31
0
210
0
220
0
230
-1
40
0.341999
41
-2.97437958168082
42
-2.05975995310054
0
ELLIPSE
5
E5
100
AcDbEntity
8
1
62
256
6
ByLayer
370
18
48
1
60
0
100
AcDbEllipse
10
-1.056258
20
0
30
0
11
11.7092723497277
21
-24.677186440938
31
0
210
0
220
0
230
-1
40
0.341999
41
-1.08183270048926
42
-0.167213071908975
0
ELLIPSE
5
E6
100
AcDbEntity
8
1
62
256
6
ByLayer
370
18
48
1
60
0
100
AcDbEllipse
10
-1.056258
20
0
30
0
11
11.7092723497278
21
24.6771864409382
31
0
210
0
220
0
230
-1
40
0.341999
41
0.167213071908974
42
1.08183270048925
0
ELLIPSE
5
E7
100
AcDbEntity
8
1
62
256
6
ByLayer
370
18
48
1
60
0
100
AcDbEllipse
10
21.056258
20
0
30
0
11
11.7092723497278
21
-24.6771864409381
31
0
210
0
220
0
230
-1
40
0.341999
41
2.05975995310054
42
2.97437958168082
0
ELLIPSE
5
E8
100
AcDbEntity
8
1
62
256
6
ByLayer
370
18
48
1
60
0
100
AcDbEllipse
10
-1.056258
20
0
30
0
11
11.7092723497274
21
24.6771864409376
31
0
210
0
220
0
230
-1
40
0.341999
41
0.167213071908977
42
1.08183270048927
0
ELLIPSE
5
E9
100
AcDbEntity
8
1
62
256
6
ByLayer
370
18
48
1
60
0
100
AcDbEllipse
10
-1.056258
20
0
30
0
11
11.7092723497281
21
-24.6771864409385
31
0
210
0
220
0
230
-1
40
0.341999
41
-1.08183270048925
42
-0.167213071908972
0
ELLIPSE
5
EA
100
AcDbEntity
8
1
62
256
6
ByLayer
370
18
48
1
60
0
100
AcDbEllipse
10
21.056258
20
0
30
0
11
11.7092723497275
21
24.6771864409378
31
0
210
0
220
0
230
-1
40
0.341999
41
-2.97437958168082
42
-2.05975995310053
0
ELLIPSE
5
EB
100
AcDbEntity
8
1
62
256
6
ByLayer
370
18
48
1
60
0
100
AcDbEllipse
10
161
20
28.729704
30
0
11
15.9999999868713
21
1.61702248680494E-14
31
0
210
0
220
0
230
-1
40
0.267949
41
2.34259491831955
42
2.45136583531069
0
ELLIPSE
5
EC
100
AcDbEntity
8
1
62
256
6
ByLayer
370
18
48
1
60
0
100
AcDbEllipse
10
161.000727
20
73.090173
30
0
11
0.000565918172138964
21
59.7158009674692
31
0
210
0
220
0
230
-1
40
0.267949
41
-2.38357068828317
42
-2.37430115429846
0
ELLIPSE
5
ED
100
AcDbEntity
8
1
62
256
6
ByLayer
370
18
48
1
60
0
100
AcDbEllipse
10
160.99953
20
73.085497
30
0
11
0.000366528653830209
21
-59.7108769657697
31
0
210
0
220
0
230
-1
40
0.267949
41
0.75805295193558
42
0.767322987871039
0
ELLIPSE
5
EE
100
AcDbEntity
8
1
62
256
6
ByLayer
370
18
48
1
60
0
100
AcDbEllipse
10
161
20
28.729704
30
0
11
16.0000000052656
21
1.61702248866394E-14
31
0
210
0
220
0
230
-1
40
0.267949
41
2.34259491841921
42
2.45136583529001
0
ELLIPSE
5
EF
100
AcDbEntity
8
1
62
256
6
ByLayer
370
18
48
1
60
0
100
AcDbEllipse
10
147.186953
20
24
30
0
11
-1.10214571844015E-16
21
1.80000000000001
31
0
210
0
220
0
230
-1
40
0.258819
41
0
42
6.28318530717959
0
ELLIPSE
5
F0
100
AcDbEntity
8
1
62
256
6
ByLayer
370
18
48
1
60
0
100
AcDbEllipse
10
146.993767
20
24
30
0
11
-1.22460635382236E-16
21
1.99999999999998
31
0
210
0
220
0
230
-1
40
0.258819
41
0
42
6.28318530717959
0
POINT
5
6C
100
AcDbEntity
8
80
62
256
6
ByLayer
370
18
48
1
60
0
100
AcDbPoint
10
0
20
0
30
0
39
0
210
0
220
0
230
1
50
360
0
POINT
5
6E
100
AcDbEntity
8
81
62
256
6
ByLayer
370
18
48
1
60
0
100
AcDbPoint
10
150
20
26
30
0
39
0
210
0
220
0
230
1
50
360
0
SPLINE
5
F1
100
AcDbEntity
8
SK1
62
256
6
ByLayer
370
18
48
1
60
0
100
AcDbSpline
70
4
71
5
72
32
73
26
40
0
40
0
40
0
40
0
40
0
40
0
40
0.0260750408027451
40
0.0762512450042157
40
0.126585119734266
40
0.176921752510518
40
0.224945134640736
40
0.272060214585832
40
0.321963433900539
40
0.372156415942602
40
0.421775877046728
40
0.468111634098367
40
0.516549100838921
40
0.566321619362886
40
0.616120398273618
40
0.663450308442289
40
0.708688468081833
40
0.757699212565416
40
0.807183073675633
40
0.856406209346015
40
0.903268333043738
40
0.95106444757236
40
1
40
1
40
1
40
1
40
1
40
1
41
1
10
7.8E-15
20
17.5674741193549
30
-1.342413E-10
41
1
10
7.7E-15
20
17.5658491015492
30
-1.342413E-10
41
1
10
-4.68742531328E-05
20
17.5610970754223
30
-1.342413E-10
41
1
10
-0.0003529479450699
20
17.5532124892603
30
-1.006099E-10
41
1
10
-0.0013063200108575
20
17.5422326530553
30
-5.57477E-11
41
1
10
-0.0034464326863889
20
17.5284021381547
30
-8.9819E-12
41
1
10
-0.0069199098531233
20
17.5134850393177
30
4.5837E-12
41
1
10
-0.0114937322971229
20
17.4988488064191
30
7.2391E-12
41
1
10
-0.0171322524491131
20
17.4846022585389
30
3.6498E-12
41
1
10
-0.0237769004837378
20
17.4708862221267
30
1.7212E-12
41
1
10
-0.0313763303826526
20
17.4578067746447
30
1.049E-13
41
1
10
-0.0399980690235025
20
17.4452426960707
30
-1.647E-13
41
1
10
-0.0495424385076478
20
17.4333417812541
30
-7.16E-14
41
1
10
-0.059912966270694
20
17.4222224250134
30
3.746E-13
41
1
10
-0.0709634229338661
20
17.4120286616695
30
7.767E-13
41
1
10
-0.0827078358146816
20
17.4027383465539
30
3.899E-13
41
1
10
-0.0951706269511532
20
17.3943106889623
30
1.312E-13
41
1
10
-0.108212001560983
20
17.3868406563621
30
-5.21E-14
41
1
10
-0.121709480036142
20
17.3803946747753
30
-1.571E-13
41
1
10
-0.135617267945127
20
17.3750036074844
30
-1.396E-13
41
1
10
-0.15008283192327
20
17.3706376336926
30
-2.44E-14
41
1
10
-0.164892895038318
20
17.367372271711
30
7.502E-13
41
1
10
-0.176868904387297
20
17.365675185514
30
1.5112E-12
41
1
10
-0.185847156910734
20
17.3649194628755
30
2.4887E-12
41
1
10
-0.191908838464224
20
17.364646743344
30
2.4887E-12
41
1
10
-0.194976888856513
20
17.3645685079888
30
2.4887E-12
0
SPLINE
5
F2
100
AcDbEntity
8
SK1
62
256
6
ByLayer
370
18
48
1
60
0
100
AcDbSpline
70
4
71
5
72
32
73
26
40
0
40
0
40
0
40
0
40
0
40
0
40
0.0233772812219856
40
0.0733006885025051
40
0.123402298916871
40
0.173326519875824
40
0.217919811391406
40
0.263700813546951
40
0.313712481286709
40
0.364008710843796
40
0.411711894292236
40
0.455276920006855
40
0.504788066708922
40
0.55537715596226
40
0.605432231511026
40
0.650372817668755
40
0.698525350238747
40
0.749375836143999
40
0.800380500780947
40
0.849786907842095
40
0.898232312675044
40
0.949003518110243
40
1
40
1
40
1
40
1
40
1
40
1
41
1
10
-1.9950399779393
20
17.3237657199537
30
9.7277746E-09
41
1
10
-1.99651944375847
20
17.3237279914326
30
9.7277746E-09
41
1
10
-2.00115948224888
20
17.3236532450085
30
9.7277746E-09
41
1
10
-2.00897297150113
20
17.3237585525074
30
7.3767603E-09
41
1
10
-2.01992112052123
20
17.3244488784195
30
4.0747391E-09
41
1
10
-2.03357719101063
20
17.3262690822194
30
7.05281E-10
41
1
10
-2.04844838583097
20
17.3294453444918
30
-3.101375E-10
41
1
10
-2.06307152427657
20
17.3337534856073
30
-5.058381E-10
41
1
10
-2.07732989618061
20
17.3391587311816
30
-2.49634E-10
41
1
10
-2.09098086043281
20
17.345558184165
30
-9.44894E-11
41
1
10
-2.10403988753524
20
17.3529581828254
30
4.8797E-12
41
1
10
-2.11672098582324
20
17.361476483083
30
1.78316E-11
41
1
10
-2.12876366096949
20
17.3709559510362
30
1.67268E-11
41
1
10
-2.14002511261885
20
17.3812835311775
30
5.684E-12
41
1
10
-2.15033759051207
20
17.392298332063
30
1.5977E-12
41
1
10
-2.15997358405079
20
17.4043102720687
30
-8.959E-13
41
1
10
-2.16874086900171
20
17.4171069815585
30
-6.622E-13
41
1
10
-2.17652388021555
20
17.4305301949557
30
-4.768E-13
41
1
10
-2.18323973430389
20
17.4444373401866
30
-7.88E-14
41
1
10
-2.18894717992229
20
17.4590360519322
30
-6.8E-15
41
1
10
-2.19357616457359
20
17.4742380855993
30
4E-14
41
1
10
-2.19703499033095
20
17.4897926299186
30
8.2E-15
41
1
10
-2.19883011721979
20
17.5023606027698
30
-7.5E-15
41
1
10
-2.19963242067001
20
17.5118807268285
30
-1.2E-15
41
1
10
-2.19991976838985
20
17.5183445687555
30
-1.2E-15
41
1
10
-2.19999999991742
20
17.5215852289488
30
-1.2E-15
0
SPLINE
5
F3
100
AcDbEntity
8
SK1
62
256
6
ByLayer
370
18
48
1
60
0
100
AcDbSpline
70
4
71
5
72
12
73
6
40
0
40
0
40
0
40
0
40
0
40
0
40
1
40
1
40
1
40
1
40
1
40
1
41
1
10
-28.5
20
16.850766966753
30
-1.9E-15
41
1
10
-28.8000513728478
20
16.6748081222762
30
-1.9E-15
41
1
10
-29.1000780597162
20
16.4988071824158
30
-1.9E-15
41
1
10
-29.4000790986357
20
16.322762527523
30
4.239E-13
41
1
10
-29.7000533635117
20
16.1466722591836
30
4.239E-13
41
1
10
-30.0000000005838
20
15.9705349430932
30
4.239E-13
0
SPLINE
5
F4
100
AcDbEntity
8
SK1
62
256
6
ByLayer
370
18
48
1
60
0
100
AcDbSpline
70
4
71
5
72
12
73
6
40
0
40
0
40
0
40
0
40
0
40
0
40
1
40
1
40
1
40
1
40
1
40
1
41
1
10
-2.20000000000002
20
17.521585228927
30
9.7283396E-09
41
1
10
-7.46000158053163
20
17.3874835519686
30
9.7283396E-09
41
1
10
-12.7200023942792
20
17.2533517987279
30
9.7283396E-09
41
1
10
-17.9800024184622
20
17.1191890845694
30
-1.9E-15
41
1
10
-23.240001628995
20
16.9849944750346
30
-1.9E-15
41
1
10
-28.5
20
16.850766966753
30
-1.9E-15
0
SPLINE
5
F5
100
AcDbEntity
8
1
62
256
6
ByLayer
370
18
48
1
60
0
100
AcDbSpline
70
4
71
3
72
22
73
18
40
0
40
0
40
0
40
0
40
0.250000000000002
40
0.250000000000002
40
0.375
40
0.375
40
0.500000000000002
40
0.500000000000002
40
0.625000000000004
40
0.625000000000004
40
0.750000000000006
40
0.750000000000006
40
0.812500000000003
40
0.812500000000003
40
0.875
40
0.875
40
1
40
1
40
1
40
1
41
1
10
11.8943375672974
20
-23.6665017920809
30
0
41
1
10
11.878892303015
20
-23.6860254491252
30
0
41
1
10
11.8604037172646
20
-23.7049589195931
30
0
41
1
10
11.8264575712213
20
-23.7323123198157
30
0
41
1
10
11.8140962699691
20
-23.7412544902042
30
0
41
1
10
11.7867462210777
20
-23.7587312609862
30
0
41
1
10
11.7716842562432
20
-23.7673055542944
30
0
41
1
10
11.7384769785309
20
-23.783725627043
30
0
41
1
10
11.7203772593317
20
-23.7915679133938
30
0
41
1
10
11.6800242532305
20
-23.8062861503817
30
0
41
1
10
11.6579517648703
20
-23.8130866432223
30
0
41
1
10
11.6215461384039
20
-23.8219342456096
30
0
41
1
10
11.6088302857938
20
-23.8246655611125
30
0
41
1
10
11.5819453465865
20
-23.8295906076135
30
0
41
1
10
11.5678144986018
20
-23.8317679461286
30
0
41
1
10
11.5243601613892
20
-23.8370993498304
30
0
41
1
10
11.4930267682388
20
-23.8391299750505
30
0
41
1
10
11.4613248654053
20
-23.8391299750505
30
0
0
SPLINE
5
F6
100
AcDbEntity
8
1
62
256
6
ByLayer
370
18
48
1
60
0
100
AcDbSpline
70
4
71
3
72
20
73
16
40
0
40
0
40
0
40
0
40
0.0625000000000023
40
0.0625000000000023
40
0.125000000000005
40
0.125000000000005
40
0.250000000000003
40
0.250000000000003
40
0.375000000000001
40
0.375000000000001
40
0.499999999999999
40
0.499999999999999
40
0.749999999999999
40
0.749999999999999
40
1
40
1
40
1
40
1
41
1
10
11.4613248654052
20
-7.52966679426502
30
0
41
1
10
11.4772013120199
20
-7.52966679426502
30
0
41
1
10
11.4927843117433
20
-7.53122440152945
30
0
41
1
10
11.523415878742
20
-7.53717584664553
30
0
41
1
10
11.538594003026
20
-7.54162522662258
30
0
41
1
10
11.5824040005111
20
-7.55857361750103
30
0
41
1
10
11.6089650834003
20
-7.57431556968107
30
0
41
1
10
11.6582924559949
20
-7.6119075068626
30
0
41
1
10
11.6801688454703
20
-7.633073252412
30
0
41
1
10
11.7202459771561
20
-7.67851551807123
30
0
41
1
10
11.7385100074111
20
-7.70297658390785
30
0
41
1
10
11.7882603826481
20
-7.77866338250453
30
0
41
1
10
11.8148780607233
20
-7.83191947486044
30
0
41
1
10
11.8602443227467
20
-7.94172327888187
30
0
41
1
10
11.8788862370738
20
-7.99846916820705
30
0
41
1
10
11.8943375672976
20
-8.0558483678277
30
0
0
SPLINE
5
F7
100
AcDbEntity
8
1
62
256
6
ByLayer
370
18
48
1
60
0
100
AcDbSpline
70
4
71
3
72
22
73
18
40
0
40
0
40
0
40
0
40
0.249999999999998
40
0.249999999999998
40
0.375000000000001
40
0.375000000000001
40
0.500000000000004
40
0.500000000000004
40
0.625000000000007
40
0.625000000000007
40
0.75000000000001
40
0.75000000000001
40
0.812500000000007
40
0.812500000000007
40
0.875000000000005
40
0.875000000000005
40
1
40
1
40
1
40
1
41
1
10
8.1056624327026
20
-8.05584836782775
30
0
41
1
10
8.12110769698501
20
-7.99849169434911
30
0
41
1
10
8.13959628273541
20
-7.94218253951255
30
0
41
1
10
8.17354242877871
20
-7.85991012495418
30
0
41
1
10
8.18590373003087
20
-7.83285506058491
30
0
41
1
10
8.21325377892234
20
-7.7796832864204
30
0
41
1
10
8.22831574375679
20
-7.75344388356993
30
0
41
1
10
8.26152302146913
20
-7.70292805784925
30
0
41
1
10
8.27962274066833
20
-7.6786635375118
30
0
41
1
10
8.3199757467695
20
-7.63291014136058
30
0
41
1
10
8.34204823512973
20
-7.61165433162092
30
0
41
1
10
8.37845386159613
20
-7.58390025536192
30
0
41
1
10
8.39116971420621
20
-7.57531366225014
30
0
41
1
10
8.41805465341352
20
-7.55980672066907
30
0
41
1
10
8.43218550139821
20
-7.55293791940397
30
0
41
1
10
8.47563983861081
20
-7.53610198950839
30
0
41
1
10
8.50697323176118
20
-7.52966679426473
30
0
41
1
10
8.53867513459475
20
-7.52966679426472
30
0
0
SPLINE
5
F8
100
AcDbEntity
8
1
62
256
6
ByLayer
370
18
48
1
60
0
100
AcDbSpline
70
4
71
3
72
20
73
16
40
0
40
0
40
0
40
0
40
0.0624999999999959
40
0.0624999999999959
40
0.124999999999992
40
0.124999999999992
40
0.249999999999993
40
0.249999999999993
40
0.374999999999994
40
0.374999999999994
40
0.499999999999995
40
0.499999999999995
40
0.749999999999997
40
0.749999999999997
40
1
40
1
40
1
40
1
41
1
10
8.53867513459481
20
-23.8391299750503
30
0
41
1
10
8.5227986879801
20
-23.8391299750503
30
0
41
1
10
8.50721568825676
20
-23.8386381480423
30
0
41
1
10
8.47658412125805
20
-23.8367571199657
30
0
41
1
10
8.46140599697398
20
-23.8353503028192
30
0
41
1
10
8.41759599948894
20
-23.8299833264009
30
0
41
1
10
8.39103491659968
20
-23.824989671385
30
0
41
1
10
8.34170754400515
20
-23.8130059693791
30
0
41
1
10
8.3198311545297
20
-23.8062336877526
30
0
41
1
10
8.27975402284388
20
-23.7916155212569
30
0
41
1
10
8.26148999258894
20
-23.7837098766637
30
0
41
1
10
8.21173961735187
20
-23.7591079584198
30
0
41
1
10
8.18512193927674
20
-23.7416171457992
30
0
41
1
10
8.13975567725327
20
-23.7051129235882
30
0
41
1
10
8.12111376292619
20
-23.6860331168061
30
0
41
1
10
8.10566243270245
20
-23.6665017920809
30
0
0
SPLINE
5
F9
100
AcDbEntity
8
1
62
256
6
ByLayer
370
18
48
1
60
0
100
AcDbSpline
70
4
71
3
72
22
73
18
40
0
40
0
40
0
40
0
40
0.249999999999994
40
0.249999999999994
40
0.374999999999996
40
0.374999999999996
40
0.499999999999994
40
0.499999999999994
40
0.624999999999993
40
0.624999999999993
40
0.749999999999991
40
0.749999999999991
40
0.812499999999992
40
0.812499999999992
40
0.874999999999992
40
0.874999999999992
40
1
40
1
40
1
40
1
41
1
10
8.1056624327026
20
-23.6665017920809
30
0
41
1
10
8.12110769698501
20
-23.6860254491252
30
0
41
1
10
8.13959628273541
20
-23.7049589195931
30
0
41
1
10
8.1735424287787
20
-23.7323123198157
30
0
41
1
10
8.18590373003087
20
-23.7412544902042
30
0
41
1
10
8.21325377892235
20
-23.7587312609862
30
0
41
1
10
8.2283157437568
20
-23.7673055542944
30
0
41
1
10
8.26152302146912
20
-23.7837256270429
30
0
41
1
10
8.27962274066833
20
-23.7915679133938
30
0
41
1
10
8.3199757467695
20
-23.8062861503817
30
0
41
1
10
8.34204823512973
20
-23.8130866432223
30
0
41
1
10
8.37845386159614
20
-23.8219342456096
30
0
41
1
10
8.39116971420621
20
-23.8246655611125
30
0
41
1
10
8.41805465341353
20
-23.8295906076135
30
0
41
1
10
8.43218550139822
20
-23.8317679461286
30
0
41
1
10
8.47563983861081
20
-23.8370993498305
30
0
41
1
10
8.50697323176119
20
-23.8391299750505
30
0
41
1
10
8.53867513459475
20
-23.8391299750505
30
0
0
SPLINE
5
FA
100
AcDbEntity
8
1
62
256
6
ByLayer
370
18
48
1
60
0
100
AcDbSpline
70
4
71
3
72
20
73
16
40
0
40
0
40
0
40
0
40
0.0624999999999964
40
0.0624999999999964
40
0.124999999999993
40
0.124999999999993
40
0.249999999999994
40
0.249999999999994
40
0.374999999999994
40
0.374999999999994
40
0.499999999999995
40
0.499999999999995
40
0.749999999999998
40
0.749999999999998
40
1
40
1
40
1
40
1
41
1
10
8.53867513459481
20
-7.52966679426502
30
0
41
1
10
8.5227986879801
20
-7.52966679426502
30
0
41
1
10
8.50721568825676
20
-7.53122440152946
30
0
41
1
10
8.47658412125805
20
-7.53717584664554
30
0
41
1
10
8.46140599697397
20
-7.54162522662259
30
0
41
1
10
8.41759599948893
20
-7.55857361750103
30
0
41
1
10
8.39103491659968
20
-7.57431556968108
30
0
41
1
10
8.34170754400515
20
-7.6119075068626
30
0
41
1
10
8.3198311545297
20
-7.633073252412
30
0
41
1
10
8.27975402284388
20
-7.67851551807124
30
0
41
1
10
8.26148999258894
20
-7.70297658390786
30
0
41
1
10
8.21173961735187
20
-7.77866338250453
30
0
41
1
10
8.18512193927674
20
-7.83191947486045
30
0
41
1
10
8.13975567725327
20
-7.94172327888187
30
0
41
1
10
8.12111376292619
20
-7.99846916820705
30
0
41
1
10
8.10566243270245
20
-8.0558483678277
30
0
0
SPLINE
5
FB
100
AcDbEntity
8
1
62
256
6
ByLayer
370
18
48
1
60
0
100
AcDbSpline
70
4
71
3
72
22
73
18
40
0
40
0
40
0
40
0
40
0.249999999999996
40
0.249999999999996
40
0.374999999999996
40
0.374999999999996
40
0.499999999999996
40
0.499999999999996
40
0.624999999999996
40
0.624999999999996
40
0.749999999999996
40
0.749999999999996
40
0.812499999999998
40
0.812499999999998
40
0.875000000000001
40
0.875000000000001
40
1
40
1
40
1
40
1
41
1
10
11.8943375672974
20
-8.05584836782774
30
0
41
1
10
11.878892303015
20
-7.99849169434911
30
0
41
1
10
11.8604037172646
20
-7.94218253951253
30
0
41
1
10
11.8264575712213
20
-7.85991012495416
30
0
41
1
10
11.8140962699691
20
-7.83285506058489
30
0
41
1
10
11.7867462210777
20
-7.77968328642038
30
0
41
1
10
11.7716842562432
20
-7.75344388356991
30
0
41
1
10
11.7384769785309
20
-7.70292805784923
30
0
41
1
10
11.7203772593317
20
-7.67866353751178
30
0
41
1
10
11.6800242532305
20
-7.63291014136056
30
0
41
1
10
11.6579517648703
20
-7.61165433162091
30
0
41
1
10
11.6215461384039
20
-7.5839002553619
30
0
41
1
10
11.6088302857938
20
-7.57531366225013
30
0
41
1
10
11.5819453465865
20
-7.55980672066906
30
0
41
1
10
11.5678144986018
20
-7.55293791940395
30
0
41
1
10
11.5243601613892
20
-7.53610198950837
30
0
41
1
10
11.4930267682388
20
-7.52966679426472
30
0
41
1
10
11.4613248654053
20
-7.52966679426471
30
0
0
SPLINE
5
FC
100
AcDbEntity
8
1
62
256
6
ByLayer
370
18
48
1
60
0
100
AcDbSpline
70
4
71
3
72
20
73
16
40
0
40
0
40
0
40
0
40
0.0624999999999967
40
0.0624999999999967
40
0.124999999999993
40
0.124999999999993
40
0.249999999999993
40
0.249999999999993
40
0.374999999999993
40
0.374999999999993
40
0.499999999999993
40
0.499999999999993
40
0.749999999999996
40
0.749999999999996
40
1
40
1
40
1
40
1
41
1
10
11.4613248654052
20
-23.8391299750503
30
0
41
1
10
11.4772013120199
20
-23.8391299750503
30
0
41
1
10
11.4927843117432
20
-23.8386381480423
30
0
41
1
10
11.523415878742
20
-23.8367571199657
30
0
41
1
10
11.538594003026
20
-23.8353503028192
30
0
41
1
10
11.5824040005111
20
-23.8299833264009
30
0
41
1
10
11.6089650834003
20
-23.824989671385
30
0
41
1
10
11.6582924559949
20
-23.8130059693791
30
0
41
1
10
11.6801688454703
20
-23.8062336877526
30
0
41
1
10
11.7202459771561
20
-23.791615521257
30
0
41
1
10
11.7385100074111
20
-23.7837098766636
30
0
41
1
10
11.7882603826481
20
-23.7591079584198
30
0
41
1
10
11.8148780607233
20
-23.7416171457992
30
0
41
1
10
11.8602443227467
20
-23.7051129235882
30
0
41
1
10
11.8788862370738
20
-23.6860331168061
30
0
41
1
10
11.8943375672976
20
-23.6665017920809
30
0
0
SPLINE
5
FD
100
AcDbEntity
8
1
62
256
6
ByLayer
370
18
48
1
60
0
100
AcDbSpline
70
4
71
3
72
22
73
18
40
0
40
0
40
0
40
0
40
0.249999999999997
40
0.249999999999997
40
0.374999999999992
40
0.374999999999992
40
0.499999999999989
40
0.499999999999989
40
0.624999999999986
40
0.624999999999986
40
0.749999999999984
40
0.749999999999984
40
0.812499999999986
40
0.812499999999986
40
0.874999999999989
40
0.874999999999989
40
1
40
1
40
1
40
1
41
1
10
11.8943375672974
20
8.05584836782775
30
0
41
1
10
11.878892303015
20
7.99849169434912
30
0
41
1
10
11.8604037172646
20
7.94218253951254
30
0
41
1
10
11.8264575712213
20
7.85991012495416
30
0
41
1
10
11.8140962699691
20
7.8328550605849
30
0
41
1
10
11.7867462210776
20
7.77968328642039
30
0
41
1
10
11.7716842562432
20
7.75344388356992
30
0
41
1
10
11.7384769785309
20
7.70292805784924
30
0
41
1
10
11.7203772593317
20
7.67866353751178
30
0
41
1
10
11.6800242532305
20
7.63291014136057
30
0
41
1
10
11.6579517648703
20
7.61165433162091
30
0
41
1
10
11.6215461384039
20
7.58390025536191
30
0
41
1
10
11.6088302857938
20
7.57531366225014
30
0
41
1
10
11.5819453465865
20
7.55980672066907
30
0
41
1
10
11.5678144986018
20
7.55293791940396
30
0
41
1
10
11.5243601613892
20
7.53610198950838
30
0
41
1
10
11.4930267682388
20
7.52966679426472
30
0
41
1
10
11.4613248654053
20
7.52966679426471
30
0
0
SPLINE
5
FE
100
AcDbEntity
8
1
62
256
6
ByLayer
370
18
48
1
60
0
100
AcDbSpline
70
4
71
3
72
20
73
16
40
0
40
0
40
0
40
0
40
0.0625000000000026
40
0.0625000000000026
40
0.125000000000005
40
0.125000000000005
40
0.250000000000004
40
0.250000000000004
40
0.375000000000002
40
0.375000000000002
40
0.500000000000001
40
0.500000000000001
40
0.75
40
0.75
40
1
40
1
40
1
40
1
41
1
10
11.4613248654052
20
23.8391299750503
30
0
41
1
10
11.4772013120199
20
23.8391299750503
30
0
41
1
10
11.4927843117432
20
23.8386381480423
30
0
41
1
10
11.523415878742
20
23.8367571199657
30
0
41
1
10
11.538594003026
20
23.8353503028192
30
0
41
1
10
11.5824040005111
20
23.8299833264009
30
0
41
1
10
11.6089650834003
20
23.824989671385
30
0
41
1
10
11.6582924559949
20
23.8130059693791
30
0
41
1
10
11.6801688454703
20
23.8062336877526
30
0
41
1
10
11.7202459771561
20
23.7916155212569
30
0
41
1
10
11.7385100074111
20
23.7837098766636
30
0
41
1
10
11.7882603826481
20
23.7591079584198
30
0
41
1
10
11.8148780607233
20
23.7416171457992
30
0
41
1
10
11.8602443227467
20
23.7051129235883
30
0
41
1
10
11.8788862370738
20
23.6860331168061
30
0
41
1
10
11.8943375672976
20
23.6665017920809
30
0
0
SPLINE
5
FF
100
AcDbEntity
8
1
62
256
6
ByLayer
370
18
48
1
60
0
100
AcDbSpline
70
4
71
3
72
22
73
18
40
0
40
0
40
0
40
0
40
0.25
40
0.25
40
0.375000000000001
40
0.375000000000001
40
0.5
40
0.5
40
0.624999999999999
40
0.624999999999999
40
0.749999999999997
40
0.749999999999997
40
0.812499999999998
40
0.812499999999998
40
0.874999999999999
40
0.874999999999999
40
1
40
1
40
1
40
1
41
1
10
8.1056624327026
20
23.6665017920809
30
0
41
1
10
8.12110769698501
20
23.6860254491252
30
0
41
1
10
8.13959628273542
20
23.7049589195931
30
0
41
1
10
8.17354242877871
20
23.7323123198157
30
0
41
1
10
8.18590373003087
20
23.7412544902042
30
0
41
1
10
8.21325377892235
20
23.7587312609862
30
0
41
1
10
8.22831574375679
20
23.7673055542944
30
0
41
1
10
8.26152302146913
20
23.783725627043
30
0
41
1
10
8.27962274066833
20
23.7915679133938
30
0
41
1
10
8.3199757467695
20
23.8062861503817
30
0
41
1
10
8.34204823512973
20
23.8130866432223
30
0
41
1
10
8.37845386159614
20
23.8219342456096
30
0
41
1
10
8.39116971420621
20
23.8246655611125
30
0
41
1
10
8.41805465341353
20
23.8295906076135
30
0
41
1
10
8.43218550139821
20
23.8317679461286
30
0
41
1
10
8.47563983861081
20
23.8370993498304
30
0
41
1
10
8.50697323176119
20
23.8391299750505
30
0
41
1
10
8.53867513459475
20
23.8391299750505
30
0
0
SPLINE
5
100
100
AcDbEntity
8
1
62
256
6
ByLayer
370
18
48
1
60
0
100
AcDbSpline
70
4
71
3
72
20
73
16
40
0
40
0
40
0
40
0
40
0.0625000000000019
40
0.0625000000000019
40
0.125000000000004
40
0.125000000000004
40
0.250000000000004
40
0.250000000000004
40
0.375000000000004
40
0.375000000000004
40
0.500000000000005
40
0.500000000000005
40
0.750000000000002
40
0.750000000000002
40
1
40
1
40
1
40
1
41
1
10
8.53867513459481
20
7.52966679426503
30
0
41
1
10
8.5227986879801
20
7.52966679426503
30
0
41
1
10
8.50721568825676
20
7.53122440152946
30
0
41
1
10
8.47658412125804
20
7.53717584664554
30
0
41
1
10
8.46140599697398
20
7.5416252266226
30
0
41
1
10
8.41759599948894
20
7.55857361750104
30
0
41
1
10
8.39103491659968
20
7.57431556968108
30
0
41
1
10
8.34170754400514
20
7.61190750686261
30
0
41
1
10
8.3198311545297
20
7.633073252412
30
0
41
1
10
8.27975402284388
20
7.67851551807124
30
0
41
1
10
8.26148999258894
20
7.70297658390786
30
0
41
1
10
8.21173961735187
20
7.77866338250454
30
0
41
1
10
8.18512193927674
20
7.83191947486046
30
0
41
1
10
8.13975567725327
20
7.94172327888187
30
0
41
1
10
8.12111376292619
20
7.99846916820705
30
0
41
1
10
8.10566243270245
20
8.05584836782771
30
0
0
SPLINE
5
101
100
AcDbEntity
8
1
62
256
6
ByLayer
370
18
48
1
60
0
100
AcDbSpline
70
4
71
3
72
20
73
16
40
0
40
0
40
0
40
0
40
0.0625000000000001
40
0.0625000000000001
40
0.125
40
0.125
40
0.25
40
0.25
40
0.375
40
0.375
40
0.5
40
0.5
40
0.75
40
0.75
40
1
40
1
40
1
40
1
41
1
10
11.4613248654052
20
7.52966679426503
30
0
41
1
10
11.4772013120199
20
7.52966679426503
30
0
41
1
10
11.4927843117433
20
7.53122440152945
30
0
41
1
10
11.523415878742
20
7.53717584664553
30
0
41
1
10
11.538594003026
20
7.54162522662258
30
0
41
1
10
11.5824040005111
20
7.55857361750103
30
0
41
1
10
11.6089650834003
20
7.57431556968107
30
0
41
1
10
11.6582924559949
20
7.6119075068626
30
0
41
1
10
11.6801688454703
20
7.63307325241199
30
0
41
1
10
11.7202459771561
20
7.67851551807123
30
0
41
1
10
11.7385100074111
20
7.70297658390785
30
0
41
1
10
11.7882603826481
20
7.77866338250452
30
0
41
1
10
11.8148780607233
20
7.83191947486044
30
0
41
1
10
11.8602443227467
20
7.94172327888186
30
0
41
1
10
11.8788862370738
20
7.99846916820704
30
0
41
1
10
11.8943375672976
20
8.0558483678277
30
0
0
SPLINE
5
102
100
AcDbEntity
8
1
62
256
6
ByLayer
370
18
48
1
60
0
100
AcDbSpline
70
4
71
3
72
22
73
18
40
0
40
0
40
0
40
0
40
0.250000000000005
40
0.250000000000005
40
0.375000000000006
40
0.375000000000006
40
0.500000000000007
40
0.500000000000007
40
0.625000000000007
40
0.625000000000007
40
0.750000000000008
40
0.750000000000008
40
0.812500000000005
40
0.812500000000005
40
0.875000000000001
40
0.875000000000001
40
1
40
1
40
1
40
1
41
1
10
11.8943375672974
20
23.6665017920809
30
0
41
1
10
11.878892303015
20
23.6860254491252
30
0
41
1
10
11.8604037172646
20
23.7049589195931
30
0
41
1
10
11.8264575712213
20
23.7323123198157
30
0
41
1
10
11.8140962699691
20
23.7412544902042
30
0
41
1
10
11.7867462210776
20
23.7587312609862
30
0
41
1
10
11.7716842562432
20
23.7673055542944
30
0
41
1
10
11.7384769785309
20
23.783725627043
30
0
41
1
10
11.7203772593317
20
23.7915679133938
30
0
41
1
10
11.6800242532305
20
23.8062861503817
30
0
41
1
10
11.6579517648703
20
23.8130866432223
30
0
41
1
10
11.6215461384039
20
23.8219342456096
30
0
41
1
10
11.6088302857938
20
23.8246655611125
30
0
41
1
10
11.5819453465865
20
23.8295906076135
30
0
41
1
10
11.5678144986018
20
23.8317679461286
30
0
41
1
10
11.5243601613892
20
23.8370993498304
30
0
41
1
10
11.4930267682388
20
23.8391299750505
30
0
41
1
10
11.4613248654053
20
23.8391299750505
30
0
0
SPLINE
5
103
100
AcDbEntity
8
1
62
256
6
ByLayer
370
18
48
1
60
0
100
AcDbSpline
70
4
71
3
72
20
73
16
40
0
40
0
40
0
40
0
40
0.0624999999999967
40
0.0624999999999967
40
0.124999999999993
40
0.124999999999993
40
0.249999999999993
40
0.249999999999993
40
0.374999999999993
40
0.374999999999993
40
0.499999999999993
40
0.499999999999993
40
0.749999999999996
40
0.749999999999996
40
1
40
1
40
1
40
1
41
1
10
11.4613248654052
20
-23.8391299750503
30
0
41
1
10
11.4772013120199
20
-23.8391299750503
30
0
41
1
10
11.4927843117432
20
-23.8386381480423
30
0
41
1
10
11.523415878742
20
-23.8367571199657
30
0
41
1
10
11.538594003026
20
-23.8353503028192
30
0
41
1
10
11.5824040005111
20
-23.8299833264009
30
0
41
1
10
11.6089650834003
20
-23.824989671385
30
0
41
1
10
11.6582924559949
20
-23.8130059693791
30
0
41
1
10
11.6801688454703
20
-23.8062336877526
30
0
41
1
10
11.7202459771561
20
-23.791615521257
30
0
41
1
10
11.7385100074111
20
-23.7837098766636
30
0
41
1
10
11.7882603826481
20
-23.7591079584198
30
0
41
1
10
11.8148780607233
20
-23.7416171457992
30
0
41
1
10
11.8602443227467
20
-23.7051129235882
30
0
41
1
10
11.8788862370738
20
-23.6860331168061
30
0
41
1
10
11.8943375672976
20
-23.6665017920809
30
0
0
SPLINE
5
104
100
AcDbEntity
8
1
62
256
6
ByLayer
370
18
48
1
60
0
100
AcDbSpline
70
4
71
3
72
22
73
18
40
0
40
0
40
0
40
0
40
0.249999999999996
40
0.249999999999996
40
0.374999999999996
40
0.374999999999996
40
0.499999999999996
40
0.499999999999996
40
0.624999999999996
40
0.624999999999996
40
0.749999999999996
40
0.749999999999996
40
0.812499999999998
40
0.812499999999998
40
0.875000000000001
40
0.875000000000001
40
1
40
1
40
1
40
1
41
1
10
11.8943375672974
20
-8.05584836782774
30
0
41
1
10
11.878892303015
20
-7.99849169434911
30
0
41
1
10
11.8604037172646
20
-7.94218253951253
30
0
41
1
10
11.8264575712213
20
-7.85991012495416
30
0
41
1
10
11.8140962699691
20
-7.83285506058489
30
0
41
1
10
11.7867462210777
20
-7.77968328642038
30
0
41
1
10
11.7716842562432
20
-7.75344388356991
30
0
41
1
10
11.7384769785309
20
-7.70292805784923
30
0
41
1
10
11.7203772593317
20
-7.67866353751178
30
0
41
1
10
11.6800242532305
20
-7.63291014136056
30
0
41
1
10
11.6579517648703
20
-7.61165433162091
30
0
41
1
10
11.6215461384039
20
-7.5839002553619
30
0
41
1
10
11.6088302857938
20
-7.57531366225013
30
0
41
1
10
11.5819453465865
20
-7.55980672066906
30
0
41
1
10
11.5678144986018
20
-7.55293791940395
30
0
41
1
10
11.5243601613892
20
-7.53610198950837
30
0
41
1
10
11.4930267682388
20
-7.52966679426472
30
0
41
1
10
11.4613248654053
20
-7.52966679426471
30
0
0
SPLINE
5
105
100
AcDbEntity
8
1
62
256
6
ByLayer
370
18
48
1
60
0
100
AcDbSpline
70
4
71
3
72
22
73
18
40
0
40
0
40
0
40
0
40
0.249999999999994
40
0.249999999999994
40
0.374999999999996
40
0.374999999999996
40
0.499999999999994
40
0.499999999999994
40
0.624999999999993
40
0.624999999999993
40
0.749999999999991
40
0.749999999999991
40
0.812499999999992
40
0.812499999999992
40
0.874999999999992
40
0.874999999999992
40
1
40
1
40
1
40
1
41
1
10
8.1056624327026
20
-23.6665017920809
30
0
41
1
10
8.12110769698501
20
-23.6860254491252
30
0
41
1
10
8.13959628273541
20
-23.7049589195931
30
0
41
1
10
8.1735424287787
20
-23.7323123198157
30
0
41
1
10
8.18590373003087
20
-23.7412544902042
30
0
41
1
10
8.21325377892235
20
-23.7587312609862
30
0
41
1
10
8.2283157437568
20
-23.7673055542944
30
0
41
1
10
8.26152302146912
20
-23.7837256270429
30
0
41
1
10
8.27962274066833
20
-23.7915679133938
30
0
41
1
10
8.3199757467695
20
-23.8062861503817
30
0
41
1
10
8.34204823512973
20
-23.8130866432223
30
0
41
1
10
8.37845386159614
20
-23.8219342456096
30
0
41
1
10
8.39116971420621
20
-23.8246655611125
30
0
41
1
10
8.41805465341353
20
-23.8295906076135
30
0
41
1
10
8.43218550139822
20
-23.8317679461286
30
0
41
1
10
8.47563983861081
20
-23.8370993498305
30
0
41
1
10
8.50697323176119
20
-23.8391299750505
30
0
41
1
10
8.53867513459475
20
-23.8391299750505
30
0
0
SPLINE
5
106
100
AcDbEntity
8
1
62
256
6
ByLayer
370
18
48
1
60
0
100
AcDbSpline
70
4
71
3
72
20
73
16
40
0
40
0
40
0
40
0
40
0.0624999999999964
40
0.0624999999999964
40
0.124999999999993
40
0.124999999999993
40
0.249999999999994
40
0.249999999999994
40
0.374999999999994
40
0.374999999999994
40
0.499999999999995
40
0.499999999999995
40
0.749999999999998
40
0.749999999999998
40
1
40
1
40
1
40
1
41
1
10
8.53867513459481
20
-7.52966679426502
30
0
41
1
10
8.5227986879801
20
-7.52966679426502
30
0
41
1
10
8.50721568825676
20
-7.53122440152946
30
0
41
1
10
8.47658412125805
20
-7.53717584664554
30
0
41
1
10
8.46140599697397
20
-7.54162522662259
30
0
41
1
10
8.41759599948893
20
-7.55857361750103
30
0
41
1
10
8.39103491659968
20
-7.57431556968108
30
0
41
1
10
8.34170754400515
20
-7.6119075068626
30
0
41
1
10
8.3198311545297
20
-7.633073252412
30
0
41
1
10
8.27975402284388
20
-7.67851551807124
30
0
41
1
10
8.26148999258894
20
-7.70297658390786
30
0
41
1
10
8.21173961735187
20
-7.77866338250453
30
0
41
1
10
8.18512193927674
20
-7.83191947486045
30
0
41
1
10
8.13975567725327
20
-7.94172327888187
30
0
41
1
10
8.12111376292619
20
-7.99846916820705
30
0
41
1
10
8.10566243270245
20
-8.0558483678277
30
0
0
SPLINE
5
107
100
AcDbEntity
8
1
62
256
6
ByLayer
370
18
48
1
60
0
100
AcDbSpline
70
4
71
3
72
22
73
18
40
0
40
0
40
0
40
0
40
0.249999999999994
40
0.249999999999994
40
0.374999999999996
40
0.374999999999996
40
0.499999999999994
40
0.499999999999994
40
0.624999999999993
40
0.624999999999993
40
0.749999999999991
40
0.749999999999991
40
0.812499999999992
40
0.812499999999992
40
0.874999999999992
40
0.874999999999992
40
1
40
1
40
1
40
1
41
1
10
8.1056624327026
20
-23.6665017920809
30
0
41
1
10
8.12110769698501
20
-23.6860254491252
30
0
41
1
10
8.13959628273541
20
-23.7049589195931
30
0
41
1
10
8.1735424287787
20
-23.7323123198157
30
0
41
1
10
8.18590373003087
20
-23.7412544902042
30
0
41
1
10
8.21325377892235
20
-23.7587312609862
30
0
41
1
10
8.2283157437568
20
-23.7673055542944
30
0
41
1
10
8.26152302146912
20
-23.7837256270429
30
0
41
1
10
8.27962274066833
20
-23.7915679133938
30
0
41
1
10
8.3199757467695
20
-23.8062861503817
30
0
41
1
10
8.34204823512973
20
-23.8130866432223
30
0
41
1
10
8.37845386159614
20
-23.8219342456096
30
0
41
1
10
8.39116971420621
20
-23.8246655611125
30
0
41
1
10
8.41805465341353
20
-23.8295906076135
30
0
41
1
10
8.43218550139822
20
-23.8317679461286
30
0
41
1
10
8.47563983861081
20
-23.8370993498305
30
0
41
1
10
8.50697323176119
20
-23.8391299750505
30
0
41
1
10
8.53867513459475
20
-23.8391299750505
30
0
0
SPLINE
5
108
100
AcDbEntity
8
1
62
256
6
ByLayer
370
18
48
1
60
0
100
AcDbSpline
70
4
71
3
72
20
73
16
40
0
40
0
40
0
40
0
40
0.0624999999999964
40
0.0624999999999964
40
0.124999999999993
40
0.124999999999993
40
0.249999999999994
40
0.249999999999994
40
0.374999999999994
40
0.374999999999994
40
0.499999999999995
40
0.499999999999995
40
0.749999999999998
40
0.749999999999998
40
1
40
1
40
1
40
1
41
1
10
8.53867513459481
20
-7.52966679426502
30
0
41
1
10
8.5227986879801
20
-7.52966679426502
30
0
41
1
10
8.50721568825676
20
-7.53122440152946
30
0
41
1
10
8.47658412125805
20
-7.53717584664554
30
0
41
1
10
8.46140599697397
20
-7.54162522662259
30
0
41
1
10
8.41759599948893
20
-7.55857361750103
30
0
41
1
10
8.39103491659968
20
-7.57431556968108
30
0
41
1
10
8.34170754400515
20
-7.6119075068626
30
0
41
1
10
8.3198311545297
20
-7.633073252412
30
0
41
1
10
8.27975402284388
20
-7.67851551807124
30
0
41
1
10
8.26148999258894
20
-7.70297658390786
30
0
41
1
10
8.21173961735187
20
-7.77866338250453
30
0
41
1
10
8.18512193927674
20
-7.83191947486045
30
0
41
1
10
8.13975567725327
20
-7.94172327888187
30
0
41
1
10
8.12111376292619
20
-7.99846916820705
30
0
41
1
10
8.10566243270245
20
-8.0558483678277
30
0
0
SPLINE
5
109
100
AcDbEntity
8
SK1
62
256
6
ByLayer
370
18
48
1
60
0
100
AcDbSpline
70
4
71
3
72
25
73
21
40
0
40
0
40
0
40
0
40
0.0312499999999998
40
0.0312499999999998
40
0.0624999999999996
40
0.0624999999999996
40
0.0937499999999994
40
0.0937499999999994
40
0.124999999999999
40
0.124999999999999
40
0.187499999999999
40
0.187499999999999
40
0.249999999999998
40
0.374999999999998
40
0.374999999999998
40
0.499999999999997
40
0.499999999999997
40
0.749999999999998
40
0.749999999999998
40
1
40
1
40
1
40
1
41
1
10
-0.394976888872949
20
5.38678223324206
30
0
41
1
10
-0.388503745329048
20
5.38128319480973
30
0
41
1
10
-0.381388986847978
20
5.3764734915138
30
0
41
1
10
-0.365645130729526
20
5.37003095057869
30
0
41
1
10
-0.356875018489419
20
5.36852559182829
30
0
41
1
10
-0.339464630966944
20
5.37101783691437
30
0
41
1
10
-0.330985242949858
20
5.37503833637225
30
0
41
1
10
-0.316510652821103
20
5.3858315192128
30
0
41
1
10
-0.310292654930217
20
5.39251318392275
30
0
41
1
10
-0.293803612204787
20
5.41390802600506
30
0
41
1
10
-0.28554407757388
20
5.42989034626172
30
0
41
1
10
-0.271326596659987
20
5.46242047093598
30
0
41
1
10
-0.253889852553829
20
5.51203094595451
30
0
41
1
10
-0.242526917141972
20
5.56285969555155
30
0
41
1
10
-0.229856065276297
20
5.63107770598852
30
0
41
1
10
-0.224907645944971
20
5.66511813646055
30
0
41
1
10
-0.212565919448904
20
5.76699630063503
30
0
41
1
10
-0.207636724466021
20
5.83462416857928
30
0
41
1
10
-0.201310577492081
20
5.96939105744727
30
0
41
1
10
-0.200000000000358
20
6.03652860978243
30
0
41
1
10
-0.200000000000359
20
6.10344667966
30
0
0
SPLINE
5
10A
100
AcDbEntity
8
SK1
62
256
6
ByLayer
370
18
48
1
60
0
100
AcDbSpline
70
4
71
3
72
28
73
24
40
0
40
0
40
0
40
0
40
0.250000000000002
40
0.250000000000002
40
0.500000000000004
40
0.500000000000004
40
0.625000000000003
40
0.625000000000003
40
0.750000000000002
40
0.750000000000002
40
0.812500000000002
40
0.812500000000002
40
0.843750000000002
40
0.843750000000002
40
0.875000000000001
40
0.875000000000001
40
0.906250000000001
40
0.906250000000001
40
0.937500000000001
40
0.937500000000001
40
0.96875
40
0.96875
40
1
40
1
40
1
40
1
41
1
10
-0.199999999999992
20
-6.10344849123027
30
0
41
1
10
-0.199999999999992
20
-6.0365834384922
30
0
41
1
10
-0.201307915401517
20
-5.96945919325966
30
0
41
1
10
-0.207636972094106
20
-5.83460886439379
30
0
41
1
10
-0.212579850553364
20
-5.76680281418171
30
0
41
1
10
-0.224951590332734
20
-5.66479408005203
30
0
41
1
10
-0.229904281870223
20
-5.6308003160577
30
0
41
1
10
-0.242521523471166
20
-5.56290531314941
30
0
41
1
10
-0.250117086737568
20
-5.52896458934297
30
0
41
1
10
-0.265414899342308
20
-5.4792598409053
30
0
41
1
10
-0.271171206812246
20
-5.46286741312709
30
0
41
1
10
-0.281637922890861
20
-5.43878422670669
30
0
41
1
10
-0.285436448502223
20
-5.43084195397681
30
0
41
1
10
-0.294007186917128
20
-5.41522965497655
30
0
41
1
10
-0.298831960391814
20
-5.40747509672244
30
0
41
1
10
-0.309754325583368
20
-5.39312762647261
30
0
41
1
10
-0.315906755851444
20
-5.38639867120832
30
0
41
1
10
-0.330433281773469
20
-5.37534138513307
30
0
41
1
10
-0.33882282450789
20
-5.37123289411581
30
0
41
1
10
-0.356328976513891
20
-5.3684880467644
30
0
41
1
10
-0.365355266428636
20
-5.36994612574296
30
0
41
1
10
-0.381274177460828
20
-5.37639293798045
30
0
41
1
10
-0.3884397087092
20
-5.38122846522199
30
0
41
1
10
-0.394976888875338
20
-5.38678189578177
30
0
0
SPLINE
5
10B
100
AcDbEntity
8
SK1
62
256
6
ByLayer
370
18
48
1
60
0
100
AcDbSpline
70
4
71
3
72
28
73
24
40
0
40
0
40
0
40
0
40
0.125
40
0.125
40
0.25
40
0.25
40
0.375
40
0.375
40
0.40625
40
0.40625
40
0.4375
40
0.4375
40
0.5
40
0.5
40
0.625
40
0.625
40
0.75
40
0.75
40
0.8125
40
0.8125
40
0.875
40
0.875
40
1
40
1
40
1
40
1
41
1
10
-1.30710678118655
20
3.91806548153783
30
0
41
1
10
-1.363399983417
20
3.60715003418447
30
0
41
1
10
-1.41669480534877
20
3.29285957714032
30
0
41
1
10
-1.51407831988283
20
2.65635985956907
30
0
41
1
10
-1.55817797037385
20
2.33415617438417
30
0
41
1
10
-1.63284681317132
20
1.68012366058512
30
0
41
1
10
-1.6633946240787
20
1.34828924094136
30
0
41
1
10
-1.68969154409891
20
0.926028784389152
30
0
41
1
10
-1.69436175778976
20
0.841046554286927
30
0
41
1
10
-1.70239250492214
20
0.671061298703261
30
0
41
1
10
-1.70574742437314
20
0.586216449652361
30
0
41
1
10
-1.71379105874193
20
0.332128346739991
30
0
41
1
10
-1.71645137733403
20
0.163332447807823
30
0
41
1
10
-1.71629515732137
20
-0.341278402585331
30
0
41
1
10
-1.70524185635113
20
-0.675304372266577
30
0
41
1
10
-1.66403463343683
20
-1.33902842931006
30
0
41
1
10
-1.63398506306774
20
-1.66874080844453
30
0
41
1
10
-1.57807550747272
20
-2.16054414624527
30
0
41
1
10
-1.55761516973779
20
-2.32416553264662
30
0
41
1
10
-1.51370083633887
20
-2.64992050986961
30
0
41
1
10
-1.49034471669165
20
-2.81137364927946
30
0
41
1
10
-1.41687703207161
20
-3.29188260724434
30
0
41
1
10
-1.36340682815233
20
-3.60711221095696
30
0
41
1
10
-1.30710678118655
20
-3.91806548057697
30
0
0
SPLINE
5
10C
100
AcDbEntity
8
SK1
62
256
6
ByLayer
370
18
48
1
60
0
100
AcDbSpline
70
4
71
3
72
32
73
28
40
0
40
0
40
0
40
0
40
0.25
40
0.25
40
0.374999999999999
40
0.374999999999999
40
0.499999999999998
40
0.499999999999998
40
0.624999999999997
40
0.624999999999997
40
0.687499999999997
40
0.687499999999997
40
0.749999999999996
40
0.749999999999996
40
0.812499999999996
40
0.812499999999996
40
0.843749999999996
40
0.843749999999996
40
0.874999999999997
40
0.874999999999997
40
0.890624999999997
40
0.890624999999997
40
0.906249999999998
40
0.906249999999998
40
0.937499999999998
40
0.937499999999998
40
1
40
1
40
1
40
1
41
1
10
-1.30710678118655
20
3.91806548153782
30
0
41
1
10
-1.27769319780745
20
4.08052093037067
30
0
41
1
10
-1.24421801411858
20
4.24088838641724
30
0
41
1
10
-1.18469354176417
20
4.47791310665292
30
0
41
1
10
-1.16326145671279
20
4.55639528946888
30
0
41
1
10
-1.1162560436974
20
4.7117216185996
30
0
41
1
10
-1.09076204680302
20
4.78839414332972
30
0
41
1
10
-1.03398506252568
20
4.93920991648991
30
0
41
1
10
-1.00279216065921
20
5.01338233454953
30
0
41
1
10
-0.948686084795505
20
5.12180889714572
30
0
41
1
10
-0.929413948146391
20
5.15747348575945
30
0
41
1
10
-0.887192676607175
20
5.2274622561776
30
0
41
1
10
-0.864103743652972
20
5.26201593969388
30
0
41
1
10
-0.813044425251097
20
5.32730624386842
30
0
41
1
10
-0.78516885985063
20
5.35822757002164
30
0
41
1
10
-0.736319785060664
20
5.39956671539544
30
0
41
1
10
-0.718687107583952
20
5.41254659261546
30
0
41
1
10
-0.681082823167463
20
5.43485678370403
30
0
41
1
10
-0.660676678492717
20
5.4443924952423
30
0
41
1
10
-0.628792251921833
20
5.45426518955441
30
0
41
1
10
-0.617949407011655
20
5.45683568577916
30
0
41
1
10
-0.595777711827195
20
5.46034712715385
30
0
41
1
10
-0.584314419502602
20
5.46127967048298
30
0
41
1
10
-0.55041129400639
20
5.46132444639047
30
0
41
1
10
-0.528101012291196
20
5.45772738244959
30
0
41
1
10
-0.464215280713564
20
5.43805975377175
30
0
41
1
10
-0.42740397586777
20
5.4143295595745
30
0
41
1
10
-0.394976888875401
20
5.38678223323953
30
0
0
SPLINE
5
10D
100
AcDbEntity
8
SK1
62
256
6
ByLayer
370
18
48
1
60
0
100
AcDbSpline
70
4
71
3
72
32
73
28
40
0
40
0
40
0
40
0
40
0.0312499999999997
40
0.0312499999999997
40
0.0624999999999994
40
0.0624999999999994
40
0.0937499999999991
40
0.0937499999999991
40
0.124999999999999
40
0.124999999999999
40
0.156249999999998
40
0.156249999999998
40
0.187499999999998
40
0.187499999999998
40
0.249999999999998
40
0.249999999999998
40
0.312499999999999
40
0.312499999999999
40
0.374999999999999
40
0.374999999999999
40
0.499999999999999
40
0.499999999999999
40
0.625
40
0.625
40
0.75
40
0.75
40
1
40
1
40
1
40
1
41
1
10
-0.394976888875293
20
-5.38678189578291
30
0
41
1
10
-0.411121004362629
20
-5.40049655899081
30
0
41
1
10
-0.428233279222707
20
-5.41311535582494
30
0
41
1
10
-0.465309612185858
20
-5.43514865455292
30
0
41
1
10
-0.4852470931921
20
-5.44447298609396
30
0
41
1
10
-0.527143852804007
20
-5.45749158572378
30
0
41
1
10
-0.549766809572628
20
-5.4612381795972
30
0
41
1
10
-0.594625996823437
20
-5.46134910310993
30
0
41
1
10
-0.61736733449907
20
-5.45772890381816
30
0
41
1
10
-0.660019264070231
20
-5.44466656582568
30
0
41
1
10
-0.680396026591726
20
-5.43519415358125
30
0
41
1
10
-0.717834279017927
20
-5.41311904009153
30
0
41
1
10
-0.735191453829221
20
-5.40043958603153
30
0
41
1
10
-0.784451320222116
20
-5.35899057781569
30
0
41
1
10
-0.812480141629842
20
-5.3279541713818
30
0
41
1
10
-0.863579984272127
20
-5.2627571540472
30
0
41
1
10
-0.886669998197952
20
-5.22827369564409
30
0
41
1
10
-0.929038370947658
20
-5.15814871783954
30
0
41
1
10
-0.948360494973531
20
-5.12242801873621
30
0
41
1
10
-1.00258384146318
20
-5.01386242026872
30
0
41
1
10
-1.03381196991216
20
-4.93963585912672
30
0
41
1
10
-1.09063394663941
20
-4.78876551931108
30
0
41
1
10
-1.11613556431487
20
-4.7120928311178
30
0
41
1
10
-1.16314429704834
20
-4.5568079083993
30
0
41
1
10
-1.18460768891141
20
-4.47823828125095
30
0
41
1
10
-1.24418351237221
20
-4.24105736808264
30
0
41
1
10
-1.27767890904267
20
-4.08059985762039
30
0
41
1
10
-1.30710678118655
20
-3.91806548057695
30
0
0
SPLINE
5
10E
100
AcDbEntity
8
1
62
256
6
ByLayer
370
18
48
1
60
0
100
AcDbSpline
70
4
71
3
72
12
73
8
40
0
40
0
40
0
40
0
40
0.5
40
0.5
40
0.75
40
0.75
40
1
40
1
40
1
40
1
41
1
10
24.9065346618114
20
22
30
0
41
1
10
24.7071262899434
20
20.6863825012936
30
0
41
1
10
24.5195407371955
20
19.3708966931255
30
0
41
1
10
24.2593062565397
20
17.3943267090712
30
0
41
1
10
24.1760894201405
20
16.7349125344956
30
0
41
1
10
24.0173169552144
20
15.4148735174817
30
0
41
1
10
23.9417475948812
20
14.7541077930131
30
0
41
1
10
23.8703724184447
20
14.09321631843
30
0
0
SPLINE
5
10F
100
AcDbEntity
8
1
62
256
6
ByLayer
370
18
48
1
60
0
100
AcDbSpline
70
4
71
3
72
8
73
4
40
0
40
0
40
0
40
0
40
1
40
1
40
1
40
1
41
1
10
25.9840007950399
20
31
30
0
41
1
10
25.5523930207495
20
28.0080928450589
30
0
41
1
10
25.185278891849
20
25.0089818279367
30
0
41
1
10
24.9065346618114
20
22
30
0
0
SPLINE
5
110
100
AcDbEntity
8
1
62
256
6
ByLayer
370
18
48
1
60
0
100
AcDbSpline
70
4
71
3
72
16
73
12
40
0
40
0
40
0
40
0
40
0.25
40
0.25
40
0.5
40
0.5
40
0.75
40
0.75
40
0.875
40
0.875
40
1
40
1
40
1
40
1
41
1
10
21.4383186059722
20
-3.26252607713776
30
0
41
1
10
21.4100665140494
20
-3.71110227136541
30
0
41
1
10
21.3699007621247
20
-4.1587051273391
30
0
41
1
10
21.280233484136
20
-5.05314811262659
30
0
41
1
10
21.2305857480436
20
-5.49999077703031
30
0
41
1
10
21.1372186332389
20
-6.3940861356424
30
0
41
1
10
21.0935647735907
20
-6.84132037077825
30
0
41
1
10
21.0465012832411
20
-7.51330578199203
30
0
41
1
10
21.0339091969343
20
-7.73749154172673
30
0
41
1
10
21.0168234010479
20
-8.18636172459858
30
0
41
1
10
21.0123515293559
20
-8.41104749241946
30
0
41
1
10
21.0123515293559
20
-8.63600861897312
30
0
0
SPLINE
5
111
100
AcDbEntity
8
1
62
256
6
ByLayer
370
18
48
1
60
0
100
AcDbSpline
70
4
71
3
72
14
73
10
40
0
40
0
40
0
40
0
40
0.25
40
0.25
40
0.5
40
0.5
40
0.75
40
0.75
40
1
40
1
40
1
40
1
41
1
10
23.8703724184447
20
14.09321631843
30
0
41
1
10
23.5868214275005
20
12.6557050808497
30
0
41
1
10
23.3169102524362
20
11.2167096791629
30
0
41
1
10
22.8131249389573
20
8.33479764424406
30
0
41
1
10
22.579258950858
20
6.89188012416672
30
0
41
1
10
22.1585252179102
20
4.000931150927
30
0
41
1
10
21.9717078027667
20
2.55289422133132
30
0
41
1
10
21.6574761784354
20
-0.349643369252619
30
0
41
1
10
21.5301692533559
20
-1.80415570394851
30
0
41
1
10
21.4383186059721
20
-3.26252607713775
30
0
0
SPLINE
5
112
100
AcDbEntity
8
1
62
256
6
ByLayer
370
18
48
1
60
0
100
AcDbSpline
70
4
71
3
72
10
73
6
40
0
40
0
40
0
40
0
40
0.5
40
0.5
40
1
40
1
40
1
40
1
41
1
10
28
20
-12.5
30
0
41
1
10
28
20
-11.876375800622
30
0
41
1
10
28.029108269509
20
-11.2421180401755
30
0
41
1
10
28.152198729582
20
-9.95371481058366
30
0
41
1
10
28.2461499780637
20
-9.29956443908313
30
0
41
1
10
28.3768103865006
20
-8.63600861897313
30
0
0
SPLINE
5
113
100
AcDbEntity
8
1
62
256
6
ByLayer
370
18
48
1
60
0
100
AcDbSpline
70
4
71
3
72
8
73
4
40
0
40
0
40
0
40
0
40
1
40
1
40
1
40
1
41
1
10
25.9840007950399
20
31
30
0
41
1
10
25.5523930207495
20
28.0080928450589
30
0
41
1
10
25.185278891849
20
25.0089818279367
30
0
41
1
10
24.9065346618114
20
22
30
0
0
SPLINE
5
114
100
AcDbEntity
8
1
62
256
6
ByLayer
370
18
48
1
60
0
100
AcDbSpline
70
4
71
3
72
12
73
8
40
0
40
0
40
0
40
0
40
0.5
40
0.5
40
0.75
40
0.75
40
1
40
1
40
1
40
1
41
1
10
24.9065346618114
20
22
30
0
41
1
10
24.7071262899434
20
20.6863825012936
30
0
41
1
10
24.5195407371955
20
19.3708966931255
30
0
41
1
10
24.2593062565397
20
17.3943267090712
30
0
41
1
10
24.1760894201405
20
16.7349125344956
30
0
41
1
10
24.0173169552144
20
15.4148735174817
30
0
41
1
10
23.9417475948812
20
14.7541077930131
30
0
41
1
10
23.8703724184447
20
14.09321631843
30
0
0
SPLINE
5
115
100
AcDbEntity
8
1
62
256
6
ByLayer
370
18
48
1
60
0
100
AcDbSpline
70
4
71
3
72
8
73
4
40
0
40
0
40
0
40
0
40
1
40
1
40
1
40
1
41
1
10
150
20
25.6318670649431
30
0
41
1
10
149.946297773111
20
25.6353466625761
30
0
41
1
10
149.89335547034
20
25.643657935377
30
0
41
1
10
149.841194559105
20
25.6572593389687
30
0
0
SPLINE
5
116
100
AcDbEntity
8
1
62
256
6
ByLayer
370
18
48
1
60
0
100
AcDbSpline
70
4
71
3
72
8
73
4
40
0
40
0
40
0
40
0
40
1
40
1
40
1
40
1
41
1
10
24.9503129888246
20
31
30
0
41
1
10
24.7042677000569
20
29.5479553457853
30
0
41
1
10
24.4724197425501
20
28.0938093543368
30
0
41
1
10
24.2581931547322
20
26.637055236082
30
0
0
SPLINE
5
117
100
AcDbEntity
8
1
62
256
6
ByLayer
370
18
48
1
60
0
100
AcDbSpline
70
4
71
3
72
8
73
4
40
0
40
0
40
0
40
0
40
1
40
1
40
1
40
1
41
1
10
150
20
25.6318670649431
30
1.42E-14
41
1
10
149.946297773111
20
25.6353466625761
30
1.42E-14
41
1
10
149.89335547034
20
25.643657935377
30
1.42E-14
41
1
10
149.841194559105
20
25.6572593389687
30
1.42E-14
0
SPLINE
5
118
100
AcDbEntity
8
SK1
62
256
6
ByLayer
370
18
48
1
60
0
100
AcDbSpline
70
4
71
5
72
12
73
6
40
0
40
0
40
0
40
0
40
0
40
0
40
1
40
1
40
1
40
1
40
1
40
1
41
1
10
-2.20000000000002
20
-17.521585228927
30
-9.7283396E-09
41
1
10
-7.46000158053163
20
-17.3874835519686
30
-9.7283396E-09
41
1
10
-12.7200023942792
20
-17.2533517987279
30
-9.7283396E-09
41
1
10
-17.9800024184622
20
-17.1191890845694
30
1.9E-15
41
1
10
-23.240001628995
20
-16.9849944750346
30
1.9E-15
41
1
10
-28.5
20
-16.850766966753
30
1.9E-15
0
SPLINE
5
119
100
AcDbEntity
8
SK1
62
256
6
ByLayer
370
18
48
1
60
0
100
AcDbSpline
70
4
71
5
72
12
73
6
40
0
40
0
40
0
40
0
40
0
40
0
40
1
40
1
40
1
40
1
40
1
40
1
41
1
10
-28.5
20
-16.850766966753
30
1.9E-15
41
1
10
-28.8000513728478
20
-16.6748081222762
30
1.9E-15
41
1
10
-29.1000780597162
20
-16.4988071824158
30
1.9E-15
41
1
10
-29.4000790986357
20
-16.322762527523
30
-4.239E-13
41
1
10
-29.7000533635117
20
-16.1466722591836
30
-4.239E-13
41
1
10
-30.0000000005838
20
-15.9705349430932
30
-4.239E-13
0
SPLINE
5
11A
100
AcDbEntity
8
SK1
62
256
6
ByLayer
370
18
48
1
60
0
100
AcDbSpline
70
4
71
5
72
32
73
26
40
0
40
0
40
0
40
0
40
0
40
0
40
0.0233772812219856
40
0.0733006885025051
40
0.123402298916871
40
0.173326519875824
40
0.217919811391406
40
0.263700813546951
40
0.313712481286709
40
0.364008710843796
40
0.411711894292236
40
0.455276920006855
40
0.504788066708922
40
0.55537715596226
40
0.605432231511026
40
0.650372817668755
40
0.698525350238747
40
0.749375836143999
40
0.800380500780947
40
0.849786907842095
40
0.898232312675044
40
0.949003518110243
40
1
40
1
40
1
40
1
40
1
40
1
41
1
10
-1.9950399779393
20
-17.3237657199537
30
-9.7277746E-09
41
1
10
-1.99651944375847
20
-17.3237279914326
30
-9.7277746E-09
41
1
10
-2.00115948224888
20
-17.3236532450085
30
-9.7277746E-09
41
1
10
-2.00897297150113
20
-17.3237585525074
30
-7.3767603E-09
41
1
10
-2.01992112052123
20
-17.3244488784195
30
-4.0747391E-09
41
1
10
-2.03357719101063
20
-17.3262690822194
30
-7.05281E-10
41
1
10
-2.04844838583097
20
-17.3294453444918
30
3.101375E-10
41
1
10
-2.06307152427657
20
-17.3337534856073
30
5.058381E-10
41
1
10
-2.07732989618061
20
-17.3391587311816
30
2.49634E-10
41
1
10
-2.09098086043281
20
-17.345558184165
30
9.44894E-11
41
1
10
-2.10403988753524
20
-17.3529581828254
30
-4.8797E-12
41
1
10
-2.11672098582324
20
-17.361476483083
30
-1.78316E-11
41
1
10
-2.12876366096949
20
-17.3709559510362
30
-1.67268E-11
41
1
10
-2.14002511261885
20
-17.3812835311775
30
-5.684E-12
41
1
10
-2.15033759051207
20
-17.392298332063
30
-1.5977E-12
41
1
10
-2.15997358405079
20
-17.4043102720687
30
8.959E-13
41
1
10
-2.16874086900171
20
-17.4171069815585
30
6.622E-13
41
1
10
-2.17652388021555
20
-17.4305301949557
30
4.768E-13
41
1
10
-2.18323973430389
20
-17.4444373401866
30
7.88E-14
41
1
10
-2.18894717992229
20
-17.4590360519322
30
6.8E-15
41
1
10
-2.19357616457359
20
-17.4742380855993
30
-4E-14
41
1
10
-2.19703499033095
20
-17.4897926299186
30
-8.2E-15
41
1
10
-2.19883011721979
20
-17.5023606027698
30
7.5E-15
41
1
10
-2.19963242067001
20
-17.5118807268285
30
1.2E-15
41
1
10
-2.19991976838985
20
-17.5183445687555
30
1.2E-15
41
1
10
-2.19999999991742
20
-17.5215852289488
30
1.2E-15
0
SPLINE
5
11B
100
AcDbEntity
8
SK1
62
256
6
ByLayer
370
18
48
1
60
0
100
AcDbSpline
70
4
71
5
72
32
73
26
40
0
40
0
40
0
40
0
40
0
40
0
40
0.0260750408027451
40
0.0762512450042157
40
0.126585119734266
40
0.176921752510518
40
0.224945134640736
40
0.272060214585832
40
0.321963433900539
40
0.372156415942602
40
0.421775877046728
40
0.468111634098367
40
0.516549100838921
40
0.566321619362886
40
0.616120398273618
40
0.663450308442289
40
0.708688468081833
40
0.757699212565416
40
0.807183073675633
40
0.856406209346015
40
0.903268333043738
40
0.95106444757236
40
1
40
1
40
1
40
1
40
1
40
1
41
1
10
7.8E-15
20
-17.5674741193549
30
1.342413E-10
41
1
10
7.7E-15
20
-17.5658491015492
30
1.342413E-10
41
1
10
-4.68742531328E-05
20
-17.5610970754223
30
1.342413E-10
41
1
10
-0.0003529479450699
20
-17.5532124892603
30
1.006099E-10
41
1
10
-0.0013063200108575
20
-17.5422326530553
30
5.57477E-11
41
1
10
-0.0034464326863889
20
-17.5284021381547
30
8.9819E-12
41
1
10
-0.0069199098531233
20
-17.5134850393177
30
-4.5837E-12
41
1
10
-0.0114937322971229
20
-17.4988488064191
30
-7.2391E-12
41
1
10
-0.0171322524491131
20
-17.4846022585389
30
-3.6498E-12
41
1
10
-0.0237769004837378
20
-17.4708862221267
30
-1.7212E-12
41
1
10
-0.0313763303826526
20
-17.4578067746447
30
-1.049E-13
41
1
10
-0.0399980690235025
20
-17.4452426960707
30
1.647E-13
41
1
10
-0.0495424385076478
20
-17.4333417812541
30
7.16E-14
41
1
10
-0.059912966270694
20
-17.4222224250134
30
-3.746E-13
41
1
10
-0.0709634229338661
20
-17.4120286616695
30
-7.767E-13
41
1
10
-0.0827078358146816
20
-17.4027383465539
30
-3.899E-13
41
1
10
-0.0951706269511532
20
-17.3943106889623
30
-1.312E-13
41
1
10
-0.108212001560983
20
-17.3868406563621
30
5.21E-14
41
1
10
-0.121709480036142
20
-17.3803946747753
30
1.571E-13
41
1
10
-0.135617267945127
20
-17.3750036074844
30
1.396E-13
41
1
10
-0.15008283192327
20
-17.3706376336926
30
2.44E-14
41
1
10
-0.164892895038318
20
-17.367372271711
30
-7.502E-13
41
1
10
-0.176868904387297
20
-17.365675185514
30
-1.5112E-12
41
1
10
-0.185847156910734
20
-17.3649194628755
30
-2.4887E-12
41
1
10
-0.191908838464224
20
-17.364646743344
30
-2.4887E-12
41
1
10
-0.194976888856513
20
-17.3645685079888
30
-2.4887E-12
0
LINE
5
70
100
AcDbEntity
8
1
62
256
6
ByLayer
370
18
48
1
60
0
100
AcDbLine
10
20.279208
20
-25
30
0
11
0.3
21
-25
31
0
39
0
210
0
220
0
230
1
0
LINE
5
72
100
AcDbEntity
8
1
62
256
6
ByLayer
370
18
48
1
60
0
100
AcDbLine
10
0.3
20
25
30
0
11
20.279208
21
25
31
0
39
0
210
0
220
0
230
1
0
LINE
5
73
100
AcDbEntity
8
1
62
256
6
ByLayer
370
18
48
1
60
0
100
AcDbLine
10
0
20
24.7
30
0
11
0.3
21
25
31
0
39
0
210
0
220
0
230
1
0
LINE
5
74
100
AcDbEntity
8
1
62
256
6
ByLayer
370
18
48
1
60
0
100
AcDbLine
10
0.3
20
-25
30
0
11
0
21
-24.7
31
0
39
0
210
0
220
0
230
1
0
LINE
5
75
100
AcDbEntity
8
1
62
256
6
ByLayer
370
18
48
1
60
0
100
AcDbLine
10
28
20
-25.25
30
0
11
21.012352
21
-25.25
31
0
39
0
210
0
220
0
230
1
0
LINE
5
76
100
AcDbEntity
8
1
62
256
6
ByLayer
370
18
48
1
60
0
100
AcDbLine
10
145
20
14.257736
30
0
11
145
21
13.801868
31
0
39
0
210
0
220
0
230
1
0
LINE
5
77
100
AcDbEntity
8
1
62
256
6
ByLayer
370
18
48
1
60
0
100
AcDbLine
10
145
20
25.85
30
0
11
145
21
23.142264
31
0
39
0
210
0
220
0
230
1
0
LINE
5
78
100
AcDbEntity
8
1
62
256
6
ByLayer
370
18
48
1
60
0
100
AcDbLine
10
8.538675
20
7.529667
30
0
11
8.538675
21
23.83913
31
0
39
0
210
0
220
0
230
1
0
LINE
5
79
100
AcDbEntity
8
1
62
256
6
ByLayer
370
18
48
1
60
0
100
AcDbLine
10
0.3
20
25
30
0
11
0.3
21
-25
31
0
39
0
210
0
220
0
230
1
0
LINE
5
7A
100
AcDbEntity
8
1
62
256
6
ByLayer
370
18
48
1
60
0
100
AcDbLine
10
20.279208
20
25
30
0
11
20.279208
21
-25
31
0
39
0
210
0
220
0
230
1
0
LINE
5
7B
100
AcDbEntity
8
1
62
256
6
ByLayer
370
18
48
1
60
0
100
AcDbLine
10
11.461325
20
-23.83913
30
0
11
8.538675
21
-23.83913
31
0
39
0
210
0
220
0
230
1
0
LINE
5
7C
100
AcDbEntity
8
1
62
256
6
ByLayer
370
18
48
1
60
0
100
AcDbLine
10
8.538675
20
-7.529667
30
0
11
11.461325
21
-7.529667
31
0
39
0
210
0
220
0
230
1
0
LINE
5
7D
100
AcDbEntity
8
1
62
256
6
ByLayer
370
18
48
1
60
0
100
AcDbLine
10
8.538675
20
-23.83913
30
0
11
11.461325
21
-23.83913
31
0
39
0
210
0
220
0
230
1
0
LINE
5
7E
100
AcDbEntity
8
1
62
256
6
ByLayer
370
18
48
1
60
0
100
AcDbLine
10
11.461325
20
-7.529667
30
0
11
8.538675
21
-7.529667
31
0
39
0
210
0
220
0
230
1
0
LINE
5
7F
100
AcDbEntity
8
1
62
256
6
ByLayer
370
18
48
1
60
0
100
AcDbLine
10
11.461325
20
7.529667
30
0
11
8.538675
21
7.529667
31
0
39
0
210
0
220
0
230
1
0
LINE
5
80
100
AcDbEntity
8
1
62
256
6
ByLayer
370
18
48
1
60
0
100
AcDbLine
10
8.538675
20
23.83913
30
0
11
11.461325
21
23.83913
31
0
39
0
210
0
220
0
230
1
0
LINE
5
81
100
AcDbEntity
8
1
62
256
6
ByLayer
370
18
48
1
60
0
100
AcDbLine
10
11.461325
20
23.83913
30
0
11
11.461325
21
7.529667
31
0
39
0
210
0
220
0
230
1
0
LINE
5
82
100
AcDbEntity
8
1
62
256
6
ByLayer
370
18
48
1
60
0
100
AcDbLine
10
11.461325
20
-7.529667
30
0
11
11.461325
21
-23.83913
31
0
39
0
210
0
220
0
230
1
0
LINE
5
83
100
AcDbEntity
8
1
62
256
6
ByLayer
370
18
48
1
60
0
100
AcDbLine
10
8.538675
20
-23.83913
30
0
11
8.538675
21
-7.529667
31
0
39
0
210
0
220
0
230
1
0
LINE
5
84
100
AcDbEntity
8
1
62
256
6
ByLayer
370
18
48
1
60
0
100
AcDbLine
10
8.538675
20
-23.83913
30
0
11
8.538675
21
-7.529667
31
0
39
0
210
0
220
0
230
1
0
LINE
5
85
100
AcDbEntity
8
SK1
62
256
6
ByLayer
370
18
48
1
60
0
100
AcDbLine
10
-0.2
20
11.459852
30
0
11
-0.2
21
-11.459853
31
0
39
0
210
0
220
0
230
1
0
LINE
5
87
100
AcDbEntity
8
SK1
62
256
6
ByLayer
370
18
48
1
60
0
100
AcDbLine
10
-0.2
20
6.103447
30
0
11
-0.2
21
17.353447
31
0
39
0
210
0
220
0
230
1
0
LINE
5
88
100
AcDbEntity
8
SK1
62
256
6
ByLayer
370
18
48
1
60
0
100
AcDbLine
10
-0.194977
20
-17.364569
30
0
11
-0.2
21
-6.103448
31
0
39
0
210
0
220
0
230
1
0
LINE
5
89
100
AcDbEntity
8
SK1
62
256
6
ByLayer
370
18
48
1
60
0
100
AcDbLine
10
-2.2
20
17.520099
30
0
11
-2.2
21
-17.520099
31
0
39
0
210
0
220
0
230
1
0
LINE
5
8A
100
AcDbEntity
8
SK1
62
256
6
ByLayer
370
18
48
1
60
0
100
AcDbLine
10
-1.99504
20
-17.325186
30
0
11
-1.99504
21
17.325186
31
0
39
0
210
0
220
0
230
1
0
LINE
5
8B
100
AcDbEntity
8
1
62
256
6
ByLayer
370
18
48
1
60
0
100
AcDbLine
10
0.3
20
25
30
0
11
0.3
21
-25
31
0
39
0
210
0
220
0
230
1
0
LINE
5
8C
100
AcDbEntity
8
1
62
256
6
ByLayer
370
18
48
1
60
0
100
AcDbLine
10
144
20
31
30
0
11
25.984001
21
31
31
0
39
0
210
0
220
0
230
1
0
LINE
5
8D
100
AcDbEntity
8
1
62
256
6
ByLayer
370
18
48
1
60
0
100
AcDbLine
10
144.5
20
30.5
30
0
11
144
21
31
31
0
39
0
210
0
220
0
230
1
0
LINE
5
8E
100
AcDbEntity
8
1
62
256
6
ByLayer
370
18
48
1
60
0
100
AcDbLine
10
136
20
7.5
30
0
11
140.590124
21
10.714039
31
0
39
0
210
0
220
0
230
1
0
LINE
5
8F
100
AcDbEntity
8
1
62
256
6
ByLayer
370
18
48
1
60
0
100
AcDbLine
10
48
20
7.5
30
0
11
136
21
7.5
31
0
39
0
210
0
220
0
230
1
0
LINE
5
90
100
AcDbEntity
8
1
62
256
6
ByLayer
370
18
48
1
60
0
100
AcDbLine
10
21.012352
20
-12.625
30
0
11
28
21
-12.625
31
0
39
0
210
0
220
0
230
1
0
LINE
5
91
100
AcDbEntity
8
1
62
256
6
ByLayer
370
18
48
1
60
0
100
AcDbLine
10
21.012352
20
-8.636009
30
0
11
21.012352
21
-25.25
31
0
39
0
210
0
220
0
230
1
0
LINE
5
92
100
AcDbEntity
8
1
62
256
6
ByLayer
370
18
48
1
60
0
100
AcDbLine
10
28
20
-25.25
30
0
11
28
21
-12.5
31
0
39
0
210
0
220
0
230
1
0
LINE
5
93
100
AcDbEntity
8
1
62
256
6
ByLayer
370
18
48
1
60
0
100
AcDbLine
10
140.590124
20
10.714039
30
0
11
145
21
13.801868
31
0
39
0
210
0
220
0
230
1
0
LINE
5
94
100
AcDbEntity
8
1
62
256
6
ByLayer
370
18
48
1
60
0
100
AcDbLine
10
145
20
30
30
0
11
144.5
21
30.5
31
0
39
0
210
0
220
0
230
1
0
LINE
5
95
100
AcDbEntity
8
1
62
256
6
ByLayer
370
18
48
1
60
0
100
AcDbLine
10
145
20
13.801868
30
0
11
145
21
30
31
0
39
0
210
0
220
0
230
1
0
LINE
5
96
100
AcDbEntity
8
1
62
256
6
ByLayer
370
18
48
1
60
0
100
AcDbLine
10
24.906535
20
22
30
0
11
136
21
22
31
0
39
0
210
0
220
0
230
1
0
LINE
5
97
100
AcDbEntity
8
1
62
256
6
ByLayer
370
18
48
1
60
0
100
AcDbLine
10
144
20
31
30
0
11
25.984001
21
31
31
0
39
0
210
0
220
0
230
1
0
LINE
5
98
100
AcDbEntity
8
1
62
256
6
ByLayer
370
18
48
1
60
0
100
AcDbLine
10
144.5
20
30.5
30
0
11
144
21
31
31
0
39
0
210
0
220
0
230
1
0
LINE
5
99
100
AcDbEntity
8
1
62
256
6
ByLayer
370
18
48
1
60
0
100
AcDbLine
10
136
20
22
30
0
11
144.5
21
30.5
31
0
39
0
210
0
220
0
230
1
0
LINE
5
9A
100
AcDbEntity
8
1
62
256
6
ByLayer
370
18
48
1
60
0
100
AcDbLine
10
23.870372
20
14.093216
30
0
11
136
21
14.093216
31
0
39
0
210
0
220
0
230
1
0
LINE
5
9B
100
AcDbEntity
8
1
62
256
6
ByLayer
370
18
48
1
60
0
100
AcDbLine
10
136
20
22
30
0
11
24.906535
21
22
31
0
39
0
210
0
220
0
230
1
0
LINE
5
9C
100
AcDbEntity
8
1
62
256
6
ByLayer
370
18
48
1
60
0
100
AcDbLine
10
136
20
14.093216
30
0
11
136
21
22
31
0
39
0
210
0
220
0
230
1
0
LINE
5
9D
100
AcDbEntity
8
1
62
256
6
ByLayer
370
18
48
1
60
0
100
AcDbLine
10
140.590124
20
10.714039
30
0
11
145
21
13.801868
31
0
39
0
210
0
220
0
230
1
0
LINE
5
9E
100
AcDbEntity
8
1
62
256
6
ByLayer
370
18
48
1
60
0
100
AcDbLine
10
136
20
14.093216
30
0
11
140.590124
21
10.714039
31
0
39
0
210
0
220
0
230
1
0
LINE
5
9F
100
AcDbEntity
8
1
62
256
6
ByLayer
370
18
48
1
60
0
100
AcDbLine
10
136
20
22
30
0
11
136
21
14.093216
31
0
39
0
210
0
220
0
230
1
0
LINE
5
A0
100
AcDbEntity
8
1
62
256
6
ByLayer
370
18
48
1
60
0
100
AcDbLine
10
144.5
20
30.5
30
0
11
136
21
22
31
0
39
0
210
0
220
0
230
1
0
LINE
5
A1
100
AcDbEntity
8
1
62
256
6
ByLayer
370
18
48
1
60
0
100
AcDbLine
10
145
20
30
30
0
11
144.5
21
30.5
31
0
39
0
210
0
220
0
230
1
0
LINE
5
A2
100
AcDbEntity
8
1
62
256
6
ByLayer
370
18
48
1
60
0
100
AcDbLine
10
145
20
13.801868
30
0
11
145
21
30
31
0
39
0
210
0
220
0
230
1
0
LINE
5
A3
100
AcDbEntity
8
1
62
256
6
ByLayer
370
18
48
1
60
0
100
AcDbLine
10
145
20
13.801868
30
0
11
150
21
17.302906
31
0
39
0
210
0
220
0
230
1
0
LINE
5
A4
100
AcDbEntity
8
1
62
256
6
ByLayer
370
18
48
1
60
0
100
AcDbLine
10
145
20
25.85
30
0
11
145
21
13.801868
31
0
39
0
210
0
220
0
230
1
0
LINE
5
A5
100
AcDbEntity
8
1
62
256
6
ByLayer
370
18
48
1
60
0
100
AcDbLine
10
148.662374
20
26
30
0
11
146.019099
21
26
31
0
39
0
210
0
220
0
230
1
0
LINE
5
A6
100
AcDbEntity
8
1
62
256
6
ByLayer
370
18
48
1
60
0
100
AcDbLine
10
150
20
17.302906
30
0
11
150
21
25.631867
31
0
39
0
210
0
220
0
230
1
0
LINE
5
A7
100
AcDbEntity
8
1
62
256
6
ByLayer
370
18
48
1
60
0
100
AcDbLine
10
149
20
31
30
0
11
24.950313
21
31
31
0
39
0
210
0
220
0
230
1
0
LINE
5
A8
100
AcDbEntity
8
1
62
256
6
ByLayer
370
18
48
1
60
0
100
AcDbLine
10
149.892768
20
30.107232
30
0
11
149
21
31
31
0
39
0
210
0
220
0
230
1
0
LINE
5
A9
100
AcDbEntity
8
1
62
256
6
ByLayer
370
18
48
1
60
0
100
AcDbLine
10
150
20
26.637055
30
0
11
150
21
29.724823
31
0
39
0
210
0
220
0
230
1
0
LINE
5
AA
100
AcDbEntity
8
1
62
256
6
ByLayer
370
18
48
1
60
0
100
AcDbLine
10
22
20
28.481477
30
0
11
22
21
26.001477
31
0
39
0
210
0
220
0
230
1
0
LINE
5
AB
100
AcDbEntity
8
1
62
256
6
ByLayer
370
18
48
1
60
0
100
AcDbLine
10
24.55
20
28.481477
30
0
11
22
21
28.481477
31
0
39
0
210
0
220
0
230
1
0
LINE
5
AC
100
AcDbEntity
8
1
62
256
6
ByLayer
370
18
48
1
60
0
100
AcDbLine
10
22.433013
20
29.231477
30
0
11
24.683013
21
29.231477
31
0
39
0
210
0
220
0
230
1
0
LINE
5
AD
100
AcDbEntity
8
80
62
256
6
ByLayer
370
13
48
1
60
0
100
AcDbLine
10
0
20
0
30
0
11
-12
21
0
31
0
39
0
210
0
220
0
230
1
0
LINE
5
AE
100
AcDbEntity
8
1
62
256
6
ByLayer
370
18
48
1
60
0
100
AcDbLine
10
145.961082
20
14.5
30
0
11
146
21
14.539548
31
0
39
0
210
0
220
0
230
1
0
LINE
5
AF
100
AcDbEntity
8
1
62
256
6
ByLayer
370
18
48
1
60
0
100
AcDbLine
10
144
20
31
30
0
11
28.770981
21
31
31
0
39
0
210
0
220
0
230
1
0
LINE
5
B0
100
AcDbEntity
8
1
62
256
6
ByLayer
370
18
48
1
60
0
100
AcDbLine
10
144.5
20
30.5
30
0
11
144
21
31
31
0
39
0
210
0
220
0
230
1
0
LINE
5
B1
100
AcDbEntity
8
1
62
256
6
ByLayer
370
18
48
1
60
0
100
AcDbLine
10
145
20
30
30
0
11
144.5
21
30.5
31
0
39
0
210
0
220
0
230
1
0
LINE
5
B2
100
AcDbEntity
8
1
62
256
6
ByLayer
370
18
48
1
60
0
100
AcDbLine
10
145
20
14.841415
30
0
11
145
21
30
31
0
39
0
210
0
220
0
230
1
0
LINE
5
B3
100
AcDbEntity
8
1
62
256
6
ByLayer
370
18
48
1
60
0
100
AcDbLine
10
136.122308
20
7.585641
30
0
11
145
21
13.801868
31
0
39
0
210
0
220
0
230
1
0
LINE
5
B4
100
AcDbEntity
8
1
62
256
6
ByLayer
370
18
48
1
60
0
100
AcDbLine
10
145
20
14.841415
30
0
11
145
21
13.801868
31
0
39
0
210
0
220
0
230
1
0
LINE
5
B5
100
AcDbEntity
8
1
62
256
6
ByLayer
370
18
48
1
60
0
100
AcDbLine
10
94.75
20
31.4
30
0
11
85.25
21
31.4
31
0
39
0
210
0
220
0
230
1
0
LINE
5
B6
100
AcDbEntity
8
1
62
256
6
ByLayer
370
18
48
1
60
0
100
AcDbLine
10
92.5
20
33.75
30
0
11
87.5
21
33.75
31
0
39
0
210
0
220
0
230
1
0
LINE
5
B7
100
AcDbEntity
8
1
62
256
6
ByLayer
370
18
48
1
60
0
100
AcDbLine
10
113.75
20
31.4
30
0
11
104.25
21
31.4
31
0
39
0
210
0
220
0
230
1
0
LINE
5
B8
100
AcDbEntity
8
1
62
256
6
ByLayer
370
18
48
1
60
0
100
AcDbLine
10
111.5
20
33.75
30
0
11
106.5
21
33.75
31
0
39
0
210
0
220
0
230
1
0
LINE
5
B9
100
AcDbEntity
8
1
62
256
6
ByLayer
370
18
48
1
60
0
100
AcDbLine
10
132.75
20
31.4
30
0
11
123.25
21
31.4
31
0
39
0
210
0
220
0
230
1
0
LINE
5
BA
100
AcDbEntity
8
1
62
256
6
ByLayer
370
18
48
1
60
0
100
AcDbLine
10
130.5
20
33.75
30
0
11
125.5
21
33.75
31
0
39
0
210
0
220
0
230
1
0
LINE
5
BB
100
AcDbEntity
8
1
62
256
6
ByLayer
370
18
48
1
60
0
100
AcDbLine
10
149
20
31
30
0
11
27.158135
21
31
31
0
39
0
210
0
220
0
230
1
0
LINE
5
BC
100
AcDbEntity
8
1
62
256
6
ByLayer
370
18
48
1
60
0
100
AcDbLine
10
149.892768
20
30.107232
30
0
11
149
21
31
31
0
39
0
210
0
220
0
230
1
0
LINE
5
BD
100
AcDbEntity
8
1
62
256
6
ByLayer
370
18
48
1
60
0
100
AcDbLine
10
145
20
13.801868
30
0
11
150
21
17.302906
31
0
39
0
210
0
220
0
230
1
0
LINE
5
BE
100
AcDbEntity
8
1
62
256
6
ByLayer
370
18
48
1
60
0
100
AcDbLine
10
145
20
25.85
30
0
11
145
21
13.801868
31
0
39
0
210
0
220
0
230
1
0
LINE
5
BF
100
AcDbEntity
8
1
62
256
6
ByLayer
370
18
48
1
60
0
100
AcDbLine
10
148.662374
20
26
30
0
11
146.019099
21
26
31
0
39
0
210
0
220
0
230
1
0
LINE
5
C0
100
AcDbEntity
8
1
62
256
6
ByLayer
370
18
48
1
60
0
100
AcDbLine
10
150
20
17.302906
30
0
11
150
21
25.631867
31
0
39
0
210
0
220
0
230
1
0
LINE
5
C1
100
AcDbEntity
8
SK4
62
256
6
ByLayer
370
13
48
0.05
60
0
100
AcDbLine
10
-31.5
20
0
30
0
11
154
21
0
31
0
39
0
210
0
220
0
230
1
0
LINE
5
C3
100
AcDbEntity
8
1
62
256
6
ByLayer
370
18
48
1
60
0
100
AcDbLine
10
146.993767
20
22
30
0
11
145
21
22
31
0
39
0
210
0
220
0
230
1
0
LINE
5
C4
100
AcDbEntity
8
1
62
256
6
ByLayer
370
18
48
1
60
0
100
AcDbLine
10
145
20
26
30
0
11
146.993767
21
26
31
0
39
0
210
0
220
0
230
1
0
LINE
5
C5
100
AcDbEntity
8
SK3
62
256
6
ByLayer
370
13
48
0.05
60
0
100
AcDbLine
10
146.019099
20
26
30
0
11
21.462099
21
26
31
0
39
0
210
0
220
0
230
1
0
LINE
5
C7
100
AcDbEntity
8
1
62
256
6
ByLayer
370
18
48
1
60
0
100
AcDbLine
10
150
20
25.631867
30
0
11
150
21
29.724823
31
0
39
0
210
0
220
0
230
1
0
LINE
5
C8
100
AcDbEntity
8
1
62
256
6
ByLayer
370
18
48
1
60
0
100
AcDbLine
10
87.5
20
33.75
30
0
11
85.25
21
31.4
31
0
39
0
210
0
220
0
230
1
0
LINE
5
C9
100
AcDbEntity
8
1
62
256
6
ByLayer
370
18
48
1
60
0
100
AcDbLine
10
92.5
20
33.75
30
0
11
94.75
21
31.4
31
0
39
0
210
0
220
0
230
1
0
LINE
5
CA
100
AcDbEntity
8
1
62
256
6
ByLayer
370
18
48
1
60
0
100
AcDbLine
10
106.5
20
33.75
30
0
11
104.25
21
31.4
31
0
39
0
210
0
220
0
230
1
0
LINE
5
CB
100
AcDbEntity
8
1
62
256
6
ByLayer
370
18
48
1
60
0
100
AcDbLine
10
111.5
20
33.75
30
0
11
113.75
21
31.4
31
0
39
0
210
0
220
0
230
1
0
LINE
5
CC
100
AcDbEntity
8
1
62
256
6
ByLayer
370
18
48
1
60
0
100
AcDbLine
10
125.5
20
33.75
30
0
11
123.25
21
31.4
31
0
39
0
210
0
220
0
230
1
0
LINE
5
CD
100
AcDbEntity
8
1
62
256
6
ByLayer
370
18
48
1
60
0
100
AcDbLine
10
130.5
20
33.75
30
0
11
132.75
21
31.4
31
0
39
0
210
0
220
0
230
1
0
LINE
5
CE
100
AcDbEntity
8
1
62
256
6
ByLayer
370
18
48
1
60
0
100
AcDbLine
10
85.25
20
31.4
30
0
11
85.25
21
31
31
0
39
0
210
0
220
0
230
1
0
LINE
5
CF
100
AcDbEntity
8
1
62
256
6
ByLayer
370
18
48
1
60
0
100
AcDbLine
10
94.75
20
31.4
30
0
11
94.75
21
31
31
0
39
0
210
0
220
0
230
1
0
LINE
5
D0
100
AcDbEntity
8
1
62
256
6
ByLayer
370
18
48
1
60
0
100
AcDbLine
10
104.25
20
31.4
30
0
11
104.25
21
31
31
0
39
0
210
0
220
0
230
1
0
LINE
5
D1
100
AcDbEntity
8
1
62
256
6
ByLayer
370
18
48
1
60
0
100
AcDbLine
10
113.75
20
31.4
30
0
11
113.75
21
31
31
0
39
0
210
0
220
0
230
1
0
LINE
5
D2
100
AcDbEntity
8
1
62
256
6
ByLayer
370
18
48
1
60
0
100
AcDbLine
10
123.25
20
31.4
30
0
11
123.25
21
31
31
0
39
0
210
0
220
0
230
1
0
LINE
5
D3
100
AcDbEntity
8
1
62
256
6
ByLayer
370
18
48
1
60
0
100
AcDbLine
10
132.75
20
31.4
30
0
11
132.75
21
31
31
0
39
0
210
0
220
0
230
1
0
LINE
5
D4
100
AcDbEntity
8
81
62
256
6
ByLayer
370
13
48
1
60
0
100
AcDbLine
10
150
20
26
30
0
11
160
21
26
31
0
39
0
210
0
220
0
230
1
0
LINE
5
D5
100
AcDbEntity
8
1
62
256
6
ByLayer
370
18
48
1
60
0
100
AcDbLine
10
0
20
24.7
30
0
11
0
21
-24.7
31
0
39
0
210
0
220
0
230
1
0
LINE
5
D6
100
AcDbEntity
8
SK1
62
256
6
ByLayer
370
18
48
1
60
0
100
AcDbLine
10
-30
20
15.970535
30
0
11
-30
21
-15.970535
31
0
39
0
210
0
220
0
230
1
0
LINE
5
D7
100
AcDbEntity
8
SK1
62
256
6
ByLayer
370
18
48
1
60
0
100
AcDbLine
10
-28.5
20
-16.850767
30
0
11
-28.5
21
16.849233
31
0
39
0
210
0
220
0
230
1
0
LINE
5
D8
100
AcDbEntity
8
SK1
62
256
6
ByLayer
370
18
48
1
60
0
100
AcDbLine
10
-1.99504
20
17.323766
30
0
11
-0.194977
21
17.364569
31
0
39
0
210
0
220
0
230
1
0
LINE
5
D9
100
AcDbEntity
8
SK1
62
256
6
ByLayer
370
18
48
1
60
0
100
AcDbLine
10
-1.99504
20
-17.323766
30
0
11
-0.194977
21
-17.364569
31
0
39
0
210
0
220
0
230
1
0
LINE
5
DA
100
AcDbEntity
8
1
62
256
6
ByLayer
370
18
48
1
60
0
100
AcDbLine
10
21.46275
20
26.001943
30
0
11
24.15775
21
26.001943
31
0
39
0
210
0
220
0
230
1
0
LINE
5
DB
100
AcDbEntity
8
1
62
256
6
ByLayer
370
18
48
1
60
0
100
AcDbLine
10
24.258193
20
26.637055
30
0
11
24.155332
21
26
31
0
39
0
210
0
220
0
230
1
0
LINE
5
DC
100
AcDbEntity
8
1
62
256
6
ByLayer
370
18
48
1
60
0
100
AcDbLine
10
22.433013
20
29.231477
30
0
11
22
21
28.481477
31
0
39
0
210
0
220
0
230
1
0
LINE
5
DD
100
AcDbEntity
8
4
62
256
6
ByLayer
370
13
48
0.05
60
0
100
AcDbLine
10
0
20
0
30
0
11
150
21
0
31
0
39
0
210
0
220
0
230
1
0
MTEXT
5
11C
100
AcDbEntity
8
SK6
62
256
6
ByLayer
370
18
48
1
60
0
100
AcDbMText
10
1.36529
20
-50.80403
30
0
210
0
220
0
230
1
1
\W0.7237;C5-APBR-150-25HP
40
3.5
41
0
44
1.084337
50
0
71
7
72
5
7
iso_b_vert
0
DIMENSION
5
12E
100
AcDbEntity
8
SK2
62
256
6
ByLayer
370
13
48
1
60
0
100
AcDbDimension
2
DimnDraft3D1
10
28
20
-38.585149
30
0
11
86.521053
21
-38.585149
31
0
70
32
71
5
72
1
41
1
210
0
220
0
230
1
3
Standard
100
AcDbAlignedDimension
13
150
23
15.802906
33
0
14
28
24
-26.75
34
0
50
0
100
AcDbRotatedDimension
1001
ACAD
1000
DSTYLE
1002
{
1070
   279
1070
     0
1070
   173
1070
     1
1070
   340
1005
11D
1070
   271
1070
     0
1070
   272
1070
     2
1070
    77
1070
     1
1070
    73
1070
     0
1070
   171
1070
     4
1070
   274
1070
     4
1070
   177
1070
     7
1070
   176
1070
     7
1070
   178
1070
     7
1070
    41
1041
3.0
1070
   147
1041
1.5
1070
    42
1041
1.5
1070
    44
1041
3.0
1070
   140
1041
3.0
1070
   343
1005
12F
1070
   344
1005
12F
1002
}
0
DIMENSION
5
144
100
AcDbEntity
8
2
62
256
6
ByLayer
370
13
48
1
60
0
100
AcDbDimension
2
DimnDraft3D2
10
149.946265
20
53.782803
30
0
11
72.494185
21
53.782803
31
0
70
32
71
5
72
1
41
1
210
0
220
0
230
1
3
Standard
100
AcDbAlignedDimension
13
0
23
26.2
33
0
14
149.946265
24
31.415564
34
0
50
0
100
AcDbRotatedDimension
1001
ACAD
1000
DSTYLE
1002
{
1070
   279
1070
     0
1070
   173
1070
     1
1070
   340
1005
11D
1070
   271
1070
     0
1070
   272
1070
     2
1070
    77
1070
     1
1070
    73
1070
     0
1070
   171
1070
     4
1070
   274
1070
     4
1070
   177
1070
     7
1070
   176
1070
     7
1070
   178
1070
     7
1070
    41
1041
3.0
1070
   147
1041
1.5
1070
    42
1041
1.5
1070
    44
1041
3.0
1070
   140
1041
3.0
1070
   343
1005
12F
1070
   344
1005
12F
1002
}
0
DIMENSION
5
152
100
AcDbEntity
8
SK2
62
256
6
ByLayer
370
13
48
1
60
0
100
AcDbDimension
2
DimnDraft3D3
10
-40.087223
20
25
30
0
11
-40.087223
21
-4.073684
31
0
70
32
71
5
72
1
41
1
210
0
220
0
230
1
3
Standard
100
AcDbAlignedDimension
13
-1.2
23
-25
33
0
14
-1.2
24
25
34
0
50
90
100
AcDbRotatedDimension
1001
ACAD
1000
DSTYLE
1002
{
1070
    74
1070
     0
1070
   279
1070
     0
1070
   173
1070
     1
1070
   340
1005
11D
1070
   271
1070
     0
1070
   272
1070
     2
1070
    77
1070
     1
1070
    73
1070
     0
1070
   171
1070
     4
1070
   274
1070
     4
1070
   177
1070
     7
1070
   176
1070
     7
1070
   178
1070
     7
1070
    41
1041
3.0
1070
   147
1041
1.5
1070
    42
1041
1.5
1070
    44
1041
3.0
1070
   140
1041
3.0
1070
   343
1005
12F
1070
   344
1005
12F
1002
}
0
DIMENSION
5
160
100
AcDbEntity
8
SK2
62
256
6
ByLayer
370
13
48
1
60
0
100
AcDbDimension
2
DimnDraft3D4
10
20.279208
20
43.650807
30
0
11
8.347499
21
43.650807
31
0
70
32
71
5
72
1
41
1
210
0
220
0
230
1
3
Standard
100
AcDbAlignedDimension
13
0
23
26.2
33
0
14
20.279208
24
26.5
34
0
50
0
100
AcDbRotatedDimension
1001
ACAD
1000
DSTYLE
1002
{
1070
   279
1070
     0
1070
   173
1070
     1
1070
   340
1005
11D
1070
   271
1070
     0
1070
   272
1070
     2
1070
    77
1070
     1
1070
    73
1070
     0
1070
   171
1070
     4
1070
   274
1070
     4
1070
   177
1070
     7
1070
   176
1070
     7
1070
   178
1070
     7
1070
    41
1041
3.0
1070
   147
1041
1.5
1070
    42
1041
1.5
1070
    44
1041
3.0
1070
   140
1041
3.0
1070
   343
1005
12F
1070
   344
1005
12F
1002
}
0
DIMENSION
5
16E
100
AcDbEntity
8
SK2
62
256
6
ByLayer
370
13
48
1
60
0
100
AcDbDimension
2
DimnDraft3D5
10
185.824632
20
31
30
0
11
185.824632
21
14.082895
31
0
70
32
71
5
72
1
41
1
210
0
220
0
230
1
3
Standard
100
AcDbAlignedDimension
13
155.5
23
0
33
0
14
150.5
24
31
34
0
50
90
100
AcDbRotatedDimension
1001
ACAD
1000
DSTYLE
1002
{
1070
    74
1070
     0
1070
   279
1070
     0
1070
   173
1070
     1
1070
   340
1005
11D
1070
   271
1070
     0
1070
   272
1070
     2
1070
    77
1070
     1
1070
    73
1070
     0
1070
   171
1070
     4
1070
   274
1070
     4
1070
   177
1070
     7
1070
   176
1070
     7
1070
   178
1070
     7
1070
    41
1041
3.0
1070
   147
1041
1.5
1070
    42
1041
1.5
1070
    44
1041
3.0
1070
   140
1041
3.0
1070
   343
1005
0
1070
   344
1005
0
1002
}
0
DIMENSION
5
17C
100
AcDbEntity
8
SK2
62
256
6
ByLayer
370
13
48
1
60
0
100
AcDbDimension
2
DimnDraft3D6
10
162.077766
20
7.5
30
0
11
162.077766
21
10.638694
31
0
70
32
71
5
72
1
41
1
210
0
220
0
230
1
3
Standard
100
AcDbAlignedDimension
13
155.5
23
0
33
0
14
137.5
24
7.5
34
0
50
90
100
AcDbRotatedDimension
1001
ACAD
1000
DSTYLE
1002
{
1070
    74
1070
     0
1070
   279
1070
     0
1070
   173
1070
     1
1070
   340
1005
11D
1070
   271
1070
     1
1070
   272
1070
     2
1070
    77
1070
     1
1070
    73
1070
     0
1070
   171
1070
     4
1070
   274
1070
     4
1070
   177
1070
     7
1070
   176
1070
     7
1070
   178
1070
     7
1070
    41
1041
3.0
1070
   147
1041
1.5
1070
    42
1041
1.5
1070
    44
1041
3.0
1070
   140
1041
3.0
1070
   343
1005
12F
1070
   344
1005
12F
1002
}
0
DIMENSION
5
18A
100
AcDbEntity
8
SK2
62
256
6
ByLayer
370
13
48
1
60
0
100
AcDbDimension
2
DimnDraft3D7
10
174.426136
20
26
30
0
11
174.426136
21
11.207895
31
0
70
32
71
5
72
1
41
1
210
0
220
0
230
1
3
Standard
100
AcDbAlignedDimension
13
155.5
23
0
33
0
14
150.162374
24
26
34
0
50
90
100
AcDbRotatedDimension
1001
ACAD
1000
DSTYLE
1002
{
1070
    74
1070
     0
1070
   279
1070
     0
1070
   173
1070
     1
1070
   340
1005
11D
1070
   271
1070
     0
1070
   272
1070
     2
1070
    77
1070
     1
1070
    73
1070
     0
1070
   171
1070
     4
1070
   274
1070
     4
1070
   177
1070
     7
1070
   176
1070
     7
1070
   178
1070
     7
1070
    41
1041
3.0
1070
   147
1041
1.5
1070
    42
1041
1.5
1070
    44
1041
3.0
1070
   140
1041
3.0
1070
   343
1005
12F
1070
   344
1005
12F
1002
}
0
ENDSEC
0
SECTION
2
OBJECTS
0
DICTIONARY
5
1f8
330
0
100
AcDbDictionary
280
0
281
1
3
ACAD_GROUP
350
1f9
3
ACAD_GROUP
350
1fa
3
ACAD_MLINESTYLE
350
1fb
0
DICTIONARY
5
1f9
330
0
100
AcDbDictionary
280
0
281
1
0
DICTIONARY
5
1fa
330
0
100
AcDbDictionary
280
0
281
1
3
<201218884MOD000_00>
350
193
0
DICTIONARY
5
1fb
330
0
100
AcDbDictionary
280
0
281
1
3
Standard
350
18
0
GROUP
5
193
330
1fa
100
AcDbGroup
300

70
0
71
1
340
6C
340
6E
340
70
340
72
340
73
340
74
340
75
340
76
340
77
340
78
340
79
340
7A
340
7B
340
7C
340
7D
340
7E
340
7F
340
80
340
81
340
82
340
83
340
84
340
85
340
87
340
88
340
89
340
8A
340
8B
340
8C
340
8D
340
8E
340
8F
340
90
340
91
340
92
340
93
340
94
340
95
340
96
340
97
340
98
340
99
340
9A
340
9B
340
9C
340
9D
340
9E
340
9F
340
A0
340
A1
340
A2
340
A3
340
A4
340
A5
340
A6
340
A7
340
A8
340
A9
340
AA
340
AB
340
AC
340
AD
340
AE
340
AF
340
B0
340
B1
340
B2
340
B3
340
B4
340
B5
340
B6
340
B7
340
B8
340
B9
340
BA
340
BB
340
BC
340
BD
340
BE
340
BF
340
C0
340
C1
340
C3
340
C4
340
C5
340
C7
340
C8
340
C9
340
CA
340
CB
340
CC
340
CD
340
CE
340
CF
340
D0
340
D1
340
D2
340
D3
340
D4
340
D5
340
D6
340
D7
340
D8
340
D9
340
DA
340
DB
340
DC
340
DD
340
DF
340
E0
340
E1
340
E2
340
E3
340
E4
340
E5
340
E6
340
E7
340
E8
340
E9
340
EA
340
EB
340
EC
340
ED
340
EE
340
EF
340
F0
340
F1
340
F2
340
F3
340
F4
340
F5
340
F6
340
F7
340
F8
340
F9
340
FA
340
FB
340
FC
340
FD
340
FE
340
FF
340
100
340
101
340
102
340
103
340
104
340
105
340
106
340
107
340
108
340
109
340
10A
340
10B
340
10C
340
10D
340
10E
340
10F
340
110
340
111
340
112
340
113
340
114
340
115
340
116
340
117
340
118
340
119
340
11A
340
11B
340
11C
340
12E
340
144
340
152
340
160
340
16E
340
17C
340
18A
0
MLINESTYLE
5
18
330
1fb
100
AcDbMlineStyle
2
Standard
70
0
3

62
256
51
90
52
90
71
2
49
-0.5
62
256
6
ByLayer
49
0.5
62
256
6
ByLayer
0
RASTERVARIABLES
5
1e4
330

100
AcDbRasterVariables
90
0
70
1
71
1
72
1
0
ENDSEC
0
EOF
