  0
SECTION
  2
HEADER
  9
$ACADVER
  1
AC1015
  9
$ACADMAINTVER
 70
     6
  9
$DWGCODEPAGE
  3
ANSI_1252
  9
$INSBASE
 10
0.0
 20
0.0
 30
0.0
  9
$EXTMIN
 10
0.0
 20
0.0
 30
0.0
  9
$EXTMAX
 10
210.0
 20
297.0
 30
0.0
  9
$LIMMIN
 10
0.0
 20
0.0
  9
$LIMMAX
 10
210.0
 20
297.0
  9
$ORTHOMODE
 70
     0
  9
$REGENMODE
 70
     1
  9
$FILLMODE
 70
     1
  9
$QTEXTMODE
 70
     0
  9
$MIRRTEXT
 70
     1
  9
$LTSCALE
 40
1.0
  9
$ATTMODE
 70
     1
  9
$TEXTSIZE
 40
2.5
  9
$TRACEWID
 40
1.0
  9
$TEXTSTYLE
  7
Standard
  9
$CLAYER
  8
0
  9
$CELTYPE
  6
ByLayer
  9
$CECOLOR
 62
   256
  9
$CELTSCALE
 40
1.0
  9
$DISPSILH
 70
     0
  9
$DIMSCALE
 40
1.0
  9
$DIMASZ
 40
2.5
  9
$DIMEXO
 40
0.625
  9
$DIMDLI
 40
3.75
  9
$DIMRND
 40
0.0
  9
$DIMDLE
 40
0.0
  9
$DIMEXE
 40
1.25
  9
$DIMTP
 40
0.0
  9
$DIMTM
 40
0.0
  9
$DIMTXT
 40
2.5
  9
$DIMCEN
 40
2.5
  9
$DIMTSZ
 40
0.0
  9
$DIMTOL
 70
     0
  9
$DIMLIM
 70
     0
  9
$DIMTIH
 70
     0
  9
$DIMTOH
 70
     0
  9
$DIMSE1
 70
     0
  9
$DIMSE2
 70
     0
  9
$DIMTAD
 70
     1
  9
$DIMZIN
 70
     8
  9
$DIMBLK
  1

  9
$DIMASO
 70
     1
  9
$DIMSHO
 70
     1
  9
$DIMPOST
  1

  9
$DIMAPOST
  1

  9
$DIMALT
 70
     0
  9
$DIMALTD
 70
     3
  9
$DIMALTF
 40
0.0393700787
  9
$DIMLFAC
 40
1.0
  9
$DIMTOFL
 70
     1
  9
$DIMTVP
 40
0.0
  9
$DIMTIX
 70
     0
  9
$DIMSOXD
 70
     0
  9
$DIMSAH
 70
     0
  9
$DIMBLK1
  1

  9
$DIMBLK2
  1

  9
$DIMSTYLE
  2
ISO-25
  9
$DIMCLRD
 70
     0
  9
$DIMCLRE
 70
     0
  9
$DIMCLRT
 70
     0
  9
$DIMTFAC
 40
1.0
  9
$DIMGAP
 40
0.625
  9
$DIMJUST
 70
     0
  9
$DIMSD1
 70
     0
  9
$DIMSD2
 70
     0
  9
$DIMTOLJ
 70
     0
  9
$DIMTZIN
 70
     8
  9
$DIMALTZ
 70
     0
  9
$DIMALTTZ
 70
     0
  9
$DIMUPT
 70
     0
  9
$DIMDEC
 70
     2
  9
$DIMTDEC
 70
     2
  9
$DIMALTU
 70
     2
  9
$DIMALTTD
 70
     3
  9
$DIMTXSTY
  7
Standard
  9
$DIMAUNIT
 70
     0
  9
$DIMADEC
 70
     0
  9
$DIMALTRND
 40
0.0
  9
$DIMAZIN
 70
     0
  9
$DIMDSEP
 70
    44
  9
$DIMATFIT
 70
     3
  9
$DIMFRAC
 70
     0
  9
$DIMLDRBLK
  1

  9
$DIMLUNIT
 70
     2
  9
$DIMLWD
 70
    -2
  9
$DIMLWE
 70
    -2
  9
$DIMTMOVE
 70
     0
  9
$LUNITS
 70
     2
  9
$LUPREC
 70
     4
  9
$SKETCHINC
 40
1.0
  9
$FILLETRAD
 40
10.0
  9
$AUNITS
 70
     0
  9
$AUPREC
 70
     0
  9
$MENU
  1
.
  9
$ELEVATION
 40
0.0
  9
$PELEVATION
 40
0.0
  9
$THICKNESS
 40
0.0
  9
$LIMCHECK
 70
     0
  9
$CHAMFERA
 40
10.0
  9
$CHAMFERB
 40
10.0
  9
$CHAMFERC
 40
20.0
  9
$CHAMFERD
 40
0.0
  9
$SKPOLY
 70
     0
  9
$TDCREATE
 40
2457564.343876111
  9
$TDUCREATE
 40
2457564.260542778
  9
$TDUPDATE
 40
2457564.343878194
  9
$TDUUPDATE
 40
2457564.260544861
  9
$TDINDWG
 40
0.0000000116
  9
$TDUSRTIMER
 40
0.0000000116
  9
$USRTIMER
 70
     1
  9
$ANGBASE
 50
0.0
  9
$ANGDIR
 70
     0
  9
$PDMODE
 70
     0
  9
$PDSIZE
 40
0.0
  9
$PLINEWID
 40
0.0
  9
$SPLFRAME
 70
     0
  9
$SPLINETYPE
 70
     6
  9
$SPLINESEGS
 70
     8
  9
$HANDSEED
  5
19B
  9
$SURFTAB1
 70
     6
  9
$SURFTAB2
 70
     6
  9
$SURFTYPE
 70
     6
  9
$SURFU
 70
     6
  9
$SURFV
 70
     6
  9
$UCSBASE
  2

  9
$UCSNAME
  2

  9
$UCSORG
 10
0.0
 20
0.0
 30
0.0
  9
$UCSXDIR
 10
1.0
 20
0.0
 30
0.0
  9
$UCSYDIR
 10
0.0
 20
1.0
 30
0.0
  9
$UCSORTHOREF
  2

  9
$UCSORTHOVIEW
 70
     0
  9
$UCSORGTOP
 10
0.0
 20
0.0
 30
0.0
  9
$UCSORGBOTTOM
 10
0.0
 20
0.0
 30
0.0
  9
$UCSORGLEFT
 10
0.0
 20
0.0
 30
0.0
  9
$UCSORGRIGHT
 10
0.0
 20
0.0
 30
0.0
  9
$UCSORGFRONT
 10
0.0
 20
0.0
 30
0.0
  9
$UCSORGBACK
 10
0.0
 20
0.0
 30
0.0
  9
$PUCSBASE
  2

  9
$PUCSNAME
  2

  9
$PUCSORG
 10
0.0
 20
0.0
 30
0.0
  9
$PUCSXDIR
 10
1.0
 20
0.0
 30
0.0
  9
$PUCSYDIR
 10
0.0
 20
1.0
 30
0.0
  9
$PUCSORTHOREF
  2

  9
$PUCSORTHOVIEW
 70
     0
  9
$PUCSORGTOP
 10
0.0
 20
0.0
 30
0.0
  9
$PUCSORGBOTTOM
 10
0.0
 20
0.0
 30
0.0
  9
$PUCSORGLEFT
 10
0.0
 20
0.0
 30
0.0
  9
$PUCSORGRIGHT
 10
0.0
 20
0.0
 30
0.0
  9
$PUCSORGFRONT
 10
0.0
 20
0.0
 30
0.0
  9
$PUCSORGBACK
 10
0.0
 20
0.0
 30
0.0
  9
$USERI1
 70
     0
  9
$USERI2
 70
     0
  9
$USERI3
 70
     0
  9
$USERI4
 70
     0
  9
$USERI5
 70
     0
  9
$USERR1
 40
0.0
  9
$USERR2
 40
0.0
  9
$USERR3
 40
0.0
  9
$USERR4
 40
0.0
  9
$USERR5
 40
0.0
  9
$WORLDVIEW
 70
     1
  9
$SHADEDGE
 70
     3
  9
$SHADEDIF
 70
    70
  9
$TILEMODE
 70
     1
  9
$MAXACTVP
 70
    64
  9
$PINSBASE
 10
0.0
 20
0.0
 30
0.0
  9
$PLIMCHECK
 70
     0
  9
$PEXTMIN
 10
0.0
 20
0.0
 30
0.0
  9
$PEXTMAX
 10
210.0
 20
297.0
 30
0.0
  9
$PLIMMIN
 10
0.0
 20
0.0
  9
$PLIMMAX
 10
210.0
 20
297.0
  9
$UNITMODE
 70
     0
  9
$VISRETAIN
 70
     1
  9
$PLINEGEN
 70
     0
  9
$PSLTSCALE
 70
     1
  9
$TREEDEPTH
 70
  3020
  9
$CMLSTYLE
  2
Standard
  9
$CMLJUST
 70
     0
  9
$CMLSCALE
 40
20.0
  9
$PROXYGRAPHICS
 70
     1
  9
$MEASUREMENT
 70
     1
  9
$CELWEIGHT
370
    -1
  9
$ENDCAPS
280
     0
  9
$JOINSTYLE
280
     0
  9
$LWDISPLAY
290
     0
  9
$INSUNITS
 70
     4
  9
$HYPERLINKBASE
  1

  9
$STYLESHEET
  1

  9
$XEDIT
290
     1
  9
$CEPSNTYPE
380
     0
  9
$PSTYLEMODE
290
     1
  9
$FINGERPRINTGUID
  2
{7908AD09-AA69-4EA5-B9B6-A76521239164}
  9
$VERSIONGUID
  2
{FAEB1C32-E019-11D5-929B-00C0DF256EC4}
  9
$EXTNAMES
290
     1
  9
$PSVPSCALE
 40
0.0
  9
$OLESTARTUP
290
     0
  0
ENDSEC
  0
SECTION
  2
CLASSES
  0
CLASS
  1
ACDBDICTIONARYWDFLT
  2
AcDbDictionaryWithDefault
  3
ObjectDBX Classes
 90
        0
280
     0
281
     0
  0
CLASS
  1
VISUALSTYLE
  2
AcDbVisualStyle
  3
ObjectDBX Classes
 90
     4095
280
     0
281
     0
  0
CLASS
  1
MATERIAL
  2
AcDbMaterial
  3
ObjectDBX Classes
 90
     1153
280
     0
281
     0
  0
CLASS
  1
DICTIONARYVAR
  2
AcDbDictionaryVar
  3
ObjectDBX Classes
 90
        0
280
     0
281
     0
  0
CLASS
  1
ACDBPLACEHOLDER
  2
AcDbPlaceHolder
  3
ObjectDBX Classes
 90
        0
280
     0
281
     0
  0
CLASS
  1
LAYOUT
  2
AcDbLayout
  3
ObjectDBX Classes
 90
        0
280
     0
281
     0
  0
ENDSEC
  0
SECTION
  2
TABLES
  0
TABLE
  2
VPORT
  5
8
330
0
100
AcDbSymbolTable
 70
     1
  0
VPORT
  5
29
330
8
100
AcDbSymbolTableRecord
100
AcDbViewportTableRecord
  2
*Active
 70
     0
 10
0.0
 20
0.0
 11
1.0
 21
1.0
 12
344.1869158879
 22
148.5
 13
0.0
 23
0.0
 14
10.0
 24
10.0
 15
10.0
 25
10.0
 16
0.0
 26
0.0
 36
1.0
 17
0.0
 27
0.0
 37
0.0
 40
297.0
 41
1.9729729729
 42
50.0
 43
0.0
 44
0.0
 50
0.0
 51
0.0
 71
     0
 72
   100
 73
     1
 74
     3
 75
     0
 76
     0
 77
     0
 78
     0
281
     0
 65
     1
110
0.0
120
0.0
130
0.0
111
1.0
121
0.0
131
0.0
112
0.0
122
1.0
132
0.0
 79
     0
146
0.0
  0
ENDTAB
  0
TABLE
  2
LTYPE
  5
5
330
0
100
AcDbSymbolTable
 70
     2
  0
LTYPE
  5
14
330
5
100
AcDbSymbolTableRecord
100
AcDbLinetypeTableRecord
  2
ByBlock
 70
     0
  3

 72
    65
 73
     0
 40
0.0
  0
LTYPE
  5
15
330
5
100
AcDbSymbolTableRecord
100
AcDbLinetypeTableRecord
  2
ByLayer
 70
     0
  3

 72
    65
 73
     0
 40
0.0
  0
LTYPE
  5
16
330
5
100
AcDbSymbolTableRecord
100
AcDbLinetypeTableRecord
  2
Continuous
 70
     0
  3
Solid line
 72
    65
 73
     0
 40
0.0
  0
LTYPE
  5
5A
330
5
100
AcDbSymbolTableRecord
100
AcDbLinetypeTableRecord
  2
HIDDEN2
 70
     0
  3
Hidden (.5x) _ _ _ _ _ _ _ _ _ _ _ _ _ _ _ _ _ 
 72
    65
 73
     2
 40
4.7625
 49
3.175
 74
     4
 75
     0
340
0
 46
0.0
 50
0.0
 44
0.0
 45
0.0
 49
-1.5875
 74
     4
 75
     0
340
0
 46
0.0
 50
0.0
 44
0.0
 45
0.0
  0
ENDTAB
  0
TABLE
  2
LAYER
  5
2
330
0
100
AcDbSymbolTable
 70
     5
  0
LAYER
  5
10
330
2
100
AcDbSymbolTableRecord
100
AcDbLayerTableRecord
  2
0
 70
     0
 62
     7
  6
Continuous
370
    -3
390
F
  0
LAYER
  5
3F
330
2
100
AcDbSymbolTableRecord
100
AcDbLayerTableRecord
  2
SK2
 70
     0
 62
     7
  6
Continuous
370
    15
390
F
  0
LAYER
  5
40
330
2
100
AcDbSymbolTableRecord
100
AcDbLayerTableRecord
  2
SK1
 70
     0
 62
     4
  6
Continuous
370
    18
390
F
  0
LAYER
  5
59
330
2
100
AcDbSymbolTableRecord
100
AcDbLayerTableRecord
  2
SK3
 70
     0
 62
     1
  6
HIDDEN2
370
    15
390
F
  0
LAYER
  5
12E
330
2
100
AcDbSymbolTableRecord
100
AcDbLayerTableRecord
  2
SK4
 70
     0
 62
     2
  6
Continuous
370
    13
390
F
  0
ENDTAB
  0
TABLE
  2
STYLE
  5
3
330
0
100
AcDbSymbolTable
 70
     2
  0
STYLE
  5
11
330
3
100
AcDbSymbolTableRecord
100
AcDbTextStyleTableRecord
  2
Standard
 70
     0
 40
0.0
 41
1.0
 50
0.0
 71
     0
 42
2.5
  3
txt
  4

  0
STYLE
  5
142
330
3
100
AcDbSymbolTableRecord
100
AcDbTextStyleTableRecord
  2
SEACAD_Solid_Edge_ISO
 70
     0
 40
0.0
 41
1.0
 50
0.0
 71
     0
 42
0.2
  3
seiso.ttf
  4

1001
ACAD
1000
Solid Edge ISO
1071
        0
  0
ENDTAB
  0
TABLE
  2
VIEW
  5
6
330
0
100
AcDbSymbolTable
 70
     0
  0
ENDTAB
  0
TABLE
  2
UCS
  5
7
330
0
100
AcDbSymbolTable
 70
     0
  0
ENDTAB
  0
TABLE
  2
APPID
  5
9
330
0
100
AcDbSymbolTable
 70
     1
  0
APPID
  5
12
330
9
100
AcDbSymbolTableRecord
100
AcDbRegAppTableRecord
  2
ACAD
 70
     0
  0
ENDTAB
  0
TABLE
  2
DIMSTYLE
  5
A
330
0
100
AcDbSymbolTable
 70
     3
100
AcDbDimStyleTable
  0
DIMSTYLE
105
27
330
A
100
AcDbSymbolTableRecord
100
AcDbDimStyleTableRecord
  2
ISO-25
 70
     0
 41
2.5
 42
0.625
 43
3.75
 44
1.25
 73
     0
 74
     0
 77
     1
 78
     8
140
2.5
141
2.5
143
0.0393700787
147
0.625
171
     3
172
     1
178
     0
271
     2
272
     2
274
     3
278
    44
283
     0
284
     8
340
11
  0
DIMSTYLE
105
130
330
A
100
AcDbSymbolTableRecord
100
AcDbDimStyleTableRecord
  2
Standard
 70
     0
178
     0
340
11
  0
DIMSTYLE
105
143
102
{ACAD_REACTORS
330
144
330
14F
330
159
330
164
102
}
330
A
100
AcDbSymbolTableRecord
100
AcDbDimStyleTableRecord
  2
DIN
 70
     0
 41
3.5
 42
0.0
 44
1.75
 73
     0
 74
     0
 77
     1
 78
     8
140
3.5
141
1.75
147
1.75
172
     1
173
     1
178
     0
179
     3
271
     2
272
     2
278
    44
284
     8
340
142
343
13D
344
13D
  0
ENDTAB
  0
TABLE
  2
BLOCK_RECORD
  5
1
330
0
100
AcDbSymbolTable
 70
    10
  0
BLOCK_RECORD
  5
1F
330
1
100
AcDbSymbolTableRecord
100
AcDbBlockTableRecord
  2
*Model_Space
340
22
  0
BLOCK_RECORD
  5
1B
330
1
100
AcDbSymbolTableRecord
100
AcDbBlockTableRecord
  2
*Paper_Space
340
1E
  0
BLOCK_RECORD
  5
41
330
1
100
AcDbSymbolTableRecord
100
AcDbBlockTableRecord
  2
Nullpunkt
340
0
102
{BLKREFS
331
4B
102
}
  0
BLOCK_RECORD
  5
4C
330
1
100
AcDbSymbolTableRecord
100
AcDbBlockTableRecord
  2
Einfügepunkt
340
0
102
{BLKREFS
331
56
102
}
  0
BLOCK_RECORD
  5
131
330
1
100
AcDbSymbolTableRecord
100
AcDbBlockTableRecord
  2
_OBLIQUE
340
0
  0
BLOCK_RECORD
  5
135
330
1
100
AcDbSymbolTableRecord
100
AcDbBlockTableRecord
  2
_DOT
340
0
  0
BLOCK_RECORD
  5
13D
330
1
100
AcDbSymbolTableRecord
100
AcDbBlockTableRecord
  2
_SE_FILLED
340
0
  0
BLOCK_RECORD
  5
145
330
1
100
AcDbSymbolTableRecord
100
AcDbBlockTableRecord
  2
DMBLK57
340
0
  0
BLOCK_RECORD
  5
150
330
1
100
AcDbSymbolTableRecord
100
AcDbBlockTableRecord
  2
DMBLK58
340
0
  0
BLOCK_RECORD
  5
15A
330
1
100
AcDbSymbolTableRecord
100
AcDbBlockTableRecord
  2
DMBLK59
340
0
  0
BLOCK_RECORD
  5
165
330
1
100
AcDbSymbolTableRecord
100
AcDbBlockTableRecord
  2
DMBLK60
340
0
  0
ENDTAB
  0
ENDSEC
  0
SECTION
  2
BLOCKS
  0
BLOCK
  5
20
330
1F
100
AcDbEntity
  8
0
100
AcDbBlockBegin
  2
*Model_Space
 70
     0
 10
0.0
 20
0.0
 30
0.0
  3
*Model_Space
  1

  0
ENDBLK
  5
21
330
1F
100
AcDbEntity
  8
0
100
AcDbBlockEnd
  0
BLOCK
  5
1C
330
1B
100
AcDbEntity
 67
     1
  8
0
100
AcDbBlockBegin
  2
*Paper_Space
 70
     0
 10
0.0
 20
0.0
 30
0.0
  3
*Paper_Space
  1

  0
ENDBLK
  5
1D
330
1B
100
AcDbEntity
 67
     1
  8
0
100
AcDbBlockEnd
  0
BLOCK
  5
49
330
41
100
AcDbEntity
  8
0
100
AcDbBlockBegin
  2
Nullpunkt
 70
     0
 10
0.0
 20
0.0
 30
0.0
  3
Nullpunkt
  1

  0
HATCH
  5
42
330
41
100
AcDbEntity
  8
SK2
  6
Continuous
 62
     7
100
AcDbHatch
 10
0.0
 20
0.0
 30
0.0
210
0.0
220
0.0
230
1.0
  2
SOLID
 70
     1
 71
     0
 91
        1
 92
        1
 93
        3
 72
     1
 10
-1.0
 20
0.0
 11
0.0000000000000009
 21
0.0
 72
     1
 10
0.0
 20
0.0
 11
0.0
 21
1.000000000000001
 72
     2
 10
0.0
 20
0.0
 40
1.0
 50
90.0
 51
180.0
 73
     1
 97
        0
 75
     0
 76
     1
 98
        0
  0
HATCH
  5
43
330
41
100
AcDbEntity
  8
SK2
  6
Continuous
 62
     7
100
AcDbHatch
 10
0.0
 20
0.0
 30
0.0
210
0.0
220
0.0
230
1.0
  2
SOLID
 70
     1
 71
     0
 91
        1
 92
        1
 93
        3
 72
     2
 10
0.0
 20
0.0
 40
1.0
 50
270.0
 51
360.0
 73
     1
 72
     1
 10
1.0
 20
0.0
 11
-0.0000000000000009
 21
0.0
 72
     1
 10
0.0
 20
0.0
 11
0.0
 21
-1.000000000000001
 97
        0
 75
     0
 76
     1
 98
        0
  0
CIRCLE
  5
44
330
41
100
AcDbEntity
  8
SK2
  6
Continuous
 62
     7
100
AcDbCircle
 10
0.0
 20
0.0
 30
0.0
 40
1.0
  0
LINE
  5
45
330
41
100
AcDbEntity
  8
SK1
  6
Continuous
100
AcDbLine
 10
-1.0
 20
0.0
 30
0.0
 11
1.0
 21
0.0
 31
0.0
  0
LINE
  5
46
330
41
100
AcDbEntity
  8
SK1
  6
Continuous
100
AcDbLine
 10
0.0
 20
1.0
 30
0.0
 11
0.0
 21
-1.0
 31
0.0
  0
POINT
  5
47
330
41
100
AcDbEntity
  8
SK1
  6
Continuous
100
AcDbPoint
 10
0.0
 20
0.0
 30
0.0
  0
POINT
  5
48
330
41
100
AcDbEntity
  8
SK1
  6
Continuous
100
AcDbPoint
 10
0.0
 20
0.0
 30
0.0
  0
ENDBLK
  5
4A
330
41
100
AcDbEntity
  8
0
100
AcDbBlockEnd
  0
BLOCK
  5
54
330
4C
100
AcDbEntity
  8
0
100
AcDbBlockBegin
  2
Einfügepunkt
 70
     0
 10
0.0
 20
0.0
 30
0.0
  3
Einfügepunkt
  1

  0
HATCH
  5
4D
330
4C
100
AcDbEntity
  8
SK2
  6
Continuous
 62
     7
100
AcDbHatch
 10
0.0
 20
0.0
 30
0.0
210
0.0
220
0.0
230
1.0
  2
SOLID
 70
     1
 71
     0
 91
        1
 92
        1
 93
        3
 72
     1
 10
-0.4502381196756744
 20
-0.0000000000000018
 11
0.0000000000000033
 21
-0.0000000000000018
 72
     1
 10
0.0
 20
-0.0000000000000018
 11
0.0
 21
0.4502381196756812
 72
     2
 10
0.0
 20
-0.0000000000000018
 40
0.4502381196756812
 50
90.0
 51
180.0
 73
     1
 97
        0
 75
     0
 76
     1
 98
        0
  0
HATCH
  5
4E
330
4C
100
AcDbEntity
  8
SK2
  6
Continuous
 62
     7
100
AcDbHatch
 10
0.0
 20
0.0
 30
0.0
210
0.0
220
0.0
230
1.0
  2
SOLID
 70
     1
 71
     0
 91
        1
 92
        1
 93
        3
 72
     2
 10
0.0
 20
-0.0000000000000018
 40
0.4502381196756812
 50
270.0
 51
360.0
 73
     1
 72
     1
 10
0.4502381196756815
 20
-0.0000000000000018
 11
0.0000000000000038
 21
-0.0000000000000018
 72
     1
 10
0.0
 20
-0.0000000000000018
 11
0.0
 21
-0.4502381196756812
 97
        0
 75
     0
 76
     1
 98
        0
  0
CIRCLE
  5
4F
330
4C
100
AcDbEntity
  8
SK2
  6
Continuous
 62
     7
100
AcDbCircle
 10
0.0
 20
0.0
 30
0.0
 40
0.4502381196756812
  0
LINE
  5
50
330
4C
100
AcDbEntity
  8
SK1
  6
Continuous
100
AcDbLine
 10
-0.4502381197
 20
0.0
 30
0.0
 11
0.4502381197
 21
0.0
 31
0.0
  0
LINE
  5
51
330
4C
100
AcDbEntity
  8
SK1
  6
Continuous
100
AcDbLine
 10
0.0
 20
0.4502381197
 30
0.0
 11
0.0
 21
-0.4502381197
 31
0.0
  0
POINT
  5
52
330
4C
100
AcDbEntity
  8
SK2
  6
Continuous
 62
     7
100
AcDbPoint
 10
0.0
 20
0.0
 30
0.0
  0
POINT
  5
53
330
4C
100
AcDbEntity
  8
SK2
  6
Continuous
 62
     7
100
AcDbPoint
 10
0.0
 20
0.0
 30
0.0
  0
ENDBLK
  5
55
330
4C
100
AcDbEntity
  8
0
100
AcDbBlockEnd
  0
BLOCK
  5
132
330
131
100
AcDbEntity
  8
0
100
AcDbBlockBegin
  2
_OBLIQUE
 70
     0
 10
0.0
 20
0.0
 30
0.0
  3
_OBLIQUE
  1

  0
LINE
  5
134
330
131
100
AcDbEntity
  8
0
  6
ByBlock
 62
     0
370
    -2
100
AcDbLine
 10
-0.5
 20
-0.5
 30
0.0
 11
0.5
 21
0.5
 31
0.0
  0
ENDBLK
  5
133
330
131
100
AcDbEntity
  8
0
100
AcDbBlockEnd
  0
BLOCK
  5
136
330
135
100
AcDbEntity
  8
0
100
AcDbBlockBegin
  2
_DOT
 70
     0
 10
0.0
 20
0.0
 30
0.0
  3
_DOT
  1

  0
POLYLINE
  5
138
330
135
100
AcDbEntity
  8
0
  6
ByBlock
 62
     0
100
AcDb2dPolyline
 66
     1
 10
0.0
 20
0.0
 30
0.0
 70
     1
 40
0.5
 41
0.5
  0
VERTEX
  5
13A
330
138
100
AcDbEntity
  8
0
  6
ByBlock
 62
     0
100
AcDbVertex
100
AcDb2dVertex
 10
-0.25
 20
0.0
 30
0.0
 42
1.0
  0
VERTEX
  5
13B
330
138
100
AcDbEntity
  8
0
  6
ByBlock
 62
     0
100
AcDbVertex
100
AcDb2dVertex
 10
0.25
 20
0.0
 30
0.0
 42
1.0
  0
SEQEND
  5
13C
330
138
100
AcDbEntity
  8
0
  6
ByBlock
 62
     0
  0
LINE
  5
139
330
135
100
AcDbEntity
  8
0
  6
ByBlock
 62
     0
370
    -2
100
AcDbLine
 10
-0.5
 20
0.0
 30
0.0
 11
-1.0
 21
0.0
 31
0.0
  0
ENDBLK
  5
137
330
135
100
AcDbEntity
  8
0
100
AcDbBlockEnd
  0
BLOCK
  5
140
330
13D
100
AcDbEntity
  8
0
100
AcDbBlockBegin
  2
_SE_FILLED
 70
     0
 10
0.0
 20
0.0
 30
0.0
  3
_SE_FILLED
  1

  0
SOLID
  5
13E
330
13D
100
AcDbEntity
  8
0
 62
     0
100
AcDbTrace
 10
0.0
 20
0.0
 30
0.0
 11
-1.0
 21
-0.1665
 31
0.0
 12
-1.0
 22
0.1665
 32
0.0
 13
0.0
 23
0.0
 33
0.0
  0
LINE
  5
13F
330
13D
100
AcDbEntity
  8
0
 62
     0
100
AcDbLine
 10
0.0
 20
0.0
 30
0.0
 11
-1.0
 21
0.0
 31
0.0
  0
ENDBLK
  5
141
330
13D
100
AcDbEntity
  8
0
100
AcDbBlockEnd
  0
BLOCK
  5
14D
330
145
100
AcDbEntity
  8
0
100
AcDbBlockBegin
  2
DMBLK57
 70
     0
 10
0.0
 20
0.0
 30
0.0
  3
DMBLK57
  1

  0
HATCH
  5
146
330
145
100
AcDbEntity
  8
SK2
  6
Continuous
 62
   136
100
AcDbHatch
 10
0.0
 20
0.0
 30
0.0
210
0.0
220
0.0
230
1.0
  2
SOLID
 70
     1
 71
     0
 91
        1
 92
        1
 93
        3
 72
     1
 10
31.85646021903923
 20
-14.4999997921959
 11
30.68979351636142
 21
-14.4999997921959
 72
     1
 10
30.68979351636142
 20
-14.4999997921959
 11
31.27312686770033
 21
-17.99999990022932
 72
     1
 10
31.27312686770033
 20
-17.99999990022932
 11
31.85646021903923
 21
-14.4999997921959
 97
        0
 75
     0
 76
     1
 98
        0
  0
HATCH
  5
147
330
145
100
AcDbEntity
  8
SK2
  6
Continuous
 62
   136
100
AcDbHatch
 10
0.0
 20
0.0
 30
0.0
210
0.0
220
0.0
230
1.0
  2
SOLID
 70
     1
 71
     0
 91
        1
 92
        1
 93
        3
 72
     1
 10
31.85646021903923
 20
14.4999984420165
 11
31.27312686770033
 21
17.99999855004992
 72
     1
 10
31.27312686770033
 20
17.99999855004992
 11
30.68979351636142
 21
14.4999984420165
 72
     1
 10
30.68979351636142
 20
14.4999984420165
 11
31.85646021903923
 21
14.4999984420165
 97
        0
 75
     0
 76
     1
 98
        0
  0
LINE
  5
148
330
145
100
AcDbEntity
  8
SK2
  6
Continuous
 62
   136
100
AcDbLine
 10
20.88
 20
-17.9999999002
 30
0.0
 11
33.0231269217
 21
-17.9999999002
 31
0.0
  0
LINE
  5
149
330
145
100
AcDbEntity
  8
SK2
  6
Continuous
 62
   136
100
AcDbLine
 10
20.88
 20
18.0000000998
 30
0.0
 11
33.0231269217
 21
18.0000000998
 31
0.0
  0
LINE
  5
14A
330
145
100
AcDbEntity
  8
SK2
  6
Continuous
 62
   136
100
AcDbLine
 10
31.2731268677
 20
-17.9999999002
 30
0.0
 11
31.2731268677
 21
17.99999855
 31
0.0
  0
TEXT
  5
14B
330
145
100
AcDbEntity
  8
SK2
  6
Continuous
 62
   136
100
AcDbText
 10
30.3981268677
 20
0.0477265976
 30
0.0
 40
3.5
  1
36
 50
90.0
  7
SEACAD_Solid_Edge_ISO
 11
26.8981268677
 21
0.0477265976
 31
0.0
100
AcDbText
 73
     3
  0
TEXT
  5
14C
330
145
100
AcDbEntity
  8
SK2
  6
Continuous
 62
   136
100
AcDbText
 10
30.3981268677
 20
-4.0250006751
 30
0.0
 40
3.5
  1
ø
 50
90.0
  7
SEACAD_Solid_Edge_ISO
 11
26.8981268677
 21
-4.0250006751
 31
0.0
100
AcDbText
 73
     3
  0
ENDBLK
  5
14E
330
145
100
AcDbEntity
  8
0
100
AcDbBlockEnd
  0
BLOCK
  5
157
330
150
100
AcDbEntity
  8
0
100
AcDbBlockBegin
  2
DMBLK58
 70
     0
 10
0.0
 20
0.0
 30
0.0
  3
DMBLK58
  1

  0
HATCH
  5
151
330
150
100
AcDbEntity
  8
SK2
  6
Continuous
 62
   136
100
AcDbHatch
 10
0.0
 20
0.0
 30
0.0
210
0.0
220
0.0
230
1.0
  2
SOLID
 70
     1
 71
     0
 91
        1
 92
        1
 93
        3
 72
     1
 10
3.50000010803342
 20
-34.75217352526198
 11
3.50000010803342
 21
-33.58550682258418
 72
     1
 10
3.50000010803342
 20
-33.58550682258417
 11
0.0000000000000018
 21
-34.16884017392307
 72
     1
 10
0.0000000000000017
 20
-34.16884017392307
 11
3.50000010803342
 21
-34.75217352526197
 97
        0
 75
     0
 76
     1
 98
        0
  0
HATCH
  5
152
330
150
100
AcDbEntity
  8
SK2
  6
Continuous
 62
   136
100
AcDbHatch
 10
0.0
 20
0.0
 30
0.0
210
0.0
220
0.0
230
1.0
  2
SOLID
 70
     1
 71
     0
 91
        1
 92
        1
 93
        3
 72
     1
 10
17.58000021800399
 20
-34.75217352526198
 11
21.08000032603741
 21
-34.16884017392308
 72
     1
 10
21.08000032603741
 20
-34.16884017392307
 11
17.58000021800399
 21
-33.58550682258417
 72
     1
 10
17.58000021800399
 20
-33.58550682258417
 11
17.58000021800399
 21
-34.75217352526197
 97
        0
 75
     0
 76
     1
 98
        0
  0
LINE
  5
153
330
150
100
AcDbEntity
  8
SK2
  6
Continuous
 62
   136
100
AcDbLine
 10
0.0
 20
-24.9999712895
 30
0.0
 11
0.0
 21
-35.9188402279
 31
0.0
  0
LINE
  5
154
330
150
100
AcDbEntity
  8
SK2
  6
Continuous
 62
   136
100
AcDbLine
 10
21.08
 20
-21.1481850448
 30
0.0
 11
21.08
 21
-35.9188402279
 31
0.0
  0
LINE
  5
155
330
150
100
AcDbEntity
  8
SK2
  6
Continuous
 62
   136
100
AcDbLine
 10
0.0
 20
-34.1688401739
 30
0.0
 11
21.080000326
 21
-34.1688401739
 31
0.0
  0
TEXT
  5
156
330
150
100
AcDbEntity
  8
SK2
  6
Continuous
 62
   136
100
AcDbText
 10
6.2843183448
 20
-33.2938401739
 30
0.0
 40
3.5
  1
21,08
  7
SEACAD_Solid_Edge_ISO
 11
6.2843183448
 21
-29.7938401739
 31
0.0
100
AcDbText
 73
     3
  0
ENDBLK
  5
158
330
150
100
AcDbEntity
  8
0
100
AcDbBlockEnd
  0
BLOCK
  5
162
330
15A
100
AcDbEntity
  8
0
100
AcDbBlockBegin
  2
DMBLK59
 70
     0
 10
0.0
 20
0.0
 30
0.0
  3
DMBLK59
  1

  0
HATCH
  5
15B
330
15A
100
AcDbEntity
  8
SK2
  6
Continuous
 62
   136
100
AcDbHatch
 10
0.0
 20
0.0
 30
0.0
210
0.0
220
0.0
230
1.0
  2
SOLID
 70
     1
 71
     0
 91
        1
 92
        1
 93
        3
 72
     1
 10
-48.52203784200052
 20
21.49997138098681
 11
-47.35537113932272
 21
21.49997138098681
 72
     1
 10
-47.35537113932272
 20
21.49997138098681
 11
-47.93870449066162
 21
24.99997148902023
 72
     1
 10
-47.93870449066162
 20
24.99997148902023
 11
-48.52203784200052
 21
21.49997138098681
 97
        0
 75
     0
 76
     1
 98
        0
  0
HATCH
  5
15C
330
15A
100
AcDbEntity
  8
SK2
  6
Continuous
 62
   136
100
AcDbHatch
 10
0.0
 20
0.0
 30
0.0
210
0.0
220
0.0
230
1.0
  2
SOLID
 70
     1
 71
     0
 91
        1
 92
        1
 93
        3
 72
     1
 10
-48.52203784200052
 20
-21.49996954335964
 11
-47.93870449066162
 21
-24.99996965139306
 72
     1
 10
-47.93870449066162
 20
-24.99996965139306
 11
-47.35537113932272
 21
-21.49996954335964
 72
     1
 10
-47.35537113932272
 20
-21.49996954335964
 11
-48.52203784200052
 21
-21.49996954335964
 97
        0
 75
     0
 76
     1
 98
        0
  0
LINE
  5
15D
330
15A
100
AcDbEntity
  8
SK2
  6
Continuous
 62
   136
100
AcDbLine
 10
0.0
 20
24.999971489
 30
0.0
 11
-49.6887045447
 21
24.999971489
 31
0.0
  0
LINE
  5
15E
330
15A
100
AcDbEntity
  8
SK2
  6
Continuous
 62
   136
100
AcDbLine
 10
0.0
 20
-24.9999712895
 30
0.0
 11
-49.6887045447
 21
-24.9999712895
 31
0.0
  0
LINE
  5
15F
330
15A
100
AcDbEntity
  8
SK2
  6
Continuous
 62
   136
100
AcDbLine
 10
-47.9387044907
 20
24.999971489
 30
0.0
 11
-47.9387044907
 21
-24.9999696514
 31
0.0
  0
TEXT
  5
160
330
15A
100
AcDbEntity
  8
SK2
  6
Continuous
 62
   136
100
AcDbText
 10
-48.8137044907
 20
0.0079554643
 30
0.0
 40
3.5
  1
50
 50
90.0
  7
SEACAD_Solid_Edge_ISO
 11
-52.3137044907
 21
0.0079554643
 31
0.0
100
AcDbText
 73
     3
  0
TEXT
  5
161
330
15A
100
AcDbEntity
  8
SK2
  6
Continuous
 62
   136
100
AcDbText
 10
-48.8137044907
 20
-4.0647718085
 30
0.0
 40
3.5
  1
ø
 50
90.0
  7
SEACAD_Solid_Edge_ISO
 11
-52.3137044907
 21
-4.0647718085
 31
0.0
100
AcDbText
 73
     3
  0
ENDBLK
  5
163
330
15A
100
AcDbEntity
  8
0
100
AcDbBlockEnd
  0
BLOCK
  5
16C
330
165
100
AcDbEntity
  8
0
100
AcDbBlockBegin
  2
DMBLK60
 70
     0
 10
0.0
 20
0.0
 30
0.0
  3
DMBLK60
  1

  0
HATCH
  5
166
330
165
100
AcDbEntity
  8
SK2
  6
Continuous
 62
   136
100
AcDbHatch
 10
0.0
 20
0.0
 30
0.0
210
0.0
220
0.0
230
1.0
  2
SOLID
 70
     1
 71
     0
 91
        1
 92
        1
 93
        3
 72
     1
 10
-35.4199998919778
 20
33.53672421720154
 11
-38.92000000001121
 21
32.95339086586264
 72
     1
 10
-38.92000000001121
 20
32.95339086586264
 11
-35.4199998919778
 21
32.37005751452374
 72
     1
 10
-35.4199998919778
 20
32.37005751452374
 11
-35.4199998919778
 21
33.53672421720154
 97
        0
 75
     0
 76
     1
 98
        0
  0
HATCH
  5
167
330
165
100
AcDbEntity
  8
SK2
  6
Continuous
 62
   136
100
AcDbHatch
 10
0.0
 20
0.0
 30
0.0
210
0.0
220
0.0
230
1.0
  2
SOLID
 70
     1
 71
     0
 91
        1
 92
        1
 93
        3
 72
     1
 10
17.57999855085086
 20
33.53672421720154
 11
17.57999855085086
 21
32.37005751452374
 72
     1
 10
17.57999855085086
 20
32.37005751452374
 11
21.07999865888427
 21
32.95339086586264
 72
     1
 10
21.07999865888427
 20
32.95339086586264
 11
17.57999855085086
 21
33.53672421720154
 97
        0
 75
     0
 76
     1
 98
        0
  0
LINE
  5
168
330
165
100
AcDbEntity
  8
SK2
  6
Continuous
 62
   136
100
AcDbLine
 10
-38.92
 20
19.0939330638
 30
0.0
 11
-38.92
 21
34.7033909199
 31
0.0
  0
LINE
  5
169
330
165
100
AcDbEntity
  8
SK2
  6
Continuous
 62
   136
100
AcDbLine
 10
21.08
 20
19.5329139918
 30
0.0
 11
21.08
 21
34.7033909199
 31
0.0
  0
LINE
  5
16A
330
165
100
AcDbEntity
  8
SK2
  6
Continuous
 62
   136
100
AcDbLine
 10
-38.92
 20
32.9533908659
 30
0.0
 11
21.0799986589
 21
32.9533908659
 31
0.0
  0
TEXT
  5
16B
330
165
100
AcDbEntity
  8
SK2
  6
Continuous
 62
   136
100
AcDbText
 10
-11.027955216
 20
33.8283908659
 30
0.0
 40
3.5
  1
60
  7
SEACAD_Solid_Edge_ISO
 11
-11.027955216
 21
37.3283908659
 31
0.0
100
AcDbText
 73
     3
  0
ENDBLK
  5
16D
330
165
100
AcDbEntity
  8
0
100
AcDbBlockEnd
  0
ENDSEC
  0
SECTION
  2
ENTITIES
  0
INSERT
  5
4B
330
1F
100
AcDbEntity
  8
SK2
 62
     7
100
AcDbBlockReference
  2
Nullpunkt
 10
0.0
 20
0.0000000998
 30
0.0
  0
INSERT
  5
56
330
1F
100
AcDbEntity
  8
SK2
 62
     7
100
AcDbBlockReference
  2
Einfügepunkt
 10
21.08
 20
0.0000000998
 30
0.0
  0
LINE
  5
57
330
1F
100
AcDbEntity
  8
SK1
  6
Continuous
100
AcDbLine
 10
-38.4895865505
 20
-13.4981254729
 30
0.0
 11
-38.4895865505
 21
-0.4999999002
 31
0.0
  0
LINE
  5
58
330
1F
100
AcDbEntity
  8
SK1
  6
Continuous
100
AcDbLine
 10
-38.92
 20
-13.147895854
 30
0.0
 11
-38.92
 21
-0.4999999002
 31
0.0
  0
SPLINE
  5
5B
330
1F
100
AcDbEntity
  8
SK3
100
AcDbSpline
210
0.0
220
0.0
230
1.0
 70
     8
 71
     3
 72
    10
 73
     6
 74
     0
 42
0.0000000360969089
 43
0.0000000001
 12
1.0
 22
0.0
 32
0.0
 13
1.0
 23
0.0
 33
0.0
 40
0.0
 40
0.0
 40
0.0
 40
0.0
 40
0.5
 40
0.5
 40
1.0
 40
1.0
 40
1.0
 40
1.0
 10
-38.92000000001359
 20
-13.21803928910464
 30
0.0
 10
-38.92000000001111
 20
-13.18115646931569
 30
0.0
 10
-38.89879305994585
 20
-13.14446245628051
 30
0.0
 10
-38.82418503035915
 20
-13.09163582261071
 30
0.0
 10
-38.77283169975715
 20
-13.07656394082149
 30
0.0
 10
-38.72000000001121
 20
-13.07656394082206
 30
0.0
  0
SPLINE
  5
5C
330
1F
100
AcDbEntity
  8
SK3
100
AcDbSpline
210
0.0
220
0.0
230
1.0
 70
     8
 71
     3
 72
    10
 73
     6
 74
     0
 42
0.0000000360969089
 43
0.0000000001
 12
1.0
 22
0.0
 32
0.0
 13
1.0
 23
0.0
 33
0.0
 40
0.0
 40
0.0
 40
0.0
 40
0.0
 40
0.5
 40
0.5
 40
1.0
 40
1.0
 40
1.0
 40
1.0
 10
-38.92000000001359
 20
-12.51093250791809
 30
0.0
 10
-38.92000000001111
 20
-12.47404968812914
 30
0.0
 10
-38.89879305994584
 20
-12.43735567509396
 30
0.0
 10
-38.82418503035915
 20
-12.38452904142416
 30
0.0
 10
-38.77283169975716
 20
-12.36945715963495
 30
0.0
 10
-38.72000000001121
 20
-12.36945715963552
 30
0.0
  0
LINE
  5
5D
330
1F
100
AcDbEntity
  8
SK1
  6
Continuous
100
AcDbLine
 10
7.08
 20
-18.0278229543
 30
0.0
 11
7.08
 21
-10.4098689136
 31
0.0
  0
LINE
  5
5E
330
1F
100
AcDbEntity
  8
SK1
  6
Continuous
100
AcDbLine
 10
7.48
 20
-15.9060590511
 30
0.0
 11
7.48
 21
-9.2615785638
 31
0.0
  0
LINE
  5
5F
330
1F
100
AcDbEntity
  8
SK1
  6
Continuous
100
AcDbLine
 10
12.08
 20
-16.6131658323
 30
0.0
 11
12.08
 21
-15.9060590511
 31
0.0
  0
SPLINE
  5
60
330
1F
100
AcDbEntity
  8
SK1
  6
Continuous
100
AcDbSpline
210
0.0
220
0.0
230
1.0
 70
     8
 71
     3
 72
    10
 73
     6
 74
     0
 42
0.0000000180494881
 43
0.0000000001
 12
1.0
 22
0.0
 32
0.0
 13
1.0
 23
0.0
 33
0.0
 40
0.0
 40
0.0
 40
0.0
 40
0.0
 40
0.5
 40
0.5
 40
1.0
 40
1.0
 40
1.0
 40
1.0
 10
7.079999999988782
 20
-16.18896747833968
 30
0.0
 10
7.079999999988776
 20
-16.11520975133853
 30
0.0
 10
7.122426651365428
 20
-16.04182318800735
 30
0.0
 10
7.271636167937544
 20
-15.93619744429421
 30
0.0
 10
7.374341814349476
 20
-15.90605905114486
 30
0.0
 10
7.479999999988784
 20
-15.90605905114513
 30
0.0
  0
LINE
  5
61
330
1F
100
AcDbEntity
  8
SK1
  6
Continuous
100
AcDbLine
 10
7.48
 20
-15.9060590511
 30
0.0
 11
12.08
 21
-15.9060590511
 31
0.0
  0
LINE
  5
62
330
1F
100
AcDbEntity
  8
SK3
100
AcDbLine
 10
12.08
 20
-12.3694571596
 30
0.0
 11
-38.72
 21
-12.3694571596
 31
0.0
  0
SPLINE
  5
63
330
1F
100
AcDbEntity
  8
SK1
  6
Continuous
100
AcDbSpline
210
0.0
220
0.0
230
1.0
 70
     8
 71
     3
 72
    10
 73
     6
 74
     0
 42
0.0000000161516538
 43
0.0000000001
 12
1.0
 22
0.0
 32
0.0
 13
1.0
 23
0.0
 33
0.0
 40
0.0
 40
0.0
 40
0.0
 40
0.0
 40
0.5
 40
0.5
 40
1.0
 40
1.0
 40
1.0
 40
1.0
 10
-38.92000000001121
 20
-13.14789585400964
 30
0.0
 10
-38.92000000001121
 20
-13.23210638896266
 30
0.0
 10
-38.8754101410324
 20
-13.31633312034466
 30
0.0
 10
-38.71970326452106
 20
-13.44318991906913
 30
0.0
 10
-38.60876748605634
 20
-13.48627772667539
 30
0.0
 10
-38.48958655049125
 20
-13.49812547290548
 30
0.0
  0
SPLINE
  5
64
330
1F
100
AcDbEntity
  8
SK1
  6
Continuous
100
AcDbSpline
210
0.0
220
0.0
230
1.0
 70
     8
 71
     3
 72
    11
 73
     7
 74
     0
 42
0.0000000002183684
 43
0.0000000001
 12
1.0
 22
0.0
 32
0.0
 13
1.0
 23
0.0
 33
0.0
 40
0.0
 40
0.0
 40
0.0
 40
0.0
 40
0.7476039056833147
 40
0.7476039056833147
 40
0.7476039056833147
 40
1.0
 40
1.0
 40
1.0
 40
1.0
 10
-38.48958655049125
 20
-13.49812547290548
 30
0.0
 10
-27.13360391203563
 20
-14.62702079387543
 30
0.0
 10
-15.77760443190908
 20
-15.75583140706655
 30
0.0
 10
-4.421596407638735
 20
-16.88459903794297
 30
0.0
 10
-0.5877319098304794
 20
-17.26567856316375
 30
0.0
 10
3.246133619805538
 20
-17.6467528980382
 30
0.0
 10
7.079999999988782
 20
-18.02782295428783
 30
0.0
  0
LINE
  5
65
330
1F
100
AcDbEntity
  8
SK3
100
AcDbLine
 10
12.08
 20
-15.9060590511
 30
0.0
 11
12.08
 21
-12.3694571596
 31
0.0
  0
SPLINE
  5
66
330
1F
100
AcDbEntity
  8
SK1
  6
Continuous
100
AcDbSpline
210
0.0
220
0.0
230
1.0
 70
     8
 71
     3
 72
    10
 73
     6
 74
     0
 42
0.0000000180494881
 43
0.0000000001
 12
1.0
 22
0.0
 32
0.0
 13
1.0
 23
0.0
 33
0.0
 40
0.0
 40
0.0
 40
0.0
 40
0.0
 40
0.5
 40
0.5
 40
1.0
 40
1.0
 40
1.0
 40
1.0
 10
7.079999999988782
 20
-16.89607425952623
 30
0.0
 10
7.079999999988776
 20
-16.82231653252508
 30
0.0
 10
7.122426651365428
 20
-16.7489299691939
 30
0.0
 10
7.271636167937544
 20
-16.64330422548076
 30
0.0
 10
7.374341814349476
 20
-16.6131658323314
 30
0.0
 10
7.479999999988784
 20
-16.61316583233168
 30
0.0
  0
LINE
  5
67
330
1F
100
AcDbEntity
  8
SK1
  6
Continuous
100
AcDbLine
 10
7.48
 20
-16.6131658323
 30
0.0
 11
12.08
 21
-16.6131658323
 31
0.0
  0
LINE
  5
68
330
1F
100
AcDbEntity
  8
SK3
100
AcDbLine
 10
12.08
 20
-13.0765639408
 30
0.0
 11
-38.72
 21
-13.0765639408
 31
0.0
  0
LINE
  5
69
330
1F
100
AcDbEntity
  8
SK1
  6
Continuous
100
AcDbLine
 10
-38.92
 20
-13.2180392891
 30
0.0
 11
-38.92
 21
-13.8550026352
 31
0.0
  0
SPLINE
  5
6A
330
1F
100
AcDbEntity
  8
SK1
  6
Continuous
100
AcDbSpline
210
0.0
220
0.0
230
1.0
 70
     8
 71
     3
 72
    10
 73
     6
 74
     0
 42
0.0000000161516538
 43
0.0000000001
 12
1.0
 22
0.0
 32
0.0
 13
1.0
 23
0.0
 33
0.0
 40
0.0
 40
0.0
 40
0.0
 40
0.0
 40
0.5
 40
0.5
 40
1.0
 40
1.0
 40
1.0
 40
1.0
 10
-38.92000000001121
 20
-13.85500263519618
 30
0.0
 10
-38.92000000001121
 20
-13.93921317014921
 30
0.0
 10
-38.87541014103242
 20
-14.02343990153121
 30
0.0
 10
-38.71970326452107
 20
-14.15029670025568
 30
0.0
 10
-38.6087674860563
 20
-14.19338450786195
 30
0.0
 10
-38.48958655049125
 20
-14.20523225409203
 30
0.0
  0
SPLINE
  5
6B
330
1F
100
AcDbEntity
  8
SK1
  6
Continuous
100
AcDbSpline
210
0.0
220
0.0
230
1.0
 70
     8
 71
     3
 72
    11
 73
     7
 74
     0
 42
0.0000000002183684
 43
0.0000000001
 12
1.0
 22
0.0
 32
0.0
 13
1.0
 23
0.0
 33
0.0
 40
0.0
 40
0.0
 40
0.0
 40
0.0
 40
0.7476039056833147
 40
0.7476039056833147
 40
0.7476039056833147
 40
1.0
 40
1.0
 40
1.0
 40
1.0
 10
-38.48958655049125
 20
-14.20523225409203
 30
0.0
 10
-27.13360391203563
 20
-15.33412757506197
 30
0.0
 10
-15.77760443190908
 20
-16.4629381882531
 30
0.0
 10
-4.421596407638735
 20
-17.59170581912952
 30
0.0
 10
-0.5877319098304794
 20
-17.97278534435029
 30
0.0
 10
3.246133619805538
 20
-18.35385967922475
 30
0.0
 10
7.079999999988782
 20
-18.73492973547438
 30
0.0
  0
LINE
  5
6C
330
1F
100
AcDbEntity
  8
SK1
  6
Continuous
100
AcDbLine
 10
7.08
 20
-18.7349297355
 30
0.0
 11
7.08
 21
-18.0278229543
 31
0.0
  0
SPLINE
  5
6D
330
1F
100
AcDbEntity
  8
SK3
100
AcDbSpline
210
0.0
220
0.0
230
1.0
 70
     8
 71
     3
 72
    10
 73
     6
 74
     0
 42
0.0000000310332764
 43
0.0000000001
 12
1.0
 22
0.0
 32
0.0
 13
1.0
 23
0.0
 33
0.0
 40
0.0
 40
0.0
 40
0.0
 40
0.0
 40
0.5
 40
0.5
 40
1.0
 40
1.0
 40
1.0
 40
1.0
 10
-38.92000000001359
 20
-18.19313047195858
 30
0.0
 10
-38.92000000001111
 20
-18.14097028799448
 30
0.0
 10
-38.89879305994584
 20
-18.08907711710224
 30
0.0
 10
-38.82418503035915
 20
-18.01436897531189
 30
0.0
 10
-38.77283169975716
 20
-17.9930541156751
 30
0.0
 10
-38.72000000001121
 20
-17.9930541156759
 30
0.0
  0
LINE
  5
6E
330
1F
100
AcDbEntity
  8
SK1
  6
Continuous
100
AcDbLine
 10
-38.92
 20
-19.0939326747
 30
0.0
 11
-38.92
 21
-13.8550026352
 31
0.0
  0
LINE
  5
6F
330
1F
100
AcDbEntity
  8
SK1
  6
Continuous
100
AcDbLine
 10
-38.4895865505
 20
-19.5892321517
 30
0.0
 11
-38.4895865505
 21
-14.2052322541
 31
0.0
  0
LINE
  5
70
330
1F
100
AcDbEntity
  8
SK1
  6
Continuous
100
AcDbLine
 10
7.08
 20
-25.9951917633
 30
0.0
 11
7.08
 21
-24.2077673224
 31
0.0
  0
LINE
  5
71
330
1F
100
AcDbEntity
  8
SK1
  6
Continuous
100
AcDbLine
 10
7.48
 20
-22.9945644754
 30
0.0
 11
7.48
 21
-21.4355491864
 31
0.0
  0
LINE
  5
72
330
1F
100
AcDbEntity
  8
SK1
  6
Continuous
100
AcDbLine
 10
12.08
 20
-22.9945644754
 30
0.0
 11
12.08
 21
-22.9999999002
 31
0.0
  0
SPLINE
  5
73
330
1F
100
AcDbEntity
  8
SK1
  6
Continuous
100
AcDbSpline
210
0.0
220
0.0
230
1.0
 70
     8
 71
     3
 72
    10
 73
     6
 74
     0
 42
0.0000000155178301
 43
0.0000000001
 12
1.0
 22
0.0
 32
0.0
 13
1.0
 23
0.0
 33
0.0
 40
0.0
 40
0.0
 40
0.0
 40
0.0
 40
0.5
 40
0.5
 40
1.0
 40
1.0
 40
1.0
 40
1.0
 10
7.079999999988782
 20
-23.39465741001132
 30
0.0
 10
7.079999999988776
 20
-23.29034823215648
 30
0.0
 10
7.122426651365432
 20
-23.18656395899756
 30
0.0
 10
7.271636167937551
 20
-23.0371865997027
 30
0.0
 10
7.374341814349476
 20
-22.99456447536276
 30
0.0
 10
7.479999999988784
 20
-22.99456447536315
 30
0.0
  0
LINE
  5
74
330
1F
100
AcDbEntity
  8
SK1
  6
Continuous
100
AcDbLine
 10
7.48
 20
-22.9945644754
 30
0.0
 11
12.08
 21
-22.9945644754
 31
0.0
  0
LINE
  5
75
330
1F
100
AcDbEntity
  8
SK3
100
AcDbLine
 10
12.08
 20
-17.9930541157
 30
0.0
 11
-38.72
 21
-17.9930541157
 31
0.0
  0
SPLINE
  5
76
330
1F
100
AcDbEntity
  8
SK1
  6
Continuous
100
AcDbSpline
210
0.0
220
0.0
230
1.0
 70
     8
 71
     3
 72
    10
 73
     6
 74
     0
 42
0.0000000136845499
 43
0.0000000001
 12
1.0
 22
0.0
 32
0.0
 13
1.0
 23
0.0
 33
0.0
 40
0.0
 40
0.0
 40
0.0
 40
0.0
 40
0.5
 40
0.5
 40
1.0
 40
1.0
 40
1.0
 40
1.0
 10
-38.92000000001121
 20
-19.09393267473579
 30
0.0
 10
-38.92000000001121
 20
-19.21302435536106
 30
0.0
 10
-38.87541014103242
 20
-19.33213894119583
 30
0.0
 10
-38.71970326452107
 20
-19.51154154643121
 30
0.0
 10
-38.6087674860563
 20
-19.57247690832092
 30
0.0
 10
-38.48958655049125
 20
-19.58923215172305
 30
0.0
  0
SPLINE
  5
77
330
1F
100
AcDbEntity
  8
SK1
  6
Continuous
100
AcDbSpline
210
0.0
220
0.0
230
1.0
 70
     8
 71
     3
 72
    11
 73
     7
 74
     0
 42
0.000000000217308
 43
0.0000000001
 12
1.0
 22
0.0
 32
0.0
 13
1.0
 23
0.0
 33
0.0
 40
0.0
 40
0.0
 40
0.0
 40
0.0
 40
0.7476039056833147
 40
0.7476039056833147
 40
0.7476039056833147
 40
1.0
 40
1.0
 40
1.0
 40
1.0
 10
-38.48958655049125
 20
-19.58923215172305
 30
0.0
 10
-27.13360391203563
 20
-21.18573122513827
 30
0.0
 10
-15.77760443190908
 20
-22.78211050366385
 30
0.0
 10
-4.421596407638735
 20
-24.37842899601704
 30
0.0
 10
-0.5877319098304794
 20
-24.91735682892696
 30
0.0
 10
3.246133619805538
 20
-25.45627732157871
 30
0.0
 10
7.079999999988782
 20
-25.99519176334122
 30
0.0
  0
LINE
  5
78
330
1F
100
AcDbEntity
  8
SK3
100
AcDbLine
 10
12.08
 20
-22.9945644754
 30
0.0
 11
12.08
 21
-17.9930541157
 31
0.0
  0
ARC
  5
79
330
1F
100
AcDbEntity
  8
SK3
100
AcDbCircle
 10
20.8872941184
 20
17.0074853865
 30
0.0
 40
0.1928670324916149
100
AcDbArc
 50
267.8325902238
 51
357.657631227
  0
ARC
  5
7A
330
1F
100
AcDbEntity
  8
SK3
100
AcDbCircle
 10
20.8872941184
 20
16.6248019541
 30
0.0
 40
0.1928670324925164
100
AcDbArc
 50
267.8325902241
 51
357.6576312269
  0
LINE
  5
7B
330
1F
100
AcDbEntity
  8
SK1
  6
Continuous
100
AcDbLine
 10
21.08
 20
19.724255708
 30
0.0
 11
21.08
 21
21.1481852444
 31
0.0
  0
LINE
  5
7C
330
1F
100
AcDbEntity
  8
SK1
  6
Continuous
100
AcDbLine
 10
20.955
 20
19.9243368556
 30
0.0
 11
20.955
 21
21.3646915953
 31
0.0
  0
LINE
  5
7D
330
1F
100
AcDbEntity
  8
SK1
  6
Continuous
100
AcDbLine
 10
13.0192304845
 20
24.1582477905
 30
0.0
 11
13.0192304845
 21
25.9464102613
 31
0.0
  0
LINE
  5
7E
330
1F
100
AcDbEntity
  8
SK1
  6
Continuous
100
AcDbLine
 10
12.58
 20
23.923917386
 30
0.0
 11
12.58
 21
25.6928204228
 31
0.0
  0
LINE
  5
7F
330
1F
100
AcDbEntity
  8
SK1
  6
Continuous
100
AcDbLine
 10
7.08
 20
24.207767522
 30
0.0
 11
7.08
 21
25.9951919629
 31
0.0
  0
LINE
  5
80
330
1F
100
AcDbEntity
  8
SK1
  6
Continuous
100
AcDbLine
 10
7.48
 20
21.4355493859
 30
0.0
 11
7.48
 21
22.9945646749
 31
0.0
  0
LINE
  5
81
330
1F
100
AcDbEntity
  8
SK1
  6
Continuous
100
AcDbLine
 10
12.18
 20
21.4355493859
 30
0.0
 11
12.18
 21
23.0000000998
 31
0.0
  0
LINE
  5
82
330
1F
100
AcDbEntity
  8
SK1
  6
Continuous
100
AcDbLine
 10
-29.92
 20
19.4024730708
 30
0.0
 11
-29.92
 21
19.0197896385
 31
0.0
  0
SPLINE
  5
83
330
1F
100
AcDbEntity
  8
SK1
  6
Continuous
100
AcDbSpline
210
0.0
220
0.0
230
1.0
 70
     8
 71
     3
 72
    11
 73
     7
 74
     0
 42
0.0000000002680194
 43
0.0000000001
 12
1.0
 22
0.0
 32
0.0
 13
1.0
 23
0.0
 33
0.0
 40
0.0
 40
0.0
 40
0.0
 40
0.0
 40
0.8822438497810128
 40
0.8822438497810128
 40
0.8822438497810128
 40
1.0
 40
1.0
 40
1.0
 40
1.0
 10
7.079999999988782
 20
23.82508408962119
 30
0.0
 10
-3.801017231774138
 20
22.41200101907114
 30
0.0
 10
-14.68202789859927
 20
20.99887479820686
 30
0.0
 10
-25.56302662517997
 20
19.58567010715133
 30
0.0
 10
-27.01535130948334
 20
19.39704476968304
 30
0.0
 10
-28.46767577442001
 20
19.20841799054059
 30
0.0
 10
-29.92000000001121
 20
19.01978963846246
 30
0.0
  0
LINE
  5
84
330
1F
100
AcDbEntity
  8
SK3
100
AcDbLine
 10
-29.92
 20
16.4320729006
 30
0.0
 11
20.88
 21
16.4320729006
 31
0.0
  0
ARC
  5
85
330
1F
100
AcDbEntity
  8
SK1
  6
Continuous
100
AcDbCircle
 10
12.1946237007
 20
21.4382880432
 30
0.0
 40
0.3856994164211457
100
AcDbArc
 50
267.8271234728
 51
357.6545646032
  0
LINE
  5
86
330
1F
100
AcDbEntity
  8
SK1
  6
Continuous
100
AcDbLine
 10
12.18
 20
21.0528659536
 30
0.0
 11
7.48
 21
21.0528659536
 31
0.0
  0
ARC
  5
87
330
1F
100
AcDbEntity
  8
SK1
  6
Continuous
100
AcDbCircle
 10
7.4653930343
 20
21.4383061529
 30
0.0
 40
0.3857168789908074
100
AcDbArc
 50
182.3480214913
 51
272.1702904327
  0
LINE
  5
88
330
1F
100
AcDbEntity
  8
SK1
  6
Continuous
100
AcDbLine
 10
12.58
 20
23.923917386
 30
0.0
 11
13.0192304845
 21
24.1582477905
 31
0.0
  0
SPLINE
  5
89
330
1F
100
AcDbEntity
  8
SK1
  6
Continuous
100
AcDbSpline
210
0.0
220
0.0
230
1.0
 70
     8
 71
     3
 72
     8
 73
     4
 74
     0
 42
0.0000000011117809
 43
0.0000000001
 12
1.0
 22
0.0
 32
0.0
 13
1.0
 23
0.0
 33
0.0
 40
0.0
 40
0.0
 40
0.0
 40
0.0
 40
1.0
 40
1.0
 40
1.0
 40
1.0
 10
13.01923048453011
 20
24.15824779054053
 30
0.0
 10
15.66451334339818
 20
22.74698630547879
 30
0.0
 10
18.30977550886858
 20
21.33569170169526
 30
0.0
 10
20.95499999998878
 20
19.92433685560513
 30
0.0
  0
ARC
  5
8A
330
1F
100
AcDbEntity
  8
SK1
  6
Continuous
100
AcDbCircle
 10
20.8515795126
 20
19.7206380353
 30
0.0
 40
0.2284491334997859
100
AcDbArc
 50
0.9073619006
 51
63.0825143555
  0
LINE
  5
8B
330
1F
100
AcDbEntity
  8
SK1
  6
Continuous
100
AcDbLine
 10
21.08
 20
19.724255708
 30
0.0
 11
21.08
 21
19.3415722756
 31
0.0
  0
LINE
  5
8C
330
1F
100
AcDbEntity
  8
SK1
  6
Continuous
100
AcDbLine
 10
12.58
 20
23.5412339537
 30
0.0
 11
13.0192304845
 21
23.7755643582
 31
0.0
  0
SPLINE
  5
8D
330
1F
100
AcDbEntity
  8
SK1
  6
Continuous
100
AcDbSpline
210
0.0
220
0.0
230
1.0
 70
     8
 71
     3
 72
     8
 73
     4
 74
     0
 42
0.0000000011117809
 43
0.0000000001
 12
1.0
 22
0.0
 32
0.0
 13
1.0
 23
0.0
 33
0.0
 40
0.0
 40
0.0
 40
0.0
 40
0.0
 40
1.0
 40
1.0
 40
1.0
 40
1.0
 10
13.01923048453011
 20
23.77556435817544
 30
0.0
 10
15.66451334339818
 20
22.3643028731137
 30
0.0
 10
18.30977550886858
 20
20.95300826933017
 30
0.0
 10
20.95499999998878
 20
19.54165342324004
 30
0.0
  0
ARC
  5
8E
330
1F
100
AcDbEntity
  8
SK1
  6
Continuous
100
AcDbCircle
 10
20.8515795126
 20
19.3379546029
 30
0.0
 40
0.228449133499788
100
AcDbArc
 50
0.9073619006
 51
63.0825143555
  0
LINE
  5
8F
330
1F
100
AcDbEntity
  8
SK3
100
AcDbLine
 10
-29.92
 20
19.0197896385
 30
0.0
 11
-29.92
 21
16.4320729006
 31
0.0
  0
LINE
  5
90
330
1F
100
AcDbEntity
  8
SK1
  6
Continuous
100
AcDbLine
 10
7.08
 20
23.8250840896
 30
0.0
 11
7.08
 21
24.207767522
 31
0.0
  0
SPLINE
  5
91
330
1F
100
AcDbEntity
  8
SK1
  6
Continuous
100
AcDbSpline
210
0.0
220
0.0
230
1.0
 70
     8
 71
     3
 72
    11
 73
     7
 74
     0
 42
0.0000000002680194
 43
0.0000000001
 12
1.0
 22
0.0
 32
0.0
 13
1.0
 23
0.0
 33
0.0
 40
0.0
 40
0.0
 40
0.0
 40
0.0
 40
0.8822438497810128
 40
0.8822438497810128
 40
0.8822438497810128
 40
1.0
 40
1.0
 40
1.0
 40
1.0
 10
7.079999999988782
 20
24.20776752198628
 30
0.0
 10
-3.801017231774138
 20
22.79468445143623
 30
0.0
 10
-14.68202789859927
 20
21.38155823057195
 30
0.0
 10
-25.56302662517997
 20
19.96835353951641
 30
0.0
 10
-27.01535130948334
 20
19.77972820204813
 30
0.0
 10
-28.46767577442001
 20
19.59110142290568
 30
0.0
 10
-29.92000000001121
 20
19.40247307082755
 30
0.0
  0
LINE
  5
92
330
1F
100
AcDbEntity
  8
SK3
100
AcDbLine
 10
-29.92
 20
16.814756333
 30
0.0
 11
20.88
 21
16.814756333
 31
0.0
  0
LINE
  5
93
330
1F
100
AcDbEntity
  8
SK1
  6
Continuous
100
AcDbLine
 10
12.58
 20
23.923917386
 30
0.0
 11
12.58
 21
23.5412339537
 31
0.0
  0
ARC
  5
94
330
1F
100
AcDbEntity
  8
SK1
  6
Continuous
100
AcDbCircle
 10
12.1946237007
 20
21.8209714756
 30
0.0
 40
0.3856994164211454
100
AcDbArc
 50
267.8271234728
 51
357.6545646032
  0
LINE
  5
95
330
1F
100
AcDbEntity
  8
SK1
  6
Continuous
100
AcDbLine
 10
12.18
 20
21.4355493859
 30
0.0
 11
7.48
 21
21.4355493859
 31
0.0
  0
ARC
  5
96
330
1F
100
AcDbEntity
  8
SK1
  6
Continuous
100
AcDbCircle
 10
7.4653930343
 20
21.8209895853
 30
0.0
 40
0.3857168789908041
100
AcDbArc
 50
182.3480214913
 51
272.1702904327
  0
SPLINE
  5
97
330
1F
100
AcDbEntity
  8
SK3
100
AcDbSpline
210
0.0
220
0.0
230
1.0
 70
     8
 71
     3
 72
    10
 73
     6
 74
     0
 42
0.0000000427823513
 43
0.0000000001
 12
1.0
 22
0.0
 32
0.0
 13
1.0
 23
0.0
 33
0.0
 40
0.0
 40
0.0
 40
0.0
 40
0.0
 40
0.5000000000000001
 40
0.5000000000000001
 40
1.0
 40
1.0
 40
1.0
 40
1.0
 10
21.07999999999117
 20
7.424149518681939
 30
0.0
 10
21.07999999998868
 20
7.404188680449765
 30
0.0
 10
21.05879305992342
 20
7.38433002369641
 30
0.0
 10
20.98418503033673
 20
7.355740455570464
 30
0.0
 10
20.93283169973471
 20
7.347583611924273
 30
0.0
 10
20.87999999998878
 20
7.347583611924583
 30
0.0
  0
SPLINE
  5
98
330
1F
100
AcDbEntity
  8
SK3
100
AcDbSpline
210
0.0
220
0.0
230
1.0
 70
     8
 71
     3
 72
    10
 73
     6
 74
     0
 42
0.0000000427823513
 43
0.0000000001
 12
1.0
 22
0.0
 32
0.0
 13
1.0
 23
0.0
 33
0.0
 40
0.0
 40
0.0
 40
0.0
 40
0.0
 40
0.5
 40
0.5
 40
1.0
 40
1.0
 40
1.0
 40
1.0
 10
21.07999999999117
 20
6.500269986170653
 30
0.0
 10
21.07999999998868
 20
6.480309147938478
 30
0.0
 10
21.05879305992342
 20
6.460450491185124
 30
0.0
 10
20.98418503033673
 20
6.431860923059176
 30
0.0
 10
20.93283169973471
 20
6.423704079412992
 30
0.0
 10
20.87999999998878
 20
6.423704079413298
 30
0.0
  0
LINE
  5
99
330
1F
100
AcDbEntity
  8
SK1
  6
Continuous
100
AcDbLine
 10
21.08
 20
8.5527377128
 30
0.0
 11
21.08
 21
19.3415722756
 31
0.0
  0
LINE
  5
9A
330
1F
100
AcDbEntity
  8
SK1
  6
Continuous
100
AcDbLine
 10
20.955
 20
8.6356140377
 30
0.0
 11
20.955
 21
19.5416534232
 31
0.0
  0
LINE
  5
9B
330
1F
100
AcDbEntity
  8
SK1
  6
Continuous
100
AcDbLine
 10
13.0192304845
 20
10.3893573688
 30
0.0
 11
13.0192304845
 21
23.7755643582
 31
0.0
  0
LINE
  5
9C
330
1F
100
AcDbEntity
  8
SK1
  6
Continuous
100
AcDbLine
 10
12.58
 20
10.2922945372
 30
0.0
 11
12.58
 21
23.5412339537
 31
0.0
  0
LINE
  5
9D
330
1F
100
AcDbEntity
  8
SK1
  6
Continuous
100
AcDbLine
 10
7.08
 20
10.4098691132
 30
0.0
 11
7.08
 21
18.0278231538
 31
0.0
  0
LINE
  5
9E
330
1F
100
AcDbEntity
  8
SK1
  6
Continuous
100
AcDbLine
 10
7.48
 20
9.2615787634
 30
0.0
 11
7.48
 21
15.9060592507
 31
0.0
  0
LINE
  5
9F
330
1F
100
AcDbEntity
  8
SK1
  6
Continuous
100
AcDbLine
 10
12.18
 20
9.2615787634
 30
0.0
 11
12.18
 21
21.0528659536
 31
0.0
  0
LINE
  5
A0
330
1F
100
AcDbEntity
  8
SK1
  6
Continuous
100
AcDbLine
 10
-29.92
 20
8.4194509803
 30
0.0
 11
-29.92
 21
7.4955714478
 31
0.0
  0
LINE
  5
A1
330
1F
100
AcDbEntity
  8
SK1
  6
Continuous
100
AcDbLine
 10
7.08
 20
9.4859895807
 30
0.0
 11
-29.92
 21
7.4955714478
 31
0.0
  0
LINE
  5
A2
330
1F
100
AcDbEntity
  8
SK3
100
AcDbLine
 10
-29.92
 20
6.4237040794
 30
0.0
 11
20.88
 21
6.4237040794
 31
0.0
  0
SPLINE
  5
A3
330
1F
100
AcDbEntity
  8
SK1
  6
Continuous
100
AcDbSpline
210
0.0
220
0.0
230
1.0
 70
     8
 71
     3
 72
    10
 73
     6
 74
     0
 42
0.0000000213917985
 43
0.0000000001
 12
1.0
 22
0.0
 32
0.0
 13
1.0
 23
0.0
 33
0.0
 40
0.0
 40
0.0
 40
0.0
 40
0.0
 40
0.5
 40
0.5
 40
1.0
 40
1.0
 40
1.0
 40
1.0
 10
12.57999999998879
 20
8.490808168364156
 30
0.0
 10
12.57999999998879
 20
8.450890774155475
 30
0.0
 10
12.53757334861213
 20
8.41117425227751
 30
0.0
 10
12.38836383204002
 20
8.354010011704924
 30
0.0
 10
12.28565818562809
 20
8.337699230867814
 30
0.0
 10
12.17999999998878
 20
8.337699230867965
 30
0.0
  0
LINE
  5
A4
330
1F
100
AcDbEntity
  8
SK1
  6
Continuous
100
AcDbLine
 10
12.18
 20
8.3376992309
 30
0.0
 11
7.48
 21
8.3376992309
 31
0.0
  0
SPLINE
  5
A5
330
1F
100
AcDbEntity
  8
SK1
  6
Continuous
100
AcDbSpline
210
0.0
220
0.0
230
1.0
 70
     8
 71
     3
 72
    10
 73
     6
 74
     0
 42
0.0000000213949802
 43
0.0000000001
 12
1.0
 22
0.0
 32
0.0
 13
1.0
 23
0.0
 33
0.0
 40
0.0
 40
0.0
 40
0.0
 40
0.0
 40
0.5
 40
0.5
 40
1.0
 40
1.0
 40
1.0
 40
1.0
 10
7.479999999988787
 20
8.337699230867964
 30
0.0
 10
7.374256506720009
 20
8.337699230867964
 30
0.0
 10
7.270839257478585
 20
8.354317312091409
 30
0.0
 10
7.123243489739334
 20
8.410859317498758
 30
0.0
 10
7.079999999988547
 20
8.450856209594939
 30
0.0
 10
7.079999999983752
 20
8.490808168364374
 30
0.0
  0
LINE
  5
A6
330
1F
100
AcDbEntity
  8
SK1
  6
Continuous
100
AcDbLine
 10
12.58
 20
10.2922945372
 30
0.0
 11
13.0192304845
 21
10.3893573688
 31
0.0
  0
LINE
  5
A7
330
1F
100
AcDbEntity
  8
SK1
  6
Continuous
100
AcDbLine
 10
13.0192304845
 20
10.3893573688
 30
0.0
 11
20.955
 21
8.6356140377
 31
0.0
  0
SPLINE
  5
A8
330
1F
100
AcDbEntity
  8
SK1
  6
Continuous
100
AcDbSpline
210
0.0
220
0.0
230
1.0
 70
     8
 71
     3
 72
     8
 73
     4
 74
     0
 42
0.000000058751002
 43
0.0000000001
 12
1.0
 22
0.0
 32
0.0
 13
1.0
 23
0.0
 33
0.0
 40
0.0
 40
0.0
 40
0.0
 40
0.0
 40
1.0
 40
1.0
 40
1.0
 40
1.0
 10
20.95499999998878
 20
8.635614037691159
 30
0.0
 10
21.03128100985158
 20
8.618755712290623
 30
0.0
 10
21.07999999998879
 20
8.586268703515294
 30
0.0
 10
21.07999999998878
 20
8.552737712766874
 30
0.0
  0
LINE
  5
A9
330
1F
100
AcDbEntity
  8
SK1
  6
Continuous
100
AcDbLine
 10
21.08
 20
8.5527377128
 30
0.0
 11
21.08
 21
7.6288581802
 31
0.0
  0
LINE
  5
AA
330
1F
100
AcDbEntity
  8
SK1
  6
Continuous
100
AcDbLine
 10
12.58
 20
9.3684150047
 30
0.0
 11
13.0192304845
 21
9.4654778363
 31
0.0
  0
LINE
  5
AB
330
1F
100
AcDbEntity
  8
SK1
  6
Continuous
100
AcDbLine
 10
13.0192304845
 20
9.4654778363
 30
0.0
 11
20.955
 21
7.7117345052
 31
0.0
  0
SPLINE
  5
AC
330
1F
100
AcDbEntity
  8
SK1
  6
Continuous
100
AcDbSpline
210
0.0
220
0.0
230
1.0
 70
     8
 71
     3
 72
     8
 73
     4
 74
     0
 42
0.000000058751002
 43
0.0000000001
 12
1.0
 22
0.0
 32
0.0
 13
1.0
 23
0.0
 33
0.0
 40
0.0
 40
0.0
 40
0.0
 40
0.0
 40
1.0
 40
1.0
 40
1.0
 40
1.0
 10
20.95499999998878
 20
7.711734505179874
 30
0.0
 10
21.03128100985194
 20
7.694876179779257
 30
0.0
 10
21.07999999998879
 20
7.662389171004133
 30
0.0
 10
21.07999999998878
 20
7.628858180255585
 30
0.0
  0
LINE
  5
AD
330
1F
100
AcDbEntity
  8
SK3
100
AcDbLine
 10
-29.92
 20
7.4955714478
 30
0.0
 11
-29.92
 21
6.4237040794
 31
0.0
  0
LINE
  5
AE
330
1F
100
AcDbEntity
  8
SK1
  6
Continuous
100
AcDbLine
 10
7.08
 20
9.4859895807
 30
0.0
 11
7.08
 21
10.4098691132
 31
0.0
  0
LINE
  5
AF
330
1F
100
AcDbEntity
  8
SK1
  6
Continuous
100
AcDbLine
 10
7.08
 20
10.4098691132
 30
0.0
 11
-29.92
 21
8.4194509803
 31
0.0
  0
LINE
  5
B0
330
1F
100
AcDbEntity
  8
SK3
100
AcDbLine
 10
-29.92
 20
7.3475836119
 30
0.0
 11
20.88
 21
7.3475836119
 31
0.0
  0
LINE
  5
B1
330
1F
100
AcDbEntity
  8
SK1
  6
Continuous
100
AcDbLine
 10
12.58
 20
10.2922945372
 30
0.0
 11
12.58
 21
9.4146877009
 31
0.0
  0
SPLINE
  5
B2
330
1F
100
AcDbEntity
  8
SK1
  6
Continuous
100
AcDbSpline
210
0.0
220
0.0
230
1.0
 70
     8
 71
     3
 72
    10
 73
     6
 74
     0
 42
0.0000000213917985
 43
0.0000000001
 12
1.0
 22
0.0
 32
0.0
 13
1.0
 23
0.0
 33
0.0
 40
0.0
 40
0.0
 40
0.0
 40
0.0
 40
0.5
 40
0.5
 40
1.0
 40
1.0
 40
1.0
 40
1.0
 10
12.57999999998879
 20
9.41468770087544
 30
0.0
 10
12.57999999998879
 20
9.374770306666768
 30
0.0
 10
12.53757334861213
 20
9.335053784788798
 30
0.0
 10
12.38836383204002
 20
9.277889544216205
 30
0.0
 10
12.28565818562809
 20
9.261578763379102
 30
0.0
 10
12.17999999998878
 20
9.261578763379251
 30
0.0
  0
LINE
  5
B3
330
1F
100
AcDbEntity
  8
SK1
  6
Continuous
100
AcDbLine
 10
12.18
 20
9.2615787634
 30
0.0
 11
7.48
 21
9.2615787634
 31
0.0
  0
SPLINE
  5
B4
330
1F
100
AcDbEntity
  8
SK1
  6
Continuous
100
AcDbSpline
210
0.0
220
0.0
230
1.0
 70
     8
 71
     3
 72
    10
 73
     6
 74
     0
 42
0.0000000213949802
 43
0.0000000001
 12
1.0
 22
0.0
 32
0.0
 13
1.0
 23
0.0
 33
0.0
 40
0.0
 40
0.0
 40
0.0
 40
0.0
 40
0.5
 40
0.5
 40
1.0
 40
1.0
 40
1.0
 40
1.0
 10
7.479999999988787
 20
9.261578763379251
 30
0.0
 10
7.374256506720009
 20
9.261578763379253
 30
0.0
 10
7.270839257478585
 20
9.278196844602697
 30
0.0
 10
7.123243489739334
 20
9.334738850010053
 30
0.0
 10
7.079999999988547
 20
9.374735742106227
 30
0.0
 10
7.079999999983752
 20
9.414687700875662
 30
0.0
  0
SPLINE
  5
B5
330
1F
100
AcDbEntity
  8
SK3
100
AcDbSpline
210
0.0
220
0.0
230
1.0
 70
     8
 71
     3
 72
    10
 73
     6
 74
     0
 42
0.000000042789493
 43
0.0000000001
 12
1.0
 22
0.0
 32
0.0
 13
1.0
 23
0.0
 33
0.0
 40
0.0
 40
0.0
 40
0.0
 40
0.0
 40
0.5
 40
0.5
 40
1.0
 40
1.0
 40
1.0
 40
1.0
 10
21.08000000001122
 20
-6.500269786630634
 30
0.0
 10
21.07999999998979
 20
-6.480332442879581
 30
0.0
 10
21.05845606017129
 20
-6.460287810409481
 30
0.0
 10
20.98418946264228
 20
-6.431895915664673
 30
0.0
 10
20.93208831715568
 20
-6.423703879871915
 30
0.0
 10
20.87999999998878
 20
-6.423703879871916
 30
0.0
  0
SPLINE
  5
B6
330
1F
100
AcDbEntity
  8
SK3
100
AcDbSpline
210
0.0
220
0.0
230
1.0
 70
     8
 71
     3
 72
    10
 73
     6
 74
     0
 42
0.000000042789493
 43
0.0000000001
 12
1.0
 22
0.0
 32
0.0
 13
1.0
 23
0.0
 33
0.0
 40
0.0
 40
0.0
 40
0.0
 40
0.0
 40
0.4999999999999999
 40
0.4999999999999999
 40
1.0
 40
1.0
 40
1.0
 40
1.0
 10
21.08000000001122
 20
-7.424149319141921
 30
0.0
 10
21.07999999998979
 20
-7.40421197539136
 30
0.0
 10
21.05845606017249
 20
-7.38416734292178
 30
0.0
 10
20.98418946264657
 20
-7.355775448177051
 30
0.0
 10
20.93208831716213
 20
-7.347583412383967
 30
0.0
 10
20.87999999999584
 20
-7.34758341236603
 30
0.0
  0
LINE
  5
B7
330
1F
100
AcDbEntity
  8
SK1
  6
Continuous
100
AcDbLine
 10
21.08
 20
-7.6288579807
 30
0.0
 11
21.08
 21
7.6288581803
 31
0.0
  0
LINE
  5
B8
330
1F
100
AcDbEntity
  8
SK1
  6
Continuous
100
AcDbLine
 10
20.955
 20
-7.7117343056
 30
0.0
 11
20.955
 21
7.7117345052
 31
0.0
  0
LINE
  5
B9
330
1F
100
AcDbEntity
  8
SK1
  6
Continuous
100
AcDbLine
 10
13.0192304845
 20
-9.4654776368
 30
0.0
 11
13.0192304845
 21
9.4654778363
 31
0.0
  0
LINE
  5
BA
330
1F
100
AcDbEntity
  8
SK1
  6
Continuous
100
AcDbLine
 10
12.58
 20
-9.3684148052
 30
0.0
 11
12.58
 21
9.3684150047
 31
0.0
  0
LINE
  5
BB
330
1F
100
AcDbEntity
  8
SK1
  6
Continuous
100
AcDbLine
 10
7.08
 20
-9.4859893811
 30
0.0
 11
7.08
 21
-0.4999999002
 31
0.0
  0
LINE
  5
BC
330
1F
100
AcDbEntity
  8
SK1
  6
Continuous
100
AcDbLine
 10
7.48
 20
-8.3376990313
 30
0.0
 11
7.48
 21
-0.4999999002
 31
0.0
  0
LINE
  5
BD
330
1F
100
AcDbEntity
  8
SK1
  6
Continuous
100
AcDbLine
 10
12.18
 20
-8.3376990313
 30
0.0
 11
12.18
 21
8.3376992309
 31
0.0
  0
LINE
  5
BE
330
1F
100
AcDbEntity
  8
SK3
100
AcDbLine
 10
-29.92
 20
-7.4955712483
 30
0.0
 11
-29.92
 21
-6.4237038799
 31
0.0
  0
LINE
  5
BF
330
1F
100
AcDbEntity
  8
SK1
  6
Continuous
100
AcDbLine
 10
-29.92
 20
-7.4955712483
 30
0.0
 11
-29.92
 21
-8.4194507808
 31
0.0
  0
LINE
  5
C0
330
1F
100
AcDbEntity
  8
SK1
  6
Continuous
100
AcDbLine
 10
7.08
 20
-9.4859893811
 30
0.0
 11
7.08
 21
-10.4098689136
 31
0.0
  0
LINE
  5
C1
330
1F
100
AcDbEntity
  8
SK1
  6
Continuous
100
AcDbLine
 10
7.08
 20
-10.4098689136
 30
0.0
 11
-29.92
 21
-8.4194507808
 31
0.0
  0
LINE
  5
C2
330
1F
100
AcDbEntity
  8
SK3
100
AcDbLine
 10
-29.92
 20
-7.3475834124
 30
0.0
 11
20.88
 21
-7.3475834124
 31
0.0
  0
LINE
  5
C3
330
1F
100
AcDbEntity
  8
SK1
  6
Continuous
100
AcDbLine
 10
12.58
 20
-10.2922943377
 30
0.0
 11
12.58
 21
-9.4146875013
 31
0.0
  0
SPLINE
  5
C4
330
1F
100
AcDbEntity
  8
SK1
  6
Continuous
100
AcDbSpline
210
0.0
220
0.0
230
1.0
 70
     8
 71
     3
 72
    10
 73
     6
 74
     0
 42
0.0000000213961447
 43
0.0000000001
 12
1.0
 22
0.0
 32
0.0
 13
1.0
 23
0.0
 33
0.0
 40
0.0
 40
0.0
 40
0.0
 40
0.0
 40
0.5
 40
0.5
 40
1.0
 40
1.0
 40
1.0
 40
1.0
 10
12.57999999998879
 20
-9.414687501334058
 30
0.0
 10
12.57999999998879
 20
-9.37482780463923
 30
0.0
 10
12.53710462821419
 20
-9.334903695306167
 30
0.0
 10
12.38912808175465
 20
-9.278152515213744
 30
0.0
 10
12.28416093510569
 20
-9.261578563837872
 30
0.0
 10
12.17999999998878
 20
-9.26157856383787
 30
0.0
  0
LINE
  5
C5
330
1F
100
AcDbEntity
  8
SK1
  6
Continuous
100
AcDbLine
 10
12.18
 20
-9.2615785638
 30
0.0
 11
7.48
 21
-9.2615785638
 31
0.0
  0
SPLINE
  5
C6
330
1F
100
AcDbEntity
  8
SK1
  6
Continuous
100
AcDbSpline
210
0.0
220
0.0
230
1.0
 70
     8
 71
     3
 72
    10
 73
     6
 74
     0
 42
0.0000000213892114
 43
0.0000000001
 12
1.0
 22
0.0
 32
0.0
 13
1.0
 23
0.0
 33
0.0
 40
0.0
 40
0.0
 40
0.0
 40
0.0
 40
0.5
 40
0.5
 40
1.0
 40
1.0
 40
1.0
 40
1.0
 10
7.479999999988787
 20
-9.26157856383787
 30
0.0
 10
7.374744939874597
 20
-9.261578563837872
 30
0.0
 10
7.271080268027221
 20
-9.278133997429162
 30
0.0
 10
7.123298864087364
 20
-9.334687816410714
 30
0.0
 10
7.079999999988782
 20
-9.374341062836892
 30
0.0
 10
7.079999999988782
 20
-9.414687501334058
 30
0.0
  0
LINE
  5
C7
330
1F
100
AcDbEntity
  8
SK1
  6
Continuous
100
AcDbLine
 10
12.58
 20
-9.3684148052
 30
0.0
 11
13.0192304845
 21
-9.4654776368
 31
0.0
  0
SPLINE
  5
C8
330
1F
100
AcDbEntity
  8
SK1
  6
Continuous
100
AcDbSpline
210
0.0
220
0.0
230
1.0
 70
     8
 71
     3
 72
     8
 73
     4
 74
     0
 42
0.0000000012304298
 43
0.0000000001
 12
1.0
 22
0.0
 32
0.0
 13
1.0
 23
0.0
 33
0.0
 40
0.0
 40
0.0
 40
0.0
 40
0.0
 40
1.0
 40
1.0
 40
1.0
 40
1.0
 10
13.01923048453011
 20
-9.465477636768485
 30
0.0
 10
15.66451334339743
 20
-8.880913989601286
 30
0.0
 10
18.30977550886707
 20
-8.29633662421035
 30
0.0
 10
20.95499999999587
 20
-7.711734305645183
 30
0.0
  0
SPLINE
  5
C9
330
1F
100
AcDbEntity
  8
SK1
  6
Continuous
100
AcDbSpline
210
0.0
220
0.0
230
1.0
 70
     8
 71
     3
 72
    10
 73
     6
 74
     0
 42
0.0000000616243991
 43
0.0000000001
 12
1.0
 22
0.0
 32
0.0
 13
1.0
 23
0.0
 33
0.0
 40
0.0
 40
0.0
 40
0.0
 40
0.0
 40
0.5
 40
0.5
 40
1.0
 40
1.0
 40
1.0
 40
1.0
 10
20.95499999999587
 20
-7.711734305645183
 30
0.0
 10
20.9926009393362
 20
-7.703424388504388
 30
0.0
 10
21.02493016816958
 20
-7.691042700156054
 30
0.0
 10
21.06831414164483
 20
-7.662216989239215
 30
0.0
 10
21.07999999998879
 20
-7.645611084324816
 30
0.0
 10
21.07999999998878
 20
-7.628857980714203
 30
0.0
  0
LINE
  5
CA
330
1F
100
AcDbEntity
  8
SK1
  6
Continuous
100
AcDbLine
 10
12.58
 20
-10.2922943377
 30
0.0
 11
13.0192304845
 21
-10.3893571693
 31
0.0
  0
SPLINE
  5
CB
330
1F
100
AcDbEntity
  8
SK1
  6
Continuous
100
AcDbSpline
210
0.0
220
0.0
230
1.0
 70
     8
 71
     3
 72
     8
 73
     4
 74
     0
 42
0.0000000012304298
 43
0.0000000001
 12
1.0
 22
0.0
 32
0.0
 13
1.0
 23
0.0
 33
0.0
 40
0.0
 40
0.0
 40
0.0
 40
0.0
 40
1.0
 40
1.0
 40
1.0
 40
1.0
 10
13.01923048453011
 20
-10.38935716927977
 30
0.0
 10
15.66451334339743
 20
-9.804793522112572
 30
0.0
 10
18.30977550886707
 20
-9.220216156721635
 30
0.0
 10
20.95499999999587
 20
-8.63561383815647
 30
0.0
  0
SPLINE
  5
CC
330
1F
100
AcDbEntity
  8
SK1
  6
Continuous
100
AcDbSpline
210
0.0
220
0.0
230
1.0
 70
     8
 71
     3
 72
    10
 73
     6
 74
     0
 42
0.0000000616243991
 43
0.0000000001
 12
1.0
 22
0.0
 32
0.0
 13
1.0
 23
0.0
 33
0.0
 40
0.0
 40
0.0
 40
0.0
 40
0.0
 40
0.5
 40
0.5
 40
1.0
 40
1.0
 40
1.0
 40
1.0
 10
20.95499999999587
 20
-8.63561383815647
 30
0.0
 10
20.9926009393362
 20
-8.627303921015672
 30
0.0
 10
21.02493016816958
 20
-8.61492223266734
 30
0.0
 10
21.06831414164483
 20
-8.586096521750502
 30
0.0
 10
21.07999999998879
 20
-8.569490616836104
 30
0.0
 10
21.07999999998878
 20
-8.55273751322549
 30
0.0
  0
LINE
  5
CD
330
1F
100
AcDbEntity
  8
SK1
  6
Continuous
100
AcDbLine
 10
21.08
 20
-8.5527375132
 30
0.0
 11
21.08
 21
-7.6288579807
 31
0.0
  0
LINE
  5
CE
330
1F
100
AcDbEntity
  8
SK1
  6
Continuous
100
AcDbLine
 10
7.08
 20
-9.4859893811
 30
0.0
 11
-29.92
 21
-7.4955712483
 31
0.0
  0
LINE
  5
CF
330
1F
100
AcDbEntity
  8
SK3
100
AcDbLine
 10
-29.92
 20
-6.4237038799
 30
0.0
 11
20.88
 21
-6.4237038799
 31
0.0
  0
SPLINE
  5
D0
330
1F
100
AcDbEntity
  8
SK1
  6
Continuous
100
AcDbSpline
210
0.0
220
0.0
230
1.0
 70
     8
 71
     3
 72
    10
 73
     6
 74
     0
 42
0.0000000213961447
 43
0.0000000001
 12
1.0
 22
0.0
 32
0.0
 13
1.0
 23
0.0
 33
0.0
 40
0.0
 40
0.0
 40
0.0
 40
0.0
 40
0.5
 40
0.5
 40
1.0
 40
1.0
 40
1.0
 40
1.0
 10
12.57999999998879
 20
-8.49080796882277
 30
0.0
 10
12.57999999998879
 20
-8.450948272127942
 30
0.0
 10
12.53710462821419
 20
-8.411024162794881
 30
0.0
 10
12.38912808175465
 20
-8.354272982702456
 30
0.0
 10
12.28416093510569
 20
-8.337699031326585
 30
0.0
 10
12.17999999998878
 20
-8.337699031326583
 30
0.0
  0
LINE
  5
D1
330
1F
100
AcDbEntity
  8
SK1
  6
Continuous
100
AcDbLine
 10
12.18
 20
-8.3376990313
 30
0.0
 11
7.48
 21
-8.3376990313
 31
0.0
  0
SPLINE
  5
D2
330
1F
100
AcDbEntity
  8
SK1
  6
Continuous
100
AcDbSpline
210
0.0
220
0.0
230
1.0
 70
     8
 71
     3
 72
    10
 73
     6
 74
     0
 42
0.0000000213892114
 43
0.0000000001
 12
1.0
 22
0.0
 32
0.0
 13
1.0
 23
0.0
 33
0.0
 40
0.0
 40
0.0
 40
0.0
 40
0.0
 40
0.5
 40
0.5
 40
1.0
 40
1.0
 40
1.0
 40
1.0
 10
7.479999999988787
 20
-8.337699031326583
 30
0.0
 10
7.374744939874597
 20
-8.337699031326585
 30
0.0
 10
7.271080268027221
 20
-8.354254464917876
 30
0.0
 10
7.123298864087364
 20
-8.41080828389943
 30
0.0
 10
7.079999999988782
 20
-8.450461530325606
 30
0.0
 10
7.079999999988782
 20
-8.490807968822772
 30
0.0
  0
ARC
  5
D3
330
1F
100
AcDbEntity
  8
SK3
100
AcDbCircle
 10
20.8872944018
 20
-16.624801448
 30
0.0
 40
0.1928667368444189
100
AcDbArc
 50
2.3422812115
 51
92.1674973379
  0
ARC
  5
D4
330
1F
100
AcDbEntity
  8
SK3
100
AcDbCircle
 10
20.8872944018
 20
-17.0074848803
 30
0.0
 40
0.192866736844417
100
AcDbArc
 50
2.3422812115
 51
92.1674973379
  0
LINE
  5
D5
330
1F
100
AcDbEntity
  8
SK1
  6
Continuous
100
AcDbLine
 10
7.08
 20
-23.8250838901
 30
0.0
 11
7.08
 21
-18.7349297355
 31
0.0
  0
LINE
  5
D6
330
1F
100
AcDbEntity
  8
SK1
  6
Continuous
100
AcDbLine
 10
21.08
 20
-19.3415720761
 30
0.0
 11
21.08
 21
-8.5527375132
 31
0.0
  0
LINE
  5
D7
330
1F
100
AcDbEntity
  8
SK1
  6
Continuous
100
AcDbLine
 10
20.955
 20
-19.5416532237
 30
0.0
 11
20.955
 21
-8.6356138381
 31
0.0
  0
LINE
  5
D8
330
1F
100
AcDbEntity
  8
SK1
  6
Continuous
100
AcDbLine
 10
13.0192304845
 20
-23.7755641586
 30
0.0
 11
13.0192304845
 21
-10.3893571693
 31
0.0
  0
LINE
  5
D9
330
1F
100
AcDbEntity
  8
SK1
  6
Continuous
100
AcDbLine
 10
12.58
 20
-23.5412337541
 30
0.0
 11
12.58
 21
-10.2922943377
 31
0.0
  0
LINE
  5
DA
330
1F
100
AcDbEntity
  8
SK1
  6
Continuous
100
AcDbLine
 10
12.18
 20
-21.052865754
 30
0.0
 11
12.18
 21
-9.2615785638
 31
0.0
  0
LINE
  5
DB
330
1F
100
AcDbEntity
  8
SK1
  6
Continuous
100
AcDbLine
 10
7.48
 20
-21.052865754
 30
0.0
 11
7.48
 21
-16.6131658323
 31
0.0
  0
LINE
  5
DC
330
1F
100
AcDbEntity
  8
SK3
100
AcDbLine
 10
-29.92
 20
-19.0197894389
 30
0.0
 11
-29.92
 21
-16.4320727011
 31
0.0
  0
LINE
  5
DD
330
1F
100
AcDbEntity
  8
SK1
  6
Continuous
100
AcDbLine
 10
-29.92
 20
-19.0197894389
 30
0.0
 11
-29.92
 21
-19.4024728713
 31
0.0
  0
LINE
  5
DE
330
1F
100
AcDbEntity
  8
SK1
  6
Continuous
100
AcDbLine
 10
7.08
 20
-23.8250838901
 30
0.0
 11
7.08
 21
-24.2077673224
 31
0.0
  0
LINE
  5
DF
330
1F
100
AcDbEntity
  8
SK1
  6
Continuous
100
AcDbLine
 10
7.08
 20
-24.2077673224
 30
0.0
 11
-29.92
 21
-19.4024728713
 31
0.0
  0
LINE
  5
E0
330
1F
100
AcDbEntity
  8
SK3
100
AcDbLine
 10
-29.92
 20
-16.8147561334
 30
0.0
 11
20.88
 21
-16.8147561334
 31
0.0
  0
LINE
  5
E1
330
1F
100
AcDbEntity
  8
SK1
  6
Continuous
100
AcDbLine
 10
12.58
 20
-23.9239171865
 30
0.0
 11
12.58
 21
-23.5412337541
 31
0.0
  0
ARC
  5
E2
330
1F
100
AcDbEntity
  8
SK1
  6
Continuous
100
AcDbCircle
 10
12.1946136732
 20
-21.8209821272
 30
0.0
 40
0.3857098797176015
100
AcDbArc
 50
2.346984986
 51
92.171326938
  0
LINE
  5
E3
330
1F
100
AcDbEntity
  8
SK1
  6
Continuous
100
AcDbLine
 10
12.18
 20
-21.4355491864
 30
0.0
 11
7.48
 21
-21.4355491864
 31
0.0
  0
ARC
  5
E4
330
1F
100
AcDbEntity
  8
SK1
  6
Continuous
100
AcDbCircle
 10
7.4653870547
 20
-21.8209829149
 30
0.0
 40
0.3857106392963511
100
AcDbArc
 50
87.8287855481
 51
177.6529025272
  0
LINE
  5
E5
330
1F
100
AcDbEntity
  8
SK1
  6
Continuous
100
AcDbLine
 10
12.58
 20
-23.5412337541
 30
0.0
 11
13.0192304845
 21
-23.7755641586
 31
0.0
  0
LINE
  5
E6
330
1F
100
AcDbEntity
  8
SK1
  6
Continuous
100
AcDbLine
 10
13.0192304845
 20
-23.7755641586
 30
0.0
 11
20.955
 21
-19.5416532237
 31
0.0
  0
ARC
  5
E7
330
1F
100
AcDbEntity
  8
SK1
  6
Continuous
100
AcDbCircle
 10
20.8487262581
 20
-19.3361718426
 30
0.0
 40
0.2313367808909587
100
AcDbArc
 50
297.3477350549
 51
358.662388689
  0
LINE
  5
E8
330
1F
100
AcDbEntity
  8
SK1
  6
Continuous
100
AcDbLine
 10
12.58
 20
-23.9239171865
 30
0.0
 11
13.0192304845
 21
-24.158247591
 31
0.0
  0
LINE
  5
E9
330
1F
100
AcDbEntity
  8
SK1
  6
Continuous
100
AcDbLine
 10
13.0192304845
 20
-24.158247591
 30
0.0
 11
20.955
 21
-19.9243366561
 31
0.0
  0
ARC
  5
EA
330
1F
100
AcDbEntity
  8
SK1
  6
Continuous
100
AcDbCircle
 10
20.8487262581
 20
-19.7188552749
 30
0.0
 40
0.2313367808933308
100
AcDbArc
 50
297.3477350553
 51
358.6623886887
  0
LINE
  5
EB
330
1F
100
AcDbEntity
  8
SK1
  6
Continuous
100
AcDbLine
 10
21.08
 20
-19.7242555084
 30
0.0
 11
21.08
 21
-19.3415720761
 31
0.0
  0
LINE
  5
EC
330
1F
100
AcDbEntity
  8
SK1
  6
Continuous
100
AcDbLine
 10
7.08
 20
-23.8250838901
 30
0.0
 11
-29.92
 21
-19.0197894389
 31
0.0
  0
LINE
  5
ED
330
1F
100
AcDbEntity
  8
SK3
100
AcDbLine
 10
-29.92
 20
-16.4320727011
 30
0.0
 11
20.88
 21
-16.4320727011
 31
0.0
  0
ARC
  5
EE
330
1F
100
AcDbEntity
  8
SK1
  6
Continuous
100
AcDbCircle
 10
12.1946136732
 20
-21.4382986948
 30
0.0
 40
0.3857098797175953
100
AcDbArc
 50
2.346984986
 51
92.171326938
  0
LINE
  5
EF
330
1F
100
AcDbEntity
  8
SK1
  6
Continuous
100
AcDbLine
 10
12.18
 20
-21.052865754
 30
0.0
 11
7.48
 21
-21.052865754
 31
0.0
  0
ARC
  5
F0
330
1F
100
AcDbEntity
  8
SK1
  6
Continuous
100
AcDbCircle
 10
7.4653870547
 20
-21.4382994826
 30
0.0
 40
0.3857106392963448
100
AcDbArc
 50
87.8287855481
 51
177.6529025272
  0
LINE
  5
F1
330
1F
100
AcDbEntity
  8
SK3
100
AcDbLine
 10
12.08
 20
17.9930543152
 30
0.0
 11
-38.72
 21
17.9930543152
 31
0.0
  0
LINE
  5
F2
330
1F
100
AcDbEntity
  8
SK3
100
AcDbLine
 10
12.08
 20
22.9945646749
 30
0.0
 11
12.08
 21
17.9930543152
 31
0.0
  0
LINE
  5
F3
330
1F
100
AcDbEntity
  8
SK1
  6
Continuous
100
AcDbLine
 10
12.08
 20
23.0000000998
 30
0.0
 11
12.08
 21
22.9945646749
 31
0.0
  0
SPLINE
  5
F4
330
1F
100
AcDbEntity
  8
SK3
100
AcDbSpline
210
0.0
220
0.0
230
1.0
 70
     8
 71
     3
 72
    10
 73
     6
 74
     0
 42
0.0000000310332764
 43
0.0000000001
 12
1.0
 22
0.0
 32
0.0
 13
1.0
 23
0.0
 33
0.0
 40
0.0
 40
0.0
 40
0.0
 40
0.0
 40
0.5
 40
0.5
 40
1.0
 40
1.0
 40
1.0
 40
1.0
 10
-38.92000000001359
 20
18.19313067149996
 30
0.0
 10
-38.92000000001111
 20
18.14097048753587
 30
0.0
 10
-38.89879305994584
 20
18.08907731664362
 30
0.0
 10
-38.82418503035915
 20
18.01436917485328
 30
0.0
 10
-38.77283169975716
 20
17.99305431521649
 30
0.0
 10
-38.72000000001121
 20
17.99305431521729
 30
0.0
  0
SPLINE
  5
F5
330
1F
100
AcDbEntity
  8
SK1
  6
Continuous
100
AcDbSpline
210
0.0
220
0.0
230
1.0
 70
     8
 71
     3
 72
    10
 73
     6
 74
     0
 42
0.0000000155178301
 43
0.0000000001
 12
1.0
 22
0.0
 32
0.0
 13
1.0
 23
0.0
 33
0.0
 40
0.0
 40
0.0
 40
0.0
 40
0.0
 40
0.5
 40
0.5
 40
1.0
 40
1.0
 40
1.0
 40
1.0
 10
7.079999999988782
 20
23.39465760955271
 30
0.0
 10
7.079999999988776
 20
23.29034843169786
 30
0.0
 10
7.122426651365432
 20
23.18656415853895
 30
0.0
 10
7.271636167937551
 20
23.03718679924408
 30
0.0
 10
7.374341814349476
 20
22.99456467490413
 30
0.0
 10
7.479999999988784
 20
22.99456467490453
 30
0.0
  0
LINE
  5
F6
330
1F
100
AcDbEntity
  8
SK1
  6
Continuous
100
AcDbLine
 10
7.48
 20
22.9945646749
 30
0.0
 11
12.08
 21
22.9945646749
 31
0.0
  0
SPLINE
  5
F7
330
1F
100
AcDbEntity
  8
SK1
  6
Continuous
100
AcDbSpline
210
0.0
220
0.0
230
1.0
 70
     8
 71
     3
 72
    10
 73
     6
 74
     0
 42
0.0000000136845499
 43
0.0000000001
 12
1.0
 22
0.0
 32
0.0
 13
1.0
 23
0.0
 33
0.0
 40
0.0
 40
0.0
 40
0.0
 40
0.0
 40
0.5
 40
0.5
 40
1.0
 40
1.0
 40
1.0
 40
1.0
 10
-38.92000000001121
 20
19.09393287427717
 30
0.0
 10
-38.92000000001121
 20
19.21302455490244
 30
0.0
 10
-38.8754101410324
 20
19.33213914073721
 30
0.0
 10
-38.71970326452106
 20
19.51154174597258
 30
0.0
 10
-38.60876748605634
 20
19.57247710786229
 30
0.0
 10
-38.48958655049125
 20
19.58923235126444
 30
0.0
  0
SPLINE
  5
F8
330
1F
100
AcDbEntity
  8
SK1
  6
Continuous
100
AcDbSpline
210
0.0
220
0.0
230
1.0
 70
     8
 71
     3
 72
    11
 73
     7
 74
     0
 42
0.000000000217308
 43
0.0000000001
 12
1.0
 22
0.0
 32
0.0
 13
1.0
 23
0.0
 33
0.0
 40
0.0
 40
0.0
 40
0.0
 40
0.0
 40
0.7476039056833147
 40
0.7476039056833147
 40
0.7476039056833147
 40
1.0
 40
1.0
 40
1.0
 40
1.0
 10
-38.48958655049125
 20
19.58923235126444
 30
0.0
 10
-27.13360391203563
 20
21.18573142467966
 30
0.0
 10
-15.77760443190908
 20
22.78211070320524
 30
0.0
 10
-4.421596407638735
 20
24.37842919555843
 30
0.0
 10
-0.5877319098304794
 20
24.91735702846834
 30
0.0
 10
3.246133619805538
 20
25.4562775211201
 30
0.0
 10
7.079999999988782
 20
25.99519196288261
 30
0.0
  0
LINE
  5
F9
330
1F
100
AcDbEntity
  8
SK1
  6
Continuous
100
AcDbLine
 10
21.08
 20
-21.1481850448
 30
0.0
 11
21.08
 21
-19.7242555084
 31
0.0
  0
LINE
  5
FA
330
1F
100
AcDbEntity
  8
SK1
  6
Continuous
100
AcDbLine
 10
20.955
 20
-19.9243366561
 30
0.0
 11
20.955
 21
-21.3646913958
 31
0.0
  0
LINE
  5
FB
330
1F
100
AcDbEntity
  8
SK1
  6
Continuous
100
AcDbLine
 10
13.0192304845
 20
-25.9464100617
 30
0.0
 11
13.0192304845
 21
-24.158247591
 31
0.0
  0
LINE
  5
FC
330
1F
100
AcDbEntity
  8
SK1
  6
Continuous
100
AcDbLine
 10
12.58
 20
-25.6928202233
 30
0.0
 11
12.58
 21
-23.9239171865
 31
0.0
  0
LINE
  5
FD
330
1F
100
AcDbEntity
  8
SK1
  6
Continuous
100
AcDbLine
 10
12.18
 20
-22.9999999002
 30
0.0
 11
12.18
 21
-21.4355491864
 31
0.0
  0
LINE
  5
FE
330
1F
100
AcDbEntity
  8
SK3
100
AcDbLine
 10
12.08
 20
12.3694573592
 30
0.0
 11
-38.72
 21
12.3694573592
 31
0.0
  0
LINE
  5
FF
330
1F
100
AcDbEntity
  8
SK3
100
AcDbLine
 10
12.08
 20
13.0765641404
 30
0.0
 11
-38.72
 21
13.0765641404
 31
0.0
  0
LINE
  5
100
330
1F
100
AcDbEntity
  8
SK1
  6
Continuous
100
AcDbLine
 10
7.08
 20
18.734929935
 30
0.0
 11
7.08
 21
23.8250840896
 31
0.0
  0
LINE
  5
101
330
1F
100
AcDbEntity
  8
SK1
  6
Continuous
100
AcDbLine
 10
7.48
 20
16.6131660319
 30
0.0
 11
7.48
 21
21.0528659536
 31
0.0
  0
LINE
  5
102
330
1F
100
AcDbEntity
  8
SK1
  6
Continuous
100
AcDbLine
 10
-38.92
 20
13.8550028347
 30
0.0
 11
-38.92
 21
19.0939328743
 31
0.0
  0
LINE
  5
103
330
1F
100
AcDbEntity
  8
SK1
  6
Continuous
100
AcDbLine
 10
-38.4895865505
 20
14.2052324536
 30
0.0
 11
-38.4895865505
 21
19.5892323513
 31
0.0
  0
LINE
  5
104
330
1F
100
AcDbEntity
  8
SK3
100
AcDbLine
 10
12.08
 20
15.9060592507
 30
0.0
 11
12.08
 21
12.3694573592
 31
0.0
  0
LINE
  5
105
330
1F
100
AcDbEntity
  8
SK1
  6
Continuous
100
AcDbLine
 10
12.08
 20
15.9060592507
 30
0.0
 11
12.08
 21
16.6131660319
 31
0.0
  0
SPLINE
  5
106
330
1F
100
AcDbEntity
  8
SK1
  6
Continuous
100
AcDbSpline
210
0.0
220
0.0
230
1.0
 70
     8
 71
     3
 72
    10
 73
     6
 74
     0
 42
0.0000000180494881
 43
0.0000000001
 12
1.0
 22
0.0
 32
0.0
 13
1.0
 23
0.0
 33
0.0
 40
0.0
 40
0.0
 40
0.0
 40
0.0
 40
0.5
 40
0.5
 40
1.0
 40
1.0
 40
1.0
 40
1.0
 10
7.079999999988782
 20
16.89607445906762
 30
0.0
 10
7.079999999988776
 20
16.82231673206647
 30
0.0
 10
7.122426651365428
 20
16.74893016873528
 30
0.0
 10
7.271636167937551
 20
16.64330442502214
 30
0.0
 10
7.374341814349476
 20
16.6131660318728
 30
0.0
 10
7.479999999988784
 20
16.61316603187307
 30
0.0
  0
LINE
  5
107
330
1F
100
AcDbEntity
  8
SK1
  6
Continuous
100
AcDbLine
 10
7.48
 20
16.6131660319
 30
0.0
 11
12.08
 21
16.6131660319
 31
0.0
  0
LINE
  5
108
330
1F
100
AcDbEntity
  8
SK1
  6
Continuous
100
AcDbLine
 10
-38.92
 20
13.2180394886
 30
0.0
 11
-38.92
 21
13.8550028347
 31
0.0
  0
SPLINE
  5
109
330
1F
100
AcDbEntity
  8
SK1
  6
Continuous
100
AcDbSpline
210
0.0
220
0.0
230
1.0
 70
     8
 71
     3
 72
    10
 73
     6
 74
     0
 42
0.0000000161516538
 43
0.0000000001
 12
1.0
 22
0.0
 32
0.0
 13
1.0
 23
0.0
 33
0.0
 40
0.0
 40
0.0
 40
0.0
 40
0.0
 40
0.5
 40
0.5
 40
1.0
 40
1.0
 40
1.0
 40
1.0
 10
-38.92000000001121
 20
13.85500283473757
 30
0.0
 10
-38.92000000001121
 20
13.9392133696906
 30
0.0
 10
-38.87541014103242
 20
14.02344010107259
 30
0.0
 10
-38.71970326452107
 20
14.15029689979706
 30
0.0
 10
-38.60876748605633
 20
14.19338470740333
 30
0.0
 10
-38.48958655049125
 20
14.20523245363342
 30
0.0
  0
SPLINE
  5
10A
330
1F
100
AcDbEntity
  8
SK1
  6
Continuous
100
AcDbSpline
210
0.0
220
0.0
230
1.0
 70
     8
 71
     3
 72
    11
 73
     7
 74
     0
 42
0.0000000002183684
 43
0.0000000001
 12
1.0
 22
0.0
 32
0.0
 13
1.0
 23
0.0
 33
0.0
 40
0.0
 40
0.0
 40
0.0
 40
0.0
 40
0.7476039056833147
 40
0.7476039056833147
 40
0.7476039056833147
 40
1.0
 40
1.0
 40
1.0
 40
1.0
 10
-38.48958655049125
 20
14.20523245363342
 30
0.0
 10
-27.13360391203563
 20
15.33412777460336
 30
0.0
 10
-15.77760443190908
 20
16.46293838779448
 30
0.0
 10
-4.421596407638735
 20
17.59170601867091
 30
0.0
 10
-0.5877319098304794
 20
17.97278554389168
 30
0.0
 10
3.246133619805538
 20
18.35385987876613
 30
0.0
 10
7.079999999988782
 20
18.73492993501576
 30
0.0
  0
LINE
  5
10B
330
1F
100
AcDbEntity
  8
SK1
  6
Continuous
100
AcDbLine
 10
7.08
 20
18.734929935
 30
0.0
 11
7.08
 21
18.0278231538
 31
0.0
  0
SPLINE
  5
10C
330
1F
100
AcDbEntity
  8
SK3
100
AcDbSpline
210
0.0
220
0.0
230
1.0
 70
     8
 71
     3
 72
    10
 73
     6
 74
     0
 42
0.0000000360969089
 43
0.0000000001
 12
1.0
 22
0.0
 32
0.0
 13
1.0
 23
0.0
 33
0.0
 40
0.0
 40
0.0
 40
0.0
 40
0.0
 40
0.5
 40
0.5
 40
1.0
 40
1.0
 40
1.0
 40
1.0
 10
-38.92000000001359
 20
12.51093270745948
 30
0.0
 10
-38.92000000001111
 20
12.47404988767053
 30
0.0
 10
-38.89879305994584
 20
12.43735587463535
 30
0.0
 10
-38.82418503035915
 20
12.38452924096555
 30
0.0
 10
-38.77283169975716
 20
12.36945735917633
 30
0.0
 10
-38.72000000001121
 20
12.3694573591769
 30
0.0
  0
SPLINE
  5
10D
330
1F
100
AcDbEntity
  8
SK3
100
AcDbSpline
210
0.0
220
0.0
230
1.0
 70
     8
 71
     3
 72
    10
 73
     6
 74
     0
 42
0.0000000360969089
 43
0.0000000001
 12
1.0
 22
0.0
 32
0.0
 13
1.0
 23
0.0
 33
0.0
 40
0.0
 40
0.0
 40
0.0
 40
0.0
 40
0.5
 40
0.5
 40
1.0
 40
1.0
 40
1.0
 40
1.0
 10
-38.92000000001359
 20
13.21803948864602
 30
0.0
 10
-38.92000000001111
 20
13.18115666885707
 30
0.0
 10
-38.89879305994584
 20
13.1444626558219
 30
0.0
 10
-38.82418503035915
 20
13.0916360221521
 30
0.0
 10
-38.77283169975716
 20
13.07656414036289
 30
0.0
 10
-38.72000000001121
 20
13.07656414036345
 30
0.0
  0
SPLINE
  5
10E
330
1F
100
AcDbEntity
  8
SK1
  6
Continuous
100
AcDbSpline
210
0.0
220
0.0
230
1.0
 70
     8
 71
     3
 72
    10
 73
     6
 74
     0
 42
0.0000000180494881
 43
0.0000000001
 12
1.0
 22
0.0
 32
0.0
 13
1.0
 23
0.0
 33
0.0
 40
0.0
 40
0.0
 40
0.0
 40
0.0
 40
0.5
 40
0.5
 40
1.0
 40
1.0
 40
1.0
 40
1.0
 10
7.079999999988782
 20
16.18896767788107
 30
0.0
 10
7.079999999988776
 20
16.11520995087992
 30
0.0
 10
7.122426651365428
 20
16.04182338754874
 30
0.0
 10
7.271636167937551
 20
15.93619764383559
 30
0.0
 10
7.374341814349476
 20
15.90605925068625
 30
0.0
 10
7.479999999988784
 20
15.90605925068653
 30
0.0
  0
LINE
  5
10F
330
1F
100
AcDbEntity
  8
SK1
  6
Continuous
100
AcDbLine
 10
7.48
 20
15.9060592507
 30
0.0
 11
12.08
 21
15.9060592507
 31
0.0
  0
SPLINE
  5
110
330
1F
100
AcDbEntity
  8
SK1
  6
Continuous
100
AcDbSpline
210
0.0
220
0.0
230
1.0
 70
     8
 71
     3
 72
    10
 73
     6
 74
     0
 42
0.0000000161516538
 43
0.0000000001
 12
1.0
 22
0.0
 32
0.0
 13
1.0
 23
0.0
 33
0.0
 40
0.0
 40
0.0
 40
0.0
 40
0.0
 40
0.5
 40
0.5
 40
1.0
 40
1.0
 40
1.0
 40
1.0
 10
-38.92000000001121
 20
13.14789605355102
 30
0.0
 10
-38.92000000001121
 20
13.23210658850405
 30
0.0
 10
-38.87541014103242
 20
13.31633331988604
 30
0.0
 10
-38.71970326452107
 20
13.44319011861052
 30
0.0
 10
-38.6087674860563
 20
13.48627792621678
 30
0.0
 10
-38.48958655049125
 20
13.49812567244687
 30
0.0
  0
SPLINE
  5
111
330
1F
100
AcDbEntity
  8
SK1
  6
Continuous
100
AcDbSpline
210
0.0
220
0.0
230
1.0
 70
     8
 71
     3
 72
    11
 73
     7
 74
     0
 42
0.0000000002183684
 43
0.0000000001
 12
1.0
 22
0.0
 32
0.0
 13
1.0
 23
0.0
 33
0.0
 40
0.0
 40
0.0
 40
0.0
 40
0.0
 40
0.7476039056833147
 40
0.7476039056833147
 40
0.7476039056833147
 40
1.0
 40
1.0
 40
1.0
 40
1.0
 10
-38.48958655049125
 20
13.49812567244687
 30
0.0
 10
-27.13360391203563
 20
14.62702099341681
 30
0.0
 10
-15.77760443190908
 20
15.75583160660794
 30
0.0
 10
-4.421596407638735
 20
16.88459923748436
 30
0.0
 10
-0.5877319098304794
 20
17.26567876270514
 30
0.0
 10
3.246133619805538
 20
17.64675309757958
 30
0.0
 10
7.079999999988782
 20
18.02782315382922
 30
0.0
  0
LINE
  5
112
330
1F
100
AcDbEntity
  8
SK1
  6
Continuous
100
AcDbLine
 10
7.08
 20
0.5000000998
 30
0.0
 11
7.08
 21
9.4859895807
 31
0.0
  0
LINE
  5
113
330
1F
100
AcDbEntity
  8
SK1
  6
Continuous
100
AcDbLine
 10
7.48
 20
0.5000000998
 30
0.0
 11
7.48
 21
8.3376992309
 31
0.0
  0
LINE
  5
114
330
1F
100
AcDbEntity
  8
SK1
  6
Continuous
100
AcDbLine
 10
-38.92
 20
0.5000000998
 30
0.0
 11
-38.92
 21
13.1478960536
 31
0.0
  0
LINE
  5
115
330
1F
100
AcDbEntity
  8
SK1
  6
Continuous
100
AcDbLine
 10
-38.4895865505
 20
0.5000000998
 30
0.0
 11
-38.4895865505
 21
13.4981256724
 31
0.0
  0
LINE
  5
116
330
1F
100
AcDbEntity
  8
SK1
  6
Continuous
100
AcDbLine
 10
12.08
 20
-0.4999999002
 30
0.0
 11
12.08
 21
0.5000000998
 31
0.0
  0
LINE
  5
117
330
1F
100
AcDbEntity
  8
SK1
  6
Continuous
100
AcDbLine
 10
7.08
 20
0.5000000998
 30
0.0
 11
7.48
 21
0.5000000998
 31
0.0
  0
LINE
  5
118
330
1F
100
AcDbEntity
  8
SK1
  6
Continuous
100
AcDbLine
 10
7.48
 20
0.5000000998
 30
0.0
 11
12.08
 21
0.5000000998
 31
0.0
  0
LINE
  5
119
330
1F
100
AcDbEntity
  8
SK1
  6
Continuous
100
AcDbLine
 10
-38.92
 20
0.5000000998
 30
0.0
 11
-38.4895865505
 21
0.5000000998
 31
0.0
  0
LINE
  5
11A
330
1F
100
AcDbEntity
  8
SK1
  6
Continuous
100
AcDbLine
 10
-38.4895865505
 20
0.5000000998
 30
0.0
 11
7.08
 21
0.5000000998
 31
0.0
  0
LINE
  5
11B
330
1F
100
AcDbEntity
  8
SK1
  6
Continuous
100
AcDbLine
 10
7.08
 20
-0.4999999002
 30
0.0
 11
7.48
 21
-0.4999999002
 31
0.0
  0
LINE
  5
11C
330
1F
100
AcDbEntity
  8
SK1
  6
Continuous
100
AcDbLine
 10
7.48
 20
-0.4999999002
 30
0.0
 11
12.08
 21
-0.4999999002
 31
0.0
  0
LINE
  5
11D
330
1F
100
AcDbEntity
  8
SK1
  6
Continuous
100
AcDbLine
 10
-38.92
 20
-0.4999999002
 30
0.0
 11
-38.4895865505
 21
-0.4999999002
 31
0.0
  0
LINE
  5
11E
330
1F
100
AcDbEntity
  8
SK1
  6
Continuous
100
AcDbLine
 10
-38.4895865505
 20
-0.4999999002
 30
0.0
 11
7.08
 21
-0.4999999002
 31
0.0
  0
LINE
  5
11F
330
1F
100
AcDbEntity
  8
SK3
100
AcDbLine
 10
12.08
 20
-17.9999999002
 30
0.0
 11
20.88
 21
-17.9999999002
 31
0.0
  0
LINE
  5
120
330
1F
100
AcDbEntity
  8
SK3
100
AcDbLine
 10
20.88
 20
18.0000000998
 30
0.0
 11
12.08
 21
18.0000000998
 31
0.0
  0
ARC
  5
121
330
1F
100
AcDbEntity
  8
SK3
100
AcDbCircle
 10
20.88
 20
18.2000000998
 30
0.0
 40
0.2000000000000013
100
AcDbArc
 50
270.0
 51
0.0
  0
ARC
  5
122
330
1F
100
AcDbEntity
  8
SK1
  6
Continuous
100
AcDbCircle
 10
20.83
 20
21.1481852444
 30
0.0
 40
0.2499999999999987
100
AcDbArc
 50
0.0
 51
60.0
  0
LINE
  5
123
330
1F
100
AcDbEntity
  8
SK1
  6
Continuous
100
AcDbLine
 10
20.955
 20
21.3646915953
 30
0.0
 11
13.0192304845
 21
25.9464102613
 31
0.0
  0
LINE
  5
124
330
1F
100
AcDbEntity
  8
SK1
  6
Continuous
100
AcDbLine
 10
13.0192304845
 20
25.9464102613
 30
0.0
 11
12.58
 21
25.6928204228
 31
0.0
  0
LINE
  5
125
330
1F
100
AcDbEntity
  8
SK1
  6
Continuous
100
AcDbLine
 10
12.18
 20
23.0000000998
 30
0.0
 11
12.08
 21
23.0000000998
 31
0.0
  0
ARC
  5
126
330
1F
100
AcDbEntity
  8
SK1
  6
Continuous
100
AcDbCircle
 10
12.18
 20
23.4000000998
 30
0.0
 40
0.400000000000001
100
AcDbArc
 50
270.0
 51
0.0
  0
ARC
  5
127
330
1F
100
AcDbEntity
  8
SK3
100
AcDbCircle
 10
20.88
 20
-18.1999999002
 30
0.0
 40
0.199999999999999
100
AcDbArc
 50
0.0
 51
90.0
  0
ARC
  5
128
330
1F
100
AcDbEntity
  8
SK1
  6
Continuous
100
AcDbCircle
 10
20.83
 20
-21.1481850448
 30
0.0
 40
0.2500000000000006
100
AcDbArc
 50
300.0
 51
0.0
  0
LINE
  5
129
330
1F
100
AcDbEntity
  8
SK1
  6
Continuous
100
AcDbLine
 10
13.0192304845
 20
-25.9464100617
 30
0.0
 11
20.955
 21
-21.3646913958
 31
0.0
  0
LINE
  5
12A
330
1F
100
AcDbEntity
  8
SK1
  6
Continuous
100
AcDbLine
 10
12.58
 20
-25.6928202233
 30
0.0
 11
13.0192304845
 21
-25.9464100617
 31
0.0
  0
LINE
  5
12B
330
1F
100
AcDbEntity
  8
SK1
  6
Continuous
100
AcDbLine
 10
12.08
 20
-22.9999999002
 30
0.0
 11
12.18
 21
-22.9999999002
 31
0.0
  0
ARC
  5
12C
330
1F
100
AcDbEntity
  8
SK1
  6
Continuous
100
AcDbCircle
 10
12.18
 20
-23.3999999002
 30
0.0
 40
0.3999999999999987
100
AcDbArc
 50
0.0
 51
90.0
  0
LINE
  5
12D
330
1F
100
AcDbEntity
  8
SK1
  6
Continuous
100
AcDbLine
 10
0.0
 20
24.999971489
 30
0.0
 11
0.0
 21
-24.9999712895
 31
0.0
  0
LINE
  5
12F
330
1F
100
AcDbEntity
  8
SK4
  6
Continuous
100
AcDbLine
 10
21.08
 20
0.0000000998
 30
0.0
 11
-38.92
 21
0.0000000998
 31
0.0
  0
DIMENSION
  5
144
330
1F
100
AcDbEntity
  8
SK2
  6
Continuous
 62
   136
100
AcDbDimension
  2
DMBLK57
 10
31.2731268677
 20
-17.9999999002
 30
0.0
 11
31.2731268677
 21
-0.0000006751
 31
0.0
 70
   161
  1
\A1;ø <>
 71
     5
 42
-1.0
  3
DIN
100
AcDbAlignedDimension
 13
20.88
 23
-17.9999999002
 33
0.0
 14
20.88
 24
18.0000000998
 34
0.0
  0
DIMENSION
  5
14F
330
1F
100
AcDbEntity
  8
SK2
  6
Continuous
 62
   136
100
AcDbDimension
  2
DMBLK58
 10
21.08
 20
-34.1688401739
 30
0.0
 11
10.540000163
 21
-34.1688401739
 31
0.0
 70
   160
  1
\A1;<>
 71
     5
 42
-1.0
  3
DIN
100
AcDbAlignedDimension
 13
0.0
 23
-24.9999712895
 33
0.0
 14
21.08
 24
-21.1481850448
 34
0.0
100
AcDbRotatedDimension
  0
DIMENSION
  5
159
330
1F
100
AcDbEntity
  8
SK2
  6
Continuous
 62
   136
100
AcDbDimension
  2
DMBLK59
 10
-47.9387044907
 20
24.999971489
 30
0.0
 11
-47.9387044907
 21
0.0000009188
 31
0.0
 70
   161
  1
\A1;ø <>
 71
     5
 42
-1.0
  3
DIN
100
AcDbAlignedDimension
 13
0.0
 23
24.999971489
 33
0.0
 14
0.0
 24
-24.9999712895
 34
0.0
  0
DIMENSION
  5
164
330
1F
100
AcDbEntity
  8
SK2
  6
Continuous
 62
   136
100
AcDbDimension
  2
DMBLK60
 10
21.08
 20
32.9533908659
 30
0.0
 11
-8.9200006706
 21
32.9533908659
 31
0.0
 70
   160
  1
\A1;<>
 71
     5
 42
-1.0
  3
DIN
100
AcDbAlignedDimension
 13
-38.92
 23
13.8550028347
 33
0.0
 14
21.08
 24
19.5329139918
 34
0.0
100
AcDbRotatedDimension
  0
ENDSEC
  0
SECTION
  2
OBJECTS
  0
DICTIONARY
  5
C
330
0
100
AcDbDictionary
281
     1
  3
ACAD_GROUP
350
D
  3
ACAD_LAYOUT
350
1A
  3
ACAD_MATERIAL
350
3B
  3
ACAD_MLEADERSTYLE
350
170
  3
ACAD_MLINESTYLE
350
17
  3
ACAD_PLOTSETTINGS
350
19
  3
ACAD_PLOTSTYLENAME
350
E
  3
ACAD_VISUALSTYLE
350
2A
  3
AcDbVariableDictionary
350
16E
  0
DICTIONARY
  5
D
102
{ACAD_REACTORS
330
C
102
}
330
C
100
AcDbDictionary
281
     1
  0
DICTIONARY
  5
1A
102
{ACAD_REACTORS
330
C
102
}
330
C
100
AcDbDictionary
281
     1
  3
Layout1
350
1E
  3
Model
350
22
  0
DICTIONARY
  5
3B
102
{ACAD_REACTORS
330
C
102
}
330
C
100
AcDbDictionary
281
     1
  3
ByBlock
350
3D
  3
ByLayer
350
3C
  3
Global
350
3E
  0
DICTIONARY
  5
170
102
{ACAD_REACTORS
330
C
102
}
330
C
100
AcDbDictionary
281
     1
  0
DICTIONARY
  5
17
102
{ACAD_REACTORS
330
C
102
}
330
C
100
AcDbDictionary
281
     1
  3
Standard
350
18
  0
DICTIONARY
  5
19
102
{ACAD_REACTORS
330
C
102
}
330
C
100
AcDbDictionary
281
     1
  0
ACDBDICTIONARYWDFLT
  5
E
102
{ACAD_REACTORS
330
C
102
}
330
C
100
AcDbDictionary
281
     1
  3
Normal
350
F
100
AcDbDictionaryWithDefault
340
F
  0
DICTIONARY
  5
2A
102
{ACAD_REACTORS
330
C
102
}
330
C
100
AcDbDictionary
281
     1
  3
2dWireframe
350
2F
  3
3D Hidden
350
31
  3
3dWireframe
350
30
  3
Basic
350
32
  3
Brighten
350
36
  3
ColorChange
350
3A
  3
Conceptual
350
34
  3
Dim
350
35
  3
Facepattern
350
39
  3
Flat
350
2B
  3
FlatWithEdges
350
2C
  3
Gouraud
350
2D
  3
GouraudWithEdges
350
2E
  3
Linepattern
350
38
  3
Realistic
350
33
  3
Thicken
350
37
  0
DICTIONARY
  5
16E
102
{ACAD_REACTORS
330
C
102
}
330
C
100
AcDbDictionary
281
     1
  3
DIMASSOC
350
173
  3
HIDETEXT
350
174
  3
PSOLHEIGHT
350
172
  3
PSOLWIDTH
350
171
  0
LAYOUT
  5
1E
102
{ACAD_REACTORS
330
1A
102
}
330
1A
100
AcDbPlotSettings
  1

  2
none_device
  4

  6

 40
0.0
 41
0.0
 42
0.0
 43
0.0
 44
0.0
 45
0.0
 46
0.0
 47
0.0
 48
0.0
 49
0.0
140
0.0
141
0.0
142
1.0
143
1.0
 70
   688
 72
     0
 73
     0
 74
     5
  7

 75
    16
147
1.0
148
0.0
149
0.0
100
AcDbLayout
  1
Layout1
 70
     1
 71
     1
 10
0.0
 20
0.0
 11
210.0
 21
297.0
 12
0.0
 22
0.0
 32
0.0
 14
0.0
 24
0.0
 34
0.0
 15
210.0
 25
297.0
 35
0.0
146
0.0
 13
0.0
 23
0.0
 33
0.0
 16
1.0
 26
0.0
 36
0.0
 17
0.0
 27
1.0
 37
0.0
 76
     0
330
1B
  0
LAYOUT
  5
22
102
{ACAD_REACTORS
330
1A
102
}
330
1A
100
AcDbPlotSettings
  1

  2
none_device
  4

  6

 40
0.0
 41
0.0
 42
0.0
 43
0.0
 44
0.0
 45
0.0
 46
0.0
 47
0.0
 48
0.0
 49
0.0
140
0.0
141
0.0
142
1.0
143
1.0
 70
  1712
 72
     0
 73
     0
 74
     0
  7

 75
     0
147
1.0
148
0.0
149
0.0
100
AcDbLayout
  1
Model
 70
     1
 71
     0
 10
0.0
 20
0.0
 11
210.0
 21
297.0
 12
0.0
 22
0.0
 32
0.0
 14
0.0
 24
0.0
 34
0.0
 15
210.0
 25
297.0
 35
0.0
146
0.0
 13
0.0
 23
0.0
 33
0.0
 16
1.0
 26
0.0
 36
0.0
 17
0.0
 27
1.0
 37
0.0
 76
     0
330
1F
331
29
  0
MATERIAL
  5
3D
102
{ACAD_REACTORS
330
3B
102
}
102
{ACAD_XDICTIONARY
360
197
102
}
330
3B
100
AcDbMaterial
  1
ByBlock
  0
MATERIAL
  5
3C
102
{ACAD_REACTORS
330
3B
102
}
102
{ACAD_XDICTIONARY
360
195
102
}
330
3B
100
AcDbMaterial
  1
ByLayer
  0
MATERIAL
  5
3E
102
{ACAD_REACTORS
330
3B
102
}
102
{ACAD_XDICTIONARY
360
199
102
}
330
3B
100
AcDbMaterial
  1
Global
  0
MLINESTYLE
  5
18
102
{ACAD_REACTORS
330
17
102
}
330
17
100
AcDbMlineStyle
  2
Standard
 70
     0
  3

 62
   256
 51
90.0
 52
90.0
 71
     2
 49
0.5
 62
   256
  6
BYLAYER
 49
-0.5
 62
   256
  6
BYLAYER
  0
ACDBPLACEHOLDER
  5
F
102
{ACAD_REACTORS
330
E
102
}
330
E
  0
VISUALSTYLE
  5
2F
102
{ACAD_REACTORS
330
2A
102
}
102
{ACAD_XDICTIONARY
360
17D
102
}
330
2A
100
AcDbVisualStyle
  2
2dWireframe
 70
     4
 71
     0
 72
     2
 73
     0
 90
        0
 40
-0.6
 41
-30.0
 62
     5
 63
     7
 74
     1
 91
        4
 64
     7
 65
   257
 75
     1
175
     1
 42
1.0
 92
        0
 66
   257
 43
1.0
 76
     1
 77
     6
 78
     2
 67
     7
 79
     5
170
     0
171
     0
290
     0
174
     0
 93
        1
 44
0.0
173
     0
291
     0
 45
0.0
1001
ACAD
1000
AcDbSavedByObjectVersion
1070
     0
  0
VISUALSTYLE
  5
31
102
{ACAD_REACTORS
330
2A
102
}
102
{ACAD_XDICTIONARY
360
181
102
}
330
2A
100
AcDbVisualStyle
  2
3D Hidden
 70
     6
 71
     1
 72
     2
 73
     2
 90
        0
 40
-0.6
 41
-30.0
 62
     5
 63
     7
 74
     2
 91
        2
 64
     7
 65
   257
 75
     2
175
     1
 42
40.0
 92
        0
 66
   257
 43
1.0
 76
     1
 77
     6
 78
     2
 67
     7
 79
     3
170
     0
171
     0
290
     0
174
     0
 93
        1
 44
0.0
173
     0
291
     0
 45
0.0
1001
ACAD
1000
AcDbSavedByObjectVersion
1070
     0
  0
VISUALSTYLE
  5
30
102
{ACAD_REACTORS
330
2A
102
}
102
{ACAD_XDICTIONARY
360
17F
102
}
330
2A
100
AcDbVisualStyle
  2
3dWireframe
 70
     5
 71
     0
 72
     2
 73
     0
 90
        0
 40
-0.6
 41
-30.0
 62
     5
 63
     7
 74
     1
 91
        4
 64
     7
 65
   257
 75
     1
175
     1
 42
1.0
 92
        0
 66
   257
 43
1.0
 76
     1
 77
     6
 78
     2
 67
     7
 79
     5
170
     0
171
     0
290
     0
174
     0
 93
        1
 44
0.0
173
     0
291
     0
 45
0.0
1001
ACAD
1000
AcDbSavedByObjectVersion
1070
     0
  0
VISUALSTYLE
  5
32
102
{ACAD_REACTORS
330
2A
102
}
102
{ACAD_XDICTIONARY
360
183
102
}
330
2A
100
AcDbVisualStyle
  2
Basic
 70
     7
 71
     1
 72
     0
 73
     1
 90
        0
 40
-0.6
 41
-30.0
 62
     5
 63
     7
 74
     0
 91
        4
 64
     7
 65
   257
 75
     1
175
     1
 42
1.0
 92
        8
 66
     7
 43
1.0
 76
     1
 77
     6
 78
     2
 67
     7
 79
     5
170
     0
171
     0
290
     0
174
     0
 93
        1
 44
0.0
173
     0
291
     1
 45
0.0
1001
ACAD
1000
AcDbSavedByObjectVersion
1070
     0
  0
VISUALSTYLE
  5
36
102
{ACAD_REACTORS
330
2A
102
}
102
{ACAD_XDICTIONARY
360
18B
102
}
330
2A
100
AcDbVisualStyle
  2
Brighten
 70
    12
 71
     2
 72
     2
 73
     0
 90
        0
 40
-0.6
 41
-30.0
 62
     5
 63
     7
 74
     1
 91
        4
 64
     7
 65
   257
 75
     1
175
     1
 42
1.0
 92
        8
 66
     7
 43
1.0
 76
     1
 77
     6
 78
     2
 67
     7
 79
     5
170
     0
171
     0
290
     0
174
     0
 93
        1
 44
50.0
173
     0
291
     1
 45
0.0
1001
ACAD
1000
AcDbSavedByObjectVersion
1070
     0
  0
VISUALSTYLE
  5
3A
102
{ACAD_REACTORS
330
2A
102
}
102
{ACAD_XDICTIONARY
360
193
102
}
330
2A
100
AcDbVisualStyle
  2
ColorChange
 70
    16
 71
     2
 72
     2
 73
     3
 90
        0
 40
-0.6
 41
-30.0
 62
     5
 63
     8
 74
     1
 91
        4
 64
     7
 65
   257
 75
     1
175
     1
 42
1.0
 92
        8
 66
     8
 43
1.0
 76
     1
 77
     6
 78
     2
 67
     7
 79
     5
170
     0
171
     0
290
     0
174
     0
 93
        1
 44
0.0
173
     0
291
     1
 45
0.0
1001
ACAD
1000
AcDbSavedByObjectVersion
1070
     0
  0
VISUALSTYLE
  5
34
102
{ACAD_REACTORS
330
2A
102
}
102
{ACAD_XDICTIONARY
360
187
102
}
330
2A
100
AcDbVisualStyle
  2
Conceptual
 70
     9
 71
     3
 72
     2
 73
     0
 90
        0
 40
-0.6
 41
-30.0
 62
     5
 63
     7
 74
     2
 91
        2
 64
     7
 65
   257
 75
     1
175
     1
 42
40.0
 92
        8
 66
     7
 43
1.0
 76
     1
 77
     6
 78
     2
 67
     7
 79
     3
170
     0
171
     0
290
     0
174
     0
 93
        1
 44
0.0
173
     0
291
     0
 45
0.0
1001
ACAD
1000
AcDbSavedByObjectVersion
1070
     0
  0
VISUALSTYLE
  5
35
102
{ACAD_REACTORS
330
2A
102
}
102
{ACAD_XDICTIONARY
360
189
102
}
330
2A
100
AcDbVisualStyle
  2
Dim
 70
    11
 71
     2
 72
     2
 73
     0
 90
        0
 40
-0.6
 41
-30.0
 62
     5
 63
     7
 74
     1
 91
        4
 64
     7
 65
   257
 75
     1
175
     1
 42
1.0
 92
        8
 66
     7
 43
1.0
 76
     1
 77
     6
 78
     2
 67
     7
 79
     5
170
     0
171
     0
290
     0
174
     0
 93
        1
 44
-50.0
173
     0
291
     1
 45
0.0
1001
ACAD
1000
AcDbSavedByObjectVersion
1070
     0
  0
VISUALSTYLE
  5
39
102
{ACAD_REACTORS
330
2A
102
}
102
{ACAD_XDICTIONARY
360
191
102
}
330
2A
100
AcDbVisualStyle
  2
Facepattern
 70
    15
 71
     2
 72
     2
 73
     0
 90
        0
 40
-0.6
 41
-30.0
 62
     5
 63
     7
 74
     1
 91
        4
 64
     7
 65
   257
 75
     1
175
     1
 42
1.0
 92
        8
 66
     7
 43
1.0
 76
     1
 77
     6
 78
     2
 67
     7
 79
     5
170
     0
171
     0
290
     0
174
     0
 93
        1
 44
0.0
173
     0
291
     1
 45
0.0
1001
ACAD
1000
AcDbSavedByObjectVersion
1070
     0
  0
VISUALSTYLE
  5
2B
102
{ACAD_REACTORS
330
2A
102
}
102
{ACAD_XDICTIONARY
360
175
102
}
330
2A
100
AcDbVisualStyle
  2
Flat
 70
     0
 71
     2
 72
     1
 73
     1
 90
        2
 40
-0.6
 41
30.0
 62
     5
 63
     7
 74
     0
 91
        4
 64
     7
 65
   257
 75
     1
175
     1
 42
1.0
 92
        8
 66
     7
 43
1.0
 76
     1
 77
     6
 78
     2
 67
     7
 79
     5
170
     0
171
     0
290
     0
174
     0
 93
       13
 44
0.0
173
     0
291
     1
 45
0.0
1001
ACAD
1000
AcDbSavedByObjectVersion
1070
     0
  0
VISUALSTYLE
  5
2C
102
{ACAD_REACTORS
330
2A
102
}
102
{ACAD_XDICTIONARY
360
177
102
}
330
2A
100
AcDbVisualStyle
  2
FlatWithEdges
 70
     1
 71
     2
 72
     1
 73
     1
 90
        2
 40
-0.6
 41
30.0
 62
     5
 63
     7
 74
     1
 91
        4
 64
     7
 65
   257
 75
     1
175
     1
 42
1.0
 92
        0
 66
   257
 43
1.0
 76
     1
 77
     6
 78
     2
 67
     7
 79
     5
170
     0
171
     0
290
     0
174
     0
 93
       13
 44
0.0
173
     0
291
     1
 45
0.0
1001
ACAD
1000
AcDbSavedByObjectVersion
1070
     0
  0
VISUALSTYLE
  5
2D
102
{ACAD_REACTORS
330
2A
102
}
102
{ACAD_XDICTIONARY
360
179
102
}
330
2A
100
AcDbVisualStyle
  2
Gouraud
 70
     2
 71
     2
 72
     2
 73
     1
 90
        2
 40
-0.6
 41
30.0
 62
     5
 63
     7
 74
     0
 91
        4
 64
     7
 65
   257
 75
     1
175
     1
 42
1.0
 92
        0
 66
     7
 43
1.0
 76
     1
 77
     6
 78
     2
 67
     7
 79
     5
170
     0
171
     0
290
     0
174
     0
 93
       13
 44
0.0
173
     0
291
     1
 45
0.0
1001
ACAD
1000
AcDbSavedByObjectVersion
1070
     0
  0
VISUALSTYLE
  5
2E
102
{ACAD_REACTORS
330
2A
102
}
102
{ACAD_XDICTIONARY
360
17B
102
}
330
2A
100
AcDbVisualStyle
  2
GouraudWithEdges
 70
     3
 71
     2
 72
     2
 73
     1
 90
        2
 40
-0.6
 41
30.0
 62
     5
 63
     7
 74
     1
 91
        4
 64
     7
 65
   257
 75
     1
175
     1
 42
1.0
 92
        0
 66
   257
 43
1.0
 76
     1
 77
     6
 78
     2
 67
     7
 79
     5
170
     0
171
     0
290
     0
174
     0
 93
       13
 44
0.0
173
     0
291
     1
 45
0.0
1001
ACAD
1000
AcDbSavedByObjectVersion
1070
     0
  0
VISUALSTYLE
  5
38
102
{ACAD_REACTORS
330
2A
102
}
102
{ACAD_XDICTIONARY
360
18F
102
}
330
2A
100
AcDbVisualStyle
  2
Linepattern
 70
    14
 71
     2
 72
     2
 73
     0
 90
        0
 40
-0.6
 41
-30.0
 62
     5
 63
     7
 74
     1
 91
        4
 64
     7
 65
   257
 75
     7
175
     7
 42
1.0
 92
        8
 66
     7
 43
1.0
 76
     1
 77
     6
 78
     2
 67
     7
 79
     5
170
     0
171
     0
290
     0
174
     0
 93
        1
 44
0.0
173
     0
291
     1
 45
0.0
1001
ACAD
1000
AcDbSavedByObjectVersion
1070
     0
  0
VISUALSTYLE
  5
33
102
{ACAD_REACTORS
330
2A
102
}
102
{ACAD_XDICTIONARY
360
185
102
}
330
2A
100
AcDbVisualStyle
  2
Realistic
 70
     8
 71
     2
 72
     2
 73
     0
 90
        0
 40
-0.6
 41
-30.0
 62
     5
 63
     7
 74
     1
 91
        0
 64
     7
 65
   257
 75
     1
175
     1
 42
1.0
 92
        8
 66
     8
 43
1.0
 76
     1
 77
     6
 78
     2
 67
     7
 79
     5
170
     0
171
     0
290
     0
174
     0
 93
       13
 44
0.0
173
     0
291
     0
 45
0.0
1001
ACAD
1000
AcDbSavedByObjectVersion
1070
     0
  0
VISUALSTYLE
  5
37
102
{ACAD_REACTORS
330
2A
102
}
102
{ACAD_XDICTIONARY
360
18D
102
}
330
2A
100
AcDbVisualStyle
  2
Thicken
 70
    13
 71
     2
 72
     2
 73
     0
 90
        0
 40
-0.6
 41
-30.0
 62
     5
 63
     7
 74
     1
 91
        4
 64
     7
 65
   257
 75
     1
175
     1
 42
1.0
 92
       12
 66
     7
 43
1.0
 76
     1
 77
     6
 78
     2
 67
     7
 79
     5
170
     0
171
     0
290
     0
174
     0
 93
        1
 44
0.0
173
     0
291
     1
 45
0.0
1001
ACAD
1000
AcDbSavedByObjectVersion
1070
     0
  0
DICTIONARYVAR
  5
173
102
{ACAD_REACTORS
330
16E
102
}
330
16E
100
DictionaryVariables
280
     0
  1
2
  0
DICTIONARYVAR
  5
174
102
{ACAD_REACTORS
330
16E
102
}
330
16E
100
DictionaryVariables
280
     0
  1
1
  0
DICTIONARYVAR
  5
172
102
{ACAD_REACTORS
330
16E
102
}
330
16E
100
DictionaryVariables
280
     0
  1
80.000000
  0
DICTIONARYVAR
  5
171
102
{ACAD_REACTORS
330
16E
102
}
330
16E
100
DictionaryVariables
280
     0
  1
5.000000
  0
DICTIONARY
  5
197
330
3D
100
AcDbDictionary
280
     1
281
     1
  3
ACAD_XREC_ROUNDTRIP
360
198
  0
DICTIONARY
  5
195
330
3C
100
AcDbDictionary
280
     1
281
     1
  3
ACAD_XREC_ROUNDTRIP
360
196
  0
DICTIONARY
  5
199
330
3E
100
AcDbDictionary
280
     1
281
     1
  3
ACAD_XREC_ROUNDTRIP
360
19A
  0
DICTIONARY
  5
17D
330
2F
100
AcDbDictionary
280
     1
281
     1
  3
ACAD_XREC_ROUNDTRIP
360
17E
  0
DICTIONARY
  5
181
330
31
100
AcDbDictionary
280
     1
281
     1
  3
ACAD_XREC_ROUNDTRIP
360
182
  0
DICTIONARY
  5
17F
330
30
100
AcDbDictionary
280
     1
281
     1
  3
ACAD_XREC_ROUNDTRIP
360
180
  0
DICTIONARY
  5
183
330
32
100
AcDbDictionary
280
     1
281
     1
  3
ACAD_XREC_ROUNDTRIP
360
184
  0
DICTIONARY
  5
18B
330
36
100
AcDbDictionary
280
     1
281
     1
  3
ACAD_XREC_ROUNDTRIP
360
18C
  0
DICTIONARY
  5
193
330
3A
100
AcDbDictionary
280
     1
281
     1
  3
ACAD_XREC_ROUNDTRIP
360
194
  0
DICTIONARY
  5
187
330
34
100
AcDbDictionary
280
     1
281
     1
  3
ACAD_XREC_ROUNDTRIP
360
188
  0
DICTIONARY
  5
189
330
35
100
AcDbDictionary
280
     1
281
     1
  3
ACAD_XREC_ROUNDTRIP
360
18A
  0
DICTIONARY
  5
191
330
39
100
AcDbDictionary
280
     1
281
     1
  3
ACAD_XREC_ROUNDTRIP
360
192
  0
DICTIONARY
  5
175
330
2B
100
AcDbDictionary
280
     1
281
     1
  3
ACAD_XREC_ROUNDTRIP
360
176
  0
DICTIONARY
  5
177
330
2C
100
AcDbDictionary
280
     1
281
     1
  3
ACAD_XREC_ROUNDTRIP
360
178
  0
DICTIONARY
  5
179
330
2D
100
AcDbDictionary
280
     1
281
     1
  3
ACAD_XREC_ROUNDTRIP
360
17A
  0
DICTIONARY
  5
17B
330
2E
100
AcDbDictionary
280
     1
281
     1
  3
ACAD_XREC_ROUNDTRIP
360
17C
  0
DICTIONARY
  5
18F
330
38
100
AcDbDictionary
280
     1
281
     1
  3
ACAD_XREC_ROUNDTRIP
360
190
  0
DICTIONARY
  5
185
330
33
100
AcDbDictionary
280
     1
281
     1
  3
ACAD_XREC_ROUNDTRIP
360
186
  0
DICTIONARY
  5
18D
330
37
100
AcDbDictionary
280
     1
281
     1
  3
ACAD_XREC_ROUNDTRIP
360
18E
  0
XRECORD
  5
198
102
{ACAD_REACTORS
330
197
102
}
330
197
100
AcDbXrecord
280
     1
102
MATERIAL
148
0.0
149
0.0
149
0.0
 93
        0
 94
      127
282
     0
 72
     1
 77
     1
171
     1
175
     1
179
     1
273
     0
  0
XRECORD
  5
196
102
{ACAD_REACTORS
330
195
102
}
330
195
100
AcDbXrecord
280
     1
102
MATERIAL
148
0.0
149
0.0
149
0.0
 93
        0
 94
      127
282
     0
 72
     1
 77
     1
171
     1
175
     1
179
     1
273
     0
  0
XRECORD
  5
19A
102
{ACAD_REACTORS
330
199
102
}
330
199
100
AcDbXrecord
280
     1
102
MATERIAL
148
0.0
149
0.0
149
0.0
 93
        0
 94
      127
282
     0
 72
     1
 77
     1
171
     1
175
     1
179
     1
273
     0
  0
XRECORD
  5
17E
102
{ACAD_REACTORS
330
17D
102
}
330
17D
100
AcDbXrecord
280
     1
102
RTVSPropertyOp0
 70
     1
102
RTVSPropertyOp1
 70
     1
102
RTVSPropertyOp2
 70
     1
102
RTVSPropertyOp3
 70
     1
102
RTVSPropertyOp4
 70
     1
102
RTVSPropertyOp5
 70
     1
102
RTVSPropertyOp6
 70
     1
102
RTVSPropertyOp7
 70
     1
102
RTVSPropertyOp8
 70
     1
102
RTVSPropertyOp9
 70
     1
102
RTVSPropertyOp10
 70
     1
102
RTVSPropertyOp11
 70
     1
102
RTVSPropertyOp12
 70
     1
102
RTVSPropertyOp13
 70
     1
102
RTVSPropertyOp14
 70
     1
102
RTVSPropertyOp15
 70
     1
102
RTVSPropertyOp16
 70
     1
102
RTVSPropertyOp17
 70
     1
102
RTVSPropertyOp18
 70
     1
102
RTVSPropertyOp19
 70
     1
102
RTVSPropertyOp20
 70
     1
102
RTVSPropertyOp21
 70
     1
102
RTVSPropertyOp22
 70
     1
102
RTVSPropertyOp23
 70
     1
102
RTVSPropertyOp24
 70
     1
102
RTVSPropertyOp25
 70
     1
102
RTVSPropertyOp26
 70
     1
102
RTVSPropertyOp27
 70
     1
102
RTVSPropertyOp28
 70
     1
102
RTVSPropertyOp29
 70
     1
102
RTVSPropertyOp30
 70
     1
102
RTVSPropertyOp31
 70
     1
102
RTVSPropertyOp32
 70
     1
  0
XRECORD
  5
182
102
{ACAD_REACTORS
330
181
102
}
330
181
100
AcDbXrecord
280
     1
102
RTVSPropertyOp0
 70
     1
102
RTVSPropertyOp1
 70
     1
102
RTVSPropertyOp2
 70
     1
102
RTVSPropertyOp3
 70
     1
102
RTVSPropertyOp4
 70
     1
102
RTVSPropertyOp5
 70
     1
102
RTVSPropertyOp6
 70
     1
102
RTVSPropertyOp7
 70
     1
102
RTVSPropertyOp8
 70
     1
102
RTVSPropertyOp9
 70
     1
102
RTVSPropertyOp10
 70
     1
102
RTVSPropertyOp11
 70
     1
102
RTVSPropertyOp12
 70
     1
102
RTVSPropertyOp13
 70
     1
102
RTVSPropertyOp14
 70
     1
102
RTVSPropertyOp15
 70
     1
102
RTVSPropertyOp16
 70
     1
102
RTVSPropertyOp17
 70
     1
102
RTVSPropertyOp18
 70
     1
102
RTVSPropertyOp19
 70
     1
102
RTVSPropertyOp20
 70
     1
102
RTVSPropertyOp21
 70
     1
102
RTVSPropertyOp22
 70
     1
102
RTVSPropertyOp23
 70
     1
102
RTVSPropertyOp24
 70
     1
102
RTVSPropertyOp25
 70
     1
102
RTVSPropertyOp26
 70
     1
102
RTVSPropertyOp27
 70
     1
102
RTVSPropertyOp28
 70
     1
102
RTVSPropertyOp29
 70
     1
102
RTVSPropertyOp30
 70
     1
102
RTVSPropertyOp31
 70
     1
102
RTVSPropertyOp32
 70
     1
  0
XRECORD
  5
180
102
{ACAD_REACTORS
330
17F
102
}
330
17F
100
AcDbXrecord
280
     1
102
RTVSPropertyOp0
 70
     1
102
RTVSPropertyOp1
 70
     1
102
RTVSPropertyOp2
 70
     1
102
RTVSPropertyOp3
 70
     1
102
RTVSPropertyOp4
 70
     1
102
RTVSPropertyOp5
 70
     1
102
RTVSPropertyOp6
 70
     1
102
RTVSPropertyOp7
 70
     1
102
RTVSPropertyOp8
 70
     1
102
RTVSPropertyOp9
 70
     1
102
RTVSPropertyOp10
 70
     1
102
RTVSPropertyOp11
 70
     1
102
RTVSPropertyOp12
 70
     1
102
RTVSPropertyOp13
 70
     1
102
RTVSPropertyOp14
 70
     1
102
RTVSPropertyOp15
 70
     1
102
RTVSPropertyOp16
 70
     1
102
RTVSPropertyOp17
 70
     1
102
RTVSPropertyOp18
 70
     1
102
RTVSPropertyOp19
 70
     1
102
RTVSPropertyOp20
 70
     1
102
RTVSPropertyOp21
 70
     1
102
RTVSPropertyOp22
 70
     1
102
RTVSPropertyOp23
 70
     1
102
RTVSPropertyOp24
 70
     1
102
RTVSPropertyOp25
 70
     1
102
RTVSPropertyOp26
 70
     1
102
RTVSPropertyOp27
 70
     1
102
RTVSPropertyOp28
 70
     1
102
RTVSPropertyOp29
 70
     1
102
RTVSPropertyOp30
 70
     1
102
RTVSPropertyOp31
 70
     1
102
RTVSPropertyOp32
 70
     1
  0
XRECORD
  5
184
102
{ACAD_REACTORS
330
183
102
}
330
183
100
AcDbXrecord
280
     1
102
RTVSPropertyOp0
 70
     1
102
RTVSPropertyOp1
 70
     1
102
RTVSPropertyOp2
 70
     1
102
RTVSPropertyOp3
 70
     1
102
RTVSPropertyOp4
 70
     1
102
RTVSPropertyOp5
 70
     1
102
RTVSPropertyOp6
 70
     1
102
RTVSPropertyOp7
 70
     1
102
RTVSPropertyOp8
 70
     1
102
RTVSPropertyOp9
 70
     1
102
RTVSPropertyOp10
 70
     1
102
RTVSPropertyOp11
 70
     1
102
RTVSPropertyOp12
 70
     1
102
RTVSPropertyOp13
 70
     1
102
RTVSPropertyOp14
 70
     1
102
RTVSPropertyOp15
 70
     1
102
RTVSPropertyOp16
 70
     1
102
RTVSPropertyOp17
 70
     1
102
RTVSPropertyOp18
 70
     1
102
RTVSPropertyOp19
 70
     1
102
RTVSPropertyOp20
 70
     1
102
RTVSPropertyOp21
 70
     1
102
RTVSPropertyOp22
 70
     1
102
RTVSPropertyOp23
 70
     1
102
RTVSPropertyOp24
 70
     1
102
RTVSPropertyOp25
 70
     1
102
RTVSPropertyOp26
 70
     1
102
RTVSPropertyOp27
 70
     1
102
RTVSPropertyOp28
 70
     1
102
RTVSPropertyOp29
 70
     1
102
RTVSPropertyOp30
 70
     1
102
RTVSPropertyOp31
 70
     1
102
RTVSPropertyOp32
 70
     1
  0
XRECORD
  5
18C
102
{ACAD_REACTORS
330
18B
102
}
330
18B
100
AcDbXrecord
280
     1
102
RTVSPropertyOp0
 70
     1
102
RTVSPropertyOp1
 70
     1
102
RTVSPropertyOp2
 70
     1
102
RTVSPropertyOp3
 70
     1
102
RTVSPropertyOp4
 70
     1
102
RTVSPropertyOp5
 70
     1
102
RTVSPropertyOp6
 70
     1
102
RTVSPropertyOp7
 70
     1
102
RTVSPropertyOp8
 70
     1
102
RTVSPropertyOp9
 70
     1
102
RTVSPropertyOp10
 70
     1
102
RTVSPropertyOp11
 70
     1
102
RTVSPropertyOp12
 70
     1
102
RTVSPropertyOp13
 70
     1
102
RTVSPropertyOp14
 70
     1
102
RTVSPropertyOp15
 70
     1
102
RTVSPropertyOp16
 70
     1
102
RTVSPropertyOp17
 70
     1
102
RTVSPropertyOp18
 70
     1
102
RTVSPropertyOp19
 70
     1
102
RTVSPropertyOp20
 70
     1
102
RTVSPropertyOp21
 70
     1
102
RTVSPropertyOp22
 70
     1
102
RTVSPropertyOp23
 70
     1
102
RTVSPropertyOp24
 70
     1
102
RTVSPropertyOp25
 70
     1
102
RTVSPropertyOp26
 70
     1
102
RTVSPropertyOp27
 70
     1
102
RTVSPropertyOp28
 70
     1
102
RTVSPropertyOp29
 70
     1
102
RTVSPropertyOp30
 70
     1
102
RTVSPropertyOp31
 70
     1
102
RTVSPropertyOp32
 70
     1
  0
XRECORD
  5
194
102
{ACAD_REACTORS
330
193
102
}
330
193
100
AcDbXrecord
280
     1
102
RTVSPropertyOp0
 70
     1
102
RTVSPropertyOp1
 70
     1
102
RTVSPropertyOp2
 70
     1
102
RTVSPropertyOp3
 70
     1
102
RTVSPropertyOp4
 70
     1
102
RTVSPropertyOp5
 70
     1
102
RTVSPropertyOp6
 70
     1
102
RTVSPropertyOp7
 70
     1
102
RTVSPropertyOp8
 70
     1
102
RTVSPropertyOp9
 70
     1
102
RTVSPropertyOp10
 70
     1
102
RTVSPropertyOp11
 70
     1
102
RTVSPropertyOp12
 70
     1
102
RTVSPropertyOp13
 70
     1
102
RTVSPropertyOp14
 70
     1
102
RTVSPropertyOp15
 70
     1
102
RTVSPropertyOp16
 70
     1
102
RTVSPropertyOp17
 70
     1
102
RTVSPropertyOp18
 70
     1
102
RTVSPropertyOp19
 70
     1
102
RTVSPropertyOp20
 70
     1
102
RTVSPropertyOp21
 70
     1
102
RTVSPropertyOp22
 70
     1
102
RTVSPropertyOp23
 70
     1
102
RTVSPropertyOp24
 70
     1
102
RTVSPropertyOp25
 70
     1
102
RTVSPropertyOp26
 70
     1
102
RTVSPropertyOp27
 70
     1
102
RTVSPropertyOp28
 70
     1
102
RTVSPropertyOp29
 70
     1
102
RTVSPropertyOp30
 70
     1
102
RTVSPropertyOp31
 70
     1
102
RTVSPropertyOp32
 70
     1
  0
XRECORD
  5
188
102
{ACAD_REACTORS
330
187
102
}
330
187
100
AcDbXrecord
280
     1
102
RTVSPropertyOp0
 70
     1
102
RTVSPropertyOp1
 70
     1
102
RTVSPropertyOp2
 70
     1
102
RTVSPropertyOp3
 70
     1
102
RTVSPropertyOp4
 70
     1
102
RTVSPropertyOp5
 70
     1
102
RTVSPropertyOp6
 70
     1
102
RTVSPropertyOp7
 70
     1
102
RTVSPropertyOp8
 70
     1
102
RTVSPropertyOp9
 70
     1
102
RTVSPropertyOp10
 70
     1
102
RTVSPropertyOp11
 70
     1
102
RTVSPropertyOp12
 70
     1
102
RTVSPropertyOp13
 70
     1
102
RTVSPropertyOp14
 70
     1
102
RTVSPropertyOp15
 70
     1
102
RTVSPropertyOp16
 70
     1
102
RTVSPropertyOp17
 70
     1
102
RTVSPropertyOp18
 70
     1
102
RTVSPropertyOp19
 70
     1
102
RTVSPropertyOp20
 70
     1
102
RTVSPropertyOp21
 70
     1
102
RTVSPropertyOp22
 70
     1
102
RTVSPropertyOp23
 70
     1
102
RTVSPropertyOp24
 70
     1
102
RTVSPropertyOp25
 70
     1
102
RTVSPropertyOp26
 70
     1
102
RTVSPropertyOp27
 70
     1
102
RTVSPropertyOp28
 70
     1
102
RTVSPropertyOp29
 70
     1
102
RTVSPropertyOp30
 70
     1
102
RTVSPropertyOp31
 70
     1
102
RTVSPropertyOp32
 70
     1
  0
XRECORD
  5
18A
102
{ACAD_REACTORS
330
189
102
}
330
189
100
AcDbXrecord
280
     1
102
RTVSPropertyOp0
 70
     1
102
RTVSPropertyOp1
 70
     1
102
RTVSPropertyOp2
 70
     1
102
RTVSPropertyOp3
 70
     1
102
RTVSPropertyOp4
 70
     1
102
RTVSPropertyOp5
 70
     1
102
RTVSPropertyOp6
 70
     1
102
RTVSPropertyOp7
 70
     1
102
RTVSPropertyOp8
 70
     1
102
RTVSPropertyOp9
 70
     1
102
RTVSPropertyOp10
 70
     1
102
RTVSPropertyOp11
 70
     1
102
RTVSPropertyOp12
 70
     1
102
RTVSPropertyOp13
 70
     1
102
RTVSPropertyOp14
 70
     1
102
RTVSPropertyOp15
 70
     1
102
RTVSPropertyOp16
 70
     1
102
RTVSPropertyOp17
 70
     1
102
RTVSPropertyOp18
 70
     1
102
RTVSPropertyOp19
 70
     1
102
RTVSPropertyOp20
 70
     1
102
RTVSPropertyOp21
 70
     1
102
RTVSPropertyOp22
 70
     1
102
RTVSPropertyOp23
 70
     1
102
RTVSPropertyOp24
 70
     1
102
RTVSPropertyOp25
 70
     1
102
RTVSPropertyOp26
 70
     1
102
RTVSPropertyOp27
 70
     1
102
RTVSPropertyOp28
 70
     1
102
RTVSPropertyOp29
 70
     1
102
RTVSPropertyOp30
 70
     1
102
RTVSPropertyOp31
 70
     1
102
RTVSPropertyOp32
 70
     1
  0
XRECORD
  5
192
102
{ACAD_REACTORS
330
191
102
}
330
191
100
AcDbXrecord
280
     1
102
RTVSPropertyOp0
 70
     1
102
RTVSPropertyOp1
 70
     1
102
RTVSPropertyOp2
 70
     1
102
RTVSPropertyOp3
 70
     1
102
RTVSPropertyOp4
 70
     1
102
RTVSPropertyOp5
 70
     1
102
RTVSPropertyOp6
 70
     1
102
RTVSPropertyOp7
 70
     1
102
RTVSPropertyOp8
 70
     1
102
RTVSPropertyOp9
 70
     1
102
RTVSPropertyOp10
 70
     1
102
RTVSPropertyOp11
 70
     1
102
RTVSPropertyOp12
 70
     1
102
RTVSPropertyOp13
 70
     1
102
RTVSPropertyOp14
 70
     1
102
RTVSPropertyOp15
 70
     1
102
RTVSPropertyOp16
 70
     1
102
RTVSPropertyOp17
 70
     1
102
RTVSPropertyOp18
 70
     1
102
RTVSPropertyOp19
 70
     1
102
RTVSPropertyOp20
 70
     1
102
RTVSPropertyOp21
 70
     1
102
RTVSPropertyOp22
 70
     1
102
RTVSPropertyOp23
 70
     1
102
RTVSPropertyOp24
 70
     1
102
RTVSPropertyOp25
 70
     1
102
RTVSPropertyOp26
 70
     1
102
RTVSPropertyOp27
 70
     1
102
RTVSPropertyOp28
 70
     1
102
RTVSPropertyOp29
 70
     1
102
RTVSPropertyOp30
 70
     1
102
RTVSPropertyOp31
 70
     1
102
RTVSPropertyOp32
 70
     1
  0
XRECORD
  5
176
102
{ACAD_REACTORS
330
175
102
}
330
175
100
AcDbXrecord
280
     1
102
RTVSPropertyOp0
 70
     1
102
RTVSPropertyOp1
 70
     1
102
RTVSPropertyOp2
 70
     1
102
RTVSPropertyOp3
 70
     1
102
RTVSPropertyOp4
 70
     1
102
RTVSPropertyOp5
 70
     1
102
RTVSPropertyOp6
 70
     1
102
RTVSPropertyOp7
 70
     1
102
RTVSPropertyOp8
 70
     1
102
RTVSPropertyOp9
 70
     1
102
RTVSPropertyOp10
 70
     1
102
RTVSPropertyOp11
 70
     1
102
RTVSPropertyOp12
 70
     1
102
RTVSPropertyOp13
 70
     1
102
RTVSPropertyOp14
 70
     1
102
RTVSPropertyOp15
 70
     1
102
RTVSPropertyOp16
 70
     1
102
RTVSPropertyOp17
 70
     1
102
RTVSPropertyOp18
 70
     1
102
RTVSPropertyOp19
 70
     1
102
RTVSPropertyOp20
 70
     1
102
RTVSPropertyOp21
 70
     1
102
RTVSPropertyOp22
 70
     1
102
RTVSPropertyOp23
 70
     1
102
RTVSPropertyOp24
 70
     1
102
RTVSPropertyOp25
 70
     1
102
RTVSPropertyOp26
 70
     1
102
RTVSPropertyOp27
 70
     1
102
RTVSPropertyOp28
 70
     1
102
RTVSPropertyOp29
 70
     1
102
RTVSPropertyOp30
 70
     1
102
RTVSPropertyOp31
 70
     1
102
RTVSPropertyOp32
 70
     1
  0
XRECORD
  5
178
102
{ACAD_REACTORS
330
177
102
}
330
177
100
AcDbXrecord
280
     1
102
RTVSPropertyOp0
 70
     1
102
RTVSPropertyOp1
 70
     1
102
RTVSPropertyOp2
 70
     1
102
RTVSPropertyOp3
 70
     1
102
RTVSPropertyOp4
 70
     1
102
RTVSPropertyOp5
 70
     1
102
RTVSPropertyOp6
 70
     1
102
RTVSPropertyOp7
 70
     1
102
RTVSPropertyOp8
 70
     1
102
RTVSPropertyOp9
 70
     1
102
RTVSPropertyOp10
 70
     1
102
RTVSPropertyOp11
 70
     1
102
RTVSPropertyOp12
 70
     1
102
RTVSPropertyOp13
 70
     1
102
RTVSPropertyOp14
 70
     1
102
RTVSPropertyOp15
 70
     1
102
RTVSPropertyOp16
 70
     1
102
RTVSPropertyOp17
 70
     1
102
RTVSPropertyOp18
 70
     1
102
RTVSPropertyOp19
 70
     1
102
RTVSPropertyOp20
 70
     1
102
RTVSPropertyOp21
 70
     1
102
RTVSPropertyOp22
 70
     1
102
RTVSPropertyOp23
 70
     1
102
RTVSPropertyOp24
 70
     1
102
RTVSPropertyOp25
 70
     1
102
RTVSPropertyOp26
 70
     1
102
RTVSPropertyOp27
 70
     1
102
RTVSPropertyOp28
 70
     1
102
RTVSPropertyOp29
 70
     1
102
RTVSPropertyOp30
 70
     1
102
RTVSPropertyOp31
 70
     1
102
RTVSPropertyOp32
 70
     1
  0
XRECORD
  5
17A
102
{ACAD_REACTORS
330
179
102
}
330
179
100
AcDbXrecord
280
     1
102
RTVSPropertyOp0
 70
     1
102
RTVSPropertyOp1
 70
     1
102
RTVSPropertyOp2
 70
     1
102
RTVSPropertyOp3
 70
     1
102
RTVSPropertyOp4
 70
     1
102
RTVSPropertyOp5
 70
     1
102
RTVSPropertyOp6
 70
     1
102
RTVSPropertyOp7
 70
     1
102
RTVSPropertyOp8
 70
     1
102
RTVSPropertyOp9
 70
     1
102
RTVSPropertyOp10
 70
     1
102
RTVSPropertyOp11
 70
     1
102
RTVSPropertyOp12
 70
     1
102
RTVSPropertyOp13
 70
     1
102
RTVSPropertyOp14
 70
     1
102
RTVSPropertyOp15
 70
     1
102
RTVSPropertyOp16
 70
     1
102
RTVSPropertyOp17
 70
     1
102
RTVSPropertyOp18
 70
     1
102
RTVSPropertyOp19
 70
     1
102
RTVSPropertyOp20
 70
     1
102
RTVSPropertyOp21
 70
     1
102
RTVSPropertyOp22
 70
     1
102
RTVSPropertyOp23
 70
     1
102
RTVSPropertyOp24
 70
     1
102
RTVSPropertyOp25
 70
     1
102
RTVSPropertyOp26
 70
     1
102
RTVSPropertyOp27
 70
     1
102
RTVSPropertyOp28
 70
     1
102
RTVSPropertyOp29
 70
     1
102
RTVSPropertyOp30
 70
     1
102
RTVSPropertyOp31
 70
     1
102
RTVSPropertyOp32
 70
     1
  0
XRECORD
  5
17C
102
{ACAD_REACTORS
330
17B
102
}
330
17B
100
AcDbXrecord
280
     1
102
RTVSPropertyOp0
 70
     1
102
RTVSPropertyOp1
 70
     1
102
RTVSPropertyOp2
 70
     1
102
RTVSPropertyOp3
 70
     1
102
RTVSPropertyOp4
 70
     1
102
RTVSPropertyOp5
 70
     1
102
RTVSPropertyOp6
 70
     1
102
RTVSPropertyOp7
 70
     1
102
RTVSPropertyOp8
 70
     1
102
RTVSPropertyOp9
 70
     1
102
RTVSPropertyOp10
 70
     1
102
RTVSPropertyOp11
 70
     1
102
RTVSPropertyOp12
 70
     1
102
RTVSPropertyOp13
 70
     1
102
RTVSPropertyOp14
 70
     1
102
RTVSPropertyOp15
 70
     1
102
RTVSPropertyOp16
 70
     1
102
RTVSPropertyOp17
 70
     1
102
RTVSPropertyOp18
 70
     1
102
RTVSPropertyOp19
 70
     1
102
RTVSPropertyOp20
 70
     1
102
RTVSPropertyOp21
 70
     1
102
RTVSPropertyOp22
 70
     1
102
RTVSPropertyOp23
 70
     1
102
RTVSPropertyOp24
 70
     1
102
RTVSPropertyOp25
 70
     1
102
RTVSPropertyOp26
 70
     1
102
RTVSPropertyOp27
 70
     1
102
RTVSPropertyOp28
 70
     1
102
RTVSPropertyOp29
 70
     1
102
RTVSPropertyOp30
 70
     1
102
RTVSPropertyOp31
 70
     1
102
RTVSPropertyOp32
 70
     1
  0
XRECORD
  5
190
102
{ACAD_REACTORS
330
18F
102
}
330
18F
100
AcDbXrecord
280
     1
102
RTVSPropertyOp0
 70
     1
102
RTVSPropertyOp1
 70
     1
102
RTVSPropertyOp2
 70
     1
102
RTVSPropertyOp3
 70
     1
102
RTVSPropertyOp4
 70
     1
102
RTVSPropertyOp5
 70
     1
102
RTVSPropertyOp6
 70
     1
102
RTVSPropertyOp7
 70
     1
102
RTVSPropertyOp8
 70
     1
102
RTVSPropertyOp9
 70
     1
102
RTVSPropertyOp10
 70
     1
102
RTVSPropertyOp11
 70
     1
102
RTVSPropertyOp12
 70
     1
102
RTVSPropertyOp13
 70
     1
102
RTVSPropertyOp14
 70
     1
102
RTVSPropertyOp15
 70
     1
102
RTVSPropertyOp16
 70
     1
102
RTVSPropertyOp17
 70
     1
102
RTVSPropertyOp18
 70
     1
102
RTVSPropertyOp19
 70
     1
102
RTVSPropertyOp20
 70
     1
102
RTVSPropertyOp21
 70
     1
102
RTVSPropertyOp22
 70
     1
102
RTVSPropertyOp23
 70
     1
102
RTVSPropertyOp24
 70
     1
102
RTVSPropertyOp25
 70
     1
102
RTVSPropertyOp26
 70
     1
102
RTVSPropertyOp27
 70
     1
102
RTVSPropertyOp28
 70
     1
102
RTVSPropertyOp29
 70
     1
102
RTVSPropertyOp30
 70
     1
102
RTVSPropertyOp31
 70
     1
102
RTVSPropertyOp32
 70
     1
  0
XRECORD
  5
186
102
{ACAD_REACTORS
330
185
102
}
330
185
100
AcDbXrecord
280
     1
102
RTVSPropertyOp0
 70
     1
102
RTVSPropertyOp1
 70
     1
102
RTVSPropertyOp2
 70
     1
102
RTVSPropertyOp3
 70
     1
102
RTVSPropertyOp4
 70
     1
102
RTVSPropertyOp5
 70
     1
102
RTVSPropertyOp6
 70
     1
102
RTVSPropertyOp7
 70
     1
102
RTVSPropertyOp8
 70
     1
102
RTVSPropertyOp9
 70
     1
102
RTVSPropertyOp10
 70
     1
102
RTVSPropertyOp11
 70
     1
102
RTVSPropertyOp12
 70
     1
102
RTVSPropertyOp13
 70
     1
102
RTVSPropertyOp14
 70
     1
102
RTVSPropertyOp15
 70
     1
102
RTVSPropertyOp16
 70
     1
102
RTVSPropertyOp17
 70
     1
102
RTVSPropertyOp18
 70
     1
102
RTVSPropertyOp19
 70
     1
102
RTVSPropertyOp20
 70
     1
102
RTVSPropertyOp21
 70
     1
102
RTVSPropertyOp22
 70
     1
102
RTVSPropertyOp23
 70
     1
102
RTVSPropertyOp24
 70
     1
102
RTVSPropertyOp25
 70
     1
102
RTVSPropertyOp26
 70
     1
102
RTVSPropertyOp27
 70
     1
102
RTVSPropertyOp28
 70
     1
102
RTVSPropertyOp29
 70
     1
102
RTVSPropertyOp30
 70
     1
102
RTVSPropertyOp31
 70
     1
102
RTVSPropertyOp32
 70
     1
  0
XRECORD
  5
18E
102
{ACAD_REACTORS
330
18D
102
}
330
18D
100
AcDbXrecord
280
     1
102
RTVSPropertyOp0
 70
     1
102
RTVSPropertyOp1
 70
     1
102
RTVSPropertyOp2
 70
     1
102
RTVSPropertyOp3
 70
     1
102
RTVSPropertyOp4
 70
     1
102
RTVSPropertyOp5
 70
     1
102
RTVSPropertyOp6
 70
     1
102
RTVSPropertyOp7
 70
     1
102
RTVSPropertyOp8
 70
     1
102
RTVSPropertyOp9
 70
     1
102
RTVSPropertyOp10
 70
     1
102
RTVSPropertyOp11
 70
     1
102
RTVSPropertyOp12
 70
     1
102
RTVSPropertyOp13
 70
     1
102
RTVSPropertyOp14
 70
     1
102
RTVSPropertyOp15
 70
     1
102
RTVSPropertyOp16
 70
     1
102
RTVSPropertyOp17
 70
     1
102
RTVSPropertyOp18
 70
     1
102
RTVSPropertyOp19
 70
     1
102
RTVSPropertyOp20
 70
     1
102
RTVSPropertyOp21
 70
     1
102
RTVSPropertyOp22
 70
     1
102
RTVSPropertyOp23
 70
     1
102
RTVSPropertyOp24
 70
     1
102
RTVSPropertyOp25
 70
     1
102
RTVSPropertyOp26
 70
     1
102
RTVSPropertyOp27
 70
     1
102
RTVSPropertyOp28
 70
     1
102
RTVSPropertyOp29
 70
     1
102
RTVSPropertyOp30
 70
     1
102
RTVSPropertyOp31
 70
     1
102
RTVSPropertyOp32
 70
     1
  0
ENDSEC
  0
EOF
