  0
SECTION
  2
HEADER
  9
$ACADVER
  1
AC1015
  9
$ACADMAINTVER
 70
     6
  9
$DWGCODEPAGE
  3
ANSI_1252
  9
$INSBASE
 10
0.0
 20
0.0
 30
0.0
  9
$EXTMIN
 10
0.0
 20
0.0
 30
0.0
  9
$EXTMAX
 10
210.0
 20
297.0
 30
0.0
  9
$LIMMIN
 10
0.0
 20
0.0
  9
$LIMMAX
 10
210.0
 20
297.0
  9
$ORTHOMODE
 70
     0
  9
$REGENMODE
 70
     1
  9
$FILLMODE
 70
     1
  9
$QTEXTMODE
 70
     0
  9
$MIRRTEXT
 70
     1
  9
$LTSCALE
 40
1.0
  9
$ATTMODE
 70
     1
  9
$TEXTSIZE
 40
2.5
  9
$TRACEWID
 40
1.0
  9
$TEXTSTYLE
  7
Standard
  9
$CLAYER
  8
0
  9
$CELTYPE
  6
ByLayer
  9
$CECOLOR
 62
   256
  9
$CELTSCALE
 40
1.0
  9
$DISPSILH
 70
     0
  9
$DIMSCALE
 40
1.0
  9
$DIMASZ
 40
2.5
  9
$DIMEXO
 40
0.625
  9
$DIMDLI
 40
3.75
  9
$DIMRND
 40
0.0
  9
$DIMDLE
 40
0.0
  9
$DIMEXE
 40
1.25
  9
$DIMTP
 40
0.0
  9
$DIMTM
 40
0.0
  9
$DIMTXT
 40
2.5
  9
$DIMCEN
 40
2.5
  9
$DIMTSZ
 40
0.0
  9
$DIMTOL
 70
     0
  9
$DIMLIM
 70
     0
  9
$DIMTIH
 70
     0
  9
$DIMTOH
 70
     0
  9
$DIMSE1
 70
     0
  9
$DIMSE2
 70
     0
  9
$DIMTAD
 70
     1
  9
$DIMZIN
 70
     8
  9
$DIMBLK
  1

  9
$DIMASO
 70
     1
  9
$DIMSHO
 70
     1
  9
$DIMPOST
  1

  9
$DIMAPOST
  1

  9
$DIMALT
 70
     0
  9
$DIMALTD
 70
     3
  9
$DIMALTF
 40
0.0393700787
  9
$DIMLFAC
 40
1.0
  9
$DIMTOFL
 70
     1
  9
$DIMTVP
 40
0.0
  9
$DIMTIX
 70
     0
  9
$DIMSOXD
 70
     0
  9
$DIMSAH
 70
     0
  9
$DIMBLK1
  1

  9
$DIMBLK2
  1

  9
$DIMSTYLE
  2
ISO-25
  9
$DIMCLRD
 70
     0
  9
$DIMCLRE
 70
     0
  9
$DIMCLRT
 70
     0
  9
$DIMTFAC
 40
1.0
  9
$DIMGAP
 40
0.625
  9
$DIMJUST
 70
     0
  9
$DIMSD1
 70
     0
  9
$DIMSD2
 70
     0
  9
$DIMTOLJ
 70
     0
  9
$DIMTZIN
 70
     8
  9
$DIMALTZ
 70
     0
  9
$DIMALTTZ
 70
     0
  9
$DIMUPT
 70
     0
  9
$DIMDEC
 70
     2
  9
$DIMTDEC
 70
     2
  9
$DIMALTU
 70
     2
  9
$DIMALTTD
 70
     3
  9
$DIMTXSTY
  7
Standard
  9
$DIMAUNIT
 70
     0
  9
$DIMADEC
 70
     0
  9
$DIMALTRND
 40
0.0
  9
$DIMAZIN
 70
     0
  9
$DIMDSEP
 70
    44
  9
$DIMATFIT
 70
     3
  9
$DIMFRAC
 70
     0
  9
$DIMLDRBLK
  1

  9
$DIMLUNIT
 70
     2
  9
$DIMLWD
 70
    -2
  9
$DIMLWE
 70
    -2
  9
$DIMTMOVE
 70
     0
  9
$LUNITS
 70
     2
  9
$LUPREC
 70
     4
  9
$SKETCHINC
 40
1.0
  9
$FILLETRAD
 40
10.0
  9
$AUNITS
 70
     0
  9
$AUPREC
 70
     0
  9
$MENU
  1
.
  9
$ELEVATION
 40
0.0
  9
$PELEVATION
 40
0.0
  9
$THICKNESS
 40
0.0
  9
$LIMCHECK
 70
     0
  9
$CHAMFERA
 40
10.0
  9
$CHAMFERB
 40
10.0
  9
$CHAMFERC
 40
20.0
  9
$CHAMFERD
 40
0.0
  9
$SKPOLY
 70
     0
  9
$TDCREATE
 40
2457560.424772338
  9
$TDUCREATE
 40
2457560.341439005
  9
$TDUPDATE
 40
2457560.424774549
  9
$TDUUPDATE
 40
2457560.341441215
  9
$TDINDWG
 40
0.0000000116
  9
$TDUSRTIMER
 40
0.0000000116
  9
$USRTIMER
 70
     1
  9
$ANGBASE
 50
0.0
  9
$ANGDIR
 70
     0
  9
$PDMODE
 70
     0
  9
$PDSIZE
 40
0.0
  9
$PLINEWID
 40
0.0
  9
$SPLFRAME
 70
     0
  9
$SPLINETYPE
 70
     6
  9
$SPLINESEGS
 70
     8
  9
$HANDSEED
  5
1D7
  9
$SURFTAB1
 70
     6
  9
$SURFTAB2
 70
     6
  9
$SURFTYPE
 70
     6
  9
$SURFU
 70
     6
  9
$SURFV
 70
     6
  9
$UCSBASE
  2

  9
$UCSNAME
  2

  9
$UCSORG
 10
0.0
 20
0.0
 30
0.0
  9
$UCSXDIR
 10
1.0
 20
0.0
 30
0.0
  9
$UCSYDIR
 10
0.0
 20
1.0
 30
0.0
  9
$UCSORTHOREF
  2

  9
$UCSORTHOVIEW
 70
     0
  9
$UCSORGTOP
 10
0.0
 20
0.0
 30
0.0
  9
$UCSORGBOTTOM
 10
0.0
 20
0.0
 30
0.0
  9
$UCSORGLEFT
 10
0.0
 20
0.0
 30
0.0
  9
$UCSORGRIGHT
 10
0.0
 20
0.0
 30
0.0
  9
$UCSORGFRONT
 10
0.0
 20
0.0
 30
0.0
  9
$UCSORGBACK
 10
0.0
 20
0.0
 30
0.0
  9
$PUCSBASE
  2

  9
$PUCSNAME
  2

  9
$PUCSORG
 10
0.0
 20
0.0
 30
0.0
  9
$PUCSXDIR
 10
1.0
 20
0.0
 30
0.0
  9
$PUCSYDIR
 10
0.0
 20
1.0
 30
0.0
  9
$PUCSORTHOREF
  2

  9
$PUCSORTHOVIEW
 70
     0
  9
$PUCSORGTOP
 10
0.0
 20
0.0
 30
0.0
  9
$PUCSORGBOTTOM
 10
0.0
 20
0.0
 30
0.0
  9
$PUCSORGLEFT
 10
0.0
 20
0.0
 30
0.0
  9
$PUCSORGRIGHT
 10
0.0
 20
0.0
 30
0.0
  9
$PUCSORGFRONT
 10
0.0
 20
0.0
 30
0.0
  9
$PUCSORGBACK
 10
0.0
 20
0.0
 30
0.0
  9
$USERI1
 70
     0
  9
$USERI2
 70
     0
  9
$USERI3
 70
     0
  9
$USERI4
 70
     0
  9
$USERI5
 70
     0
  9
$USERR1
 40
0.0
  9
$USERR2
 40
0.0
  9
$USERR3
 40
0.0
  9
$USERR4
 40
0.0
  9
$USERR5
 40
0.0
  9
$WORLDVIEW
 70
     1
  9
$SHADEDGE
 70
     3
  9
$SHADEDIF
 70
    70
  9
$TILEMODE
 70
     1
  9
$MAXACTVP
 70
    64
  9
$PINSBASE
 10
0.0
 20
0.0
 30
0.0
  9
$PLIMCHECK
 70
     0
  9
$PEXTMIN
 10
0.0
 20
0.0
 30
0.0
  9
$PEXTMAX
 10
210.0
 20
297.0
 30
0.0
  9
$PLIMMIN
 10
0.0
 20
0.0
  9
$PLIMMAX
 10
210.0
 20
297.0
  9
$UNITMODE
 70
     0
  9
$VISRETAIN
 70
     1
  9
$PLINEGEN
 70
     0
  9
$PSLTSCALE
 70
     1
  9
$TREEDEPTH
 70
  3020
  9
$CMLSTYLE
  2
Standard
  9
$CMLJUST
 70
     0
  9
$CMLSCALE
 40
20.0
  9
$PROXYGRAPHICS
 70
     1
  9
$MEASUREMENT
 70
     1
  9
$CELWEIGHT
370
    -1
  9
$ENDCAPS
280
     0
  9
$JOINSTYLE
280
     0
  9
$LWDISPLAY
290
     0
  9
$INSUNITS
 70
     4
  9
$HYPERLINKBASE
  1

  9
$STYLESHEET
  1

  9
$XEDIT
290
     1
  9
$CEPSNTYPE
380
     0
  9
$PSTYLEMODE
290
     1
  9
$FINGERPRINTGUID
  2
{90AC57C7-21AC-422D-8F9E-893495956BFC}
  9
$VERSIONGUID
  2
{FAEB1C32-E019-11D5-929B-00C0DF256EC4}
  9
$EXTNAMES
290
     1
  9
$PSVPSCALE
 40
0.0
  9
$OLESTARTUP
290
     0
  0
ENDSEC
  0
SECTION
  2
CLASSES
  0
CLASS
  1
ACDBDICTIONARYWDFLT
  2
AcDbDictionaryWithDefault
  3
ObjectDBX Classes
 90
        0
280
     0
281
     0
  0
CLASS
  1
VISUALSTYLE
  2
AcDbVisualStyle
  3
ObjectDBX Classes
 90
     4095
280
     0
281
     0
  0
CLASS
  1
MATERIAL
  2
AcDbMaterial
  3
ObjectDBX Classes
 90
     1153
280
     0
281
     0
  0
CLASS
  1
DICTIONARYVAR
  2
AcDbDictionaryVar
  3
ObjectDBX Classes
 90
        0
280
     0
281
     0
  0
CLASS
  1
ACDBPLACEHOLDER
  2
AcDbPlaceHolder
  3
ObjectDBX Classes
 90
        0
280
     0
281
     0
  0
CLASS
  1
LAYOUT
  2
AcDbLayout
  3
ObjectDBX Classes
 90
        0
280
     0
281
     0
  0
ENDSEC
  0
SECTION
  2
TABLES
  0
TABLE
  2
VPORT
  5
8
330
0
100
AcDbSymbolTable
 70
     1
  0
VPORT
  5
29
330
8
100
AcDbSymbolTableRecord
100
AcDbViewportTableRecord
  2
*Active
 70
     0
 10
0.0
 20
0.0
 11
1.0
 21
1.0
 12
344.1869158879
 22
148.5
 13
0.0
 23
0.0
 14
10.0
 24
10.0
 15
10.0
 25
10.0
 16
0.0
 26
0.0
 36
1.0
 17
0.0
 27
0.0
 37
0.0
 40
297.0
 41
1.9729729729
 42
50.0
 43
0.0
 44
0.0
 50
0.0
 51
0.0
 71
     0
 72
   100
 73
     1
 74
     3
 75
     0
 76
     0
 77
     0
 78
     0
281
     0
 65
     1
110
0.0
120
0.0
130
0.0
111
1.0
121
0.0
131
0.0
112
0.0
122
1.0
132
0.0
 79
     0
146
0.0
  0
ENDTAB
  0
TABLE
  2
LTYPE
  5
5
330
0
100
AcDbSymbolTable
 70
     2
  0
LTYPE
  5
14
330
5
100
AcDbSymbolTableRecord
100
AcDbLinetypeTableRecord
  2
ByBlock
 70
     0
  3

 72
    65
 73
     0
 40
0.0
  0
LTYPE
  5
15
330
5
100
AcDbSymbolTableRecord
100
AcDbLinetypeTableRecord
  2
ByLayer
 70
     0
  3

 72
    65
 73
     0
 40
0.0
  0
LTYPE
  5
16
330
5
100
AcDbSymbolTableRecord
100
AcDbLinetypeTableRecord
  2
Continuous
 70
     0
  3
Solid line
 72
    65
 73
     0
 40
0.0
  0
LTYPE
  5
58
330
5
100
AcDbSymbolTableRecord
100
AcDbLinetypeTableRecord
  2
HIDDEN2
 70
     0
  3
Hidden (.5x) _ _ _ _ _ _ _ _ _ _ _ _ _ _ _ _ _ 
 72
    65
 73
     2
 40
4.7625
 49
3.175
 74
     4
 75
     0
340
0
 46
0.0
 50
0.0
 44
0.0
 45
0.0
 49
-1.5875
 74
     4
 75
     0
340
0
 46
0.0
 50
0.0
 44
0.0
 45
0.0
  0
ENDTAB
  0
TABLE
  2
LAYER
  5
2
330
0
100
AcDbSymbolTable
 70
     5
  0
LAYER
  5
10
330
2
100
AcDbSymbolTableRecord
100
AcDbLayerTableRecord
  2
0
 70
     0
 62
     7
  6
Continuous
370
    -3
390
F
  0
LAYER
  5
3F
330
2
100
AcDbSymbolTableRecord
100
AcDbLayerTableRecord
  2
SK2
 70
     0
 62
     7
  6
Continuous
370
    15
390
F
  0
LAYER
  5
40
330
2
100
AcDbSymbolTableRecord
100
AcDbLayerTableRecord
  2
SK1
 70
     0
 62
     4
  6
Continuous
370
    18
390
F
  0
LAYER
  5
57
330
2
100
AcDbSymbolTableRecord
100
AcDbLayerTableRecord
  2
SK3
 70
     0
 62
     1
  6
HIDDEN2
370
    15
390
F
  0
LAYER
  5
16C
330
2
100
AcDbSymbolTableRecord
100
AcDbLayerTableRecord
  2
SK4
 70
     0
 62
     2
  6
Continuous
370
    13
390
F
  0
ENDTAB
  0
TABLE
  2
STYLE
  5
3
330
0
100
AcDbSymbolTable
 70
     2
  0
STYLE
  5
11
330
3
100
AcDbSymbolTableRecord
100
AcDbTextStyleTableRecord
  2
Standard
 70
     0
 40
0.0
 41
1.0
 50
0.0
 71
     0
 42
2.5
  3
txt
  4

  0
STYLE
  5
175
330
3
100
AcDbSymbolTableRecord
100
AcDbTextStyleTableRecord
  2
SEACAD_Solid_Edge_ISO
 70
     0
 40
0.0
 41
1.0
 50
0.0
 71
     0
 42
0.2
  3
seiso.ttf
  4

1001
ACAD
1000
Solid Edge ISO
1071
        0
  0
ENDTAB
  0
TABLE
  2
VIEW
  5
6
330
0
100
AcDbSymbolTable
 70
     0
  0
ENDTAB
  0
TABLE
  2
UCS
  5
7
330
0
100
AcDbSymbolTable
 70
     0
  0
ENDTAB
  0
TABLE
  2
APPID
  5
9
330
0
100
AcDbSymbolTable
 70
     1
  0
APPID
  5
12
330
9
100
AcDbSymbolTableRecord
100
AcDbRegAppTableRecord
  2
ACAD
 70
     0
  0
ENDTAB
  0
TABLE
  2
DIMSTYLE
  5
A
330
0
100
AcDbSymbolTable
 70
     3
100
AcDbDimStyleTable
  0
DIMSTYLE
105
27
330
A
100
AcDbSymbolTableRecord
100
AcDbDimStyleTableRecord
  2
ISO-25
 70
     0
 41
2.5
 42
0.625
 43
3.75
 44
1.25
 73
     0
 74
     0
 77
     1
 78
     8
140
2.5
141
2.5
143
0.0393700787
147
0.625
171
     3
172
     1
178
     0
271
     2
272
     2
274
     3
278
    44
283
     0
284
     8
340
11
  0
DIMSTYLE
105
183
330
A
100
AcDbSymbolTableRecord
100
AcDbDimStyleTableRecord
  2
Standard
 70
     0
178
     0
340
11
  0
DIMSTYLE
105
195
102
{ACAD_REACTORS
330
196
330
1A0
102
}
330
A
100
AcDbSymbolTableRecord
100
AcDbDimStyleTableRecord
  2
DIN
 70
     0
 41
3.5
 42
0.0
 44
1.75
 73
     0
 74
     0
 77
     1
 78
     8
140
3.5
141
1.75
147
1.75
172
     1
173
     1
178
     0
179
     3
271
     2
272
     2
278
    44
284
     8
340
175
343
190
344
190
  0
ENDTAB
  0
TABLE
  2
BLOCK_RECORD
  5
1
330
0
100
AcDbSymbolTable
 70
    10
  0
BLOCK_RECORD
  5
1F
330
1
100
AcDbSymbolTableRecord
100
AcDbBlockTableRecord
  2
*Model_Space
340
22
  0
BLOCK_RECORD
  5
1B
330
1
100
AcDbSymbolTableRecord
100
AcDbBlockTableRecord
  2
*Paper_Space
340
1E
  0
BLOCK_RECORD
  5
41
330
1
100
AcDbSymbolTableRecord
100
AcDbBlockTableRecord
  2
Nullpunkt
340
0
102
{BLKREFS
331
49
102
}
  0
BLOCK_RECORD
  5
4A
330
1
100
AcDbSymbolTableRecord
100
AcDbBlockTableRecord
  2
Einfügepunkt
340
0
102
{BLKREFS
331
52
102
}
  0
BLOCK_RECORD
  5
16E
330
1
100
AcDbSymbolTableRecord
100
AcDbBlockTableRecord
  2
GDimGGroup
340
0
102
{BLKREFS
331
16F
102
}
  0
BLOCK_RECORD
  5
179
330
1
100
AcDbSymbolTableRecord
100
AcDbBlockTableRecord
  2
GDimGGroup1
340
0
102
{BLKREFS
331
17A
102
}
  0
BLOCK_RECORD
  5
184
330
1
100
AcDbSymbolTableRecord
100
AcDbBlockTableRecord
  2
_OBLIQUE
340
0
  0
BLOCK_RECORD
  5
188
330
1
100
AcDbSymbolTableRecord
100
AcDbBlockTableRecord
  2
_DOT
340
0
  0
BLOCK_RECORD
  5
190
330
1
100
AcDbSymbolTableRecord
100
AcDbBlockTableRecord
  2
_SE_FILLED
340
0
  0
BLOCK_RECORD
  5
197
330
1
100
AcDbSymbolTableRecord
100
AcDbBlockTableRecord
  2
DMBLK13
340
0
  0
BLOCK_RECORD
  5
1A1
330
1
100
AcDbSymbolTableRecord
100
AcDbBlockTableRecord
  2
DMBLK14
340
0
  0
ENDTAB
  0
ENDSEC
  0
SECTION
  2
BLOCKS
  0
BLOCK
  5
20
330
1F
100
AcDbEntity
  8
0
100
AcDbBlockBegin
  2
*Model_Space
 70
     0
 10
0.0
 20
0.0
 30
0.0
  3
*Model_Space
  1

  0
ENDBLK
  5
21
330
1F
100
AcDbEntity
  8
0
100
AcDbBlockEnd
  0
BLOCK
  5
1C
330
1B
100
AcDbEntity
 67
     1
  8
0
100
AcDbBlockBegin
  2
*Paper_Space
 70
     0
 10
0.0
 20
0.0
 30
0.0
  3
*Paper_Space
  1

  0
ENDBLK
  5
1D
330
1B
100
AcDbEntity
 67
     1
  8
0
100
AcDbBlockEnd
  0
BLOCK
  5
47
330
41
100
AcDbEntity
  8
0
100
AcDbBlockBegin
  2
Nullpunkt
 70
     0
 10
0.0
 20
0.0
 30
0.0
  3
Nullpunkt
  1

  0
HATCH
  5
42
330
41
100
AcDbEntity
  8
SK2
  6
Continuous
 62
     7
100
AcDbHatch
 10
0.0
 20
0.0
 30
0.0
210
0.0
220
0.0
230
1.0
  2
SOLID
 70
     1
 71
     0
 91
        1
 92
        1
 93
        3
 72
     1
 10
-1.0
 20
0.0
 11
0.0000000000000009
 21
0.0
 72
     1
 10
0.0
 20
0.0
 11
0.0
 21
1.000000000000001
 72
     2
 10
0.0
 20
0.0
 40
1.0
 50
90.0
 51
180.0
 73
     1
 97
        0
 75
     0
 76
     1
 98
        0
  0
HATCH
  5
43
330
41
100
AcDbEntity
  8
SK2
  6
Continuous
 62
     7
100
AcDbHatch
 10
0.0
 20
0.0
 30
0.0
210
0.0
220
0.0
230
1.0
  2
SOLID
 70
     1
 71
     0
 91
        1
 92
        1
 93
        3
 72
     2
 10
0.0
 20
0.0
 40
1.0
 50
270.0
 51
360.0
 73
     1
 72
     1
 10
1.0
 20
0.0
 11
-0.0000000000000009
 21
0.0
 72
     1
 10
0.0
 20
0.0
 11
0.0
 21
-1.000000000000001
 97
        0
 75
     0
 76
     1
 98
        0
  0
CIRCLE
  5
44
330
41
100
AcDbEntity
  8
SK2
  6
Continuous
 62
     7
100
AcDbCircle
 10
0.0
 20
0.0
 30
0.0
 40
1.0
  0
LINE
  5
45
330
41
100
AcDbEntity
  8
SK1
  6
Continuous
100
AcDbLine
 10
-1.0
 20
0.0
 30
0.0
 11
1.0
 21
0.0
 31
0.0
  0
LINE
  5
46
330
41
100
AcDbEntity
  8
SK1
  6
Continuous
100
AcDbLine
 10
0.0
 20
1.0
 30
0.0
 11
0.0
 21
-1.0
 31
0.0
  0
ENDBLK
  5
48
330
41
100
AcDbEntity
  8
0
100
AcDbBlockEnd
  0
BLOCK
  5
50
330
4A
100
AcDbEntity
  8
0
100
AcDbBlockBegin
  2
Einfügepunkt
 70
     0
 10
0.0
 20
0.0
 30
0.0
  3
Einfügepunkt
  1

  0
HATCH
  5
4B
330
4A
100
AcDbEntity
  8
SK2
  6
Continuous
 62
     7
100
AcDbHatch
 10
0.0
 20
0.0
 30
0.0
210
0.0
220
0.0
230
1.0
  2
SOLID
 70
     1
 71
     0
 91
        1
 92
        1
 93
        3
 72
     1
 10
-0.4502381196756744
 20
-0.0000000000000018
 11
0.0000000000000033
 21
-0.0000000000000018
 72
     1
 10
0.0
 20
-0.0000000000000018
 11
0.0
 21
0.4502381196756812
 72
     2
 10
0.0
 20
-0.0000000000000018
 40
0.4502381196756812
 50
90.0
 51
180.0
 73
     1
 97
        0
 75
     0
 76
     1
 98
        0
  0
HATCH
  5
4C
330
4A
100
AcDbEntity
  8
SK2
  6
Continuous
 62
     7
100
AcDbHatch
 10
0.0
 20
0.0
 30
0.0
210
0.0
220
0.0
230
1.0
  2
SOLID
 70
     1
 71
     0
 91
        1
 92
        1
 93
        3
 72
     2
 10
0.0
 20
-0.0000000000000018
 40
0.4502381196756812
 50
270.0
 51
360.0
 73
     1
 72
     1
 10
0.4502381196756815
 20
-0.0000000000000018
 11
0.0000000000000038
 21
-0.0000000000000018
 72
     1
 10
0.0
 20
-0.0000000000000018
 11
0.0
 21
-0.4502381196756812
 97
        0
 75
     0
 76
     1
 98
        0
  0
CIRCLE
  5
4D
330
4A
100
AcDbEntity
  8
SK2
  6
Continuous
 62
     7
100
AcDbCircle
 10
0.0
 20
0.0
 30
0.0
 40
0.4502381196756812
  0
LINE
  5
4E
330
4A
100
AcDbEntity
  8
SK1
  6
Continuous
100
AcDbLine
 10
-0.4502381197
 20
0.0
 30
0.0
 11
0.4502381197
 21
0.0
 31
0.0
  0
LINE
  5
4F
330
4A
100
AcDbEntity
  8
SK1
  6
Continuous
100
AcDbLine
 10
0.0
 20
0.4502381197
 30
0.0
 11
0.0
 21
-0.4502381197
 31
0.0
  0
ENDBLK
  5
51
330
4A
100
AcDbEntity
  8
0
100
AcDbBlockEnd
  0
BLOCK
  5
177
330
16E
100
AcDbEntity
  8
0
100
AcDbBlockBegin
  2
GDimGGroup
 70
     0
 10
0.0
 20
0.0
 30
0.0
  3
GDimGGroup
  1

  0
HATCH
  5
170
330
16E
100
AcDbEntity
  8
SK2
  6
Continuous
 62
   136
100
AcDbHatch
 10
0.0
 20
0.0
 30
0.0
210
0.0
220
0.0
230
1.0
  2
SOLID
 70
     1
 71
     0
 91
        1
 92
        1
 93
        3
 72
     1
 10
14.97556084370306
 20
5.238533971034983
 11
13.80889414102526
 21
5.238533971034983
 72
     1
 10
13.80889414102526
 20
5.238533971034983
 11
14.39222749236416
 21
1.738533863001565
 72
     1
 10
14.39222749236416
 20
1.738533863001565
 11
14.97556084370306
 21
5.238533971034983
 97
        0
 75
     0
 76
     1
 98
        0
  0
HATCH
  5
171
330
16E
100
AcDbEntity
  8
SK2
  6
Continuous
 62
   136
100
AcDbHatch
 10
0.0
 20
0.0
 30
0.0
210
0.0
220
0.0
230
1.0
  2
SOLID
 70
     1
 71
     0
 91
        1
 92
        1
 93
        3
 72
     1
 10
14.97556084370306
 20
-5.238533975160238
 11
14.39222749236416
 21
-1.73853386712682
 72
     1
 10
14.39222749236416
 20
-1.73853386712682
 11
13.80889414102526
 21
-5.238533975160237
 72
     1
 10
13.80889414102526
 20
-5.238533975160238
 11
14.97556084370306
 21
-5.238533975160238
 97
        0
 75
     0
 76
     1
 98
        0
  0
LINE
  5
172
330
16E
100
AcDbEntity
  8
SK2
  6
Continuous
 62
   136
100
AcDbLine
 10
4.2432896784
 20
1.738533863
 30
0.0
 11
16.1422275464
 21
1.738533863
 31
0.0
  0
LINE
  5
173
330
16E
100
AcDbEntity
  8
SK2
  6
Continuous
 62
   136
100
AcDbLine
 10
4.2432896784
 20
-1.7385338671
 30
0.0
 11
16.1422275464
 21
-1.7385338671
 31
0.0
  0
LINE
  5
174
330
16E
100
AcDbEntity
  8
SK2
  6
Continuous
 62
   136
100
AcDbLine
 10
14.3922274924
 20
17.6701662328
 30
0.0
 11
14.3922274924
 21
-8.7385340397
 31
0.0
  0
TEXT
  5
176
330
16E
100
AcDbEntity
  8
SK2
  6
Continuous
 62
   136
100
AcDbText
 10
13.5172274924
 20
7.9178942885
 30
0.0
 40
3.5
  1
ø3.5
 50
90.0
  7
SEACAD_Solid_Edge_ISO
 11
10.0172274924
 21
7.9178942885
 31
0.0
100
AcDbText
 73
     3
  0
ENDBLK
  5
178
330
16E
100
AcDbEntity
  8
0
100
AcDbBlockEnd
  0
BLOCK
  5
181
330
179
100
AcDbEntity
  8
0
100
AcDbBlockBegin
  2
GDimGGroup1
 70
     0
 10
0.0
 20
0.0
 30
0.0
  3
GDimGGroup1
  1

  0
HATCH
  5
17B
330
179
100
AcDbEntity
  8
SK2
  6
Continuous
 62
   136
100
AcDbHatch
 10
0.0
 20
0.0
 30
0.0
210
0.0
220
0.0
230
1.0
  2
SOLID
 70
     1
 71
     0
 91
        1
 92
        1
 93
        3
 72
     1
 10
-15.13715685966115
 20
7.500000108033394
 11
-14.55382350832225
 21
3.999999999999976
 72
     1
 10
-14.55382350832225
 20
3.999999999999975
 11
-13.97049015698334
 21
7.500000108033394
 72
     1
 10
-13.97049015698334
 20
7.500000108033394
 11
-15.13715685966115
 21
7.500000108033394
 97
        0
 75
     0
 76
     1
 98
        0
  0
HATCH
  5
17C
330
179
100
AcDbEntity
  8
SK2
  6
Continuous
 62
   136
100
AcDbHatch
 10
0.0
 20
0.0
 30
0.0
210
0.0
220
0.0
230
1.0
  2
SOLID
 70
     1
 71
     0
 91
        1
 92
        1
 93
        3
 72
     1
 10
-15.13715685966115
 20
-7.500000112158651
 11
-13.97049015698334
 21
-7.500000112158651
 72
     1
 10
-13.97049015698334
 20
-7.500000112158651
 11
-14.55382350832225
 21
-4.000000004125233
 72
     1
 10
-14.55382350832225
 20
-4.000000004125233
 11
-15.13715685966115
 21
-7.50000011215865
 97
        0
 75
     0
 76
     1
 98
        0
  0
LINE
  5
17D
330
179
100
AcDbEntity
  8
SK2
  6
Continuous
 62
   136
100
AcDbLine
 10
0.0
 20
4.0
 30
0.0
 11
-16.3038235623
 21
4.0
 31
0.0
  0
LINE
  5
17E
330
179
100
AcDbEntity
  8
SK2
  6
Continuous
 62
   136
100
AcDbLine
 10
0.0
 20
-4.0000000041
 30
0.0
 11
-16.3038235623
 21
-4.0000000041
 31
0.0
  0
LINE
  5
17F
330
179
100
AcDbEntity
  8
SK2
  6
Continuous
 62
   136
100
AcDbLine
 10
-14.5538235083
 20
11.0000002161
 30
0.0
 11
-14.5538235083
 21
-10.9999996647
 31
0.0
  0
TEXT
  5
180
330
179
100
AcDbEntity
  8
SK2
  6
Continuous
 62
   136
100
AcDbText
 10
-15.4288235083
 20
-3.15000019
 30
0.0
 40
3.5
  1
ø8
 50
90.0
  7
SEACAD_Solid_Edge_ISO
 11
-18.9288235083
 21
-3.15000019
 31
0.0
100
AcDbText
 73
     3
  0
ENDBLK
  5
182
330
179
100
AcDbEntity
  8
0
100
AcDbBlockEnd
  0
BLOCK
  5
185
330
184
100
AcDbEntity
  8
0
100
AcDbBlockBegin
  2
_OBLIQUE
 70
     0
 10
0.0
 20
0.0
 30
0.0
  3
_OBLIQUE
  1

  0
LINE
  5
187
330
184
100
AcDbEntity
  8
0
  6
ByBlock
 62
     0
370
    -2
100
AcDbLine
 10
-0.5
 20
-0.5
 30
0.0
 11
0.5
 21
0.5
 31
0.0
  0
ENDBLK
  5
186
330
184
100
AcDbEntity
  8
0
100
AcDbBlockEnd
  0
BLOCK
  5
189
330
188
100
AcDbEntity
  8
0
100
AcDbBlockBegin
  2
_DOT
 70
     0
 10
0.0
 20
0.0
 30
0.0
  3
_DOT
  1

  0
POLYLINE
  5
18B
330
188
100
AcDbEntity
  8
0
  6
ByBlock
 62
     0
100
AcDb2dPolyline
 66
     1
 10
0.0
 20
0.0
 30
0.0
 70
     1
 40
0.5
 41
0.5
  0
VERTEX
  5
18D
330
18B
100
AcDbEntity
  8
0
  6
ByBlock
 62
     0
100
AcDbVertex
100
AcDb2dVertex
 10
-0.25
 20
0.0
 30
0.0
 42
1.0
  0
VERTEX
  5
18E
330
18B
100
AcDbEntity
  8
0
  6
ByBlock
 62
     0
100
AcDbVertex
100
AcDb2dVertex
 10
0.25
 20
0.0
 30
0.0
 42
1.0
  0
SEQEND
  5
18F
330
18B
100
AcDbEntity
  8
0
  6
ByBlock
 62
     0
  0
LINE
  5
18C
330
188
100
AcDbEntity
  8
0
  6
ByBlock
 62
     0
370
    -2
100
AcDbLine
 10
-0.5
 20
0.0
 30
0.0
 11
-1.0
 21
0.0
 31
0.0
  0
ENDBLK
  5
18A
330
188
100
AcDbEntity
  8
0
100
AcDbBlockEnd
  0
BLOCK
  5
193
330
190
100
AcDbEntity
  8
0
100
AcDbBlockBegin
  2
_SE_FILLED
 70
     0
 10
0.0
 20
0.0
 30
0.0
  3
_SE_FILLED
  1

  0
SOLID
  5
191
330
190
100
AcDbEntity
  8
0
 62
     0
100
AcDbTrace
 10
0.0
 20
0.0
 30
0.0
 11
-1.0
 21
-0.1665
 31
0.0
 12
-1.0
 22
0.1665
 32
0.0
 13
0.0
 23
0.0
 33
0.0
  0
LINE
  5
192
330
190
100
AcDbEntity
  8
0
 62
     0
100
AcDbLine
 10
0.0
 20
0.0
 30
0.0
 11
-1.0
 21
0.0
 31
0.0
  0
ENDBLK
  5
194
330
190
100
AcDbEntity
  8
0
100
AcDbBlockEnd
  0
BLOCK
  5
19E
330
197
100
AcDbEntity
  8
0
100
AcDbBlockBegin
  2
DMBLK13
 70
     0
 10
0.0
 20
0.0
 30
0.0
  3
DMBLK13
  1

  0
HATCH
  5
198
330
197
100
AcDbEntity
  8
SK2
  6
Continuous
 62
   136
100
AcDbHatch
 10
0.0
 20
0.0
 30
0.0
210
0.0
220
0.0
230
1.0
  2
SOLID
 70
     1
 71
     0
 91
        1
 92
        1
 93
        3
 72
     1
 10
-5.556710213539321
 20
11.27645008378598
 11
-9.056710321572739
 21
10.69311673244708
 72
     1
 10
-9.056710321572739
 20
10.69311673244708
 11
-5.55671021353932
 21
10.10978338110817
 72
     1
 10
-5.556710213539321
 20
10.10978338110817
 11
-5.556710213539321
 21
11.27645008378598
 97
        0
 75
     0
 76
     1
 98
        0
  0
HATCH
  5
199
330
197
100
AcDbEntity
  8
SK2
  6
Continuous
 62
   136
100
AcDbHatch
 10
0.0
 20
0.0
 30
0.0
210
0.0
220
0.0
230
1.0
  2
SOLID
 70
     1
 71
     0
 91
        1
 92
        1
 93
        3
 72
     1
 10
1.043289750697892
 20
11.27645008378598
 11
1.043289750697892
 21
10.10978338110817
 72
     1
 10
1.043289750697892
 20
10.10978338110817
 11
4.54328985873131
 21
10.69311673244708
 72
     1
 10
4.543289858731311
 20
10.69311673244708
 11
1.043289750697892
 21
11.27645008378598
 97
        0
 75
     0
 76
     1
 98
        0
  0
LINE
  5
19A
330
197
100
AcDbEntity
  8
SK2
  6
Continuous
 62
   136
100
AcDbLine
 10
-9.0567103216
 20
1.7798437407
 30
0.0
 11
-9.0567103216
 21
12.4431167865
 31
0.0
  0
LINE
  5
19B
330
197
100
AcDbEntity
  8
SK2
  6
Continuous
 62
   136
100
AcDbLine
 10
4.5432896784
 20
2.9237298654
 30
0.0
 11
4.5432896784
 21
12.4431167865
 31
0.0
  0
LINE
  5
19C
330
197
100
AcDbEntity
  8
SK2
  6
Continuous
 62
   136
100
AcDbLine
 10
-9.0567103216
 20
10.6931167324
 30
0.0
 11
4.5432898587
 21
10.6931167324
 31
0.0
  0
TEXT
  5
19D
330
197
100
AcDbEntity
  8
SK2
  6
Continuous
 62
   136
100
AcDbText
 10
-5.2794375041
 20
11.5681167324
 30
0.0
 40
3.5
  1
13,6
  7
SEACAD_Solid_Edge_ISO
 11
-5.2794375041
 21
15.0681167324
 31
0.0
100
AcDbText
 73
     3
  0
ENDBLK
  5
19F
330
197
100
AcDbEntity
  8
0
100
AcDbBlockEnd
  0
BLOCK
  5
1A8
330
1A1
100
AcDbEntity
  8
0
100
AcDbBlockBegin
  2
DMBLK14
 70
     0
 10
0.0
 20
0.0
 30
0.0
  3
DMBLK14
  1

  0
HATCH
  5
1A2
330
1A1
100
AcDbEntity
  8
SK2
  6
Continuous
 62
   136
100
AcDbHatch
 10
0.0
 20
0.0
 30
0.0
210
0.0
220
0.0
230
1.0
  2
SOLID
 70
     1
 71
     0
 91
        1
 92
        1
 93
        3
 72
     1
 10
-3.500000108033424
 20
-15.22495663973195
 11
-0.0000000000000062
 21
-14.64162328839305
 72
     1
 10
-0.0000000000000056
 20
-14.64162328839305
 11
-3.500000108033424
 21
-14.05828993705414
 72
     1
 10
-3.500000108033424
 20
-14.05828993705414
 11
-3.500000108033424
 21
-15.22495663973195
 97
        0
 75
     0
 76
     1
 98
        0
  0
HATCH
  5
1A3
330
1A1
100
AcDbEntity
  8
SK2
  6
Continuous
 62
   136
100
AcDbHatch
 10
0.0
 20
0.0
 30
0.0
210
0.0
220
0.0
230
1.0
  2
SOLID
 70
     1
 71
     0
 91
        1
 92
        1
 93
        3
 72
     1
 10
8.04328978646068
 20
-15.22495663973195
 11
8.04328978646068
 21
-14.05828993705414
 72
     1
 10
8.04328978646068
 20
-14.05828993705414
 11
4.543289678427261
 21
-14.64162328839305
 72
     1
 10
4.543289678427262
 20
-14.64162328839305
 11
8.04328978646068
 21
-15.22495663973195
 97
        0
 75
     0
 76
     1
 98
        0
  0
LINE
  5
1A4
330
1A1
100
AcDbEntity
  8
SK2
  6
Continuous
 62
   136
100
AcDbLine
 10
0.0
 20
-4.0
 30
0.0
 11
0.0
 21
-16.3916233424
 31
0.0
  0
LINE
  5
1A5
330
1A1
100
AcDbEntity
  8
SK2
  6
Continuous
 62
   136
100
AcDbLine
 10
4.5432896784
 20
-2.9237298696
 30
0.0
 11
4.5432896784
 21
-16.3916233424
 31
0.0
  0
LINE
  5
1A6
330
1A1
100
AcDbEntity
  8
SK2
  6
Continuous
 62
   136
100
AcDbLine
 10
-7.0000002161
 20
-14.6416232884
 30
0.0
 11
19.2113630474
 21
-14.6416232884
 31
0.0
  0
TEXT
  5
1A7
330
1A1
100
AcDbEntity
  8
SK2
  6
Continuous
 62
   136
100
AcDbText
 10
11.2249997765
 20
-13.7666232884
 30
0.0
 40
3.5
  1
4,54
  7
SEACAD_Solid_Edge_ISO
 11
11.2249997765
 21
-10.2666232884
 31
0.0
100
AcDbText
 73
     3
  0
ENDBLK
  5
1A9
330
1A1
100
AcDbEntity
  8
0
100
AcDbBlockEnd
  0
ENDSEC
  0
SECTION
  2
ENTITIES
  0
INSERT
  5
49
330
1F
100
AcDbEntity
  8
SK2
 62
     7
100
AcDbBlockReference
  2
Nullpunkt
 10
0.0
 20
0.0
 30
0.0
  0
INSERT
  5
52
330
1F
100
AcDbEntity
  8
SK2
 62
     7
100
AcDbBlockReference
  2
Einfügepunkt
 10
4.5432896784
 20
-0.0000000021
 30
0.0
  0
LINE
  5
53
330
1F
100
AcDbEntity
  8
SK1
  6
Continuous
100
AcDbLine
 10
4.5432896784
 20
3.7828364341
 30
0.0
 11
4.5432896784
 21
2.0646232968
 31
0.0
  0
LINE
  5
54
330
1F
100
AcDbEntity
  8
SK1
  6
Continuous
100
AcDbLine
 10
3.8664947592
 20
4.2318791414
 30
0.0
 11
3.8664947592
 21
3.7649148419
 31
0.0
  0
LINE
  5
55
330
1F
100
AcDbEntity
  8
SK1
  6
Continuous
100
AcDbLine
 10
-9.0567103216
 20
0.1999999979
 30
0.0
 11
-9.0567103216
 21
2.1087735155
 31
0.0
  0
LINE
  5
56
330
1F
100
AcDbEntity
  8
SK1
  6
Continuous
100
AcDbLine
 10
-8.8845449418
 20
-0.2000000021
 30
0.0
 11
-8.8845449418
 21
-2.2807815342
 31
0.0
  0
SPLINE
  5
59
330
1F
100
AcDbEntity
  8
SK3
100
AcDbSpline
210
0.0
220
0.0
230
1.0
 70
     8
 71
     3
 72
    23
 73
    19
 74
     0
 42
0.0000000210873313
 43
0.0000000001
 12
1.0
 22
0.0
 32
0.0
 13
1.0
 23
0.0
 33
0.0
 40
0.0
 40
0.0
 40
0.0
 40
0.0
 40
0.1358191240363077
 40
0.1358191240363077
 40
0.1358191240363077
 40
0.2660854193866395
 40
0.2660854193866395
 40
0.2660854193866395
 40
0.4808125387416036
 40
0.4808125387416036
 40
0.4808125387416036
 40
0.6954759192291108
 40
0.6954759192291108
 40
0.6954759192291108
 40
0.9110591384418485
 40
0.9110591384418485
 40
0.9110591384418485
 40
1.0
 40
1.0
 40
1.0
 40
1.0
 10
4.243289678426497
 20
1.738533863001565
 30
0.0
 10
4.264606158488061
 20
1.738533863008669
 30
0.0
 10
4.286044039628345
 20
1.740847568995547
 30
0.0
 10
4.306870149607145
 20
1.745393497435372
 30
0.0
 10
4.326986561715222
 20
1.749784512848352
 30
0.0
 10
4.346749857784839
 20
1.756303777344274
 30
0.0
 10
4.365533005144945
 20
1.764738492971222
 30
0.0
 10
4.396216507372737
 20
1.778517153744546
 30
0.0
 10
4.424931827334565
 20
1.797807478945055
 30
0.0
 10
4.449312087955187
 20
1.820979265534349
 30
0.0
 10
4.473688012703295
 20
1.844146931170461
 30
0.0
 10
4.494404256116827
 20
1.871829197629422
 30
0.0
 10
4.509781579943316
 20
1.901736794495226
 30
0.0
 10
4.525223954112255
 20
1.931770908786296
 30
0.0
 10
4.535707147413351
 20
1.964873975634536
 30
0.0
 10
4.54037800818944
 20
1.998320918706109
 30
0.0
 10
4.542314348676209
 20
2.012186600671988
 30
0.0
 10
4.54328967842708
 20
2.02622034028631
 30
0.0
 10
4.543289678451059
 20
2.040220574244338
 30
0.0
  0
LINE
  5
5A
330
1F
100
AcDbEntity
  8
SK3
100
AcDbLine
 10
-6.4113321019
 20
1.7499999979
 30
0.0
 11
-8.545393983
 21
2.7968780961
 31
0.0
  0
LINE
  5
5B
330
1F
100
AcDbEntity
  8
SK1
  6
Continuous
100
AcDbLine
 10
-8.545393983
 20
2.7968780961
 30
0.0
 11
-8.5567103216
 21
2.8024294005
 31
0.0
  0
SPLINE
  5
5C
330
1F
100
AcDbEntity
  8
SK1
  6
Continuous
100
AcDbSpline
210
0.0
220
0.0
230
1.0
 70
     8
 71
     3
 72
    17
 73
    13
 74
     0
 42
0.0000000949821438
 43
0.0000000001
 12
1.0
 22
0.0
 32
0.0
 13
1.0
 23
0.0
 33
0.0
 40
0.0
 40
0.0
 40
0.0
 40
0.0
 40
0.041964292545792
 40
0.041964292545792
 40
0.041964292545792
 40
0.3647470358182245
 40
0.3647470358182245
 40
0.3647470358182245
 40
0.6874817679000081
 40
0.6874817679000081
 40
0.6874817679000081
 40
1.0
 40
1.0
 40
1.0
 40
1.0
 10
4.543289678427262
 20
3.782836434111143
 30
0.0
 10
4.543289678427262
 20
3.784311321440517
 30
0.0
 10
4.54325712419632
 20
3.785786567576361
 30
0.0
 10
4.543192062670073
 20
3.787260019181318
 30
0.0
 10
4.5426969918766
 20
3.798471911943199
 30
0.0
 10
4.540259543504129
 20
3.809753116207767
 30
0.0
 10
4.536080510406335
 20
3.820168840703068
 30
0.0
 10
4.531902158964392
 20
3.830582866255246
 30
0.0
 10
4.52586719171515
 20
3.840419246742738
 30
0.0
 10
4.518474417813567
 20
3.848860659125384
 30
0.0
 10
4.511315558210391
 20
3.857034977304783
 30
0.0
 10
4.502696721634206
 20
3.864118811696931
 30
0.0
 10
4.493289678427261
 20
3.869557220160692
 30
0.0
  0
SPLINE
  5
5D
330
1F
100
AcDbEntity
  8
SK1
  6
Continuous
100
AcDbSpline
210
0.0
220
0.0
230
1.0
 70
     8
 71
     3
 72
    11
 73
     7
 74
     0
 42
0.0000001904045926
 43
0.0000000001
 12
1.0
 22
0.0
 32
0.0
 13
1.0
 23
0.0
 33
0.0
 40
0.0
 40
0.0
 40
0.0
 40
0.0
 40
0.5593164040284616
 40
0.5593164040284616
 40
0.5593164040284616
 40
1.0
 40
1.0
 40
1.0
 40
1.0
 10
3.866494759184139
 20
4.231879141431564
 30
0.0
 10
3.858071840595834
 20
4.236747543537404
 30
0.0
 10
3.848834596465347
 20
4.240411122881903
 30
0.0
 10
3.83936431218764
 20
4.242638366090168
 30
0.0
 10
3.831893818710789
 20
4.244395293904667
 30
0.0
 10
3.824169071409449
 20
4.245291507362861
 30
0.0
 10
3.816494759184078
 20
4.245291507363421
 30
0.0
  0
ARC
  5
5E
330
1F
100
AcDbEntity
  8
SK3
100
AcDbCircle
 10
1.3086096077
 20
20.1999999979
 30
0.0
 40
20.0
100
AcDbArc
 50
247.2943454949
 51
247.3795963368
  0
SPLINE
  5
5F
330
1F
100
AcDbEntity
  8
SK1
  6
Continuous
100
AcDbSpline
210
0.0
220
0.0
230
1.0
 70
     8
 71
     3
 72
    14
 73
    10
 74
     0
 42
0.0000000009624514
 43
0.0000000001
 12
1.0
 22
0.0
 32
0.0
 13
1.0
 23
0.0
 33
0.0
 40
0.0
 40
0.0
 40
0.0
 40
0.0
 40
0.0368955628323113
 40
0.0368955628323113
 40
0.0368955628323113
 40
0.5197157604841697
 40
0.5197157604841697
 40
0.5197157604841697
 40
1.0
 40
1.0
 40
1.0
 40
1.0
 10
-8.545393982974243
 20
2.796878096140067
 30
0.0
 10
-8.418860529356186
 20
2.814706621780326
 30
0.0
 10
-8.292326955960645
 20
2.832534297348622
 30
0.0
 10
-8.165793269420947
 20
2.850361169808255
 30
0.0
 10
-6.509956774640779
 20
3.083645971774335
 30
0.0
 10
-4.854101649184237
 20
3.316798541405179
 30
0.0
 10
-3.198237106646379
 20
3.549884175969209
 30
0.0
 10
-1.551069806411022
 20
3.781745554448904
 30
0.0
 10
0.0961071489105564
 20
4.013538345032572
 30
0.0
 10
1.743289678427264
 20
4.245291507362859
 30
0.0
  0
SPLINE
  5
60
330
1F
100
AcDbEntity
  8
SK1
  6
Continuous
100
AcDbSpline
210
0.0
220
0.0
230
1.0
 70
     8
 71
     3
 72
    26
 73
    22
 74
     0
 42
0.0000000633325627
 43
0.0000000001
 12
1.0
 22
0.0
 32
0.0
 13
1.0
 23
0.0
 33
0.0
 40
0.0
 40
0.0
 40
0.0
 40
0.0
 40
0.0041085067645049
 40
0.0041085067645049
 40
0.0041085067645049
 40
0.219583806511738
 40
0.219583806511738
 40
0.219583806511738
 40
0.4350881717871871
 40
0.4350881717871871
 40
0.4350881717871871
 40
0.6503719597714424
 40
0.6503719597714424
 40
0.6503719597714424
 40
0.7840375845386437
 40
0.7840375845386437
 40
0.7840375845386437
 40
0.9984154607750017
 40
0.9984154607750017
 40
0.9984154607750017
 40
1.0
 40
1.0
 40
1.0
 40
1.0
 10
1.743289678427261
 20
3.344024519378868
 30
0.0
 10
1.743289678427261
 20
3.343807437706385
 30
0.0
 10
1.743290382781974
 20
3.343590354891246
 30
0.0
 10
1.743291791467847
 20
3.343373277789432
 30
0.0
 10
1.743364663146242
 20
3.332143824121005
 30
0.0
 10
1.745376661865887
 20
3.320772029075955
 30
0.0
 10
1.749162133682918
 20
3.310199605366354
 30
0.0
 10
1.752948025404878
 20
3.299626008906556
 30
0.0
 10
1.758612603151104
 20
3.289559962303836
 30
0.0
 10
1.765688208116087
 20
3.280838165894577
 30
0.0
 10
1.772756537750695
 20
3.272125337474721
 30
0.0
 10
1.781428665948078
 20
3.2645132791476
 30
0.0
 10
1.790986150730006
 20
3.258637128405785
 30
0.0
 10
1.796972438970095
 20
3.254956627428244
 30
0.0
 10
1.803384206671626
 20
3.25189406128024
 30
0.0
 10
1.810009456102339
 20
3.24955145497103
 30
0.0
 10
1.820543358607804
 20
3.245826797246371
 30
0.0
 10
1.831865438641963
 20
3.243868757939731
 30
0.0
 10
1.843038414343552
 20
3.243840630867222
 30
0.0
 10
1.843122168839077
 20
3.243840420021979
 30
0.0
 10
1.843205923666343
 20
3.243840314599106
 30
0.0
 10
1.84328967842726
 20
3.243840314599106
 30
0.0
  0
LINE
  5
61
330
1F
100
AcDbEntity
  8
SK1
  6
Continuous
100
AcDbLine
 10
1.8432896784
 20
3.2438403146
 30
0.0
 11
2.8432896784
 21
3.2438403146
 31
0.0
  0
SPLINE
  5
62
330
1F
100
AcDbEntity
  8
SK1
  6
Continuous
100
AcDbSpline
210
0.0
220
0.0
230
1.0
 70
     8
 71
     3
 72
    23
 73
    19
 74
     0
 42
0.0000000633404181
 43
0.0000000001
 12
1.0
 22
0.0
 32
0.0
 13
1.0
 23
0.0
 33
0.0
 40
0.0
 40
0.0
 40
0.0
 40
0.0
 40
0.1105979881677287
 40
0.1105979881677287
 40
0.1105979881677287
 40
0.3251784897297481
 40
0.3251784897297481
 40
0.3251784897297481
 40
0.5397424684769111
 40
0.5397424684769111
 40
0.5397424684769111
 40
0.7545572227444369
 40
0.7545572227444369
 40
0.7545572227444369
 40
0.9697639777689488
 40
0.9697639777689488
 40
0.9697639777689488
 40
1.0
 40
1.0
 40
1.0
 40
1.0
 10
2.843289678427261
 20
3.243840314599106
 30
0.0
 10
2.849105638773822
 20
3.243840314599106
 30
0.0
 10
2.854943680713816
 20
3.244352564205673
 30
0.0
 10
2.860670787866405
 20
3.245365302284124
 30
0.0
 10
2.871683537222257
 20
3.247312713136399
 30
0.0
 10
2.882511520834742
 20
3.25119028356152
 30
0.0
 10
2.892258099699932
 20
3.256674557244242
 30
0.0
 10
2.902004245853093
 20
3.262158587445509
 30
0.0
 10
2.910937777748771
 20
3.269399930494072
 30
0.0
 10
2.918322775264067
 20
3.277797773299593
 30
0.0
 10
2.925716412754395
 20
3.286205441044394
 30
0.0
 10
2.93176157048312
 20
3.296003489799948
 30
0.0
 10
2.935961911186189
 20
3.306381923700276
 30
0.0
 10
2.940169794904422
 20
3.316778995299263
 30
0.0
 10
2.94264217322737
 20
3.328044818434443
 30
0.0
 10
2.943175964745182
 20
3.339248409369324
 30
0.0
 10
2.943251752349684
 20
3.340839092792434
 30
0.0
 10
2.943289678427262
 20
3.342432031540775
 30
0.0
 10
2.943289678427264
 20
3.34402451937858
 30
0.0
  0
LINE
  5
63
330
1F
100
AcDbEntity
  8
SK1
  6
Continuous
100
AcDbLine
 10
2.9432896784
 20
4.045058712
 30
0.0
 11
3.1432896784
 21
4.2452915074
 31
0.0
  0
LINE
  5
64
330
1F
100
AcDbEntity
  8
SK1
  6
Continuous
100
AcDbLine
 10
3.1432896784
 20
4.2452915074
 30
0.0
 11
3.8164947592
 21
4.2452915074
 31
0.0
  0
LINE
  5
65
330
1F
100
AcDbEntity
  8
SK1
  6
Continuous
100
AcDbLine
 10
3.8664947592
 20
4.2318791414
 30
0.0
 11
4.4932896784
 21
3.8695572202
 31
0.0
  0
LINE
  5
66
330
1F
100
AcDbEntity
  8
SK3
100
AcDbLine
 10
4.2432896784
 20
1.738533863
 30
0.0
 11
-6.3838716662
 21
1.738533863
 31
0.0
  0
LINE
  5
67
330
1F
100
AcDbEntity
  8
SK1
  6
Continuous
100
AcDbLine
 10
-9.0567103216
 20
-0.2000000021
 30
0.0
 11
-8.8845449418
 21
-0.2000000021
 31
0.0
  0
LINE
  5
68
330
1F
100
AcDbEntity
  8
SK1
  6
Continuous
100
AcDbLine
 10
-9.0567103216
 20
0.1999999979
 30
0.0
 11
-8.8845449418
 21
0.1999999979
 31
0.0
  0
LINE
  5
69
330
1F
100
AcDbEntity
  8
SK1
  6
Continuous
100
AcDbLine
 10
3.8664947592
 20
-0.2000000021
 30
0.0
 11
3.8664947592
 21
-1.9427344931
 31
0.0
  0
LINE
  5
6A
330
1F
100
AcDbEntity
  8
SK1
  6
Continuous
100
AcDbLine
 10
3.8164947592
 20
0.1999999979
 30
0.0
 11
3.8164947592
 21
1.9494406719
 31
0.0
  0
ARC
  5
6B
330
1F
100
AcDbEntity
  8
SK1
  6
Continuous
100
AcDbCircle
 10
-0.5404500717
 20
0.0009270362
 30
0.0
 40
0.7488031643257095
100
AcDbArc
 50
344.4350293138
 51
359.9290662776
  0
ARC
  5
6C
330
1F
100
AcDbEntity
  8
SK1
  6
Continuous
100
AcDbCircle
 10
-0.54413216
 20
-0.0014325991
 30
0.0
 40
0.7524860424266905
100
AcDbArc
 50
0.1090808456
 51
15.526823563
  0
LINE
  5
6D
330
1F
100
AcDbEntity
  8
SK1
  6
Continuous
100
AcDbLine
 10
1.7432896784
 20
0.1999999979
 30
0.0
 11
1.7432896784
 21
1.9494406719
 31
0.0
  0
LINE
  5
6E
330
1F
100
AcDbEntity
  8
SK1
  6
Continuous
100
AcDbLine
 10
1.8432896784
 20
0.1999999979
 30
0.0
 11
1.8432896784
 21
1.4487150755
 31
0.0
  0
LINE
  5
6F
330
1F
100
AcDbEntity
  8
SK1
  6
Continuous
100
AcDbLine
 10
2.8432896784
 20
0.1999999979
 30
0.0
 11
2.8432896784
 21
1.4487150755
 31
0.0
  0
LINE
  5
70
330
1F
100
AcDbEntity
  8
SK1
  6
Continuous
100
AcDbLine
 10
2.9432896784
 20
0.1999999979
 30
0.0
 11
2.9432896784
 21
1.8493242742
 31
0.0
  0
LINE
  5
71
330
1F
100
AcDbEntity
  8
SK1
  6
Continuous
100
AcDbLine
 10
3.1432896784
 20
0.1999999979
 30
0.0
 11
3.1432896784
 21
1.9494406719
 31
0.0
  0
ARC
  5
72
330
1F
100
AcDbEntity
  8
SK1
  6
Continuous
100
AcDbCircle
 10
-0.33985397
 20
-0.0000000021
 30
0.0
 40
4.583143280074473
100
AcDbArc
 50
357.4989226283
 51
2.5010773717
  0
SPLINE
  5
73
330
1F
100
AcDbEntity
  8
SK1
  6
Continuous
100
AcDbSpline
210
0.0
220
0.0
230
1.0
 70
     8
 71
     3
 72
    35
 73
    31
 74
     0
 42
0.0000000929904874
 43
0.0000000001
 12
1.0
 22
0.0
 32
0.0
 13
1.0
 23
0.0
 33
0.0
 40
0.0
 40
0.0
 40
0.0
 40
0.0
 40
0.2136569038808298
 40
0.2136569038808298
 40
0.2136569038808298
 40
0.4312214354314209
 40
0.4312214354314209
 40
0.4312214354314209
 40
0.4577162405081052
 40
0.4577162405081052
 40
0.4577162405081052
 40
0.4779281905004464
 40
0.4779281905004464
 40
0.4779281905004464
 40
0.4913437068514656
 40
0.4913437068514656
 40
0.4913437068514656
 40
0.5048711471271575
 40
0.5048711471271575
 40
0.5048711471271575
 40
0.5203839415890178
 40
0.5203839415890178
 40
0.5203839415890178
 40
0.5466989718943074
 40
0.5466989718943074
 40
0.5466989718943074
 40
0.6310035142303617
 40
0.6310035142303617
 40
0.6310035142303617
 40
1.0
 40
1.0
 40
1.0
 40
1.0
 10
2.909662308039856
 20
-0.2000000020626279
 30
0.0
 10
2.908237930458192
 20
-0.192394451591937
 30
0.0
 10
2.906695226888606
 20
-0.1848105102134103
 30
0.0
 10
2.904847533270504
 20
-0.1773257760318872
 30
0.0
 10
2.9029745714731
 20
-0.1697386841848486
 30
0.0
 10
2.90114225394331
 20
-0.1618272458565845
 30
0.0
 10
2.897233136835342
 20
-0.1553412934628264
 30
0.0
 10
2.896746439114317
 20
-0.1545337714158971
 30
0.0
 10
2.896210196615938
 20
-0.1537558919309805
 30
0.0
 10
2.89559468529856
 20
-0.1530738269898997
 30
0.0
 10
2.895126485392614
 20
-0.152555001856637
 30
0.0
 10
2.894602366809731
 20
-0.1520834608864352
 30
0.0
 10
2.894021393654389
 20
-0.1517466469361815
 30
0.0
 10
2.893634928150408
 20
-0.1515225970436245
 30
0.0
 10
2.893214799509837
 20
-0.1513571723620218
 30
0.0
 10
2.892786485005895
 20
-0.1512842510258307
 30
0.0
 10
2.892355840383863
 20
-0.1512109329827269
 30
0.0
 10
2.891906418477988
 20
-0.1512320094620056
 30
0.0
 10
2.891481298044839
 20
-0.1513397032133761
 30
0.0
 10
2.890993176685916
 20
-0.1514633566917027
 30
0.0
 10
2.89052321931911
 20
-0.1516996622067902
 30
0.0
 10
2.890094638627366
 20
-0.1519948435213347
 30
0.0
 10
2.889369441860286
 20
-0.1524943166407112
 30
0.0
 10
2.888733280776601
 20
-0.1531664681783536
 30
0.0
 10
2.888164414423188
 20
-0.15388462613638
 30
0.0
 10
2.886356517765007
 20
-0.1561669818506377
 30
0.0
 10
2.885061602869357
 20
-0.1589542625834938
 30
0.0
 10
2.883888604119764
 20
-0.1617291893477574
 30
0.0
 10
2.878764876227439
 20
-0.1738502335229163
 30
0.0
 10
2.875698808270119
 20
-0.1870157082345037
 30
0.0
 10
2.872570328292207
 20
-0.2000000020626279
 30
0.0
  0
LINE
  5
74
330
1F
100
AcDbEntity
  8
SK3
100
AcDbLine
 10
2.8432896784
 20
0.1999999979
 30
0.0
 11
2.8725703283
 21
0.1999999979
 31
0.0
  0
SPLINE
  5
75
330
1F
100
AcDbEntity
  8
SK1
  6
Continuous
100
AcDbSpline
210
0.0
220
0.0
230
1.0
 70
     8
 71
     3
 72
    41
 73
    37
 74
     0
 42
0.0000000931329446
 43
0.0000000001
 12
1.0
 22
0.0
 32
0.0
 13
1.0
 23
0.0
 33
0.0
 40
0.0
 40
0.0
 40
0.0
 40
0.0
 40
0.2424177843820403
 40
0.2424177843820403
 40
0.2424177843820403
 40
0.3251974267314565
 40
0.3251974267314565
 40
0.3251974267314565
 40
0.3829250956559863
 40
0.3829250956559863
 40
0.3829250956559863
 40
0.4326517289036309
 40
0.4326517289036309
 40
0.4326517289036309
 40
0.466299289932695
 40
0.466299289932695
 40
0.466299289932695
 40
0.4832757834505361
 40
0.4832757834505361
 40
0.4832757834505361
 40
0.4972176020618707
 40
0.4972176020618707
 40
0.4972176020618707
 40
0.5112890367102347
 40
0.5112890367102347
 40
0.5112890367102347
 40
0.527045310634936
 40
0.527045310634936
 40
0.527045310634936
 40
0.5539395602131715
 40
0.5539395602131715
 40
0.5539395602131715
 40
0.6403315784627029
 40
0.6403315784627029
 40
0.6403315784627029
 40
1.0
 40
1.0
 40
1.0
 40
1.0
 10
2.872570328292207
 20
0.1999999979373722
 30
0.0
 10
2.874640086917644
 20
0.1914097706498998
 30
0.0
 10
2.876818810509905
 20
0.1828426533112807
 30
0.0
 10
2.87940184338829
 20
0.174437380386562
 30
0.0
 10
2.880284337724396
 20
0.1715657151392657
 30
0.0
 10
2.881217668048125
 20
0.1687122561639997
 30
0.0
 10
2.882248501433208
 20
0.1659063901420134
 30
0.0
 10
2.882967296633579
 20
0.1639498731542285
 30
0.0
 10
2.883733488377485
 20
0.162013173105765
 30
0.0
 10
2.884588541647607
 20
0.1601301724692735
 30
0.0
 10
2.885324298858736
 20
0.1585098859382775
 30
0.0
 10
2.886125069516928
 20
0.1569179358251262
 30
0.0
 10
2.887064825601389
 20
0.1554430007408465
 30
0.0
 10
2.887699532158076
 20
0.1544468369658411
 30
0.0
 10
2.888404520313514
 20
0.1534884079597112
 30
0.0
 10
2.889232928541384
 20
0.1527014458968126
 30
0.0
 10
2.889652250123317
 20
0.1523031034298588
 30
0.0
 10
2.890110268730651
 20
0.1519461566728315
 30
0.0
 10
2.890604378453024
 20
0.1516839368238435
 30
0.0
 10
2.891009277213362
 20
0.1514690604775909
 30
0.0
 10
2.891447771502105
 20
0.1513166941801335
 30
0.0
 10
2.891891409639367
 20
0.1512627994598161
 30
0.0
 10
2.892337729158421
 20
0.1512085789958135
 30
0.0
 10
2.892800500891973
 20
0.1512557724652419
 30
0.0
 10
2.893233053319094
 20
0.151393125050655
 30
0.0
 10
2.89371848079152
 20
0.1515472675642276
 30
0.0
 10
2.894180334200487
 20
0.1518137550964942
 30
0.0
 10
2.894598066876983
 20
0.152136607849447
 30
0.0
 10
2.895309277547903
 20
0.1526862807286723
 30
0.0
 10
2.895922348408261
 20
0.1534053328337378
 30
0.0
 10
2.896465561277593
 20
0.1541665985263366
 30
0.0
 10
2.898196527911502
 20
0.1565923980384989
 30
0.0
 10
2.899384814157237
 20
0.1594992304936854
 30
0.0
 10
2.900448273191331
 20
0.1623870823528831
 30
0.0
 10
2.904866072175418
 20
0.1743837353510073
 30
0.0
 10
2.907277693549549
 20
0.1872672041637156
 30
0.0
 10
2.909662308039856
 20
0.1999999979373722
 30
0.0
  0
LINE
  5
76
330
1F
100
AcDbEntity
  8
SK1
  6
Continuous
100
AcDbLine
 10
0.2083525188
 20
-0.0000000021
 30
0.0
 11
0.2083525188
 21
-0.2000000021
 31
0.0
  0
LINE
  5
77
330
1F
100
AcDbEntity
  8
SK1
  6
Continuous
100
AcDbLine
 10
0.2083525188
 20
0.1999999979
 30
0.0
 11
0.2083525188
 21
-0.0000000021
 31
0.0
  0
LINE
  5
78
330
1F
100
AcDbEntity
  8
SK1
  6
Continuous
100
AcDbLine
 10
3.8164947592
 20
0.1999999979
 30
0.0
 11
3.8664947592
 21
0.1999999979
 31
0.0
  0
LINE
  5
79
330
1F
100
AcDbEntity
  8
SK1
  6
Continuous
100
AcDbLine
 10
2.9432896784
 20
-0.2000000021
 30
0.0
 11
2.909662308
 21
-0.2000000021
 31
0.0
  0
LINE
  5
7A
330
1F
100
AcDbEntity
  8
SK1
  6
Continuous
100
AcDbLine
 10
4.2389234133
 20
-0.2000000021
 30
0.0
 11
3.8664947592
 21
-0.2000000021
 31
0.0
  0
LINE
  5
7B
330
1F
100
AcDbEntity
  8
SK1
  6
Continuous
100
AcDbLine
 10
3.8164947592
 20
-0.2000000021
 30
0.0
 11
3.1432896784
 21
-0.2000000021
 31
0.0
  0
LINE
  5
7C
330
1F
100
AcDbEntity
  8
SK1
  6
Continuous
100
AcDbLine
 10
3.1432896784
 20
-0.2000000021
 30
0.0
 11
2.9432896784
 21
-0.2000000021
 31
0.0
  0
LINE
  5
7D
330
1F
100
AcDbEntity
  8
SK3
100
AcDbLine
 10
2.8432896784
 20
-0.2000000021
 30
0.0
 11
2.8725703283
 21
-0.2000000021
 31
0.0
  0
LINE
  5
7E
330
1F
100
AcDbEntity
  8
SK1
  6
Continuous
100
AcDbLine
 10
2.8725703283
 20
-0.2000000021
 30
0.0
 11
2.8432896784
 21
-0.2000000021
 31
0.0
  0
LINE
  5
7F
330
1F
100
AcDbEntity
  8
SK1
  6
Continuous
100
AcDbLine
 10
2.8432896784
 20
-0.2000000021
 30
0.0
 11
1.8432896784
 21
-0.2000000021
 31
0.0
  0
LINE
  5
80
330
1F
100
AcDbEntity
  8
SK1
  6
Continuous
100
AcDbLine
 10
1.8432896784
 20
-0.2000000021
 30
0.0
 11
1.7432896784
 21
-0.2000000021
 31
0.0
  0
LINE
  5
81
330
1F
100
AcDbEntity
  8
SK1
  6
Continuous
100
AcDbLine
 10
1.7432896784
 20
-0.2000000021
 30
0.0
 11
-8.8845449418
 21
-0.2000000021
 31
0.0
  0
LINE
  5
82
330
1F
100
AcDbEntity
  8
SK1
  6
Continuous
100
AcDbLine
 10
2.9432896784
 20
0.1999999979
 30
0.0
 11
2.909662308
 21
0.1999999979
 31
0.0
  0
LINE
  5
83
330
1F
100
AcDbEntity
  8
SK1
  6
Continuous
100
AcDbLine
 10
2.8725703283
 20
0.1999999979
 30
0.0
 11
2.8432896784
 21
0.1999999979
 31
0.0
  0
LINE
  5
84
330
1F
100
AcDbEntity
  8
SK1
  6
Continuous
100
AcDbLine
 10
2.8432896784
 20
0.1999999979
 30
0.0
 11
1.8432896784
 21
0.1999999979
 31
0.0
  0
LINE
  5
85
330
1F
100
AcDbEntity
  8
SK1
  6
Continuous
100
AcDbLine
 10
1.8432896784
 20
0.1999999979
 30
0.0
 11
1.7432896784
 21
0.1999999979
 31
0.0
  0
LINE
  5
86
330
1F
100
AcDbEntity
  8
SK1
  6
Continuous
100
AcDbLine
 10
1.7432896784
 20
0.1999999979
 30
0.0
 11
-8.8845449418
 21
0.1999999979
 31
0.0
  0
LINE
  5
87
330
1F
100
AcDbEntity
  8
SK1
  6
Continuous
100
AcDbLine
 10
4.2389234133
 20
0.1999999979
 30
0.0
 11
3.8664947592
 21
0.1999999979
 31
0.0
  0
LINE
  5
88
330
1F
100
AcDbEntity
  8
SK1
  6
Continuous
100
AcDbLine
 10
3.8164947592
 20
0.1999999979
 30
0.0
 11
3.1432896784
 21
0.1999999979
 31
0.0
  0
LINE
  5
89
330
1F
100
AcDbEntity
  8
SK1
  6
Continuous
100
AcDbLine
 10
3.1432896784
 20
0.1999999979
 30
0.0
 11
2.9432896784
 21
0.1999999979
 31
0.0
  0
LINE
  5
8A
330
1F
100
AcDbEntity
  8
SK1
  6
Continuous
100
AcDbLine
 10
3.8164947592
 20
-0.2000000021
 30
0.0
 11
3.8664947592
 21
-0.2000000021
 31
0.0
  0
SPLINE
  5
8B
330
1F
100
AcDbEntity
  8
SK3
100
AcDbSpline
210
0.0
220
0.0
230
1.0
 70
     8
 71
     3
 72
    20
 73
    16
 74
     0
 42
0.0000000273823655
 43
0.0000000001
 12
1.0
 22
0.0
 32
0.0
 13
1.0
 23
0.0
 33
0.0
 40
0.0
 40
0.0
 40
0.0
 40
0.0
 40
0.2127397210147053
 40
0.2127397210147053
 40
0.2127397210147053
 40
0.4258553859201415
 40
0.4258553859201415
 40
0.4258553859201415
 40
0.6396511768369338
 40
0.6396511768369338
 40
0.6396511768369338
 40
0.8547431010304728
 40
0.8547431010304728
 40
0.8547431010304728
 40
1.0
 40
1.0
 40
1.0
 40
1.0
 10
4.243289678427261
 20
1.042472011229945
 30
0.0
 10
4.276644779697494
 20
1.042472011229947
 30
0.0
 10
4.310457887246801
 20
1.045352132627956
 30
0.0
 10
4.341936097511319
 20
1.050867680182148
 30
0.0
 10
4.373472754266126
 20
1.056393468610705
 30
0.0
 10
4.403532302478038
 20
1.064714795954316
 30
0.0
 10
4.429657079710609
 20
1.075133458114686
 30
0.0
 10
4.455865854279149
 20
1.085585618737379
 30
0.0
 10
4.478834062060072
 20
1.098433429821203
 30
0.0
 10
4.496704714352634
 20
1.11261555146919
 30
0.0
 10
4.514682116623282
 20
1.12688238973246
 30
0.0
 10
4.527994656928522
 20
1.14289051713886
 30
0.0
 10
4.535562703460152
 20
1.159322820387469
 30
0.0
 10
4.54068087481183
 20
1.170435773165654
 30
0.0
 10
4.543289678427302
 20
1.181911567528948
 30
0.0
 10
4.543289678429796
 20
1.19331536684956
 30
0.0
  0
SPLINE
  5
8C
330
1F
100
AcDbEntity
  8
SK3
100
AcDbSpline
210
0.0
220
0.0
230
1.0
 70
     8
 71
     3
 72
    20
 73
    16
 74
     0
 42
0.0000000273823655
 43
0.0000000001
 12
1.0
 22
0.0
 32
0.0
 13
1.0
 23
0.0
 33
0.0
 40
0.0
 40
0.0
 40
0.0
 40
0.0
 40
0.2127397210146898
 40
0.2127397210146898
 40
0.2127397210146898
 40
0.4258553859201258
 40
0.4258553859201258
 40
0.4258553859201258
 40
0.6396511768369174
 40
0.6396511768369174
 40
0.6396511768369174
 40
0.8547431010304577
 40
0.8547431010304577
 40
0.8547431010304577
 40
1.0
 40
1.0
 40
1.0
 40
1.0
 10
4.243289678427261
 20
0.69606184971617
 30
0.0
 10
4.276644779697492
 20
0.6960618497161702
 30
0.0
 10
4.310457887246796
 20
0.6989419711141786
 30
0.0
 10
4.341936097511312
 20
0.7044575186683699
 30
0.0
 10
4.37347275426612
 20
0.7099833070969268
 30
0.0
 10
4.403532302478031
 20
0.718304634440537
 30
0.0
 10
4.429657079710603
 20
0.7287232966009072
 30
0.0
 10
4.455865854279144
 20
0.7391754572235999
 30
0.0
 10
4.478834062060067
 20
0.7520232683074253
 30
0.0
 10
4.49670471435263
 20
0.7662053899554117
 30
0.0
 10
4.514682116623279
 20
0.780472228218682
 30
0.0
 10
4.527994656928519
 20
0.7964803556250815
 30
0.0
 10
4.53556270346015
 20
0.8129126588736912
 30
0.0
 10
4.540680874811829
 20
0.8240256116518772
 30
0.0
 10
4.543289678427302
 20
0.8355014060151721
 30
0.0
 10
4.543289678429796
 20
0.8469052053357847
 30
0.0
  0
LINE
  5
8D
330
1F
100
AcDbEntity
  8
SK1
  6
Continuous
100
AcDbLine
 10
4.5432896784
 20
1.7182131353
 30
0.0
 11
4.5432896784
 21
-1.7182131394
 31
0.0
  0
LINE
  5
8E
330
1F
100
AcDbEntity
  8
SK1
  6
Continuous
100
AcDbLine
 10
4.4932896784
 20
2.1079836898
 30
0.0
 11
4.4932896784
 21
3.8695572202
 31
0.0
  0
LINE
  5
8F
330
1F
100
AcDbEntity
  8
SK1
  6
Continuous
100
AcDbLine
 10
3.8164947592
 20
2.2958508334
 30
0.0
 11
3.8164947592
 21
3.5765302916
 31
0.0
  0
LINE
  5
90
330
1F
100
AcDbEntity
  8
SK1
  6
Continuous
100
AcDbLine
 10
3.8664947592
 20
1.9427344889
 30
0.0
 11
3.8664947592
 21
0.1999999979
 31
0.0
  0
ARC
  5
91
330
1F
100
AcDbEntity
  8
SK3
100
AcDbCircle
 10
-5.8962435567
 20
0.8765281308
 30
0.0
 40
0.5150908119745669
100
AcDbArc
 50
161.2061356906
 51
180.1699810758
  0
ARC
  5
92
330
1F
100
AcDbEntity
  8
SK3
100
AcDbCircle
 10
-5.7845867016
 20
0.8796062465
 30
0.0
 40
0.62676232680251
100
AcDbArc
 50
180.4210862175
 51
197.0283765433
  0
LINE
  5
93
330
1F
100
AcDbEntity
  8
SK1
  6
Continuous
100
AcDbLine
 10
1.7432896784
 20
2.2958508334
 30
0.0
 11
1.7432896784
 21
3.5765302916
 31
0.0
  0
LINE
  5
94
330
1F
100
AcDbEntity
  8
SK1
  6
Continuous
100
AcDbLine
 10
1.8432896784
 20
1.795125237
 30
0.0
 11
1.8432896784
 21
2.709248118
 31
0.0
  0
LINE
  5
95
330
1F
100
AcDbEntity
  8
SK1
  6
Continuous
100
AcDbLine
 10
2.8432896784
 20
1.795125237
 30
0.0
 11
2.8432896784
 21
2.709248118
 31
0.0
  0
LINE
  5
96
330
1F
100
AcDbEntity
  8
SK1
  6
Continuous
100
AcDbLine
 10
2.9432896784
 20
2.1957344357
 30
0.0
 11
2.9432896784
 21
3.4031236041
 31
0.0
  0
LINE
  5
97
330
1F
100
AcDbEntity
  8
SK1
  6
Continuous
100
AcDbLine
 10
3.1432896784
 20
2.2958508334
 30
0.0
 11
3.1432896784
 21
3.5765302916
 31
0.0
  0
LINE
  5
98
330
1F
100
AcDbEntity
  8
SK3
100
AcDbLine
 10
-6.4113321019
 20
0.7017949172
 30
0.0
 11
-8.545393983
 21
1.2252339663
 31
0.0
  0
ELLIPSE
  5
99
330
1F
100
AcDbEntity
  8
SK1
  6
Continuous
100
AcDbEllipse
 10
-0.5501293634
 20
-0.5626257875
 30
0.0
 11
-7.95835643529644
 21
2.309153463185202
 31
0.0
210
0.0
220
0.0
230
1.0
 40
0.3799835389
 41
0.0566369020472891
 42
0.1629839834984179
  0
LINE
  5
9A
330
1F
100
AcDbEntity
  8
SK3
100
AcDbLine
 10
-6.4113321019
 20
0.8749999979
 30
0.0
 11
-6.4113321019
 21
1.0482050787
 31
0.0
  0
LINE
  5
9B
330
1F
100
AcDbEntity
  8
SK3
100
AcDbLine
 10
-6.4113321019
 20
0.7017949172
 30
0.0
 11
-6.4113321019
 21
0.8749999979
 31
0.0
  0
SPLINE
  5
9C
330
1F
100
AcDbEntity
  8
SK1
  6
Continuous
100
AcDbSpline
210
0.0
220
0.0
230
1.0
 70
     8
 71
     3
 72
    17
 73
    13
 74
     0
 42
0.0000001408956736
 43
0.0000000001
 12
1.0
 22
0.0
 32
0.0
 13
1.0
 23
0.0
 33
0.0
 40
0.0
 40
0.0
 40
0.0
 40
0.0
 40
0.2873498726775665
 40
0.2873498726775665
 40
0.2873498726775665
 40
0.6101910854468047
 40
0.6101910854468047
 40
0.6101910854468047
 40
0.932776814080018
 40
0.932776814080018
 40
0.932776814080018
 40
1.0
 40
1.0
 40
1.0
 40
1.0
 10
4.543289678427262
 20
1.718213135267372
 30
0.0
 10
4.543289678427262
 20
1.723208411904123
 30
0.0
 10
4.541763224353017
 20
1.728258562701686
 30
0.0
 10
4.538810321927752
 20
1.733030656633536
 30
0.0
 10
4.535493334658779
 20
1.738391136777699
 30
0.0
 10
4.530278879148165
 20
1.743539312868556
 30
0.0
 10
4.523597622842431
 20
1.748047699725943
 30
0.0
 10
4.516921668399194
 20
1.752552508985627
 30
0.0
 10
4.508596605643843
 20
1.756542954361678
 30
0.0
 10
4.499311926042415
 20
1.759686849966319
 30
0.0
 10
4.497350480173227
 20
1.760351017316361
 30
0.0
 10
4.495340531485016
 20
1.760980707765178
 30
0.0
 10
4.493289678427262
 20
1.761573528292145
 30
0.0
  0
ARC
  5
9D
330
1F
100
AcDbEntity
  8
SK1
  6
Continuous
100
AcDbCircle
 10
3.8171326602
 20
1.7644484934
 30
0.0
 40
0.1849932783509458
100
AcDbArc
 50
74.52416981
 51
90.1975699125
  0
LINE
  5
9E
330
1F
100
AcDbEntity
  8
SK3
100
AcDbLine
 10
-6.4113321019
 20
1.0482050787
 30
0.0
 11
-7.4481012626
 21
1.3025020456
 31
0.0
  0
LINE
  5
9F
330
1F
100
AcDbEntity
  8
SK1
  6
Continuous
100
AcDbLine
 10
-7.4481012626
 20
1.3025020456
 30
0.0
 11
-8.545393983
 21
1.5716441278
 31
0.0
  0
SPLINE
  5
A0
330
1F
100
AcDbEntity
  8
SK1
  6
Continuous
100
AcDbSpline
210
0.0
220
0.0
230
1.0
 70
     8
 71
     3
 72
    11
 73
     7
 74
     0
 42
0.0000000009695428
 43
0.0000000001
 12
1.0
 22
0.0
 32
0.0
 13
1.0
 23
0.0
 33
0.0
 40
0.0
 40
0.0
 40
0.0
 40
0.0
 40
0.4327632297293574
 40
0.4327632297293574
 40
0.4327632297293574
 40
1.0
 40
1.0
 40
1.0
 40
1.0
 10
-8.545393982974243
 20
1.571644127795606
 30
0.0
 10
-7.061231072855511
 20
1.676203182104009
 30
0.0
 10
-5.577052230947208
 20
1.780705703839802
 30
0.0
 10
-4.09286486674647
 20
1.885177943059661
 30
0.0
 10
-2.147492456088203
 20
2.022113088015199
 30
0.0
 10
-0.2021051985335422
 20
2.158995504189455
 30
0.0
 10
1.743289678427264
 20
2.295850833407003
 30
0.0
  0
LINE
  5
A1
330
1F
100
AcDbEntity
  8
SK1
  6
Continuous
100
AcDbLine
 10
1.7432896784
 20
2.2958508334
 30
0.0
 11
1.7432896784
 21
1.9494406719
 31
0.0
  0
SPLINE
  5
A2
330
1F
100
AcDbEntity
  8
SK1
  6
Continuous
100
AcDbSpline
210
0.0
220
0.0
230
1.0
 70
     8
 71
     3
 72
    23
 73
    19
 74
     0
 42
0.0000000822181931
 43
0.0000000001
 12
1.0
 22
0.0
 32
0.0
 13
1.0
 23
0.0
 33
0.0
 40
0.0
 40
0.0
 40
0.0
 40
0.0
 40
0.0716827801062105
 40
0.0716827801062105
 40
0.0716827801062105
 40
0.2871712718622645
 40
0.2871712718622645
 40
0.2871712718622645
 40
0.5026075956005028
 40
0.5026075956005028
 40
0.5026075956005028
 40
0.7177584710226396
 40
0.7177584710226396
 40
0.7177584710226396
 40
0.9325126544278991
 40
0.9325126544278991
 40
0.9325126544278991
 40
1.0
 40
1.0
 40
1.0
 40
1.0
 10
1.743289678426281
 20
1.845217339414806
 30
0.0
 10
1.743289678427265
 20
1.843337345515427
 30
0.0
 10
1.743501650715276
 20
1.841454389741012
 30
0.0
 10
1.743923598304758
 20
1.839586271136765
 30
0.0
 10
1.745184003193166
 20
1.834005990837484
 30
0.0
 10
1.748388487247541
 20
1.828457433709463
 30
0.0
 10
1.753273072676025
 20
1.823400568115324
 30
0.0
 10
1.758156383397414
 20
1.818345022187416
 30
0.0
 10
1.76485412269695
 20
1.813641263714725
 30
0.0
 10
1.772812702366728
 20
1.809680774106162
 30
0.0
 10
1.780760757752525
 20
1.805725521778504
 30
0.0
 10
1.790186300660886
 20
1.802402306304094
 30
0.0
 10
1.800307813197509
 20
1.799988665263649
 30
0.0
 10
1.810410908491019
 20
1.797579416117566
 30
0.0
 10
1.821486718531893
 20
1.796009920334507
 30
0.0
 10
1.832615854041361
 20
1.795411421563998
 30
0.0
 10
1.836158475392261
 20
1.795220907707725
 30
0.0
 10
1.839726625220498
 20
1.795125237024272
 30
0.0
 10
1.84328967842726
 20
1.795125237025126
 30
0.0
  0
LINE
  5
A3
330
1F
100
AcDbEntity
  8
SK1
  6
Continuous
100
AcDbLine
 10
1.8432896784
 20
1.795125237
 30
0.0
 11
2.8432896784
 21
1.795125237
 31
0.0
  0
SPLINE
  5
A4
330
1F
100
AcDbEntity
  8
SK1
  6
Continuous
100
AcDbSpline
210
0.0
220
0.0
230
1.0
 70
     8
 71
     3
 72
    20
 73
    16
 74
     0
 42
0.000000082223659
 43
0.0000000001
 12
1.0
 22
0.0
 32
0.0
 13
1.0
 23
0.0
 33
0.0
 40
0.0
 40
0.0
 40
0.0
 40
0.0
 40
0.2129835119260217
 40
0.2129835119260217
 40
0.2129835119260217
 40
0.42721545409457
 40
0.42721545409457
 40
0.42721545409457
 40
0.6416308211233607
 40
0.6416308211233607
 40
0.6416308211233607
 40
0.8564341873239714
 40
0.8564341873239714
 40
0.8564341873239714
 40
1.0
 40
1.0
 40
1.0
 40
1.0
 10
2.843289678427262
 20
1.795125237025126
 30
0.0
 10
2.854400621110821
 20
1.795125237025126
 30
0.0
 10
2.865663016338097
 20
1.79607901928146
 30
0.0
 10
2.876154621917562
 20
1.797907902798957
 30
0.0
 10
2.886707972373368
 20
1.799747549605806
 30
0.0
 10
2.896771241477459
 20
1.802523332548591
 30
0.0
 10
2.905513996595217
 20
1.806004519138311
 30
0.0
 10
2.914264325343655
 20
1.809488721393139
 30
0.0
 10
2.921932829385987
 20
1.813775292773776
 30
0.0
 10
2.927889231354458
 20
1.818509429184092
 30
0.0
 10
2.933856288367368
 20
1.823252034202487
 30
0.0
 10
2.938269481065338
 20
1.828574282952821
 30
0.0
 10
2.940766558110245
 20
1.834036415894016
 30
0.0
 10
2.942438086830657
 20
1.837692735631743
 30
0.0
 10
2.943289678427264
 20
1.841466715987979
 30
0.0
 10
2.943289678427264
 20
1.845217339414863
 30
0.0
  0
LINE
  5
A5
330
1F
100
AcDbEntity
  8
SK1
  6
Continuous
100
AcDbLine
 10
2.9432896784
 20
1.8493242742
 30
0.0
 11
2.9432896784
 21
2.1957344357
 31
0.0
  0
LINE
  5
A6
330
1F
100
AcDbEntity
  8
SK1
  6
Continuous
100
AcDbLine
 10
2.9432896784
 20
2.1957344357
 30
0.0
 11
3.1432896784
 21
2.2958508334
 31
0.0
  0
LINE
  5
A7
330
1F
100
AcDbEntity
  8
SK1
  6
Continuous
100
AcDbLine
 10
3.1432896784
 20
2.2958508334
 30
0.0
 11
3.8164947592
 21
2.2958508334
 31
0.0
  0
LINE
  5
A8
330
1F
100
AcDbEntity
  8
SK1
  6
Continuous
100
AcDbLine
 10
3.8664947592
 20
2.2891446504
 30
0.0
 11
4.4932896784
 21
2.1079836898
 31
0.0
  0
LINE
  5
A9
330
1F
100
AcDbEntity
  8
SK1
  6
Continuous
100
AcDbLine
 10
4.5432896784
 20
2.0646232968
 30
0.0
 11
4.5432896784
 21
1.7182131353
 31
0.0
  0
LINE
  5
AA
330
1F
100
AcDbEntity
  8
SK3
100
AcDbLine
 10
4.2432896784
 20
1.0424720112
 30
0.0
 11
-6.3838716662
 21
1.0424720112
 31
0.0
  0
LINE
  5
AB
330
1F
100
AcDbEntity
  8
SK3
100
AcDbLine
 10
-6.3838716662
 20
0.6960618497
 30
0.0
 11
-6.4113321019
 21
0.7017949172
 31
0.0
  0
SPLINE
  5
AC
330
1F
100
AcDbEntity
  8
SK1
  6
Continuous
100
AcDbSpline
210
0.0
220
0.0
230
1.0
 70
     8
 71
     3
 72
    11
 73
     7
 74
     0
 42
0.0000000009695428
 43
0.0000000001
 12
1.0
 22
0.0
 32
0.0
 13
1.0
 23
0.0
 33
0.0
 40
0.0
 40
0.0
 40
0.0
 40
0.0
 40
0.4327632297293569
 40
0.4327632297293569
 40
0.4327632297293569
 40
1.0
 40
1.0
 40
1.0
 40
1.0
 10
-8.545393982974243
 20
1.225233966281831
 30
0.0
 10
-7.061231072855511
 20
1.329793020590235
 30
0.0
 10
-5.57705223094721
 20
1.434295542326028
 30
0.0
 10
-4.092864866746473
 20
1.538767781545887
 30
0.0
 10
-2.147492456088205
 20
1.675702926501425
 30
0.0
 10
-0.2021051985335448
 20
1.812585342675679
 30
0.0
 10
1.743289678427264
 20
1.949440671893229
 30
0.0
  0
SPLINE
  5
AD
330
1F
100
AcDbEntity
  8
SK1
  6
Continuous
100
AcDbSpline
210
0.0
220
0.0
230
1.0
 70
     8
 71
     3
 72
    23
 73
    19
 74
     0
 42
0.0000000822181931
 43
0.0000000001
 12
1.0
 22
0.0
 32
0.0
 13
1.0
 23
0.0
 33
0.0
 40
0.0
 40
0.0
 40
0.0
 40
0.0
 40
0.0716827801062063
 40
0.0716827801062063
 40
0.0716827801062063
 40
0.2871712718622639
 40
0.2871712718622639
 40
0.2871712718622639
 40
0.5026075956005045
 40
0.5026075956005045
 40
0.5026075956005045
 40
0.7177584710226442
 40
0.7177584710226442
 40
0.7177584710226442
 40
0.9325126544278987
 40
0.9325126544278987
 40
0.9325126544278987
 40
1.0
 40
1.0
 40
1.0
 40
1.0
 10
1.743289678426281
 20
1.498807177901033
 30
0.0
 10
1.743289678427265
 20
1.496927184001652
 30
0.0
 10
1.743501650715276
 20
1.495044228227238
 30
0.0
 10
1.743923598304758
 20
1.493176109622991
 30
0.0
 10
1.745184003193166
 20
1.48759582932371
 30
0.0
 10
1.748388487247541
 20
1.48204727219569
 30
0.0
 10
1.753273072676025
 20
1.47699040660155
 30
0.0
 10
1.758156383397414
 20
1.471934860673643
 30
0.0
 10
1.764854122696949
 20
1.46723110220095
 30
0.0
 10
1.772812702366728
 20
1.463270612592387
 30
0.0
 10
1.780760757752525
 20
1.459315360264729
 30
0.0
 10
1.790186300660887
 20
1.455992144790319
 30
0.0
 10
1.80030781319751
 20
1.453578503749875
 30
0.0
 10
1.810410908491019
 20
1.451169254603792
 30
0.0
 10
1.821486718531892
 20
1.449599758820733
 30
0.0
 10
1.832615854041361
 20
1.449001260050224
 30
0.0
 10
1.836158475392261
 20
1.448810746193951
 30
0.0
 10
1.839726625220498
 20
1.448715075510498
 30
0.0
 10
1.84328967842726
 20
1.448715075511353
 30
0.0
  0
LINE
  5
AE
330
1F
100
AcDbEntity
  8
SK1
  6
Continuous
100
AcDbLine
 10
1.8432896784
 20
1.4487150755
 30
0.0
 11
2.8432896784
 21
1.4487150755
 31
0.0
  0
SPLINE
  5
AF
330
1F
100
AcDbEntity
  8
SK1
  6
Continuous
100
AcDbSpline
210
0.0
220
0.0
230
1.0
 70
     8
 71
     3
 72
    20
 73
    16
 74
     0
 42
0.000000082223659
 43
0.0000000001
 12
1.0
 22
0.0
 32
0.0
 13
1.0
 23
0.0
 33
0.0
 40
0.0
 40
0.0
 40
0.0
 40
0.0
 40
0.2129835119260286
 40
0.2129835119260286
 40
0.2129835119260286
 40
0.4272154540945779
 40
0.4272154540945779
 40
0.4272154540945779
 40
0.6416308211233642
 40
0.6416308211233642
 40
0.6416308211233642
 40
0.8564341873239767
 40
0.8564341873239767
 40
0.8564341873239767
 40
1.0
 40
1.0
 40
1.0
 40
1.0
 10
2.843289678427262
 20
1.448715075511352
 30
0.0
 10
2.854400621110821
 20
1.448715075511353
 30
0.0
 10
2.865663016338098
 20
1.449668857767686
 30
0.0
 10
2.876154621917563
 20
1.451497741285182
 30
0.0
 10
2.886707972373369
 20
1.453337388092031
 30
0.0
 10
2.89677124147746
 20
1.456113171034817
 30
0.0
 10
2.905513996595218
 20
1.459594357624537
 30
0.0
 10
2.914264325343656
 20
1.463078559879365
 30
0.0
 10
2.921932829385987
 20
1.467365131260002
 30
0.0
 10
2.927889231354459
 20
1.472099267670318
 30
0.0
 10
2.933856288367369
 20
1.476841872688713
 30
0.0
 10
2.938269481065338
 20
1.482164121439048
 30
0.0
 10
2.940766558110245
 20
1.487626254380243
 30
0.0
 10
2.942438086830657
 20
1.49128257411797
 30
0.0
 10
2.943289678427264
 20
1.495056554474205
 30
0.0
 10
2.943289678427264
 20
1.498807177901089
 30
0.0
  0
LINE
  5
B0
330
1F
100
AcDbEntity
  8
SK1
  6
Continuous
100
AcDbLine
 10
2.9432896784
 20
1.8493242742
 30
0.0
 11
3.1432896784
 21
1.9494406719
 31
0.0
  0
LINE
  5
B1
330
1F
100
AcDbEntity
  8
SK1
  6
Continuous
100
AcDbLine
 10
3.1432896784
 20
1.9494406719
 30
0.0
 11
3.8164947592
 21
1.9494406719
 31
0.0
  0
LINE
  5
B2
330
1F
100
AcDbEntity
  8
SK1
  6
Continuous
100
AcDbLine
 10
3.8664947592
 20
1.9427344889
 30
0.0
 11
4.4932896784
 21
1.7615735283
 31
0.0
  0
LINE
  5
B3
330
1F
100
AcDbEntity
  8
SK3
100
AcDbLine
 10
4.2432896784
 20
0.6960618497
 30
0.0
 11
-6.3838716662
 21
0.6960618497
 31
0.0
  0
LINE
  5
B4
330
1F
100
AcDbEntity
  8
SK3
100
AcDbLine
 10
-6.3838716662
 20
1.0424720112
 30
0.0
 11
-6.4113321019
 21
1.0482050787
 31
0.0
  0
SPLINE
  5
B5
330
1F
100
AcDbEntity
  8
SK1
  6
Continuous
100
AcDbSpline
210
0.0
220
0.0
230
1.0
 70
     8
 71
     3
 72
    17
 73
    13
 74
     0
 42
0.0000001408956736
 43
0.0000000001
 12
1.0
 22
0.0
 32
0.0
 13
1.0
 23
0.0
 33
0.0
 40
0.0
 40
0.0
 40
0.0
 40
0.0
 40
0.287349872678657
 40
0.287349872678657
 40
0.287349872678657
 40
0.610191085447906
 40
0.610191085447906
 40
0.610191085447906
 40
0.9327768140811216
 40
0.9327768140811216
 40
0.9327768140811216
 40
1.0
 40
1.0
 40
1.0
 40
1.0
 10
4.543289678427262
 20
2.064623296781145
 30
0.0
 10
4.543289678427262
 20
2.069618573417917
 30
0.0
 10
4.541763224353007
 20
2.074668724215499
 30
0.0
 10
4.538810321927718
 20
2.079440818147365
 30
0.0
 10
4.535493334658733
 20
2.084801298291526
 30
0.0
 10
4.530278879148107
 20
2.089949474382379
 30
0.0
 10
4.52359762284236
 20
2.094457861239763
 30
0.0
 10
4.516921668399115
 20
2.098962670499444
 30
0.0
 10
4.508596605643755
 20
2.10295311587549
 30
0.0
 10
4.499311926042318
 20
2.106097011480125
 30
0.0
 10
4.497350480173163
 20
2.106761178830156
 30
0.0
 10
4.495340531484982
 20
2.107390869278962
 30
0.0
 10
4.493289678427262
 20
2.107983689805919
 30
0.0
  0
ARC
  5
B6
330
1F
100
AcDbEntity
  8
SK1
  6
Continuous
100
AcDbCircle
 10
3.8171326602
 20
2.1108586549
 30
0.0
 40
0.1849932783509035
100
AcDbArc
 50
74.52416981
 51
90.1975699125
  0
LINE
  5
B7
330
1F
100
AcDbEntity
  8
SK1
  6
Continuous
100
AcDbLine
 10
3.8164947592
 20
-3.5765302957
 30
0.0
 11
3.8164947592
 21
-2.2958508375
 31
0.0
  0
LINE
  5
B8
330
1F
100
AcDbEntity
  8
SK1
  6
Continuous
100
AcDbLine
 10
3.8664947592
 20
-3.7649148461
 30
0.0
 11
3.8664947592
 21
-4.2318791456
 31
0.0
  0
ARC
  5
B9
330
1F
100
AcDbEntity
  8
SK1
  6
Continuous
100
AcDbCircle
 10
3.816940995
 20
-3.6650281509
 30
0.0
 40
0.1115030377236384
100
AcDbArc
 50
269.7707013546
 51
296.3859979919
  0
ARC
  5
BA
330
1F
100
AcDbEntity
  8
SK1
  6
Continuous
100
AcDbCircle
 10
3.816940995
 20
-3.4650281509
 30
0.0
 40
0.1115030377236219
100
AcDbArc
 50
269.7707013546
 51
296.3859979919
  0
LINE
  5
BB
330
1F
100
AcDbEntity
  8
SK1
  6
Continuous
100
AcDbLine
 10
1.7432896784
 20
-3.5765302957
 30
0.0
 11
1.7432896784
 21
-2.2958508375
 31
0.0
  0
LINE
  5
BC
330
1F
100
AcDbEntity
  8
SK1
  6
Continuous
100
AcDbLine
 10
1.8432896784
 20
-2.7092481221
 30
0.0
 11
1.8432896784
 21
-1.7951252412
 31
0.0
  0
LINE
  5
BD
330
1F
100
AcDbEntity
  8
SK1
  6
Continuous
100
AcDbLine
 10
2.8432896784
 20
-2.7092481221
 30
0.0
 11
2.8432896784
 21
-1.7951252412
 31
0.0
  0
SPLINE
  5
BE
330
1F
100
AcDbEntity
  8
SK1
  6
Continuous
100
AcDbSpline
210
0.0
220
0.0
230
1.0
 70
     8
 71
     3
 72
    44
 73
    40
 74
     0
 42
0.0000001543525757
 43
0.0000000001
 12
1.0
 22
0.0
 32
0.0
 13
1.0
 23
0.0
 33
0.0
 40
0.0
 40
0.0
 40
0.0
 40
0.0
 40
0.103399998504275
 40
0.103399998504275
 40
0.103399998504275
 40
0.2510029346248043
 40
0.2510029346248043
 40
0.2510029346248043
 40
0.3329171298359725
 40
0.3329171298359725
 40
0.3329171298359725
 40
0.3862856122109999
 40
0.3862856122109999
 40
0.3862856122109999
 40
0.4378097776921299
 40
0.4378097776921299
 40
0.4378097776921299
 40
0.4592997815096558
 40
0.4592997815096558
 40
0.4592997815096558
 40
0.4812150967970692
 40
0.4812150967970692
 40
0.4812150967970692
 40
0.4940039690060162
 40
0.4940039690060162
 40
0.4940039690060162
 40
0.5067972205889953
 40
0.5067972205889953
 40
0.5067972205889953
 40
0.5248447380389475
 40
0.5248447380389475
 40
0.5248447380389475
 40
0.5593609078873145
 40
0.5593609078873145
 40
0.5593609078873145
 40
0.6898677971206
 40
0.6898677971206
 40
0.6898677971206
 40
1.0
 40
1.0
 40
1.0
 40
1.0
 10
2.909662308012908
 20
-2.931115206025364
 30
0.0
 10
2.908967882329305
 20
-2.92892304820121
 30
0.0
 10
2.908241581277166
 20
-2.92671910141833
 30
0.0
 10
2.907469068245511
 20
-2.924499107818066
 30
0.0
 10
2.906365595293542
 20
-2.921328024883469
 30
0.0
 10
2.905174904018582
 20
-2.918124219926024
 30
0.0
 10
2.903791548150159
 20
-2.914860677145371
 30
0.0
 10
2.903023756642052
 20
-2.913049342484115
 30
0.0
 10
2.902196264450828
 20
-2.911217787264529
 30
0.0
 10
2.901252029032357
 20
-2.909355525014363
 30
0.0
 10
2.900636867020985
 20
-2.908142275681514
 30
0.0
 10
2.899971907350295
 20
-2.906914027587189
 30
0.0
 10
2.899214004360921
 20
-2.905667265091514
 30
0.0
 10
2.898483994680072
 20
-2.904466387532879
 30
0.0
 10
2.897670300071549
 20
-2.903238058147797
 30
0.0
 10
2.896656609473868
 20
-2.902001510958737
 30
0.0
 10
2.896232404464611
 20
-2.901484045853527
 30
0.0
 10
2.895768185618997
 20
-2.900961344226461
 30
0.0
 10
2.895247407007859
 20
-2.90044962711736
 30
0.0
 10
2.894720989378479
 20
-2.89993236910844
 30
0.0
 10
2.89411797573718
 20
-2.899410980305365
 30
0.0
 10
2.893459797324647
 20
-2.898961207825433
 30
0.0
 10
2.893072109881096
 20
-2.898696277922532
 30
0.0
 10
2.892657228961936
 20
-2.898452323071002
 30
0.0
 10
2.892247465581437
 20
-2.898254001911615
 30
0.0
 10
2.891837346364125
 20
-2.89805550853096
 30
0.0
 10
2.891423412812785
 20
-2.897898161882348
 30
0.0
 10
2.891035638851379
 20
-2.897785916690039
 30
0.0
 10
2.890489850163613
 20
-2.897627932497402
 30
0.0
 10
2.889979618187447
 20
-2.8975514255562
 30
0.0
 10
2.889518553147985
 20
-2.89752611919067
 30
0.0
 10
2.88863936403504
 20
-2.897477863350045
 30
0.0
 10
2.887897661948144
 20
-2.897600913985091
 30
0.0
 10
2.887235334527848
 20
-2.89778267644706
 30
0.0
 10
2.884750006525235
 20
-2.898464724815757
 30
0.0
 10
2.88310128268756
 20
-2.899890042142417
 30
0.0
 10
2.881563407007576
 20
-2.901340080906079
 30
0.0
 10
2.877907559520884
 20
-2.904787121937246
 30
0.0
 10
2.875186422195182
 20
-2.908896174375977
 30
0.0
 10
2.872570328307543
 20
-2.913050960430364
 30
0.0
  0
SPLINE
  5
BF
330
1F
100
AcDbEntity
  8
SK1
  6
Continuous
100
AcDbSpline
210
0.0
220
0.0
230
1.0
 70
     8
 71
     3
 72
    44
 73
    40
 74
     0
 42
0.0000001511859154
 43
0.0000000001
 12
1.0
 22
0.0
 32
0.0
 13
1.0
 23
0.0
 33
0.0
 40
0.0
 40
0.0
 40
0.0
 40
0.0
 40
0.0533967363918884
 40
0.0533967363918884
 40
0.0533967363918884
 40
0.2696917067665375
 40
0.2696917067665375
 40
0.2696917067665375
 40
0.344323446491588
 40
0.344323446491588
 40
0.344323446491588
 40
0.3961764474523337
 40
0.3961764474523337
 40
0.3961764474523337
 40
0.4458753360287714
 40
0.4458753360287714
 40
0.4458753360287714
 40
0.4685497580894369
 40
0.4685497580894369
 40
0.4685497580894369
 40
0.4872892839294642
 40
0.4872892839294642
 40
0.4872892839294642
 40
0.5003381546932183
 40
0.5003381546932183
 40
0.5003381546932183
 40
0.5134387868898422
 40
0.5134387868898422
 40
0.5134387868898422
 40
0.5302144556317846
 40
0.5302144556317846
 40
0.5302144556317846
 40
0.5604603881684767
 40
0.5604603881684767
 40
0.5604603881684767
 40
0.6649817186688677
 40
0.6649817186688677
 40
0.6649817186688677
 40
1.0
 40
1.0
 40
1.0
 40
1.0
 10
2.872570328307546
 20
-2.713050960430365
 30
0.0
 10
2.873026374712297
 20
-2.71421943718954
 30
0.0
 10
2.873489293518946
 20
-2.715390184451653
 30
0.0
 10
2.873960673184113
 20
-2.716563653191087
 30
0.0
 10
2.875869440438509
 20
-2.721315403997089
 30
0.0
 10
2.877886394030538
 20
-2.726108120914633
 30
0.0
 10
2.88029281637619
 20
-2.731008648937614
 30
0.0
 10
2.88112363540987
 20
-2.732700559737865
 30
0.0
 10
2.882004446217457
 20
-2.73440748259078
 30
0.0
 10
2.882980689297595
 20
-2.736136179168971
 30
0.0
 10
2.883658889488385
 20
-2.737337111982733
 30
0.0
 10
2.884383329409828
 20
-2.738550388234226
 30
0.0
 10
2.885193565158532
 20
-2.739777657397816
 30
0.0
 10
2.885968511906039
 20
-2.740951474090254
 30
0.0
 10
2.886820726061214
 20
-2.742147509653011
 30
0.0
 10
2.88784950652913
 20
-2.743343956709794
 30
0.0
 10
2.888319965612589
 20
-2.743891089361798
 30
0.0
 10
2.888832784220066
 20
-2.744442740213714
 30
0.0
 10
2.889405257535817
 20
-2.744978684582944
 30
0.0
 10
2.889876594993183
 20
-2.745419946471197
 30
0.0
 10
2.890399350879857
 20
-2.745859090601944
 30
0.0
 10
2.890961754298581
 20
-2.7462506564459
 30
0.0
 10
2.891354294775058
 20
-2.746523957492518
 30
0.0
 10
2.891774654517928
 20
-2.746778248432188
 30
0.0
 10
2.892192398774139
 20
-2.746986698419177
 30
0.0
 10
2.892611385643385
 20
-2.747195768456993
 30
0.0
 10
2.893037150420096
 20
-2.747362996350838
 30
0.0
 10
2.893434526884122
 20
-2.747480166166634
 30
0.0
 10
2.893942992292702
 20
-2.747630091498544
 30
0.0
 10
2.89442007559273
 20
-2.747705364426018
 30
0.0
 10
2.894849618592054
 20
-2.747730420540724
 30
0.0
 10
2.895621927739267
 20
-2.747775470900317
 30
0.0
 10
2.896275144986747
 20
-2.747670647112197
 30
0.0
 10
2.896853141199364
 20
-2.747509476858322
 30
0.0
 10
2.89883481299033
 20
-2.746956901359256
 30
0.0
 10
2.900141896888884
 20
-2.745804350830936
 30
0.0
 10
2.901324916941506
 20
-2.744609894633996
 30
0.0
 10
2.905108800097961
 20
-2.740789433032601
 30
0.0
 10
2.907441285011856
 20
-2.73596318446399
 30
0.0
 10
2.909662308012909
 20
-2.731115206025364
 30
0.0
  0
LINE
  5
C0
330
1F
100
AcDbEntity
  8
SK1
  6
Continuous
100
AcDbLine
 10
2.9432896784
 20
-3.4031236082
 30
0.0
 11
2.9432896784
 21
-2.1957344398
 31
0.0
  0
LINE
  5
C1
330
1F
100
AcDbEntity
  8
SK1
  6
Continuous
100
AcDbLine
 10
3.1432896784
 20
-3.5765302957
 30
0.0
 11
3.1432896784
 21
-2.2958508375
 31
0.0
  0
LINE
  5
C2
330
1F
100
AcDbEntity
  8
SK1
  6
Continuous
100
AcDbLine
 10
-9.0567103216
 20
-2.1087735196
 30
0.0
 11
-9.0567103216
 21
-0.2000000021
 31
0.0
  0
LINE
  5
C3
330
1F
100
AcDbEntity
  8
SK1
  6
Continuous
100
AcDbLine
 10
-8.8845449418
 20
-2.4807815342
 30
0.0
 11
-8.8845449418
 21
-2.7563552535
 31
0.0
  0
ARC
  5
C4
330
1F
100
AcDbEntity
  8
SK3
100
AcDbCircle
 10
0.052933502
 20
-1.5173815793
 30
0.0
 40
0.1554298741275665
100
AcDbArc
 50
325.4120756641
 51
0.6772295964
  0
ARC
  5
C5
330
1F
100
AcDbEntity
  8
SK3
100
AcDbCircle
 10
-0.0586224681
 20
-1.5238398603
 30
0.0
 40
0.267103832382625
100
AcDbArc
 50
1.7797121632
 51
26.2711355977
  0
LINE
  5
C6
330
1F
100
AcDbEntity
  8
SK3
100
AcDbLine
 10
0.2083525188
 20
-1.5155444587
 30
0.0
 11
0.2083525188
 21
-1.6155444587
 31
0.0
  0
LINE
  5
C7
330
1F
100
AcDbEntity
  8
SK3
100
AcDbLine
 10
0.2083525188
 20
-1.4155444587
 30
0.0
 11
0.2083525188
 21
-1.5155444587
 31
0.0
  0
LINE
  5
C8
330
1F
100
AcDbEntity
  8
SK3
100
AcDbLine
 10
2.909662308
 20
-2.731115206
 30
0.0
 11
4.2389234133
 21
-3.3784815439
 31
0.0
  0
ARC
  5
C9
330
1F
100
AcDbEntity
  8
SK1
  6
Continuous
100
AcDbCircle
 10
3.0960393181
 20
-3.4784815439
 30
0.0
 40
1.147250650458428
100
AcDbArc
 50
354.9994727333
 51
5.0005272667
  0
LINE
  5
CA
330
1F
100
AcDbEntity
  8
SK3
100
AcDbLine
 10
0.2083525188
 20
-1.4155444587
 30
0.0
 11
2.8725703283
 21
-2.7130509604
 31
0.0
  0
ARC
  5
CB
330
1F
100
AcDbEntity
  8
SK3
100
AcDbCircle
 10
-7.661968151
 20
-7.0752535092
 30
0.0
 40
5.669641452608735
100
AcDbArc
 50
89.946865868
 51
104.2410464657
  0
SPLINE
  5
CC
330
1F
100
AcDbEntity
  8
SK1
  6
Continuous
100
AcDbSpline
210
0.0
220
0.0
230
1.0
 70
     8
 71
     3
 72
    10
 73
     6
 74
     0
 42
0.0000000368063325
 43
0.0000000001
 12
1.0
 22
0.0
 32
0.0
 13
1.0
 23
0.0
 33
0.0
 40
0.0
 40
0.0
 40
0.0
 40
0.0
 40
0.5
 40
0.5
 40
1.0
 40
1.0
 40
1.0
 40
1.0
 10
-9.056710321572854
 20
-2.108773519629687
 30
0.0
 10
-9.056710321572742
 20
-2.150077492224058
 30
0.0
 10
-9.038928189533086
 20
-2.191418075497861
 30
0.0
 10
-8.976687545696224
 20
-2.253746647735578
 30
0.0
 10
-8.932282498160781
 20
-2.274955948184286
 30
0.0
 10
-8.884544941764752
 20
-2.28078153423587
 30
0.0
  0
LINE
  5
CD
330
1F
100
AcDbEntity
  8
SK3
100
AcDbLine
 10
-7.6567103216
 20
-1.6056144946
 30
0.0
 11
0.180892083
 21
-1.6056144946
 31
0.0
  0
LINE
  5
CE
330
1F
100
AcDbEntity
  8
SK3
100
AcDbLine
 10
0.2083525188
 20
-1.6155444587
 30
0.0
 11
2.4540944665
 21
-2.7092481221
 31
0.0
  0
LINE
  5
CF
330
1F
100
AcDbEntity
  8
SK1
  6
Continuous
100
AcDbLine
 10
2.4540944665
 20
-2.7092481221
 30
0.0
 11
2.8725703283
 21
-2.9130509604
 31
0.0
  0
ARC
  5
D0
330
1F
100
AcDbEntity
  8
SK1
  6
Continuous
100
AcDbCircle
 10
2.8433289013
 20
-3.0235734002
 30
0.0
 40
0.1143252848368118
100
AcDbArc
 50
75.1805512136
 51
90.0196570926
  0
LINE
  5
D1
330
1F
100
AcDbEntity
  8
SK1
  6
Continuous
100
AcDbLine
 10
2.8432896784
 20
-2.9092481221
 30
0.0
 11
1.8432896784
 21
-2.9092481221
 31
0.0
  0
SPLINE
  5
D2
330
1F
100
AcDbEntity
  8
SK1
  6
Continuous
100
AcDbSpline
210
0.0
220
0.0
230
1.0
 70
     8
 71
     3
 72
    20
 73
    16
 74
     0
 42
0.0000000678037529
 43
0.0000000001
 12
1.0
 22
0.0
 32
0.0
 13
1.0
 23
0.0
 33
0.0
 40
0.0
 40
0.0
 40
0.0
 40
0.0
 40
0.2129835119260313
 40
0.2129835119260313
 40
0.2129835119260313
 40
0.4272154540945848
 40
0.4272154540945848
 40
0.4272154540945848
 40
0.6416308211233713
 40
0.6416308211233713
 40
0.6416308211233713
 40
0.856434187323989
 40
0.856434187323989
 40
0.856434187323989
 40
1.0
 40
1.0
 40
1.0
 40
1.0
 10
1.843289678427259
 20
-2.909248122111846
 30
0.0
 10
1.832178735743701
 20
-2.909248122111846
 30
0.0
 10
1.820916340516424
 20
-2.910900121439176
 30
0.0
 10
1.810424734936958
 20
-2.914067840612605
 30
0.0
 10
1.799871384481152
 20
-2.91725420235005
 30
0.0
 10
1.789808115377062
 20
-2.922061999437739
 30
0.0
 10
1.781065360259303
 20
-2.928091591481761
 30
0.0
 10
1.772315031510865
 20
-2.934126406810968
 30
0.0
 10
1.764646527468534
 20
-2.941550966232501
 30
0.0
 10
1.758690125500064
 20
-2.949750731025131
 30
0.0
 10
1.752723068487155
 20
-2.957965163877222
 30
0.0
 10
1.748309875789184
 20
-2.967183569123322
 30
0.0
 10
1.745812798744277
 20
-2.976644260895167
 30
0.0
 10
1.744141270023865
 20
-2.982977192449627
 30
0.0
 10
1.743289678427259
 20
-2.989513918173395
 30
0.0
 10
1.743289678427264
 20
-2.996010188508813
 30
0.0
  0
LINE
  5
D3
330
1F
100
AcDbEntity
  8
SK1
  6
Continuous
100
AcDbLine
 10
1.7432896784
 20
-3.5765302957
 30
0.0
 11
1.7432896784
 21
-3.7765302957
 31
0.0
  0
SPLINE
  5
D4
330
1F
100
AcDbEntity
  8
SK1
  6
Continuous
100
AcDbSpline
210
0.0
220
0.0
230
1.0
 70
     8
 71
     3
 72
    11
 73
     7
 74
     0
 42
0.0000000009340092
 43
0.0000000001
 12
1.0
 22
0.0
 32
0.0
 13
1.0
 23
0.0
 33
0.0
 40
0.0
 40
0.0
 40
0.0
 40
0.0
 40
0.6952066153846741
 40
0.6952066153846741
 40
0.6952066153846741
 40
1.0
 40
1.0
 40
1.0
 40
1.0
 10
1.743289678427264
 20
-3.776530295695483
 30
0.0
 10
-0.7195860988484203
 20
-3.476436455801625
 30
0.0
 10
-3.182450285707346
 20
-3.176271228246316
 30
0.0
 10
-5.645286144138782
 20
-2.875931779823468
 30
0.0
 10
-6.725045831844072
 20
-2.744256569750324
 30
0.0
 10
-7.804799888158022
 20
-2.612546714582295
 30
0.0
 10
-8.884544941764752
 20
-2.480781534235869
 30
0.0
  0
LINE
  5
D5
330
1F
100
AcDbEntity
  8
SK1
  6
Continuous
100
AcDbLine
 10
-9.0567103216
 20
-2.3087735196
 30
0.0
 11
-9.0567103216
 21
-2.1087735196
 31
0.0
  0
LINE
  5
D6
330
1F
100
AcDbEntity
  8
SK1
  6
Continuous
100
AcDbLine
 10
2.9432896784
 20
-3.6031236082
 30
0.0
 11
2.9432896784
 21
-3.4031236082
 31
0.0
  0
ARC
  5
D7
330
1F
100
AcDbEntity
  8
SK1
  6
Continuous
100
AcDbCircle
 10
2.8611208518
 20
-2.9974285135
 30
0.0
 40
0.0821810666147713
100
AcDbArc
 50
0.9888904
 51
53.7958075001
  0
LINE
  5
D8
330
1F
100
AcDbEntity
  8
SK1
  6
Continuous
100
AcDbLine
 10
2.909662308
 20
-2.931115206
 30
0.0
 11
2.9432896784
 21
-2.9474921447
 31
0.0
  0
LINE
  5
D9
330
1F
100
AcDbEntity
  8
SK3
100
AcDbLine
 10
2.9432896784
 20
-2.9474921447
 30
0.0
 11
4.0364123033
 21
-3.4798561684
 31
0.0
  0
LINE
  5
DA
330
1F
100
AcDbEntity
  8
SK1
  6
Continuous
100
AcDbLine
 10
4.0364123033
 20
-3.4798561684
 30
0.0
 11
4.2389234133
 21
-3.5784815439
 31
0.0
  0
LINE
  5
DB
330
1F
100
AcDbEntity
  8
SK1
  6
Continuous
100
AcDbLine
 10
4.2389234133
 20
-3.5784815439
 30
0.0
 11
3.8664947592
 21
-3.7649148461
 31
0.0
  0
LINE
  5
DC
330
1F
100
AcDbEntity
  8
SK1
  6
Continuous
100
AcDbLine
 10
3.8164947592
 20
-3.7765302957
 30
0.0
 11
3.1432896784
 21
-3.7765302957
 31
0.0
  0
LINE
  5
DD
330
1F
100
AcDbEntity
  8
SK1
  6
Continuous
100
AcDbLine
 10
3.1432896784
 20
-3.7765302957
 30
0.0
 11
2.9432896784
 21
-3.6031236082
 31
0.0
  0
LINE
  5
DE
330
1F
100
AcDbEntity
  8
SK3
100
AcDbLine
 10
0.180892083
 20
-1.4056144946
 30
0.0
 11
0.2083525188
 21
-1.4155444587
 31
0.0
  0
LINE
  5
DF
330
1F
100
AcDbEntity
  8
SK3
100
AcDbLine
 10
-7.6567103216
 20
-1.4056144946
 30
0.0
 11
0.180892083
 21
-1.4056144946
 31
0.0
  0
LINE
  5
E0
330
1F
100
AcDbEntity
  8
SK1
  6
Continuous
100
AcDbLine
 10
4.2389234133
 20
-3.3784815439
 30
0.0
 11
3.8664947592
 21
-3.5649148461
 31
0.0
  0
LINE
  5
E1
330
1F
100
AcDbEntity
  8
SK1
  6
Continuous
100
AcDbLine
 10
3.8164947592
 20
-3.5765302957
 30
0.0
 11
3.1432896784
 21
-3.5765302957
 31
0.0
  0
LINE
  5
E2
330
1F
100
AcDbEntity
  8
SK1
  6
Continuous
100
AcDbLine
 10
3.1432896784
 20
-3.5765302957
 30
0.0
 11
2.9432896784
 21
-3.4031236082
 31
0.0
  0
ARC
  5
E3
330
1F
100
AcDbEntity
  8
SK1
  6
Continuous
100
AcDbCircle
 10
2.8611208518
 20
-2.7974285135
 30
0.0
 40
0.0821810666147749
100
AcDbArc
 50
0.9888904
 51
53.7958075001
  0
ARC
  5
E4
330
1F
100
AcDbEntity
  8
SK1
  6
Continuous
100
AcDbCircle
 10
2.8433289013
 20
-2.8235734002
 30
0.0
 40
0.1143252848367521
100
AcDbArc
 50
75.1805512136
 51
90.0196570926
  0
LINE
  5
E5
330
1F
100
AcDbEntity
  8
SK1
  6
Continuous
100
AcDbLine
 10
2.8432896784
 20
-2.7092481221
 30
0.0
 11
1.8432896784
 21
-2.7092481221
 31
0.0
  0
SPLINE
  5
E6
330
1F
100
AcDbEntity
  8
SK1
  6
Continuous
100
AcDbSpline
210
0.0
220
0.0
230
1.0
 70
     8
 71
     3
 72
    20
 73
    16
 74
     0
 42
0.0000000678037529
 43
0.0000000001
 12
1.0
 22
0.0
 32
0.0
 13
1.0
 23
0.0
 33
0.0
 40
0.0
 40
0.0
 40
0.0
 40
0.0
 40
0.2129835119260263
 40
0.2129835119260263
 40
0.2129835119260263
 40
0.427215454094577
 40
0.427215454094577
 40
0.427215454094577
 40
0.6416308211233674
 40
0.6416308211233674
 40
0.6416308211233674
 40
0.8564341873239827
 40
0.8564341873239827
 40
0.8564341873239827
 40
1.0
 40
1.0
 40
1.0
 40
1.0
 10
1.843289678427259
 20
-2.709248122111847
 30
0.0
 10
1.832178735743701
 20
-2.709248122111847
 30
0.0
 10
1.820916340516425
 20
-2.710900121439176
 30
0.0
 10
1.81042473493696
 20
-2.714067840612605
 30
0.0
 10
1.799871384481153
 20
-2.71725420235005
 30
0.0
 10
1.789808115377062
 20
-2.722061999437738
 30
0.0
 10
1.781065360259304
 20
-2.728091591481761
 30
0.0
 10
1.772315031510867
 20
-2.734126406810968
 30
0.0
 10
1.764646527468536
 20
-2.741550966232501
 30
0.0
 10
1.758690125500064
 20
-2.749750731025131
 30
0.0
 10
1.752723068487155
 20
-2.757965163877222
 30
0.0
 10
1.748309875789184
 20
-2.767183569123322
 30
0.0
 10
1.745812798744278
 20
-2.776644260895166
 30
0.0
 10
1.744141270023865
 20
-2.782977192449626
 30
0.0
 10
1.743289678427259
 20
-2.789513918173395
 30
0.0
 10
1.743289678427264
 20
-2.796010188508813
 30
0.0
  0
SPLINE
  5
E7
330
1F
100
AcDbEntity
  8
SK1
  6
Continuous
100
AcDbSpline
210
0.0
220
0.0
230
1.0
 70
     8
 71
     3
 72
    11
 73
     7
 74
     0
 42
0.0000000009340092
 43
0.0000000001
 12
1.0
 22
0.0
 32
0.0
 13
1.0
 23
0.0
 33
0.0
 40
0.0
 40
0.0
 40
0.0
 40
0.0
 40
0.695206615384674
 40
0.695206615384674
 40
0.695206615384674
 40
1.0
 40
1.0
 40
1.0
 40
1.0
 10
1.743289678427264
 20
-3.576530295695484
 30
0.0
 10
-0.7195860988484203
 20
-3.276436455801626
 30
0.0
 10
-3.182450285707345
 20
-2.976271228246317
 30
0.0
 10
-5.64528614413878
 20
-2.67593177982347
 30
0.0
 10
-6.72504583184407
 20
-2.544256569750325
 30
0.0
 10
-7.804799888158021
 20
-2.412546714582295
 30
0.0
 10
-8.884544941764752
 20
-2.28078153423587
 30
0.0
  0
ARC
  5
E8
330
1F
100
AcDbEntity
  8
SK3
100
AcDbCircle
 10
-7.661968151
 20
-7.2752535092
 30
0.0
 40
5.669641452608798
100
AcDbArc
 50
89.946865868
 51
104.2410464657
  0
SPLINE
  5
E9
330
1F
100
AcDbEntity
  8
SK1
  6
Continuous
100
AcDbSpline
210
0.0
220
0.0
230
1.0
 70
     8
 71
     3
 72
    10
 73
     6
 74
     0
 42
0.0000000368063325
 43
0.0000000001
 12
1.0
 22
0.0
 32
0.0
 13
1.0
 23
0.0
 33
0.0
 40
0.0
 40
0.0
 40
0.0
 40
0.0
 40
0.5
 40
0.5
 40
1.0
 40
1.0
 40
1.0
 40
1.0
 10
-9.056710321572854
 20
-2.308773519629686
 30
0.0
 10
-9.056710321572742
 20
-2.350077492224058
 30
0.0
 10
-9.038928189533086
 20
-2.391418075497861
 30
0.0
 10
-8.976687545696224
 20
-2.453746647735577
 30
0.0
 10
-8.932282498160784
 20
-2.474955948184286
 30
0.0
 10
-8.884544941764752
 20
-2.480781534235869
 30
0.0
  0
LINE
  5
EA
330
1F
100
AcDbEntity
  8
SK3
100
AcDbLine
 10
0.180892083
 20
-1.6056144946
 30
0.0
 11
0.2083525188
 21
-1.6155444587
 31
0.0
  0
SPLINE
  5
EB
330
1F
100
AcDbEntity
  8
SK3
100
AcDbSpline
210
0.0
220
0.0
230
1.0
 70
     8
 71
     3
 72
    20
 73
    16
 74
     0
 42
0.0000000273823655
 43
0.0000000001
 12
1.0
 22
0.0
 32
0.0
 13
1.0
 23
0.0
 33
0.0
 40
0.0
 40
0.0
 40
0.0
 40
0.0
 40
0.21273972101469
 40
0.21273972101469
 40
0.21273972101469
 40
0.4258553859201262
 40
0.4258553859201262
 40
0.4258553859201262
 40
0.6396511768369176
 40
0.6396511768369176
 40
0.6396511768369176
 40
0.8547431010304569
 40
0.8547431010304569
 40
0.8547431010304569
 40
1.0
 40
1.0
 40
1.0
 40
1.0
 10
4.243289678427261
 20
-0.6960618538414259
 30
0.0
 10
4.276644779697492
 20
-0.6960618538414265
 30
0.0
 10
4.310457887246796
 20
-0.6989419752394354
 30
0.0
 10
4.341936097511312
 20
-0.7044575227936266
 30
0.0
 10
4.37347275426612
 20
-0.7099833112221836
 30
0.0
 10
4.403532302478031
 20
-0.7183046385657935
 30
0.0
 10
4.429657079710603
 20
-0.7287233007261638
 30
0.0
 10
4.455865854279144
 20
-0.7391754613488565
 30
0.0
 10
4.478834062060067
 20
-0.7520232724326789
 30
0.0
 10
4.49670471435263
 20
-0.7662053940806652
 30
0.0
 10
4.514682116623279
 20
-0.7804722323439356
 30
0.0
 10
4.527994656928519
 20
-0.7964803597503364
 30
0.0
 10
4.53556270346015
 20
-0.812912662998946
 30
0.0
 10
4.540680874811829
 20
-0.8240256157771321
 30
0.0
 10
4.543289678427302
 20
-0.83550141014043
 30
0.0
 10
4.543289678429796
 20
-0.8469052094610412
 30
0.0
  0
SPLINE
  5
EC
330
1F
100
AcDbEntity
  8
SK3
100
AcDbSpline
210
0.0
220
0.0
230
1.0
 70
     8
 71
     3
 72
    20
 73
    16
 74
     0
 42
0.0000000273823655
 43
0.0000000001
 12
1.0
 22
0.0
 32
0.0
 13
1.0
 23
0.0
 33
0.0
 40
0.0
 40
0.0
 40
0.0
 40
0.0
 40
0.2127397210147049
 40
0.2127397210147049
 40
0.2127397210147049
 40
0.425855385920141
 40
0.425855385920141
 40
0.425855385920141
 40
0.6396511768369331
 40
0.6396511768369331
 40
0.6396511768369331
 40
0.8547431010304726
 40
0.8547431010304726
 40
0.8547431010304726
 40
1.0
 40
1.0
 40
1.0
 40
1.0
 10
4.243289678427261
 20
-1.042472015355199
 30
0.0
 10
4.276644779697493
 20
-1.0424720153552
 30
0.0
 10
4.310457887246801
 20
-1.04535213675321
 30
0.0
 10
4.341936097511319
 20
-1.050867684307403
 30
0.0
 10
4.373472754266126
 20
-1.05639347273596
 30
0.0
 10
4.403532302478038
 20
-1.064714800079569
 30
0.0
 10
4.429657079710609
 20
-1.075133462239939
 30
0.0
 10
4.455865854279149
 20
-1.085585622862632
 30
0.0
 10
4.478834062060072
 20
-1.098433433946457
 30
0.0
 10
4.496704714352633
 20
-1.112615555594443
 30
0.0
 10
4.514682116623282
 20
-1.126882393857714
 30
0.0
 10
4.527994656928522
 20
-1.142890521264113
 30
0.0
 10
4.535562703460152
 20
-1.159322824512723
 30
0.0
 10
4.54068087481183
 20
-1.170435777290908
 30
0.0
 10
4.543289678427302
 20
-1.181911571654204
 30
0.0
 10
4.543289678429796
 20
-1.193315370974815
 30
0.0
  0
LINE
  5
ED
330
1F
100
AcDbEntity
  8
SK1
  6
Continuous
100
AcDbLine
 10
4.5432896784
 20
-2.0646233009
 30
0.0
 11
4.5432896784
 21
-3.7828364382
 31
0.0
  0
LINE
  5
EE
330
1F
100
AcDbEntity
  8
SK1
  6
Continuous
100
AcDbLine
 10
4.4932896784
 20
-1.7615735324
 30
0.0
 11
4.4932896784
 21
1.7615735283
 31
0.0
  0
LINE
  5
EF
330
1F
100
AcDbEntity
  8
SK1
  6
Continuous
100
AcDbLine
 10
3.8164947592
 20
-1.949440676
 30
0.0
 11
3.8164947592
 21
-0.2000000021
 31
0.0
  0
LINE
  5
F0
330
1F
100
AcDbEntity
  8
SK1
  6
Continuous
100
AcDbLine
 10
3.8664947592
 20
-2.2891446546
 30
0.0
 11
3.8664947592
 21
-3.5649148461
 31
0.0
  0
LINE
  5
F1
330
1F
100
AcDbEntity
  8
SK1
  6
Continuous
100
AcDbLine
 10
1.7432896784
 20
-1.949440676
 30
0.0
 11
1.7432896784
 21
-0.2000000021
 31
0.0
  0
LINE
  5
F2
330
1F
100
AcDbEntity
  8
SK1
  6
Continuous
100
AcDbLine
 10
1.8432896784
 20
-1.4487150796
 30
0.0
 11
1.8432896784
 21
-0.2000000021
 31
0.0
  0
LINE
  5
F3
330
1F
100
AcDbEntity
  8
SK1
  6
Continuous
100
AcDbLine
 10
2.8432896784
 20
-1.4487150796
 30
0.0
 11
2.8432896784
 21
-0.2000000021
 31
0.0
  0
LINE
  5
F4
330
1F
100
AcDbEntity
  8
SK1
  6
Continuous
100
AcDbLine
 10
2.9432896784
 20
-1.8493242783
 30
0.0
 11
2.9432896784
 21
-0.2000000021
 31
0.0
  0
LINE
  5
F5
330
1F
100
AcDbEntity
  8
SK1
  6
Continuous
100
AcDbLine
 10
3.1432896784
 20
-1.949440676
 30
0.0
 11
3.1432896784
 21
-0.2000000021
 31
0.0
  0
ARC
  5
F6
330
1F
100
AcDbEntity
  8
SK3
100
AcDbCircle
 10
-5.7876486781
 20
-0.8791363496
 30
0.0
 40
0.6236971400011447
100
AcDbArc
 50
162.9305245461
 51
179.620012693
  0
ARC
  5
F7
330
1F
100
AcDbEntity
  8
SK3
100
AcDbCircle
 10
-5.8937212072
 20
-0.8761145445
 30
0.0
 40
0.517612094645093
100
AcDbArc
 50
179.8766284103
 51
198.7472548233
  0
LINE
  5
F8
330
1F
100
AcDbEntity
  8
SK3
100
AcDbLine
 10
-6.4113321019
 20
-1.0482050828
 30
0.0
 11
-7.4481012626
 21
-1.3025020498
 31
0.0
  0
LINE
  5
F9
330
1F
100
AcDbEntity
  8
SK1
  6
Continuous
100
AcDbLine
 10
-7.4481012626
 20
-1.3025020498
 30
0.0
 11
-8.545393983
 21
-1.5716441319
 31
0.0
  0
ELLIPSE
  5
FA
330
1F
100
AcDbEntity
  8
SK1
  6
Continuous
100
AcDbEllipse
 10
-0.5501293634
 20
0.5626257834
 30
0.0
 11
-7.958356435296453
 21
-2.309153463185288
 31
0.0
210
0.0
220
0.0
230
1.0
 40
0.3799835389
 41
6.120201323681177
 42
6.226548405132315
  0
LINE
  5
FB
330
1F
100
AcDbEntity
  8
SK3
100
AcDbLine
 10
-6.4113321019
 20
-0.8750000021
 30
0.0
 11
-6.4113321019
 21
-0.7017949213
 31
0.0
  0
LINE
  5
FC
330
1F
100
AcDbEntity
  8
SK3
100
AcDbLine
 10
-6.4113321019
 20
-1.0482050828
 30
0.0
 11
-6.4113321019
 21
-0.8750000021
 31
0.0
  0
SPLINE
  5
FD
330
1F
100
AcDbEntity
  8
SK1
  6
Continuous
100
AcDbSpline
210
0.0
220
0.0
230
1.0
 70
     8
 71
     3
 72
    17
 73
    13
 74
     0
 42
0.0000001408956736
 43
0.0000000001
 12
1.0
 22
0.0
 32
0.0
 13
1.0
 23
0.0
 33
0.0
 40
0.0
 40
0.0
 40
0.0
 40
0.0
 40
0.2873498726786589
 40
0.2873498726786589
 40
0.2873498726786589
 40
0.6101910854479065
 40
0.6101910854479065
 40
0.6101910854479065
 40
0.9327768140811225
 40
0.9327768140811225
 40
0.9327768140811225
 40
1.0
 40
1.0
 40
1.0
 40
1.0
 10
4.543289678427262
 20
-2.064623300906401
 30
0.0
 10
4.543289678427262
 20
-2.069618577543173
 30
0.0
 10
4.541763224353007
 20
-2.074668728340753
 30
0.0
 10
4.538810321927718
 20
-2.07944082227262
 30
0.0
 10
4.535493334658733
 20
-2.084801302416781
 30
0.0
 10
4.530278879148107
 20
-2.089949478507636
 30
0.0
 10
4.52359762284236
 20
-2.09445786536502
 30
0.0
 10
4.516921668399115
 20
-2.0989626746247
 30
0.0
 10
4.508596605643755
 20
-2.102953120000746
 30
0.0
 10
4.499311926042318
 20
-2.106097015605381
 30
0.0
 10
4.497350480173163
 20
-2.106761182955411
 30
0.0
 10
4.495340531484982
 20
-2.107390873404216
 30
0.0
 10
4.493289678427262
 20
-2.107983693931175
 30
0.0
  0
ARC
  5
FE
330
1F
100
AcDbEntity
  8
SK1
  6
Continuous
100
AcDbCircle
 10
3.8171326602
 20
-2.110858659
 30
0.0
 40
0.1849932783511408
100
AcDbArc
 50
269.8024300875
 51
285.47583019
  0
LINE
  5
FF
330
1F
100
AcDbEntity
  8
SK3
100
AcDbLine
 10
-6.4113321019
 20
-0.7017949213
 30
0.0
 11
-8.545393983
 21
-1.2252339704
 31
0.0
  0
SPLINE
  5
100
330
1F
100
AcDbEntity
  8
SK1
  6
Continuous
100
AcDbSpline
210
0.0
220
0.0
230
1.0
 70
     8
 71
     3
 72
    11
 73
     7
 74
     0
 42
0.0000000009695428
 43
0.0000000001
 12
1.0
 22
0.0
 32
0.0
 13
1.0
 23
0.0
 33
0.0
 40
0.0
 40
0.0
 40
0.0
 40
0.0
 40
0.4327632297293569
 40
0.4327632297293569
 40
0.4327632297293569
 40
1.0
 40
1.0
 40
1.0
 40
1.0
 10
-8.545393982974243
 20
-1.225233970407089
 30
0.0
 10
-7.061231072855511
 20
-1.329793024715492
 30
0.0
 10
-5.57705223094721
 20
-1.434295546451283
 30
0.0
 10
-4.092864866746473
 20
-1.538767785671143
 30
0.0
 10
-2.147492456088205
 20
-1.67570293062668
 30
0.0
 10
-0.2021051985335431
 20
-1.812585346800935
 30
0.0
 10
1.743289678427264
 20
-1.949440676018483
 30
0.0
  0
SPLINE
  5
101
330
1F
100
AcDbEntity
  8
SK1
  6
Continuous
100
AcDbSpline
210
0.0
220
0.0
230
1.0
 70
     8
 71
     3
 72
    23
 73
    19
 74
     0
 42
0.0000000822181931
 43
0.0000000001
 12
1.0
 22
0.0
 32
0.0
 13
1.0
 23
0.0
 33
0.0
 40
0.0
 40
0.0
 40
0.0
 40
0.0
 40
0.0716827801062793
 40
0.0716827801062793
 40
0.0716827801062793
 40
0.2871712718623346
 40
0.2871712718623346
 40
0.2871712718623346
 40
0.5026075956005758
 40
0.5026075956005758
 40
0.5026075956005758
 40
0.7177584710227103
 40
0.7177584710227103
 40
0.7177584710227103
 40
0.9325126544279679
 40
0.9325126544279679
 40
0.9325126544279679
 40
1.0
 40
1.0
 40
1.0
 40
1.0
 10
1.743289678426281
 20
-1.498807182026288
 30
0.0
 10
1.743289678427265
 20
-1.496927188126906
 30
0.0
 10
1.743501650715277
 20
-1.49504423235249
 30
0.0
 10
1.74392359830476
 20
-1.493176113748241
 30
0.0
 10
1.745184003193168
 20
-1.48759583344896
 30
0.0
 10
1.748388487247544
 20
-1.482047276320939
 30
0.0
 10
1.753273072676029
 20
-1.4769904107268
 30
0.0
 10
1.758156383397419
 20
-1.471934864798893
 30
0.0
 10
1.764854122696956
 20
-1.467231106326202
 30
0.0
 10
1.772812702366735
 20
-1.463270616717639
 30
0.0
 10
1.780760757752534
 20
-1.459315364389982
 30
0.0
 10
1.790186300660896
 20
-1.455992148915572
 30
0.0
 10
1.800307813197519
 20
-1.453578507875129
 30
0.0
 10
1.810410908491028
 20
-1.451169258729046
 30
0.0
 10
1.821486718531903
 20
-1.449599762945988
 30
0.0
 10
1.832615854041372
 20
-1.449001264175479
 30
0.0
 10
1.836158475392268
 20
-1.448810750319207
 30
0.0
 10
1.839726625220501
 20
-1.448715079635754
 30
0.0
 10
1.84328967842726
 20
-1.448715079636608
 30
0.0
  0
LINE
  5
102
330
1F
100
AcDbEntity
  8
SK1
  6
Continuous
100
AcDbLine
 10
1.8432896784
 20
-1.4487150796
 30
0.0
 11
2.8432896784
 21
-1.4487150796
 31
0.0
  0
SPLINE
  5
103
330
1F
100
AcDbEntity
  8
SK1
  6
Continuous
100
AcDbSpline
210
0.0
220
0.0
230
1.0
 70
     8
 71
     3
 72
    20
 73
    16
 74
     0
 42
0.000000082223659
 43
0.0000000001
 12
1.0
 22
0.0
 32
0.0
 13
1.0
 23
0.0
 33
0.0
 40
0.0
 40
0.0
 40
0.0
 40
0.0
 40
0.2129835119260229
 40
0.2129835119260229
 40
0.2129835119260229
 40
0.4272154540945705
 40
0.4272154540945705
 40
0.4272154540945705
 40
0.6416308211233649
 40
0.6416308211233649
 40
0.6416308211233649
 40
0.8564341873239696
 40
0.8564341873239696
 40
0.8564341873239696
 40
1.0
 40
1.0
 40
1.0
 40
1.0
 10
2.843289678427262
 20
-1.448715079636608
 30
0.0
 10
2.854400621110821
 20
-1.448715079636608
 30
0.0
 10
2.865663016338097
 20
-1.449668861892941
 30
0.0
 10
2.876154621917562
 20
-1.451497745410437
 30
0.0
 10
2.886707972373368
 20
-1.453337392217287
 30
0.0
 10
2.896771241477459
 20
-1.456113175160073
 30
0.0
 10
2.905513996595217
 20
-1.459594361749793
 30
0.0
 10
2.914264325343655
 20
-1.463078564004621
 30
0.0
 10
2.921932829385987
 20
-1.467365135385256
 30
0.0
 10
2.927889231354459
 20
-1.472099271795573
 30
0.0
 10
2.933856288367368
 20
-1.476841876813968
 30
0.0
 10
2.938269481065338
 20
-1.482164125564303
 30
0.0
 10
2.940766558110245
 20
-1.487626258505497
 30
0.0
 10
2.942438086830657
 20
-1.491282578243224
 30
0.0
 10
2.943289678427264
 20
-1.495056558599461
 30
0.0
 10
2.943289678427264
 20
-1.498807182026344
 30
0.0
  0
LINE
  5
104
330
1F
100
AcDbEntity
  8
SK1
  6
Continuous
100
AcDbLine
 10
2.9432896784
 20
-1.8493242783
 30
0.0
 11
3.1432896784
 21
-1.949440676
 31
0.0
  0
LINE
  5
105
330
1F
100
AcDbEntity
  8
SK1
  6
Continuous
100
AcDbLine
 10
3.1432896784
 20
-1.949440676
 30
0.0
 11
3.8164947592
 21
-1.949440676
 31
0.0
  0
LINE
  5
106
330
1F
100
AcDbEntity
  8
SK1
  6
Continuous
100
AcDbLine
 10
3.8664947592
 20
-1.9427344931
 30
0.0
 11
4.4932896784
 21
-1.7615735324
 31
0.0
  0
LINE
  5
107
330
1F
100
AcDbEntity
  8
SK3
100
AcDbLine
 10
4.2432896784
 20
-0.6960618538
 30
0.0
 11
-6.3838716662
 21
-0.6960618538
 31
0.0
  0
LINE
  5
108
330
1F
100
AcDbEntity
  8
SK3
100
AcDbLine
 10
-6.3838716662
 20
-1.0424720154
 30
0.0
 11
-6.4113321019
 21
-1.0482050828
 31
0.0
  0
SPLINE
  5
109
330
1F
100
AcDbEntity
  8
SK1
  6
Continuous
100
AcDbSpline
210
0.0
220
0.0
230
1.0
 70
     8
 71
     3
 72
    11
 73
     7
 74
     0
 42
0.0000000009695428
 43
0.0000000001
 12
1.0
 22
0.0
 32
0.0
 13
1.0
 23
0.0
 33
0.0
 40
0.0
 40
0.0
 40
0.0
 40
0.0
 40
0.4327632297293571
 40
0.4327632297293571
 40
0.4327632297293571
 40
1.0
 40
1.0
 40
1.0
 40
1.0
 10
-8.545393982974243
 20
-1.571644131920865
 30
0.0
 10
-7.061231072855511
 20
-1.676203186229265
 30
0.0
 10
-5.57705223094721
 20
-1.780705707965057
 30
0.0
 10
-4.092864866746473
 20
-1.885177947184917
 30
0.0
 10
-2.147492456088205
 20
-2.022113092140454
 30
0.0
 10
-0.2021051985335431
 20
-2.158995508314709
 30
0.0
 10
1.743289678427264
 20
-2.295850837532258
 30
0.0
  0
LINE
  5
10A
330
1F
100
AcDbEntity
  8
SK1
  6
Continuous
100
AcDbLine
 10
1.7432896784
 20
-2.2958508375
 30
0.0
 11
1.7432896784
 21
-1.949440676
 31
0.0
  0
SPLINE
  5
10B
330
1F
100
AcDbEntity
  8
SK1
  6
Continuous
100
AcDbSpline
210
0.0
220
0.0
230
1.0
 70
     8
 71
     3
 72
    23
 73
    19
 74
     0
 42
0.0000000822181931
 43
0.0000000001
 12
1.0
 22
0.0
 32
0.0
 13
1.0
 23
0.0
 33
0.0
 40
0.0
 40
0.0
 40
0.0
 40
0.0
 40
0.0716827801062099
 40
0.0716827801062099
 40
0.0716827801062099
 40
0.2871712718622605
 40
0.2871712718622605
 40
0.2871712718622605
 40
0.5026075956005103
 40
0.5026075956005103
 40
0.5026075956005103
 40
0.7177584710226386
 40
0.7177584710226386
 40
0.7177584710226386
 40
0.932512654427899
 40
0.932512654427899
 40
0.932512654427899
 40
1.0
 40
1.0
 40
1.0
 40
1.0
 10
1.743289678426281
 20
-1.845217343540063
 30
0.0
 10
1.743289678427265
 20
-1.843337349640682
 30
0.0
 10
1.743501650715276
 20
-1.841454393866268
 30
0.0
 10
1.743923598304758
 20
-1.83958627526202
 30
0.0
 10
1.745184003193166
 20
-1.834005994962739
 30
0.0
 10
1.748388487247541
 20
-1.828457437834719
 30
0.0
 10
1.753273072676025
 20
-1.82340057224058
 30
0.0
 10
1.758156383397413
 20
-1.818345026312672
 30
0.0
 10
1.764854122696949
 20
-1.813641267839979
 30
0.0
 10
1.772812702366728
 20
-1.809680778231416
 30
0.0
 10
1.780760757752526
 20
-1.805725525903758
 30
0.0
 10
1.790186300660886
 20
-1.80240231042935
 30
0.0
 10
1.800307813197509
 20
-1.799988669388906
 30
0.0
 10
1.810410908491018
 20
-1.797579420242822
 30
0.0
 10
1.821486718531892
 20
-1.796009924459763
 30
0.0
 10
1.832615854041361
 20
-1.795411425689254
 30
0.0
 10
1.836158475392261
 20
-1.795220911832981
 30
0.0
 10
1.839726625220498
 20
-1.795125241149528
 30
0.0
 10
1.84328967842726
 20
-1.795125241150382
 30
0.0
  0
LINE
  5
10C
330
1F
100
AcDbEntity
  8
SK1
  6
Continuous
100
AcDbLine
 10
1.8432896784
 20
-1.7951252412
 30
0.0
 11
2.8432896784
 21
-1.7951252412
 31
0.0
  0
SPLINE
  5
10D
330
1F
100
AcDbEntity
  8
SK1
  6
Continuous
100
AcDbSpline
210
0.0
220
0.0
230
1.0
 70
     8
 71
     3
 72
    20
 73
    16
 74
     0
 42
0.000000082223659
 43
0.0000000001
 12
1.0
 22
0.0
 32
0.0
 13
1.0
 23
0.0
 33
0.0
 40
0.0
 40
0.0
 40
0.0
 40
0.0
 40
0.2129835119260221
 40
0.2129835119260221
 40
0.2129835119260221
 40
0.4272154540945708
 40
0.4272154540945708
 40
0.4272154540945708
 40
0.6416308211233582
 40
0.6416308211233582
 40
0.6416308211233582
 40
0.8564341873239693
 40
0.8564341873239693
 40
0.8564341873239693
 40
1.0
 40
1.0
 40
1.0
 40
1.0
 10
2.843289678427262
 20
-1.795125241150381
 30
0.0
 10
2.854400621110821
 20
-1.795125241150382
 30
0.0
 10
2.865663016338097
 20
-1.796079023406717
 30
0.0
 10
2.876154621917562
 20
-1.797907906924213
 30
0.0
 10
2.886707972373368
 20
-1.799747553731062
 30
0.0
 10
2.896771241477459
 20
-1.802523336673847
 30
0.0
 10
2.905513996595217
 20
-1.806004523263566
 30
0.0
 10
2.914264325343655
 20
-1.809488725518394
 30
0.0
 10
2.921932829385987
 20
-1.813775296899031
 30
0.0
 10
2.927889231354458
 20
-1.818509433309347
 30
0.0
 10
2.933856288367368
 20
-1.823252038327742
 30
0.0
 10
2.938269481065338
 20
-1.828574287078078
 30
0.0
 10
2.940766558110245
 20
-1.834036420019273
 30
0.0
 10
2.942438086830657
 20
-1.837692739757
 30
0.0
 10
2.943289678427264
 20
-1.841466720113235
 30
0.0
 10
2.943289678427264
 20
-1.845217343540119
 30
0.0
  0
LINE
  5
10E
330
1F
100
AcDbEntity
  8
SK1
  6
Continuous
100
AcDbLine
 10
2.9432896784
 20
-1.8493242783
 30
0.0
 11
2.9432896784
 21
-2.1957344398
 31
0.0
  0
LINE
  5
10F
330
1F
100
AcDbEntity
  8
SK1
  6
Continuous
100
AcDbLine
 10
2.9432896784
 20
-2.1957344398
 30
0.0
 11
3.1432896784
 21
-2.2958508375
 31
0.0
  0
LINE
  5
110
330
1F
100
AcDbEntity
  8
SK1
  6
Continuous
100
AcDbLine
 10
3.1432896784
 20
-2.2958508375
 30
0.0
 11
3.8164947592
 21
-2.2958508375
 31
0.0
  0
LINE
  5
111
330
1F
100
AcDbEntity
  8
SK1
  6
Continuous
100
AcDbLine
 10
3.8664947592
 20
-2.2891446546
 30
0.0
 11
4.4932896784
 21
-2.1079836939
 31
0.0
  0
LINE
  5
112
330
1F
100
AcDbEntity
  8
SK1
  6
Continuous
100
AcDbLine
 10
4.5432896784
 20
-2.0646233009
 30
0.0
 11
4.5432896784
 21
-1.7182131394
 31
0.0
  0
LINE
  5
113
330
1F
100
AcDbEntity
  8
SK3
100
AcDbLine
 10
4.2432896784
 20
-1.0424720154
 30
0.0
 11
-6.3838716662
 21
-1.0424720154
 31
0.0
  0
LINE
  5
114
330
1F
100
AcDbEntity
  8
SK3
100
AcDbLine
 10
-6.3838716662
 20
-0.6960618538
 30
0.0
 11
-6.4113321019
 21
-0.7017949213
 31
0.0
  0
SPLINE
  5
115
330
1F
100
AcDbEntity
  8
SK1
  6
Continuous
100
AcDbSpline
210
0.0
220
0.0
230
1.0
 70
     8
 71
     3
 72
    17
 73
    13
 74
     0
 42
0.0000001408956736
 43
0.0000000001
 12
1.0
 22
0.0
 32
0.0
 13
1.0
 23
0.0
 33
0.0
 40
0.0
 40
0.0
 40
0.0
 40
0.0
 40
0.2873498726786683
 40
0.2873498726786683
 40
0.2873498726786683
 40
0.610191085447909
 40
0.610191085447909
 40
0.610191085447909
 40
0.9327768140811314
 40
0.9327768140811314
 40
0.9327768140811314
 40
1.0
 40
1.0
 40
1.0
 40
1.0
 10
4.543289678427262
 20
-1.718213139392626
 30
0.0
 10
4.543289678427262
 20
-1.723208416029398
 30
0.0
 10
4.541763224353006
 20
-1.72825856682698
 30
0.0
 10
4.538810321927717
 20
-1.733030660758847
 30
0.0
 10
4.535493334658732
 20
-1.738391140903007
 30
0.0
 10
4.530278879148106
 20
-1.743539316993862
 30
0.0
 10
4.52359762284236
 20
-1.748047703851245
 30
0.0
 10
4.516921668399114
 20
-1.752552513110926
 30
0.0
 10
4.508596605643755
 20
-1.756542958486971
 30
0.0
 10
4.499311926042317
 20
-1.759686854091607
 30
0.0
 10
4.497350480173162
 20
-1.760351021441637
 30
0.0
 10
4.495340531484982
 20
-1.760980711890443
 30
0.0
 10
4.493289678427262
 20
-1.7615735324174
 30
0.0
  0
ARC
  5
116
330
1F
100
AcDbEntity
  8
SK1
  6
Continuous
100
AcDbCircle
 10
3.8171326602
 20
-1.7644484975
 30
0.0
 40
0.1849932783509081
100
AcDbArc
 50
269.8024300875
 51
285.47583019
  0
LINE
  5
117
330
1F
100
AcDbEntity
  8
SK1
  6
Continuous
100
AcDbLine
 10
-9.0567103216
 20
-2.5583016397
 30
0.0
 11
-9.0567103216
 21
-2.3087735196
 31
0.0
  0
SPLINE
  5
118
330
1F
100
AcDbEntity
  8
SK3
100
AcDbSpline
210
0.0
220
0.0
230
1.0
 70
     8
 71
     3
 72
    23
 73
    19
 74
     0
 42
0.0000000210831653
 43
0.0000000001
 12
1.0
 22
0.0
 32
0.0
 13
1.0
 23
0.0
 33
0.0
 40
0.0
 40
0.0
 40
0.0
 40
0.0
 40
0.0524034243039163
 40
0.0524034243039163
 40
0.0524034243039163
 40
0.2654155110343229
 40
0.2654155110343229
 40
0.2654155110343229
 40
0.4786416026384182
 40
0.4786416026384182
 40
0.4786416026384182
 40
0.6101811029192944
 40
0.6101811029192944
 40
0.6101811029192944
 40
0.8264679555787335
 40
0.8264679555787335
 40
0.8264679555787335
 40
1.0
 40
1.0
 40
1.0
 40
1.0
 10
4.243289678427261
 20
-1.738533867133995
 30
0.0
 10
4.251565243014745
 20
-1.738533867133992
 30
0.0
 10
4.259847974508126
 20
-1.738879157585845
 30
0.0
 10
4.268094829527231
 20
-1.739567889417166
 30
0.0
 10
4.301348503127065
 20
-1.742345052767745
 30
0.0
 10
4.334578304383802
 20
-1.750904130416007
 30
0.0
 10
4.365043786684842
 20
-1.764519336338986
 30
0.0
 10
4.395541974285368
 20
-1.77814915845556
 30
0.0
 10
4.424106699369868
 20
-1.797216004633666
 30
0.0
 10
4.448414566151796
 20
-1.82012973655054
 30
0.0
 10
4.463541643628393
 20
-1.834389227154719
 30
0.0
 10
4.477255437387932
 20
-1.850308256192947
 30
0.0
 10
4.489124745892088
 20
-1.867375214355045
 30
0.0
 10
4.508466715439077
 20
-1.895187161859439
 30
0.0
 10
4.52326320674848
 20
-1.92672804671511
 30
0.0
 10
4.532303365678516
 20
-1.959376044149309
 30
0.0
 10
4.539560759231772
 20
-1.985585690234011
 30
0.0
 10
4.543289678427264
 20
-2.013024709034528
 30
0.0
 10
4.543289678427278
 20
-2.040220578372942
 30
0.0
  0
LINE
  5
119
330
1F
100
AcDbEntity
  8
SK1
  6
Continuous
100
AcDbLine
 10
4.4932896784
 20
-3.8695572243
 30
0.0
 11
4.4932896784
 21
-2.1079836939
 31
0.0
  0
LINE
  5
11A
330
1F
100
AcDbEntity
  8
SK1
  6
Continuous
100
AcDbLine
 10
3.8164947592
 20
-4.2452915115
 30
0.0
 11
3.8164947592
 21
-3.7765302957
 31
0.0
  0
LINE
  5
11B
330
1F
100
AcDbEntity
  8
SK1
  6
Continuous
100
AcDbLine
 10
1.7432896784
 20
-4.2452915115
 30
0.0
 11
1.7432896784
 21
-3.7765302957
 31
0.0
  0
LINE
  5
11C
330
1F
100
AcDbEntity
  8
SK1
  6
Continuous
100
AcDbLine
 10
1.8432896784
 20
-3.2438403187
 30
0.0
 11
1.8432896784
 21
-2.9092481221
 31
0.0
  0
LINE
  5
11D
330
1F
100
AcDbEntity
  8
SK1
  6
Continuous
100
AcDbLine
 10
2.8432896784
 20
-3.2438403187
 30
0.0
 11
2.8432896784
 21
-2.9092481221
 31
0.0
  0
LINE
  5
11E
330
1F
100
AcDbEntity
  8
SK1
  6
Continuous
100
AcDbLine
 10
2.9432896784
 20
-4.0450587161
 30
0.0
 11
2.9432896784
 21
-3.6031236082
 31
0.0
  0
LINE
  5
11F
330
1F
100
AcDbEntity
  8
SK1
  6
Continuous
100
AcDbLine
 10
3.1432896784
 20
-4.2452915115
 30
0.0
 11
3.1432896784
 21
-3.7765302957
 31
0.0
  0
LINE
  5
120
330
1F
100
AcDbEntity
  8
SK1
  6
Continuous
100
AcDbLine
 10
-8.545393983
 20
-2.7968781003
 30
0.0
 11
-8.5567103216
 21
-2.8024294046
 31
0.0
  0
LINE
  5
121
330
1F
100
AcDbEntity
  8
SK3
100
AcDbLine
 10
-6.4113321019
 20
-1.7500000021
 30
0.0
 11
-8.545393983
 21
-2.7968781003
 31
0.0
  0
SPLINE
  5
122
330
1F
100
AcDbEntity
  8
SK1
  6
Continuous
100
AcDbSpline
210
0.0
220
0.0
230
1.0
 70
     8
 71
     3
 72
    14
 73
    10
 74
     0
 42
0.0000000009624514
 43
0.0000000001
 12
1.0
 22
0.0
 32
0.0
 13
1.0
 23
0.0
 33
0.0
 40
0.0
 40
0.0
 40
0.0
 40
0.0
 40
0.0386107960678826
 40
0.0386107960678826
 40
0.0386107960678826
 40
0.5218500748251681
 40
0.5218500748251681
 40
0.5218500748251681
 40
1.0
 40
1.0
 40
1.0
 40
1.0
 10
-8.545393982974232
 20
-2.79687810026532
 30
0.0
 10
-8.412978131360866
 20
-2.815535454017729
 30
0.0
 10
-8.280562148578708
 20
-2.834191876853818
 30
0.0
 10
-8.148146042216592
 20
-2.852847422502041
 30
0.0
 10
-6.490872167145513
 20
-3.086333735288247
 30
0.0
 10
-4.833579677857861
 20
-3.31968793198826
 30
0.0
 10
-3.176277779739374
 20
-3.5529752521419
 30
0.0
 10
-1.536430167270082
 20
-3.783805649070556
 30
0.0
 10
0.1034269920225659
 20
-4.014568226999883
 30
0.0
 10
1.743289678427264
 20
-4.245291511488115
 30
0.0
  0
SPLINE
  5
123
330
1F
100
AcDbEntity
  8
SK1
  6
Continuous
100
AcDbSpline
210
0.0
220
0.0
230
1.0
 70
     8
 71
     3
 72
    23
 73
    19
 74
     0
 42
0.0000000633775917
 43
0.0000000001
 12
1.0
 22
0.0
 32
0.0
 13
1.0
 23
0.0
 33
0.0
 40
0.0
 40
0.0
 40
0.0
 40
0.0
 40
0.1278392923586018
 40
0.1278392923586018
 40
0.1278392923586018
 40
0.2620319701805868
 40
0.2620319701805868
 40
0.2620319701805868
 40
0.4771063622264096
 40
0.4771063622264096
 40
0.4771063622264096
 40
0.6922000996613463
 40
0.6922000996613463
 40
0.6922000996613463
 40
0.9070082230283357
 40
0.9070082230283357
 40
0.9070082230283357
 40
1.0
 40
1.0
 40
1.0
 40
1.0
 10
1.743289678420221
 20
-3.344024523504816
 30
0.0
 10
1.743289678427179
 20
-3.337345782331043
 30
0.0
 10
1.743963014588386
 20
-3.330634007181488
 30
0.0
 10
1.745289804276491
 20
-3.324088381711547
 30
0.0
 10
1.746691376596375
 20
-3.317173821282537
 30
0.0
 10
1.748838055931059
 20
-3.310370547746907
 30
0.0
 10
1.751659186910953
 20
-3.303903958932967
 30
0.0
 10
1.756141646053092
 20
-3.293629278191776
 30
0.0
 10
1.762457589107183
 20
-3.283985687864933
 30
0.0
 10
1.770086995990789
 20
-3.275772670459695
 30
0.0
 10
1.777716806490335
 20
-3.267559218563967
 30
0.0
 10
1.786871182576446
 20
-3.260550022486361
 30
0.0
 10
1.796792028946558
 20
-3.255329715253731
 30
0.0
 10
1.806699780977477
 20
-3.25011629820678
 30
0.0
 10
1.817645868757727
 20
-3.246543187022669
 30
0.0
 10
1.828721664644081
 20
-3.244909169551699
 30
0.0
 10
1.833538583380447
 20
-3.244198527223849
 30
0.0
 10
1.838420621164207
 20
-3.243840318724361
 30
0.0
 10
1.84328967842726
 20
-3.243840318724362
 30
0.0
  0
LINE
  5
124
330
1F
100
AcDbEntity
  8
SK1
  6
Continuous
100
AcDbLine
 10
1.8432896784
 20
-3.2438403187
 30
0.0
 11
2.8432896784
 21
-3.2438403187
 31
0.0
  0
SPLINE
  5
125
330
1F
100
AcDbEntity
  8
SK1
  6
Continuous
100
AcDbSpline
210
0.0
220
0.0
230
1.0
 70
     8
 71
     3
 72
    23
 73
    19
 74
     0
 42
0.0000000633565605
 43
0.0000000001
 12
1.0
 22
0.0
 32
0.0
 13
1.0
 23
0.0
 33
0.0
 40
0.0
 40
0.0
 40
0.0
 40
0.0
 40
0.0375086871954492
 40
0.0375086871954492
 40
0.0375086871954492
 40
0.2518752978412871
 40
0.2518752978412871
 40
0.2518752978412871
 40
0.4662778772515085
 40
0.4662778772515085
 40
0.4662778772515085
 40
0.680963237034319
 40
0.680963237034319
 40
0.680963237034319
 40
0.8141696655378167
 40
0.8141696655378167
 40
0.8141696655378167
 40
1.0
 40
1.0
 40
1.0
 40
1.0
 10
2.843289678427261
 20
-3.243840318724359
 30
0.0
 10
2.845263615179979
 20
-3.24384031872436
 30
0.0
 10
2.84723841988974
 20
-3.243898927845175
 30
0.0
 10
2.849208882448691
 20
-3.244015990253739
 30
0.0
 10
2.860361761142479
 20
-3.24467856708697
 30
0.0
 10
2.871553827193416
 20
-3.247276169282496
 30
0.0
 10
2.881859017486821
 20
-3.251592274498427
 30
0.0
 10
2.892166151496917
 20
-3.255909193797894
 30
0.0
 10
2.901869931869003
 20
-3.262063829446244
 30
0.0
 10
2.910170603500628
 20
-3.269545250046913
 30
0.0
 10
2.918482202659376
 20
-3.27703651966103
 30
0.0
 10
2.925615851712886
 20
-3.286063954533254
 30
0.0
 10
2.930985489674705
 20
-3.295880715158127
 30
0.0
 10
2.934346365308324
 20
-3.302025060795541
 30
0.0
 10
2.937074552548267
 20
-3.308558879258387
 30
0.0
 10
2.939081489202801
 20
-3.315268623933212
 30
0.0
 10
2.941857543481065
 20
-3.324549741684754
 30
0.0
 10
2.943289678427262
 20
-3.334337128390915
 30
0.0
 10
2.943289678427264
 20
-3.344024523503835
 30
0.0
  0
LINE
  5
126
330
1F
100
AcDbEntity
  8
SK1
  6
Continuous
100
AcDbLine
 10
2.9432896784
 20
-4.0450587161
 30
0.0
 11
3.1432896784
 21
-4.2452915115
 31
0.0
  0
LINE
  5
127
330
1F
100
AcDbEntity
  8
SK1
  6
Continuous
100
AcDbLine
 10
3.1432896784
 20
-4.2452915115
 30
0.0
 11
3.8164947592
 21
-4.2452915115
 31
0.0
  0
LINE
  5
128
330
1F
100
AcDbEntity
  8
SK1
  6
Continuous
100
AcDbLine
 10
3.8664947592
 20
-4.2318791456
 30
0.0
 11
4.4932896784
 21
-3.8695572243
 31
0.0
  0
LINE
  5
129
330
1F
100
AcDbEntity
  8
SK3
100
AcDbLine
 10
4.2432896784
 20
-1.7385338671
 30
0.0
 11
-6.3838716662
 21
-1.7385338671
 31
0.0
  0
ARC
  5
12A
330
1F
100
AcDbEntity
  8
SK3
100
AcDbCircle
 10
1.3086096077
 20
-20.2000000021
 30
0.0
 40
20.0
100
AcDbArc
 50
112.6204036632
 51
112.7056545051
  0
SPLINE
  5
12B
330
1F
100
AcDbEntity
  8
SK1
  6
Continuous
100
AcDbSpline
210
0.0
220
0.0
230
1.0
 70
     8
 71
     3
 72
    20
 73
    16
 74
     0
 42
0.0000000950654802
 43
0.0000000001
 12
1.0
 22
0.0
 32
0.0
 13
1.0
 23
0.0
 33
0.0
 40
0.0
 40
0.0
 40
0.0
 40
0.0
 40
0.1433107019925027
 40
0.1433107019925027
 40
0.1433107019925027
 40
0.4664949340806795
 40
0.4664949340806795
 40
0.4664949340806795
 40
0.6676037536127734
 40
0.6676037536127734
 40
0.6676037536127734
 40
0.9898830013958211
 40
0.9898830013958211
 40
0.9898830013958211
 40
1.0
 40
1.0
 40
1.0
 40
1.0
 10
4.543289678427262
 20
-3.782836438236399
 30
0.0
 10
4.543289678427263
 20
-3.787835320190537
 30
0.0
 10
4.542913803483605
 20
-3.792848121278321
 30
0.0
 10
4.542168286243903
 20
-3.797791098603447
 30
0.0
 10
4.540494470164033
 20
-3.808888943815632
 30
0.0
 10
4.536881321011923
 20
-3.819851104782769
 30
0.0
 10
4.531626815316346
 20
-3.829768463227335
 30
0.0
 10
4.528328457096328
 20
-3.835993787290459
 30
0.0
 10
4.524347853218408
 20
-3.841901694652409
 30
0.0
 10
4.519816398938262
 20
-3.847296112947778
 30
0.0
 10
4.512617406808847
 20
-3.855866071387227
 30
0.0
 10
4.503840897188756
 20
-3.863312599383171
 30
0.0
 10
4.494211649508522
 20
-3.869017620368756
 30
0.0
 10
4.493905291250704
 20
-3.869199127828943
 30
0.0
 10
4.493597958794908
 20
-3.869379000956497
 30
0.0
 10
4.493289678427261
 20
-3.869557224285948
 30
0.0
  0
SPLINE
  5
12C
330
1F
100
AcDbEntity
  8
SK1
  6
Continuous
100
AcDbSpline
210
0.0
220
0.0
230
1.0
 70
     8
 71
     3
 72
    11
 73
     7
 74
     0
 42
0.0000001903325258
 43
0.0000000001
 12
1.0
 22
0.0
 32
0.0
 13
1.0
 23
0.0
 33
0.0
 40
0.0
 40
0.0
 40
0.0
 40
0.0
 40
0.3766974668302563
 40
0.3766974668302563
 40
0.3766974668302563
 40
1.0
 40
1.0
 40
1.0
 40
1.0
 10
3.866494759184139
 20
-4.23187914555682
 30
0.0
 10
3.860790330263679
 20
-4.235176275106134
 30
0.0
 10
3.854729049238979
 20
-4.237919937550903
 30
0.0
 10
3.848487300496818
 20
-4.240029948264922
 30
0.0
 10
3.83824903615507
 20
-4.243490973106906
 30
0.0
 10
3.827302198736981
 20
-4.245291511488105
 30
0.0
 10
3.816494759184139
 20
-4.245291511488106
 30
0.0
  0
SPLINE
  5
12D
330
1F
100
AcDbEntity
  8
SK3
100
AcDbSpline
210
0.0
220
0.0
230
1.0
 70
     8
 71
     3
 72
    41
 73
    37
 74
     0
 42
0.0000000931329446
 43
0.0000000001
 12
1.0
 22
0.0
 32
0.0
 13
1.0
 23
0.0
 33
0.0
 40
0.0
 40
0.0
 40
0.0
 40
0.0
 40
0.2424177843172739
 40
0.2424177843172739
 40
0.2424177843172739
 40
0.3251974266760412
 40
0.3251974266760412
 40
0.3251974266760412
 40
0.382925095607592
 40
0.382925095607592
 40
0.382925095607592
 40
0.4326517288613703
 40
0.4326517288613703
 40
0.4326517288613703
 40
0.4662992898938165
 40
0.4662992898938165
 40
0.4662992898938165
 40
0.483275783413818
 40
0.483275783413818
 40
0.483275783413818
 40
0.4972176020267867
 40
0.4972176020267867
 40
0.4972176020267867
 40
0.5112890366767553
 40
0.5112890366767553
 40
0.5112890366767553
 40
0.527045310603254
 40
0.527045310603254
 40
0.527045310603254
 40
0.5539395601845655
 40
0.5539395601845655
 40
0.5539395601845655
 40
0.6403315784433502
 40
0.6403315784433502
 40
0.6403315784433502
 40
1.0
 40
1.0
 40
1.0
 40
1.0
 10
2.872570328322808
 20
-0.2000000020626332
 30
0.0
 10
2.874640086919344
 20
-0.1914097747685782
 30
0.0
 10
2.876818810510898
 20
-0.1828426574332995
 30
0.0
 10
2.87940184338829
 20
-0.1744373845118098
 30
0.0
 10
2.880284337724392
 20
-0.1715657192645251
 30
0.0
 10
2.881217668048117
 20
-0.1687122602892704
 30
0.0
 10
2.882248501433195
 20
-0.1659063942672949
 30
0.0
 10
2.88296729663357
 20
-0.1639498772795007
 30
0.0
 10
2.88373348837748
 20
-0.1620131772310296
 30
0.0
 10
2.884588541647606
 20
-0.1601301765945294
 30
0.0
 10
2.885324298858742
 20
-0.1585098900635231
 30
0.0
 10
2.886125069516936
 20
-0.1569179399503595
 30
0.0
 10
2.887064825601403
 20
-0.1554430048660717
 30
0.0
 10
2.887699532158081
 20
-0.1544468410910833
 30
0.0
 10
2.888404520313508
 20
-0.153488412084971
 30
0.0
 10
2.889232928541363
 20
-0.152701450022082
 30
0.0
 10
2.889652250123298
 20
-0.1523031075551225
 30
0.0
 10
2.890110268730635
 20
-0.151946160798087
 30
0.0
 10
2.890604378453012
 20
-0.1516839409490948
 30
0.0
 10
2.89100927721335
 20
-0.1514690646028412
 30
0.0
 10
2.891447771502096
 20
-0.1513166983053965
 30
0.0
 10
2.891891409639357
 20
-0.1512628035850777
 30
0.0
 10
2.892337729158408
 20
-0.1512085831210739
 30
0.0
 10
2.892800500891959
 20
-0.1512557765904874
 30
0.0
 10
2.893233053319078
 20
-0.151393129175898
 30
0.0
 10
2.893718480791505
 20
-0.1515472716894679
 30
0.0
 10
2.894180334200471
 20
-0.1518137592217332
 30
0.0
 10
2.894598066876966
 20
-0.1521366119746834
 30
0.0
 10
2.895309277547885
 20
-0.1526862848539043
 30
0.0
 10
2.89592234840824
 20
-0.1534053369589699
 30
0.0
 10
2.896465561277572
 20
-0.1541666026515648
 30
0.0
 10
2.898196527911467
 20
-0.1565924021636968
 30
0.0
 10
2.899384814157198
 20
-0.1594992346188486
 30
0.0
 10
2.900448273191286
 20
-0.1623870864780136
 30
0.0
 10
2.904866072175111
 20
-0.1743837394753612
 30
0.0
 10
2.907277693549168
 20
-0.187267208287219
 30
0.0
 10
2.909662308031349
 20
-0.2000000020626332
 30
0.0
  0
LINE
  5
12E
330
1F
100
AcDbEntity
  8
SK1
  6
Continuous
100
AcDbLine
 10
-8.8845449418
 20
2.4807815301
 30
0.0
 11
-8.8845449418
 21
2.7563552493
 31
0.0
  0
LINE
  5
12F
330
1F
100
AcDbEntity
  8
SK1
  6
Continuous
100
AcDbLine
 10
-9.0567103216
 20
2.5583016356
 30
0.0
 11
-9.0567103216
 21
2.3087735155
 31
0.0
  0
LINE
  5
130
330
1F
100
AcDbEntity
  8
SK1
  6
Continuous
100
AcDbLine
 10
-8.8845449418
 20
2.2807815301
 30
0.0
 11
-8.8845449418
 21
0.1999999979
 31
0.0
  0
SPLINE
  5
131
330
1F
100
AcDbEntity
  8
SK1
  6
Continuous
100
AcDbSpline
210
0.0
220
0.0
230
1.0
 70
     8
 71
     3
 72
    10
 73
     6
 74
     0
 42
0.0000000368063325
 43
0.0000000001
 12
1.0
 22
0.0
 32
0.0
 13
1.0
 23
0.0
 33
0.0
 40
0.0
 40
0.0
 40
0.0
 40
0.0
 40
0.5
 40
0.5
 40
1.0
 40
1.0
 40
1.0
 40
1.0
 10
-9.056710321572739
 20
2.10877351550444
 30
0.0
 10
-9.05671032157274
 20
2.150077488098817
 30
0.0
 10
-9.038928189533078
 20
2.191418071372616
 30
0.0
 10
-8.976687545696217
 20
2.253746643610326
 30
0.0
 10
-8.93228249816078
 20
2.274955944059032
 30
0.0
 10
-8.884544941764752
 20
2.280781530110615
 30
0.0
  0
SPLINE
  5
132
330
1F
100
AcDbEntity
  8
SK1
  6
Continuous
100
AcDbSpline
210
0.0
220
0.0
230
1.0
 70
     8
 71
     3
 72
    10
 73
     6
 74
     0
 42
0.0000000368063325
 43
0.0000000001
 12
1.0
 22
0.0
 32
0.0
 13
1.0
 23
0.0
 33
0.0
 40
0.0
 40
0.0
 40
0.0
 40
0.0
 40
0.5
 40
0.5
 40
1.0
 40
1.0
 40
1.0
 40
1.0
 10
-9.056710321572854
 20
2.308773515504431
 30
0.0
 10
-9.056710321572744
 20
2.350077488098784
 30
0.0
 10
-9.038928189533083
 20
2.391418071372612
 30
0.0
 10
-8.976687545696233
 20
2.453746643610313
 30
0.0
 10
-8.932282498160781
 20
2.474955944059031
 30
0.0
 10
-8.884544941764752
 20
2.480781530110615
 30
0.0
  0
LINE
  5
133
330
1F
100
AcDbEntity
  8
SK1
  6
Continuous
100
AcDbLine
 10
3.8664947592
 20
3.5649148419
 30
0.0
 11
3.8664947592
 21
2.2891446504
 31
0.0
  0
LINE
  5
134
330
1F
100
AcDbEntity
  8
SK1
  6
Continuous
100
AcDbLine
 10
3.8164947592
 20
3.7765302916
 30
0.0
 11
3.8164947592
 21
4.2452915074
 31
0.0
  0
LINE
  5
135
330
1F
100
AcDbEntity
  8
SK1
  6
Continuous
100
AcDbLine
 10
1.7432896784
 20
3.7765302916
 30
0.0
 11
1.7432896784
 21
4.2452915074
 31
0.0
  0
LINE
  5
136
330
1F
100
AcDbEntity
  8
SK1
  6
Continuous
100
AcDbLine
 10
1.8432896784
 20
2.909248118
 30
0.0
 11
1.8432896784
 21
3.2438403146
 31
0.0
  0
LINE
  5
137
330
1F
100
AcDbEntity
  8
SK1
  6
Continuous
100
AcDbLine
 10
2.8432896784
 20
2.909248118
 30
0.0
 11
2.8432896784
 21
3.2438403146
 31
0.0
  0
SPLINE
  5
138
330
1F
100
AcDbEntity
  8
SK1
  6
Continuous
100
AcDbSpline
210
0.0
220
0.0
230
1.0
 70
     8
 71
     3
 72
    44
 73
    40
 74
     0
 42
0.000000151481552
 43
0.0000000001
 12
1.0
 22
0.0
 32
0.0
 13
1.0
 23
0.0
 33
0.0
 40
0.0
 40
0.0
 40
0.0
 40
0.0
 40
0.2029085964340755
 40
0.2029085964340755
 40
0.2029085964340755
 40
0.3035471958791897
 40
0.3035471958791897
 40
0.3035471958791897
 40
0.3666104056638398
 40
0.3666104056638398
 40
0.3666104056638398
 40
0.4090671114345005
 40
0.4090671114345005
 40
0.4090671114345005
 40
0.4538256961222489
 40
0.4538256961222489
 40
0.4538256961222489
 40
0.4703327685687516
 40
0.4703327685687516
 40
0.4703327685687516
 40
0.4871330500881939
 40
0.4871330500881939
 40
0.4871330500881939
 40
0.499761664405443
 40
0.499761664405443
 40
0.499761664405443
 40
0.5123052227022498
 40
0.5123052227022498
 40
0.5123052227022498
 40
0.5345317175695411
 40
0.5345317175695411
 40
0.5345317175695411
 40
0.5972452246460542
 40
0.5972452246460542
 40
0.5972452246460542
 40
0.8771221115013621
 40
0.8771221115013621
 40
0.8771221115013621
 40
1.0
 40
1.0
 40
1.0
 40
1.0
 10
2.9096623080129
 20
2.731115201900105
 30
0.0
 10
2.90829851348189
 20
2.734092049345724
 30
0.0
 10
2.906824170256289
 20
2.737004513900517
 30
0.0
 10
2.905081658684389
 20
2.739743368299101
 30
0.0
 10
2.904216680096837
 20
2.741102929089057
 30
0.0
 10
2.903284815698682
 20
2.742420941659757
 30
0.0
 10
2.902218119441729
 20
2.743645891901793
 30
0.0
 10
2.901549689632022
 20
2.744413489286566
 30
0.0
 10
2.900828190035396
 20
2.745146244398651
 30
0.0
 10
2.900005892297548
 20
2.745803819234558
 30
0.0
 10
2.899452348766435
 20
2.746246476778031
 30
0.0
 10
2.898852536887962
 20
2.746656774064487
 30
0.0
 10
2.898168753341988
 20
2.74699774972043
 30
0.0
 10
2.897451119623718
 20
2.747355605110858
 30
0.0
 10
2.89663935033238
 20
2.747653354835155
 30
0.0
 10
2.895616417940934
 20
2.747725688391171
 30
0.0
 10
2.895236277931818
 20
2.747752568836911
 30
0.0
 10
2.89482115756414
 20
2.747745924747437
 30
0.0
 10
2.894367793301785
 20
2.7476828209548
 30
0.0
 10
2.893909906500364
 20
2.747619087669742
 30
0.0
 10
2.893398202043511
 20
2.747492315486514
 30
0.0
 10
2.892870510434024
 20
2.747287534627995
 30
0.0
 10
2.892471699523024
 20
2.747132768398491
 30
0.0
 10
2.892055262688404
 20
2.746929553790473
 30
0.0
 10
2.891656410983444
 20
2.746695984528757
 30
0.0
 10
2.891258951467884
 20
2.746463230539098
 30
0.0
 10
2.890870203483959
 20
2.746196511893923
 30
0.0
 10
2.890507885201105
 20
2.745918464553819
 30
0.0
 10
2.889869230699702
 20
2.745428353527786
 30
0.0
 10
2.889293311142694
 20
2.744892634491499
 30
0.0
 10
2.888776821495271
 20
2.74436090951072
 30
0.0
 10
2.88733113507012
 20
2.742872578446465
 30
0.0
 10
2.886238255356566
 20
2.74135146276195
 30
0.0
 10
2.885262306775821
 20
2.739881484360026
 30
0.0
 10
2.880924981457125
 20
2.733348584301165
 30
0.0
 10
2.878370831407435
 20
2.727161519454061
 30
0.0
 10
2.875805667824209
 20
2.72105770821313
 30
0.0
 10
2.87467739472835
 20
2.718372980404587
 30
0.0
 10
2.873606639737229
 20
2.715706181331035
 30
0.0
 10
2.872570328307558
 20
2.713050956305116
 30
0.0
  0
SPLINE
  5
139
330
1F
100
AcDbEntity
  8
SK1
  6
Continuous
100
AcDbSpline
210
0.0
220
0.0
230
1.0
 70
     8
 71
     3
 72
    10
 73
     6
 74
     0
 42
0.0000001169935252
 43
0.0000000001
 12
1.0
 22
0.0
 32
0.0
 13
1.0
 23
0.0
 33
0.0
 40
0.0
 40
0.0
 40
0.0
 40
0.0
 40
0.5
 40
0.5
 40
1.0
 40
1.0
 40
1.0
 40
1.0
 10
2.872570328307558
 20
2.913050956305115
 30
0.0
 10
2.876840301775133
 20
2.906269538381107
 30
0.0
 10
2.875946480987186
 20
2.890597029919763
 30
0.0
 10
2.9083724674194
 20
2.905827050703591
 30
0.0
 10
2.906346747788346
 20
2.920648666042993
 30
0.0
 10
2.9096623080129
 20
2.931115201900103
 30
0.0
  0
LINE
  5
13A
330
1F
100
AcDbEntity
  8
SK1
  6
Continuous
100
AcDbLine
 10
2.9432896784
 20
3.6031236041
 30
0.0
 11
2.9432896784
 21
4.045058712
 31
0.0
  0
LINE
  5
13B
330
1F
100
AcDbEntity
  8
SK1
  6
Continuous
100
AcDbLine
 10
3.1432896784
 20
3.7765302916
 30
0.0
 11
3.1432896784
 21
4.2452915074
 31
0.0
  0
ARC
  5
13C
330
1F
100
AcDbEntity
  8
SK3
100
AcDbCircle
 10
-0.0573338099
 20
1.5235179502
 30
0.0
 40
0.2658059477756767
100
AcDbArc
 50
333.6681363063
 51
358.2810159327
  0
LINE
  5
13D
330
1F
100
AcDbEntity
  8
SK3
100
AcDbLine
 10
0.2083525188
 20
1.5155444546
 30
0.0
 11
0.2083525188
 21
1.4155444546
 31
0.0
  0
LINE
  5
13E
330
1F
100
AcDbEntity
  8
SK3
100
AcDbLine
 10
0.2083525188
 20
1.6155444546
 30
0.0
 11
0.2083525188
 21
1.5155444546
 31
0.0
  0
ARC
  5
13F
330
1F
100
AcDbEntity
  8
SK3
100
AcDbCircle
 10
0.0521975375
 20
1.5171571953
 30
0.0
 40
0.156163309092667
100
AcDbArc
 50
359.4082804669
 51
34.5024142725
  0
LINE
  5
140
330
1F
100
AcDbEntity
  8
SK1
  6
Continuous
100
AcDbLine
 10
2.909662308
 20
2.9311152019
 30
0.0
 11
2.9432896784
 21
2.9474921406
 31
0.0
  0
LINE
  5
141
330
1F
100
AcDbEntity
  8
SK3
100
AcDbLine
 10
2.9432896784
 20
2.9474921406
 30
0.0
 11
4.0364123033
 21
3.4798561643
 31
0.0
  0
LINE
  5
142
330
1F
100
AcDbEntity
  8
SK1
  6
Continuous
100
AcDbLine
 10
4.0364123033
 20
3.4798561643
 30
0.0
 11
4.2389234133
 21
3.5784815398
 31
0.0
  0
ARC
  5
143
330
1F
100
AcDbEntity
  8
SK1
  6
Continuous
100
AcDbCircle
 10
3.0960393181
 20
3.4784815398
 30
0.0
 40
1.147250650458573
100
AcDbArc
 50
354.9994727333
 51
5.0005272667
  0
LINE
  5
144
330
1F
100
AcDbEntity
  8
SK3
100
AcDbLine
 10
0.2083525188
 20
1.6155444546
 30
0.0
 11
2.4540944665
 21
2.709248118
 31
0.0
  0
LINE
  5
145
330
1F
100
AcDbEntity
  8
SK1
  6
Continuous
100
AcDbLine
 10
2.4540944665
 20
2.709248118
 30
0.0
 11
2.8725703283
 21
2.9130509563
 31
0.0
  0
ARC
  5
146
330
1F
100
AcDbEntity
  8
SK1
  6
Continuous
100
AcDbCircle
 10
3.816940995
 20
3.6650281468
 30
0.0
 40
0.1115030377236168
100
AcDbArc
 50
63.6140020081
 51
90.2292986454
  0
ARC
  5
147
330
1F
100
AcDbEntity
  8
SK3
100
AcDbCircle
 10
-7.661968151
 20
7.2752535051
 30
0.0
 40
5.669641452608654
100
AcDbArc
 50
255.7589535343
 51
270.053134132
  0
ARC
  5
148
330
1F
100
AcDbEntity
  8
SK1
  6
Continuous
100
AcDbCircle
 10
2.8611208518
 20
2.7974285093
 30
0.0
 40
0.0821810666147717
100
AcDbArc
 50
306.2041924999
 51
359.0111096
  0
LINE
  5
149
330
1F
100
AcDbEntity
  8
SK3
100
AcDbLine
 10
2.909662308
 20
2.7311152019
 30
0.0
 11
4.2389234133
 21
3.3784815398
 31
0.0
  0
LINE
  5
14A
330
1F
100
AcDbEntity
  8
SK1
  6
Continuous
100
AcDbLine
 10
4.2389234133
 20
3.3784815398
 30
0.0
 11
3.8664947592
 21
3.5649148419
 31
0.0
  0
LINE
  5
14B
330
1F
100
AcDbEntity
  8
SK1
  6
Continuous
100
AcDbLine
 10
3.8164947592
 20
3.5765302916
 30
0.0
 11
3.1432896784
 21
3.5765302916
 31
0.0
  0
LINE
  5
14C
330
1F
100
AcDbEntity
  8
SK1
  6
Continuous
100
AcDbLine
 10
3.1432896784
 20
3.5765302916
 30
0.0
 11
2.9432896784
 21
3.4031236041
 31
0.0
  0
LINE
  5
14D
330
1F
100
AcDbEntity
  8
SK3
100
AcDbLine
 10
-7.6567103216
 20
1.4056144904
 30
0.0
 11
0.180892083
 21
1.4056144904
 31
0.0
  0
LINE
  5
14E
330
1F
100
AcDbEntity
  8
SK3
100
AcDbLine
 10
0.2083525188
 20
1.4155444546
 30
0.0
 11
2.8725703283
 21
2.7130509563
 31
0.0
  0
ARC
  5
14F
330
1F
100
AcDbEntity
  8
SK1
  6
Continuous
100
AcDbCircle
 10
2.8433289013
 20
2.8235733961
 30
0.0
 40
0.1143252848366253
100
AcDbArc
 50
269.9803429074
 51
284.8194487864
  0
LINE
  5
150
330
1F
100
AcDbEntity
  8
SK1
  6
Continuous
100
AcDbLine
 10
2.8432896784
 20
2.709248118
 30
0.0
 11
1.8432896784
 21
2.709248118
 31
0.0
  0
SPLINE
  5
151
330
1F
100
AcDbEntity
  8
SK1
  6
Continuous
100
AcDbSpline
210
0.0
220
0.0
230
1.0
 70
     8
 71
     3
 72
    20
 73
    16
 74
     0
 42
0.0000000678037529
 43
0.0000000001
 12
1.0
 22
0.0
 32
0.0
 13
1.0
 23
0.0
 33
0.0
 40
0.0
 40
0.0
 40
0.0
 40
0.0
 40
0.2129835119260233
 40
0.2129835119260233
 40
0.2129835119260233
 40
0.4272154540945726
 40
0.4272154540945726
 40
0.4272154540945726
 40
0.6416308211233667
 40
0.6416308211233667
 40
0.6416308211233667
 40
0.8564341873239789
 40
0.8564341873239789
 40
0.8564341873239789
 40
1.0
 40
1.0
 40
1.0
 40
1.0
 10
1.843289678427259
 20
2.709248117986593
 30
0.0
 10
1.832178735743701
 20
2.709248117986592
 30
0.0
 10
1.820916340516425
 20
2.710900117313922
 30
0.0
 10
1.81042473493696
 20
2.714067836487351
 30
0.0
 10
1.799871384481154
 20
2.717254198224795
 30
0.0
 10
1.789808115377062
 20
2.722061995312484
 30
0.0
 10
1.781065360259305
 20
2.728091587356506
 30
0.0
 10
1.772315031510867
 20
2.734126402685713
 30
0.0
 10
1.764646527468536
 20
2.741550962107247
 30
0.0
 10
1.758690125500064
 20
2.749750726899876
 30
0.0
 10
1.752723068487155
 20
2.757965159751968
 30
0.0
 10
1.748309875789184
 20
2.767183564998068
 30
0.0
 10
1.745812798744278
 20
2.776644256769912
 30
0.0
 10
1.744141270023865
 20
2.782977188324372
 30
0.0
 10
1.743289678427259
 20
2.78951391404814
 30
0.0
 10
1.743289678427264
 20
2.79601018438356
 30
0.0
  0
SPLINE
  5
152
330
1F
100
AcDbEntity
  8
SK1
  6
Continuous
100
AcDbSpline
210
0.0
220
0.0
230
1.0
 70
     8
 71
     3
 72
    11
 73
     7
 74
     0
 42
0.0000000009340092
 43
0.0000000001
 12
1.0
 22
0.0
 32
0.0
 13
1.0
 23
0.0
 33
0.0
 40
0.0
 40
0.0
 40
0.0
 40
0.0
 40
0.695206615384674
 40
0.695206615384674
 40
0.695206615384674
 40
1.0
 40
1.0
 40
1.0
 40
1.0
 10
1.743289678427264
 20
3.57653029157023
 30
0.0
 10
-0.7195860988484203
 20
3.276436451676372
 30
0.0
 10
-3.182450285707345
 20
2.976271224121063
 30
0.0
 10
-5.64528614413878
 20
2.675931775698215
 30
0.0
 10
-6.72504583184407
 20
2.544256565625071
 30
0.0
 10
-7.804799888158022
 20
2.412546710457039
 30
0.0
 10
-8.884544941764752
 20
2.280781530110615
 30
0.0
  0
LINE
  5
153
330
1F
100
AcDbEntity
  8
SK3
100
AcDbLine
 10
0.180892083
 20
1.6056144904
 30
0.0
 11
0.2083525188
 21
1.6155444546
 31
0.0
  0
LINE
  5
154
330
1F
100
AcDbEntity
  8
SK1
  6
Continuous
100
AcDbLine
 10
2.9432896784
 20
3.6031236041
 30
0.0
 11
2.9432896784
 21
3.4031236041
 31
0.0
  0
ARC
  5
155
330
1F
100
AcDbEntity
  8
SK1
  6
Continuous
100
AcDbCircle
 10
2.8611208518
 20
2.9974285093
 30
0.0
 40
0.0821810666147706
100
AcDbArc
 50
306.2041924999
 51
359.0111096
  0
ARC
  5
156
330
1F
100
AcDbEntity
  8
SK1
  6
Continuous
100
AcDbCircle
 10
2.8433289013
 20
3.0235733961
 30
0.0
 40
0.1143252848366362
100
AcDbArc
 50
269.9803429074
 51
284.8194487864
  0
LINE
  5
157
330
1F
100
AcDbEntity
  8
SK1
  6
Continuous
100
AcDbLine
 10
2.8432896784
 20
2.909248118
 30
0.0
 11
1.8432896784
 21
2.909248118
 31
0.0
  0
SPLINE
  5
158
330
1F
100
AcDbEntity
  8
SK1
  6
Continuous
100
AcDbSpline
210
0.0
220
0.0
230
1.0
 70
     8
 71
     3
 72
    20
 73
    16
 74
     0
 42
0.0000000678037529
 43
0.0000000001
 12
1.0
 22
0.0
 32
0.0
 13
1.0
 23
0.0
 33
0.0
 40
0.0
 40
0.0
 40
0.0
 40
0.0
 40
0.2129835119260262
 40
0.2129835119260262
 40
0.2129835119260262
 40
0.4272154540945726
 40
0.4272154540945726
 40
0.4272154540945726
 40
0.641630821123367
 40
0.641630821123367
 40
0.641630821123367
 40
0.8564341873239759
 40
0.8564341873239759
 40
0.8564341873239759
 40
1.0
 40
1.0
 40
1.0
 40
1.0
 10
1.843289678427259
 20
2.909248117986593
 30
0.0
 10
1.832178735743701
 20
2.909248117986592
 30
0.0
 10
1.820916340516425
 20
2.910900117313922
 30
0.0
 10
1.81042473493696
 20
2.914067836487351
 30
0.0
 10
1.799871384481153
 20
2.917254198224795
 30
0.0
 10
1.789808115377062
 20
2.922061995312483
 30
0.0
 10
1.781065360259305
 20
2.928091587356505
 30
0.0
 10
1.772315031510867
 20
2.934126402685713
 30
0.0
 10
1.764646527468536
 20
2.941550962107248
 30
0.0
 10
1.758690125500064
 20
2.949750726899877
 30
0.0
 10
1.752723068487155
 20
2.957965159751968
 30
0.0
 10
1.748309875789184
 20
2.967183564998067
 30
0.0
 10
1.745812798744278
 20
2.976644256769912
 30
0.0
 10
1.744141270023865
 20
2.982977188324372
 30
0.0
 10
1.743289678427259
 20
2.98951391404814
 30
0.0
 10
1.743289678427264
 20
2.99601018438356
 30
0.0
  0
LINE
  5
159
330
1F
100
AcDbEntity
  8
SK1
  6
Continuous
100
AcDbLine
 10
1.7432896784
 20
3.5765302916
 30
0.0
 11
1.7432896784
 21
3.7765302916
 31
0.0
  0
SPLINE
  5
15A
330
1F
100
AcDbEntity
  8
SK1
  6
Continuous
100
AcDbSpline
210
0.0
220
0.0
230
1.0
 70
     8
 71
     3
 72
    11
 73
     7
 74
     0
 42
0.0000000009340092
 43
0.0000000001
 12
1.0
 22
0.0
 32
0.0
 13
1.0
 23
0.0
 33
0.0
 40
0.0
 40
0.0
 40
0.0
 40
0.0
 40
0.6952066153846741
 40
0.6952066153846741
 40
0.6952066153846741
 40
1.0
 40
1.0
 40
1.0
 40
1.0
 10
1.743289678427264
 20
3.77653029157023
 30
0.0
 10
-0.7195860988484203
 20
3.476436451676372
 30
0.0
 10
-3.182450285707346
 20
3.176271224121062
 30
0.0
 10
-5.645286144138782
 20
2.875931775698215
 30
0.0
 10
-6.725045831844072
 20
2.74425656562507
 30
0.0
 10
-7.804799888158022
 20
2.61254671045704
 30
0.0
 10
-8.884544941764752
 20
2.480781530110615
 30
0.0
  0
LINE
  5
15B
330
1F
100
AcDbEntity
  8
SK1
  6
Continuous
100
AcDbLine
 10
-9.0567103216
 20
2.3087735155
 30
0.0
 11
-9.0567103216
 21
2.1087735155
 31
0.0
  0
LINE
  5
15C
330
1F
100
AcDbEntity
  8
SK3
100
AcDbLine
 10
-7.6567103216
 20
1.6056144904
 30
0.0
 11
0.180892083
 21
1.6056144904
 31
0.0
  0
LINE
  5
15D
330
1F
100
AcDbEntity
  8
SK1
  6
Continuous
100
AcDbLine
 10
4.2389234133
 20
3.5784815398
 30
0.0
 11
3.8664947592
 21
3.7649148419
 31
0.0
  0
LINE
  5
15E
330
1F
100
AcDbEntity
  8
SK1
  6
Continuous
100
AcDbLine
 10
3.8164947592
 20
3.7765302916
 30
0.0
 11
3.1432896784
 21
3.7765302916
 31
0.0
  0
LINE
  5
15F
330
1F
100
AcDbEntity
  8
SK1
  6
Continuous
100
AcDbLine
 10
3.1432896784
 20
3.7765302916
 30
0.0
 11
2.9432896784
 21
3.6031236041
 31
0.0
  0
ARC
  5
160
330
1F
100
AcDbEntity
  8
SK1
  6
Continuous
100
AcDbCircle
 10
3.816940995
 20
3.4650281468
 30
0.0
 40
0.1115030377236205
100
AcDbArc
 50
63.6140020081
 51
90.2292986454
  0
LINE
  5
161
330
1F
100
AcDbEntity
  8
SK3
100
AcDbLine
 10
0.180892083
 20
1.4056144904
 30
0.0
 11
0.2083525188
 21
1.4155444546
 31
0.0
  0
ARC
  5
162
330
1F
100
AcDbEntity
  8
SK3
100
AcDbCircle
 10
-7.661968151
 20
7.0752535051
 30
0.0
 40
5.669641452608695
100
AcDbArc
 50
255.7589535343
 51
270.053134132
  0
LINE
  5
163
330
1F
100
AcDbEntity
  8
SK3
100
AcDbLine
 10
-7.6567103216
 20
-1.7500000021
 30
0.0
 11
-6.4113321019
 21
-1.7500000021
 31
0.0
  0
LINE
  5
164
330
1F
100
AcDbEntity
  8
SK3
100
AcDbLine
 10
-6.4113321019
 20
1.7499999979
 30
0.0
 11
-7.6567103216
 21
1.7499999979
 31
0.0
  0
ARC
  5
165
330
1F
100
AcDbEntity
  8
SK1
  6
Continuous
100
AcDbCircle
 10
-8.8567103216
 20
-2.5583016397
 30
0.0
 40
0.2000000000000005
100
AcDbArc
 50
180.0
 51
262.0
  0
ARC
  5
166
330
1F
100
AcDbEntity
  8
SK3
100
AcDbCircle
 10
-7.6567103216
 20
-6.7500000021
 30
0.0
 40
5.0
100
AcDbArc
 50
90.0
 51
106.2602047083
  0
LINE
  5
167
330
1F
100
AcDbEntity
  8
SK1
  6
Continuous
100
AcDbLine
 10
-8.8845449418
 20
-2.7563552535
 30
0.0
 11
-8.5567103216
 21
-2.8024294046
 31
0.0
  0
ARC
  5
168
330
1F
100
AcDbEntity
  8
SK1
  6
Continuous
100
AcDbCircle
 10
-8.8567103216
 20
2.5583016356
 30
0.0
 40
0.2000000000000001
100
AcDbArc
 50
98.0
 51
180.0
  0
ARC
  5
169
330
1F
100
AcDbEntity
  8
SK3
100
AcDbCircle
 10
-7.6567103216
 20
6.7499999979
 30
0.0
 40
4.999999999999999
100
AcDbArc
 50
253.7397952917
 51
270.0
  0
LINE
  5
16A
330
1F
100
AcDbEntity
  8
SK1
  6
Continuous
100
AcDbLine
 10
-8.5567103216
 20
2.8024294005
 30
0.0
 11
-8.8845449418
 21
2.7563552493
 31
0.0
  0
LINE
  5
16B
330
1F
100
AcDbEntity
  8
SK1
  6
Continuous
100
AcDbLine
 10
0.0
 20
4.0
 30
0.0
 11
0.0
 21
-4.0
 31
0.0
  0
LINE
  5
16D
330
1F
100
AcDbEntity
  8
SK4
  6
Continuous
100
AcDbLine
 10
4.5432896784
 20
-0.0000000021
 30
0.0
 11
-9.0567103216
 21
-0.0000000021
 31
0.0
  0
INSERT
  5
16F
330
1F
100
AcDbEntity
  8
SK2
100
AcDbBlockReference
  2
GDimGGroup
 10
0.0
 20
0.0
 30
0.0
  0
INSERT
  5
17A
330
1F
100
AcDbEntity
  8
SK2
100
AcDbBlockReference
  2
GDimGGroup1
 10
0.0
 20
0.0
 30
0.0
  0
DIMENSION
  5
196
330
1F
100
AcDbEntity
  8
SK2
  6
Continuous
 62
   136
100
AcDbDimension
  2
DMBLK13
 10
4.5432896784
 20
10.6931167324
 30
0.0
 11
-2.2567102314
 21
10.6931167324
 31
0.0
 70
   160
  1
\A1;<>
 71
     5
 42
-1.0
  3
DIN
100
AcDbAlignedDimension
 13
-9.0567103216
 23
1.7798437407
 33
0.0
 14
4.5432896784
 24
2.9237298654
 34
0.0
100
AcDbRotatedDimension
  0
DIMENSION
  5
1A0
330
1F
100
AcDbEntity
  8
SK2
  6
Continuous
 62
   136
100
AcDbDimension
  2
DMBLK14
 10
4.5432896784
 20
-14.6416232884
 30
0.0
 11
9.9999997765
 21
-14.6416232884
 31
0.0
 70
   160
  1
\A1;<>
 71
     5
 42
-1.0
  3
DIN
100
AcDbAlignedDimension
 13
0.0
 23
-4.0
 33
0.0
 14
4.5432896784
 24
-2.9237298696
 34
0.0
100
AcDbRotatedDimension
  0
ENDSEC
  0
SECTION
  2
OBJECTS
  0
DICTIONARY
  5
C
330
0
100
AcDbDictionary
281
     1
  3
ACAD_GROUP
350
D
  3
ACAD_LAYOUT
350
1A
  3
ACAD_MATERIAL
350
3B
  3
ACAD_MLEADERSTYLE
350
1AC
  3
ACAD_MLINESTYLE
350
17
  3
ACAD_PLOTSETTINGS
350
19
  3
ACAD_PLOTSTYLENAME
350
E
  3
ACAD_VISUALSTYLE
350
2A
  3
AcDbVariableDictionary
350
1AA
  0
DICTIONARY
  5
D
102
{ACAD_REACTORS
330
C
102
}
330
C
100
AcDbDictionary
281
     1
  0
DICTIONARY
  5
1A
102
{ACAD_REACTORS
330
C
102
}
330
C
100
AcDbDictionary
281
     1
  3
Layout1
350
1E
  3
Model
350
22
  0
DICTIONARY
  5
3B
102
{ACAD_REACTORS
330
C
102
}
330
C
100
AcDbDictionary
281
     1
  3
ByBlock
350
3D
  3
ByLayer
350
3C
  3
Global
350
3E
  0
DICTIONARY
  5
1AC
102
{ACAD_REACTORS
330
C
102
}
330
C
100
AcDbDictionary
281
     1
  0
DICTIONARY
  5
17
102
{ACAD_REACTORS
330
C
102
}
330
C
100
AcDbDictionary
281
     1
  3
Standard
350
18
  0
DICTIONARY
  5
19
102
{ACAD_REACTORS
330
C
102
}
330
C
100
AcDbDictionary
281
     1
  0
ACDBDICTIONARYWDFLT
  5
E
102
{ACAD_REACTORS
330
C
102
}
330
C
100
AcDbDictionary
281
     1
  3
Normal
350
F
100
AcDbDictionaryWithDefault
340
F
  0
DICTIONARY
  5
2A
102
{ACAD_REACTORS
330
C
102
}
330
C
100
AcDbDictionary
281
     1
  3
2dWireframe
350
2F
  3
3D Hidden
350
31
  3
3dWireframe
350
30
  3
Basic
350
32
  3
Brighten
350
36
  3
ColorChange
350
3A
  3
Conceptual
350
34
  3
Dim
350
35
  3
Facepattern
350
39
  3
Flat
350
2B
  3
FlatWithEdges
350
2C
  3
Gouraud
350
2D
  3
GouraudWithEdges
350
2E
  3
Linepattern
350
38
  3
Realistic
350
33
  3
Thicken
350
37
  0
DICTIONARY
  5
1AA
102
{ACAD_REACTORS
330
C
102
}
330
C
100
AcDbDictionary
281
     1
  3
DIMASSOC
350
1AF
  3
HIDETEXT
350
1B0
  3
PSOLHEIGHT
350
1AE
  3
PSOLWIDTH
350
1AD
  0
LAYOUT
  5
1E
102
{ACAD_REACTORS
330
1A
102
}
330
1A
100
AcDbPlotSettings
  1

  2
none_device
  4

  6

 40
0.0
 41
0.0
 42
0.0
 43
0.0
 44
0.0
 45
0.0
 46
0.0
 47
0.0
 48
0.0
 49
0.0
140
0.0
141
0.0
142
1.0
143
1.0
 70
   688
 72
     0
 73
     0
 74
     5
  7

 75
    16
147
1.0
148
0.0
149
0.0
100
AcDbLayout
  1
Layout1
 70
     1
 71
     1
 10
0.0
 20
0.0
 11
210.0
 21
297.0
 12
0.0
 22
0.0
 32
0.0
 14
0.0
 24
0.0
 34
0.0
 15
210.0
 25
297.0
 35
0.0
146
0.0
 13
0.0
 23
0.0
 33
0.0
 16
1.0
 26
0.0
 36
0.0
 17
0.0
 27
1.0
 37
0.0
 76
     0
330
1B
  0
LAYOUT
  5
22
102
{ACAD_REACTORS
330
1A
102
}
330
1A
100
AcDbPlotSettings
  1

  2
none_device
  4

  6

 40
0.0
 41
0.0
 42
0.0
 43
0.0
 44
0.0
 45
0.0
 46
0.0
 47
0.0
 48
0.0
 49
0.0
140
0.0
141
0.0
142
1.0
143
1.0
 70
  1712
 72
     0
 73
     0
 74
     0
  7

 75
     0
147
1.0
148
0.0
149
0.0
100
AcDbLayout
  1
Model
 70
     1
 71
     0
 10
0.0
 20
0.0
 11
210.0
 21
297.0
 12
0.0
 22
0.0
 32
0.0
 14
0.0
 24
0.0
 34
0.0
 15
210.0
 25
297.0
 35
0.0
146
0.0
 13
0.0
 23
0.0
 33
0.0
 16
1.0
 26
0.0
 36
0.0
 17
0.0
 27
1.0
 37
0.0
 76
     0
330
1F
331
29
  0
MATERIAL
  5
3D
102
{ACAD_REACTORS
330
3B
102
}
102
{ACAD_XDICTIONARY
360
1D3
102
}
330
3B
100
AcDbMaterial
  1
ByBlock
  0
MATERIAL
  5
3C
102
{ACAD_REACTORS
330
3B
102
}
102
{ACAD_XDICTIONARY
360
1D1
102
}
330
3B
100
AcDbMaterial
  1
ByLayer
  0
MATERIAL
  5
3E
102
{ACAD_REACTORS
330
3B
102
}
102
{ACAD_XDICTIONARY
360
1D5
102
}
330
3B
100
AcDbMaterial
  1
Global
  0
MLINESTYLE
  5
18
102
{ACAD_REACTORS
330
17
102
}
330
17
100
AcDbMlineStyle
  2
Standard
 70
     0
  3

 62
   256
 51
90.0
 52
90.0
 71
     2
 49
0.5
 62
   256
  6
BYLAYER
 49
-0.5
 62
   256
  6
BYLAYER
  0
ACDBPLACEHOLDER
  5
F
102
{ACAD_REACTORS
330
E
102
}
330
E
  0
VISUALSTYLE
  5
2F
102
{ACAD_REACTORS
330
2A
102
}
102
{ACAD_XDICTIONARY
360
1B9
102
}
330
2A
100
AcDbVisualStyle
  2
2dWireframe
 70
     4
 71
     0
 72
     2
 73
     0
 90
        0
 40
-0.6
 41
-30.0
 62
     5
 63
     7
 74
     1
 91
        4
 64
     7
 65
   257
 75
     1
175
     1
 42
1.0
 92
        0
 66
   257
 43
1.0
 76
     1
 77
     6
 78
     2
 67
     7
 79
     5
170
     0
171
     0
290
     0
174
     0
 93
        1
 44
0.0
173
     0
291
     0
 45
0.0
1001
ACAD
1000
AcDbSavedByObjectVersion
1070
     0
  0
VISUALSTYLE
  5
31
102
{ACAD_REACTORS
330
2A
102
}
102
{ACAD_XDICTIONARY
360
1BD
102
}
330
2A
100
AcDbVisualStyle
  2
3D Hidden
 70
     6
 71
     1
 72
     2
 73
     2
 90
        0
 40
-0.6
 41
-30.0
 62
     5
 63
     7
 74
     2
 91
        2
 64
     7
 65
   257
 75
     2
175
     1
 42
40.0
 92
        0
 66
   257
 43
1.0
 76
     1
 77
     6
 78
     2
 67
     7
 79
     3
170
     0
171
     0
290
     0
174
     0
 93
        1
 44
0.0
173
     0
291
     0
 45
0.0
1001
ACAD
1000
AcDbSavedByObjectVersion
1070
     0
  0
VISUALSTYLE
  5
30
102
{ACAD_REACTORS
330
2A
102
}
102
{ACAD_XDICTIONARY
360
1BB
102
}
330
2A
100
AcDbVisualStyle
  2
3dWireframe
 70
     5
 71
     0
 72
     2
 73
     0
 90
        0
 40
-0.6
 41
-30.0
 62
     5
 63
     7
 74
     1
 91
        4
 64
     7
 65
   257
 75
     1
175
     1
 42
1.0
 92
        0
 66
   257
 43
1.0
 76
     1
 77
     6
 78
     2
 67
     7
 79
     5
170
     0
171
     0
290
     0
174
     0
 93
        1
 44
0.0
173
     0
291
     0
 45
0.0
1001
ACAD
1000
AcDbSavedByObjectVersion
1070
     0
  0
VISUALSTYLE
  5
32
102
{ACAD_REACTORS
330
2A
102
}
102
{ACAD_XDICTIONARY
360
1BF
102
}
330
2A
100
AcDbVisualStyle
  2
Basic
 70
     7
 71
     1
 72
     0
 73
     1
 90
        0
 40
-0.6
 41
-30.0
 62
     5
 63
     7
 74
     0
 91
        4
 64
     7
 65
   257
 75
     1
175
     1
 42
1.0
 92
        8
 66
     7
 43
1.0
 76
     1
 77
     6
 78
     2
 67
     7
 79
     5
170
     0
171
     0
290
     0
174
     0
 93
        1
 44
0.0
173
     0
291
     1
 45
0.0
1001
ACAD
1000
AcDbSavedByObjectVersion
1070
     0
  0
VISUALSTYLE
  5
36
102
{ACAD_REACTORS
330
2A
102
}
102
{ACAD_XDICTIONARY
360
1C7
102
}
330
2A
100
AcDbVisualStyle
  2
Brighten
 70
    12
 71
     2
 72
     2
 73
     0
 90
        0
 40
-0.6
 41
-30.0
 62
     5
 63
     7
 74
     1
 91
        4
 64
     7
 65
   257
 75
     1
175
     1
 42
1.0
 92
        8
 66
     7
 43
1.0
 76
     1
 77
     6
 78
     2
 67
     7
 79
     5
170
     0
171
     0
290
     0
174
     0
 93
        1
 44
50.0
173
     0
291
     1
 45
0.0
1001
ACAD
1000
AcDbSavedByObjectVersion
1070
     0
  0
VISUALSTYLE
  5
3A
102
{ACAD_REACTORS
330
2A
102
}
102
{ACAD_XDICTIONARY
360
1CF
102
}
330
2A
100
AcDbVisualStyle
  2
ColorChange
 70
    16
 71
     2
 72
     2
 73
     3
 90
        0
 40
-0.6
 41
-30.0
 62
     5
 63
     8
 74
     1
 91
        4
 64
     7
 65
   257
 75
     1
175
     1
 42
1.0
 92
        8
 66
     8
 43
1.0
 76
     1
 77
     6
 78
     2
 67
     7
 79
     5
170
     0
171
     0
290
     0
174
     0
 93
        1
 44
0.0
173
     0
291
     1
 45
0.0
1001
ACAD
1000
AcDbSavedByObjectVersion
1070
     0
  0
VISUALSTYLE
  5
34
102
{ACAD_REACTORS
330
2A
102
}
102
{ACAD_XDICTIONARY
360
1C3
102
}
330
2A
100
AcDbVisualStyle
  2
Conceptual
 70
     9
 71
     3
 72
     2
 73
     0
 90
        0
 40
-0.6
 41
-30.0
 62
     5
 63
     7
 74
     2
 91
        2
 64
     7
 65
   257
 75
     1
175
     1
 42
40.0
 92
        8
 66
     7
 43
1.0
 76
     1
 77
     6
 78
     2
 67
     7
 79
     3
170
     0
171
     0
290
     0
174
     0
 93
        1
 44
0.0
173
     0
291
     0
 45
0.0
1001
ACAD
1000
AcDbSavedByObjectVersion
1070
     0
  0
VISUALSTYLE
  5
35
102
{ACAD_REACTORS
330
2A
102
}
102
{ACAD_XDICTIONARY
360
1C5
102
}
330
2A
100
AcDbVisualStyle
  2
Dim
 70
    11
 71
     2
 72
     2
 73
     0
 90
        0
 40
-0.6
 41
-30.0
 62
     5
 63
     7
 74
     1
 91
        4
 64
     7
 65
   257
 75
     1
175
     1
 42
1.0
 92
        8
 66
     7
 43
1.0
 76
     1
 77
     6
 78
     2
 67
     7
 79
     5
170
     0
171
     0
290
     0
174
     0
 93
        1
 44
-50.0
173
     0
291
     1
 45
0.0
1001
ACAD
1000
AcDbSavedByObjectVersion
1070
     0
  0
VISUALSTYLE
  5
39
102
{ACAD_REACTORS
330
2A
102
}
102
{ACAD_XDICTIONARY
360
1CD
102
}
330
2A
100
AcDbVisualStyle
  2
Facepattern
 70
    15
 71
     2
 72
     2
 73
     0
 90
        0
 40
-0.6
 41
-30.0
 62
     5
 63
     7
 74
     1
 91
        4
 64
     7
 65
   257
 75
     1
175
     1
 42
1.0
 92
        8
 66
     7
 43
1.0
 76
     1
 77
     6
 78
     2
 67
     7
 79
     5
170
     0
171
     0
290
     0
174
     0
 93
        1
 44
0.0
173
     0
291
     1
 45
0.0
1001
ACAD
1000
AcDbSavedByObjectVersion
1070
     0
  0
VISUALSTYLE
  5
2B
102
{ACAD_REACTORS
330
2A
102
}
102
{ACAD_XDICTIONARY
360
1B1
102
}
330
2A
100
AcDbVisualStyle
  2
Flat
 70
     0
 71
     2
 72
     1
 73
     1
 90
        2
 40
-0.6
 41
30.0
 62
     5
 63
     7
 74
     0
 91
        4
 64
     7
 65
   257
 75
     1
175
     1
 42
1.0
 92
        8
 66
     7
 43
1.0
 76
     1
 77
     6
 78
     2
 67
     7
 79
     5
170
     0
171
     0
290
     0
174
     0
 93
       13
 44
0.0
173
     0
291
     1
 45
0.0
1001
ACAD
1000
AcDbSavedByObjectVersion
1070
     0
  0
VISUALSTYLE
  5
2C
102
{ACAD_REACTORS
330
2A
102
}
102
{ACAD_XDICTIONARY
360
1B3
102
}
330
2A
100
AcDbVisualStyle
  2
FlatWithEdges
 70
     1
 71
     2
 72
     1
 73
     1
 90
        2
 40
-0.6
 41
30.0
 62
     5
 63
     7
 74
     1
 91
        4
 64
     7
 65
   257
 75
     1
175
     1
 42
1.0
 92
        0
 66
   257
 43
1.0
 76
     1
 77
     6
 78
     2
 67
     7
 79
     5
170
     0
171
     0
290
     0
174
     0
 93
       13
 44
0.0
173
     0
291
     1
 45
0.0
1001
ACAD
1000
AcDbSavedByObjectVersion
1070
     0
  0
VISUALSTYLE
  5
2D
102
{ACAD_REACTORS
330
2A
102
}
102
{ACAD_XDICTIONARY
360
1B5
102
}
330
2A
100
AcDbVisualStyle
  2
Gouraud
 70
     2
 71
     2
 72
     2
 73
     1
 90
        2
 40
-0.6
 41
30.0
 62
     5
 63
     7
 74
     0
 91
        4
 64
     7
 65
   257
 75
     1
175
     1
 42
1.0
 92
        0
 66
     7
 43
1.0
 76
     1
 77
     6
 78
     2
 67
     7
 79
     5
170
     0
171
     0
290
     0
174
     0
 93
       13
 44
0.0
173
     0
291
     1
 45
0.0
1001
ACAD
1000
AcDbSavedByObjectVersion
1070
     0
  0
VISUALSTYLE
  5
2E
102
{ACAD_REACTORS
330
2A
102
}
102
{ACAD_XDICTIONARY
360
1B7
102
}
330
2A
100
AcDbVisualStyle
  2
GouraudWithEdges
 70
     3
 71
     2
 72
     2
 73
     1
 90
        2
 40
-0.6
 41
30.0
 62
     5
 63
     7
 74
     1
 91
        4
 64
     7
 65
   257
 75
     1
175
     1
 42
1.0
 92
        0
 66
   257
 43
1.0
 76
     1
 77
     6
 78
     2
 67
     7
 79
     5
170
     0
171
     0
290
     0
174
     0
 93
       13
 44
0.0
173
     0
291
     1
 45
0.0
1001
ACAD
1000
AcDbSavedByObjectVersion
1070
     0
  0
VISUALSTYLE
  5
38
102
{ACAD_REACTORS
330
2A
102
}
102
{ACAD_XDICTIONARY
360
1CB
102
}
330
2A
100
AcDbVisualStyle
  2
Linepattern
 70
    14
 71
     2
 72
     2
 73
     0
 90
        0
 40
-0.6
 41
-30.0
 62
     5
 63
     7
 74
     1
 91
        4
 64
     7
 65
   257
 75
     7
175
     7
 42
1.0
 92
        8
 66
     7
 43
1.0
 76
     1
 77
     6
 78
     2
 67
     7
 79
     5
170
     0
171
     0
290
     0
174
     0
 93
        1
 44
0.0
173
     0
291
     1
 45
0.0
1001
ACAD
1000
AcDbSavedByObjectVersion
1070
     0
  0
VISUALSTYLE
  5
33
102
{ACAD_REACTORS
330
2A
102
}
102
{ACAD_XDICTIONARY
360
1C1
102
}
330
2A
100
AcDbVisualStyle
  2
Realistic
 70
     8
 71
     2
 72
     2
 73
     0
 90
        0
 40
-0.6
 41
-30.0
 62
     5
 63
     7
 74
     1
 91
        0
 64
     7
 65
   257
 75
     1
175
     1
 42
1.0
 92
        8
 66
     8
 43
1.0
 76
     1
 77
     6
 78
     2
 67
     7
 79
     5
170
     0
171
     0
290
     0
174
     0
 93
       13
 44
0.0
173
     0
291
     0
 45
0.0
1001
ACAD
1000
AcDbSavedByObjectVersion
1070
     0
  0
VISUALSTYLE
  5
37
102
{ACAD_REACTORS
330
2A
102
}
102
{ACAD_XDICTIONARY
360
1C9
102
}
330
2A
100
AcDbVisualStyle
  2
Thicken
 70
    13
 71
     2
 72
     2
 73
     0
 90
        0
 40
-0.6
 41
-30.0
 62
     5
 63
     7
 74
     1
 91
        4
 64
     7
 65
   257
 75
     1
175
     1
 42
1.0
 92
       12
 66
     7
 43
1.0
 76
     1
 77
     6
 78
     2
 67
     7
 79
     5
170
     0
171
     0
290
     0
174
     0
 93
        1
 44
0.0
173
     0
291
     1
 45
0.0
1001
ACAD
1000
AcDbSavedByObjectVersion
1070
     0
  0
DICTIONARYVAR
  5
1AF
102
{ACAD_REACTORS
330
1AA
102
}
330
1AA
100
DictionaryVariables
280
     0
  1
2
  0
DICTIONARYVAR
  5
1B0
102
{ACAD_REACTORS
330
1AA
102
}
330
1AA
100
DictionaryVariables
280
     0
  1
1
  0
DICTIONARYVAR
  5
1AE
102
{ACAD_REACTORS
330
1AA
102
}
330
1AA
100
DictionaryVariables
280
     0
  1
80.000000
  0
DICTIONARYVAR
  5
1AD
102
{ACAD_REACTORS
330
1AA
102
}
330
1AA
100
DictionaryVariables
280
     0
  1
5.000000
  0
DICTIONARY
  5
1D3
330
3D
100
AcDbDictionary
280
     1
281
     1
  3
ACAD_XREC_ROUNDTRIP
360
1D4
  0
DICTIONARY
  5
1D1
330
3C
100
AcDbDictionary
280
     1
281
     1
  3
ACAD_XREC_ROUNDTRIP
360
1D2
  0
DICTIONARY
  5
1D5
330
3E
100
AcDbDictionary
280
     1
281
     1
  3
ACAD_XREC_ROUNDTRIP
360
1D6
  0
DICTIONARY
  5
1B9
330
2F
100
AcDbDictionary
280
     1
281
     1
  3
ACAD_XREC_ROUNDTRIP
360
1BA
  0
DICTIONARY
  5
1BD
330
31
100
AcDbDictionary
280
     1
281
     1
  3
ACAD_XREC_ROUNDTRIP
360
1BE
  0
DICTIONARY
  5
1BB
330
30
100
AcDbDictionary
280
     1
281
     1
  3
ACAD_XREC_ROUNDTRIP
360
1BC
  0
DICTIONARY
  5
1BF
330
32
100
AcDbDictionary
280
     1
281
     1
  3
ACAD_XREC_ROUNDTRIP
360
1C0
  0
DICTIONARY
  5
1C7
330
36
100
AcDbDictionary
280
     1
281
     1
  3
ACAD_XREC_ROUNDTRIP
360
1C8
  0
DICTIONARY
  5
1CF
330
3A
100
AcDbDictionary
280
     1
281
     1
  3
ACAD_XREC_ROUNDTRIP
360
1D0
  0
DICTIONARY
  5
1C3
330
34
100
AcDbDictionary
280
     1
281
     1
  3
ACAD_XREC_ROUNDTRIP
360
1C4
  0
DICTIONARY
  5
1C5
330
35
100
AcDbDictionary
280
     1
281
     1
  3
ACAD_XREC_ROUNDTRIP
360
1C6
  0
DICTIONARY
  5
1CD
330
39
100
AcDbDictionary
280
     1
281
     1
  3
ACAD_XREC_ROUNDTRIP
360
1CE
  0
DICTIONARY
  5
1B1
330
2B
100
AcDbDictionary
280
     1
281
     1
  3
ACAD_XREC_ROUNDTRIP
360
1B2
  0
DICTIONARY
  5
1B3
330
2C
100
AcDbDictionary
280
     1
281
     1
  3
ACAD_XREC_ROUNDTRIP
360
1B4
  0
DICTIONARY
  5
1B5
330
2D
100
AcDbDictionary
280
     1
281
     1
  3
ACAD_XREC_ROUNDTRIP
360
1B6
  0
DICTIONARY
  5
1B7
330
2E
100
AcDbDictionary
280
     1
281
     1
  3
ACAD_XREC_ROUNDTRIP
360
1B8
  0
DICTIONARY
  5
1CB
330
38
100
AcDbDictionary
280
     1
281
     1
  3
ACAD_XREC_ROUNDTRIP
360
1CC
  0
DICTIONARY
  5
1C1
330
33
100
AcDbDictionary
280
     1
281
     1
  3
ACAD_XREC_ROUNDTRIP
360
1C2
  0
DICTIONARY
  5
1C9
330
37
100
AcDbDictionary
280
     1
281
     1
  3
ACAD_XREC_ROUNDTRIP
360
1CA
  0
XRECORD
  5
1D4
102
{ACAD_REACTORS
330
1D3
102
}
330
1D3
100
AcDbXrecord
280
     1
102
MATERIAL
148
0.0
149
0.0
149
0.0
 93
        0
 94
      127
282
     0
 72
     1
 77
     1
171
     1
175
     1
179
     1
273
     0
  0
XRECORD
  5
1D2
102
{ACAD_REACTORS
330
1D1
102
}
330
1D1
100
AcDbXrecord
280
     1
102
MATERIAL
148
0.0
149
0.0
149
0.0
 93
        0
 94
      127
282
     0
 72
     1
 77
     1
171
     1
175
     1
179
     1
273
     0
  0
XRECORD
  5
1D6
102
{ACAD_REACTORS
330
1D5
102
}
330
1D5
100
AcDbXrecord
280
     1
102
MATERIAL
148
0.0
149
0.0
149
0.0
 93
        0
 94
      127
282
     0
 72
     1
 77
     1
171
     1
175
     1
179
     1
273
     0
  0
XRECORD
  5
1BA
102
{ACAD_REACTORS
330
1B9
102
}
330
1B9
100
AcDbXrecord
280
     1
102
RTVSPropertyOp0
 70
     1
102
RTVSPropertyOp1
 70
     1
102
RTVSPropertyOp2
 70
     1
102
RTVSPropertyOp3
 70
     1
102
RTVSPropertyOp4
 70
     1
102
RTVSPropertyOp5
 70
     1
102
RTVSPropertyOp6
 70
     1
102
RTVSPropertyOp7
 70
     1
102
RTVSPropertyOp8
 70
     1
102
RTVSPropertyOp9
 70
     1
102
RTVSPropertyOp10
 70
     1
102
RTVSPropertyOp11
 70
     1
102
RTVSPropertyOp12
 70
     1
102
RTVSPropertyOp13
 70
     1
102
RTVSPropertyOp14
 70
     1
102
RTVSPropertyOp15
 70
     1
102
RTVSPropertyOp16
 70
     1
102
RTVSPropertyOp17
 70
     1
102
RTVSPropertyOp18
 70
     1
102
RTVSPropertyOp19
 70
     1
102
RTVSPropertyOp20
 70
     1
102
RTVSPropertyOp21
 70
     1
102
RTVSPropertyOp22
 70
     1
102
RTVSPropertyOp23
 70
     1
102
RTVSPropertyOp24
 70
     1
102
RTVSPropertyOp25
 70
     1
102
RTVSPropertyOp26
 70
     1
102
RTVSPropertyOp27
 70
     1
102
RTVSPropertyOp28
 70
     1
102
RTVSPropertyOp29
 70
     1
102
RTVSPropertyOp30
 70
     1
102
RTVSPropertyOp31
 70
     1
102
RTVSPropertyOp32
 70
     1
  0
XRECORD
  5
1BE
102
{ACAD_REACTORS
330
1BD
102
}
330
1BD
100
AcDbXrecord
280
     1
102
RTVSPropertyOp0
 70
     1
102
RTVSPropertyOp1
 70
     1
102
RTVSPropertyOp2
 70
     1
102
RTVSPropertyOp3
 70
     1
102
RTVSPropertyOp4
 70
     1
102
RTVSPropertyOp5
 70
     1
102
RTVSPropertyOp6
 70
     1
102
RTVSPropertyOp7
 70
     1
102
RTVSPropertyOp8
 70
     1
102
RTVSPropertyOp9
 70
     1
102
RTVSPropertyOp10
 70
     1
102
RTVSPropertyOp11
 70
     1
102
RTVSPropertyOp12
 70
     1
102
RTVSPropertyOp13
 70
     1
102
RTVSPropertyOp14
 70
     1
102
RTVSPropertyOp15
 70
     1
102
RTVSPropertyOp16
 70
     1
102
RTVSPropertyOp17
 70
     1
102
RTVSPropertyOp18
 70
     1
102
RTVSPropertyOp19
 70
     1
102
RTVSPropertyOp20
 70
     1
102
RTVSPropertyOp21
 70
     1
102
RTVSPropertyOp22
 70
     1
102
RTVSPropertyOp23
 70
     1
102
RTVSPropertyOp24
 70
     1
102
RTVSPropertyOp25
 70
     1
102
RTVSPropertyOp26
 70
     1
102
RTVSPropertyOp27
 70
     1
102
RTVSPropertyOp28
 70
     1
102
RTVSPropertyOp29
 70
     1
102
RTVSPropertyOp30
 70
     1
102
RTVSPropertyOp31
 70
     1
102
RTVSPropertyOp32
 70
     1
  0
XRECORD
  5
1BC
102
{ACAD_REACTORS
330
1BB
102
}
330
1BB
100
AcDbXrecord
280
     1
102
RTVSPropertyOp0
 70
     1
102
RTVSPropertyOp1
 70
     1
102
RTVSPropertyOp2
 70
     1
102
RTVSPropertyOp3
 70
     1
102
RTVSPropertyOp4
 70
     1
102
RTVSPropertyOp5
 70
     1
102
RTVSPropertyOp6
 70
     1
102
RTVSPropertyOp7
 70
     1
102
RTVSPropertyOp8
 70
     1
102
RTVSPropertyOp9
 70
     1
102
RTVSPropertyOp10
 70
     1
102
RTVSPropertyOp11
 70
     1
102
RTVSPropertyOp12
 70
     1
102
RTVSPropertyOp13
 70
     1
102
RTVSPropertyOp14
 70
     1
102
RTVSPropertyOp15
 70
     1
102
RTVSPropertyOp16
 70
     1
102
RTVSPropertyOp17
 70
     1
102
RTVSPropertyOp18
 70
     1
102
RTVSPropertyOp19
 70
     1
102
RTVSPropertyOp20
 70
     1
102
RTVSPropertyOp21
 70
     1
102
RTVSPropertyOp22
 70
     1
102
RTVSPropertyOp23
 70
     1
102
RTVSPropertyOp24
 70
     1
102
RTVSPropertyOp25
 70
     1
102
RTVSPropertyOp26
 70
     1
102
RTVSPropertyOp27
 70
     1
102
RTVSPropertyOp28
 70
     1
102
RTVSPropertyOp29
 70
     1
102
RTVSPropertyOp30
 70
     1
102
RTVSPropertyOp31
 70
     1
102
RTVSPropertyOp32
 70
     1
  0
XRECORD
  5
1C0
102
{ACAD_REACTORS
330
1BF
102
}
330
1BF
100
AcDbXrecord
280
     1
102
RTVSPropertyOp0
 70
     1
102
RTVSPropertyOp1
 70
     1
102
RTVSPropertyOp2
 70
     1
102
RTVSPropertyOp3
 70
     1
102
RTVSPropertyOp4
 70
     1
102
RTVSPropertyOp5
 70
     1
102
RTVSPropertyOp6
 70
     1
102
RTVSPropertyOp7
 70
     1
102
RTVSPropertyOp8
 70
     1
102
RTVSPropertyOp9
 70
     1
102
RTVSPropertyOp10
 70
     1
102
RTVSPropertyOp11
 70
     1
102
RTVSPropertyOp12
 70
     1
102
RTVSPropertyOp13
 70
     1
102
RTVSPropertyOp14
 70
     1
102
RTVSPropertyOp15
 70
     1
102
RTVSPropertyOp16
 70
     1
102
RTVSPropertyOp17
 70
     1
102
RTVSPropertyOp18
 70
     1
102
RTVSPropertyOp19
 70
     1
102
RTVSPropertyOp20
 70
     1
102
RTVSPropertyOp21
 70
     1
102
RTVSPropertyOp22
 70
     1
102
RTVSPropertyOp23
 70
     1
102
RTVSPropertyOp24
 70
     1
102
RTVSPropertyOp25
 70
     1
102
RTVSPropertyOp26
 70
     1
102
RTVSPropertyOp27
 70
     1
102
RTVSPropertyOp28
 70
     1
102
RTVSPropertyOp29
 70
     1
102
RTVSPropertyOp30
 70
     1
102
RTVSPropertyOp31
 70
     1
102
RTVSPropertyOp32
 70
     1
  0
XRECORD
  5
1C8
102
{ACAD_REACTORS
330
1C7
102
}
330
1C7
100
AcDbXrecord
280
     1
102
RTVSPropertyOp0
 70
     1
102
RTVSPropertyOp1
 70
     1
102
RTVSPropertyOp2
 70
     1
102
RTVSPropertyOp3
 70
     1
102
RTVSPropertyOp4
 70
     1
102
RTVSPropertyOp5
 70
     1
102
RTVSPropertyOp6
 70
     1
102
RTVSPropertyOp7
 70
     1
102
RTVSPropertyOp8
 70
     1
102
RTVSPropertyOp9
 70
     1
102
RTVSPropertyOp10
 70
     1
102
RTVSPropertyOp11
 70
     1
102
RTVSPropertyOp12
 70
     1
102
RTVSPropertyOp13
 70
     1
102
RTVSPropertyOp14
 70
     1
102
RTVSPropertyOp15
 70
     1
102
RTVSPropertyOp16
 70
     1
102
RTVSPropertyOp17
 70
     1
102
RTVSPropertyOp18
 70
     1
102
RTVSPropertyOp19
 70
     1
102
RTVSPropertyOp20
 70
     1
102
RTVSPropertyOp21
 70
     1
102
RTVSPropertyOp22
 70
     1
102
RTVSPropertyOp23
 70
     1
102
RTVSPropertyOp24
 70
     1
102
RTVSPropertyOp25
 70
     1
102
RTVSPropertyOp26
 70
     1
102
RTVSPropertyOp27
 70
     1
102
RTVSPropertyOp28
 70
     1
102
RTVSPropertyOp29
 70
     1
102
RTVSPropertyOp30
 70
     1
102
RTVSPropertyOp31
 70
     1
102
RTVSPropertyOp32
 70
     1
  0
XRECORD
  5
1D0
102
{ACAD_REACTORS
330
1CF
102
}
330
1CF
100
AcDbXrecord
280
     1
102
RTVSPropertyOp0
 70
     1
102
RTVSPropertyOp1
 70
     1
102
RTVSPropertyOp2
 70
     1
102
RTVSPropertyOp3
 70
     1
102
RTVSPropertyOp4
 70
     1
102
RTVSPropertyOp5
 70
     1
102
RTVSPropertyOp6
 70
     1
102
RTVSPropertyOp7
 70
     1
102
RTVSPropertyOp8
 70
     1
102
RTVSPropertyOp9
 70
     1
102
RTVSPropertyOp10
 70
     1
102
RTVSPropertyOp11
 70
     1
102
RTVSPropertyOp12
 70
     1
102
RTVSPropertyOp13
 70
     1
102
RTVSPropertyOp14
 70
     1
102
RTVSPropertyOp15
 70
     1
102
RTVSPropertyOp16
 70
     1
102
RTVSPropertyOp17
 70
     1
102
RTVSPropertyOp18
 70
     1
102
RTVSPropertyOp19
 70
     1
102
RTVSPropertyOp20
 70
     1
102
RTVSPropertyOp21
 70
     1
102
RTVSPropertyOp22
 70
     1
102
RTVSPropertyOp23
 70
     1
102
RTVSPropertyOp24
 70
     1
102
RTVSPropertyOp25
 70
     1
102
RTVSPropertyOp26
 70
     1
102
RTVSPropertyOp27
 70
     1
102
RTVSPropertyOp28
 70
     1
102
RTVSPropertyOp29
 70
     1
102
RTVSPropertyOp30
 70
     1
102
RTVSPropertyOp31
 70
     1
102
RTVSPropertyOp32
 70
     1
  0
XRECORD
  5
1C4
102
{ACAD_REACTORS
330
1C3
102
}
330
1C3
100
AcDbXrecord
280
     1
102
RTVSPropertyOp0
 70
     1
102
RTVSPropertyOp1
 70
     1
102
RTVSPropertyOp2
 70
     1
102
RTVSPropertyOp3
 70
     1
102
RTVSPropertyOp4
 70
     1
102
RTVSPropertyOp5
 70
     1
102
RTVSPropertyOp6
 70
     1
102
RTVSPropertyOp7
 70
     1
102
RTVSPropertyOp8
 70
     1
102
RTVSPropertyOp9
 70
     1
102
RTVSPropertyOp10
 70
     1
102
RTVSPropertyOp11
 70
     1
102
RTVSPropertyOp12
 70
     1
102
RTVSPropertyOp13
 70
     1
102
RTVSPropertyOp14
 70
     1
102
RTVSPropertyOp15
 70
     1
102
RTVSPropertyOp16
 70
     1
102
RTVSPropertyOp17
 70
     1
102
RTVSPropertyOp18
 70
     1
102
RTVSPropertyOp19
 70
     1
102
RTVSPropertyOp20
 70
     1
102
RTVSPropertyOp21
 70
     1
102
RTVSPropertyOp22
 70
     1
102
RTVSPropertyOp23
 70
     1
102
RTVSPropertyOp24
 70
     1
102
RTVSPropertyOp25
 70
     1
102
RTVSPropertyOp26
 70
     1
102
RTVSPropertyOp27
 70
     1
102
RTVSPropertyOp28
 70
     1
102
RTVSPropertyOp29
 70
     1
102
RTVSPropertyOp30
 70
     1
102
RTVSPropertyOp31
 70
     1
102
RTVSPropertyOp32
 70
     1
  0
XRECORD
  5
1C6
102
{ACAD_REACTORS
330
1C5
102
}
330
1C5
100
AcDbXrecord
280
     1
102
RTVSPropertyOp0
 70
     1
102
RTVSPropertyOp1
 70
     1
102
RTVSPropertyOp2
 70
     1
102
RTVSPropertyOp3
 70
     1
102
RTVSPropertyOp4
 70
     1
102
RTVSPropertyOp5
 70
     1
102
RTVSPropertyOp6
 70
     1
102
RTVSPropertyOp7
 70
     1
102
RTVSPropertyOp8
 70
     1
102
RTVSPropertyOp9
 70
     1
102
RTVSPropertyOp10
 70
     1
102
RTVSPropertyOp11
 70
     1
102
RTVSPropertyOp12
 70
     1
102
RTVSPropertyOp13
 70
     1
102
RTVSPropertyOp14
 70
     1
102
RTVSPropertyOp15
 70
     1
102
RTVSPropertyOp16
 70
     1
102
RTVSPropertyOp17
 70
     1
102
RTVSPropertyOp18
 70
     1
102
RTVSPropertyOp19
 70
     1
102
RTVSPropertyOp20
 70
     1
102
RTVSPropertyOp21
 70
     1
102
RTVSPropertyOp22
 70
     1
102
RTVSPropertyOp23
 70
     1
102
RTVSPropertyOp24
 70
     1
102
RTVSPropertyOp25
 70
     1
102
RTVSPropertyOp26
 70
     1
102
RTVSPropertyOp27
 70
     1
102
RTVSPropertyOp28
 70
     1
102
RTVSPropertyOp29
 70
     1
102
RTVSPropertyOp30
 70
     1
102
RTVSPropertyOp31
 70
     1
102
RTVSPropertyOp32
 70
     1
  0
XRECORD
  5
1CE
102
{ACAD_REACTORS
330
1CD
102
}
330
1CD
100
AcDbXrecord
280
     1
102
RTVSPropertyOp0
 70
     1
102
RTVSPropertyOp1
 70
     1
102
RTVSPropertyOp2
 70
     1
102
RTVSPropertyOp3
 70
     1
102
RTVSPropertyOp4
 70
     1
102
RTVSPropertyOp5
 70
     1
102
RTVSPropertyOp6
 70
     1
102
RTVSPropertyOp7
 70
     1
102
RTVSPropertyOp8
 70
     1
102
RTVSPropertyOp9
 70
     1
102
RTVSPropertyOp10
 70
     1
102
RTVSPropertyOp11
 70
     1
102
RTVSPropertyOp12
 70
     1
102
RTVSPropertyOp13
 70
     1
102
RTVSPropertyOp14
 70
     1
102
RTVSPropertyOp15
 70
     1
102
RTVSPropertyOp16
 70
     1
102
RTVSPropertyOp17
 70
     1
102
RTVSPropertyOp18
 70
     1
102
RTVSPropertyOp19
 70
     1
102
RTVSPropertyOp20
 70
     1
102
RTVSPropertyOp21
 70
     1
102
RTVSPropertyOp22
 70
     1
102
RTVSPropertyOp23
 70
     1
102
RTVSPropertyOp24
 70
     1
102
RTVSPropertyOp25
 70
     1
102
RTVSPropertyOp26
 70
     1
102
RTVSPropertyOp27
 70
     1
102
RTVSPropertyOp28
 70
     1
102
RTVSPropertyOp29
 70
     1
102
RTVSPropertyOp30
 70
     1
102
RTVSPropertyOp31
 70
     1
102
RTVSPropertyOp32
 70
     1
  0
XRECORD
  5
1B2
102
{ACAD_REACTORS
330
1B1
102
}
330
1B1
100
AcDbXrecord
280
     1
102
RTVSPropertyOp0
 70
     1
102
RTVSPropertyOp1
 70
     1
102
RTVSPropertyOp2
 70
     1
102
RTVSPropertyOp3
 70
     1
102
RTVSPropertyOp4
 70
     1
102
RTVSPropertyOp5
 70
     1
102
RTVSPropertyOp6
 70
     1
102
RTVSPropertyOp7
 70
     1
102
RTVSPropertyOp8
 70
     1
102
RTVSPropertyOp9
 70
     1
102
RTVSPropertyOp10
 70
     1
102
RTVSPropertyOp11
 70
     1
102
RTVSPropertyOp12
 70
     1
102
RTVSPropertyOp13
 70
     1
102
RTVSPropertyOp14
 70
     1
102
RTVSPropertyOp15
 70
     1
102
RTVSPropertyOp16
 70
     1
102
RTVSPropertyOp17
 70
     1
102
RTVSPropertyOp18
 70
     1
102
RTVSPropertyOp19
 70
     1
102
RTVSPropertyOp20
 70
     1
102
RTVSPropertyOp21
 70
     1
102
RTVSPropertyOp22
 70
     1
102
RTVSPropertyOp23
 70
     1
102
RTVSPropertyOp24
 70
     1
102
RTVSPropertyOp25
 70
     1
102
RTVSPropertyOp26
 70
     1
102
RTVSPropertyOp27
 70
     1
102
RTVSPropertyOp28
 70
     1
102
RTVSPropertyOp29
 70
     1
102
RTVSPropertyOp30
 70
     1
102
RTVSPropertyOp31
 70
     1
102
RTVSPropertyOp32
 70
     1
  0
XRECORD
  5
1B4
102
{ACAD_REACTORS
330
1B3
102
}
330
1B3
100
AcDbXrecord
280
     1
102
RTVSPropertyOp0
 70
     1
102
RTVSPropertyOp1
 70
     1
102
RTVSPropertyOp2
 70
     1
102
RTVSPropertyOp3
 70
     1
102
RTVSPropertyOp4
 70
     1
102
RTVSPropertyOp5
 70
     1
102
RTVSPropertyOp6
 70
     1
102
RTVSPropertyOp7
 70
     1
102
RTVSPropertyOp8
 70
     1
102
RTVSPropertyOp9
 70
     1
102
RTVSPropertyOp10
 70
     1
102
RTVSPropertyOp11
 70
     1
102
RTVSPropertyOp12
 70
     1
102
RTVSPropertyOp13
 70
     1
102
RTVSPropertyOp14
 70
     1
102
RTVSPropertyOp15
 70
     1
102
RTVSPropertyOp16
 70
     1
102
RTVSPropertyOp17
 70
     1
102
RTVSPropertyOp18
 70
     1
102
RTVSPropertyOp19
 70
     1
102
RTVSPropertyOp20
 70
     1
102
RTVSPropertyOp21
 70
     1
102
RTVSPropertyOp22
 70
     1
102
RTVSPropertyOp23
 70
     1
102
RTVSPropertyOp24
 70
     1
102
RTVSPropertyOp25
 70
     1
102
RTVSPropertyOp26
 70
     1
102
RTVSPropertyOp27
 70
     1
102
RTVSPropertyOp28
 70
     1
102
RTVSPropertyOp29
 70
     1
102
RTVSPropertyOp30
 70
     1
102
RTVSPropertyOp31
 70
     1
102
RTVSPropertyOp32
 70
     1
  0
XRECORD
  5
1B6
102
{ACAD_REACTORS
330
1B5
102
}
330
1B5
100
AcDbXrecord
280
     1
102
RTVSPropertyOp0
 70
     1
102
RTVSPropertyOp1
 70
     1
102
RTVSPropertyOp2
 70
     1
102
RTVSPropertyOp3
 70
     1
102
RTVSPropertyOp4
 70
     1
102
RTVSPropertyOp5
 70
     1
102
RTVSPropertyOp6
 70
     1
102
RTVSPropertyOp7
 70
     1
102
RTVSPropertyOp8
 70
     1
102
RTVSPropertyOp9
 70
     1
102
RTVSPropertyOp10
 70
     1
102
RTVSPropertyOp11
 70
     1
102
RTVSPropertyOp12
 70
     1
102
RTVSPropertyOp13
 70
     1
102
RTVSPropertyOp14
 70
     1
102
RTVSPropertyOp15
 70
     1
102
RTVSPropertyOp16
 70
     1
102
RTVSPropertyOp17
 70
     1
102
RTVSPropertyOp18
 70
     1
102
RTVSPropertyOp19
 70
     1
102
RTVSPropertyOp20
 70
     1
102
RTVSPropertyOp21
 70
     1
102
RTVSPropertyOp22
 70
     1
102
RTVSPropertyOp23
 70
     1
102
RTVSPropertyOp24
 70
     1
102
RTVSPropertyOp25
 70
     1
102
RTVSPropertyOp26
 70
     1
102
RTVSPropertyOp27
 70
     1
102
RTVSPropertyOp28
 70
     1
102
RTVSPropertyOp29
 70
     1
102
RTVSPropertyOp30
 70
     1
102
RTVSPropertyOp31
 70
     1
102
RTVSPropertyOp32
 70
     1
  0
XRECORD
  5
1B8
102
{ACAD_REACTORS
330
1B7
102
}
330
1B7
100
AcDbXrecord
280
     1
102
RTVSPropertyOp0
 70
     1
102
RTVSPropertyOp1
 70
     1
102
RTVSPropertyOp2
 70
     1
102
RTVSPropertyOp3
 70
     1
102
RTVSPropertyOp4
 70
     1
102
RTVSPropertyOp5
 70
     1
102
RTVSPropertyOp6
 70
     1
102
RTVSPropertyOp7
 70
     1
102
RTVSPropertyOp8
 70
     1
102
RTVSPropertyOp9
 70
     1
102
RTVSPropertyOp10
 70
     1
102
RTVSPropertyOp11
 70
     1
102
RTVSPropertyOp12
 70
     1
102
RTVSPropertyOp13
 70
     1
102
RTVSPropertyOp14
 70
     1
102
RTVSPropertyOp15
 70
     1
102
RTVSPropertyOp16
 70
     1
102
RTVSPropertyOp17
 70
     1
102
RTVSPropertyOp18
 70
     1
102
RTVSPropertyOp19
 70
     1
102
RTVSPropertyOp20
 70
     1
102
RTVSPropertyOp21
 70
     1
102
RTVSPropertyOp22
 70
     1
102
RTVSPropertyOp23
 70
     1
102
RTVSPropertyOp24
 70
     1
102
RTVSPropertyOp25
 70
     1
102
RTVSPropertyOp26
 70
     1
102
RTVSPropertyOp27
 70
     1
102
RTVSPropertyOp28
 70
     1
102
RTVSPropertyOp29
 70
     1
102
RTVSPropertyOp30
 70
     1
102
RTVSPropertyOp31
 70
     1
102
RTVSPropertyOp32
 70
     1
  0
XRECORD
  5
1CC
102
{ACAD_REACTORS
330
1CB
102
}
330
1CB
100
AcDbXrecord
280
     1
102
RTVSPropertyOp0
 70
     1
102
RTVSPropertyOp1
 70
     1
102
RTVSPropertyOp2
 70
     1
102
RTVSPropertyOp3
 70
     1
102
RTVSPropertyOp4
 70
     1
102
RTVSPropertyOp5
 70
     1
102
RTVSPropertyOp6
 70
     1
102
RTVSPropertyOp7
 70
     1
102
RTVSPropertyOp8
 70
     1
102
RTVSPropertyOp9
 70
     1
102
RTVSPropertyOp10
 70
     1
102
RTVSPropertyOp11
 70
     1
102
RTVSPropertyOp12
 70
     1
102
RTVSPropertyOp13
 70
     1
102
RTVSPropertyOp14
 70
     1
102
RTVSPropertyOp15
 70
     1
102
RTVSPropertyOp16
 70
     1
102
RTVSPropertyOp17
 70
     1
102
RTVSPropertyOp18
 70
     1
102
RTVSPropertyOp19
 70
     1
102
RTVSPropertyOp20
 70
     1
102
RTVSPropertyOp21
 70
     1
102
RTVSPropertyOp22
 70
     1
102
RTVSPropertyOp23
 70
     1
102
RTVSPropertyOp24
 70
     1
102
RTVSPropertyOp25
 70
     1
102
RTVSPropertyOp26
 70
     1
102
RTVSPropertyOp27
 70
     1
102
RTVSPropertyOp28
 70
     1
102
RTVSPropertyOp29
 70
     1
102
RTVSPropertyOp30
 70
     1
102
RTVSPropertyOp31
 70
     1
102
RTVSPropertyOp32
 70
     1
  0
XRECORD
  5
1C2
102
{ACAD_REACTORS
330
1C1
102
}
330
1C1
100
AcDbXrecord
280
     1
102
RTVSPropertyOp0
 70
     1
102
RTVSPropertyOp1
 70
     1
102
RTVSPropertyOp2
 70
     1
102
RTVSPropertyOp3
 70
     1
102
RTVSPropertyOp4
 70
     1
102
RTVSPropertyOp5
 70
     1
102
RTVSPropertyOp6
 70
     1
102
RTVSPropertyOp7
 70
     1
102
RTVSPropertyOp8
 70
     1
102
RTVSPropertyOp9
 70
     1
102
RTVSPropertyOp10
 70
     1
102
RTVSPropertyOp11
 70
     1
102
RTVSPropertyOp12
 70
     1
102
RTVSPropertyOp13
 70
     1
102
RTVSPropertyOp14
 70
     1
102
RTVSPropertyOp15
 70
     1
102
RTVSPropertyOp16
 70
     1
102
RTVSPropertyOp17
 70
     1
102
RTVSPropertyOp18
 70
     1
102
RTVSPropertyOp19
 70
     1
102
RTVSPropertyOp20
 70
     1
102
RTVSPropertyOp21
 70
     1
102
RTVSPropertyOp22
 70
     1
102
RTVSPropertyOp23
 70
     1
102
RTVSPropertyOp24
 70
     1
102
RTVSPropertyOp25
 70
     1
102
RTVSPropertyOp26
 70
     1
102
RTVSPropertyOp27
 70
     1
102
RTVSPropertyOp28
 70
     1
102
RTVSPropertyOp29
 70
     1
102
RTVSPropertyOp30
 70
     1
102
RTVSPropertyOp31
 70
     1
102
RTVSPropertyOp32
 70
     1
  0
XRECORD
  5
1CA
102
{ACAD_REACTORS
330
1C9
102
}
330
1C9
100
AcDbXrecord
280
     1
102
RTVSPropertyOp0
 70
     1
102
RTVSPropertyOp1
 70
     1
102
RTVSPropertyOp2
 70
     1
102
RTVSPropertyOp3
 70
     1
102
RTVSPropertyOp4
 70
     1
102
RTVSPropertyOp5
 70
     1
102
RTVSPropertyOp6
 70
     1
102
RTVSPropertyOp7
 70
     1
102
RTVSPropertyOp8
 70
     1
102
RTVSPropertyOp9
 70
     1
102
RTVSPropertyOp10
 70
     1
102
RTVSPropertyOp11
 70
     1
102
RTVSPropertyOp12
 70
     1
102
RTVSPropertyOp13
 70
     1
102
RTVSPropertyOp14
 70
     1
102
RTVSPropertyOp15
 70
     1
102
RTVSPropertyOp16
 70
     1
102
RTVSPropertyOp17
 70
     1
102
RTVSPropertyOp18
 70
     1
102
RTVSPropertyOp19
 70
     1
102
RTVSPropertyOp20
 70
     1
102
RTVSPropertyOp21
 70
     1
102
RTVSPropertyOp22
 70
     1
102
RTVSPropertyOp23
 70
     1
102
RTVSPropertyOp24
 70
     1
102
RTVSPropertyOp25
 70
     1
102
RTVSPropertyOp26
 70
     1
102
RTVSPropertyOp27
 70
     1
102
RTVSPropertyOp28
 70
     1
102
RTVSPropertyOp29
 70
     1
102
RTVSPropertyOp30
 70
     1
102
RTVSPropertyOp31
 70
     1
102
RTVSPropertyOp32
 70
     1
  0
ENDSEC
  0
EOF
