0
SECTION
2
HEADER
9
$ACADVER
1
AC1015
9
$DWGCODEPAGE
3
ANSI_1252
9
$HANDSEED
5
20e
9
$ANGBASE
50
0
9
$ANGDIR
70
0
9
$ATTMODE
70
1
9
$AUNITS
70
0
9
$AUPREC
70
0
9
$CECOLOR
62
256
9
$CELTSCALE
40
1
9
$CELTYPE
6
ByLayer
9
$CELWEIGHT
370
18
9
$CLAYER
8
0
9
$CMLJUST
70
0
9
$CMLSCALE
40
1
9
$CMLSTYLE
2
Standard
9
$DIMSTYLE
2
Standard
9
$TEXTSIZE
40
0.2
9
$TEXTSTYLE
7
Standard
9
$LUNITS
70
2
9
$LUPREC
70
4
9
$EXTNAMES
290
1
9
$INSUNITS
70
4
9
$LTSCALE
40
1
9
$LWDISPLAY
290
1
9
$PDMODE
70
0
9
$PDSIZE
40
0
9
$PLINEGEN
70
0
0
ENDSEC
0
SECTION
2
CLASSES
0
CLASS
1
RASTERVARIABLES
2
AcDbRasterVariables
3
ISM
90
0
280
0
281
0
0
ENDSEC
0
SECTION
2
TABLES
0
TABLE
2
VPORT
5
204
100
AcDbSymbolTable
0
VPORT
5
1
100
AcDbSymbolTableRecord
100
AcDbViewportTableRecord
2
*Active
70
0
10
0
20
0
11
1
21
1
12
-1
22
1
13
0
23
0
14
0.5
24
0.5
15
10
25
10
16
0
26
0
36
1
17
0
27
0
37
0
0
ENDTAB
0
TABLE
2
LTYPE
5
205
100
AcDbSymbolTable
0
LTYPE
5
14
100
AcDbSymbolTableRecord
100
AcDbLinetypeTableRecord
70
0
2
ByBlock
3

72
65
73
0
40
0
0
LTYPE
5
15
100
AcDbSymbolTableRecord
100
AcDbLinetypeTableRecord
70
0
2
ByLayer
3

72
65
73
0
40
0
0
LTYPE
5
16
100
AcDbSymbolTableRecord
100
AcDbLinetypeTableRecord
70
0
2
CONTINUOUS
3
Solid line
72
65
73
0
40
0
0
LTYPE
5
6A
100
AcDbSymbolTableRecord
100
AcDbLinetypeTableRecord
70
0
2
CENTER
3
____ _ ____ _ ____ _ ____
72
65
73
4
40
47.5
49
22
74
0
49
-8.5
74
0
49
8.5
74
0
49
-8.5
74
0
0
LTYPE
5
6B
100
AcDbSymbolTableRecord
100
AcDbLinetypeTableRecord
70
0
2
DASHED
3
__ __ __ __ __ __ __ __ __
72
65
73
2
40
25.72
49
12.86
74
0
49
-12.86
74
0
0
ENDTAB
0
TABLE
2
LAYER
5
206
100
AcDbSymbolTable
0
LAYER
5
10
100
AcDbSymbolTableRecord
100
AcDbLayerTableRecord
2
0
70
0
62
7
6
CONTINUOUS
290
1
370
-3
390
0
0
LAYER
5
6D
100
AcDbSymbolTableRecord
100
AcDbLayerTableRecord
2
80
70
0
62
-6
6
CONTINUOUS
290
1
370
-3
390
0
0
LAYER
5
6F
100
AcDbSymbolTableRecord
100
AcDbLayerTableRecord
2
81
70
0
62
-3
6
CONTINUOUS
290
1
370
-3
390
0
0
LAYER
5
73
100
AcDbSymbolTableRecord
100
AcDbLayerTableRecord
2
1
70
0
62
4
6
CONTINUOUS
290
1
370
-3
390
0
0
LAYER
5
CB
100
AcDbSymbolTableRecord
100
AcDbLayerTableRecord
2
2
70
0
62
7
6
CONTINUOUS
290
1
370
-3
390
0
0
LAYER
5
1f1
100
AcDbSymbolTableRecord
100
AcDbLayerTableRecord
2
SK1
70
0
62
4
6
CONTINUOUS
290
1
370
-3
390
0
0
LAYER
5
1f2
100
AcDbSymbolTableRecord
100
AcDbLayerTableRecord
2
SK6
70
0
62
5
6
CONTINUOUS
290
1
370
-3
390
0
0
LAYER
5
1f3
100
AcDbSymbolTableRecord
100
AcDbLayerTableRecord
2
SK2
70
0
62
7
6
CONTINUOUS
290
1
370
-3
390
0
0
ENDTAB
0
TABLE
2
STYLE
5
207
100
AcDbSymbolTable
0
STYLE
5
11
100
AcDbSymbolTableRecord
100
AcDbTextStyleTableRecord
2
Standard
3
txt
70
0
71
0
40
0
41
1
42
0
50
0
0
STYLE
5
155
100
AcDbSymbolTableRecord
100
AcDbTextStyleTableRecord
2
iso_b_vert
3
simplex.shx
70
0
71
0
40
0
41
1
42
0
50
0
0
STYLE
5
156
100
AcDbSymbolTableRecord
100
AcDbTextStyleTableRecord
2
DWGDirectTextStyle
3
simplex
70
0
71
0
40
0
41
1
42
0
50
0
0
ENDTAB
0
TABLE
2
DIMSTYLE
5
208
100
AcDbSymbolTable
100
AcDbDimStyleTable
0
DIMSTYLE
105
27
100
AcDbSymbolTableRecord
100
AcDbDimStyleTableRecord
2
Standard
70
0
3
<>
41
0.18
42
0.0625
44
0.18
140
0.18
147
0.09
73
0
74
0
77
1
271
2
275
0
278
52
280
0
340
11
0
ENDTAB
0
TABLE
2
VIEW
5
209
100
AcDbSymbolTable
0
ENDTAB
0
TABLE
2
UCS
5
20a
100
AcDbSymbolTable
0
ENDTAB
0
TABLE
2
APPID
5
20b
100
AcDbSymbolTable
0
APPID
5
12
100
AcDbSymbolTableRecord
100
AcDbRegAppTableRecord
2
ACAD
70
0
0
ENDTAB
0
TABLE
2
BLOCK_RECORD
5
20c
100
AcDbSymbolTable
0
BLOCK_RECORD
5
1F
100
AcDbSymbolTableRecord
100
AcDbBlockTableRecord
2
*Model_Space
340
0
70
0
0
BLOCK_RECORD
5
1B
100
AcDbSymbolTableRecord
100
AcDbBlockTableRecord
2
*Paper_Space
340
0
70
0
0
BLOCK_RECORD
5
23
100
AcDbSymbolTableRecord
100
AcDbBlockTableRecord
2
*Paper_Space0
340
0
70
0
0
BLOCK_RECORD
5
158
100
AcDbSymbolTableRecord
100
AcDbBlockTableRecord
2
DimnDraft3D1
340
0
70
0
0
BLOCK_RECORD
5
167
100
AcDbSymbolTableRecord
100
AcDbBlockTableRecord
2
_CLOSED
340
0
70
0
0
BLOCK_RECORD
5
16E
100
AcDbSymbolTableRecord
100
AcDbBlockTableRecord
2
DimnDraft3D2
340
0
70
0
0
BLOCK_RECORD
5
17C
100
AcDbSymbolTableRecord
100
AcDbBlockTableRecord
2
DimnDraft3D3
340
0
70
0
0
BLOCK_RECORD
5
18A
100
AcDbSymbolTableRecord
100
AcDbBlockTableRecord
2
DimnDraft3D4
340
0
70
0
0
ENDTAB
0
ENDSEC
0
SECTION
2
BLOCKS
0
BLOCK
5
20
100
AcDbEntity
8
0
100
AcDbBlockBegin
2
*Model_Space
70
0
10
0
20
0
30
0
3
*Model_Space
0
ENDBLK
5
21
100
AcDbEntity
8
0
100
AcDbBlockEnd
0
BLOCK
5
1C
100
AcDbEntity
8
0
100
AcDbBlockBegin
2
*Paper_Space
70
0
10
0
20
0
30
0
3
*Paper_Space
0
ENDBLK
5
1D
100
AcDbEntity
8
0
100
AcDbBlockEnd
0
BLOCK
5
24
100
AcDbEntity
8
0
100
AcDbBlockBegin
2
*Paper_Space0
70
0
10
0
20
0
30
0
3
*Paper_Space0
0
ENDBLK
5
25
100
AcDbEntity
8
0
100
AcDbBlockEnd
0
BLOCK
5
164
100
AcDbEntity
8
0
100
AcDbBlockBegin
2
DimnDraft3D1
70
0
10
0
20
0
30
0
3
DimnDraft3D1
0
MTEXT
5
159
100
AcDbEntity
8
SK2
62
256
6
ByLayer
370
13
48
1
60
0
100
AcDbMText
10
-58.129658
20
42.7
30
0
210
0
220
0
230
1
1
\W0.6864;170.0
40
4.5
41
0
44
1.084337
50
0
71
7
72
5
7
iso_b_vert
0
LINE
5
15B
100
AcDbEntity
8
SK2
62
256
6
ByLayer
370
13
48
1
60
0
100
AcDbLine
10
-137.854
20
17.5125
30
0
11
-137.854
21
44.75
31
0
39
0
210
0
220
0
230
1
0
LINE
5
15C
100
AcDbEntity
8
SK2
62
256
6
ByLayer
370
13
48
1
60
0
100
AcDbLine
10
32.146
20
25.6625
30
0
11
32.146
21
44.75
31
0
39
0
210
0
220
0
230
1
0
LINE
5
15D
100
AcDbEntity
8
SK2
62
256
6
ByLayer
370
13
48
1
60
0
100
AcDbLine
10
-137.854
20
41.575
30
0
11
32.146
21
41.575
31
0
39
0
210
0
220
0
230
1
0
LINE
5
15E
100
AcDbEntity
8
SK2
62
256
6
ByLayer
370
13
48
1
60
0
100
AcDbLine
10
-137.854
20
41.575
30
0
11
-134.679003
21
42.425739
31
0
39
0
210
0
220
0
230
1
0
LINE
5
15F
100
AcDbEntity
8
SK2
62
256
6
ByLayer
370
13
48
1
60
0
100
AcDbLine
10
-137.854
20
41.575
30
0
11
-134.678997
21
40.724261
31
0
39
0
210
0
220
0
230
1
0
LINE
5
160
100
AcDbEntity
8
SK2
62
256
6
ByLayer
370
13
48
1
60
0
100
AcDbLine
10
-134.679003
20
42.425739
30
0
11
-134.678997
21
40.724261
31
0
39
0
210
0
220
0
230
1
0
LINE
5
161
100
AcDbEntity
8
SK2
62
256
6
ByLayer
370
13
48
1
60
0
100
AcDbLine
10
32.146
20
41.575
30
0
11
28.971003
21
40.724261
31
0
39
0
210
0
220
0
230
1
0
LINE
5
162
100
AcDbEntity
8
SK2
62
256
6
ByLayer
370
13
48
1
60
0
100
AcDbLine
10
32.146
20
41.575
30
0
11
28.970997
21
42.425739
31
0
39
0
210
0
220
0
230
1
0
LINE
5
163
100
AcDbEntity
8
SK2
62
256
6
ByLayer
370
13
48
1
60
0
100
AcDbLine
10
28.971003
20
40.724261
30
0
11
28.970997
21
42.425739
31
0
39
0
210
0
220
0
230
1
0
ENDBLK
5
165
100
AcDbEntity
8
0
100
AcDbBlockEnd
0
BLOCK
5
168
100
AcDbEntity
8
0
100
AcDbBlockBegin
2
_CLOSED
70
0
10
0
20
0
30
0
3
_CLOSED
0
LINE
5
16A
100
AcDbEntity
8
0
62
256
6
ByLayer
370
-2
48
1
60
0
100
AcDbLine
10
-1
20
0.166667
30
0
11
0
21
0
31
0
39
0
210
0
220
0
230
1
0
LINE
5
16B
100
AcDbEntity
8
0
62
256
6
ByLayer
370
-2
48
1
60
0
100
AcDbLine
10
0
20
0
30
0
11
-1
21
-0.166667
31
0
39
0
210
0
220
0
230
1
0
LINE
5
16C
100
AcDbEntity
8
0
62
256
6
ByLayer
370
-2
48
1
60
0
100
AcDbLine
10
-1
20
0.166667
30
0
11
-1
21
-0.166667
31
0
39
0
210
0
220
0
230
1
0
LINE
5
16D
100
AcDbEntity
8
0
62
256
6
ByLayer
370
-2
48
1
60
0
100
AcDbLine
10
0
20
0
30
0
11
-1
21
0
31
0
39
0
210
0
220
0
230
1
0
ENDBLK
5
169
100
AcDbEntity
8
0
100
AcDbBlockEnd
0
BLOCK
5
179
100
AcDbEntity
8
0
100
AcDbBlockBegin
2
DimnDraft3D2
70
0
10
0
20
0
30
0
3
DimnDraft3D2
0
MTEXT
5
16F
100
AcDbEntity
8
SK2
62
256
6
ByLayer
370
13
48
1
60
0
100
AcDbMText
10
-148.079
20
-4.156579
30
0
210
0
220
0
230
1
1
\W0.7346;32.0
40
4.5
41
0
44
1.084337
50
90
71
7
72
5
7
iso_b_vert
0
LINE
5
170
100
AcDbEntity
8
SK2
62
256
6
ByLayer
370
13
48
1
60
0
100
AcDbLine
10
-139.4415
20
15.925
30
0
11
-150.129
21
15.925
31
0
39
0
210
0
220
0
230
1
0
LINE
5
171
100
AcDbEntity
8
SK2
62
256
6
ByLayer
370
13
48
1
60
0
100
AcDbLine
10
-139.4415
20
-15.925
30
0
11
-150.129
21
-15.925
31
0
39
0
210
0
220
0
230
1
0
LINE
5
172
100
AcDbEntity
8
SK2
62
256
6
ByLayer
370
13
48
1
60
0
100
AcDbLine
10
-146.954
20
15.925
30
0
11
-146.954
21
-15.925
31
0
39
0
210
0
220
0
230
1
0
LINE
5
173
100
AcDbEntity
8
SK2
62
256
6
ByLayer
370
13
48
1
60
0
100
AcDbLine
10
-146.954
20
15.925
30
0
11
-146.103261
21
12.750003
31
0
39
0
210
0
220
0
230
1
0
LINE
5
174
100
AcDbEntity
8
SK2
62
256
6
ByLayer
370
13
48
1
60
0
100
AcDbLine
10
-146.954
20
15.925
30
0
11
-147.804739
21
12.749997
31
0
39
0
210
0
220
0
230
1
0
LINE
5
175
100
AcDbEntity
8
SK2
62
256
6
ByLayer
370
13
48
1
60
0
100
AcDbLine
10
-146.103261
20
12.750003
30
0
11
-147.804739
21
12.749997
31
0
39
0
210
0
220
0
230
1
0
LINE
5
176
100
AcDbEntity
8
SK2
62
256
6
ByLayer
370
13
48
1
60
0
100
AcDbLine
10
-146.954
20
-15.925
30
0
11
-147.804739
21
-12.750003
31
0
39
0
210
0
220
0
230
1
0
LINE
5
177
100
AcDbEntity
8
SK2
62
256
6
ByLayer
370
13
48
1
60
0
100
AcDbLine
10
-146.954
20
-15.925
30
0
11
-146.103261
21
-12.749997
31
0
39
0
210
0
220
0
230
1
0
LINE
5
178
100
AcDbEntity
8
SK2
62
256
6
ByLayer
370
13
48
1
60
0
100
AcDbLine
10
-147.804739
20
-12.750003
30
0
11
-146.103261
21
-12.749997
31
0
39
0
210
0
220
0
230
1
0
ENDBLK
5
17A
100
AcDbEntity
8
0
100
AcDbBlockEnd
0
BLOCK
5
187
100
AcDbEntity
8
0
100
AcDbBlockBegin
2
DimnDraft3D3
70
0
10
0
20
0
30
0
3
DimnDraft3D3
0
MTEXT
5
17D
100
AcDbEntity
8
2
62
256
6
ByLayer
370
13
48
1
60
0
100
AcDbMText
10
51.871
20
-0.318421
30
0
210
0
220
0
230
1
1
\W0.7640;40.0
40
4.5
41
0
44
1.084337
50
90
71
7
72
5
7
iso_b_vert
0
LINE
5
17E
100
AcDbEntity
8
2
62
256
6
ByLayer
370
13
48
1
60
0
100
AcDbLine
10
1.5875
20
-15.925
30
0
11
56.171
21
-15.925
31
0
39
0
210
0
220
0
230
1
0
LINE
5
17F
100
AcDbEntity
8
2
62
256
6
ByLayer
370
13
48
1
60
0
100
AcDbLine
10
33.7335
20
24.075
30
0
11
56.171
21
24.075
31
0
39
0
210
0
220
0
230
1
0
LINE
5
180
100
AcDbEntity
8
2
62
256
6
ByLayer
370
13
48
1
60
0
100
AcDbLine
10
52.996
20
-15.925
30
0
11
52.996
21
24.075
31
0
39
0
210
0
220
0
230
1
0
LINE
5
181
100
AcDbEntity
8
2
62
256
6
ByLayer
370
13
48
1
60
0
100
AcDbLine
10
52.996
20
-15.925
30
0
11
52.145261
21
-12.750003
31
0
39
0
210
0
220
0
230
1
0
LINE
5
182
100
AcDbEntity
8
2
62
256
6
ByLayer
370
13
48
1
60
0
100
AcDbLine
10
52.996
20
-15.925
30
0
11
53.846739
21
-12.749997
31
0
39
0
210
0
220
0
230
1
0
LINE
5
183
100
AcDbEntity
8
2
62
256
6
ByLayer
370
13
48
1
60
0
100
AcDbLine
10
52.145261
20
-12.750003
30
0
11
53.846739
21
-12.749997
31
0
39
0
210
0
220
0
230
1
0
LINE
5
184
100
AcDbEntity
8
2
62
256
6
ByLayer
370
13
48
1
60
0
100
AcDbLine
10
52.996
20
24.075
30
0
11
53.846739
21
20.900003
31
0
39
0
210
0
220
0
230
1
0
LINE
5
185
100
AcDbEntity
8
2
62
256
6
ByLayer
370
13
48
1
60
0
100
AcDbLine
10
52.996
20
24.075
30
0
11
52.145261
21
20.899997
31
0
39
0
210
0
220
0
230
1
0
LINE
5
186
100
AcDbEntity
8
2
62
256
6
ByLayer
370
13
48
1
60
0
100
AcDbLine
10
53.846739
20
20.900003
30
0
11
52.145261
21
20.899997
31
0
39
0
210
0
220
0
230
1
0
ENDBLK
5
188
100
AcDbEntity
8
0
100
AcDbBlockEnd
0
BLOCK
5
195
100
AcDbEntity
8
0
100
AcDbBlockBegin
2
DimnDraft3D4
70
0
10
0
20
0
30
0
3
DimnDraft3D4
0
MTEXT
5
18B
100
AcDbEntity
8
2
62
256
6
ByLayer
370
13
48
1
60
0
100
AcDbMText
10
17.767961
20
-22.553164
30
0
210
0
220
0
230
1
1
\W0.7346;25.0
40
4.5
41
0
44
1.084337
50
347.500000000422
71
7
72
5
7
iso_b_vert
0
LINE
5
18C
100
AcDbEntity
8
2
62
256
6
ByLayer
370
13
48
1
60
0
100
AcDbLine
10
32.146
20
21.075295
30
0
11
32.146
21
-28.883035
31
0
39
0
210
0
220
0
230
1
0
LINE
5
18D
100
AcDbEntity
8
2
62
256
6
ByLayer
370
13
48
1
60
0
100
AcDbLine
10
30.621514
20
19.828374
30
0
11
10.178016
21
-24.01285
31
0
39
0
210
0
220
0
230
1
0
ARC
5
18E
100
AcDbEntity
8
2
62
256
6
ByLayer
370
13
48
1
60
0
100
AcDbCircle
39
0
10
32.146
20
23.097644
30
0
40
48.8056791903586
210
0
220
0
230
1
100
AcDbArc
50
232.019706
51
282.980294
0
LINE
5
18F
100
AcDbEntity
8
2
62
256
6
ByLayer
370
13
48
1
60
0
100
AcDbLine
10
32.146
20
-25.708035
30
0
11
35.306747
21
-24.805793
31
0
39
0
210
0
220
0
230
1
0
LINE
5
190
100
AcDbEntity
8
2
62
256
6
ByLayer
370
13
48
1
60
0
100
AcDbLine
10
32.146
20
-25.708035
30
0
11
35.334414
21
-26.507045
31
0
39
0
210
0
220
0
230
1
0
LINE
5
191
100
AcDbEntity
8
2
62
256
6
ByLayer
370
13
48
1
60
0
100
AcDbLine
10
35.306747
20
-24.805793
30
0
11
35.334414
21
-26.507045
31
0
39
0
210
0
220
0
230
1
0
LINE
5
192
100
AcDbEntity
8
2
62
256
6
ByLayer
370
13
48
1
60
0
100
AcDbLine
10
11.519829
20
-21.135323
30
0
11
8.292474
21
-20.511993
31
0
39
0
210
0
220
0
230
1
0
LINE
5
193
100
AcDbEntity
8
2
62
256
6
ByLayer
370
13
48
1
60
0
100
AcDbLine
10
11.519829
20
-21.135323
30
0
11
9.036518
21
-18.981822
31
0
39
0
210
0
220
0
230
1
0
LINE
5
194
100
AcDbEntity
8
2
62
256
6
ByLayer
370
13
48
1
60
0
100
AcDbLine
10
8.292474
20
-20.511993
30
0
11
9.036518
21
-18.981822
31
0
39
0
210
0
220
0
230
1
0
ENDBLK
5
196
100
AcDbEntity
8
0
100
AcDbBlockEnd
0
ENDSEC
0
SECTION
2
ENTITIES
0
ARC
5
CD
100
AcDbEntity
8
1
62
256
6
ByLayer
370
18
48
1
60
0
100
AcDbCircle
39
0
10
22.636786
20
15.334901
30
0
40
5.243733577895
210
0
220
0
230
1
100
AcDbArc
50
114
51
129.900955
0
ARC
5
CE
100
AcDbEntity
8
1
62
256
6
ByLayer
370
18
48
1
60
0
100
AcDbCircle
39
0
10
14.811252
20
7.956553
30
0
40
1.94373357789498
210
0
220
0
230
1
100
AcDbArc
50
237.381403
51
275
0
ARC
5
CF
100
AcDbEntity
8
1
62
256
6
ByLayer
370
18
48
1
60
0
100
AcDbCircle
39
0
10
-16.615647
20
11.427022
30
0
40
4.99999999999999
210
0
220
0
230
-1
100
AcDbArc
50
245
51
254.320316
0
ARC
5
D0
100
AcDbEntity
8
1
62
256
6
ByLayer
370
18
48
1
60
0
100
AcDbCircle
39
0
10
-14.811252
20
7.956553
30
0
40
1.69999999999999
210
0
220
0
230
-1
100
AcDbArc
50
276.675923
51
295.054893
0
ARC
5
D1
100
AcDbEntity
8
1
62
256
6
ByLayer
370
18
48
1
60
0
100
AcDbCircle
39
0
10
16.615647
20
11.427022
30
0
40
5.24373357789498
210
0
220
0
230
1
100
AcDbArc
50
275
51
295
0
ARC
5
D2
100
AcDbEntity
8
1
62
256
6
ByLayer
370
13
48
1
60
0
100
AcDbCircle
39
0
10
-23.18457
20
15.11357
30
0
40
2.578
210
0
220
0
230
-1
100
AcDbArc
50
180.000002
51
246.510001
0
ARC
5
D3
100
AcDbEntity
8
1
62
256
6
ByLayer
370
13
48
1
60
0
100
AcDbCircle
39
0
10
-23.18457
20
15.11357
30
0
40
2.578
210
0
220
0
230
-1
100
AcDbArc
50
93.493132
51
180.000002
0
ARC
5
D4
100
AcDbEntity
8
1
62
256
6
ByLayer
370
13
48
1
60
0
100
AcDbCircle
39
0
10
-23.18457
20
15.11357
30
0
40
5.51786771999517
210
0
220
0
230
-1
100
AcDbArc
50
49.526872
51
65
0
ARC
5
D5
100
AcDbEntity
8
1
62
256
6
ByLayer
370
13
48
1
60
0
100
AcDbCircle
39
0
10
-15.030498
20
6.959498
30
0
40
0.807357296468598
210
0
220
0
230
-1
100
AcDbArc
50
270
51
327.224508
0
ARC
5
D6
100
AcDbEntity
8
1
62
256
6
ByLayer
370
18
48
1
60
0
100
AcDbCircle
39
0
10
23.18457
20
15.11357
30
0
40
2.39894876836046
210
0
220
0
230
1
100
AcDbArc
50
303.395615
51
76.601235
0
ARC
5
D7
100
AcDbEntity
8
1
62
256
6
ByLayer
370
18
48
1
60
0
100
AcDbCircle
39
0
10
-23.18457
20
15.11357
30
0
40
2.3603546462382
210
2.04085114820801E-17
220
-1.54074395550979E-33
230
-1
100
AcDbArc
50
180.000005
51
225
0
ARC
5
D8
100
AcDbEntity
8
1
62
256
6
ByLayer
370
18
48
1
60
0
100
AcDbCircle
39
0
10
-23.18457
20
15.11357
30
0
40
2.3603546462382
210
2.04085114820801E-17
220
-1.54074395550979E-33
230
-1
100
AcDbArc
50
225
51
233.735614
0
ARC
5
D9
100
AcDbEntity
8
1
62
256
6
ByLayer
370
18
48
1
60
0
100
AcDbCircle
39
0
10
-23.18457
20
15.11357
30
0
40
2.3603546462382
210
2.04085114820801E-17
220
-1.54074395550979E-33
230
-1
100
AcDbArc
50
106.267508
51
180.000005
0
ARC
5
DA
100
AcDbEntity
8
1
62
256
6
ByLayer
370
18
48
1
60
0
100
AcDbCircle
39
0
10
-23.314565
20
15.136492
30
0
40
2.20000000000062
210
0
220
0
230
-1
100
AcDbArc
50
170
51
219
0
ARC
5
DB
100
AcDbEntity
8
1
62
256
6
ByLayer
370
18
48
1
60
0
100
AcDbCircle
39
0
10
-23.314565
20
15.136492
30
0
40
2.20000000000843
210
0
220
0
230
-1
100
AcDbArc
50
121
51
170
0
ARC
5
DC
100
AcDbEntity
8
1
62
256
6
ByLayer
370
18
48
1
60
0
100
AcDbCircle
39
0
10
-8.828043
20
12.582127
30
0
40
1.175
210
0
220
0
230
-1
100
AcDbArc
50
16.376394
51
23.623606
0
ARC
5
DD
100
AcDbEntity
8
1
62
256
6
ByLayer
370
18
48
1
60
0
100
AcDbCircle
39
0
10
-10.046906
20
13.604874
30
0
40
0.425
210
0
220
0
230
-1
100
AcDbArc
50
330.063185
51
11.215103
0
ARC
5
DE
100
AcDbEntity
8
1
62
256
6
ByLayer
370
18
48
1
60
0
100
AcDbCircle
39
0
10
-8.828043
20
12.582127
30
0
40
1.175
210
0
220
0
230
-1
100
AcDbArc
50
196.376394
51
203.623606
0
ARC
5
DF
100
AcDbEntity
8
1
62
256
6
ByLayer
370
18
48
1
60
0
100
AcDbCircle
39
0
10
-7.332886
20
13.12632
30
0
40
0.425
210
0
220
0
230
-1
100
AcDbArc
50
148.784897
51
189.936815
0
ARC
5
E0
100
AcDbEntity
8
1
62
256
6
ByLayer
370
18
48
1
60
0
100
AcDbCircle
39
0
10
-9.104337
20
11.015187
30
0
40
0.425
210
0
220
0
230
-1
100
AcDbArc
50
90.063185
51
131.215103
0
ARC
5
E1
100
AcDbEntity
8
1
62
256
6
ByLayer
370
18
48
1
60
0
100
AcDbCircle
39
0
10
9.634741
20
11.620741
30
0
40
0.38
210
0
220
0
230
1
100
AcDbArc
50
228.784897
51
31.215103
0
ARC
5
E2
100
AcDbEntity
8
1
62
256
6
ByLayer
370
18
48
1
60
0
100
AcDbCircle
39
0
10
-7.60918
20
11.55938
30
0
40
0.425
210
0
220
0
230
-1
100
AcDbArc
50
150.063185
51
191.215103
0
ARC
5
E3
100
AcDbEntity
8
1
62
256
6
ByLayer
370
18
48
1
60
0
100
AcDbCircle
39
0
10
9.257278
20
13.761441
30
0
40
0.38
210
0
220
0
230
1
100
AcDbArc
50
348.784897
51
151.215103
0
ARC
5
E4
100
AcDbEntity
8
1
62
256
6
ByLayer
370
18
48
1
60
0
100
AcDbCircle
39
0
10
8.398807
20
11.402813
30
0
40
0.38
210
0
220
0
230
1
100
AcDbArc
50
168.784897
51
331.215103
0
ARC
5
E5
100
AcDbEntity
8
1
62
256
6
ByLayer
370
18
48
1
60
0
100
AcDbCircle
39
0
10
-8.551749
20
14.149067
30
0
40
0.425
210
0
220
0
230
-1
100
AcDbArc
50
208.784897
51
249.936815
0
ARC
5
E6
100
AcDbEntity
8
1
62
256
6
ByLayer
370
18
48
1
60
0
100
AcDbCircle
39
0
10
-7.332886
20
13.12632
30
0
40
0.425
210
0
220
0
230
-1
100
AcDbArc
50
210.063185
51
251.215103
0
ARC
5
E7
100
AcDbEntity
8
1
62
256
6
ByLayer
370
18
48
1
60
0
100
AcDbCircle
39
0
10
7.592109
20
12.364199
30
0
40
0.38
210
0
220
0
230
1
100
AcDbArc
50
108.784897
51
271.215103
0
ARC
5
E8
100
AcDbEntity
8
1
62
256
6
ByLayer
370
18
48
1
60
0
100
AcDbCircle
39
0
10
-8.828043
20
12.582127
30
0
40
1.175
210
0
220
0
230
-1
100
AcDbArc
50
76.376394
51
83.623606
0
ARC
5
EB
100
AcDbEntity
8
1
62
256
6
ByLayer
370
18
48
1
60
0
100
AcDbCircle
39
0
10
-8.828043
20
12.582127
30
0
40
1.175
210
0
220
0
230
-1
100
AcDbArc
50
136.376394
51
143.623606
0
ARC
5
EC
100
AcDbEntity
8
1
62
256
6
ByLayer
370
18
48
1
60
0
100
AcDbCircle
39
0
10
-10.323199
20
12.037934
30
0
40
0.425
210
0
220
0
230
-1
100
AcDbArc
50
30.063185
51
71.215103
0
ARC
5
ED
100
AcDbEntity
8
1
62
256
6
ByLayer
370
18
48
1
60
0
100
AcDbCircle
39
0
10
-8.551749
20
14.149067
30
0
40
0.425
210
0
220
0
230
-1
100
AcDbArc
50
270.063185
51
311.215103
0
ARC
5
EF
100
AcDbEntity
8
1
62
256
6
ByLayer
370
18
48
1
60
0
100
AcDbCircle
39
0
10
-7.60918
20
11.55938
30
0
40
0.425
210
0
220
0
230
-1
100
AcDbArc
50
88.784897
51
129.936815
0
ARC
5
F0
100
AcDbEntity
8
1
62
256
6
ByLayer
370
18
48
1
60
0
100
AcDbCircle
39
0
10
-10.323199
20
12.037934
30
0
40
0.425
210
0
220
0
230
-1
100
AcDbArc
50
328.784897
51
9.936815
0
ARC
5
F1
100
AcDbEntity
8
1
62
256
6
ByLayer
370
18
48
1
60
0
100
AcDbCircle
39
0
10
-9.104337
20
11.015187
30
0
40
0.425
210
0
220
0
230
-1
100
AcDbArc
50
28.784897
51
69.936815
0
ARC
5
F2
100
AcDbEntity
8
1
62
256
6
ByLayer
370
18
48
1
60
0
100
AcDbCircle
39
0
10
-8.828043
20
12.582127
30
0
40
1.175
210
0
220
0
230
-1
100
AcDbArc
50
256.376394
51
263.623606
0
ARC
5
F3
100
AcDbEntity
8
1
62
256
6
ByLayer
370
18
48
1
60
0
100
AcDbCircle
39
0
10
-10.046906
20
13.604874
30
0
40
0.425
210
0
220
0
230
-1
100
AcDbArc
50
268.784897
51
309.936815
0
ARC
5
F4
100
AcDbEntity
8
1
62
256
6
ByLayer
370
18
48
1
60
0
100
AcDbCircle
39
0
10
10.063976
20
12.800055
30
0
40
0.38
210
0
220
0
230
1
100
AcDbArc
50
288.784897
51
91.215103
0
ARC
5
F5
100
AcDbEntity
8
1
62
256
6
ByLayer
370
18
48
1
60
0
100
AcDbCircle
39
0
10
8.021344
20
13.543513
30
0
40
0.38
210
0
220
0
230
1
100
AcDbArc
50
48.784897
51
211.215103
0
ARC
5
F6
100
AcDbEntity
8
1
62
256
6
ByLayer
370
18
48
1
60
0
100
AcDbCircle
39
0
10
-8.828043
20
12.582127
30
0
40
1.175
210
0
220
0
230
-1
100
AcDbArc
50
316.376394
51
323.623606
0
ARC
5
F7
100
AcDbEntity
8
1
62
256
6
ByLayer
370
13
48
1
60
0
100
AcDbCircle
39
0
10
-30.252682
20
18.961174
30
0
40
5.0073572964686
210
0
220
0
230
-1
100
AcDbArc
50
65
51
85
0
ARC
5
F8
100
AcDbEntity
8
1
62
256
6
ByLayer
370
13
48
1
60
0
100
AcDbCircle
39
0
10
-27.032174
20
22.181682
30
0
40
5.0073572964686
210
0
220
0
230
-1
100
AcDbArc
50
185
51
205
0
ARC
5
F9
100
AcDbEntity
8
1
62
256
6
ByLayer
370
13
48
1
60
0
100
AcDbCircle
39
0
10
23.137115
20
5.712729
30
0
40
2.9926427035314
210
0
220
0
230
1
100
AcDbArc
50
110.552151
51
115
0
ARC
5
FA
100
AcDbEntity
8
1
62
256
6
ByLayer
370
13
48
1
60
0
100
AcDbCircle
39
0
10
-31.338643
20
23.267643
30
0
40
0.807357296468598
210
0
220
0
230
-1
100
AcDbArc
50
90
51
180
0
ARC
5
FB
100
AcDbEntity
8
1
62
256
6
ByLayer
370
13
48
1
60
0
100
AcDbCircle
39
0
10
32.585411
20
15.161026
30
0
40
2.9926427035314
210
0
220
0
230
1
100
AcDbArc
50
155
51
159.447849
0
ARC
5
FC
100
AcDbEntity
8
1
62
256
6
ByLayer
370
13
48
1
60
0
100
AcDbCircle
39
0
10
-23.18457
20
15.11357
30
0
40
5.51786771999517
210
0
220
0
230
-1
100
AcDbArc
50
205
51
245
0
ARC
5
FD
100
AcDbEntity
8
1
62
256
6
ByLayer
370
13
48
1
60
0
100
AcDbCircle
39
0
10
-30.138643
20
23.267643
30
0
40
2.00735729646859
210
0
220
0
230
-1
100
AcDbArc
50
180
51
185
0
ARC
5
FE
100
AcDbEntity
8
1
62
256
6
ByLayer
370
13
48
1
60
0
100
AcDbCircle
39
0
10
23.232026
20
24.514411
30
0
40
2.9926427035314
210
0
220
0
230
1
100
AcDbArc
50
290.552151
51
295
0
ARC
5
FF
100
AcDbEntity
8
1
62
256
6
ByLayer
370
13
48
1
60
0
100
AcDbCircle
39
0
10
-31.338643
20
22.067643
30
0
40
2.00735729646859
210
0
220
0
230
-1
100
AcDbArc
50
85
51
90
0
ARC
5
100
100
AcDbEntity
8
1
62
256
6
ByLayer
370
13
48
1
60
0
100
AcDbCircle
39
0
10
-15.030498
20
8.159498
30
0
40
2.00735729646859
210
0
220
0
230
-1
100
AcDbArc
50
265
51
270
0
ARC
5
101
100
AcDbEntity
8
1
62
256
6
ByLayer
370
13
48
1
60
0
100
AcDbCircle
39
0
10
-16.116458
20
11.265966
30
0
40
5.0073572964686
210
0
220
0
230
-1
100
AcDbArc
50
245
51
265
0
CIRCLE
5
E9
100
AcDbEntity
8
1
62
256
6
ByLayer
370
18
48
1
60
0
100
AcDbCircle
10
8.828043
20
12.582127
30
0
40
2.3
39
0
210
0
220
0
230
1
0
CIRCLE
5
EA
100
AcDbEntity
8
1
62
256
6
ByLayer
370
18
48
1
60
0
100
AcDbCircle
10
-8.828043
20
12.582127
30
0
40
1.15
39
0
210
0
220
0
230
-1
0
CIRCLE
5
EE
100
AcDbEntity
8
1
62
256
6
ByLayer
370
18
48
1
60
0
100
AcDbCircle
10
8.828043
20
12.582127
30
0
40
4
39
0
210
0
220
0
230
1
0
ELLIPSE
5
102
100
AcDbEntity
8
1
62
256
6
ByLayer
370
18
48
1
60
0
100
AcDbEllipse
10
-0.895042
20
3.759699
30
0
11
6.96364240320012
21
1.22787803969016
31
1.4211757594281E-16
210
2.04085114820801E-17
220
-2.31111593326468E-33
230
-1
40
0.707107
41
0.0400305895839577
42
1.56694667732648
0
ELLIPSE
5
103
100
AcDbEntity
8
1
62
256
6
ByLayer
370
18
48
1
60
0
100
AcDbEllipse
10
25.853539
20
22.362314
30
0
11
0.499999394279246
21
0.0176512003415216
31
0
210
0
220
0
230
-1
40
0.044092
41
2.01568604828091
42
-3.1400360926673
0
ELLIPSE
5
104
100
AcDbEntity
8
SK1
62
256
6
ByLayer
370
18
48
1
60
0
100
AcDbEllipse
10
-1.236244
20
3.699535
30
0
11
-0.86824088833496
21
4.92403876506098
31
0
210
0
220
0
230
1
40
0.707107
41
-3.10892442877373
42
-3.03425881219742
0
ELLIPSE
5
105
100
AcDbEntity
8
SK1
62
256
6
ByLayer
370
18
48
1
60
0
100
AcDbEllipse
10
-0.895042
20
3.759699
30
0
11
6.96364240320012
21
1.22787803969016
31
1.4211757594281E-16
210
2.04085114820801E-17
220
-2.31111593326468E-33
230
-1
40
0.707107
41
1.56694667732648
42
1.66894926159635
0
ELLIPSE
5
106
100
AcDbEntity
8
SK1
62
256
6
ByLayer
370
18
48
1
60
0
100
AcDbEllipse
10
-1.932609
20
3.576748
30
0
11
0.694592710667965
21
-3.93923101204879
31
0
210
0
220
0
230
1
40
0.707107
41
-0.381695258502804
42
0.494155804235517
0
ELLIPSE
5
107
100
AcDbEntity
8
1
62
256
6
ByLayer
370
18
48
1
60
0
100
AcDbEllipse
10
-61.472544
20
51.314999
30
0
11
16.1837370207973
21
100.711133324927
31
0
210
0
220
0
230
-1
40
0.941567
41
1.83741465460472
42
1.84061105525573
0
ELLIPSE
5
108
100
AcDbEntity
8
1
62
256
6
ByLayer
370
18
48
1
60
0
100
AcDbEllipse
10
-1.932609
20
3.576748
30
0
11
0.694592710667965
21
-3.93923101204879
31
0
210
0
220
0
230
1
40
0.707107
41
0.494155804235925
42
1.5707963267949
0
ELLIPSE
5
109
100
AcDbEntity
8
1
62
256
6
ByLayer
370
18
48
1
60
0
100
AcDbEllipse
10
-1.236244
20
3.699535
30
0
11
-0.86824088833496
21
4.92403876506098
31
0
210
0
220
0
230
1
40
0.707107
41
-3.03425881219742
42
-1.5707963267949
0
ELLIPSE
5
10A
100
AcDbEntity
8
1
62
256
6
ByLayer
370
18
48
1
60
0
100
AcDbEllipse
10
-64.119462
20
53.959217
30
0
11
70.7214493379408
21
-70.7214493379311
31
1.44331951084271E-15
210
2.04085114820801E-17
220
-3.08148791101958E-33
230
-1
40
0.999848
41
-0.327954188539084
42
-0.209408536054992
0
ELLIPSE
5
10B
100
AcDbEntity
8
1
62
256
6
ByLayer
370
18
48
1
60
0
100
AcDbEllipse
10
5.346155
20
16.837796
30
0
11
5.41644152585981
21
0.955064653766897
31
0
210
0
220
0
230
-1
40
0.240328
41
2.67964993112048
42
2.732642241996
0
ELLIPSE
5
10C
100
AcDbEntity
8
1
62
256
6
ByLayer
370
18
48
1
60
0
100
AcDbEllipse
10
5.021257
20
18.680389
30
0
11
3.44682713552546
21
0.607768621830368
31
0
210
0
220
0
230
-1
40
0.377658
41
2.67964998362276
42
-2.88031721715618
0
ELLIPSE
5
10D
100
AcDbEntity
8
1
62
256
6
ByLayer
370
18
48
1
60
0
100
AcDbEllipse
10
2.65909
20
15.759166
30
0
11
-2.97661046204349
21
-0.524856735517549
31
0
210
-8.54184564237114E-16
220
-1.50615785179761E-16
230
1
40
0.992546
41
-1.05168906306425
42
0
0
ELLIPSE
5
10E
100
AcDbEntity
8
1
62
256
6
ByLayer
370
18
48
1
60
0
100
AcDbEllipse
10
2.362895
20
15.713567
30
0
11
-0.913637607830314
21
-1.77911953548886
31
0
210
0
220
0
230
1
40
0.848036
41
-2.4118386339365
42
-0.999163139676876
0
ELLIPSE
5
10F
100
AcDbEntity
8
1
62
256
6
ByLayer
370
18
48
1
60
0
100
AcDbEllipse
10
4.117734
20
7.486781
30
0
11
-2.97661046204352
21
-0.524856735517551
31
-2.62162641975114E-15
210
8.54184564237114E-16
220
1.50615785179761E-16
230
-1
40
0.992546
41
-1.05168906306426
42
-2.96059518465384E-16
0
ELLIPSE
5
110
100
AcDbEntity
8
1
62
256
6
ByLayer
370
18
48
1
60
0
100
AcDbEllipse
10
3.823806
20
7.428325
30
0
11
1.4670332366722
21
-1.35934303341691
31
0
210
0
220
0
230
1
40
0.848036
41
-2.14242951391291
42
-0.729754019653298
0
ELLIPSE
5
111
100
AcDbEntity
8
1
62
256
6
ByLayer
370
18
48
1
60
0
100
AcDbEllipse
10
4.066354
20
16.007305
30
0
11
3.07230256563393
21
-1.75516444415209
31
0
210
0
220
0
230
-1
40
0.724269
41
-2.78454212737572
42
-2.42492639402602
0
ELLIPSE
5
112
100
AcDbEntity
8
1
62
256
6
ByLayer
370
18
48
1
60
0
100
AcDbEllipse
10
7.011664
20
7.392231
30
0
11
5.41644300905361
21
0.955065002299703
31
0
210
0
220
0
230
-1
40
0.240328
41
-2.73264230311633
42
-2.67965000029395
0
ELLIPSE
5
113
100
AcDbEntity
8
1
62
256
6
ByLayer
370
18
48
1
60
0
100
AcDbEllipse
10
5.524999
20
7.73492
30
0
11
2.28671845500568
21
2.70010444047672
31
0
210
0
220
0
230
-1
40
0.724269
41
2.42492639406792
42
2.78454212740823
0
ELLIPSE
5
114
100
AcDbEntity
8
1
62
256
6
ByLayer
370
18
48
1
60
0
100
AcDbEllipse
10
7.336563
20
5.549638
30
0
11
3.44682713559698
21
0.607768621841759
31
0
210
0
220
0
230
-1
40
0.377658
41
2.88031721715855
42
-2.67964998362799
0
ELLIPSE
5
115
100
AcDbEntity
8
1
62
256
6
ByLayer
370
18
48
1
60
0
100
AcDbEllipse
10
9.553217
20
12.709995
30
0
11
-0.720639937318018
21
4.08695217500062
31
0
210
0
220
0
230
1
40
0.999848
41
-3.14159265358977
42
2.01208346203109E-14
0
POINT
5
6C
100
AcDbEntity
8
80
62
256
6
ByLayer
370
18
48
1
60
0
100
AcDbPoint
10
0
20
0
30
0
39
0
210
0
220
0
230
1
50
360
0
POINT
5
6E
100
AcDbEntity
8
81
62
256
6
ByLayer
370
18
48
1
60
0
100
AcDbPoint
10
32.146
20
24.075
30
0
39
0
210
0
220
0
230
1
50
360
0
SPLINE
5
116
100
AcDbEntity
8
1
62
256
6
ByLayer
370
18
48
1
60
0
100
AcDbSpline
70
4
71
3
72
22
73
18
40
0
40
0
40
0
40
0
40
0.09009938478505
40
0.09009938478505
40
0.241749487320876
40
0.241749487320876
40
0.393399589856701
40
0.393399589856701
40
0.545049692392527
40
0.545049692392527
40
0.696699794928352
40
0.696699794928352
40
0.848349897464177
40
0.848349897464177
40
0.924174948732089
40
0.924174948732089
40
1
40
1
40
1
40
1
41
1
10
0
20
-1.04711852332289
30
0
41
1
10
0
20
-1.02868722696184
30
0
41
1
10
0
20
-1.00752234156843
30
0
41
1
10
0
20
-0.943542701670879
30
0
41
1
10
0
20
-0.89635924017341
30
0
41
1
10
0
20
-0.789920200123447
30
0
41
1
10
-5.68E-14
20
-0.730500142435886
30
0
41
1
10
5.68E-14
20
-0.599082264556841
30
0
41
1
10
5.68E-14
20
-0.527770281643626
30
0
41
1
10
0
20
-0.376325315228144
30
0
41
1
10
5.68E-14
20
-0.295875830970431
30
0
41
1
10
-5.68E-14
20
-0.124685310737789
30
0
41
1
10
5.68E-14
20
-0.0362257308488552
30
0
41
1
10
-5.68E-14
20
0.101622096330459
30
0
41
1
10
0
20
0.148413647097186
30
0
41
1
10
0
20
0.243881558902444
30
0
41
1
10
0
20
0.29275369243058
30
0
41
1
10
0
20
0.341716476680261
30
0
0
SPLINE
5
117
100
AcDbEntity
8
SK1
62
256
6
ByLayer
370
18
48
1
60
0
100
AcDbSpline
70
4
71
3
72
22
73
18
40
0
40
0
40
0
40
0
40
0.0900993847877091
40
0.0900993847877091
40
0.24174948732309
40
0.24174948732309
40
0.393399589858471
40
0.393399589858471
40
0.545049692393852
40
0.545049692393852
40
0.696699794929233
40
0.696699794929233
40
0.848349897464614
40
0.848349897464614
40
0.924174948732307
40
0.924174948732307
40
1
40
1
40
1
40
1
41
1
10
0
20
-1.04711852332488
30
0
41
1
10
0
20
-1.02868722696348
30
0
41
1
10
0
20
-1.00752234156951
30
0
41
1
10
5.68E-14
20
-0.943542701671333
30
0
41
1
10
0
20
-0.89635924017395
30
0
41
1
10
5.68E-14
20
-0.789920200124271
30
0
41
1
10
0
20
-0.730500142436853
30
0
41
1
10
5.68E-14
20
-0.599082264558149
30
0
41
1
10
0
20
-0.527770281645076
30
0
41
1
10
-5.68E-14
20
-0.376325315229963
30
0
41
1
10
-5.68E-14
20
-0.295875830972449
30
0
41
1
10
-5.68E-14
20
-0.124685310740233
30
0
41
1
10
-5.68E-14
20
-0.0362257308514415
30
0
41
1
10
5.68E-14
20
0.101622096327588
30
0
41
1
10
5.68E-14
20
0.148413647094174
30
0
41
1
10
5.68E-14
20
0.243881558899233
30
0
41
1
10
5.68E-14
20
0.292753692427283
30
0
41
1
10
0
20
0.341716476676879
30
0
0
SPLINE
5
118
100
AcDbEntity
8
SK1
62
256
6
ByLayer
370
18
48
1
60
0
100
AcDbSpline
70
4
71
3
72
10
73
6
40
0
40
0
40
0
40
0
40
0.560381932443152
40
0.560381932443152
40
1
40
1
40
1
40
1
41
1
10
-0.621600079586358
20
15.925
30
0
41
1
10
-0.565505867241541
20
15.925
30
0
41
1
10
-0.50991253849844
20
15.9281365132308
30
0
41
1
10
-0.411580546632138
20
15.9391386690352
30
0
41
1
10
-0.368292684975074
20
15.9459316304275
30
0
41
1
10
-0.326007075521602
20
15.9544198878923
30
0
0
SPLINE
5
119
100
AcDbEntity
8
SK1
62
256
6
ByLayer
370
18
48
1
60
0
100
AcDbSpline
70
4
71
3
72
24
73
20
40
0
40
0
40
0
40
0
40
0.125
40
0.125
40
0.250000000000001
40
0.250000000000001
40
0.375000000000001
40
0.375000000000001
40
0.500000000000001
40
0.500000000000001
40
0.625000000000001
40
0.625000000000001
40
0.750000000000002
40
0.750000000000002
40
0.875000000000002
40
0.875000000000002
40
0.937500000000001
40
0.937500000000001
40
1
40
1
40
1
40
1
41
1
10
-0.713385032816575
20
-1.26096656055228
30
0
41
1
10
-0.799201748663052
20
-1.27001203220044
30
0
41
1
10
-0.885066204201621
20
-1.27237950885652
30
0
41
1
10
-1.05688851964015
20
-1.26404873356398
30
0
41
1
10
-1.1435755508171
20
-1.25316709977764
30
0
41
1
10
-1.31270619288722
20
-1.21846689067121
30
0
41
1
10
-1.3951610361234
20
-1.19479980402107
30
0
41
1
10
-1.55581803512331
20
-1.1347366881842
30
0
41
1
10
-1.63452570789445
20
-1.09806093704623
30
0
41
1
10
-1.78494846181121
20
-1.0118647583769
30
0
41
1
10
-1.85552754579493
20
-0.963115161977584
30
0
41
1
10
-1.987006660247
20
-0.853807294809087
30
0
41
1
10
-2.04794066907408
20
-0.793290478441975
30
0
41
1
10
-2.15818425500834
20
-0.658074763885935
30
0
41
1
10
-2.20630417019748
20
-0.58448914035165
30
0
41
1
10
-2.26330028331159
20
-0.46806710955309
30
0
41
1
10
-2.27976791148524
20
-0.428318011524993
30
0
41
1
10
-2.30711221838504
20
-0.346739553560127
30
0
41
1
10
-2.31804294128818
20
-0.304630657387293
30
0
41
1
10
-2.32556944693909
20
-0.261945722724391
30
0
0
SPLINE
5
11A
100
AcDbEntity
8
1
62
256
6
ByLayer
370
18
48
1
60
0
100
AcDbSpline
70
4
71
3
72
8
73
4
40
0
40
0
40
0
40
0
40
1
40
1
40
1
40
1
41
1.01923193626848
10
21.6179071179495
20
10.016527434566
30
0
41
1.02059843516864
10
22.0590176192264
20
10.3865226049236
30
0
41
1.0223381109506
10
22.5940543299511
20
10.8645035277931
30
0
41
1.0241704137769
10
23.1059066340047
20
11.3830044343142
30
0
0
SPLINE
5
11B
100
AcDbEntity
8
1
62
256
6
ByLayer
370
18
48
1
60
0
100
AcDbSpline
70
4
71
3
72
8
73
4
40
0
40
0
40
0
40
0
40
1
40
1
40
1
40
1
41
1
10
21.617866492231
20
10.0164933585621
30
0
41
1
10
21.509464617605
20
9.9769394747382
30
0
41
1
10
21.4004838751038
20
9.93965857148427
30
0
41
1
10
21.2908731399763
20
9.90485139506825
30
0
0
SPLINE
5
11C
100
AcDbEntity
8
1
62
256
6
ByLayer
370
18
48
1
60
0
100
AcDbSpline
70
4
71
3
72
11
73
7
40
0
40
0
40
0
40
0
40
0.423407924937775
40
0.740963868641106
40
0.899741840492771
40
1
40
1
40
1
40
1
41
1.02805999725224
10
9.55519007871792
20
18.8816440027863
30
0
41
1.02767136955276
10
10.4132036373438
20
18.9232290142458
30
0
41
1.02349884684922
10
13.5377726717706
20
18.218518181826
30
0
41
1.01876555595691
10
17.5759135003252
20
16.9767845440801
30
0
41
1.01635405201136
10
19.1295283207975
20
16.5214261217447
30
0
41
1.01722454828229
10
19.6474764923117
20
16.5662091500353
30
0
41
1.0177432798791
10
19.8624971491751
20
16.5937785887814
30
0
0
SPLINE
5
11D
100
AcDbEntity
8
1
62
256
6
ByLayer
370
18
48
1
60
0
100
AcDbSpline
70
4
71
3
72
16
73
12
40
0
40
0
40
0
40
0
40
0.249999999999993
40
0.249999999999993
40
0.499999999999985
40
0.499999999999985
40
0.624999999999996
40
0.624999999999996
40
0.750000000000007
40
0.750000000000007
40
1
40
1
40
1
40
1
41
1
10
19.1855286876441
20
8.88761952458876
30
0
41
1
10
19.358258615645
20
8.99876770097356
30
0
41
1
10
19.5316197774756
20
9.10507044379227
30
0
41
1
10
19.8803365660151
20
9.30649720536843
30
0
41
1
10
20.0556928621646
20
9.40162993410405
30
0
41
1
10
20.3218892382374
20
9.5323789301741
30
0
41
1
10
20.4113376575525
20
9.57397935917646
30
0
41
1
10
20.5909940993054
20
9.65201020006066
30
0
41
1
10
20.6803523945879
20
9.6882263864357
30
0
41
1
10
20.946268632639
20
9.7905343412672
30
0
41
1
10
21.1205262350208
20
9.85075728863026
30
0
41
1
10
21.2908731399842
20
9.90485139507075
30
0
0
SPLINE
5
11E
100
AcDbEntity
8
1
62
256
6
ByLayer
370
18
48
1
60
0
100
AcDbSpline
70
4
71
3
72
28
73
24
40
0
40
0
40
0
40
0
40
0.125000000000001
40
0.125000000000001
40
0.250000000000003
40
0.250000000000003
40
0.375000000000004
40
0.375000000000004
40
0.500000000000005
40
0.500000000000005
40
0.562500000000009
40
0.562500000000009
40
0.625000000000012
40
0.625000000000012
40
0.750000000000009
40
0.750000000000009
40
0.812500000000007
40
0.812500000000007
40
0.875000000000005
40
0.875000000000005
40
0.937500000000002
40
0.937500000000002
40
1
40
1
40
1
40
1
41
1
10
4.06600671802903
20
4.626244032801
30
0
41
1
10
3.9437633552854
20
4.65448916110756
30
0
41
1
10
3.83101489570902
20
4.69085018573423
30
0
41
1
10
3.61687327973431
20
4.77726935005208
30
0
41
1
10
3.5154874234384
20
4.82735835745848
30
0
41
1
10
3.31796330263825
20
4.94246911584622
30
0
41
1
10
3.22181403709902
20
5.00748835529583
30
0
41
1
10
3.03020845121756
20
5.15692963244015
30
0
41
1
10
2.93564119971035
20
5.24074153226707
30
0
41
1
10
2.79574501814818
20
5.38282665795217
30
0
41
1
10
2.74939767218626
20
5.43297997853648
30
0
41
1
10
2.65735663247602
20
5.53969515157462
30
0
41
1
10
2.61146754209477
20
5.59651979077918
30
0
41
1
10
2.47659918820415
20
5.77622131622368
30
0
41
1
10
2.39122573883157
20
5.90697610872783
30
0
41
1
10
2.27256583680759
20
6.12263974854346
30
0
41
1
10
2.23436159903082
20
6.19831796784933
30
0
41
1
10
2.16287929017051
20
6.35445887923834
30
0
41
1
10
2.12971735837317
20
6.43456389348978
30
0
41
1
10
2.06876682523489
20
6.59906805198565
30
0
41
1
10
2.04097901422409
20
6.68346148147864
30
0
41
1
10
1.99102131261219
20
6.85703195620914
30
0
41
1
10
1.96922072206217
20
6.94501692092086
30
0
41
1
10
1.95059676448312
20
7.03354696030306
30
0
0
SPLINE
5
11F
100
AcDbEntity
8
1
62
256
6
ByLayer
370
18
48
1
60
0
100
AcDbSpline
70
4
71
3
72
18
73
14
40
0
40
0
40
0
40
0
40
0.250000000000007
40
0.250000000000007
40
0.500000000000014
40
0.500000000000014
40
0.62500000000001
40
0.62500000000001
40
0.750000000000007
40
0.750000000000007
40
0.875000000000003
40
0.875000000000003
40
1
40
1
40
1
40
1
41
1
10
3.58293120913771
20
14.3695517486668
30
0
41
1
10
3.27399037302592
20
14.4833681534526
30
0
41
1
10
2.97744129660003
20
14.5918459693616
30
0
41
1
10
2.40951650768483
20
14.7972408354093
30
0
41
1
10
2.13811417190851
20
14.8941801500662
30
0
41
1
10
1.75204719823017
20
15.0292576660738
30
0
41
1
10
1.6273309561048
20
15.0723862466918
30
0
41
1
10
1.3903181101619
20
15.1531406578543
30
0
41
1
10
1.27740188289044
20
15.1909847892132
30
0
41
1
10
1.06309444556325
20
15.2613002235233
30
0
41
1
10
0.961700869616266
20
15.2937733283333
30
0
41
1
10
0.771113624041732
20
15.352854695064
30
0
41
1
10
0.681612051723334
20
15.3795479141762
30
0
41
1
10
0.599717661932516
20
15.4026709760483
30
0
0
SPLINE
5
120
100
AcDbEntity
8
1
62
256
6
ByLayer
370
18
48
1
60
0
100
AcDbSpline
70
4
71
3
72
10
73
6
40
0
40
0
40
0
40
0
40
0.5
40
0.5
40
1
40
1
40
1
40
1
41
1
10
3.58293120913771
20
14.3695517486668
30
0
41
1
10
3.47152396670657
20
14.3249113115375
30
0
41
1
10
3.35941909361605
20
14.2871006417662
30
0
41
1
10
3.13455272043944
20
14.2238206271652
30
0
41
1
10
3.02221483191539
20
14.1985121000678
30
0
41
1
10
2.91146737447508
20
14.1789843352762
30
0
0
SPLINE
5
121
100
AcDbEntity
8
1
62
256
6
ByLayer
370
18
48
1
60
0
100
AcDbSpline
70
4
71
3
72
11
73
7
40
0
40
0
40
0
40
0
40
0.423407924939093
40
0.740963868643412
40
0.899741840495572
40
1
40
1
40
1
40
1
41
1.02805999725224
10
11.6658994315621
20
6.91121642350805
30
0
41
1.02767136955276
10
12.486391352677
20
7.16559721539783
30
0
41
1.02349884684922
10
15.1815005175026
20
8.89647433339741
30
0
41
1.01876555595691
10
18.5514137391004
20
11.4444477747248
30
0
41
1.01635405201137
10
19.8555923685909
20
12.4037122875717
30
0
41
1.01722454828226
10
20.3576211410653
20
12.5387787142057
30
0
41
1.01774327987905
10
20.5691037690204
20
12.5864133119324
30
0
0
SPLINE
5
122
100
AcDbEntity
8
1
62
256
6
ByLayer
370
18
48
1
60
0
100
AcDbSpline
70
4
71
3
72
14
73
10
40
0
40
0
40
0
40
0
40
0.499999999999999
40
0.499999999999999
40
0.625000000000004
40
0.625000000000004
40
0.750000000000009
40
0.750000000000009
40
1
40
1
40
1
40
1
41
1
10
2.32064971549164
20
18.7457696559928
30
0
41
1
10
2.08042892982917
20
18.7034122501536
30
0
41
1
10
1.82240532593823
20
18.637149771841
30
0
41
1
10
1.48470721510984
20
18.5024885691892
30
0
41
1
10
1.4164148817045
20
18.472921350861
30
0
41
1
10
1.27854436232025
20
18.4077316461582
30
0
41
1
10
1.20907799400965
20
18.3721387058824
30
0
41
1
10
1.00194088597703
20
18.2566181388788
30
0
41
1
10
0.864661004328411
20
18.167630704046
30
0
41
1
10
0.730061190516381
20
18.0639964402991
30
0
0
SPLINE
5
123
100
AcDbEntity
8
1
62
256
6
ByLayer
370
18
48
1
60
0
100
AcDbSpline
70
4
71
3
72
8
73
4
40
0
40
0
40
0
40
0
40
1
40
1
40
1
40
1
41
1
10
5.62276937717235
20
8.85378872928135
30
0
41
1
10
5.69068614921815
20
8.8223432182923
30
0
41
1
10
5.75709709265078
20
8.7882687492737
30
0
41
1
10
5.82195459157651
20
8.75158103485686
30
0
0
SPLINE
5
124
100
AcDbEntity
8
1
62
256
6
ByLayer
370
18
48
1
60
0
100
AcDbSpline
70
4
71
3
72
18
73
14
40
0
40
0
40
0
40
0
40
0.249999999999983
40
0.249999999999983
40
0.374999999999986
40
0.374999999999986
40
0.499999999999989
40
0.499999999999989
40
0.624999999999992
40
0.624999999999992
40
0.749999999999994
40
0.749999999999994
40
1
40
1
40
1
40
1
41
1
10
4.69312000444899
20
15.1535201061865
30
0
41
1
10
4.84009202681847
20
15.3255741829057
30
0
41
1
10
4.99937576524206
20
15.4826643547371
30
0
41
1
10
5.25754616702125
20
15.6971458237368
30
0
41
1
10
5.34682985043793
20
15.7650908164682
30
0
41
1
10
5.53222731282477
20
15.8938231611043
30
0
41
1
10
5.62864853923242
20
15.9547832599362
30
0
41
1
10
5.82741049522713
20
16.0684633451255
30
0
41
1
10
5.92933307501886
20
16.1209811885685
30
0
41
1
10
6.1384265618006
20
16.2173770425334
30
0
41
1
10
6.2458927878522
20
16.2613339974299
30
0
41
1
10
6.57225386202566
20
16.3785594792426
30
0
41
1
10
6.79610680575632
20
16.4378623257582
30
0
41
1
10
7.02627799712849
20
16.478447716979
30
0
0
SPLINE
5
125
100
AcDbEntity
8
1
62
256
6
ByLayer
370
18
48
1
60
0
100
AcDbSpline
70
4
71
3
72
25
73
21
40
0
40
0
40
0
40
0
40
0.125
40
0.125
40
0.25
40
0.25
40
0.375
40
0.375
40
0.5
40
0.5
40
0.625
40
0.625
40
0.75
40
0.75
40
0.8125
40
0.8125
40
0.875
40
0.9375
40
0.9375
40
1
40
1
40
1
40
1
41
1
10
20.5691037690167
20
12.5864133119316
30
0
41
1
10
20.6750319396357
20
12.5037557526068
30
0
41
1
10
20.7824556567085
20
12.4237673269218
30
0
41
1
10
21.003746100337
20
12.2752894519352
30
0
41
1
10
21.1177000932295
20
12.2069557487249
30
0
41
1
10
21.3538500680136
20
12.0849979957825
30
0
41
1
10
21.4759318581855
20
12.0311701456542
30
0
41
1
10
21.7296503952559
20
11.9405673803696
30
0
41
1
10
21.8612661356613
20
11.9037549744777
30
0
41
1
10
22.1366639854978
20
11.8518437408695
30
0
41
1
10
22.2810642110926
20
11.8368644867023
30
0
41
1
10
22.5772296250469
20
11.8362486484162
30
0
41
1
10
22.7297686054729
20
11.850259651852
30
0
41
1
10
22.967540630014
20
11.9000778981535
30
0
41
1
10
23.0488056098872
20
11.9217389018512
30
0
41
1
10
23.2122747993782
20
11.9757008943326
30
0
41
1
10
23.3762638346465
20
12.0399137331916
30
0
41
1
10
23.5412944384439
20
12.1246652769152
30
0
41
1
10
23.7068500086634
20
12.2197686410883
30
0
41
1
10
23.7901308070141
20
12.2726657832579
30
0
41
1
10
23.8731340719553
20
12.3304327450651
30
0
0
SPLINE
5
126
100
AcDbEntity
8
1
62
256
6
ByLayer
370
18
48
1
60
0
100
AcDbSpline
70
4
71
3
72
8
73
4
40
0
40
0
40
0
40
0
40
1
40
1
40
1
40
1
41
1
10
4.69312000444899
20
15.1535201061865
30
0
41
1
10
4.64456533694505
20
15.0966791622224
30
0
41
1
10
4.59380134124081
20
15.0419610999482
30
0
41
1
10
4.54090421859991
20
14.9893509343696
30
0
0
SPLINE
5
127
100
AcDbEntity
8
1
62
256
6
ByLayer
370
18
48
1
60
0
100
AcDbSpline
70
4
71
3
72
30
73
26
40
0
40
0
40
0
40
0
40
0.0625000000000014
40
0.0625000000000014
40
0.125000000000003
40
0.125000000000003
40
0.187500000000004
40
0.187500000000004
40
0.250000000000006
40
0.250000000000006
40
0.312500000000007
40
0.312500000000007
40
0.375000000000008
40
0.375000000000008
40
0.500000000000004
40
0.500000000000004
40
0.562500000000004
40
0.562500000000004
40
0.625000000000005
40
0.625000000000005
40
0.750000000000003
40
0.750000000000003
40
0.875000000000002
40
0.875000000000002
40
1
40
1
40
1
40
1
41
1
10
0.467631361490305
20
15.4438616894155
30
0
41
1
10
0.454822476640686
20
15.5336371186933
30
0
41
1
10
0.44533764708541
20
15.6229000926439
30
0
41
1
10
0.432991047579378
20
15.8007074935269
30
0
41
1
10
0.43012618300628
20
15.8892466528556
30
0
41
1
10
0.431003587639395
20
16.0657085585357
30
0
41
1
10
0.434809492538477
20
16.1537622253254
30
0
41
1
10
0.448485089328074
20
16.3244538410585
30
0
41
1
10
0.458339633998833
20
16.4077441076735
30
0
41
1
10
0.483500558068897
20
16.5705103241104
30
0
41
1
10
0.498912088226689
20
16.6504046631008
30
0
41
1
10
0.534188117806536
20
16.8042606215042
30
0
41
1
10
0.553971209592248
20
16.8780632816188
30
0
41
1
10
0.618699175150425
20
17.0911374870339
30
0
41
1
10
0.668930890122169
20
17.2220892573585
30
0
41
1
10
0.752469216576287
20
17.4050176011032
30
0
41
1
10
0.781590634852705
20
17.4634590447287
30
0
41
1
10
0.841572181909612
20
17.5748561039585
30
0
41
1
10
0.872526979713484
20
17.6280200719497
30
0
41
1
10
0.968365109704507
20
17.7811760082749
30
0
41
1
10
1.03613021577308
20
17.8748928201866
30
0
41
1
10
1.18222671015604
20
18.0507349692907
30
0
41
1
10
1.26058741384469
20
18.1328980454501
30
0
41
1
10
1.43352597948404
20
18.2885794768667
30
0
41
1
10
1.52737084959438
20
18.3614475209532
30
0
41
1
10
1.63212039248151
20
18.4294993018901
30
0
0
SPLINE
5
128
100
AcDbEntity
8
1
62
256
6
ByLayer
370
18
48
1
60
0
100
AcDbSpline
70
4
71
3
72
8
73
4
40
0
40
0
40
0
40
0
40
1
40
1
40
1
40
1
41
1
10
21.8348302233922
20
18.5921993939937
30
0
41
1
10
22.1811310279522
20
18.3841208781961
30
0
41
1
10
22.529421608939
20
18.1748467841029
30
0
41
1
10
22.8797195341195
20
17.9643665559349
30
0
0
SPLINE
5
129
100
AcDbEntity
8
1
62
256
6
ByLayer
370
18
48
1
60
0
100
AcDbSpline
70
4
71
3
72
18
73
14
40
0
40
0
40
0
40
0
40
0.250000000000009
40
0.250000000000009
40
0.375000000000008
40
0.375000000000008
40
0.500000000000008
40
0.500000000000008
40
0.750000000000006
40
0.750000000000006
40
0.875000000000003
40
0.875000000000003
40
1
40
1
40
1
40
1
41
1
10
2.06062923262613
20
7.11742974510776
30
0
41
1
10
2.19743982725106
20
7.21598144417734
30
0
41
1
10
2.3551823641746
20
7.33609960457579
30
0
41
1
10
2.62080033770309
20
7.54476755656393
30
0
41
1
10
2.71436543906833
20
7.61924073635586
30
0
41
1
10
2.91057261333884
20
7.77704452015277
30
0
41
1
10
3.01202735435555
20
7.85941655050041
30
0
41
1
10
3.32583662675643
20
8.1160661924371
30
0
41
1
10
3.54756738306031
20
8.29980215275853
30
0
41
1
10
3.89804122730294
20
8.59263543773747
30
0
41
1
10
4.01803934554761
20
8.69328824466982
30
0
41
1
10
4.26137418386185
20
8.89802240627324
30
0
41
1
10
4.38500890272246
20
9.00235198144145
30
0
41
1
10
4.51058540294156
20
9.10856338445672
30
0
0
SPLINE
5
12A
100
AcDbEntity
8
1
62
256
6
ByLayer
370
18
48
1
60
0
100
AcDbSpline
70
4
71
1
72
4
73
2
40
0
40
0
40
1
40
1
41
1
10
9.55519007871794
20
18.8816440027863
30
0
41
1
10
9.36064714880416
20
19.9849517843409
30
0
0
SPLINE
5
12B
100
AcDbEntity
8
1
62
256
6
ByLayer
370
18
48
1
60
0
100
AcDbSpline
70
4
71
3
72
18
73
14
40
0
40
0
40
0
40
0
40
0.124999999999979
40
0.124999999999979
40
0.249999999999957
40
0.249999999999957
40
0.499999999999944
40
0.499999999999944
40
0.624999999999951
40
0.624999999999951
40
0.749999999999958
40
0.749999999999958
40
1
40
1
40
1
40
1
41
1
10
8.46755787176454
20
8.30454336697773
30
0
41
1
10
8.35246522860837
20
8.28424942870822
30
0
41
1
10
8.23703488818359
20
8.2688801635644
30
0
41
1
10
8.00548893700835
20
8.24803013307275
30
0
41
1
10
7.88890888566999
20
8.24255545878623
30
0
41
1
10
7.54169510458007
20
8.24129515391016
30
0
41
1
10
7.31469496251401
20
8.26036757776234
30
0
41
1
10
6.97987915185553
20
8.31768507699968
30
0
41
1
10
6.86922382318545
20
8.34160327176664
30
0
41
1
10
6.64967271564905
20
8.39920085226328
30
0
41
1
10
6.54115244172937
20
8.43282244070321
30
0
41
1
10
6.22290931147319
20
8.54668212351498
30
0
41
1
10
6.01886076108997
20
8.6401978111175
30
0
41
1
10
5.82195459157646
20
8.75158103485688
30
0
0
SPLINE
5
12C
100
AcDbEntity
8
1
62
256
6
ByLayer
370
18
48
1
60
0
100
AcDbSpline
70
4
71
3
72
8
73
4
40
0
40
0
40
0
40
0
40
1
40
1
40
1
40
1
41
1
10
0.478659689673179
20
15.3746972805878
30
0
41
1
10
0.474575334706913
20
15.3978608086527
30
0
41
1
10
0.470905505258941
20
15.4209137383801
30
0
41
1
10
0.467631361490305
20
15.4438616894155
30
0
0
SPLINE
5
12D
100
AcDbEntity
8
1
62
256
6
ByLayer
370
18
48
1
60
0
100
AcDbSpline
70
4
71
3
72
24
73
20
40
0
40
0
40
0
40
0
40
0.124999999999998
40
0.124999999999998
40
0.187499999999997
40
0.187499999999997
40
0.249999999999997
40
0.249999999999997
40
0.374999999999997
40
0.374999999999997
40
0.499999999999998
40
0.499999999999998
40
0.624999999999998
40
0.624999999999998
40
0.749999999999999
40
0.749999999999999
40
0.874999999999999
40
0.874999999999999
40
1
40
1
40
1
40
1
41
1
10
13.9713095353783
20
12.2640096502426
30
0
41
1
10
13.9491475544699
20
12.0746933007611
30
0
41
1
10
13.9130922862706
20
11.8893660282809
30
0
41
1
10
13.8395123141561
20
11.6168533646478
30
0
41
1
10
13.8117218015777
20
11.526932917381
30
0
41
1
10
13.7496771588589
20
11.3488861557117
30
0
41
1
10
13.7152796558339
20
11.260449601218
30
0
41
1
10
13.6036656385499
20
11.0007635635151
30
0
41
1
10
13.5181191390342
20
10.8348383756318
30
0
41
1
10
13.3259472941552
20
10.5158963533407
30
0
41
1
10
13.2189132371699
20
10.362395160448
30
0
41
1
10
12.985218145474
20
10.0701416446641
30
0
41
1
10
12.8593056848135
20
9.93217854608744
30
0
41
1
10
12.5891039951991
20
9.67205441077917
30
0
41
1
10
12.4465281715356
20
9.55159129408031
30
0
41
1
10
12.147603845807
20
9.33005844223825
30
0
41
1
10
11.9910870324562
20
9.2288423955994
30
0
41
1
10
11.6636107836933
20
9.0462244042601
30
0
41
1
10
11.4919931735096
20
8.96466674754265
30
0
41
1
10
11.3160821703655
20
8.89512869712044
30
0
0
SPLINE
5
12E
100
AcDbEntity
8
1
62
256
6
ByLayer
370
18
48
1
60
0
100
AcDbSpline
70
4
71
3
72
16
73
12
40
0
40
0
40
0
40
0
40
0.249999999999997
40
0.249999999999997
40
0.499999999999994
40
0.499999999999994
40
0.624999999999996
40
0.624999999999996
40
0.749999999999997
40
0.749999999999997
40
1
40
1
40
1
40
1
41
1
10
13.5523300477599
20
14.6401604011641
30
0
41
1
10
13.6441702260232
20
14.4573618327615
30
0
41
1
10
13.7221476580533
20
14.2689454931218
30
0
41
1
10
13.850597385286
20
13.8809518030046
30
0
41
1
10
13.9006087329157
20
13.6824737870656
30
0
41
1
10
13.9536947411164
20
13.3808199963852
30
0
41
1
10
13.9677803899959
20
13.2792352250691
30
0
41
1
10
13.9884329822909
20
13.0763023088683
30
0
41
1
10
13.9950423746952
20
12.9748153783006
30
0
41
1
10
14.0038502928999
20
12.670292817737
30
0
41
1
10
13.9950903612526
20
12.467195995936
30
0
41
1
10
13.9713095353783
20
12.2640096502426
30
0
0
SPLINE
5
12F
100
AcDbEntity
8
1
62
256
6
ByLayer
370
18
48
1
60
0
100
AcDbSpline
70
4
71
3
72
22
73
18
40
0
40
0
40
0
40
0
40
0.124999999999999
40
0.124999999999999
40
0.249999999999998
40
0.249999999999998
40
0.499999999999996
40
0.499999999999996
40
0.625
40
0.625
40
0.750000000000003
40
0.750000000000003
40
0.875000000000006
40
0.875000000000006
40
0.937500000000003
40
0.937500000000003
40
1
40
1
40
1
40
1
41
1
10
19.1855286876436
20
8.8876195245885
30
0
41
1
10
18.9057646855364
20
8.70759711033634
30
0
41
1
10
18.6217043996198
20
8.53433250231132
30
0
41
1
10
18.0467327949078
20
8.19857956517831
30
0
41
1
10
17.7555180771556
20
8.03604789167798
30
0
41
1
10
16.8737973881805
20
7.56616399977369
30
0
41
1
10
16.2751904500896
20
7.27606228374901
30
0
41
1
10
15.3554065193194
20
6.8878343253615
30
0
41
1
10
15.0451178512813
20
6.76562547181308
30
0
41
1
10
14.4199703688371
20
6.53460547327927
30
0
41
1
10
14.1053797300005
20
6.42585004841592
30
0
41
1
10
13.4722765409767
20
6.22147364925664
30
0
41
1
10
13.1538058252507
20
6.12571257167639
30
0
41
1
10
12.6724619600385
20
5.99425389112085
30
0
41
1
10
12.5114026764044
20
5.95248166553264
30
0
41
1
10
12.1875583610343
20
5.87471673131054
30
0
41
1
10
12.0248431353095
20
5.83849024288756
30
0
41
1
10
11.8604423614759
20
5.8079086419535
30
0
0
SPLINE
5
130
100
AcDbEntity
8
1
62
256
6
ByLayer
370
18
48
1
60
0
100
AcDbSpline
70
4
71
3
72
8
73
4
40
0
40
0
40
0
40
0
40
1
40
1
40
1
40
1
41
1
10
21.1693576990004
20
15.3899686608926
30
0
41
1
10
21.593032895378
20
15.2396500899408
30
0
41
1
10
22.0149913918093
20
15.1013588159894
30
0
41
1
10
22.4340362388708
20
14.9812307679162
30
0
0
SPLINE
5
131
100
AcDbEntity
8
1
62
256
6
ByLayer
370
18
48
1
60
0
100
AcDbSpline
70
4
71
2
72
6
73
3
40
0
40
0
40
0
40
1
40
1
40
1
41
1.02805999725224
10
11.6658994315621
20
6.91121642350805
30
0
41
1.02805999725224
10
11.7631708965191
20
6.3595625327308
30
0
41
1.02805999725224
10
11.8604423614759
20
5.80790864195351
30
0
0
SPLINE
5
132
100
AcDbEntity
8
1
62
256
6
ByLayer
370
18
48
1
60
0
100
AcDbSpline
70
4
71
3
72
8
73
4
40
0
40
0
40
0
40
0
40
1
40
1
40
1
40
1
41
1
10
23.105990774219
20
11.3830896680276
30
0
41
1
10
23.3602400410953
20
11.6970613647442
30
0
41
1
10
23.6159501743385
20
12.0128370811833
30
0
41
1
10
23.8731340719602
20
12.330432745063
30
0
0
SPLINE
5
133
100
AcDbEntity
8
1
62
256
6
ByLayer
370
18
48
1
60
0
100
AcDbSpline
70
4
71
3
72
14
73
10
40
0
40
0
40
0
40
0
40
0.25
40
0.25
40
0.5
40
0.5
40
0.75
40
0.75
40
1
40
1
40
1
40
1
41
1
10
4.54090421859991
20
14.9893509343695
30
0
41
1
10
4.47237681852499
20
14.9211952827078
30
0
41
1
10
4.39993142006682
20
14.8568722370791
30
0
41
1
10
4.24756723941346
20
14.7356360188306
30
0
41
1
10
4.16683230428697
20
14.6782548851556
30
0
41
1
10
4.00325785115456
20
14.5740682902752
30
0
41
1
10
3.92025622209195
20
14.5269859125297
30
0
41
1
10
3.75214088421575
20
14.4415393221857
30
0
41
1
10
3.667228884699
20
14.4033294906154
30
0
41
1
10
3.58293120913771
20
14.3695517486668
30
0
0
SPLINE
5
134
100
AcDbEntity
8
1
62
256
6
ByLayer
370
18
48
1
60
0
100
AcDbSpline
70
4
71
3
72
8
73
4
40
0
40
0
40
0
40
0
40
1
40
1
40
1
40
1
41
1
10
11.3160821703655
20
8.89512869712044
30
0
41
1
10
11.0497520178372
20
8.78996125975607
30
0
41
1
10
10.7747973291884
20
8.71137193427685
30
0
41
1
10
10.4904324620623
20
8.66123073583691
30
0
0
SPLINE
5
135
100
AcDbEntity
8
1
62
256
6
ByLayer
370
18
48
1
60
0
100
AcDbSpline
70
4
71
3
72
8
73
4
40
0
40
0
40
0
40
0
40
1
40
1
40
1
40
1
41
1
10
22.4340362388918
20
14.9812307679101
30
0
41
1
10
22.0816499746953
20
14.7252441152444
30
0
41
1
10
21.7320756553375
20
14.4507059697682
30
0
41
1
10
21.3854237400308
20
14.1645972505645
30
0
0
SPLINE
5
136
100
AcDbEntity
8
1
62
256
6
ByLayer
370
18
48
1
60
0
100
AcDbSpline
70
4
71
3
72
20
73
16
40
0
40
0
40
0
40
0
40
0.249999999999999
40
0.249999999999999
40
0.374999999999999
40
0.374999999999999
40
0.5
40
0.5
40
0.749999999999998
40
0.749999999999998
40
0.812499999999999
40
0.812499999999999
40
0.875
40
0.875
40
1
40
1
40
1
40
1
41
1
10
5.62276937717348
20
8.85378872928368
30
0
41
1
10
5.47256217646765
20
8.50211532807933
30
0
41
1
10
5.32749291479735
20
8.16435052104353
30
0
41
1
10
5.11726106973885
20
7.67969420169817
30
0
41
1
10
5.04841309494691
20
7.52181554536986
30
0
41
1
10
4.91327152904268
20
7.21408483826895
30
0
41
1
10
4.84807128244375
20
7.06672417963767
30
0
41
1
10
4.65940500759069
20
6.64430546086001
30
0
41
1
10
4.54280037783559
20
6.3886393396582
30
0
41
1
10
4.40897825715592
20
6.10552508483795
30
0
41
1
10
4.38281639521318
20
6.0507473630602
30
0
41
1
10
4.33173537362671
20
5.94508362629068
30
0
41
1
10
4.30680120219978
20
5.89417206291219
30
0
41
1
10
4.23472455675591
20
5.7492120741627
30
0
41
1
10
4.19001748684536
20
5.66231845893685
30
0
41
1
10
4.14870500344904
20
5.5857322265999
30
0
0
SPLINE
5
137
100
AcDbEntity
8
1
62
256
6
ByLayer
370
18
48
1
60
0
100
AcDbSpline
70
4
71
3
72
14
73
10
40
0
40
0
40
0
40
0
40
0.25
40
0.25
40
0.5
40
0.5
40
0.75
40
0.75
40
1
40
1
40
1
40
1
41
1
10
4.51058540294156
20
9.10856338445672
30
0
41
1
10
4.60134580428161
20
9.10565439045047
30
0
41
1
10
4.69320650315234
20
9.09886480438576
30
0
41
1
10
4.87938151518159
20
9.07629009046761
30
0
41
1
10
4.97421893333734
20
9.06039832658806
30
0
41
1
10
5.16451830678994
20
9.01828685915308
30
0
41
1
10
5.25836117774378
20
8.99246595736716
30
0
41
1
10
5.44328141646292
20
8.93070677211321
30
0
41
1
10
5.53498808171469
20
8.89443152792734
30
0
41
1
10
5.6227693771724
20
8.85378872928132
30
0
0
SPLINE
5
138
100
AcDbEntity
8
1
62
256
6
ByLayer
370
18
48
1
60
0
100
AcDbSpline
70
4
71
3
72
10
73
6
40
0
40
0
40
0
40
0
40
0.5
40
0.5
40
1
40
1
40
1
40
1
41
1
10
9.90500734339003
20
16.8977317094638
30
0
41
1
10
9.82564124230794
20
17.3478392356241
30
0
41
1
10
9.75445089288559
20
17.7515797700351
30
0
41
1
10
9.63577960241724
20
18.4245981021789
30
0
41
1
10
9.58832035134679
20
18.6937528899472
30
0
41
1
10
9.55519007871794
20
18.8816440027863
30
0
0
SPLINE
5
139
100
AcDbEntity
8
1
62
256
6
ByLayer
370
18
48
1
60
0
100
AcDbSpline
70
4
71
3
72
8
73
4
40
0
40
0
40
0
40
0
40
1
40
1
40
1
40
1
41
1
10
9.90500733991456
20
16.8977317291739
30
0
41
1
10
9.61876947889039
20
16.9054665170724
30
0
41
1
10
9.33351745455241
20
16.8852762842781
30
0
41
1
10
9.04915258742625
20
16.8351350858382
30
0
0
SPLINE
5
13A
100
AcDbEntity
8
1
62
256
6
ByLayer
370
18
48
1
60
0
100
AcDbSpline
70
4
71
3
72
10
73
6
40
0
40
0
40
0
40
0
40
0.5
40
0.5
40
1
40
1
40
1
40
1
41
1
10
4.51058540294156
20
9.10856338445672
30
0
41
1
10
4.39062891062184
20
9.11240815279197
30
0
41
1
10
4.27235277793011
20
9.10959643540104
30
0
41
1
10
4.03940446672971
20
9.09215136898183
30
0
41
1
10
3.92518535578375
20
9.07751178440435
30
0
41
1
10
3.81443789834344
20
9.05798401961275
30
0
0
SPLINE
5
13B
100
AcDbEntity
8
1
62
256
6
ByLayer
370
18
48
1
60
0
100
AcDbSpline
70
4
71
3
72
20
73
16
40
0
40
0
40
0
40
0
40
0.062499999999998
40
0.062499999999998
40
0.124999999999996
40
0.124999999999996
40
0.250000000000003
40
0.250000000000003
40
0.500000000000005
40
0.500000000000005
40
0.750000000000008
40
0.750000000000008
40
0.875000000000004
40
0.875000000000004
40
1
40
1
40
1
40
1
41
1
10
9.36064714880416
20
19.9849517843409
30
0
41
1
10
9.52555605853763
20
20.0124367211803
30
0
41
1
10
9.690833689165
20
20.0340463888144
30
0
41
1
10
10.0217361776199
20
20.0717329394963
30
0
41
1
10
10.187376285642
20
20.0875668230306
30
0
41
1
10
10.6846981583428
20
20.1286701209343
30
0
41
1
10
11.0167770583803
20
20.1476115045787
30
0
41
1
10
12.0142749338874
20
20.1843398457007
30
0
41
1
10
12.6821735312431
20
20.1822334232689
30
0
41
1
10
14.0112887329613
20
20.1152660017408
30
0
41
1
10
14.6731297969032
20
20.0473964495916
30
0
41
1
10
15.6628686699881
20
19.90733058807
30
0
41
1
10
15.9918962644819
20
19.8542265208573
30
0
41
1
10
16.6467918560845
20
19.7354093778295
30
0
41
1
10
16.9728916542208
20
19.669765568817
30
0
41
1
10
17.297299873593
20
19.5962972689888
30
0
0
SPLINE
5
13C
100
AcDbEntity
8
1
62
256
6
ByLayer
370
18
48
1
60
0
100
AcDbSpline
70
4
71
3
72
26
73
22
40
0
40
0
40
0
40
0
40
0.249999999999994
40
0.249999999999994
40
0.375000000000003
40
0.375000000000003
40
0.500000000000013
40
0.500000000000013
40
0.625000000000022
40
0.625000000000022
40
0.687500000000019
40
0.687500000000019
40
0.750000000000015
40
0.750000000000015
40
0.812500000000011
40
0.812500000000011
40
0.875000000000007
40
0.875000000000007
40
0.937500000000004
40
0.937500000000004
40
1
40
1
40
1
40
1
41
1
10
21.3854237400309
20
14.1645972505645
30
0
41
1
10
21.2559792213911
20
14.0578051337741
30
0
41
1
10
21.128754059516
20
13.9450303779406
30
0
41
1
10
20.9437854041375
20
13.7600471593651
30
0
41
1
10
20.8828281309768
20
13.6953518104337
30
0
41
1
10
20.7657679533344
20
13.5597232242751
30
0
41
1
10
20.7096412457374
20
13.4889092007361
30
0
41
1
10
20.6053042703995
20
13.3374004133377
30
0
41
1
10
20.5585065420162
20
13.2588909672847
30
0
41
1
10
20.5017591756512
20
13.1347614696014
30
0
41
1
10
20.4855232498837
20
13.0930511635456
30
0
41
1
10
20.4600740727287
20
13.0103715688025
30
0
41
1
10
20.4507474815873
20
12.9686398201595
30
0
41
1
10
20.4409821987002
20
12.8898946192377
30
0
41
1
10
20.4403397258553
20
12.8525356272822
30
0
41
1
10
20.4477567704374
20
12.7819501209405
30
0
41
1
10
20.4556848058598
20
12.7500823266454
30
0
41
1
10
20.4784856068122
20
12.6926206305799
30
0
41
1
10
20.4934422061398
20
12.6670050003633
30
0
41
1
10
20.5279187774452
20
12.622462970764
30
0
41
1
10
20.547553959852
20
12.6032262524333
30
0
41
1
10
20.5691037690167
20
12.5864133119316
30
0
0
SPLINE
5
13D
100
AcDbEntity
8
1
62
256
6
ByLayer
370
18
48
1
60
0
100
AcDbSpline
70
4
71
3
72
16
73
12
40
0
40
0
40
0
40
0
40
0.250000000000015
40
0.250000000000015
40
0.500000000000031
40
0.500000000000031
40
0.625000000000023
40
0.625000000000023
40
0.750000000000015
40
0.750000000000015
40
1
40
1
40
1
40
1
41
1
10
19.6235903098278
20
19.3604821978955
30
0
41
1
10
19.4452832311388
20
19.353063105663
30
0
41
1
10
19.2619333865576
20
19.3500960652337
30
0
41
1
10
18.8858451213951
20
19.3567969160011
30
0
41
1
10
18.6931115007878
20
19.3677304910075
30
0
41
1
10
18.3972880151129
20
19.3992907824733
30
0
41
1
10
18.2972591929947
20
19.4120787142929
30
0
41
1
10
18.0976501527352
20
19.4410415385989
30
0
41
1
10
17.9978060983514
20
19.457233580893
30
0
41
1
10
17.6980478713858
20
19.5100754096287
30
0
41
1
10
17.4978905332622
20
19.5508697679353
30
0
41
1
10
17.2972998735933
20
19.5962972689887
30
0
0
SPLINE
5
13E
100
AcDbEntity
8
1
62
256
6
ByLayer
370
18
48
1
60
0
100
AcDbSpline
70
4
71
3
72
8
73
4
40
0
40
0
40
0
40
0
40
1
40
1
40
1
40
1
41
1
10
24.2475319839699
20
17.1425019206043
30
0
41
1
10
24.1690112296181
20
17.1828534249472
30
0
41
1
10
24.0901200586121
20
17.2183893941609
30
0
41
1
10
24.0108695750833
20
17.2492541855065
30
0
0
SPLINE
5
13F
100
AcDbEntity
8
1
62
256
6
ByLayer
370
18
48
1
60
0
100
AcDbSpline
70
4
71
3
72
16
73
12
40
0
40
0
40
0
40
0
40
0.249999999999993
40
0.249999999999993
40
0.374999999999995
40
0.374999999999995
40
0.499999999999997
40
0.499999999999997
40
0.749999999999998
40
0.749999999999998
40
1
40
1
40
1
40
1
41
1
10
2.03799565060479
20
17.5561598058781
30
0
41
1
10
2.16784621923375
20
17.4406439218435
30
0
41
1
10
2.32261442619432
20
17.2929345845271
30
0
41
1
10
2.58841668590554
20
17.0300491272715
30
0
41
1
10
2.68268505248301
20
16.935446291481
30
0
41
1
10
2.88255740003075
20
16.7325865739379
30
0
41
1
10
2.98656483357991
20
16.6259502382546
30
0
41
1
10
3.30935767764487
20
16.2924757731325
30
0
41
1
10
3.53911665152373
20
16.0518969233362
30
0
41
1
10
4.02686980674417
20
15.5370395648367
30
0
41
1
10
4.27971509477203
20
15.2681869464034
30
0
41
1
10
4.54090421859991
20
14.9893509343695
30
0
0
SPLINE
5
140
100
AcDbEntity
8
1
62
256
6
ByLayer
370
18
48
1
60
0
100
AcDbSpline
70
4
71
3
72
8
73
4
40
0
40
0
40
0
40
0
40
1
40
1
40
1
40
1
41
1.02417048289515
10
21.8347467937478
20
18.5922389556888
30
0
41
1.02233815481013
10
21.1764171834961
20
18.9044116867371
30
0
41
1.02059845255999
10
20.5101581391377
20
19.1705776977714
30
0
41
1.01923193651471
10
19.9690972782873
20
19.3673932201654
30
0
0
SPLINE
5
141
100
AcDbEntity
8
1
62
256
6
ByLayer
370
18
48
1
60
0
100
AcDbSpline
70
4
71
3
72
26
73
22
40
0
40
0
40
0
40
0
40
0.125000000000004
40
0.125000000000004
40
0.250000000000008
40
0.250000000000008
40
0.375000000000013
40
0.375000000000013
40
0.500000000000017
40
0.500000000000017
40
0.625000000000021
40
0.625000000000021
40
0.687500000000021
40
0.687500000000021
40
0.750000000000022
40
0.750000000000022
40
0.875000000000007
40
0.875000000000007
40
0.937500000000003
40
0.937500000000003
40
1
40
1
40
1
40
1
41
1
10
9.90500733991456
20
16.8977317291739
30
0
41
1
10
10.0944355834569
20
16.892543059757
30
0
41
1
10
10.2816810057724
20
16.8747668234098
30
0
41
1
10
10.6506943605568
20
16.8155464409587
30
0
41
1
10
10.8325375832272
20
16.7741162453467
30
0
41
1
10
11.1908074739789
20
16.6678730737164
30
0
41
1
10
11.368371037054
20
16.6024697081958
30
0
41
1
10
11.7095028985021
20
16.4511665796341
30
0
41
1
10
11.8737742017404
20
16.3652396049355
30
0
41
1
10
12.1903019020033
20
16.17275347651
30
0
41
1
10
12.3425621950619
20
16.066202787366
30
0
41
1
10
12.5617701670398
20
15.8895953456238
30
0
41
1
10
12.6332617753257
20
15.8279066548735
30
0
41
1
10
12.7710163835619
20
15.7005571441087
30
0
41
1
10
12.8375546044229
20
15.6346836858828
30
0
41
1
10
13.0301379732364
20
15.4303432789111
30
0
41
1
10
13.149196767731
20
15.2852005431574
30
0
41
1
10
13.3129727798724
20
15.0528871994101
30
0
41
1
10
13.3652354005141
20
14.9727331900486
30
0
41
1
10
13.4634301347696
20
14.8090834858786
30
0
41
1
10
13.5094466663
20
14.7255104460213
30
0
41
1
10
13.5523300477599
20
14.6401604011641
30
0
0
SPLINE
5
142
100
AcDbEntity
8
1
62
256
6
ByLayer
370
18
48
1
60
0
100
AcDbSpline
70
4
71
3
72
12
73
8
40
0
40
0
40
0
40
0
40
0.108853988597825
40
0.502629237150058
40
0.699516861426174
40
0.89640448570229
40
1
40
1
40
1
40
1
41
1.02441262532194
10
13.9713095354637
20
12.2640096502648
30
0
41
1.02394775681993
10
14.3093451956432
20
12.3516374945432
30
0
41
1.02173322384663
10
15.9127691021752
20
12.7733811584344
30
0
41
1.01876555595691
10
18.1989089965812
20
13.4114709437186
30
0
41
1.01610930227499
10
19.7499069342506
20
13.8680877248141
30
0
41
1.01814069306383
10
20.4867891950646
20
13.9885090477621
30
0
41
1.02005196006992
10
21.1446629049243
20
14.1157018842899
30
0
41
1.02076673234807
10
21.3854237400321
20
14.1645972505647
30
0
0
SPLINE
5
143
100
AcDbEntity
8
1
62
256
6
ByLayer
370
18
48
1
60
0
100
AcDbSpline
70
4
71
3
72
12
73
8
40
0
40
0
40
0
40
0
40
0.108853985813145
40
0.502629224287395
40
0.69951684352452
40
0.896404462761645
40
1
40
1
40
1
40
1
41
1.02441262532196
10
13.5523300478479
20
14.6401604011725
30
0
41
1.02394775681994
10
13.8999501511444
20
14.6734321674729
30
0
41
1.02173322384664
10
15.550920592479
20
14.8255260329757
30
0
41
1.01876555595691
10
17.9174289411501
20
15.0078236646917
30
0
41
1.01610930227499
10
19.5310623949431
20
15.1092167819083
30
0
41
1.01814069316835
10
20.2646917736254
20
15.2480863369378
30
0
41
1.02005196039548
10
20.9263934311998
20
15.3535702383758
30
0
41
1.0207667328778
10
21.1693578789423
20
15.3899686878497
30
0
0
SPLINE
5
144
100
AcDbEntity
8
1
62
256
6
ByLayer
370
18
48
1
60
0
100
AcDbSpline
70
4
71
3
72
8
73
4
40
0
40
0
40
0
40
0
40
1
40
1
40
1
40
1
41
1
10
19.6235903098277
20
19.3604821978954
30
0
41
1
10
19.7384954642536
20
19.3652632303981
30
0
41
1
10
19.8536546836652
20
19.3675042498772
30
0
41
1
10
19.969047350346
20
19.367411381814
30
0
0
SPLINE
5
145
100
AcDbEntity
8
1
62
256
6
ByLayer
370
18
48
1
60
0
100
AcDbSpline
70
4
71
3
72
8
73
4
40
0
40
0
40
0
40
0
40
1
40
1
40
1
40
1
41
1
10
1.93730438207587
20
7.10231215528529
30
0
41
1
10
1.94138873704213
20
7.07914862722041
30
0
41
1
10
1.94582479171976
20
7.05623080367425
30
0
41
1
10
1.95059676448312
20
7.03354696030308
30
0
0
SPLINE
5
146
100
AcDbEntity
8
1
62
256
6
ByLayer
370
18
48
1
60
0
100
AcDbSpline
70
4
71
3
72
14
73
10
40
0
40
0
40
0
40
0
40
0.500000000000027
40
0.500000000000027
40
0.62500000000002
40
0.62500000000002
40
0.750000000000013
40
0.750000000000013
40
1
40
1
40
1
40
1
41
1
10
4.82118347389633
20
4.56453801261716
30
0
41
1
10
4.58053981213158
20
4.52210604231155
30
0
41
1
10
4.31490377440883
20
4.49610351910198
30
0
41
1
10
3.9507612846964
20
4.50732054589113
30
0
41
1
10
3.87631840224032
20
4.51179299011926
30
0
41
1
10
3.72414112137972
20
4.5260144886721
30
0
41
1
10
3.6465649707979
20
4.53577358912915
30
0
41
1
10
3.41258533427009
20
4.57361256114584
30
0
41
1
10
3.25384870002125
20
4.61028303466267
30
0
41
1
10
3.09333900132316
20
4.66118195716965
30
0
0
SPLINE
5
147
100
AcDbEntity
8
1
62
256
6
ByLayer
370
18
48
1
60
0
100
AcDbSpline
70
4
71
3
72
24
73
20
40
0
40
0
40
0
40
0
40
0.125000000000001
40
0.125000000000001
40
0.250000000000001
40
0.250000000000001
40
0.312500000000001
40
0.312500000000001
40
0.375000000000002
40
0.375000000000002
40
0.500000000000001
40
0.500000000000001
40
0.625000000000001
40
0.625000000000001
40
0.750000000000001
40
0.750000000000001
40
0.875
40
0.875
40
1
40
1
40
1
40
1
41
1
10
22.8797195341193
20
17.9643665559349
30
0
41
1
10
22.6875463789004
20
18.015271444363
30
0
41
1
10
22.4998103939368
20
18.0484632534694
30
0
41
1
10
22.1361385565662
20
18.0765289642716
30
0
41
1
10
21.966388171805
20
18.0707956507432
30
0
41
1
10
21.7271233188283
20
18.0370728624899
30
0
41
1
10
21.6498677261627
20
18.021744174996
30
0
41
1
10
21.4997865312531
20
17.9838414487002
30
0
41
1
10
21.4273812364484
20
17.9613498075372
30
0
41
1
10
21.2190314365292
20
17.8854748114207
30
0
41
1
10
21.0908787172588
20
17.8235351143727
30
0
41
1
10
20.850974722276
20
17.6823245350779
30
0
41
1
10
20.7392721128811
20
17.6030022277866
30
0
41
1
10
20.5294158765973
20
17.4300405853011
30
0
41
1
10
20.4315858363764
20
17.3365711303829
30
0
41
1
10
20.2496611822784
20
17.1397444062603
30
0
41
1
10
20.1654183226403
20
17.0359772310442
30
0
41
1
10
20.0075850251159
20
16.8199554407275
30
0
41
1
10
19.9338507320207
20
16.7078154439235
30
0
41
1
10
19.8624971491647
20
16.59377858878
30
0
0
SPLINE
5
148
100
AcDbEntity
8
1
62
256
6
ByLayer
370
18
48
1
60
0
100
AcDbSpline
70
4
71
3
72
26
73
22
40
0
40
0
40
0
40
0
40
0.0624999999999898
40
0.0624999999999898
40
0.12499999999998
40
0.12499999999998
40
0.187499999999969
40
0.187499999999969
40
0.249999999999959
40
0.249999999999959
40
0.312499999999949
40
0.312499999999949
40
0.374999999999939
40
0.374999999999939
40
0.499999999999945
40
0.499999999999945
40
0.62499999999995
40
0.62499999999995
40
0.749999999999956
40
0.749999999999956
40
1
40
1
40
1
40
1
41
1
10
19.8624971491645
20
16.59377858878
30
0
41
1
10
19.8479965305852
20
16.5706078674836
30
0
41
1
10
19.8361350362289
20
16.5458294027653
30
0
41
1
10
19.8189881375259
20
16.4922663468412
30
0
41
1
10
19.8136858233407
20
16.4631627662967
30
0
41
1
10
19.8118865352507
20
16.4012546600352
30
0
41
1
10
19.8153212506427
20
16.3687572227794
30
0
41
1
10
19.8323682846977
20
16.3001382945762
30
0
41
1
10
19.8459367497352
20
16.2646872019072
30
0
41
1
10
19.8820827605385
20
16.1939944395573
30
0
41
1
10
19.9051100085036
20
16.1579866153165
30
0
41
1
10
19.9575409473738
20
16.0887328564675
30
0
41
1
10
19.9872329132279
20
16.0549493302985
30
0
41
1
10
20.0830711206452
20
15.9577679984739
30
0
41
1
10
20.1540312731773
20
15.899940625922
30
0
41
1
10
20.3040271548449
20
15.7932596724335
30
0
41
1
10
20.3807366987119
20
15.7461224562463
30
0
41
1
10
20.5361943787753
20
15.6592363721891
30
0
41
1
10
20.6151363955635
20
15.6194852328858
30
0
41
1
10
20.8529415022748
20
15.5085375774691
30
0
41
1
10
21.0112215689439
20
15.4460382245938
30
0
41
1
10
21.1693576990004
20
15.3899686608926
30
0
0
SPLINE
5
149
100
AcDbEntity
8
1
62
256
6
ByLayer
370
18
48
1
60
0
100
AcDbSpline
70
4
71
2
72
6
73
3
40
0
40
0
40
0
40
1
40
1
40
1
41
0.937301687733887
10
11.3160821698555
20
8.8951287000125
30
0
41
0.930554445970897
10
11.5628779661666
20
7.49548018723647
30
0
41
1.02805999725224
10
11.6658994315621
20
6.91121642350805
30
0
0
SPLINE
5
14A
100
AcDbEntity
8
1
62
256
6
ByLayer
370
18
48
1
60
0
100
AcDbSpline
70
4
71
3
72
8
73
4
40
0
40
0
40
0
40
0
40
1
40
1
40
1
40
1
41
1
10
24.6914845834726
20
13.3892946622703
30
0
41
1
10
24.7557414697262
20
13.445703722545
30
0
41
1
10
24.8176996825092
20
13.506125174964
30
0
41
1
10
24.8773630777785
20
13.5705522888583
30
0
0
SPLINE
5
14B
100
AcDbEntity
8
1
62
256
6
ByLayer
370
18
48
1
60
0
100
AcDbSpline
70
4
71
3
72
10
73
6
40
0
40
0
40
0
40
0
40
0.5
40
0.5
40
1
40
1
40
1
40
1
41
1
10
9.10480520637321
20
11.4401867647323
30
0
41
1
10
9.08098972634622
20
11.4402130282959
30
0
41
1
10
9.05564511060476
20
11.4381558420228
30
0
41
1
10
9.00548786894575
20
11.4293155289822
30
0
41
1
10
8.98093329812019
20
11.422575182995
30
0
41
1
10
8.9585376249816
20
11.41439584373
30
0
0
SPLINE
5
14C
100
AcDbEntity
8
1
62
256
6
ByLayer
370
18
48
1
60
0
100
AcDbSpline
70
4
71
3
72
10
73
6
40
0
40
0
40
0
40
0
40
0.5
40
0.5
40
1
40
1
40
1
40
1
41
1
10
7.70071221673032
20
12.9134137928686
30
0
41
1
10
7.71255187835692
20
12.9338685610965
30
0
41
1
10
7.72350425448025
20
12.9569064785128
30
0
41
1
10
7.74104941998104
20
13.0051336081576
30
0
41
1
10
7.74744542838965
20
13.0297774098314
30
0
41
1
10
7.75151041465222
20
13.0529806946072
30
0
0
SPLINE
5
14D
100
AcDbEntity
8
1
62
256
6
ByLayer
370
18
48
1
60
0
100
AcDbSpline
70
4
71
3
72
10
73
6
40
0
40
0
40
0
40
0
40
0.5
40
0.5
40
1
40
1
40
1
40
1
41
1
10
7.97747470091696
20
11.7714735460318
30
0
41
1
10
7.96571887253782
20
11.7918871943295
30
0
41
1
10
7.9512799140532
20
11.8128572291978
30
0
41
1
10
7.9182982017083
20
11.8521751070274
30
0
41
1
10
7.90012690286835
20
11.8700777347703
30
0
41
1
10
7.88200531744428
20
11.8852495267676
30
0
0
SPLINE
5
14E
100
AcDbEntity
8
1
62
256
6
ByLayer
370
18
48
1
60
0
100
AcDbSpline
70
4
71
3
72
10
73
6
40
0
40
0
40
0
40
0
40
0.5
40
0.5
40
1
40
1
40
1
40
1
41
1
10
9.95537322764557
20
12.2508402302713
30
0
41
1
10
9.94353356601908
20
12.2303854620434
30
0
41
1
10
9.93258118989564
20
12.207347544627
30
0
41
1
10
9.91503602439485
20
12.1591204149822
30
0
41
1
10
9.90864001598624
20
12.1344766133085
30
0
41
1
10
9.90457502972367
20
12.1112733285327
30
0
0
SPLINE
5
14F
100
AcDbEntity
8
1
62
256
6
ByLayer
370
18
48
1
60
0
100
AcDbSpline
70
4
71
3
72
10
73
6
40
0
40
0
40
0
40
0
40
0.5
40
0.5
40
1
40
1
40
1
40
1
41
1
10
8.55128023800268
20
13.7240672584076
30
0
41
1
10
8.57509571802973
20
13.724040994844
30
0
41
1
10
8.60044033377119
20
13.726098181117
30
0
41
1
10
8.6505975754302
20
13.7349384941577
30
0
41
1
10
8.67515214625575
20
13.7416788401449
30
0
41
1
10
8.69754781939429
20
13.7498581794099
30
0
0
SPLINE
5
150
100
AcDbEntity
8
1
62
256
6
ByLayer
370
18
48
1
60
0
100
AcDbSpline
70
4
71
3
72
10
73
6
40
0
40
0
40
0
40
0
40
0.5
40
0.5
40
1
40
1
40
1
40
1
41
1
10
9.67861074345893
20
13.3927804771081
30
0
41
1
10
9.69036657183813
20
13.3723668288104
30
0
41
1
10
9.70480553032274
20
13.3513967939421
30
0
41
1
10
9.73778724266759
20
13.3120789161124
30
0
41
1
10
9.75595854150754
20
13.2941762883695
30
0
41
1
10
9.77408012693155
20
13.2790044963723
30
0
0
SPLINE
5
151
100
AcDbEntity
8
1
62
256
6
ByLayer
370
13
48
1
60
0
100
AcDbSpline
70
4
71
3
72
8
73
4
40
0
40
0
40
0
40
0
40
1
40
1
40
1
40
1
41
1
10
29.7832412018052
20
16.2116221422729
30
0
41
1
10
29.7787251118872
20
16.1995767454408
30
0
41
1
10
29.773737499067
20
16.1876978008272
30
0
41
1
10
29.768300869464
20
16.1760389110195
30
0
0
SPLINE
5
152
100
AcDbEntity
8
1
62
256
6
ByLayer
370
13
48
1
60
0
100
AcDbSpline
70
4
71
3
72
8
73
4
40
0
40
0
40
0
40
0
40
1
40
1
40
1
40
1
41
1
10
22.1221013801796
20
8.52983942173512
30
0
41
1
10
22.1104424903719
20
8.52440279213218
30
0
41
1
10
22.0985635457583
20
8.51941517931181
30
0
41
1
10
22.0865181489262
20
8.51489908939388
30
0
0
SPLINE
5
153
100
AcDbEntity
8
1
62
256
6
ByLayer
370
13
48
1
60
0
100
AcDbSpline
70
4
71
3
72
8
73
4
40
0
40
0
40
0
40
0
40
1
40
1
40
1
40
1
41
1
10
24.2470389110195
20
21.6973008694639
30
0
41
1
10
24.2586978008272
20
21.7027374990668
30
0
41
1
10
24.2705767454408
20
21.7077251118872
30
0
41
1
10
24.2826221422729
20
21.7122412018051
30
0
0
LINE
5
70
100
AcDbEntity
8
81
62
256
6
ByLayer
370
18
48
1
60
0
100
AcDbLine
10
32.146
20
24.075
30
0
11
37.146
21
24.075
31
0
39
0
210
0
220
0
230
1
0
LINE
5
71
100
AcDbEntity
8
80
62
256
6
ByLayer
370
18
48
1
60
0
100
AcDbLine
10
0
20
0
30
0
11
-10
21
0
31
0
39
0
210
0
220
0
230
1
0
LINE
5
72
100
AcDbEntity
8
1
62
256
6
ByLayer
370
18
48
1
60
0
100
AcDbLine
10
3.602826
20
18.97168
30
0
11
3.51942
21
19.444699
31
0
39
0
210
0
220
0
230
1
0
LINE
5
74
100
AcDbEntity
8
1
62
256
6
ByLayer
370
18
48
1
60
0
100
AcDbLine
10
3.606693
20
4.553476
30
0
11
2.245577
21
4.313474
31
0
39
0
210
0
220
0
230
1
0
LINE
5
75
100
AcDbEntity
8
1
62
256
6
ByLayer
370
18
48
1
60
0
100
AcDbLine
10
2.245577
20
4.313474
30
0
11
2.077188
21
5.268452
31
0
39
0
210
0
220
0
230
1
0
LINE
5
76
100
AcDbEntity
8
1
62
256
6
ByLayer
370
18
48
1
60
0
100
AcDbLine
10
2.927461
20
18.852741
30
0
11
3.51942
21
19.444699
31
0
39
0
210
0
220
0
230
1
0
LINE
5
77
100
AcDbEntity
8
1
62
256
6
ByLayer
370
18
48
1
60
0
100
AcDbLine
10
25.353539
20
22.201677
30
0
11
25.353539
21
22.512456
31
0
39
0
210
0
220
0
230
1
0
LINE
5
78
100
AcDbEntity
8
1
62
256
6
ByLayer
370
18
48
1
60
0
100
AcDbLine
10
25.188611
20
22.124764
30
0
11
25.109805
21
22.175941
31
0
39
0
210
0
220
0
230
1
0
LINE
5
79
100
AcDbEntity
8
1
62
256
6
ByLayer
370
18
48
1
60
0
100
AcDbLine
10
17.059977
20
6.348304
30
0
11
17.072668
21
6.203243
31
0
39
0
210
0
220
0
230
1
0
LINE
5
7A
100
AcDbEntity
8
1
62
256
6
ByLayer
370
18
48
1
60
0
100
AcDbLine
10
20.571545
20
19.973508
30
0
11
20.503967
21
20.12529
31
0
39
0
210
0
220
0
230
1
0
LINE
5
7B
100
AcDbEntity
8
1
62
256
6
ByLayer
370
18
48
1
60
0
100
AcDbLine
10
14.968912
20
6.154491
30
0
11
14.980659
21
6.020216
31
0
39
0
210
0
220
0
230
1
0
LINE
5
7C
100
AcDbEntity
8
1
62
256
6
ByLayer
370
18
48
1
60
0
100
AcDbLine
10
0
20
8.904642
30
0
11
0
21
13.433484
31
0
39
0
210
0
220
0
230
1
0
LINE
5
7D
100
AcDbEntity
8
1
62
256
6
ByLayer
370
18
48
1
60
0
100
AcDbLine
10
18.704375
20
6.947729
30
0
11
18.728738
21
6.895483
31
0
39
0
210
0
220
0
230
1
0
LINE
5
7E
100
AcDbEntity
8
SK1
62
256
6
ByLayer
370
18
48
1
60
0
100
AcDbLine
10
0
20
8.904642
30
0
11
0
21
13.433484
31
0
39
0
210
0
220
0
230
1
0
LINE
5
80
100
AcDbEntity
8
1
62
256
6
ByLayer
370
18
48
1
60
0
100
AcDbLine
10
0
20
-15.925
30
0
11
9.750904
21
-15.925
31
0
39
0
210
0
220
0
230
1
0
LINE
5
81
100
AcDbEntity
8
SK1
62
256
6
ByLayer
370
18
48
1
60
0
100
AcDbLine
10
-137.854
20
-15.925
30
0
11
0
21
-15.925
31
0
39
0
210
0
220
0
230
1
0
LINE
5
82
100
AcDbEntity
8
SK1
62
256
6
ByLayer
370
18
48
1
60
0
100
AcDbLine
10
-0.6216
20
15.925
30
0
11
-1.237879
21
15.925
31
0
39
0
210
0
220
0
230
1
0
LINE
5
83
100
AcDbEntity
8
SK1
62
256
6
ByLayer
370
18
48
1
60
0
100
AcDbLine
10
-5.179765
20
15.925
30
0
11
-2.325569
21
-0.261946
31
0
39
0
210
0
220
0
230
1
0
LINE
5
84
100
AcDbEntity
8
SK1
62
256
6
ByLayer
370
18
48
1
60
0
100
AcDbLine
10
-5.179765
20
15.925
30
0
11
-1.237879
21
15.925
31
0
39
0
210
0
220
0
230
1
0
LINE
5
85
100
AcDbEntity
8
SK1
62
256
6
ByLayer
370
18
48
1
60
0
100
AcDbLine
10
0
20
8.904642
30
0
11
0
21
0.341716
31
0
39
0
210
0
220
0
230
1
0
LINE
5
86
100
AcDbEntity
8
SK1
62
256
6
ByLayer
370
18
48
1
60
0
100
AcDbLine
10
-1.237879
20
15.925
30
0
11
0
21
8.904642
31
0
39
0
210
0
220
0
230
1
0
LINE
5
87
100
AcDbEntity
8
SK1
62
256
6
ByLayer
370
18
48
1
60
0
100
AcDbLine
10
-137.854
20
-15.925
30
0
11
-137.854
21
15.925
31
0
39
0
210
0
220
0
230
1
0
LINE
5
88
100
AcDbEntity
8
SK1
62
256
6
ByLayer
370
18
48
1
60
0
100
AcDbLine
10
-137.854
20
15.925
30
0
11
-5.179765
21
15.925
31
0
39
0
210
0
220
0
230
1
0
LINE
5
89
100
AcDbEntity
8
SK1
62
256
6
ByLayer
370
18
48
1
60
0
100
AcDbLine
10
0
20
-15.925
30
0
11
0
21
-1.159577
31
0
39
0
210
0
220
0
230
1
0
LINE
5
8A
100
AcDbEntity
8
1
62
256
6
ByLayer
370
18
48
1
60
0
100
AcDbLine
10
5.940715
20
21.865995
30
0
11
25.109805
21
22.541393
31
0
39
0
210
0
220
0
230
1
0
LINE
5
8B
100
AcDbEntity
8
1
62
256
6
ByLayer
370
18
48
1
60
0
100
AcDbLine
10
25.589417
20
9.82574
30
0
11
25.609166
21
9.783387
31
0
39
0
210
0
220
0
230
1
0
LINE
5
8C
100
AcDbEntity
8
1
62
256
6
ByLayer
370
18
48
1
60
0
100
AcDbLine
10
0
20
-15.925
30
0
11
0
21
-1.159577
31
0
39
0
210
0
220
0
230
1
0
LINE
5
8D
100
AcDbEntity
8
1
62
256
6
ByLayer
370
18
48
1
60
0
100
AcDbLine
10
25.707308
20
10.149644
30
0
11
25.589417
21
9.82574
31
0
39
0
210
0
220
0
230
1
0
LINE
5
8E
100
AcDbEntity
8
1
62
256
6
ByLayer
370
18
48
1
60
0
100
AcDbLine
10
25.739372
20
10.080882
30
0
11
25.707308
21
10.149644
31
0
39
0
210
0
220
0
230
1
0
LINE
5
8F
100
AcDbEntity
8
1
62
256
6
ByLayer
370
18
48
1
60
0
100
AcDbLine
10
0
20
8.904642
30
0
11
0.852848
21
4.067899
31
0
39
0
210
0
220
0
230
1
0
LINE
5
90
100
AcDbEntity
8
1
62
256
6
ByLayer
370
18
48
1
60
0
100
AcDbLine
10
0
20
8.904642
30
0
11
0
21
0.341716
31
0
39
0
210
0
220
0
230
1
0
LINE
5
91
100
AcDbEntity
8
1
62
256
6
ByLayer
370
18
48
1
60
0
100
AcDbLine
10
3.51942
20
19.444699
30
0
11
5.940715
21
21.865995
31
0
39
0
210
0
220
0
230
1
0
LINE
5
92
100
AcDbEntity
8
1
62
256
6
ByLayer
370
18
48
1
60
0
100
AcDbLine
10
14.980659
20
6.020216
30
0
11
17.072668
21
6.203243
31
0
39
0
210
0
220
0
230
1
0
LINE
5
93
100
AcDbEntity
8
1
62
256
6
ByLayer
370
18
48
1
60
0
100
AcDbLine
10
25.109805
20
22.541393
30
0
11
25.109805
21
22.175941
31
0
39
0
210
0
220
0
230
1
0
LINE
5
94
100
AcDbEntity
8
1
62
256
6
ByLayer
370
18
48
1
60
0
100
AcDbLine
10
0.852848
20
4.067899
30
0
11
2.245577
21
4.313474
31
0
39
0
210
0
220
0
230
1
0
LINE
5
95
100
AcDbEntity
8
1
62
256
6
ByLayer
370
18
48
1
60
0
100
AcDbLine
10
25.109805
20
22.175941
30
0
11
20.503967
21
20.12529
31
0
39
0
210
0
220
0
230
1
0
LINE
5
96
100
AcDbEntity
8
1
62
256
6
ByLayer
370
18
48
1
60
0
100
AcDbLine
10
0
20
-1.159577
30
0
11
0
21
-1.130397
31
0
39
0
210
0
220
0
230
1
0
LINE
5
97
100
AcDbEntity
8
1
62
256
6
ByLayer
370
18
48
1
60
0
100
AcDbLine
10
18.728738
20
6.895483
30
0
11
18.831744
21
6.674586
31
0
39
0
210
0
220
0
230
1
0
LINE
5
98
100
AcDbEntity
8
1
62
256
6
ByLayer
370
18
48
1
60
0
100
AcDbLine
10
19.756443
20
-0.51782
30
0
11
9.750904
21
-15.925
31
0
39
0
210
0
220
0
230
1
0
LINE
5
99
100
AcDbEntity
8
1
62
256
6
ByLayer
370
18
48
1
60
0
100
AcDbLine
10
25.707308
20
10.149644
30
0
11
18.728738
21
6.895483
31
0
39
0
210
0
220
0
230
1
0
LINE
5
9A
100
AcDbEntity
8
1
62
256
6
ByLayer
370
18
48
1
60
0
100
AcDbLine
10
25.109805
20
22.541393
30
0
11
25.353539
21
22.512456
31
0
39
0
210
0
220
0
230
1
0
LINE
5
9B
100
AcDbEntity
8
1
62
256
6
ByLayer
370
18
48
1
60
0
100
AcDbLine
10
18.831744
20
6.674586
30
0
11
25.589417
21
9.82574
31
0
39
0
210
0
220
0
230
1
0
LINE
5
9C
100
AcDbEntity
8
1
62
256
6
ByLayer
370
18
48
1
60
0
100
AcDbLine
10
24.564849
20
13.184629
30
0
11
24.691485
21
13.389295
31
0
39
0
210
0
220
0
230
1
0
LINE
5
9D
100
AcDbEntity
8
1
62
256
6
ByLayer
370
18
48
1
60
0
100
AcDbLine
10
0.041092
20
13.571317
30
0
11
0.909333
21
8.647278
31
0
39
0
210
0
220
0
230
1
0
LINE
5
9E
100
AcDbEntity
8
1
62
256
6
ByLayer
370
18
48
1
60
0
100
AcDbLine
10
6.503359
20
4.861151
30
0
11
6.507322
21
4.864009
31
0
39
0
210
0
220
0
230
1
0
LINE
5
9F
100
AcDbEntity
8
1
62
256
6
ByLayer
370
18
48
1
60
0
100
AcDbLine
10
5.085399
20
4.611126
30
0
11
6.503359
21
4.861151
31
0
39
0
210
0
220
0
230
1
0
LINE
5
A0
100
AcDbEntity
8
1
62
256
6
ByLayer
370
18
48
1
60
0
100
AcDbLine
10
0.909333
20
8.647278
30
0
11
1.209378
21
8.700184
31
0
39
0
210
0
220
0
230
1
0
LINE
5
A1
100
AcDbEntity
8
1
62
256
6
ByLayer
370
18
48
1
60
0
100
AcDbLine
10
4.002825
20
19.042383
30
0
11
2.584865
21
18.792358
31
0
39
0
210
0
220
0
230
1
0
LINE
5
A2
100
AcDbEntity
8
1
62
256
6
ByLayer
370
18
48
1
60
0
100
AcDbLine
10
1.141124
20
6.961924
30
0
11
-0.317521
21
15.234309
31
0
39
0
210
0
220
0
230
1
0
LINE
5
A3
100
AcDbEntity
8
1
62
256
6
ByLayer
370
18
48
1
60
0
100
AcDbLine
10
2.584865
20
18.792358
30
0
11
2.32065
21
18.74577
31
0
39
0
210
0
220
0
230
1
0
LINE
5
A4
100
AcDbEntity
8
1
62
256
6
ByLayer
370
18
48
1
60
0
100
AcDbLine
10
0.479713
20
13.800972
30
0
11
1.400048
21
8.581491
31
0
39
0
210
0
220
0
230
1
0
LINE
5
A5
100
AcDbEntity
8
1
62
256
6
ByLayer
370
18
48
1
60
0
100
AcDbLine
10
0.47866
20
15.374697
30
0
11
1.937304
21
7.102312
31
0
39
0
210
0
220
0
230
1
0
LINE
5
A6
100
AcDbEntity
8
1
62
256
6
ByLayer
370
18
48
1
60
0
100
AcDbLine
10
10.490432
20
8.661231
30
0
11
8.467558
21
8.304543
31
0
39
0
210
0
220
0
230
1
0
LINE
5
A7
100
AcDbEntity
8
1
62
256
6
ByLayer
370
18
48
1
60
0
100
AcDbLine
10
0.143663
20
13.741717
30
0
11
0.479713
21
13.800972
31
0
39
0
210
0
220
0
230
1
0
LINE
5
A8
100
AcDbEntity
8
1
62
256
6
ByLayer
370
18
48
1
60
0
100
AcDbLine
10
24.447649
20
17.02226
30
0
11
24.247532
21
17.142502
31
0
39
0
210
0
220
0
230
1
0
LINE
5
A9
100
AcDbEntity
8
1
62
256
6
ByLayer
370
18
48
1
60
0
100
AcDbLine
10
4.002825
20
19.042383
30
0
11
4.007527
21
19.041052
31
0
39
0
210
0
220
0
230
1
0
LINE
5
AA
100
AcDbEntity
8
1
62
256
6
ByLayer
370
18
48
1
60
0
100
AcDbLine
10
1.937304
20
7.102312
30
0
11
1.141124
21
6.961924
31
0
39
0
210
0
220
0
230
1
0
LINE
5
AB
100
AcDbEntity
8
1
62
256
6
ByLayer
370
18
48
1
60
0
100
AcDbLine
10
9.360647
20
19.984952
30
0
11
4.007527
21
19.041052
31
0
39
0
210
0
220
0
230
1
0
LINE
5
AC
100
AcDbEntity
8
1
62
256
6
ByLayer
370
18
48
1
60
0
100
AcDbLine
10
2.037996
20
17.55616
30
0
11
9.55519
21
18.881644
31
0
39
0
210
0
220
0
230
1
0
LINE
5
AD
100
AcDbEntity
8
1
62
256
6
ByLayer
370
18
48
1
60
0
100
AcDbLine
10
4.148705
20
5.585732
30
0
11
11.665899
21
6.911216
31
0
39
0
210
0
220
0
230
1
0
LINE
5
AE
100
AcDbEntity
8
1
62
256
6
ByLayer
370
18
48
1
60
0
100
AcDbLine
10
1.063998
20
8.522236
30
0
11
1.400048
21
8.581491
31
0
39
0
210
0
220
0
230
1
0
LINE
5
AF
100
AcDbEntity
8
1
62
256
6
ByLayer
370
18
48
1
60
0
100
AcDbLine
10
0.341137
20
13.624223
30
0
11
1.209378
21
8.700184
31
0
39
0
210
0
220
0
230
1
0
LINE
5
B0
100
AcDbEntity
8
1
62
256
6
ByLayer
370
18
48
1
60
0
100
AcDbLine
10
22.434036
20
14.981231
30
0
11
25.481142
21
15.518518
31
0
39
0
210
0
220
0
230
1
0
LINE
5
B1
100
AcDbEntity
8
1
62
256
6
ByLayer
370
18
48
1
60
0
100
AcDbLine
10
0.041092
20
13.571317
30
0
11
0.341137
21
13.624223
31
0
39
0
210
0
220
0
230
1
0
LINE
5
B2
100
AcDbEntity
8
1
62
256
6
ByLayer
370
18
48
1
60
0
100
AcDbLine
10
3.814438
20
9.057984
30
0
11
2.1066
21
8.756846
31
0
39
0
210
0
220
0
230
1
0
LINE
5
B3
100
AcDbEntity
8
1
62
256
6
ByLayer
370
18
48
1
60
0
100
AcDbLine
10
0.479713
20
13.800972
30
0
11
0.341137
21
13.624223
31
0
39
0
210
0
220
0
230
1
0
LINE
5
B4
100
AcDbEntity
8
1
62
256
6
ByLayer
370
18
48
1
60
0
100
AcDbLine
10
1.400048
20
8.581491
30
0
11
1.209378
21
8.700184
31
0
39
0
210
0
220
0
230
1
0
LINE
5
B5
100
AcDbEntity
8
1
62
256
6
ByLayer
370
18
48
1
60
0
100
AcDbLine
10
25.024286
20
13.751987
30
0
11
24.877363
21
13.570552
31
0
39
0
210
0
220
0
230
1
0
LINE
5
B6
100
AcDbEntity
8
1
62
256
6
ByLayer
370
18
48
1
60
0
100
AcDbLine
10
0.143663
20
13.741717
30
0
11
0.041092
21
13.571317
31
0
39
0
210
0
220
0
230
1
0
LINE
5
B7
100
AcDbEntity
8
1
62
256
6
ByLayer
370
18
48
1
60
0
100
AcDbLine
10
2.911467
20
14.178984
30
0
11
1.203629
21
13.877846
31
0
39
0
210
0
220
0
230
1
0
LINE
5
B8
100
AcDbEntity
8
1
62
256
6
ByLayer
370
18
48
1
60
0
100
AcDbLine
10
0.47866
20
15.374697
30
0
11
-0.317521
21
15.234309
31
0
39
0
210
0
220
0
230
1
0
LINE
5
B9
100
AcDbEntity
8
1
62
256
6
ByLayer
370
18
48
1
60
0
100
AcDbLine
10
5.085399
20
4.611126
30
0
11
4.821183
21
4.564538
31
0
39
0
210
0
220
0
230
1
0
LINE
5
BA
100
AcDbEntity
8
1
62
256
6
ByLayer
370
18
48
1
60
0
100
AcDbLine
10
1.063998
20
8.522236
30
0
11
0.909333
21
8.647278
31
0
39
0
210
0
220
0
230
1
0
LINE
5
BB
100
AcDbEntity
8
1
62
256
6
ByLayer
370
18
48
1
60
0
100
AcDbLine
10
1.203629
20
13.877846
30
0
11
2.1066
21
8.756846
31
0
39
0
210
0
220
0
230
1
0
LINE
5
BC
100
AcDbEntity
8
1
62
256
6
ByLayer
370
18
48
1
60
0
100
AcDbLine
10
11.860442
20
5.807909
30
0
11
6.507322
21
4.864009
31
0
39
0
210
0
220
0
230
1
0
LINE
5
BD
100
AcDbEntity
8
1
62
256
6
ByLayer
370
18
48
1
60
0
100
AcDbLine
10
24.564849
20
13.184629
30
0
11
23.873134
21
12.330433
31
0
39
0
210
0
220
0
230
1
0
LINE
5
BE
100
AcDbEntity
8
1
62
256
6
ByLayer
370
18
48
1
60
0
100
AcDbLine
10
24.01087
20
17.249254
30
0
11
23.821871
21
17.398265
31
0
39
0
210
0
220
0
230
1
0
LINE
5
BF
100
AcDbEntity
8
1
62
256
6
ByLayer
370
18
48
1
60
0
100
AcDbLine
10
23.821871
20
17.398265
30
0
11
22.87972
21
17.964367
31
0
39
0
210
0
220
0
230
1
0
LINE
5
C0
100
AcDbEntity
8
1
62
256
6
ByLayer
370
18
48
1
60
0
100
AcDbLine
10
7.026278
20
16.478448
30
0
11
9.049153
21
16.835135
31
0
39
0
210
0
220
0
230
1
0
LINE
5
C1
100
AcDbEntity
8
1
62
256
6
ByLayer
370
13
48
1
60
0
100
AcDbLine
10
20.852618
20
20.114457
30
0
11
24.247039
21
21.697301
31
0
39
0
210
0
220
0
230
1
0
LINE
5
C2
100
AcDbEntity
8
1
62
256
6
ByLayer
370
13
48
1
60
0
100
AcDbLine
10
29.816262
20
23.949477
30
0
11
31.16369
21
24.067361
31
0
39
0
210
0
220
0
230
1
0
LINE
5
C3
100
AcDbEntity
8
1
62
256
6
ByLayer
370
13
48
1
60
0
100
AcDbLine
10
31.570381
20
20.065482
30
0
11
29.873156
21
16.425771
31
0
39
0
210
0
220
0
230
1
0
LINE
5
C4
100
AcDbEntity
8
1
62
256
6
ByLayer
370
13
48
1
60
0
100
AcDbLine
10
24.496771
20
21.802156
30
0
11
28.136482
21
23.499381
31
0
39
0
210
0
220
0
230
1
0
LINE
5
C5
100
AcDbEntity
8
1
62
256
6
ByLayer
370
13
48
1
60
0
100
AcDbLine
10
32.138361
20
23.09269
30
0
11
32.020477
21
21.745262
31
0
39
0
210
0
220
0
230
1
0
LINE
5
C6
100
AcDbEntity
8
1
62
256
6
ByLayer
370
13
48
1
60
0
100
AcDbLine
10
16.552878
20
6.277664
30
0
11
15.20545
21
6.159779
31
0
39
0
210
0
220
0
230
1
0
LINE
5
C7
100
AcDbEntity
8
1
62
256
6
ByLayer
370
13
48
1
60
0
100
AcDbLine
10
25.516522
20
10.112684
30
0
11
22.122101
21
8.529839
31
0
39
0
210
0
220
0
230
1
0
LINE
5
C8
100
AcDbEntity
8
1
62
256
6
ByLayer
370
13
48
1
60
0
100
AcDbLine
10
29.768301
20
16.176039
30
0
11
28.185457
21
12.781618
31
0
39
0
210
0
220
0
230
1
0
LINE
5
C9
100
AcDbEntity
8
1
62
256
6
ByLayer
370
13
48
1
60
0
100
AcDbLine
10
21.872369
20
8.424984
30
0
11
18.232659
21
6.727759
31
0
39
0
210
0
220
0
230
1
0
LINE
5
CA
100
AcDbEntity
8
2
62
256
6
ByLayer
370
18
48
1
60
1
100
AcDbLine
10
32.146
20
22.663795
30
0
11
32.146
21
22.662795
31
0
39
0
210
0
220
0
230
1
0
LINE
5
CC
100
AcDbEntity
8
2
62
256
6
ByLayer
370
18
48
1
60
1
100
AcDbLine
10
31.292843
20
21.268044
30
0
11
31.292421
21
21.267138
31
0
39
0
210
0
220
0
230
1
0
MTEXT
5
154
100
AcDbEntity
8
SK6
62
256
6
ByLayer
370
13
48
1
60
0
100
AcDbMText
10
-136.943743
20
-32.85226
30
0
210
0
220
0
230
1
1
\W0.7191;CP-25BR-3232-11
40
3.5
41
0
44
1.084337
50
0
71
7
72
5
7
iso_b_vert
0
DIMENSION
5
166
100
AcDbEntity
8
SK2
62
256
6
ByLayer
370
13
48
1
60
0
100
AcDbDimension
2
DimnDraft3D1
10
32.146
20
41.575
30
0
11
-52.854
21
41.575
31
0
70
32
71
5
72
1
41
1
210
0
220
0
230
1
3
Standard
100
AcDbAlignedDimension
13
-137.854
23
17.5125
33
0
14
32.146
24
25.6625
34
0
50
0
100
AcDbRotatedDimension
1001
ACAD
1000
DSTYLE
1002
{
1070
   279
1070
     0
1070
   172
1070
     1
1070
   173
1070
     1
1070
   340
1005
155
1070
   271
1070
     1
1070
   272
1070
     2
1070
    77
1070
     1
1070
    73
1070
     0
1070
   171
1070
     3
1070
   274
1070
     4
1070
   177
1070
   150
1070
   176
1070
     9
1070
   178
1070
    43
1070
    78
1070
     8
1070
    48
1040
-0.005
1070
    41
1041
3.175
1070
   147
1041
2.25
1070
    42
1041
1.5875
1070
    44
1041
3.175
1070
   140
1041
4.5
1070
   343
1005
167
1070
   344
1005
167
1002
}
0
DIMENSION
5
17B
100
AcDbEntity
8
SK2
62
256
6
ByLayer
370
13
48
1
60
0
100
AcDbDimension
2
DimnDraft3D2
10
-146.954
20
-15.925
30
0
11
-146.954
21
0
31
0
70
32
71
5
72
1
41
1
210
0
220
0
230
1
3
Standard
100
AcDbAlignedDimension
13
-139.4415
23
15.925
33
0
14
-139.4415
24
-15.925
34
0
50
90
100
AcDbRotatedDimension
1001
ACAD
1000
DSTYLE
1002
{
1070
    74
1070
     0
1070
   279
1070
     0
1070
   172
1070
     1
1070
   173
1070
     1
1070
   340
1005
155
1070
   271
1070
     1
1070
   272
1070
     2
1070
    77
1070
     1
1070
    73
1070
     0
1070
   171
1070
     3
1070
   274
1070
     4
1070
   177
1070
   150
1070
   176
1070
     9
1070
   178
1070
    43
1070
    78
1070
     8
1070
    48
1040
-0.005
1070
    41
1041
3.175
1070
   147
1041
2.25
1070
    42
1041
1.5875
1070
    44
1041
3.175
1070
   140
1041
4.5
1070
   343
1005
167
1070
   344
1005
167
1002
}
0
DIMENSION
5
189
100
AcDbEntity
8
2
62
256
6
ByLayer
370
13
48
1
60
0
100
AcDbDimension
2
DimnDraft3D3
10
52.996
20
24.075
30
0
11
52.996
21
4.075
31
0
70
32
71
5
72
1
41
1
210
0
220
0
230
1
3
Standard
100
AcDbAlignedDimension
13
1.5875
23
-15.925
33
0
14
33.7335
24
24.075
34
0
50
90
100
AcDbRotatedDimension
1001
ACAD
1000
DSTYLE
1002
{
1070
    74
1070
     0
1070
   279
1070
     0
1070
   172
1070
     1
1070
   173
1070
     1
1070
   340
1005
155
1070
   271
1070
     1
1070
   272
1070
     2
1070
    77
1070
     1
1070
    73
1070
     0
1070
   171
1070
     3
1070
   274
1070
     4
1070
   177
1070
   150
1070
   176
1070
     9
1070
   178
1070
    43
1070
    78
1070
     8
1070
    48
1040
-0.005
1070
    41
1041
3.175
1070
   147
1041
2.25
1070
    42
1041
1.5875
1070
    44
1041
3.175
1070
   140
1041
4.5
1070
   343
1005
167
1070
   344
1005
167
1002
}
0
DIMENSION
5
197
100
AcDbEntity
8
2
62
256
6
ByLayer
370
13
48
1
60
0
100
AcDbDimension
2
DimnDraft3D4
10
31.292421
20
21.267138
30
0
11
22.556496
21
-20.157813
31
0
70
34
71
5
72
1
41
1
210
0
220
0
230
1
3
Standard
100
AcDb2LineAngularDimension
13
32.146
23
22.663795
33
0
14
32.146
24
22.662795
34
0
15
31.292843
25
21.268044
35
0
16
21.582518
26
-24.551145
36
0
40
0
0
ENDSEC
0
SECTION
2
OBJECTS
0
DICTIONARY
5
201
330
0
100
AcDbDictionary
280
0
281
1
3
ACAD_GROUP
350
202
3
ACAD_MLINESTYLE
350
203
0
DICTIONARY
5
202
330
0
100
AcDbDictionary
280
0
281
1
0
DICTIONARY
5
203
330
0
100
AcDbDictionary
280
0
281
1
3
Standard
350
18
0
MLINESTYLE
5
18
330
203
100
AcDbMlineStyle
2
Standard
70
0
3

62
256
51
90
52
90
71
2
49
-0.5
62
256
6
ByLayer
49
0.5
62
256
6
ByLayer
0
RASTERVARIABLES
5
1f0
330

100
AcDbRasterVariables
90
0
70
1
71
1
72
1
0
ENDSEC
0
EOF
