0
SECTION
2
HEADER
9
$ACADVER
1
AC1015
9
$DWGCODEPAGE
3
ANSI_1252
9
$HANDSEED
5
20e
9
$ANGBASE
50
0
9
$ANGDIR
70
0
9
$ATTMODE
70
1
9
$AUNITS
70
0
9
$AUPREC
70
0
9
$CECOLOR
62
256
9
$CELTSCALE
40
1
9
$CELTYPE
6
ByLayer
9
$CELWEIGHT
370
18
9
$CLAYER
8
0
9
$CMLJUST
70
0
9
$CMLSCALE
40
1
9
$CMLSTYLE
2
Standard
9
$DIMSTYLE
2
Standard
9
$TEXTSIZE
40
0.2
9
$TEXTSTYLE
7
Standard
9
$LUNITS
70
2
9
$LUPREC
70
4
9
$EXTNAMES
290
1
9
$INSUNITS
70
4
9
$LTSCALE
40
1
9
$LWDISPLAY
290
1
9
$PDMODE
70
0
9
$PDSIZE
40
0
9
$PLINEGEN
70
0
0
ENDSEC
0
SECTION
2
CLASSES
0
CLASS
1
RASTERVARIABLES
2
AcDbRasterVariables
3
ISM
90
0
280
0
281
0
0
ENDSEC
0
SECTION
2
TABLES
0
TABLE
2
VPORT
5
204
100
AcDbSymbolTable
0
VPORT
5
1
100
AcDbSymbolTableRecord
100
AcDbViewportTableRecord
2
*Active
70
0
10
0
20
0
11
1
21
1
12
-1
22
1
13
0
23
0
14
0.5
24
0.5
15
10
25
10
16
0
26
0
36
1
17
0
27
0
37
0
0
ENDTAB
0
TABLE
2
LTYPE
5
205
100
AcDbSymbolTable
0
LTYPE
5
14
100
AcDbSymbolTableRecord
100
AcDbLinetypeTableRecord
70
0
2
ByBlock
3

72
65
73
0
40
0
0
LTYPE
5
15
100
AcDbSymbolTableRecord
100
AcDbLinetypeTableRecord
70
0
2
ByLayer
3

72
65
73
0
40
0
0
LTYPE
5
16
100
AcDbSymbolTableRecord
100
AcDbLinetypeTableRecord
70
0
2
CONTINUOUS
3
Solid line
72
65
73
0
40
0
0
LTYPE
5
6A
100
AcDbSymbolTableRecord
100
AcDbLinetypeTableRecord
70
0
2
CENTER
3
____ _ ____ _ ____ _ ____
72
65
73
4
40
47.5
49
22
74
0
49
-8.5
74
0
49
8.5
74
0
49
-8.5
74
0
0
LTYPE
5
6B
100
AcDbSymbolTableRecord
100
AcDbLinetypeTableRecord
70
0
2
DASHED
3
__ __ __ __ __ __ __ __ __
72
65
73
2
40
25.72
49
12.86
74
0
49
-12.86
74
0
0
ENDTAB
0
TABLE
2
LAYER
5
206
100
AcDbSymbolTable
0
LAYER
5
10
100
AcDbSymbolTableRecord
100
AcDbLayerTableRecord
2
0
70
0
62
7
6
CONTINUOUS
290
1
370
-3
390
0
0
LAYER
5
6D
100
AcDbSymbolTableRecord
100
AcDbLayerTableRecord
2
80
70
0
62
-6
6
CONTINUOUS
290
1
370
-3
390
0
0
LAYER
5
6F
100
AcDbSymbolTableRecord
100
AcDbLayerTableRecord
2
81
70
0
62
-3
6
CONTINUOUS
290
1
370
-3
390
0
0
LAYER
5
73
100
AcDbSymbolTableRecord
100
AcDbLayerTableRecord
2
1
70
0
62
4
6
CONTINUOUS
290
1
370
-3
390
0
0
LAYER
5
CB
100
AcDbSymbolTableRecord
100
AcDbLayerTableRecord
2
2
70
0
62
7
6
CONTINUOUS
290
1
370
-3
390
0
0
LAYER
5
1f1
100
AcDbSymbolTableRecord
100
AcDbLayerTableRecord
2
SK1
70
0
62
4
6
CONTINUOUS
290
1
370
-3
390
0
0
LAYER
5
1f2
100
AcDbSymbolTableRecord
100
AcDbLayerTableRecord
2
SK6
70
0
62
5
6
CONTINUOUS
290
1
370
-3
390
0
0
LAYER
5
1f3
100
AcDbSymbolTableRecord
100
AcDbLayerTableRecord
2
SK2
70
0
62
7
6
CONTINUOUS
290
1
370
-3
390
0
0
ENDTAB
0
TABLE
2
STYLE
5
207
100
AcDbSymbolTable
0
STYLE
5
11
100
AcDbSymbolTableRecord
100
AcDbTextStyleTableRecord
2
Standard
3
txt
70
0
71
0
40
0
41
1
42
0
50
0
0
STYLE
5
155
100
AcDbSymbolTableRecord
100
AcDbTextStyleTableRecord
2
iso_b_vert
3
simplex.shx
70
0
71
0
40
0
41
1
42
0
50
0
0
STYLE
5
156
100
AcDbSymbolTableRecord
100
AcDbTextStyleTableRecord
2
DWGDirectTextStyle
3
simplex
70
0
71
0
40
0
41
1
42
0
50
0
0
ENDTAB
0
TABLE
2
DIMSTYLE
5
208
100
AcDbSymbolTable
100
AcDbDimStyleTable
0
DIMSTYLE
105
27
100
AcDbSymbolTableRecord
100
AcDbDimStyleTableRecord
2
Standard
70
0
3
<>
41
0.18
42
0.0625
44
0.18
140
0.18
147
0.09
73
0
74
0
77
1
271
2
275
0
278
52
280
0
340
11
0
ENDTAB
0
TABLE
2
VIEW
5
209
100
AcDbSymbolTable
0
ENDTAB
0
TABLE
2
UCS
5
20a
100
AcDbSymbolTable
0
ENDTAB
0
TABLE
2
APPID
5
20b
100
AcDbSymbolTable
0
APPID
5
12
100
AcDbSymbolTableRecord
100
AcDbRegAppTableRecord
2
ACAD
70
0
0
ENDTAB
0
TABLE
2
BLOCK_RECORD
5
20c
100
AcDbSymbolTable
0
BLOCK_RECORD
5
1F
100
AcDbSymbolTableRecord
100
AcDbBlockTableRecord
2
*Model_Space
340
0
70
0
0
BLOCK_RECORD
5
1B
100
AcDbSymbolTableRecord
100
AcDbBlockTableRecord
2
*Paper_Space
340
0
70
0
0
BLOCK_RECORD
5
23
100
AcDbSymbolTableRecord
100
AcDbBlockTableRecord
2
*Paper_Space0
340
0
70
0
0
BLOCK_RECORD
5
158
100
AcDbSymbolTableRecord
100
AcDbBlockTableRecord
2
DimnDraft3D1
340
0
70
0
0
BLOCK_RECORD
5
167
100
AcDbSymbolTableRecord
100
AcDbBlockTableRecord
2
_CLOSED
340
0
70
0
0
BLOCK_RECORD
5
16E
100
AcDbSymbolTableRecord
100
AcDbBlockTableRecord
2
DimnDraft3D2
340
0
70
0
0
BLOCK_RECORD
5
17C
100
AcDbSymbolTableRecord
100
AcDbBlockTableRecord
2
DimnDraft3D3
340
0
70
0
0
BLOCK_RECORD
5
18A
100
AcDbSymbolTableRecord
100
AcDbBlockTableRecord
2
DimnDraft3D4
340
0
70
0
0
ENDTAB
0
ENDSEC
0
SECTION
2
BLOCKS
0
BLOCK
5
20
100
AcDbEntity
8
0
100
AcDbBlockBegin
2
*Model_Space
70
0
10
0
20
0
30
0
3
*Model_Space
0
ENDBLK
5
21
100
AcDbEntity
8
0
100
AcDbBlockEnd
0
BLOCK
5
1C
100
AcDbEntity
8
0
100
AcDbBlockBegin
2
*Paper_Space
70
0
10
0
20
0
30
0
3
*Paper_Space
0
ENDBLK
5
1D
100
AcDbEntity
8
0
100
AcDbBlockEnd
0
BLOCK
5
24
100
AcDbEntity
8
0
100
AcDbBlockBegin
2
*Paper_Space0
70
0
10
0
20
0
30
0
3
*Paper_Space0
0
ENDBLK
5
25
100
AcDbEntity
8
0
100
AcDbBlockEnd
0
BLOCK
5
164
100
AcDbEntity
8
0
100
AcDbBlockBegin
2
DimnDraft3D1
70
0
10
0
20
0
30
0
3
DimnDraft3D1
0
MTEXT
5
159
100
AcDbEntity
8
SK2
62
256
6
ByLayer
370
13
48
1
60
0
100
AcDbMText
10
-48.129658
20
38.1875
30
0
210
0
220
0
230
1
1
\W0.6864;150.0
40
4.5
41
0
44
1.084337
50
0
71
7
72
5
7
iso_b_vert
0
LINE
5
15B
100
AcDbEntity
8
SK2
62
256
6
ByLayer
370
13
48
1
60
0
100
AcDbLine
10
-117.854
20
14.025
30
0
11
-117.854
21
40.2375
31
0
39
0
210
0
220
0
230
1
0
LINE
5
15C
100
AcDbEntity
8
SK2
62
256
6
ByLayer
370
13
48
1
60
0
100
AcDbLine
10
32.146
20
21.15
30
0
11
32.146
21
40.2375
31
0
39
0
210
0
220
0
230
1
0
LINE
5
15D
100
AcDbEntity
8
SK2
62
256
6
ByLayer
370
13
48
1
60
0
100
AcDbLine
10
-117.854
20
37.0625
30
0
11
32.146
21
37.0625
31
0
39
0
210
0
220
0
230
1
0
LINE
5
15E
100
AcDbEntity
8
SK2
62
256
6
ByLayer
370
13
48
1
60
0
100
AcDbLine
10
-117.854
20
37.0625
30
0
11
-114.679003
21
37.913239
31
0
39
0
210
0
220
0
230
1
0
LINE
5
15F
100
AcDbEntity
8
SK2
62
256
6
ByLayer
370
13
48
1
60
0
100
AcDbLine
10
-117.854
20
37.0625
30
0
11
-114.678997
21
36.211761
31
0
39
0
210
0
220
0
230
1
0
LINE
5
160
100
AcDbEntity
8
SK2
62
256
6
ByLayer
370
13
48
1
60
0
100
AcDbLine
10
-114.679003
20
37.913239
30
0
11
-114.678997
21
36.211761
31
0
39
0
210
0
220
0
230
1
0
LINE
5
161
100
AcDbEntity
8
SK2
62
256
6
ByLayer
370
13
48
1
60
0
100
AcDbLine
10
32.146
20
37.0625
30
0
11
28.971003
21
36.211761
31
0
39
0
210
0
220
0
230
1
0
LINE
5
162
100
AcDbEntity
8
SK2
62
256
6
ByLayer
370
13
48
1
60
0
100
AcDbLine
10
32.146
20
37.0625
30
0
11
28.970997
21
37.913239
31
0
39
0
210
0
220
0
230
1
0
LINE
5
163
100
AcDbEntity
8
SK2
62
256
6
ByLayer
370
13
48
1
60
0
100
AcDbLine
10
28.971003
20
36.211761
30
0
11
28.970997
21
37.913239
31
0
39
0
210
0
220
0
230
1
0
ENDBLK
5
165
100
AcDbEntity
8
0
100
AcDbBlockEnd
0
BLOCK
5
168
100
AcDbEntity
8
0
100
AcDbBlockBegin
2
_CLOSED
70
0
10
0
20
0
30
0
3
_CLOSED
0
LINE
5
16A
100
AcDbEntity
8
0
62
256
6
ByLayer
370
-2
48
1
60
0
100
AcDbLine
10
-1
20
0.166667
30
0
11
0
21
0
31
0
39
0
210
0
220
0
230
1
0
LINE
5
16B
100
AcDbEntity
8
0
62
256
6
ByLayer
370
-2
48
1
60
0
100
AcDbLine
10
0
20
0
30
0
11
-1
21
-0.166667
31
0
39
0
210
0
220
0
230
1
0
LINE
5
16C
100
AcDbEntity
8
0
62
256
6
ByLayer
370
-2
48
1
60
0
100
AcDbLine
10
-1
20
0.166667
30
0
11
-1
21
-0.166667
31
0
39
0
210
0
220
0
230
1
0
LINE
5
16D
100
AcDbEntity
8
0
62
256
6
ByLayer
370
-2
48
1
60
0
100
AcDbLine
10
0
20
0
30
0
11
-1
21
0
31
0
39
0
210
0
220
0
230
1
0
ENDBLK
5
169
100
AcDbEntity
8
0
100
AcDbBlockEnd
0
BLOCK
5
179
100
AcDbEntity
8
0
100
AcDbBlockBegin
2
DimnDraft3D2
70
0
10
0
20
0
30
0
3
DimnDraft3D2
0
MTEXT
5
16F
100
AcDbEntity
8
SK2
62
256
6
ByLayer
370
13
48
1
60
0
100
AcDbMText
10
-128.079
20
-4.156579
30
0
210
0
220
0
230
1
1
\W0.7346;25.0
40
4.5
41
0
44
1.084337
50
90
71
7
72
5
7
iso_b_vert
0
LINE
5
170
100
AcDbEntity
8
SK2
62
256
6
ByLayer
370
13
48
1
60
0
100
AcDbLine
10
-119.4415
20
12.4375
30
0
11
-130.129
21
12.4375
31
0
39
0
210
0
220
0
230
1
0
LINE
5
171
100
AcDbEntity
8
SK2
62
256
6
ByLayer
370
13
48
1
60
0
100
AcDbLine
10
-119.4415
20
-12.4375
30
0
11
-130.129
21
-12.4375
31
0
39
0
210
0
220
0
230
1
0
LINE
5
172
100
AcDbEntity
8
SK2
62
256
6
ByLayer
370
13
48
1
60
0
100
AcDbLine
10
-126.954
20
12.4375
30
0
11
-126.954
21
-12.4375
31
0
39
0
210
0
220
0
230
1
0
LINE
5
173
100
AcDbEntity
8
SK2
62
256
6
ByLayer
370
13
48
1
60
0
100
AcDbLine
10
-126.954
20
12.4375
30
0
11
-126.103261
21
9.262503
31
0
39
0
210
0
220
0
230
1
0
LINE
5
174
100
AcDbEntity
8
SK2
62
256
6
ByLayer
370
13
48
1
60
0
100
AcDbLine
10
-126.954
20
12.4375
30
0
11
-127.804739
21
9.262497
31
0
39
0
210
0
220
0
230
1
0
LINE
5
175
100
AcDbEntity
8
SK2
62
256
6
ByLayer
370
13
48
1
60
0
100
AcDbLine
10
-126.103261
20
9.262503
30
0
11
-127.804739
21
9.262497
31
0
39
0
210
0
220
0
230
1
0
LINE
5
176
100
AcDbEntity
8
SK2
62
256
6
ByLayer
370
13
48
1
60
0
100
AcDbLine
10
-126.954
20
-12.4375
30
0
11
-127.804739
21
-9.262503
31
0
39
0
210
0
220
0
230
1
0
LINE
5
177
100
AcDbEntity
8
SK2
62
256
6
ByLayer
370
13
48
1
60
0
100
AcDbLine
10
-126.954
20
-12.4375
30
0
11
-126.103261
21
-9.262497
31
0
39
0
210
0
220
0
230
1
0
LINE
5
178
100
AcDbEntity
8
SK2
62
256
6
ByLayer
370
13
48
1
60
0
100
AcDbLine
10
-127.804739
20
-9.262503
30
0
11
-126.103261
21
-9.262497
31
0
39
0
210
0
220
0
230
1
0
ENDBLK
5
17A
100
AcDbEntity
8
0
100
AcDbBlockEnd
0
BLOCK
5
187
100
AcDbEntity
8
0
100
AcDbBlockBegin
2
DimnDraft3D3
70
0
10
0
20
0
30
0
3
DimnDraft3D3
0
MTEXT
5
17D
100
AcDbEntity
8
2
62
256
6
ByLayer
370
13
48
1
60
0
100
AcDbMText
10
51.871
20
-0.594079
30
0
210
0
220
0
230
1
1
\W0.7346;32.0
40
4.5
41
0
44
1.084337
50
90
71
7
72
5
7
iso_b_vert
0
LINE
5
17E
100
AcDbEntity
8
2
62
256
6
ByLayer
370
13
48
1
60
0
100
AcDbLine
10
1.5875
20
-12.4375
30
0
11
56.171
21
-12.4375
31
0
39
0
210
0
220
0
230
1
0
LINE
5
17F
100
AcDbEntity
8
2
62
256
6
ByLayer
370
13
48
1
60
0
100
AcDbLine
10
33.7335
20
19.5625
30
0
11
56.171
21
19.5625
31
0
39
0
210
0
220
0
230
1
0
LINE
5
180
100
AcDbEntity
8
2
62
256
6
ByLayer
370
13
48
1
60
0
100
AcDbLine
10
52.996
20
-12.4375
30
0
11
52.996
21
19.5625
31
0
39
0
210
0
220
0
230
1
0
LINE
5
181
100
AcDbEntity
8
2
62
256
6
ByLayer
370
13
48
1
60
0
100
AcDbLine
10
52.996
20
-12.4375
30
0
11
52.145261
21
-9.262503
31
0
39
0
210
0
220
0
230
1
0
LINE
5
182
100
AcDbEntity
8
2
62
256
6
ByLayer
370
13
48
1
60
0
100
AcDbLine
10
52.996
20
-12.4375
30
0
11
53.846739
21
-9.262497
31
0
39
0
210
0
220
0
230
1
0
LINE
5
183
100
AcDbEntity
8
2
62
256
6
ByLayer
370
13
48
1
60
0
100
AcDbLine
10
52.145261
20
-9.262503
30
0
11
53.846739
21
-9.262497
31
0
39
0
210
0
220
0
230
1
0
LINE
5
184
100
AcDbEntity
8
2
62
256
6
ByLayer
370
13
48
1
60
0
100
AcDbLine
10
52.996
20
19.5625
30
0
11
53.846739
21
16.387503
31
0
39
0
210
0
220
0
230
1
0
LINE
5
185
100
AcDbEntity
8
2
62
256
6
ByLayer
370
13
48
1
60
0
100
AcDbLine
10
52.996
20
19.5625
30
0
11
52.145261
21
16.387497
31
0
39
0
210
0
220
0
230
1
0
LINE
5
186
100
AcDbEntity
8
2
62
256
6
ByLayer
370
13
48
1
60
0
100
AcDbLine
10
53.846739
20
16.387503
30
0
11
52.145261
21
16.387497
31
0
39
0
210
0
220
0
230
1
0
ENDBLK
5
188
100
AcDbEntity
8
0
100
AcDbBlockEnd
0
BLOCK
5
195
100
AcDbEntity
8
0
100
AcDbBlockBegin
2
DimnDraft3D4
70
0
10
0
20
0
30
0
3
DimnDraft3D4
0
MTEXT
5
18B
100
AcDbEntity
8
2
62
256
6
ByLayer
370
13
48
1
60
0
100
AcDbMText
10
19.485991
20
-19.316133
30
0
210
0
220
0
230
1
1
\W0.7346;25.0
40
4.5
41
0
44
1.084337
50
347.500000000422
71
7
72
5
7
iso_b_vert
0
LINE
5
18C
100
AcDbEntity
8
2
62
256
6
ByLayer
370
13
48
1
60
0
100
AcDbLine
10
32.146
20
16.562795
30
0
11
32.146
21
-25.457849
31
0
39
0
210
0
220
0
230
1
0
LINE
5
18D
100
AcDbEntity
8
2
62
256
6
ByLayer
370
13
48
1
60
0
100
AcDbLine
10
30.621514
20
15.315874
30
0
11
13.532627
21
-21.331363
31
0
39
0
210
0
220
0
230
1
0
ARC
5
18E
100
AcDbEntity
8
2
62
256
6
ByLayer
370
13
48
1
60
0
100
AcDbCircle
39
0
10
32.146
20
18.585144
30
0
40
40.8679927986097
210
0
220
0
230
1
100
AcDbArc
50
229.609019
51
285.390981
0
LINE
5
18F
100
AcDbEntity
8
2
62
256
6
ByLayer
370
13
48
1
60
0
100
AcDbLine
10
32.146
20
-22.282849
30
0
11
35.303885
21
-21.370639
31
0
39
0
210
0
220
0
230
1
0
LINE
5
190
100
AcDbEntity
8
2
62
256
6
ByLayer
370
13
48
1
60
0
100
AcDbLine
10
32.146
20
-22.282849
30
0
11
35.336919
21
-23.071796
31
0
39
0
210
0
220
0
230
1
0
LINE
5
191
100
AcDbEntity
8
2
62
256
6
ByLayer
370
13
48
1
60
0
100
AcDbLine
10
35.303885
20
-21.370639
30
0
11
35.336919
21
-23.071796
31
0
39
0
210
0
220
0
230
1
0
LINE
5
192
100
AcDbEntity
8
2
62
256
6
ByLayer
370
13
48
1
60
0
100
AcDbLine
10
14.87444
20
-18.453836
30
0
11
11.649067
21
-17.820327
31
0
39
0
210
0
220
0
230
1
0
LINE
5
193
100
AcDbEntity
8
2
62
256
6
ByLayer
370
13
48
1
60
0
100
AcDbLine
10
14.87444
20
-18.453836
30
0
11
12.397935
21
-16.292511
31
0
39
0
210
0
220
0
230
1
0
LINE
5
194
100
AcDbEntity
8
2
62
256
6
ByLayer
370
13
48
1
60
0
100
AcDbLine
10
11.649067
20
-17.820327
30
0
11
12.397935
21
-16.292511
31
0
39
0
210
0
220
0
230
1
0
ENDBLK
5
196
100
AcDbEntity
8
0
100
AcDbBlockEnd
0
ENDSEC
0
SECTION
2
ENTITIES
0
ARC
5
CD
100
AcDbEntity
8
1
62
256
6
ByLayer
370
18
48
1
60
0
100
AcDbCircle
39
0
10
22.636786
20
10.822401
30
0
40
5.25090221253896
210
0
220
0
230
1
100
AcDbArc
50
114
51
129.982318
0
ARC
5
CE
100
AcDbEntity
8
1
62
256
6
ByLayer
370
18
48
1
60
0
100
AcDbCircle
39
0
10
14.811252
20
3.444053
30
0
40
1.95090221253896
210
0
220
0
230
1
100
AcDbArc
50
237.160129
51
275
0
ARC
5
CF
100
AcDbEntity
8
1
62
256
6
ByLayer
370
18
48
1
60
0
100
AcDbCircle
39
0
10
-14.811252
20
3.444053
30
0
40
1.7
210
0
220
0
230
-1
100
AcDbArc
50
276.675923
51
295.054893
0
ARC
5
D0
100
AcDbEntity
8
1
62
256
6
ByLayer
370
18
48
1
60
0
100
AcDbCircle
39
0
10
-16.615647
20
6.914522
30
0
40
5.00000000000001
210
0
220
0
230
-1
100
AcDbArc
50
245
51
254.320316
0
ARC
5
D1
100
AcDbEntity
8
1
62
256
6
ByLayer
370
18
48
1
60
0
100
AcDbCircle
39
0
10
16.615647
20
6.914522
30
0
40
5.25090221253896
210
0
220
0
230
1
100
AcDbArc
50
275
51
295
0
ARC
5
D2
100
AcDbEntity
8
1
62
256
6
ByLayer
370
13
48
1
60
0
100
AcDbCircle
39
0
10
-23.18457
20
10.60107
30
0
40
2.578
210
0
220
0
230
-1
100
AcDbArc
50
180.000002
51
246.510001
0
ARC
5
D3
100
AcDbEntity
8
1
62
256
6
ByLayer
370
13
48
1
60
0
100
AcDbCircle
39
0
10
-23.18457
20
10.60107
30
0
40
2.578
210
0
220
0
230
-1
100
AcDbArc
50
93.493132
51
180.000002
0
ARC
5
D4
100
AcDbEntity
8
1
62
256
6
ByLayer
370
13
48
1
60
0
100
AcDbCircle
39
0
10
-23.18457
20
10.60107
30
0
40
5.51786771999517
210
0
220
0
230
-1
100
AcDbArc
50
49.526872
51
65
0
ARC
5
D5
100
AcDbEntity
8
1
62
256
6
ByLayer
370
13
48
1
60
0
100
AcDbCircle
39
0
10
-15.030498
20
2.446998
30
0
40
0.807357296468598
210
0
220
0
230
-1
100
AcDbArc
50
270
51
327.224508
0
ARC
5
D6
100
AcDbEntity
8
1
62
256
6
ByLayer
370
18
48
1
60
0
100
AcDbCircle
39
0
10
23.18457
20
10.60107
30
0
40
2.39894876836046
210
0
220
0
230
1
100
AcDbArc
50
303.395615
51
76.601235
0
ARC
5
D7
100
AcDbEntity
8
1
62
256
6
ByLayer
370
18
48
1
60
0
100
AcDbCircle
39
0
10
-23.18457
20
10.60107
30
0
40
2.3603546462382
210
0
220
0
230
-1
100
AcDbArc
50
180.000005
51
225
0
ARC
5
D8
100
AcDbEntity
8
1
62
256
6
ByLayer
370
18
48
1
60
0
100
AcDbCircle
39
0
10
-23.18457
20
10.60107
30
0
40
2.3603546462382
210
0
220
0
230
-1
100
AcDbArc
50
225
51
233.735614
0
ARC
5
D9
100
AcDbEntity
8
1
62
256
6
ByLayer
370
18
48
1
60
0
100
AcDbCircle
39
0
10
-23.18457
20
10.60107
30
0
40
2.3603546462382
210
0
220
0
230
-1
100
AcDbArc
50
106.267508
51
180.000005
0
ARC
5
DA
100
AcDbEntity
8
1
62
256
6
ByLayer
370
18
48
1
60
0
100
AcDbCircle
39
0
10
-23.314565
20
10.623992
30
0
40
2.20000000001284
210
0
220
0
230
-1
100
AcDbArc
50
121
51
170
0
ARC
5
DB
100
AcDbEntity
8
1
62
256
6
ByLayer
370
18
48
1
60
0
100
AcDbCircle
39
0
10
-23.314565
20
10.623992
30
0
40
2.20000000000293
210
0
220
0
230
-1
100
AcDbArc
50
170
51
219
0
ARC
5
DC
100
AcDbEntity
8
1
62
256
6
ByLayer
370
13
48
1
60
0
100
AcDbCircle
39
0
10
-16.116458
20
6.753466
30
0
40
5.0073572964686
210
0
220
0
230
-1
100
AcDbArc
50
245
51
265
0
ARC
5
DD
100
AcDbEntity
8
1
62
256
6
ByLayer
370
13
48
1
60
0
100
AcDbCircle
39
0
10
-23.18457
20
10.60107
30
0
40
5.51786771999517
210
0
220
0
230
-1
100
AcDbArc
50
205
51
245
0
ARC
5
DE
100
AcDbEntity
8
1
62
256
6
ByLayer
370
13
48
1
60
0
100
AcDbCircle
39
0
10
23.137115
20
1.200229
30
0
40
2.9926427035314
210
0
220
0
230
1
100
AcDbArc
50
110.552151
51
115
0
ARC
5
DF
100
AcDbEntity
8
1
62
256
6
ByLayer
370
13
48
1
60
0
100
AcDbCircle
39
0
10
-30.252682
20
14.448674
30
0
40
5.0073572964686
210
0
220
0
230
-1
100
AcDbArc
50
65
51
85
0
ARC
5
E0
100
AcDbEntity
8
1
62
256
6
ByLayer
370
13
48
1
60
0
100
AcDbCircle
39
0
10
-31.338643
20
17.555143
30
0
40
2.00735729646859
210
0
220
0
230
-1
100
AcDbArc
50
85
51
90
0
ARC
5
E1
100
AcDbEntity
8
1
62
256
6
ByLayer
370
13
48
1
60
0
100
AcDbCircle
39
0
10
23.232026
20
20.001911
30
0
40
2.9926427035314
210
0
220
0
230
1
100
AcDbArc
50
290.552151
51
295
0
ARC
5
E2
100
AcDbEntity
8
1
62
256
6
ByLayer
370
13
48
1
60
0
100
AcDbCircle
39
0
10
-27.032174
20
17.669182
30
0
40
5.0073572964686
210
0
220
0
230
-1
100
AcDbArc
50
185
51
205
0
ARC
5
E3
100
AcDbEntity
8
1
62
256
6
ByLayer
370
13
48
1
60
0
100
AcDbCircle
39
0
10
32.585411
20
10.648526
30
0
40
2.9926427035314
210
0
220
0
230
1
100
AcDbArc
50
155
51
159.447849
0
ARC
5
E4
100
AcDbEntity
8
1
62
256
6
ByLayer
370
13
48
1
60
0
100
AcDbCircle
39
0
10
-31.338643
20
18.755143
30
0
40
0.807357296468598
210
0
220
0
230
-1
100
AcDbArc
50
90
51
180
0
ARC
5
E5
100
AcDbEntity
8
1
62
256
6
ByLayer
370
13
48
1
60
0
100
AcDbCircle
39
0
10
-15.030498
20
3.646998
30
0
40
2.00735729646859
210
0
220
0
230
-1
100
AcDbArc
50
265
51
270
0
ARC
5
E6
100
AcDbEntity
8
1
62
256
6
ByLayer
370
13
48
1
60
0
100
AcDbCircle
39
0
10
-30.138643
20
18.755143
30
0
40
2.00735729646859
210
0
220
0
230
-1
100
AcDbArc
50
180
51
185
0
ARC
5
E7
100
AcDbEntity
8
1
62
256
6
ByLayer
370
18
48
1
60
0
100
AcDbCircle
39
0
10
-8.828043
20
8.069627
30
0
40
1.175
210
0
220
0
230
-1
100
AcDbArc
50
196.376394
51
203.623606
0
ARC
5
E8
100
AcDbEntity
8
1
62
256
6
ByLayer
370
18
48
1
60
0
100
AcDbCircle
39
0
10
-8.828043
20
8.069627
30
0
40
1.175
210
0
220
0
230
-1
100
AcDbArc
50
16.376394
51
23.623606
0
ARC
5
E9
100
AcDbEntity
8
1
62
256
6
ByLayer
370
18
48
1
60
0
100
AcDbCircle
39
0
10
-8.551749
20
9.636567
30
0
40
0.425
210
0
220
0
230
-1
100
AcDbArc
50
208.784897
51
249.936815
0
ARC
5
EA
100
AcDbEntity
8
1
62
256
6
ByLayer
370
18
48
1
60
0
100
AcDbCircle
39
0
10
-8.828043
20
8.069627
30
0
40
1.175
210
0
220
0
230
-1
100
AcDbArc
50
316.376394
51
323.623606
0
ARC
5
EB
100
AcDbEntity
8
1
62
256
6
ByLayer
370
18
48
1
60
0
100
AcDbCircle
39
0
10
9.634741
20
7.108241
30
0
40
0.38
210
0
220
0
230
1
100
AcDbArc
50
228.784897
51
31.215103
0
ARC
5
ED
100
AcDbEntity
8
1
62
256
6
ByLayer
370
18
48
1
60
0
100
AcDbCircle
39
0
10
-9.104337
20
6.502687
30
0
40
0.425
210
0
220
0
230
-1
100
AcDbArc
50
28.784897
51
69.936815
0
ARC
5
EF
100
AcDbEntity
8
1
62
256
6
ByLayer
370
18
48
1
60
0
100
AcDbCircle
39
0
10
-10.323199
20
7.525434
30
0
40
0.425
210
0
220
0
230
-1
100
AcDbArc
50
328.784897
51
9.936815
0
ARC
5
F0
100
AcDbEntity
8
1
62
256
6
ByLayer
370
18
48
1
60
0
100
AcDbCircle
39
0
10
-8.828043
20
8.069627
30
0
40
1.175
210
0
220
0
230
-1
100
AcDbArc
50
76.376394
51
83.623606
0
ARC
5
F1
100
AcDbEntity
8
1
62
256
6
ByLayer
370
18
48
1
60
0
100
AcDbCircle
39
0
10
-8.551749
20
9.636567
30
0
40
0.425
210
0
220
0
230
-1
100
AcDbArc
50
270.063185
51
311.215103
0
ARC
5
F2
100
AcDbEntity
8
1
62
256
6
ByLayer
370
18
48
1
60
0
100
AcDbCircle
39
0
10
-9.104337
20
6.502687
30
0
40
0.425
210
0
220
0
230
-1
100
AcDbArc
50
90.063185
51
131.215103
0
ARC
5
F3
100
AcDbEntity
8
1
62
256
6
ByLayer
370
18
48
1
60
0
100
AcDbCircle
39
0
10
8.398807
20
6.890313
30
0
40
0.38
210
0
220
0
230
1
100
AcDbArc
50
168.784897
51
331.215103
0
ARC
5
F4
100
AcDbEntity
8
1
62
256
6
ByLayer
370
18
48
1
60
0
100
AcDbCircle
39
0
10
-7.60918
20
7.04688
30
0
40
0.425
210
0
220
0
230
-1
100
AcDbArc
50
88.784897
51
129.936815
0
ARC
5
F5
100
AcDbEntity
8
1
62
256
6
ByLayer
370
18
48
1
60
0
100
AcDbCircle
39
0
10
-7.60918
20
7.04688
30
0
40
0.425
210
0
220
0
230
-1
100
AcDbArc
50
150.063185
51
191.215103
0
ARC
5
F6
100
AcDbEntity
8
1
62
256
6
ByLayer
370
18
48
1
60
0
100
AcDbCircle
39
0
10
-10.046906
20
9.092374
30
0
40
0.425
210
0
220
0
230
-1
100
AcDbArc
50
268.784897
51
309.936815
0
ARC
5
F7
100
AcDbEntity
8
1
62
256
6
ByLayer
370
18
48
1
60
0
100
AcDbCircle
39
0
10
-10.323199
20
7.525434
30
0
40
0.425
210
0
220
0
230
-1
100
AcDbArc
50
30.063185
51
71.215103
0
ARC
5
F8
100
AcDbEntity
8
1
62
256
6
ByLayer
370
18
48
1
60
0
100
AcDbCircle
39
0
10
8.021344
20
9.031013
30
0
40
0.38
210
0
220
0
230
1
100
AcDbArc
50
48.784897
51
211.215103
0
ARC
5
F9
100
AcDbEntity
8
1
62
256
6
ByLayer
370
18
48
1
60
0
100
AcDbCircle
39
0
10
9.257278
20
9.248941
30
0
40
0.38
210
0
220
0
230
1
100
AcDbArc
50
348.784897
51
151.215103
0
ARC
5
FA
100
AcDbEntity
8
1
62
256
6
ByLayer
370
18
48
1
60
0
100
AcDbCircle
39
0
10
-7.332886
20
8.61382
30
0
40
0.425
210
0
220
0
230
-1
100
AcDbArc
50
148.784897
51
189.936815
0
ARC
5
FB
100
AcDbEntity
8
1
62
256
6
ByLayer
370
18
48
1
60
0
100
AcDbCircle
39
0
10
-7.332886
20
8.61382
30
0
40
0.425
210
0
220
0
230
-1
100
AcDbArc
50
210.063185
51
251.215103
0
ARC
5
FC
100
AcDbEntity
8
1
62
256
6
ByLayer
370
18
48
1
60
0
100
AcDbCircle
39
0
10
10.063976
20
8.287555
30
0
40
0.38
210
0
220
0
230
1
100
AcDbArc
50
288.784897
51
91.215103
0
ARC
5
FD
100
AcDbEntity
8
1
62
256
6
ByLayer
370
18
48
1
60
0
100
AcDbCircle
39
0
10
7.592109
20
7.851699
30
0
40
0.38
210
0
220
0
230
1
100
AcDbArc
50
108.784897
51
271.215103
0
ARC
5
FF
100
AcDbEntity
8
1
62
256
6
ByLayer
370
18
48
1
60
0
100
AcDbCircle
39
0
10
-8.828043
20
8.069627
30
0
40
1.175
210
0
220
0
230
-1
100
AcDbArc
50
256.376394
51
263.623606
0
ARC
5
100
100
AcDbEntity
8
1
62
256
6
ByLayer
370
18
48
1
60
0
100
AcDbCircle
39
0
10
-10.046906
20
9.092374
30
0
40
0.425
210
0
220
0
230
-1
100
AcDbArc
50
330.063185
51
11.215103
0
ARC
5
101
100
AcDbEntity
8
1
62
256
6
ByLayer
370
18
48
1
60
0
100
AcDbCircle
39
0
10
-8.828043
20
8.069627
30
0
40
1.175
210
0
220
0
230
-1
100
AcDbArc
50
136.376394
51
143.623606
0
CIRCLE
5
EC
100
AcDbEntity
8
1
62
256
6
ByLayer
370
18
48
1
60
0
100
AcDbCircle
10
8.828043
20
8.069627
30
0
40
4
39
0
210
0
220
0
230
1
0
CIRCLE
5
EE
100
AcDbEntity
8
1
62
256
6
ByLayer
370
18
48
1
60
0
100
AcDbCircle
10
-8.828043
20
8.069627
30
0
40
1.15
39
0
210
0
220
0
230
-1
0
CIRCLE
5
FE
100
AcDbEntity
8
1
62
256
6
ByLayer
370
18
48
1
60
0
100
AcDbCircle
10
8.828043
20
8.069627
30
0
40
2.3
39
0
210
0
220
0
230
1
0
ELLIPSE
5
102
100
AcDbEntity
8
1
62
256
6
ByLayer
370
18
48
1
60
0
100
AcDbEllipse
10
-0.870422
20
-0.74846
30
0
11
6.96364240320012
21
1.22787803969016
31
0
210
0
220
0
230
-1
40
0.707107
41
0.0400227005336863
42
1.57048313850104
0
ELLIPSE
5
103
100
AcDbEntity
8
1
62
256
6
ByLayer
370
18
48
1
60
0
100
AcDbEllipse
10
25.853539
20
17.849814
30
0
11
0.499999394279886
21
0.0176512003415754
31
0
210
0
220
0
230
-1
40
0.044092
41
2.01568604828172
42
-3.14003609266762
0
ELLIPSE
5
104
100
AcDbEntity
8
SK1
62
256
6
ByLayer
370
18
48
1
60
0
100
AcDbEllipse
10
-1.236244
20
-0.812965
30
0
11
-0.86824088833496
21
4.92403876506098
31
0
210
0
220
0
230
1
40
0.707107
41
-3.1065643266012
42
-3.03425881219741
0
ELLIPSE
5
105
100
AcDbEntity
8
SK1
62
256
6
ByLayer
370
18
48
1
60
0
100
AcDbEllipse
10
-0.870422
20
-0.74846
30
0
11
6.96364240320012
21
1.22787803969016
31
0
210
0
220
0
230
-1
40
0.707107
41
1.57048313850104
42
1.67605707522679
0
ELLIPSE
5
106
100
AcDbEntity
8
SK1
62
256
6
ByLayer
370
18
48
1
60
0
100
AcDbEllipse
10
-1.932609
20
-0.935752
30
0
11
0.694592710667965
21
-3.93923101204879
31
0
210
0
220
0
230
1
40
0.707107
41
-0.391237930929986
42
0.494155804235208
0
ELLIPSE
5
107
100
AcDbEntity
8
1
62
256
6
ByLayer
370
18
48
1
60
0
100
AcDbEllipse
10
-1.236244
20
-0.812965
30
0
11
-0.86824088833496
21
4.92403876506098
31
0
210
0
220
0
230
1
40
0.707107
41
-3.03425881219741
42
-1.5707963267949
0
ELLIPSE
5
108
100
AcDbEntity
8
1
62
256
6
ByLayer
370
18
48
1
60
0
100
AcDbEllipse
10
-64.119154
20
49.446408
30
0
11
70.7214493379407
21
-70.7214493379311
31
0
210
0
220
0
230
-1
40
0.999848
41
-0.327860303992191
42
-0.209408536054992
0
ELLIPSE
5
109
100
AcDbEntity
8
1
62
256
6
ByLayer
370
18
48
1
60
0
100
AcDbEllipse
10
-61.471239
20
46.801868
30
0
11
16.1868847363515
21
100.709794098451
31
0
210
0
220
0
230
-1
40
0.941561
41
1.83738198424831
42
1.84067229693397
0
ELLIPSE
5
10A
100
AcDbEntity
8
1
62
256
6
ByLayer
370
18
48
1
60
0
100
AcDbEllipse
10
-1.932609
20
-0.935752
30
0
11
0.694592710667965
21
-3.93923101204879
31
0
210
0
220
0
230
1
40
0.707107
41
0.494155804235929
42
1.5707963267949
0
ELLIPSE
5
10B
100
AcDbEntity
8
1
62
256
6
ByLayer
370
18
48
1
60
0
100
AcDbEllipse
10
5.346156
20
12.325296
30
0
11
5.41644244398562
21
0.955064919854828
31
0
210
0
220
0
230
-1
40
0.240328
41
2.67964997432868
42
2.73264228017035
0
ELLIPSE
5
10C
100
AcDbEntity
8
1
62
256
6
ByLayer
370
18
48
1
60
0
100
AcDbEllipse
10
4.117734
20
2.974281
30
0
11
-2.97661046204352
21
-0.524856735517551
31
-2.62162641975114E-15
210
8.54184564237114E-16
220
1.50615785179761E-16
230
-1
40
0.992546
41
-1.05168906306426
42
-2.96059518465384E-16
0
ELLIPSE
5
10D
100
AcDbEntity
8
1
62
256
6
ByLayer
370
18
48
1
60
0
100
AcDbEllipse
10
2.362895
20
11.201067
30
0
11
-0.913637607830307
21
-1.77911953548887
31
0
210
0
220
0
230
1
40
0.848036
41
-2.41183863393648
42
-0.999163139676882
0
ELLIPSE
5
10E
100
AcDbEntity
8
1
62
256
6
ByLayer
370
18
48
1
60
0
100
AcDbEllipse
10
4.066354
20
11.494805
30
0
11
3.07230256555257
21
-1.75516444394314
31
0
210
0
220
0
230
-1
40
0.724269
41
-2.78454212733973
42
-2.42492639397966
0
ELLIPSE
5
10F
100
AcDbEntity
8
1
62
256
6
ByLayer
370
18
48
1
60
0
100
AcDbEllipse
10
5.021257
20
14.167889
30
0
11
3.44682713551928
21
0.607768621829631
31
0
210
0
220
0
230
-1
40
0.377658
41
2.67964998362238
42
-2.88031721715591
0
ELLIPSE
5
110
100
AcDbEntity
8
1
62
256
6
ByLayer
370
18
48
1
60
0
100
AcDbEllipse
10
9.553217
20
8.197495
30
0
11
-0.720639937318018
21
4.08695217500062
31
0
210
0
220
0
230
1
40
0.999848
41
-3.14159265358977
42
1.41273945206438E-14
0
ELLIPSE
5
111
100
AcDbEntity
8
1
62
256
6
ByLayer
370
18
48
1
60
0
100
AcDbEllipse
10
7.336563
20
1.037138
30
0
11
3.44682713549292
21
0.607768621828226
31
0
210
0
220
0
230
-1
40
0.377658
41
2.88031721715515
42
-2.67964998362043
0
ELLIPSE
5
112
100
AcDbEntity
8
1
62
256
6
ByLayer
370
18
48
1
60
0
100
AcDbEllipse
10
7.011663
20
2.879731
30
0
11
5.41644216777088
21
0.955064945221864
31
0
210
0
220
0
230
-1
40
0.240328
41
-2.73264226940885
42
-2.67964996215205
0
ELLIPSE
5
113
100
AcDbEntity
8
1
62
256
6
ByLayer
370
18
48
1
60
0
100
AcDbEllipse
10
3.823806
20
2.915825
30
0
11
1.4670332366722
21
-1.35934303341691
31
0
210
0
220
0
230
1
40
0.848036
41
-2.14242951391291
42
-0.729754019653305
0
ELLIPSE
5
114
100
AcDbEntity
8
1
62
256
6
ByLayer
370
18
48
1
60
0
100
AcDbEllipse
10
5.524999
20
3.22242
30
0
11
2.28671845498929
21
2.70010444005829
31
0
210
0
220
0
230
-1
40
0.724269
41
2.4249263939817
42
2.78454212734141
0
ELLIPSE
5
115
100
AcDbEntity
8
1
62
256
6
ByLayer
370
18
48
1
60
0
100
AcDbEllipse
10
2.65909
20
11.246666
30
0
11
-2.97661046204349
21
-0.524856735517549
31
0
210
-8.54184564237114E-16
220
-1.50615785179761E-16
230
1
40
0.992546
41
-1.05168906306426
42
0
0
POINT
5
6C
100
AcDbEntity
8
80
62
256
6
ByLayer
370
18
48
1
60
0
100
AcDbPoint
10
0
20
0
30
0
39
0
210
0
220
0
230
1
50
360
0
POINT
5
6E
100
AcDbEntity
8
81
62
256
6
ByLayer
370
18
48
1
60
0
100
AcDbPoint
10
32.146
20
19.5625
30
0
39
0
210
0
220
0
230
1
50
360
0
SPLINE
5
116
100
AcDbEntity
8
1
62
256
6
ByLayer
370
18
48
1
60
0
100
AcDbSpline
70
4
71
3
72
20
73
16
40
0
40
0
40
0
40
0
40
0.08904593636646
40
0.08904593636646
40
0.392697290910974
40
0.392697290910974
40
0.544522968183231
40
0.544522968183231
40
0.696348645455487
40
0.696348645455487
40
0.848174322727744
40
0.848174322727744
40
0.924087161363872
40
0.924087161363872
40
1
40
1
40
1
40
1
41
1
10
1.137E-13
20
-5.55892652330823
30
0
41
1
10
5.68E-14
20
-5.54065891570897
30
0
41
1
10
0
20
-5.51971880504846
30
0
41
1
10
5.68E-14
20
-5.41578382458744
30
0
41
1
10
5.68E-14
20
-5.3088586810089
30
0
41
1
10
5.68E-14
20
-5.11147589963153
30
0
41
1
10
5.68E-14
20
-5.04037665785296
30
0
41
1
10
0
20
-4.88904078400898
30
0
41
1
10
5.68E-14
20
-4.80861496288077
30
0
41
1
10
5.68E-14
20
-4.63737355040925
30
0
41
1
10
5.68E-14
20
-4.54894392002319
30
0
41
1
10
5.68E-14
20
-4.41102121078805
30
0
41
1
10
5.68E-14
20
-4.36419616445849
30
0
41
1
10
5.68E-14
20
-4.26864006586115
30
0
41
1
10
1.137E-13
20
-4.21975084930094
30
0
41
1
10
5.68E-14
20
-4.17078352331978
30
0
0
SPLINE
5
117
100
AcDbEntity
8
SK1
62
256
6
ByLayer
370
18
48
1
60
0
100
AcDbSpline
70
4
71
3
72
20
73
16
40
0
40
0
40
0
40
0
40
0.0890296548513954
40
0.0890296548513954
40
0.392686436567596
40
0.392686436567596
40
0.544514827425696
40
0.544514827425696
40
0.696343218283797
40
0.696343218283797
40
0.848171609141897
40
0.848171609141897
40
0.924085804570949
40
0.924085804570949
40
1
40
1
40
1
40
1
41
1
10
0
20
-5.55891552332204
30
0
41
1
10
0
20
-5.54065050967992
30
0
41
1
10
0
20
-5.51971407468662
30
0
41
1
10
5.68E-14
20
-5.41578382458843
30
0
41
1
10
5.68E-14
20
-5.30885868101035
30
0
41
1
10
5.68E-14
20
-5.11147589963392
30
0
41
1
10
5.68E-14
20
-5.0403766578556
30
0
41
1
10
5.68E-14
20
-4.88904078401228
30
0
41
1
10
5.68E-14
20
-4.80861496288443
30
0
41
1
10
5.68E-14
20
-4.63737355041366
30
0
41
1
10
5.68E-14
20
-4.54894392002788
30
0
41
1
10
5.68E-14
20
-4.41102121079331
30
0
41
1
10
5.68E-14
20
-4.36419616446395
30
0
41
1
10
5.68E-14
20
-4.268640065867
30
0
41
1
10
5.68E-14
20
-4.21975084930693
30
0
41
1
10
5.68E-14
20
-4.17078352332595
30
0
0
SPLINE
5
118
100
AcDbEntity
8
SK1
62
256
6
ByLayer
370
18
48
1
60
0
100
AcDbSpline
70
4
71
3
72
14
73
10
40
0
40
0
40
0
40
0
40
0.25
40
0.25
40
0.5
40
0.5
40
0.75
40
0.75
40
1
40
1
40
1
40
1
41
1
10
-0.621600079586415
20
12.4375
30
0
41
1
10
-0.561945256293996
20
12.4375
30
0
41
1
10
-0.503800305006507
20
12.4410441015305
30
0
41
1
10
-0.390434126590606
20
12.4543212025751
30
0
41
1
10
-0.334617719110327
20
12.4642246480401
30
0
41
1
10
-0.22972374917839
20
12.4885927981465
30
0
41
1
10
-0.180518398669562
20
12.5029849130952
30
0
41
1
10
-0.0881122636914142
20
12.5347251306465
30
0
41
1
10
-0.0450144168387396
20
12.5520796169729
30
0
41
1
10
-0.0058923515115907
20
12.5696900740275
30
0
0
SPLINE
5
119
100
AcDbEntity
8
SK1
62
256
6
ByLayer
370
18
48
1
60
0
100
AcDbSpline
70
4
71
3
72
24
73
20
40
0
40
0
40
0
40
0
40
0.125
40
0.125
40
0.25
40
0.25
40
0.375
40
0.375
40
0.500000000000001
40
0.500000000000001
40
0.625000000000001
40
0.625000000000001
40
0.750000000000001
40
0.750000000000001
40
0.875000000000001
40
0.875000000000001
40
0.9375
40
0.9375
40
1
40
1
40
1
40
1
41
1
10
-0.738631806626302
20
-5.77425425331916
30
0
41
1
10
-0.824735458218868
20
-5.78289036821391
30
0
41
1
10
-0.910885664074556
20
-5.78481487421911
30
0
41
1
10
-1.0832772264668
20
-5.77552292595527
30
0
41
1
10
-1.17023731373337
20
-5.76411137648503
30
0
41
1
10
-1.33959476906915
20
-5.72838738454865
30
0
41
1
10
-1.42216900960204
20
-5.70419969390687
30
0
41
1
10
-1.583069968404
20
-5.6430570552177
30
0
41
1
10
-1.66200446275082
20
-5.60575278270002
30
0
41
1
10
-1.81227555201508
20
-5.51862924847546
30
0
41
1
10
-1.88281595352402
20
-5.46942214369196
30
0
41
1
10
-2.01426875726008
20
-5.35917950885346
30
0
41
1
10
-2.07528887106525
20
-5.29809543498362
30
0
41
1
10
-2.18543842668924
20
-5.16205548479749
30
0
41
1
10
-2.23347117028294
20
-5.08813700515708
30
0
41
1
10
-2.29034044978937
20
-4.97146283528801
30
0
41
1
10
-2.30680285661356
20
-4.93160058402299
30
0
41
1
10
-2.33417982517835
20
-4.8497164400973
30
0
41
1
10
-2.34515756471024
20
-4.8073252486067
30
0
41
1
10
-2.35268794562529
20
-4.7646183362281
30
0
0
SPLINE
5
11A
100
AcDbEntity
8
1
62
256
6
ByLayer
370
18
48
1
60
0
100
AcDbSpline
70
4
71
2
72
6
73
3
40
0
40
0
40
0
40
1
40
1
40
1
41
0.937301687733887
10
11.3160821698556
20
4.38262870001244
30
0
41
0.930554445970897
10
11.5628779661666
20
2.98298018723643
30
0
41
1.02805999725224
10
11.6658994315622
20
2.39871642350804
30
0
0
SPLINE
5
11B
100
AcDbEntity
8
1
62
256
6
ByLayer
370
18
48
1
60
0
100
AcDbSpline
70
4
71
3
72
24
73
20
40
0
40
0
40
0
40
0
40
0.125
40
0.125
40
0.1875
40
0.1875
40
0.25
40
0.25
40
0.375
40
0.375
40
0.5
40
0.5
40
0.625
40
0.625
40
0.75
40
0.75
40
0.875
40
0.875
40
1
40
1
40
1
40
1
41
1
10
13.9713095353783
20
7.75150965024258
30
0
41
1
10
13.9491475544699
20
7.56219330076104
30
0
41
1
10
13.9130922862706
20
7.37686602828083
30
0
41
1
10
13.8395123141561
20
7.10435336464778
30
0
41
1
10
13.8117218015778
20
7.01443291738099
30
0
41
1
10
13.7496771588589
20
6.83638615571164
30
0
41
1
10
13.715279655834
20
6.74794960121793
30
0
41
1
10
13.60366563855
20
6.48826356351509
30
0
41
1
10
13.5181191390342
20
6.32233837563174
30
0
41
1
10
13.3259472941553
20
6.00339635334066
30
0
41
1
10
13.2189132371699
20
5.84989516044791
30
0
41
1
10
12.9852181454741
20
5.55764164466402
30
0
41
1
10
12.8593056848136
20
5.4196785460874
30
0
41
1
10
12.5891039951991
20
5.15955441077915
30
0
41
1
10
12.4465281715357
20
5.03909129408024
30
0
41
1
10
12.147603845807
20
4.81755844223821
30
0
41
1
10
11.9910870324562
20
4.71634239559936
30
0
41
1
10
11.6636107836934
20
4.53372440426006
30
0
41
1
10
11.4919931735096
20
4.45216674754261
30
0
41
1
10
11.3160821703655
20
4.3826286971204
30
0
0
SPLINE
5
11C
100
AcDbEntity
8
1
62
256
6
ByLayer
370
18
48
1
60
0
100
AcDbSpline
70
4
71
3
72
10
73
6
40
0
40
0
40
0
40
0
40
0.5
40
0.5
40
1
40
1
40
1
40
1
41
1
10
4.51058540294162
20
4.59606338445667
30
0
41
1
10
4.3906289106219
20
4.59990815279193
30
0
41
1
10
4.27235277793017
20
4.59709643540103
30
0
41
1
10
4.03940446672976
20
4.57965136898179
30
0
41
1
10
3.92518535578381
20
4.56501178440431
30
0
41
1
10
3.81443789834344
20
4.5454840196127
30
0
0
SPLINE
5
11D
100
AcDbEntity
8
1
62
256
6
ByLayer
370
18
48
1
60
0
100
AcDbSpline
70
4
71
3
72
16
73
12
40
0
40
0
40
0
40
0
40
0.25
40
0.25
40
0.375000000000002
40
0.375000000000002
40
0.500000000000003
40
0.500000000000003
40
0.750000000000001
40
0.750000000000001
40
1
40
1
40
1
40
1
41
1
10
2.03799565060484
20
13.0436598058781
30
0
41
1
10
2.16784621923381
20
12.9281439218435
30
0
41
1
10
2.32261442619443
20
12.7804345845271
30
0
41
1
10
2.58841668590566
20
12.5175491272715
30
0
41
1
10
2.68268505248312
20
12.4229462914809
30
0
41
1
10
2.88255740003075
20
12.2200865739378
30
0
41
1
10
2.98656483357991
20
12.1134502382545
30
0
41
1
10
3.30935767764487
20
11.7799757731324
30
0
41
1
10
3.53911665152384
20
11.5393969233362
30
0
41
1
10
4.02686980674423
20
11.0245395648366
30
0
41
1
10
4.27971509477209
20
10.7556869464034
30
0
41
1
10
4.54090421859996
20
10.4768509343695
30
0
0
SPLINE
5
11E
100
AcDbEntity
8
1
62
256
6
ByLayer
370
18
48
1
60
0
100
AcDbSpline
70
4
71
3
72
25
73
21
40
0
40
0
40
0
40
0
40
0.125
40
0.125
40
0.25
40
0.25
40
0.375
40
0.375
40
0.5
40
0.5
40
0.625
40
0.625
40
0.75
40
0.75
40
0.8125
40
0.8125
40
0.875
40
0.9375
40
0.9375
40
1
40
1
40
1
40
1
41
1
10
20.5691037690168
20
8.07391331193153
30
0
41
1
10
20.6750319396357
20
7.9912557526068
30
0
41
1
10
20.7824556567086
20
7.91126732692186
30
0
41
1
10
21.0037461003371
20
7.76278945193522
30
0
41
1
10
21.1177000932295
20
7.69445574872486
30
0
41
1
10
21.3538500680134
20
7.57249799578244
30
0
41
1
10
21.4759318581856
20
7.5186701456542
30
0
41
1
10
21.7296503952559
20
7.42806738036961
30
0
41
1
10
21.8612661356614
20
7.39125497447768
30
0
41
1
10
22.1366639854979
20
7.33934374086942
30
0
41
1
10
22.2810642110927
20
7.32436448670228
30
0
41
1
10
22.577229625047
20
7.32374864841617
30
0
41
1
10
22.7297686054729
20
7.33775965185188
30
0
41
1
10
22.967540630014
20
7.38757789815344
30
0
41
1
10
23.0488056098873
20
7.40923890185113
30
0
41
1
10
23.2122747993783
20
7.46320089433255
30
0
41
1
10
23.3762638215762
20
7.52741347545836
30
0
41
1
10
23.5412944384439
20
7.61216527691514
30
0
41
1
10
23.7068500086635
20
7.70726864108829
30
0
41
1
10
23.7901308070143
20
7.76016578325795
30
0
41
1
10
23.8731340719553
20
7.81793274506512
30
0
0
SPLINE
5
11F
100
AcDbEntity
8
1
62
256
6
ByLayer
370
18
48
1
60
0
100
AcDbSpline
70
4
71
3
72
8
73
4
40
0
40
0
40
0
40
0
40
1
40
1
40
1
40
1
41
1
10
4.69312000444904
20
10.6410201061865
30
0
41
1
10
4.64456533694511
20
10.5841791622223
30
0
41
1
10
4.59380134124086
20
10.5294610999482
30
0
41
1
10
4.54090421859996
20
10.4768509343695
30
0
0
SPLINE
5
120
100
AcDbEntity
8
1
62
256
6
ByLayer
370
18
48
1
60
0
100
AcDbSpline
70
4
71
3
72
26
73
22
40
0
40
0
40
0
40
0
40
0.125000000000002
40
0.125000000000002
40
0.250000000000005
40
0.250000000000005
40
0.375000000000007
40
0.375000000000007
40
0.500000000000009
40
0.500000000000009
40
0.625000000000012
40
0.625000000000012
40
0.687500000000012
40
0.687500000000012
40
0.750000000000012
40
0.750000000000012
40
0.875
40
0.875
40
0.9375
40
0.9375
40
1
40
1
40
1
40
1
41
1
10
9.90500733991462
20
12.3852317291739
30
0
41
1
10
10.0944355834569
20
12.380043059757
30
0
41
1
10
10.2816810057724
20
12.3622668234097
30
0
41
1
10
10.6506943605568
20
12.3030464409587
30
0
41
1
10
10.8325375832273
20
12.2616162453466
30
0
41
1
10
11.1908074739789
20
12.1553730737163
30
0
41
1
10
11.368371037054
20
12.0899697081957
30
0
41
1
10
11.7095028985021
20
11.938666579634
30
0
41
1
10
11.8737742017405
20
11.8527396049355
30
0
41
1
10
12.1903019020033
20
11.66025347651
30
0
41
1
10
12.3425621950619
20
11.5537027873659
30
0
41
1
10
12.5617701670398
20
11.3770953456238
30
0
41
1
10
12.6332617753257
20
11.3154066548734
30
0
41
1
10
12.7710163835619
20
11.1880571441086
30
0
41
1
10
12.8375546044229
20
11.1221836858828
30
0
41
1
10
13.0301379732364
20
10.9178432789111
30
0
41
1
10
13.1491967677311
20
10.7727005431573
30
0
41
1
10
13.3129727798724
20
10.5403871994101
30
0
41
1
10
13.3652354005142
20
10.4602331900485
30
0
41
1
10
13.4634301347697
20
10.2965834858785
30
0
41
1
10
13.5094466663
20
10.2130104460212
30
0
41
1
10
13.5523300477599
20
10.1276604011641
30
0
0
SPLINE
5
121
100
AcDbEntity
8
1
62
256
6
ByLayer
370
18
48
1
60
0
100
AcDbSpline
70
4
71
3
72
20
73
16
40
0
40
0
40
0
40
0
40
0.0625000000000072
40
0.0625000000000072
40
0.125000000000014
40
0.125000000000014
40
0.250000000000018
40
0.250000000000018
40
0.500000000000016
40
0.500000000000016
40
0.750000000000013
40
0.750000000000013
40
0.875000000000007
40
0.875000000000007
40
1
40
1
40
1
40
1
41
1
10
9.36064714880416
20
15.4724517843408
30
0
41
1
10
9.52555605853763
20
15.4999367211803
30
0
41
1
10
9.69083368916489
20
15.5215463888144
30
0
41
1
10
10.0217361776199
20
15.5592329394962
30
0
41
1
10
10.1873762856421
20
15.5750668230306
30
0
41
1
10
10.6846981583428
20
15.6161701209343
30
0
41
1
10
11.0167770583804
20
15.6351115045787
30
0
41
1
10
12.0142749338873
20
15.6718398457007
30
0
41
1
10
12.6821735312432
20
15.6697334232689
30
0
41
1
10
14.0112887329614
20
15.6027660017408
30
0
41
1
10
14.6731297969032
20
15.5348964495915
30
0
41
1
10
15.662868669988
20
15.3948305880699
30
0
41
1
10
15.991896264482
20
15.3417265208573
30
0
41
1
10
16.6467918560845
20
15.2229093778295
30
0
41
1
10
16.9728916542209
20
15.1572655688169
30
0
41
1
10
17.2972998735931
20
15.0837972689888
30
0
0
SPLINE
5
122
100
AcDbEntity
8
1
62
256
6
ByLayer
370
18
48
1
60
0
100
AcDbSpline
70
4
71
3
72
8
73
4
40
0
40
0
40
0
40
0
40
1
40
1
40
1
40
1
41
1
10
11.3160821703655
20
4.3826286971204
30
0
41
1
10
11.0497520178372
20
4.27746125975602
30
0
41
1
10
10.7747973291885
20
4.19887193427681
30
0
41
1
10
10.4904324620623
20
4.14873073583689
30
0
0
SPLINE
5
123
100
AcDbEntity
8
1
62
256
6
ByLayer
370
18
48
1
60
0
100
AcDbSpline
70
4
71
3
72
8
73
4
40
0
40
0
40
0
40
0
40
1
40
1
40
1
40
1
41
1
10
0.478659689673179
20
10.8621972805878
30
0
41
1
10
0.474575334706969
20
10.8853608086526
30
0
41
1
10
0.470905505258941
20
10.9084137383801
30
0
41
1
10
0.467631361490305
20
10.9313616894155
30
0
0
SPLINE
5
124
100
AcDbEntity
8
1
62
256
6
ByLayer
370
18
48
1
60
0
100
AcDbSpline
70
4
71
3
72
28
73
24
40
0
40
0
40
0
40
0
40
0.124999999999999
40
0.124999999999999
40
0.249999999999998
40
0.249999999999998
40
0.374999999999997
40
0.374999999999997
40
0.499999999999996
40
0.499999999999996
40
0.562499999999997
40
0.562499999999997
40
0.624999999999999
40
0.624999999999999
40
0.750000000000002
40
0.750000000000002
40
0.812500000000001
40
0.812500000000001
40
0.875000000000001
40
0.875000000000001
40
0.9375
40
0.9375
40
1
40
1
40
1
40
1
41
1
10
4.06600671802909
20
0.113744032800952
30
0
41
1
10
3.9437633552854
20
0.141989161107517
30
0
41
1
10
3.83101489570908
20
0.178350185734217
30
0
41
1
10
3.61687327973431
20
0.264769350052035
30
0
41
1
10
3.5154874234384
20
0.314858357458405
30
0
41
1
10
3.3179633026383
20
0.429969115846177
30
0
41
1
10
3.22181403709902
20
0.494988355295789
30
0
41
1
10
3.03020845121756
20
0.644429632440108
30
0
41
1
10
2.93564119971035
20
0.728241532267049
30
0
41
1
10
2.79574501814818
20
0.870326657952148
30
0
41
1
10
2.74939767218626
20
0.920479978536406
30
0
41
1
10
2.65735663247602
20
1.02719515157457
30
0
41
1
10
2.61146754209477
20
1.08401979077914
30
0
41
1
10
2.47659918820426
20
1.26372131622367
30
0
41
1
10
2.39122573883168
20
1.39447610872779
30
0
41
1
10
2.27256583680759
20
1.61013974854342
30
0
41
1
10
2.23436159903082
20
1.68581796784929
30
0
41
1
10
2.16287929017045
20
1.84195887923829
30
0
41
1
10
2.12971735837317
20
1.92206389348973
30
0
41
1
10
2.068766825235
20
2.08656805198561
30
0
41
1
10
2.04097901422409
20
2.17096148147863
30
0
41
1
10
1.99102131261219
20
2.3445319562091
30
0
41
1
10
1.96922072206217
20
2.43251692092082
30
0
41
1
10
1.95059676448318
20
2.52104696030301
30
0
0
SPLINE
5
125
100
AcDbEntity
8
1
62
256
6
ByLayer
370
18
48
1
60
0
100
AcDbSpline
70
4
71
3
72
16
73
12
40
0
40
0
40
0
40
0
40
0.249999999999985
40
0.249999999999985
40
0.49999999999997
40
0.49999999999997
40
0.624999999999978
40
0.624999999999978
40
0.749999999999986
40
0.749999999999986
40
1
40
1
40
1
40
1
41
1
10
19.1855286876441
20
4.37511952458871
30
0
41
1
10
19.358258615645
20
4.48626770097354
30
0
41
1
10
19.5316197774756
20
4.59257044379223
30
0
41
1
10
19.8803365660152
20
4.79399720536841
30
0
41
1
10
20.0556928621647
20
4.88912993410403
30
0
41
1
10
20.3218892382375
20
5.01987893017406
30
0
41
1
10
20.4113376575524
20
5.06147935917639
30
0
41
1
10
20.5909940993053
20
5.13951020006058
30
0
41
1
10
20.6803523945881
20
5.17572638643566
30
0
41
1
10
20.946268632639
20
5.27803434126719
30
0
41
1
10
21.1205262350208
20
5.33825728863022
30
0
41
1
10
21.2908731399842
20
5.3923513950707
30
0
0
SPLINE
5
126
100
AcDbEntity
8
1
62
256
6
ByLayer
370
18
48
1
60
0
100
AcDbSpline
70
4
71
3
72
11
73
7
40
0
40
0
40
0
40
0
40
0.423407924937777
40
0.740963868641109
40
0.899741840492776
40
1
40
1
40
1
40
1
41
1.02805999725224
10
9.55519007871797
20
14.3691440027863
30
0
41
1.02767136955276
10
10.4132036373439
20
14.4107290142458
30
0
41
1.02349884684922
10
13.5377726717707
20
13.7060181818259
30
0
41
1.01876555595691
10
17.5759135003253
20
12.4642845440801
30
0
41
1.01635405201136
10
19.1295283207975
20
12.0089261217448
30
0
41
1.01722454828229
10
19.6474764923117
20
12.0537091500353
30
0
41
1.0177432798791
10
19.862497149175
20
12.0812785887813
30
0
0
SPLINE
5
127
100
AcDbEntity
8
1
62
256
6
ByLayer
370
18
48
1
60
0
100
AcDbSpline
70
4
71
1
72
4
73
2
40
0
40
0
40
1
40
1
41
1
10
9.55519007871794
20
14.3691440027863
30
0
41
1
10
9.36064714880422
20
15.4724517843408
30
0
0
SPLINE
5
128
100
AcDbEntity
8
1
62
256
6
ByLayer
370
18
48
1
60
0
100
AcDbSpline
70
4
71
3
72
8
73
4
40
0
40
0
40
0
40
0
40
1
40
1
40
1
40
1
41
1
10
1.93730438207592
20
2.58981215528524
30
0
41
1
10
1.94138873704219
20
2.56664862722036
30
0
41
1
10
1.94582479171976
20
2.54373080367418
30
0
41
1
10
1.95059676448318
20
2.52104696030304
30
0
0
SPLINE
5
129
100
AcDbEntity
8
1
62
256
6
ByLayer
370
18
48
1
60
0
100
AcDbSpline
70
4
71
3
72
18
73
14
40
0
40
0
40
0
40
0
40
0.249999999999998
40
0.249999999999998
40
0.499999999999998
40
0.499999999999998
40
0.624999999999998
40
0.624999999999998
40
0.749999999999999
40
0.749999999999999
40
0.874999999999999
40
0.874999999999999
40
1
40
1
40
1
40
1
41
1
10
3.58293120913771
20
9.85705174866675
30
0
41
1
10
3.27399037302592
20
9.97086815345253
30
0
41
1
10
2.97744129660015
20
10.0793459693615
30
0
41
1
10
2.40951650768488
20
10.2847408354092
30
0
41
1
10
2.13811417190851
20
10.3816801500662
30
0
41
1
10
1.75204719823017
20
10.5167576660738
30
0
41
1
10
1.62733095610486
20
10.5598862466918
30
0
41
1
10
1.39031811016196
20
10.6406406578543
30
0
41
1
10
1.2774018828905
20
10.6784847892132
30
0
41
1
10
1.06309444556331
20
10.7488002235233
30
0
41
1
10
0.961700869616323
20
10.7812733283333
30
0
41
1
10
0.771113624041789
20
10.840354695064
30
0
41
1
10
0.681612051723334
20
10.8670479141761
30
0
41
1
10
0.599717661932573
20
10.8901709760483
30
0
0
SPLINE
5
12A
100
AcDbEntity
8
1
62
256
6
ByLayer
370
18
48
1
60
0
100
AcDbSpline
70
4
71
3
72
8
73
4
40
0
40
0
40
0
40
0
40
1
40
1
40
1
40
1
41
1
10
23.1059907742191
20
6.87058966802752
30
0
41
1
10
23.3602400410953
20
7.18456136474413
30
0
41
1
10
23.6159501743385
20
7.50033708118323
30
0
41
1
10
23.8731340719602
20
7.81793274506299
30
0
0
SPLINE
5
12B
100
AcDbEntity
8
1
62
256
6
ByLayer
370
18
48
1
60
0
100
AcDbSpline
70
4
71
3
72
8
73
4
40
0
40
0
40
0
40
0
40
1
40
1
40
1
40
1
41
1
10
21.8348302233922
20
14.0796993939936
30
0
41
1
10
22.1811310279522
20
13.871620878196
30
0
41
1
10
22.529421608939
20
13.6623467841028
30
0
41
1
10
22.8797195341195
20
13.4518665559349
30
0
0
SPLINE
5
12C
100
AcDbEntity
8
1
62
256
6
ByLayer
370
18
48
1
60
0
100
AcDbSpline
70
4
71
3
72
8
73
4
40
0
40
0
40
0
40
0
40
1
40
1
40
1
40
1
41
1
10
21.6178664922311
20
5.50399335856201
30
0
41
1
10
21.5094646176052
20
5.46443947473816
30
0
41
1
10
21.4004838751037
20
5.4271585714842
30
0
41
1
10
21.2908731399762
20
5.39235139506818
30
0
0
SPLINE
5
12D
100
AcDbEntity
8
1
62
256
6
ByLayer
370
18
48
1
60
0
100
AcDbSpline
70
4
71
3
72
8
73
4
40
0
40
0
40
0
40
0
40
1
40
1
40
1
40
1
41
1
10
19.6235903098278
20
14.8479821978954
30
0
41
1
10
19.7384954642537
20
14.852763230398
30
0
41
1
10
19.8536546836652
20
14.8550042498771
30
0
41
1
10
19.969047350346
20
14.854911381814
30
0
0
SPLINE
5
12E
100
AcDbEntity
8
1
62
256
6
ByLayer
370
18
48
1
60
0
100
AcDbSpline
70
4
71
3
72
8
73
4
40
0
40
0
40
0
40
0
40
1
40
1
40
1
40
1
41
1
10
5.62276937717235
20
4.34128872928133
30
0
41
1
10
5.69068614921821
20
4.30984321829226
30
0
41
1
10
5.75709709265084
20
4.27576874927365
30
0
41
1
10
5.82195459157657
20
4.23908103485681
30
0
0
SPLINE
5
12F
100
AcDbEntity
8
1
62
256
6
ByLayer
370
18
48
1
60
0
100
AcDbSpline
70
4
71
3
72
8
73
4
40
0
40
0
40
0
40
0
40
1
40
1
40
1
40
1
41
1.01923193626848
10
21.6179071179496
20
5.504027434566
30
0
41
1.02059843516864
10
22.0590176192264
20
5.87402260492351
30
0
41
1.0223381109506
10
22.5940543299511
20
6.3520035277931
30
0
41
1.0241704137769
10
23.1059066340046
20
6.87050443431412
30
0
0
SPLINE
5
130
100
AcDbEntity
8
1
62
256
6
ByLayer
370
18
48
1
60
0
100
AcDbSpline
70
4
71
3
72
8
73
4
40
0
40
0
40
0
40
0
40
1
40
1
40
1
40
1
41
1
10
24.6914845834727
20
8.87679466227021
30
0
41
1
10
24.7557414697262
20
8.9332037225449
30
0
41
1
10
24.8176996825093
20
8.99362517496394
30
0
41
1
10
24.8773630777786
20
9.05805228885828
30
0
0
SPLINE
5
131
100
AcDbEntity
8
1
62
256
6
ByLayer
370
18
48
1
60
0
100
AcDbSpline
70
4
71
3
72
22
73
18
40
0
40
0
40
0
40
0
40
0.124999999999999
40
0.124999999999999
40
0.249999999999999
40
0.249999999999999
40
0.499999999999996
40
0.499999999999996
40
0.625
40
0.625
40
0.750000000000003
40
0.750000000000003
40
0.875000000000007
40
0.875000000000007
40
0.937500000000003
40
0.937500000000003
40
1
40
1
40
1
40
1
41
1
10
19.1855286876437
20
4.37511952458848
30
0
41
1
10
18.9057646855364
20
4.19509711033629
30
0
41
1
10
18.6217043996199
20
4.02183250231127
30
0
41
1
10
18.046732794908
20
3.68607956517829
30
0
41
1
10
17.7555180771556
20
3.52354789167796
30
0
41
1
10
16.8737973881805
20
3.05366399977368
30
0
41
1
10
16.2751904500896
20
2.76356228374894
30
0
41
1
10
15.3554065193193
20
2.37533432536142
30
0
41
1
10
15.0451178512814
20
2.25312547181304
30
0
41
1
10
14.4199703688373
20
2.02210547327923
30
0
41
1
10
14.1053797300005
20
1.91335004841588
30
0
41
1
10
13.4722765409767
20
1.70897364925659
30
0
41
1
10
13.1538058252508
20
1.61321257167637
30
0
41
1
10
12.6724619600385
20
1.48175389112083
30
0
41
1
10
12.5114026764045
20
1.4399816655326
30
0
41
1
10
12.1875583610343
20
1.36221673131047
30
0
41
1
10
12.0248431353095
20
1.32599024288751
30
0
41
1
10
11.8604423614759
20
1.29540864195346
30
0
0
SPLINE
5
132
100
AcDbEntity
8
1
62
256
6
ByLayer
370
18
48
1
60
0
100
AcDbSpline
70
4
71
3
72
8
73
4
40
0
40
0
40
0
40
0
40
1
40
1
40
1
40
1
41
1
10
24.2475319839699
20
12.6300019206043
30
0
41
1
10
24.1690112296181
20
12.6703534249471
30
0
41
1
10
24.0901200586121
20
12.7058893941608
30
0
41
1
10
24.0108695750833
20
12.7367541855064
30
0
0
SPLINE
5
133
100
AcDbEntity
8
1
62
256
6
ByLayer
370
18
48
1
60
0
100
AcDbSpline
70
4
71
3
72
18
73
14
40
0
40
0
40
0
40
0
40
0.249999999999988
40
0.249999999999988
40
0.374999999999988
40
0.374999999999988
40
0.499999999999987
40
0.499999999999987
40
0.624999999999987
40
0.624999999999987
40
0.749999999999987
40
0.749999999999987
40
1
40
1
40
1
40
1
41
1
10
4.69312000444899
20
10.6410201061865
30
0
41
1
10
4.84009202681858
20
10.8130741829057
30
0
41
1
10
4.99937576524212
20
10.9701643547371
30
0
41
1
10
5.2575461670213
20
11.1846458237368
30
0
41
1
10
5.34682985043799
20
11.2525908164682
30
0
41
1
10
5.53222731282477
20
11.3813231611042
30
0
41
1
10
5.62864853923242
20
11.4422832599362
30
0
41
1
10
5.82741049522718
20
11.5559633451254
30
0
41
1
10
5.92933307501886
20
11.6084811885685
30
0
41
1
10
6.13842656180071
20
11.7048770425334
30
0
41
1
10
6.24589278785226
20
11.7488339974299
30
0
41
1
10
6.57225386202572
20
11.8660594792425
30
0
41
1
10
6.79610680575632
20
11.9253623257582
30
0
41
1
10
7.02627799712849
20
11.9659477169789
30
0
0
SPLINE
5
134
100
AcDbEntity
8
1
62
256
6
ByLayer
370
18
48
1
60
0
100
AcDbSpline
70
4
71
3
72
8
73
4
40
0
40
0
40
0
40
0
40
1
40
1
40
1
40
1
41
1
10
9.90500733991462
20
12.3852317291738
30
0
41
1
10
9.61876947889044
20
12.3929665170724
30
0
41
1
10
9.33351745455246
20
12.3727762842781
30
0
41
1
10
9.04915258742625
20
12.3226350858381
30
0
0
SPLINE
5
135
100
AcDbEntity
8
1
62
256
6
ByLayer
370
18
48
1
60
0
100
AcDbSpline
70
4
71
3
72
10
73
6
40
0
40
0
40
0
40
0
40
0.5
40
0.5
40
1
40
1
40
1
40
1
41
1
10
9.90500734339003
20
12.3852317094638
30
0
41
1
10
9.825641242308
20
12.835339235624
30
0
41
1
10
9.75445089288564
20
13.2390797700351
30
0
41
1
10
9.63577960241724
20
13.9120981021788
30
0
41
1
10
9.58832035134679
20
14.1812528899472
30
0
41
1
10
9.55519007871794
20
14.3691440027863
30
0
0
SPLINE
5
136
100
AcDbEntity
8
1
62
256
6
ByLayer
370
18
48
1
60
0
100
AcDbSpline
70
4
71
3
72
11
73
7
40
0
40
0
40
0
40
0
40
0.423407924939094
40
0.740963868643415
40
0.899741840495575
40
1
40
1
40
1
40
1
41
1.02805999725224
10
11.6658994315622
20
2.39871642350804
30
0
41
1.02767136955276
10
12.4863913526771
20
2.65309721539781
30
0
41
1.02349884684922
10
15.1815005175026
20
4.38397433339738
30
0
41
1.01876555595691
10
18.5514137391004
20
6.93194777472482
30
0
41
1.01635405201137
10
19.855592368591
20
7.89121228757168
30
0
41
1.01722454828226
10
20.3576211410653
20
8.02627871420568
30
0
41
1.01774327987905
10
20.5691037690204
20
8.07391331193235
30
0
0
SPLINE
5
137
100
AcDbEntity
8
1
62
256
6
ByLayer
370
18
48
1
60
0
100
AcDbSpline
70
4
71
3
72
26
73
22
40
0
40
0
40
0
40
0
40
0.250000000000003
40
0.250000000000003
40
0.374999999999993
40
0.374999999999993
40
0.499999999999983
40
0.499999999999983
40
0.624999999999973
40
0.624999999999973
40
0.687499999999978
40
0.687499999999978
40
0.749999999999982
40
0.749999999999982
40
0.812499999999987
40
0.812499999999987
40
0.874999999999991
40
0.874999999999991
40
0.937499999999996
40
0.937499999999996
40
1
40
1
40
1
40
1
41
1
10
21.3854237400309
20
9.65209725056442
30
0
41
1
10
21.2559792213911
20
9.54530513377406
30
0
41
1
10
21.1287540595161
20
9.43253037794051
30
0
41
1
10
20.9437854041376
20
9.24754715936507
30
0
41
1
10
20.8828281309769
20
9.18285181043362
30
0
41
1
10
20.7657679533344
20
9.04722322427503
30
0
41
1
10
20.7096412457375
20
8.97640920073607
30
0
41
1
10
20.6053042703995
20
8.82490041333764
30
0
41
1
10
20.5585065420161
20
8.74639096728467
30
0
41
1
10
20.5017591756512
20
8.62226146960137
30
0
41
1
10
20.4855232498837
20
8.58055116354552
30
0
41
1
10
20.4600740727287
20
8.49787156880242
30
0
41
1
10
20.4507474815871
20
8.45613982015948
30
0
41
1
10
20.4409821987002
20
8.37739461923766
30
0
41
1
10
20.4403397258555
20
8.34003562728216
30
0
41
1
10
20.4477567704375
20
8.26945012094049
30
0
41
1
10
20.4556848058596
20
8.23758232664531
30
0
41
1
10
20.4784856068119
20
8.18012063057984
30
0
41
1
10
20.4934422061399
20
8.15450500036329
30
0
41
1
10
20.5279187774453
20
8.10996297076392
30
0
41
1
10
20.5475539598521
20
8.09072625243323
30
0
41
1
10
20.5691037690168
20
8.07391331193156
30
0
0
SPLINE
5
138
100
AcDbEntity
8
1
62
256
6
ByLayer
370
18
48
1
60
0
100
AcDbSpline
70
4
71
3
72
12
73
8
40
0
40
0
40
0
40
0
40
0.108853988597828
40
0.502629237150057
40
0.699516861426172
40
0.896404485702287
40
1
40
1
40
1
40
1
41
1.02441262532194
10
13.9713095354639
20
7.75150965026473
30
0
41
1.02394775681993
10
14.3093451956432
20
7.83913749454315
30
0
41
1.02173322384663
10
15.9127691021753
20
8.26088115843433
30
0
41
1.01876555595691
10
18.1989089965812
20
8.89897094371852
30
0
41
1.01610930227499
10
19.7499069342507
20
9.35558772481404
30
0
41
1.01814069306383
10
20.4867891950646
20
9.47600904776202
30
0
41
1.02005196006992
10
21.1446629049245
20
9.60320188428984
30
0
41
1.02076673234807
10
21.3854237400323
20
9.6520972505647
30
0
0
SPLINE
5
139
100
AcDbEntity
8
1
62
256
6
ByLayer
370
18
48
1
60
0
100
AcDbSpline
70
4
71
3
72
8
73
4
40
0
40
0
40
0
40
0
40
1
40
1
40
1
40
1
41
1.02417048289515
10
21.8347467937479
20
14.0797389556888
30
0
41
1.02233815481013
10
21.1764171834961
20
14.3919116867371
30
0
41
1.02059845255999
10
20.5101581391377
20
14.6580776977714
30
0
41
1.01923193651471
10
19.9690972782873
20
14.8548932201653
30
0
0
SPLINE
5
13A
100
AcDbEntity
8
1
62
256
6
ByLayer
370
18
48
1
60
0
100
AcDbSpline
70
4
71
2
72
6
73
3
40
0
40
0
40
0
40
1
40
1
40
1
41
1.02805999725224
10
11.6658994315622
20
2.39871642350804
30
0
41
1.02805999725224
10
11.7631708965191
20
1.84706253273074
30
0
41
1.02805999725224
10
11.8604423614759
20
1.29540864195347
30
0
0
SPLINE
5
13B
100
AcDbEntity
8
1
62
256
6
ByLayer
370
18
48
1
60
0
100
AcDbSpline
70
4
71
3
72
20
73
16
40
0
40
0
40
0
40
0
40
0.250000000000001
40
0.250000000000001
40
0.375
40
0.375
40
0.499999999999999
40
0.499999999999999
40
0.749999999999998
40
0.749999999999998
40
0.812499999999999
40
0.812499999999999
40
0.874999999999999
40
0.874999999999999
40
1
40
1
40
1
40
1
41
1
10
5.62276937717354
20
4.34128872928363
30
0
41
1
10
5.4725621764677
20
3.98961532807928
30
0
41
1
10
5.32749291479735
20
3.65185052104348
30
0
41
1
10
5.11726106973896
20
3.16719420169815
30
0
41
1
10
5.04841309494691
20
3.00931554536984
30
0
41
1
10
4.91327152904273
20
2.70158483826893
30
0
41
1
10
4.84807128244381
20
2.55422417963763
30
0
41
1
10
4.65940500759069
20
2.13180546085996
30
0
41
1
10
4.54280037783565
20
1.87613933965815
30
0
41
1
10
4.40897825715604
20
1.59302508483791
30
0
41
1
10
4.38281639521318
20
1.53824736306015
30
0
41
1
10
4.33173537362671
20
1.43258362629067
30
0
41
1
10
4.30680120219978
20
1.38167206291215
30
0
41
1
10
4.23472455675602
20
1.23671207416265
30
0
41
1
10
4.19001748684542
20
1.14981845893681
30
0
41
1
10
4.14870500344904
20
1.07323222659986
30
0
0
SPLINE
5
13C
100
AcDbEntity
8
1
62
256
6
ByLayer
370
18
48
1
60
0
100
AcDbSpline
70
4
71
3
72
30
73
26
40
0
40
0
40
0
40
0
40
0.0624999999999999
40
0.0624999999999999
40
0.125
40
0.125
40
0.1875
40
0.1875
40
0.25
40
0.25
40
0.312499999999999
40
0.312499999999999
40
0.374999999999999
40
0.374999999999999
40
0.500000000000002
40
0.500000000000002
40
0.562500000000004
40
0.562500000000004
40
0.625000000000005
40
0.625000000000005
40
0.750000000000004
40
0.750000000000004
40
0.875000000000002
40
0.875000000000002
40
1
40
1
40
1
40
1
41
1
10
0.467631361490305
20
10.9313616894155
30
0
41
1
10
0.454822476640743
20
11.0211371186933
30
0
41
1
10
0.445337647085523
20
11.1104000926439
30
0
41
1
10
0.432991047579378
20
11.2882074935269
30
0
41
1
10
0.43012618300628
20
11.3767466528556
30
0
41
1
10
0.431003587639395
20
11.5532085585356
30
0
41
1
10
0.434809492538534
20
11.6412622253253
30
0
41
1
10
0.448485089328074
20
11.8119538410584
30
0
41
1
10
0.458339633998833
20
11.8952441076735
30
0
41
1
10
0.483500558068897
20
12.0580103241104
30
0
41
1
10
0.498912088226689
20
12.1379046631008
30
0
41
1
10
0.534188117806593
20
12.2917606215041
30
0
41
1
10
0.553971209592248
20
12.3655632816187
30
0
41
1
10
0.618699175150482
20
12.5786374870338
30
0
41
1
10
0.668930890122226
20
12.7095892573585
30
0
41
1
10
0.752469216576287
20
12.8925176011032
30
0
41
1
10
0.781590634852705
20
12.9509590447287
30
0
41
1
10
0.841572181909612
20
13.0623561039585
30
0
41
1
10
0.872526979713541
20
13.1155200719497
30
0
41
1
10
0.968365109704564
20
13.2686760082748
30
0
41
1
10
1.03613021577308
20
13.3623928201866
30
0
41
1
10
1.18222671015616
20
13.5382349692907
30
0
41
1
10
1.26058741384475
20
13.62039804545
30
0
41
1
10
1.43352597948416
20
13.7760794768667
30
0
41
1
10
1.52737084959449
20
13.8489475209532
30
0
41
1
10
1.63212039248151
20
13.91699930189
30
0
0
SPLINE
5
13D
100
AcDbEntity
8
1
62
256
6
ByLayer
370
18
48
1
60
0
100
AcDbSpline
70
4
71
3
72
8
73
4
40
0
40
0
40
0
40
0
40
1
40
1
40
1
40
1
41
1
10
21.1693576990005
20
10.8774686608926
30
0
41
1
10
21.593032895378
20
10.7271500899407
30
0
41
1
10
22.0149913918094
20
10.5888588159893
30
0
41
1
10
22.4340362388709
20
10.4687307679161
30
0
0
SPLINE
5
13E
100
AcDbEntity
8
1
62
256
6
ByLayer
370
18
48
1
60
0
100
AcDbSpline
70
4
71
3
72
26
73
22
40
0
40
0
40
0
40
0
40
0.0624999999999896
40
0.0624999999999896
40
0.124999999999979
40
0.124999999999979
40
0.187499999999969
40
0.187499999999969
40
0.249999999999959
40
0.249999999999959
40
0.312499999999948
40
0.312499999999948
40
0.374999999999938
40
0.374999999999938
40
0.499999999999944
40
0.499999999999944
40
0.62499999999995
40
0.62499999999995
40
0.749999999999956
40
0.749999999999956
40
1
40
1
40
1
40
1
41
1
10
19.8624971491645
20
12.08127858878
30
0
41
1
10
19.8479965305852
20
12.0581078674836
30
0
41
1
10
19.8361350362289
20
12.0333294027653
30
0
41
1
10
19.818988137526
20
11.9797663468411
30
0
41
1
10
19.8136858233408
20
11.9506627662966
30
0
41
1
10
19.8118865352506
20
11.8887546600352
30
0
41
1
10
19.8153212506429
20
11.8562572227794
30
0
41
1
10
19.8323682846979
20
11.7876382945761
30
0
41
1
10
19.8459367497352
20
11.7521872019071
30
0
41
1
10
19.8820827605385
20
11.6814944395573
30
0
41
1
10
19.9051100085036
20
11.6454866153165
30
0
41
1
10
19.957540947374
20
11.5762328564674
30
0
41
1
10
19.987232913228
20
11.5424493302984
30
0
41
1
10
20.0830711206452
20
11.4452679984738
30
0
41
1
10
20.1540312731773
20
11.387440625922
30
0
41
1
10
20.3040271548448
20
11.2807596724334
30
0
41
1
10
20.3807366987119
20
11.2336224562463
30
0
41
1
10
20.5361943787753
20
11.1467363721891
30
0
41
1
10
20.6151363955636
20
11.1069852328858
30
0
41
1
10
20.852941502275
20
10.9960375774691
30
0
41
1
10
21.0112215689439
20
10.9335382245938
30
0
41
1
10
21.1693576990005
20
10.8774686608926
30
0
0
SPLINE
5
13F
100
AcDbEntity
8
1
62
256
6
ByLayer
370
18
48
1
60
0
100
AcDbSpline
70
4
71
3
72
16
73
12
40
0
40
0
40
0
40
0
40
0.249999999999998
40
0.249999999999998
40
0.499999999999996
40
0.499999999999996
40
0.624999999999997
40
0.624999999999997
40
0.749999999999998
40
0.749999999999998
40
1
40
1
40
1
40
1
41
1
10
13.5523300477599
20
10.1276604011641
30
0
41
1
10
13.6441702260232
20
9.94486183276146
30
0
41
1
10
13.7221476580534
20
9.7564454931217
30
0
41
1
10
13.8505973852861
20
9.36845180300449
30
0
41
1
10
13.9006087329158
20
9.1699737870656
30
0
41
1
10
13.9536947411165
20
8.8683199963852
30
0
41
1
10
13.967780389996
20
8.76673522506908
30
0
41
1
10
13.9884329822909
20
8.56380230886819
30
0
41
1
10
13.9950423746952
20
8.46231537830059
30
0
41
1
10
14.0038502928999
20
8.157792817737
30
0
41
1
10
13.9950903612526
20
7.95469599593596
30
0
41
1
10
13.9713095353783
20
7.75150965024258
30
0
0
SPLINE
5
140
100
AcDbEntity
8
1
62
256
6
ByLayer
370
18
48
1
60
0
100
AcDbSpline
70
4
71
3
72
18
73
14
40
0
40
0
40
0
40
0
40
0.124999999999986
40
0.124999999999986
40
0.249999999999972
40
0.249999999999972
40
0.499999999999973
40
0.499999999999973
40
0.62499999999998
40
0.62499999999998
40
0.749999999999987
40
0.749999999999987
40
1
40
1
40
1
40
1
41
1
10
8.46755787176454
20
3.79204336697768
30
0
41
1
10
8.35246522860842
20
3.77174942870821
30
0
41
1
10
8.23703488818359
20
3.75638016356436
30
0
41
1
10
8.00548893700847
20
3.73553013307273
30
0
41
1
10
7.88890888566999
20
3.73005545878618
30
0
41
1
10
7.54169510458007
20
3.72879515391011
30
0
41
1
10
7.31469496251401
20
3.74786757776229
30
0
41
1
10
6.97987915185558
20
3.80518507699963
30
0
41
1
10
6.86922382318551
20
3.8291032717666
30
0
41
1
10
6.6496727156491
20
3.8867008522632
30
0
41
1
10
6.54115244172942
20
3.92032244070316
30
0
41
1
10
6.22290931147319
20
4.03418212351497
30
0
41
1
10
6.01886076108997
20
4.12769781111743
30
0
41
1
10
5.82195459157657
20
4.23908103485684
30
0
0
SPLINE
5
141
100
AcDbEntity
8
1
62
256
6
ByLayer
370
18
48
1
60
0
100
AcDbSpline
70
4
71
3
72
10
73
6
40
0
40
0
40
0
40
0
40
0.5
40
0.5
40
1
40
1
40
1
40
1
41
1
10
3.58293120913777
20
9.85705174866678
30
0
41
1
10
3.47152396670668
20
9.81241131153743
30
0
41
1
10
3.35941909361611
20
9.77460064176617
30
0
41
1
10
3.1345527204395
20
9.71132062716518
30
0
41
1
10
3.02221483191545
20
9.68601210006773
30
0
41
1
10
2.91146737447508
20
9.66648433527612
30
0
0
SPLINE
5
142
100
AcDbEntity
8
1
62
256
6
ByLayer
370
18
48
1
60
0
100
AcDbSpline
70
4
71
3
72
18
73
14
40
0
40
0
40
0
40
0
40
0.250000000000003
40
0.250000000000003
40
0.375000000000001
40
0.375000000000001
40
0.5
40
0.5
40
0.749999999999996
40
0.749999999999996
40
0.874999999999998
40
0.874999999999998
40
1
40
1
40
1
40
1
41
1
10
2.06062923262613
20
2.60492974510771
30
0
41
1
10
2.19743982725112
20
2.7034814441773
30
0
41
1
10
2.35518236417471
20
2.82359960457575
30
0
41
1
10
2.62080033770315
20
3.03226755656388
30
0
41
1
10
2.71436543906827
20
3.10674073635582
30
0
41
1
10
2.9105726133389
20
3.26454452015275
30
0
41
1
10
3.01202735435555
20
3.34691655050037
30
0
41
1
10
3.32583662675648
20
3.60356619243706
30
0
41
1
10
3.54756738306031
20
3.78730215275846
30
0
41
1
10
3.89804122730294
20
4.0801354377374
30
0
41
1
10
4.01803934554772
20
4.18078824466974
30
0
41
1
10
4.2613741838619
20
4.3855224062732
30
0
41
1
10
4.38500890272252
20
4.48985198144143
30
0
41
1
10
4.51058540294162
20
4.59606338445667
30
0
0
SPLINE
5
143
100
AcDbEntity
8
1
62
256
6
ByLayer
370
18
48
1
60
0
100
AcDbSpline
70
4
71
3
72
8
73
4
40
0
40
0
40
0
40
0
40
1
40
1
40
1
40
1
41
1
10
22.4340362388918
20
10.4687307679101
30
0
41
1
10
22.0816499746953
20
10.2127441152444
30
0
41
1
10
21.7320756553375
20
9.93820596976812
30
0
41
1
10
21.3854237400309
20
9.65209725056442
30
0
0
SPLINE
5
144
100
AcDbEntity
8
1
62
256
6
ByLayer
370
18
48
1
60
0
100
AcDbSpline
70
4
71
3
72
14
73
10
40
0
40
0
40
0
40
0
40
0.25
40
0.25
40
0.5
40
0.5
40
0.75
40
0.75
40
1
40
1
40
1
40
1
41
1
10
4.51058540294162
20
4.59606338445667
30
0
41
1
10
4.60134580428161
20
4.59315439045042
30
0
41
1
10
4.69320650315234
20
4.58636480438571
30
0
41
1
10
4.87938151518159
20
4.56379009046756
30
0
41
1
10
4.97421893333734
20
4.54789832658801
30
0
41
1
10
5.16451830678994
20
4.50578685915303
30
0
41
1
10
5.25836117774378
20
4.47996595736711
30
0
41
1
10
5.44328141646298
20
4.41820677211317
30
0
41
1
10
5.53498808171474
20
4.38193152792732
30
0
41
1
10
5.62276937717246
20
4.34128872928127
30
0
0
SPLINE
5
145
100
AcDbEntity
8
1
62
256
6
ByLayer
370
18
48
1
60
0
100
AcDbSpline
70
4
71
3
72
12
73
8
40
0
40
0
40
0
40
0
40
0.108853985813151
40
0.502629224287399
40
0.699516843524523
40
0.896404462761647
40
1
40
1
40
1
40
1
41
1.02441262532196
10
13.5523300478479
20
10.1276604011725
30
0
41
1.02394775681994
10
13.8999501511444
20
10.1609321674729
30
0
41
1.02173322384664
10
15.5509205924791
20
10.3130260329756
30
0
41
1.01876555595691
10
17.9174289411501
20
10.4953236646917
30
0
41
1.01610930227499
10
19.5310623949432
20
10.5967167819082
30
0
41
1.01814069316835
10
20.2646917736256
20
10.7355863369378
30
0
41
1.02005196039548
10
20.9263934311998
20
10.8410702383757
30
0
41
1.02076673287779
10
21.1693578789424
20
10.8774686878496
30
0
0
SPLINE
5
146
100
AcDbEntity
8
1
62
256
6
ByLayer
370
18
48
1
60
0
100
AcDbSpline
70
4
71
3
72
14
73
10
40
0
40
0
40
0
40
0
40
0.500000000000017
40
0.500000000000017
40
0.62500000000001
40
0.62500000000001
40
0.750000000000002
40
0.750000000000002
40
1
40
1
40
1
40
1
41
1
10
2.3206497154917
20
14.2332696559928
30
0
41
1
10
2.08042892982923
20
14.1909122501535
30
0
41
1
10
1.82240532593829
20
14.1246497718409
30
0
41
1
10
1.48470721510995
20
13.9899885691892
30
0
41
1
10
1.4164148817045
20
13.9604213508609
30
0
41
1
10
1.2785443623203
20
13.8952316461582
30
0
41
1
10
1.2090779940097
20
13.8596387058823
30
0
41
1
10
1.00194088597715
20
13.7441181388788
30
0
41
1
10
0.864661004328468
20
13.6551307040459
30
0
41
1
10
0.730061190516437
20
13.5514964402991
30
0
0
SPLINE
5
147
100
AcDbEntity
8
1
62
256
6
ByLayer
370
18
48
1
60
0
100
AcDbSpline
70
4
71
3
72
14
73
10
40
0
40
0
40
0
40
0
40
0.5
40
0.5
40
0.624999999999996
40
0.624999999999996
40
0.749999999999993
40
0.749999999999993
40
1
40
1
40
1
40
1
41
1
10
4.82118347389638
20
0.052038012617146
30
0
41
1
10
4.58053981213158
20
0.0096060423115034
30
0
41
1
10
4.31490377440883
20
-0.0163964808980381
30
0
41
1
10
3.95076128469645
20
-0.0051794541088839
30
0
41
1
10
3.87631840224043
20
-0.000707009880756
30
0
41
1
10
3.72414112137977
20
0.0135144886720582
30
0
41
1
10
3.6465649707979
20
0.0232735891291043
30
0
41
1
10
3.41258533427015
20
0.0611125611457908
30
0
41
1
10
3.25384870002136
20
0.0977830346626263
30
0
41
1
10
3.09333900132316
20
0.1486819571696
30
0
0
SPLINE
5
148
100
AcDbEntity
8
1
62
256
6
ByLayer
370
18
48
1
60
0
100
AcDbSpline
70
4
71
3
72
14
73
10
40
0
40
0
40
0
40
0
40
0.25
40
0.25
40
0.5
40
0.5
40
0.75
40
0.75
40
1
40
1
40
1
40
1
41
1
10
4.54090421859996
20
10.4768509343695
30
0
41
1
10
4.47237681852499
20
10.4086952827078
30
0
41
1
10
4.39993142006693
20
10.344372237079
30
0
41
1
10
4.24756723941346
20
10.2231360188305
30
0
41
1
10
4.16683230428703
20
10.1657548851556
30
0
41
1
10
4.00325785115461
20
10.0615682902752
30
0
41
1
10
3.92025622209195
20
10.0144859125296
30
0
41
1
10
3.7521408842158
20
9.92903932218567
30
0
41
1
10
3.667228884699
20
9.89082949061535
30
0
41
1
10
3.58293120913771
20
9.85705174866678
30
0
0
SPLINE
5
149
100
AcDbEntity
8
1
62
256
6
ByLayer
370
18
48
1
60
0
100
AcDbSpline
70
4
71
3
72
24
73
20
40
0
40
0
40
0
40
0
40
0.125
40
0.125
40
0.25
40
0.25
40
0.312500000000001
40
0.312500000000001
40
0.375000000000002
40
0.375000000000002
40
0.500000000000002
40
0.500000000000002
40
0.625000000000001
40
0.625000000000001
40
0.750000000000001
40
0.750000000000001
40
0.875
40
0.875
40
1
40
1
40
1
40
1
41
1
10
22.8797195341195
20
13.4518665559348
30
0
41
1
10
22.6875463789006
20
13.5027714443629
30
0
41
1
10
22.499810393937
20
13.5359632534694
30
0
41
1
10
22.1361385565663
20
13.5640289642716
30
0
41
1
10
21.966388171805
20
13.5582956507431
30
0
41
1
10
21.7271233188283
20
13.5245728624898
30
0
41
1
10
21.6498677261627
20
13.509244174996
30
0
41
1
10
21.4997865312531
20
13.4713414487002
30
0
41
1
10
21.4273812364485
20
13.4488498075372
30
0
41
1
10
21.2190314365294
20
13.3729748114207
30
0
41
1
10
21.0908787172589
20
13.3110351143727
30
0
41
1
10
20.8509747222761
20
13.1698245350779
30
0
41
1
10
20.7392721128812
20
13.0905022277866
30
0
41
1
10
20.5294158765974
20
12.9175405853011
30
0
41
1
10
20.4315858363765
20
12.8240711303829
30
0
41
1
10
20.2496611822785
20
12.6272444062603
30
0
41
1
10
20.1654183226405
20
12.5234772310442
30
0
41
1
10
20.007585025116
20
12.3074554407275
30
0
41
1
10
19.9338507320209
20
12.1953154439234
30
0
41
1
10
19.8624971491647
20
12.08127858878
30
0
0
SPLINE
5
14A
100
AcDbEntity
8
1
62
256
6
ByLayer
370
18
48
1
60
0
100
AcDbSpline
70
4
71
3
72
16
73
12
40
0
40
0
40
0
40
0
40
0.25
40
0.25
40
0.5
40
0.5
40
0.625
40
0.625
40
0.75
40
0.75
40
1
40
1
40
1
40
1
41
1
10
19.6235903098278
20
14.8479821978954
30
0
41
1
10
19.4452832311388
20
14.840563105663
30
0
41
1
10
19.2619333865576
20
14.8375960652336
30
0
41
1
10
18.885845121395
20
14.844296916001
30
0
41
1
10
18.6931115007878
20
14.8552304910074
30
0
41
1
10
18.3972880151129
20
14.8867907824733
30
0
41
1
10
18.2972591929949
20
14.8995787142928
30
0
41
1
10
18.0976501527352
20
14.9285415385989
30
0
41
1
10
17.9978060983514
20
14.9447335808929
30
0
41
1
10
17.6980478713859
20
14.9975754096287
30
0
41
1
10
17.4978905332623
20
15.0383697679353
30
0
41
1
10
17.2972998735933
20
15.0837972689887
30
0
0
SPLINE
5
14B
100
AcDbEntity
8
1
62
256
6
ByLayer
370
13
48
1
60
0
100
AcDbSpline
70
4
71
3
72
8
73
4
40
0
40
0
40
0
40
0
40
1
40
1
40
1
40
1
41
1
10
24.2470389110195
20
17.1848008694639
30
0
41
1
10
24.2586978008272
20
17.1902374990668
30
0
41
1
10
24.2705767454408
20
17.1952251118872
30
0
41
1
10
24.2826221422729
20
17.1997412018051
30
0
0
SPLINE
5
14C
100
AcDbEntity
8
1
62
256
6
ByLayer
370
13
48
1
60
0
100
AcDbSpline
70
4
71
3
72
8
73
4
40
0
40
0
40
0
40
0
40
1
40
1
40
1
40
1
41
1
10
29.7832412018052
20
11.6991221422728
30
0
41
1
10
29.7787251118872
20
11.6870767454408
30
0
41
1
10
29.773737499067
20
11.6751978008272
30
0
41
1
10
29.768300869464
20
11.6635389110195
30
0
0
SPLINE
5
14D
100
AcDbEntity
8
1
62
256
6
ByLayer
370
13
48
1
60
0
100
AcDbSpline
70
4
71
3
72
8
73
4
40
0
40
0
40
0
40
0
40
1
40
1
40
1
40
1
41
1
10
22.1221013801797
20
4.0173394217351
30
0
41
1
10
22.1104424903719
20
4.01190279213216
30
0
41
1
10
22.0985635457583
20
4.00691517931179
30
0
41
1
10
22.0865181489262
20
4.00239908939386
30
0
0
SPLINE
5
14E
100
AcDbEntity
8
1
62
256
6
ByLayer
370
18
48
1
60
0
100
AcDbSpline
70
4
71
3
72
10
73
6
40
0
40
0
40
0
40
0
40
0.5
40
0.5
40
1
40
1
40
1
40
1
41
1
10
7.97747470091696
20
7.25897354603174
30
0
41
1
10
7.96571887253782
20
7.27938719432944
30
0
41
1
10
7.95127991405326
20
7.30035722919772
30
0
41
1
10
7.91829820170835
20
7.33967510702738
30
0
41
1
10
7.90012690286841
20
7.35757773477033
30
0
41
1
10
7.88200531744434
20
7.37274952676756
30
0
0
SPLINE
5
14F
100
AcDbEntity
8
1
62
256
6
ByLayer
370
18
48
1
60
0
100
AcDbSpline
70
4
71
3
72
10
73
6
40
0
40
0
40
0
40
0
40
0.5
40
0.5
40
1
40
1
40
1
40
1
41
1
10
9.10480520637321
20
6.92768676473224
30
0
41
1
10
9.08098972634622
20
6.92771302829587
30
0
41
1
10
9.05564511060481
20
6.92565584202279
30
0
41
1
10
9.00548786894575
20
6.91681552898214
30
0
41
1
10
8.98093329812019
20
6.91007518299497
30
0
41
1
10
8.95853762498166
20
6.90189584372993
30
0
0
SPLINE
5
150
100
AcDbEntity
8
1
62
256
6
ByLayer
370
18
48
1
60
0
100
AcDbSpline
70
4
71
3
72
10
73
6
40
0
40
0
40
0
40
0
40
0.5
40
0.5
40
1
40
1
40
1
40
1
41
1
10
9.95537322764562
20
7.73834023027126
30
0
41
1
10
9.94353356601908
20
7.71788546204334
30
0
41
1
10
9.93258118989564
20
7.69484754462701
30
0
41
1
10
9.91503602439491
20
7.64662041498221
30
0
41
1
10
9.90864001598624
20
7.62197661330848
30
0
41
1
10
9.90457502972373
20
7.59877332853264
30
0
0
SPLINE
5
151
100
AcDbEntity
8
1
62
256
6
ByLayer
370
18
48
1
60
0
100
AcDbSpline
70
4
71
3
72
10
73
6
40
0
40
0
40
0
40
0
40
0.5
40
0.5
40
1
40
1
40
1
40
1
41
1
10
8.55128023800273
20
9.21156725840754
30
0
41
1
10
8.57509571802979
20
9.21154099484392
30
0
41
1
10
8.60044033377125
20
9.21359818111699
30
0
41
1
10
8.65059757543025
20
9.22243849415764
30
0
41
1
10
8.67515214625581
20
9.22917884014481
30
0
41
1
10
8.69754781939434
20
9.23735817940985
30
0
0
SPLINE
5
152
100
AcDbEntity
8
1
62
256
6
ByLayer
370
18
48
1
60
0
100
AcDbSpline
70
4
71
3
72
10
73
6
40
0
40
0
40
0
40
0
40
0.5
40
0.5
40
1
40
1
40
1
40
1
41
1
10
9.67861074345899
20
8.88028047710804
30
0
41
1
10
9.69036657183818
20
8.85986682881034
30
0
41
1
10
9.7048055303228
20
8.83889679394207
30
0
41
1
10
9.73778724266759
20
8.79957891611241
30
0
41
1
10
9.7559585415076
20
8.78167628836948
30
0
41
1
10
9.77408012693161
20
8.76650449637225
30
0
0
SPLINE
5
153
100
AcDbEntity
8
1
62
256
6
ByLayer
370
18
48
1
60
0
100
AcDbSpline
70
4
71
3
72
10
73
6
40
0
40
0
40
0
40
0
40
0.5
40
0.5
40
1
40
1
40
1
40
1
41
1
10
7.70071221673032
20
8.40091379286852
30
0
41
1
10
7.71255187835692
20
8.42136856109647
30
0
41
1
10
7.72350425448025
20
8.44440647851278
30
0
41
1
10
7.74104941998115
20
8.4926336081576
30
0
41
1
10
7.74744542838971
20
8.51727740983131
30
0
41
1
10
7.75151041465227
20
8.54048069460714
30
0
0
LINE
5
70
100
AcDbEntity
8
81
62
256
6
ByLayer
370
18
48
1
60
0
100
AcDbLine
10
32.146
20
19.5625
30
0
11
37.146
21
19.5625
31
0
39
0
210
0
220
0
230
1
0
LINE
5
71
100
AcDbEntity
8
80
62
256
6
ByLayer
370
18
48
1
60
0
100
AcDbLine
10
0
20
0
30
0
11
-10
21
0
31
0
39
0
210
0
220
0
230
1
0
LINE
5
72
100
AcDbEntity
8
1
62
256
6
ByLayer
370
18
48
1
60
0
100
AcDbLine
10
3.627417
20
14.463683
30
0
11
3.387356
21
15.825136
31
0
39
0
210
0
220
0
230
1
0
LINE
5
74
100
AcDbEntity
8
1
62
256
6
ByLayer
370
18
48
1
60
0
100
AcDbLine
10
1.576458
20
14.014237
30
0
11
3.387356
21
15.825136
31
0
39
0
210
0
220
0
230
1
0
LINE
5
75
100
AcDbEntity
8
1
62
256
6
ByLayer
370
18
48
1
60
0
100
AcDbLine
10
3.606681
20
0.040974
30
0
11
2.245577
21
-0.199026
31
0
39
0
210
0
220
0
230
1
0
LINE
5
76
100
AcDbEntity
8
1
62
256
6
ByLayer
370
18
48
1
60
0
100
AcDbLine
10
2.245577
20
-0.199026
30
0
11
2.077194
21
0.755923
31
0
39
0
210
0
220
0
230
1
0
LINE
5
77
100
AcDbEntity
8
1
62
256
6
ByLayer
370
18
48
1
60
0
100
AcDbLine
10
14.968912
20
1.64199
30
0
11
14.981284
21
1.500574
31
0
39
0
210
0
220
0
230
1
0
LINE
5
78
100
AcDbEntity
8
1
62
256
6
ByLayer
370
18
48
1
60
0
100
AcDbLine
10
20.571545
20
15.461008
30
0
11
20.501051
21
15.619339
31
0
39
0
210
0
220
0
230
1
0
LINE
5
79
100
AcDbEntity
8
1
62
256
6
ByLayer
370
18
48
1
60
0
100
AcDbLine
10
25.18861
20
17.612265
30
0
11
25.102636
21
17.668097
31
0
39
0
210
0
220
0
230
1
0
LINE
5
7A
100
AcDbEntity
8
1
62
256
6
ByLayer
370
18
48
1
60
0
100
AcDbLine
10
17.059977
20
1.835804
30
0
11
17.073293
21
1.683601
31
0
39
0
210
0
220
0
230
1
0
LINE
5
7B
100
AcDbEntity
8
1
62
256
6
ByLayer
370
18
48
1
60
0
100
AcDbLine
10
25.353539
20
17.689177
30
0
11
25.353539
21
17.999956
31
0
39
0
210
0
220
0
230
1
0
LINE
5
7C
100
AcDbEntity
8
1
62
256
6
ByLayer
370
18
48
1
60
0
100
AcDbLine
10
0
20
4.392142
30
0
11
0
21
8.920967
31
0
39
0
210
0
220
0
230
1
0
LINE
5
7D
100
AcDbEntity
8
1
62
256
6
ByLayer
370
18
48
1
60
0
100
AcDbLine
10
18.704375
20
2.435229
30
0
11
18.728738
21
2.382983
31
0
39
0
210
0
220
0
230
1
0
LINE
5
7E
100
AcDbEntity
8
SK1
62
256
6
ByLayer
370
18
48
1
60
0
100
AcDbLine
10
0
20
4.392142
30
0
11
0
21
8.920967
31
0
39
0
210
0
220
0
230
1
0
LINE
5
80
100
AcDbEntity
8
1
62
256
6
ByLayer
370
18
48
1
60
0
100
AcDbLine
10
0
20
-12.4375
30
0
11
14.946673
21
-12.4375
31
0
39
0
210
0
220
0
230
1
0
LINE
5
81
100
AcDbEntity
8
SK1
62
256
6
ByLayer
370
18
48
1
60
0
100
AcDbLine
10
-1.418614
20
12.4375
30
0
11
0
21
4.392142
31
0
39
0
210
0
220
0
230
1
0
LINE
5
82
100
AcDbEntity
8
SK1
62
256
6
ByLayer
370
18
48
1
60
0
100
AcDbLine
10
0
20
-12.4375
30
0
11
0
21
-5.672114
31
0
39
0
210
0
220
0
230
1
0
LINE
5
83
100
AcDbEntity
8
SK1
62
256
6
ByLayer
370
18
48
1
60
0
100
AcDbLine
10
0
20
4.392142
30
0
11
0
21
-4.170784
31
0
39
0
210
0
220
0
230
1
0
LINE
5
84
100
AcDbEntity
8
SK1
62
256
6
ByLayer
370
18
48
1
60
0
100
AcDbLine
10
-117.854
20
-12.4375
30
0
11
-117.854
21
12.4375
31
0
39
0
210
0
220
0
230
1
0
LINE
5
85
100
AcDbEntity
8
SK1
62
256
6
ByLayer
370
18
48
1
60
0
100
AcDbLine
10
-117.854
20
12.4375
30
0
11
-5.385886
21
12.4375
31
0
39
0
210
0
220
0
230
1
0
LINE
5
86
100
AcDbEntity
8
SK1
62
256
6
ByLayer
370
18
48
1
60
0
100
AcDbLine
10
-5.385886
20
12.4375
30
0
11
-1.418614
21
12.4375
31
0
39
0
210
0
220
0
230
1
0
LINE
5
87
100
AcDbEntity
8
SK1
62
256
6
ByLayer
370
18
48
1
60
0
100
AcDbLine
10
-117.854
20
-12.4375
30
0
11
0
21
-12.4375
31
0
39
0
210
0
220
0
230
1
0
LINE
5
88
100
AcDbEntity
8
SK1
62
256
6
ByLayer
370
18
48
1
60
0
100
AcDbLine
10
-5.385886
20
12.4375
30
0
11
-2.352688
21
-4.764618
31
0
39
0
210
0
220
0
230
1
0
LINE
5
89
100
AcDbEntity
8
SK1
62
256
6
ByLayer
370
18
48
1
60
0
100
AcDbLine
10
-0.6216
20
12.4375
30
0
11
-1.418614
21
12.4375
31
0
39
0
210
0
220
0
230
1
0
LINE
5
8A
100
AcDbEntity
8
1
62
256
6
ByLayer
370
18
48
1
60
0
100
AcDbLine
10
3.387356
20
15.825136
30
0
11
4.879426
21
17.317205
31
0
39
0
210
0
220
0
230
1
0
LINE
5
8B
100
AcDbEntity
8
1
62
256
6
ByLayer
370
18
48
1
60
0
100
AcDbLine
10
4.879426
20
17.317205
30
0
11
25.102636
21
18.029744
31
0
39
0
210
0
220
0
230
1
0
LINE
5
8C
100
AcDbEntity
8
1
62
256
6
ByLayer
370
18
48
1
60
0
100
AcDbLine
10
25.707308
20
5.637144
30
0
11
25.585949
21
5.303714
31
0
39
0
210
0
220
0
230
1
0
LINE
5
8D
100
AcDbEntity
8
1
62
256
6
ByLayer
370
18
48
1
60
0
100
AcDbLine
10
25.707308
20
5.637144
30
0
11
18.728738
21
2.382983
31
0
39
0
210
0
220
0
230
1
0
LINE
5
8E
100
AcDbEntity
8
1
62
256
6
ByLayer
370
18
48
1
60
0
100
AcDbLine
10
0
20
-12.4375
30
0
11
0
21
-5.672114
31
0
39
0
210
0
220
0
230
1
0
LINE
5
8F
100
AcDbEntity
8
1
62
256
6
ByLayer
370
18
48
1
60
0
100
AcDbLine
10
0
20
4.392142
30
0
11
0
21
-4.170784
31
0
39
0
210
0
220
0
230
1
0
LINE
5
90
100
AcDbEntity
8
1
62
256
6
ByLayer
370
18
48
1
60
0
100
AcDbLine
10
25.585949
20
5.303714
30
0
11
25.605328
21
5.262155
31
0
39
0
210
0
220
0
230
1
0
LINE
5
91
100
AcDbEntity
8
1
62
256
6
ByLayer
370
18
48
1
60
0
100
AcDbLine
10
19.756752
20
-5.030629
30
0
11
14.946673
21
-12.4375
31
0
39
0
210
0
220
0
230
1
0
LINE
5
92
100
AcDbEntity
8
1
62
256
6
ByLayer
370
18
48
1
60
0
100
AcDbLine
10
25.102636
20
17.668097
30
0
11
20.501051
21
15.619339
31
0
39
0
210
0
220
0
230
1
0
LINE
5
93
100
AcDbEntity
8
1
62
256
6
ByLayer
370
18
48
1
60
0
100
AcDbLine
10
18.834774
20
2.155589
30
0
11
25.585949
21
5.303714
31
0
39
0
210
0
220
0
230
1
0
LINE
5
94
100
AcDbEntity
8
1
62
256
6
ByLayer
370
18
48
1
60
0
100
AcDbLine
10
0.852848
20
-0.444601
30
0
11
2.245577
21
-0.199026
31
0
39
0
210
0
220
0
230
1
0
LINE
5
95
100
AcDbEntity
8
1
62
256
6
ByLayer
370
18
48
1
60
0
100
AcDbLine
10
25.739372
20
5.568382
30
0
11
25.707308
21
5.637144
31
0
39
0
210
0
220
0
230
1
0
LINE
5
96
100
AcDbEntity
8
1
62
256
6
ByLayer
370
18
48
1
60
0
100
AcDbLine
10
25.102636
20
18.029744
30
0
11
25.102636
21
17.668097
31
0
39
0
210
0
220
0
230
1
0
LINE
5
97
100
AcDbEntity
8
1
62
256
6
ByLayer
370
18
48
1
60
0
100
AcDbLine
10
0
20
-5.672114
30
0
11
0
21
-5.642897
31
0
39
0
210
0
220
0
230
1
0
LINE
5
98
100
AcDbEntity
8
1
62
256
6
ByLayer
370
18
48
1
60
0
100
AcDbLine
10
14.981284
20
1.500574
30
0
11
17.073293
21
1.683601
31
0
39
0
210
0
220
0
230
1
0
LINE
5
99
100
AcDbEntity
8
1
62
256
6
ByLayer
370
18
48
1
60
0
100
AcDbLine
10
0
20
4.392142
30
0
11
0.852848
21
-0.444601
31
0
39
0
210
0
220
0
230
1
0
LINE
5
9A
100
AcDbEntity
8
1
62
256
6
ByLayer
370
18
48
1
60
0
100
AcDbLine
10
25.102636
20
18.029744
30
0
11
25.353539
21
17.999956
31
0
39
0
210
0
220
0
230
1
0
LINE
5
9B
100
AcDbEntity
8
1
62
256
6
ByLayer
370
18
48
1
60
0
100
AcDbLine
10
18.728738
20
2.382983
30
0
11
18.834774
21
2.155589
31
0
39
0
210
0
220
0
230
1
0
LINE
5
9C
100
AcDbEntity
8
1
62
256
6
ByLayer
370
18
48
1
60
0
100
AcDbLine
10
24.564849
20
8.672129
30
0
11
24.691485
21
8.876795
31
0
39
0
210
0
220
0
230
1
0
LINE
5
9D
100
AcDbEntity
8
1
62
256
6
ByLayer
370
18
48
1
60
0
100
AcDbLine
10
23.821871
20
12.885765
30
0
11
22.87972
21
13.451867
31
0
39
0
210
0
220
0
230
1
0
LINE
5
9E
100
AcDbEntity
8
1
62
256
6
ByLayer
370
18
48
1
60
0
100
AcDbLine
10
1.203629
20
9.365346
30
0
11
2.1066
21
4.244346
31
0
39
0
210
0
220
0
230
1
0
LINE
5
9F
100
AcDbEntity
8
1
62
256
6
ByLayer
370
18
48
1
60
0
100
AcDbLine
10
1.937304
20
2.589812
30
0
11
1.141124
21
2.449424
31
0
39
0
210
0
220
0
230
1
0
LINE
5
A0
100
AcDbEntity
8
1
62
256
6
ByLayer
370
18
48
1
60
0
100
AcDbLine
10
10.490432
20
4.148731
30
0
11
8.467558
21
3.792043
31
0
39
0
210
0
220
0
230
1
0
LINE
5
A1
100
AcDbEntity
8
1
62
256
6
ByLayer
370
18
48
1
60
0
100
AcDbLine
10
0.341137
20
9.111723
30
0
11
1.209378
21
4.187684
31
0
39
0
210
0
220
0
230
1
0
LINE
5
A2
100
AcDbEntity
8
1
62
256
6
ByLayer
370
18
48
1
60
0
100
AcDbLine
10
0.47866
20
10.862197
30
0
11
-0.317521
21
10.721809
31
0
39
0
210
0
220
0
230
1
0
LINE
5
A3
100
AcDbEntity
8
1
62
256
6
ByLayer
370
18
48
1
60
0
100
AcDbLine
10
0.041092
20
9.058817
30
0
11
0.341137
21
9.111723
31
0
39
0
210
0
220
0
230
1
0
LINE
5
A4
100
AcDbEntity
8
1
62
256
6
ByLayer
370
18
48
1
60
0
100
AcDbLine
10
7.026278
20
11.965948
30
0
11
9.049153
21
12.322635
31
0
39
0
210
0
220
0
230
1
0
LINE
5
A5
100
AcDbEntity
8
1
62
256
6
ByLayer
370
18
48
1
60
0
100
AcDbLine
10
0.909333
20
4.134778
30
0
11
1.209378
21
4.187684
31
0
39
0
210
0
220
0
230
1
0
LINE
5
A6
100
AcDbEntity
8
1
62
256
6
ByLayer
370
18
48
1
60
0
100
AcDbLine
10
1.141124
20
2.449424
30
0
11
-0.317521
21
10.721809
31
0
39
0
210
0
220
0
230
1
0
LINE
5
A7
100
AcDbEntity
8
1
62
256
6
ByLayer
370
18
48
1
60
0
100
AcDbLine
10
6.503359
20
0.348651
30
0
11
6.507322
21
0.351509
31
0
39
0
210
0
220
0
230
1
0
LINE
5
A8
100
AcDbEntity
8
1
62
256
6
ByLayer
370
18
48
1
60
0
100
AcDbLine
10
0.041092
20
9.058817
30
0
11
0.909333
21
4.134778
31
0
39
0
210
0
220
0
230
1
0
LINE
5
A9
100
AcDbEntity
8
1
62
256
6
ByLayer
370
18
48
1
60
0
100
AcDbLine
10
5.085399
20
0.098626
30
0
11
6.503359
21
0.348651
31
0
39
0
210
0
220
0
230
1
0
LINE
5
AA
100
AcDbEntity
8
1
62
256
6
ByLayer
370
18
48
1
60
0
100
AcDbLine
10
1.063998
20
4.009736
30
0
11
0.909333
21
4.134778
31
0
39
0
210
0
220
0
230
1
0
LINE
5
AB
100
AcDbEntity
8
1
62
256
6
ByLayer
370
18
48
1
60
0
100
AcDbLine
10
2.911467
20
9.666484
30
0
11
1.203629
21
9.365346
31
0
39
0
210
0
220
0
230
1
0
LINE
5
AC
100
AcDbEntity
8
1
62
256
6
ByLayer
370
18
48
1
60
0
100
AcDbLine
10
0.47866
20
10.862197
30
0
11
1.937304
21
2.589812
31
0
39
0
210
0
220
0
230
1
0
LINE
5
AD
100
AcDbEntity
8
1
62
256
6
ByLayer
370
18
48
1
60
0
100
AcDbLine
10
22.434036
20
10.468731
30
0
11
25.481142
21
11.006018
31
0
39
0
210
0
220
0
230
1
0
LINE
5
AE
100
AcDbEntity
8
1
62
256
6
ByLayer
370
18
48
1
60
0
100
AcDbLine
10
2.037996
20
13.04366
30
0
11
9.55519
21
14.369144
31
0
39
0
210
0
220
0
230
1
0
LINE
5
AF
100
AcDbEntity
8
1
62
256
6
ByLayer
370
18
48
1
60
0
100
AcDbLine
10
1.400048
20
4.068991
30
0
11
1.209378
21
4.187684
31
0
39
0
210
0
220
0
230
1
0
LINE
5
B0
100
AcDbEntity
8
1
62
256
6
ByLayer
370
18
48
1
60
0
100
AcDbLine
10
25.024286
20
9.239487
30
0
11
24.877363
21
9.058052
31
0
39
0
210
0
220
0
230
1
0
LINE
5
B1
100
AcDbEntity
8
1
62
256
6
ByLayer
370
18
48
1
60
0
100
AcDbLine
10
0.479713
20
9.288472
30
0
11
0.341137
21
9.111723
31
0
39
0
210
0
220
0
230
1
0
LINE
5
B2
100
AcDbEntity
8
1
62
256
6
ByLayer
370
18
48
1
60
0
100
AcDbLine
10
0.479713
20
9.288472
30
0
11
1.400048
21
4.068991
31
0
39
0
210
0
220
0
230
1
0
LINE
5
B3
100
AcDbEntity
8
1
62
256
6
ByLayer
370
18
48
1
60
0
100
AcDbLine
10
1.063998
20
4.009736
30
0
11
1.400048
21
4.068991
31
0
39
0
210
0
220
0
230
1
0
LINE
5
B4
100
AcDbEntity
8
1
62
256
6
ByLayer
370
18
48
1
60
0
100
AcDbLine
10
4.002825
20
14.529883
30
0
11
2.584865
21
14.279858
31
0
39
0
210
0
220
0
230
1
0
LINE
5
B5
100
AcDbEntity
8
1
62
256
6
ByLayer
370
18
48
1
60
0
100
AcDbLine
10
24.447649
20
12.50976
30
0
11
24.247532
21
12.630002
31
0
39
0
210
0
220
0
230
1
0
LINE
5
B6
100
AcDbEntity
8
1
62
256
6
ByLayer
370
18
48
1
60
0
100
AcDbLine
10
4.148705
20
1.073232
30
0
11
11.665899
21
2.398716
31
0
39
0
210
0
220
0
230
1
0
LINE
5
B7
100
AcDbEntity
8
1
62
256
6
ByLayer
370
18
48
1
60
0
100
AcDbLine
10
11.860442
20
1.295409
30
0
11
6.507322
21
0.351509
31
0
39
0
210
0
220
0
230
1
0
LINE
5
B8
100
AcDbEntity
8
1
62
256
6
ByLayer
370
18
48
1
60
0
100
AcDbLine
10
24.01087
20
12.736754
30
0
11
23.821871
21
12.885765
31
0
39
0
210
0
220
0
230
1
0
LINE
5
B9
100
AcDbEntity
8
1
62
256
6
ByLayer
370
18
48
1
60
0
100
AcDbLine
10
2.584865
20
14.279858
30
0
11
2.32065
21
14.23327
31
0
39
0
210
0
220
0
230
1
0
LINE
5
BA
100
AcDbEntity
8
1
62
256
6
ByLayer
370
18
48
1
60
0
100
AcDbLine
10
3.814438
20
4.545484
30
0
11
2.1066
21
4.244346
31
0
39
0
210
0
220
0
230
1
0
LINE
5
BB
100
AcDbEntity
8
1
62
256
6
ByLayer
370
18
48
1
60
0
100
AcDbLine
10
9.360647
20
15.472452
30
0
11
4.007527
21
14.528552
31
0
39
0
210
0
220
0
230
1
0
LINE
5
BC
100
AcDbEntity
8
1
62
256
6
ByLayer
370
18
48
1
60
0
100
AcDbLine
10
0.143663
20
9.229217
30
0
11
0.041092
21
9.058817
31
0
39
0
210
0
220
0
230
1
0
LINE
5
BD
100
AcDbEntity
8
1
62
256
6
ByLayer
370
18
48
1
60
0
100
AcDbLine
10
5.085399
20
0.098626
30
0
11
4.821183
21
0.052038
31
0
39
0
210
0
220
0
230
1
0
LINE
5
BE
100
AcDbEntity
8
1
62
256
6
ByLayer
370
18
48
1
60
0
100
AcDbLine
10
4.002825
20
14.529883
30
0
11
4.007527
21
14.528552
31
0
39
0
210
0
220
0
230
1
0
LINE
5
BF
100
AcDbEntity
8
1
62
256
6
ByLayer
370
18
48
1
60
0
100
AcDbLine
10
0.143663
20
9.229217
30
0
11
0.479713
21
9.288472
31
0
39
0
210
0
220
0
230
1
0
LINE
5
C0
100
AcDbEntity
8
1
62
256
6
ByLayer
370
18
48
1
60
0
100
AcDbLine
10
24.564849
20
8.672129
30
0
11
23.873134
21
7.817933
31
0
39
0
210
0
220
0
230
1
0
LINE
5
C1
100
AcDbEntity
8
1
62
256
6
ByLayer
370
13
48
1
60
0
100
AcDbLine
10
20.852618
20
15.601957
30
0
11
24.247039
21
17.184801
31
0
39
0
210
0
220
0
230
1
0
LINE
5
C2
100
AcDbEntity
8
1
62
256
6
ByLayer
370
13
48
1
60
0
100
AcDbLine
10
29.768301
20
11.663539
30
0
11
28.185457
21
8.269118
31
0
39
0
210
0
220
0
230
1
0
LINE
5
C3
100
AcDbEntity
8
1
62
256
6
ByLayer
370
13
48
1
60
0
100
AcDbLine
10
21.872369
20
3.912484
30
0
11
18.232659
21
2.215259
31
0
39
0
210
0
220
0
230
1
0
LINE
5
C4
100
AcDbEntity
8
1
62
256
6
ByLayer
370
13
48
1
60
0
100
AcDbLine
10
16.552878
20
1.765164
30
0
11
15.20545
21
1.647279
31
0
39
0
210
0
220
0
230
1
0
LINE
5
C5
100
AcDbEntity
8
1
62
256
6
ByLayer
370
13
48
1
60
0
100
AcDbLine
10
32.138361
20
18.58019
30
0
11
32.020477
21
17.232762
31
0
39
0
210
0
220
0
230
1
0
LINE
5
C6
100
AcDbEntity
8
1
62
256
6
ByLayer
370
13
48
1
60
0
100
AcDbLine
10
29.816262
20
19.436977
30
0
11
31.16369
21
19.554861
31
0
39
0
210
0
220
0
230
1
0
LINE
5
C7
100
AcDbEntity
8
1
62
256
6
ByLayer
370
13
48
1
60
0
100
AcDbLine
10
25.516522
20
5.600184
30
0
11
22.122101
21
4.017339
31
0
39
0
210
0
220
0
230
1
0
LINE
5
C8
100
AcDbEntity
8
1
62
256
6
ByLayer
370
13
48
1
60
0
100
AcDbLine
10
31.570381
20
15.552982
30
0
11
29.873156
21
11.913271
31
0
39
0
210
0
220
0
230
1
0
LINE
5
C9
100
AcDbEntity
8
1
62
256
6
ByLayer
370
13
48
1
60
0
100
AcDbLine
10
24.496771
20
17.289656
30
0
11
28.136482
21
18.986881
31
0
39
0
210
0
220
0
230
1
0
LINE
5
CA
100
AcDbEntity
8
2
62
256
6
ByLayer
370
18
48
1
60
1
100
AcDbLine
10
32.146
20
18.151295
30
0
11
32.146
21
18.150295
31
0
39
0
210
0
220
0
230
1
0
LINE
5
CC
100
AcDbEntity
8
2
62
256
6
ByLayer
370
18
48
1
60
1
100
AcDbLine
10
31.292843
20
16.755544
30
0
11
31.292421
21
16.754638
31
0
39
0
210
0
220
0
230
1
0
MTEXT
5
154
100
AcDbEntity
8
SK6
62
256
6
ByLayer
370
13
48
1
60
0
100
AcDbMText
10
-116.943743
20
-29.36476
30
0
210
0
220
0
230
1
1
\W0.7191;CP-25BR-2525-11
40
3.5
41
0
44
1.084337
50
0
71
7
72
5
7
iso_b_vert
0
DIMENSION
5
166
100
AcDbEntity
8
SK2
62
256
6
ByLayer
370
13
48
1
60
0
100
AcDbDimension
2
DimnDraft3D1
10
32.146
20
37.0625
30
0
11
-42.854
21
37.0625
31
0
70
32
71
5
72
1
41
1
210
0
220
0
230
1
3
Standard
100
AcDbAlignedDimension
13
-117.854
23
14.025
33
0
14
32.146
24
21.15
34
0
50
0
100
AcDbRotatedDimension
1001
ACAD
1000
DSTYLE
1002
{
1070
   279
1070
     0
1070
   172
1070
     1
1070
   173
1070
     1
1070
   340
1005
155
1070
   271
1070
     1
1070
   272
1070
     2
1070
    77
1070
     1
1070
    73
1070
     0
1070
   171
1070
     3
1070
   274
1070
     4
1070
   177
1070
   150
1070
   176
1070
     9
1070
   178
1070
    43
1070
    78
1070
     8
1070
    48
1040
-0.005
1070
    41
1041
3.175
1070
   147
1041
2.25
1070
    42
1041
1.5875
1070
    44
1041
3.175
1070
   140
1041
4.5
1070
   343
1005
167
1070
   344
1005
167
1002
}
0
DIMENSION
5
17B
100
AcDbEntity
8
SK2
62
256
6
ByLayer
370
13
48
1
60
0
100
AcDbDimension
2
DimnDraft3D2
10
-126.954
20
-12.4375
30
0
11
-126.954
21
0
31
0
70
32
71
5
72
1
41
1
210
0
220
0
230
1
3
Standard
100
AcDbAlignedDimension
13
-119.4415
23
12.4375
33
0
14
-119.4415
24
-12.4375
34
0
50
90
100
AcDbRotatedDimension
1001
ACAD
1000
DSTYLE
1002
{
1070
    74
1070
     0
1070
   279
1070
     0
1070
   172
1070
     1
1070
   173
1070
     1
1070
   340
1005
155
1070
   271
1070
     1
1070
   272
1070
     2
1070
    77
1070
     1
1070
    73
1070
     0
1070
   171
1070
     3
1070
   274
1070
     4
1070
   177
1070
   150
1070
   176
1070
     9
1070
   178
1070
    43
1070
    78
1070
     8
1070
    48
1040
-0.005
1070
    41
1041
3.175
1070
   147
1041
2.25
1070
    42
1041
1.5875
1070
    44
1041
3.175
1070
   140
1041
4.5
1070
   343
1005
167
1070
   344
1005
167
1002
}
0
DIMENSION
5
189
100
AcDbEntity
8
2
62
256
6
ByLayer
370
13
48
1
60
0
100
AcDbDimension
2
DimnDraft3D3
10
52.996
20
19.5625
30
0
11
52.996
21
3.5625
31
0
70
32
71
5
72
1
41
1
210
0
220
0
230
1
3
Standard
100
AcDbAlignedDimension
13
1.5875
23
-12.4375
33
0
14
33.7335
24
19.5625
34
0
50
90
100
AcDbRotatedDimension
1001
ACAD
1000
DSTYLE
1002
{
1070
    74
1070
     0
1070
   279
1070
     0
1070
   172
1070
     1
1070
   173
1070
     1
1070
   340
1005
155
1070
   271
1070
     1
1070
   272
1070
     2
1070
    77
1070
     1
1070
    73
1070
     0
1070
   171
1070
     3
1070
   274
1070
     4
1070
   177
1070
   150
1070
   176
1070
     9
1070
   178
1070
    43
1070
    78
1070
     8
1070
    48
1040
-0.005
1070
    41
1041
3.175
1070
   147
1041
2.25
1070
    42
1041
1.5875
1070
    44
1041
3.175
1070
   140
1041
4.5
1070
   343
1005
167
1070
   344
1005
167
1002
}
0
DIMENSION
5
197
100
AcDbEntity
8
2
62
256
6
ByLayer
370
13
48
1
60
0
100
AcDbDimension
2
DimnDraft3D4
10
31.292421
20
16.754638
30
0
11
24.274526
21
-16.920782
31
0
70
34
71
5
72
1
41
1
210
0
220
0
230
1
3
Standard
100
AcDb2LineAngularDimension
13
32.146
23
18.151295
33
0
14
32.146
24
18.150295
34
0
15
31.292843
25
16.755544
35
0
16
23.300547
26
-21.314114
36
0
40
0
0
ENDSEC
0
SECTION
2
OBJECTS
0
DICTIONARY
5
201
330
0
100
AcDbDictionary
280
0
281
1
3
ACAD_GROUP
350
202
3
ACAD_MLINESTYLE
350
203
0
DICTIONARY
5
202
330
0
100
AcDbDictionary
280
0
281
1
0
DICTIONARY
5
203
330
0
100
AcDbDictionary
280
0
281
1
3
Standard
350
18
0
MLINESTYLE
5
18
330
203
100
AcDbMlineStyle
2
Standard
70
0
3

62
256
51
90
52
90
71
2
49
-0.5
62
256
6
ByLayer
49
0.5
62
256
6
ByLayer
0
RASTERVARIABLES
5
1f0
330

100
AcDbRasterVariables
90
0
70
1
71
1
72
1
0
ENDSEC
0
EOF
