0
SECTION
2
HEADER
9
$ACADVER
1
AC1015
9
$DWGCODEPAGE
3
ANSI_1252
9
$HANDSEED
5
19a
9
$ANGBASE
50
0
9
$ANGDIR
70
0
9
$ATTMODE
70
1
9
$AUNITS
70
0
9
$AUPREC
70
0
9
$CECOLOR
62
256
9
$CELTSCALE
40
1
9
$CELTYPE
6
ByLayer
9
$CELWEIGHT
370
18
9
$CLAYER
8
0
9
$CMLJUST
70
0
9
$CMLSCALE
40
1
9
$CMLSTYLE
2
Standard
9
$DIMSTYLE
2
Standard
9
$TEXTSIZE
40
0.2
9
$TEXTSTYLE
7
Standard
9
$LUNITS
70
2
9
$LUPREC
70
4
9
$EXTNAMES
290
1
9
$INSUNITS
70
4
9
$LTSCALE
40
1
9
$LWDISPLAY
290
1
9
$PDMODE
70
0
9
$PDSIZE
40
0
9
$PLINEGEN
70
0
0
ENDSEC
0
SECTION
2
CLASSES
0
CLASS
1
RASTERVARIABLES
2
AcDbRasterVariables
3
ISM
90
0
280
0
281
0
0
ENDSEC
0
SECTION
2
TABLES
0
TABLE
2
VPORT
5
190
100
AcDbSymbolTable
0
VPORT
5
1
100
AcDbSymbolTableRecord
100
AcDbViewportTableRecord
2
*Active
70
0
10
0
20
0
11
1
21
1
12
-1
22
1
13
0
23
0
14
0.5
24
0.5
15
10
25
10
16
0
26
0
36
1
17
0
27
0
37
0
0
ENDTAB
0
TABLE
2
LTYPE
5
191
100
AcDbSymbolTable
0
LTYPE
5
14
100
AcDbSymbolTableRecord
100
AcDbLinetypeTableRecord
70
0
2
ByBlock
3

72
65
73
0
40
0
0
LTYPE
5
15
100
AcDbSymbolTableRecord
100
AcDbLinetypeTableRecord
70
0
2
ByLayer
3

72
65
73
0
40
0
0
LTYPE
5
16
100
AcDbSymbolTableRecord
100
AcDbLinetypeTableRecord
70
0
2
CONTINUOUS
3
Solid line
72
65
73
0
40
0
0
LTYPE
5
6A
100
AcDbSymbolTableRecord
100
AcDbLinetypeTableRecord
70
0
2
CENTER
3
____ _ ____ _ ____ _ ____
72
65
73
4
40
47.5
49
22
74
0
49
-8.5
74
0
49
8.5
74
0
49
-8.5
74
0
0
LTYPE
5
6B
100
AcDbSymbolTableRecord
100
AcDbLinetypeTableRecord
70
0
2
DASHED
3
__ __ __ __ __ __ __ __ __
72
65
73
2
40
25.72
49
12.86
74
0
49
-12.86
74
0
0
ENDTAB
0
TABLE
2
LAYER
5
192
100
AcDbSymbolTable
0
LAYER
5
10
100
AcDbSymbolTableRecord
100
AcDbLayerTableRecord
2
0
70
0
62
7
6
CONTINUOUS
290
1
370
-3
390
0
0
LAYER
5
6D
100
AcDbSymbolTableRecord
100
AcDbLayerTableRecord
2
80
70
0
62
-6
6
CONTINUOUS
290
1
370
-3
390
0
0
LAYER
5
6F
100
AcDbSymbolTableRecord
100
AcDbLayerTableRecord
2
81
70
0
62
-3
6
CONTINUOUS
290
1
370
-3
390
0
0
LAYER
5
73
100
AcDbSymbolTableRecord
100
AcDbLayerTableRecord
2
1
70
0
62
4
6
CONTINUOUS
290
1
370
-3
390
0
0
LAYER
5
9C
100
AcDbSymbolTableRecord
100
AcDbLayerTableRecord
2
2
70
0
62
7
6
CONTINUOUS
290
1
370
-3
390
0
0
LAYER
5
17d
100
AcDbSymbolTableRecord
100
AcDbLayerTableRecord
2
SK1
70
0
62
4
6
CONTINUOUS
290
1
370
-3
390
0
0
LAYER
5
17e
100
AcDbSymbolTableRecord
100
AcDbLayerTableRecord
2
SK6
70
0
62
5
6
CONTINUOUS
290
1
370
-3
390
0
0
LAYER
5
17f
100
AcDbSymbolTableRecord
100
AcDbLayerTableRecord
2
SK2
70
0
62
7
6
CONTINUOUS
290
1
370
-3
390
0
0
ENDTAB
0
TABLE
2
STYLE
5
193
100
AcDbSymbolTable
0
STYLE
5
11
100
AcDbSymbolTableRecord
100
AcDbTextStyleTableRecord
2
Standard
3
txt
70
0
71
0
40
0
41
1
42
0
50
0
0
STYLE
5
E1
100
AcDbSymbolTableRecord
100
AcDbTextStyleTableRecord
2
iso_b_vert
3
simplex.shx
70
0
71
0
40
0
41
1
42
0
50
0
0
STYLE
5
E2
100
AcDbSymbolTableRecord
100
AcDbTextStyleTableRecord
2
DWGDirectTextStyle
3
simplex
70
0
71
0
40
0
41
1
42
0
50
0
0
ENDTAB
0
TABLE
2
DIMSTYLE
5
194
100
AcDbSymbolTable
100
AcDbDimStyleTable
0
DIMSTYLE
105
27
100
AcDbSymbolTableRecord
100
AcDbDimStyleTableRecord
2
Standard
70
0
3
<>
41
0.18
42
0.0625
44
0.18
140
0.18
147
0.09
73
0
74
0
77
1
271
2
275
0
278
52
280
0
340
11
0
ENDTAB
0
TABLE
2
VIEW
5
195
100
AcDbSymbolTable
0
ENDTAB
0
TABLE
2
UCS
5
196
100
AcDbSymbolTable
0
ENDTAB
0
TABLE
2
APPID
5
197
100
AcDbSymbolTable
0
APPID
5
12
100
AcDbSymbolTableRecord
100
AcDbRegAppTableRecord
2
ACAD
70
0
0
ENDTAB
0
TABLE
2
BLOCK_RECORD
5
198
100
AcDbSymbolTable
0
BLOCK_RECORD
5
1F
100
AcDbSymbolTableRecord
100
AcDbBlockTableRecord
2
*Model_Space
340
0
70
0
0
BLOCK_RECORD
5
1B
100
AcDbSymbolTableRecord
100
AcDbBlockTableRecord
2
*Paper_Space
340
0
70
0
0
BLOCK_RECORD
5
23
100
AcDbSymbolTableRecord
100
AcDbBlockTableRecord
2
*Paper_Space0
340
0
70
0
0
BLOCK_RECORD
5
E4
100
AcDbSymbolTableRecord
100
AcDbBlockTableRecord
2
DimnDraft3D1
340
0
70
0
0
BLOCK_RECORD
5
F3
100
AcDbSymbolTableRecord
100
AcDbBlockTableRecord
2
_CLOSED
340
0
70
0
0
BLOCK_RECORD
5
FA
100
AcDbSymbolTableRecord
100
AcDbBlockTableRecord
2
DimnDraft3D2
340
0
70
0
0
BLOCK_RECORD
5
108
100
AcDbSymbolTableRecord
100
AcDbBlockTableRecord
2
DimnDraft3D3
340
0
70
0
0
BLOCK_RECORD
5
116
100
AcDbSymbolTableRecord
100
AcDbBlockTableRecord
2
DimnDraft3D4
340
0
70
0
0
ENDTAB
0
ENDSEC
0
SECTION
2
BLOCKS
0
BLOCK
5
20
100
AcDbEntity
8
0
100
AcDbBlockBegin
2
*Model_Space
70
0
10
0
20
0
30
0
3
*Model_Space
0
ENDBLK
5
21
100
AcDbEntity
8
0
100
AcDbBlockEnd
0
BLOCK
5
1C
100
AcDbEntity
8
0
100
AcDbBlockBegin
2
*Paper_Space
70
0
10
0
20
0
30
0
3
*Paper_Space
0
ENDBLK
5
1D
100
AcDbEntity
8
0
100
AcDbBlockEnd
0
BLOCK
5
24
100
AcDbEntity
8
0
100
AcDbBlockBegin
2
*Paper_Space0
70
0
10
0
20
0
30
0
3
*Paper_Space0
0
ENDBLK
5
25
100
AcDbEntity
8
0
100
AcDbBlockEnd
0
BLOCK
5
F0
100
AcDbEntity
8
0
100
AcDbBlockBegin
2
DimnDraft3D1
70
0
10
0
20
0
30
0
3
DimnDraft3D1
0
MTEXT
5
E5
100
AcDbEntity
8
SK2
62
256
6
ByLayer
370
13
48
1
60
0
100
AcDbMText
10
-56.568658
20
38.1875
30
0
210
0
220
0
230
1
1
\W0.6864;150.0
40
4.5
41
0
44
1.084337
50
0
71
7
72
5
7
iso_b_vert
0
LINE
5
E7
100
AcDbEntity
8
SK2
62
256
6
ByLayer
370
13
48
1
60
0
100
AcDbLine
10
-126.293
20
14.025
30
0
11
-126.293
21
40.2375
31
0
39
0
210
0
220
0
230
1
0
LINE
5
E8
100
AcDbEntity
8
SK2
62
256
6
ByLayer
370
13
48
1
60
0
100
AcDbLine
10
23.707
20
21.15
30
0
11
23.707
21
40.2375
31
0
39
0
210
0
220
0
230
1
0
LINE
5
E9
100
AcDbEntity
8
SK2
62
256
6
ByLayer
370
13
48
1
60
0
100
AcDbLine
10
-126.293
20
37.0625
30
0
11
23.707
21
37.0625
31
0
39
0
210
0
220
0
230
1
0
LINE
5
EA
100
AcDbEntity
8
SK2
62
256
6
ByLayer
370
13
48
1
60
0
100
AcDbLine
10
-126.293
20
37.0625
30
0
11
-123.118003
21
37.913239
31
0
39
0
210
0
220
0
230
1
0
LINE
5
EB
100
AcDbEntity
8
SK2
62
256
6
ByLayer
370
13
48
1
60
0
100
AcDbLine
10
-126.293
20
37.0625
30
0
11
-123.117997
21
36.211761
31
0
39
0
210
0
220
0
230
1
0
LINE
5
EC
100
AcDbEntity
8
SK2
62
256
6
ByLayer
370
13
48
1
60
0
100
AcDbLine
10
-123.118003
20
37.913239
30
0
11
-123.117997
21
36.211761
31
0
39
0
210
0
220
0
230
1
0
LINE
5
ED
100
AcDbEntity
8
SK2
62
256
6
ByLayer
370
13
48
1
60
0
100
AcDbLine
10
23.707
20
37.0625
30
0
11
20.532003
21
36.211761
31
0
39
0
210
0
220
0
230
1
0
LINE
5
EE
100
AcDbEntity
8
SK2
62
256
6
ByLayer
370
13
48
1
60
0
100
AcDbLine
10
23.707
20
37.0625
30
0
11
20.531997
21
37.913239
31
0
39
0
210
0
220
0
230
1
0
LINE
5
EF
100
AcDbEntity
8
SK2
62
256
6
ByLayer
370
13
48
1
60
0
100
AcDbLine
10
20.532003
20
36.211761
30
0
11
20.531997
21
37.913239
31
0
39
0
210
0
220
0
230
1
0
ENDBLK
5
F1
100
AcDbEntity
8
0
100
AcDbBlockEnd
0
BLOCK
5
F4
100
AcDbEntity
8
0
100
AcDbBlockBegin
2
_CLOSED
70
0
10
0
20
0
30
0
3
_CLOSED
0
LINE
5
F6
100
AcDbEntity
8
0
62
256
6
ByLayer
370
-2
48
1
60
0
100
AcDbLine
10
-1
20
0.166667
30
0
11
0
21
0
31
0
39
0
210
0
220
0
230
1
0
LINE
5
F7
100
AcDbEntity
8
0
62
256
6
ByLayer
370
-2
48
1
60
0
100
AcDbLine
10
0
20
0
30
0
11
-1
21
-0.166667
31
0
39
0
210
0
220
0
230
1
0
LINE
5
F8
100
AcDbEntity
8
0
62
256
6
ByLayer
370
-2
48
1
60
0
100
AcDbLine
10
-1
20
0.166667
30
0
11
-1
21
-0.166667
31
0
39
0
210
0
220
0
230
1
0
LINE
5
F9
100
AcDbEntity
8
0
62
256
6
ByLayer
370
-2
48
1
60
0
100
AcDbLine
10
0
20
0
30
0
11
-1
21
0
31
0
39
0
210
0
220
0
230
1
0
ENDBLK
5
F5
100
AcDbEntity
8
0
100
AcDbBlockEnd
0
BLOCK
5
105
100
AcDbEntity
8
0
100
AcDbBlockBegin
2
DimnDraft3D2
70
0
10
0
20
0
30
0
3
DimnDraft3D2
0
MTEXT
5
FB
100
AcDbEntity
8
SK2
62
256
6
ByLayer
370
13
48
1
60
0
100
AcDbMText
10
-136.518
20
-4.156579
30
0
210
0
220
0
230
1
1
\W0.7346;25.0
40
4.5
41
0
44
1.084337
50
90
71
7
72
5
7
iso_b_vert
0
LINE
5
FC
100
AcDbEntity
8
SK2
62
256
6
ByLayer
370
13
48
1
60
0
100
AcDbLine
10
-127.8805
20
12.4375
30
0
11
-138.568
21
12.4375
31
0
39
0
210
0
220
0
230
1
0
LINE
5
FD
100
AcDbEntity
8
SK2
62
256
6
ByLayer
370
13
48
1
60
0
100
AcDbLine
10
-127.8805
20
-12.4375
30
0
11
-138.568
21
-12.4375
31
0
39
0
210
0
220
0
230
1
0
LINE
5
FE
100
AcDbEntity
8
SK2
62
256
6
ByLayer
370
13
48
1
60
0
100
AcDbLine
10
-135.393
20
12.4375
30
0
11
-135.393
21
-12.4375
31
0
39
0
210
0
220
0
230
1
0
LINE
5
FF
100
AcDbEntity
8
SK2
62
256
6
ByLayer
370
13
48
1
60
0
100
AcDbLine
10
-135.393
20
12.4375
30
0
11
-134.542261
21
9.262503
31
0
39
0
210
0
220
0
230
1
0
LINE
5
100
100
AcDbEntity
8
SK2
62
256
6
ByLayer
370
13
48
1
60
0
100
AcDbLine
10
-135.393
20
12.4375
30
0
11
-136.243739
21
9.262497
31
0
39
0
210
0
220
0
230
1
0
LINE
5
101
100
AcDbEntity
8
SK2
62
256
6
ByLayer
370
13
48
1
60
0
100
AcDbLine
10
-134.542261
20
9.262503
30
0
11
-136.243739
21
9.262497
31
0
39
0
210
0
220
0
230
1
0
LINE
5
102
100
AcDbEntity
8
SK2
62
256
6
ByLayer
370
13
48
1
60
0
100
AcDbLine
10
-135.393
20
-12.4375
30
0
11
-136.243739
21
-9.262503
31
0
39
0
210
0
220
0
230
1
0
LINE
5
103
100
AcDbEntity
8
SK2
62
256
6
ByLayer
370
13
48
1
60
0
100
AcDbLine
10
-135.393
20
-12.4375
30
0
11
-134.542261
21
-9.262497
31
0
39
0
210
0
220
0
230
1
0
LINE
5
104
100
AcDbEntity
8
SK2
62
256
6
ByLayer
370
13
48
1
60
0
100
AcDbLine
10
-136.243739
20
-9.262503
30
0
11
-134.542261
21
-9.262497
31
0
39
0
210
0
220
0
230
1
0
ENDBLK
5
106
100
AcDbEntity
8
0
100
AcDbBlockEnd
0
BLOCK
5
113
100
AcDbEntity
8
0
100
AcDbBlockBegin
2
DimnDraft3D3
70
0
10
0
20
0
30
0
3
DimnDraft3D3
0
MTEXT
5
109
100
AcDbEntity
8
2
62
256
6
ByLayer
370
13
48
1
60
0
100
AcDbMText
10
43.432
20
-0.594079
30
0
210
0
220
0
230
1
1
\W0.7346;32.0
40
4.5
41
0
44
1.084337
50
90
71
7
72
5
7
iso_b_vert
0
LINE
5
10A
100
AcDbEntity
8
2
62
256
6
ByLayer
370
13
48
1
60
0
100
AcDbLine
10
1.5875
20
-12.4375
30
0
11
47.732
21
-12.4375
31
0
39
0
210
0
220
0
230
1
0
LINE
5
10B
100
AcDbEntity
8
2
62
256
6
ByLayer
370
13
48
1
60
0
100
AcDbLine
10
25.2945
20
19.5625
30
0
11
47.732
21
19.5625
31
0
39
0
210
0
220
0
230
1
0
LINE
5
10C
100
AcDbEntity
8
2
62
256
6
ByLayer
370
13
48
1
60
0
100
AcDbLine
10
44.557
20
-12.4375
30
0
11
44.557
21
19.5625
31
0
39
0
210
0
220
0
230
1
0
LINE
5
10D
100
AcDbEntity
8
2
62
256
6
ByLayer
370
13
48
1
60
0
100
AcDbLine
10
44.557
20
-12.4375
30
0
11
43.706261
21
-9.262503
31
0
39
0
210
0
220
0
230
1
0
LINE
5
10E
100
AcDbEntity
8
2
62
256
6
ByLayer
370
13
48
1
60
0
100
AcDbLine
10
44.557
20
-12.4375
30
0
11
45.407739
21
-9.262497
31
0
39
0
210
0
220
0
230
1
0
LINE
5
10F
100
AcDbEntity
8
2
62
256
6
ByLayer
370
13
48
1
60
0
100
AcDbLine
10
43.706261
20
-9.262503
30
0
11
45.407739
21
-9.262497
31
0
39
0
210
0
220
0
230
1
0
LINE
5
110
100
AcDbEntity
8
2
62
256
6
ByLayer
370
13
48
1
60
0
100
AcDbLine
10
44.557
20
19.5625
30
0
11
45.407739
21
16.387503
31
0
39
0
210
0
220
0
230
1
0
LINE
5
111
100
AcDbEntity
8
2
62
256
6
ByLayer
370
13
48
1
60
0
100
AcDbLine
10
44.557
20
19.5625
30
0
11
43.706261
21
16.387497
31
0
39
0
210
0
220
0
230
1
0
LINE
5
112
100
AcDbEntity
8
2
62
256
6
ByLayer
370
13
48
1
60
0
100
AcDbLine
10
45.407739
20
16.387503
30
0
11
43.706261
21
16.387497
31
0
39
0
210
0
220
0
230
1
0
ENDBLK
5
114
100
AcDbEntity
8
0
100
AcDbBlockEnd
0
BLOCK
5
121
100
AcDbEntity
8
0
100
AcDbBlockBegin
2
DimnDraft3D4
70
0
10
0
20
0
30
0
3
DimnDraft3D4
0
MTEXT
5
117
100
AcDbEntity
8
2
62
256
6
ByLayer
370
13
48
1
60
0
100
AcDbMText
10
11.046991
20
-19.316133
30
0
210
0
220
0
230
1
1
\W0.7346;30.0
40
4.5
41
0
44
1.084337
50
347.500000000422
71
7
72
5
7
iso_b_vert
0
LINE
5
118
100
AcDbEntity
8
2
62
256
6
ByLayer
370
13
48
1
60
0
100
AcDbLine
10
23.707
20
16.562795
30
0
11
23.707
21
-25.457849
31
0
39
0
210
0
220
0
230
1
0
LINE
5
119
100
AcDbEntity
8
2
62
256
6
ByLayer
370
13
48
1
60
0
100
AcDbLine
10
21.01521
20
12.812582
30
0
11
5.093627
21
-21.331363
31
0
39
0
210
0
220
0
230
1
0
ARC
5
11A
100
AcDbEntity
8
2
62
256
6
ByLayer
370
13
48
1
60
0
100
AcDbCircle
39
0
10
23.707
20
18.585144
30
0
40
40.8679927987038
210
0
220
0
230
1
100
AcDbArc
50
229.609019
51
285.390981
0
LINE
5
11B
100
AcDbEntity
8
2
62
256
6
ByLayer
370
13
48
1
60
0
100
AcDbLine
10
23.707
20
-22.282849
30
0
11
26.864885
21
-21.370639
31
0
39
0
210
0
220
0
230
1
0
LINE
5
11C
100
AcDbEntity
8
2
62
256
6
ByLayer
370
13
48
1
60
0
100
AcDbLine
10
23.707
20
-22.282849
30
0
11
26.897919
21
-23.071796
31
0
39
0
210
0
220
0
230
1
0
LINE
5
11D
100
AcDbEntity
8
2
62
256
6
ByLayer
370
13
48
1
60
0
100
AcDbLine
10
26.864885
20
-21.370639
30
0
11
26.897919
21
-23.071796
31
0
39
0
210
0
220
0
230
1
0
LINE
5
11E
100
AcDbEntity
8
2
62
256
6
ByLayer
370
13
48
1
60
0
100
AcDbLine
10
6.43544
20
-18.453836
30
0
11
3.210067
21
-17.820327
31
0
39
0
210
0
220
0
230
1
0
LINE
5
11F
100
AcDbEntity
8
2
62
256
6
ByLayer
370
13
48
1
60
0
100
AcDbLine
10
6.43544
20
-18.453836
30
0
11
3.958935
21
-16.292511
31
0
39
0
210
0
220
0
230
1
0
LINE
5
120
100
AcDbEntity
8
2
62
256
6
ByLayer
370
13
48
1
60
0
100
AcDbLine
10
3.210067
20
-17.820327
30
0
11
3.958935
21
-16.292511
31
0
39
0
210
0
220
0
230
1
0
ENDBLK
5
122
100
AcDbEntity
8
0
100
AcDbBlockEnd
0
ENDSEC
0
SECTION
2
ENTITIES
0
ARC
5
9E
100
AcDbEntity
8
1
62
256
6
ByLayer
370
18
48
1
60
0
100
AcDbCircle
39
0
10
0.621232
20
13.9375
30
0
40
1.5
210
0
220
0
230
-1
100
AcDbArc
50
225
51
245.533925
0
ARC
5
9F
100
AcDbEntity
8
SK1
62
256
6
ByLayer
370
18
48
1
60
0
100
AcDbCircle
39
0
10
0.621232
20
13.9375
30
0
40
1.5
210
0
220
0
230
-1
100
AcDbArc
50
245.533925
51
270
0
ARC
5
A0
100
AcDbEntity
8
1
62
256
6
ByLayer
370
18
48
1
60
0
100
AcDbCircle
39
0
10
-14.09668
20
10.68933
30
0
40
1.6764
210
0
220
0
230
-1
100
AcDbArc
50
287.5
51
347.5
0
ARC
5
A1
100
AcDbEntity
8
1
62
256
6
ByLayer
370
18
48
1
60
0
100
AcDbCircle
39
0
10
14.09668
20
10.68933
30
0
40
1.2903
210
0
220
0
230
1
100
AcDbArc
50
342.5
51
42.5
0
ARC
5
A3
100
AcDbEntity
8
1
62
256
6
ByLayer
370
18
48
1
60
0
100
AcDbCircle
39
0
10
14.09668
20
10.68933
30
0
40
1.2903
210
0
220
0
230
1
100
AcDbArc
50
222.5
51
282.5
0
ARC
5
A4
100
AcDbEntity
8
1
62
256
6
ByLayer
370
18
48
1
60
0
100
AcDbCircle
39
0
10
-14.09668
20
10.68933
30
0
40
1.6764
210
0
220
0
230
-1
100
AcDbArc
50
107.5
51
167.5
0
ARC
5
A6
100
AcDbEntity
8
1
62
256
6
ByLayer
370
18
48
1
60
0
100
AcDbCircle
39
0
10
-14.09668
20
10.68933
30
0
40
1.6764
210
0
220
0
230
-1
100
AcDbArc
50
227.5
51
287.5
0
ARC
5
A7
100
AcDbEntity
8
1
62
256
6
ByLayer
370
18
48
1
60
0
100
AcDbCircle
39
0
10
-14.09668
20
10.68933
30
0
40
1.6764
210
0
220
0
230
-1
100
AcDbArc
50
347.5
51
47.5
0
ARC
5
A8
100
AcDbEntity
8
1
62
256
6
ByLayer
370
18
48
1
60
0
100
AcDbCircle
39
0
10
-14.09668
20
10.68933
30
0
40
1.2903
210
0
220
0
230
-1
100
AcDbArc
50
77.5
51
137.5
0
ARC
5
A9
100
AcDbEntity
8
1
62
256
6
ByLayer
370
18
48
1
60
0
100
AcDbCircle
39
0
10
14.09668
20
10.68933
30
0
40
1.2903
210
0
220
0
230
1
100
AcDbArc
50
102.5
51
162.5
0
ARC
5
AA
100
AcDbEntity
8
1
62
256
6
ByLayer
370
18
48
1
60
0
100
AcDbCircle
39
0
10
14.09668
20
10.68933
30
0
40
1.2903
210
0
220
0
230
1
100
AcDbArc
50
162.5
51
222.5
0
ARC
5
AB
100
AcDbEntity
8
1
62
256
6
ByLayer
370
18
48
1
60
0
100
AcDbCircle
39
0
10
-14.09668
20
10.68933
30
0
40
1.6764
210
0
220
0
230
-1
100
AcDbArc
50
47.5
51
107.5
0
ARC
5
AC
100
AcDbEntity
8
1
62
256
6
ByLayer
370
18
48
1
60
0
100
AcDbCircle
39
0
10
14.09668
20
10.68933
30
0
40
1.2903
210
0
220
0
230
1
100
AcDbArc
50
282.5
51
342.5
0
ARC
5
AD
100
AcDbEntity
8
1
62
256
6
ByLayer
370
18
48
1
60
0
100
AcDbCircle
39
0
10
-14.09668
20
10.68933
30
0
40
1.6764
210
0
220
0
230
-1
100
AcDbArc
50
167.5
51
227.5
0
ARC
5
B0
100
AcDbEntity
8
1
62
256
6
ByLayer
370
13
48
1
60
0
100
AcDbCircle
39
0
10
6.598779
20
-1.110674
30
0
40
8
210
0
220
0
230
1
100
AcDbArc
50
30
51
42.5
0
ARC
5
B1
100
AcDbEntity
8
1
62
256
6
ByLayer
370
13
48
1
60
0
100
AcDbCircle
39
0
10
7.626529
20
23.082705
30
0
40
8
210
0
220
0
230
1
100
AcDbArc
50
270
51
282.5
0
ARC
5
B2
100
AcDbEntity
8
1
62
256
6
ByLayer
370
13
48
1
60
0
100
AcDbCircle
39
0
10
1.688094
20
4.248398
30
0
40
8
210
0
220
0
230
1
100
AcDbArc
50
42.5
51
55
0
ARC
5
B3
100
AcDbEntity
8
1
62
256
6
ByLayer
370
13
48
1
60
0
100
AcDbCircle
39
0
10
25.878984
20
3.163645
30
0
40
8
210
0
220
0
230
1
100
AcDbArc
50
162.5
51
175
0
ARC
5
B4
100
AcDbEntity
8
1
62
256
6
ByLayer
370
13
48
1
60
0
100
AcDbCircle
39
0
10
14.722963
20
24.655946
30
0
40
8
210
0
220
0
230
1
100
AcDbArc
50
282.5
51
295
0
ARC
5
B6
100
AcDbEntity
8
1
62
256
6
ByLayer
370
13
48
1
60
0
100
AcDbCircle
39
0
10
-2.69995
20
14.282705
30
0
40
0.8
210
0
220
0
230
-1
100
AcDbArc
50
305
51
90
0
ARC
5
B7
100
AcDbEntity
8
1
62
256
6
ByLayer
370
13
48
1
60
0
100
AcDbCircle
39
0
10
-22.907
20
18.7625
30
0
40
0.8
210
0
220
0
230
-1
100
AcDbArc
50
65
51
210
0
ARC
5
B8
100
AcDbEntity
8
1
62
256
6
ByLayer
370
13
48
1
60
0
100
AcDbCircle
39
0
10
-16.683091
20
-0.977216
30
0
40
0.8
210
0
220
0
230
-1
100
AcDbArc
50
185
51
330
0
ARC
5
B9
100
AcDbEntity
8
1
62
256
6
ByLayer
370
13
48
1
60
0
100
AcDbCircle
39
0
10
28.064734
20
10.095958
30
0
40
8
210
0
220
0
230
1
100
AcDbArc
50
150
51
162.5
0
CIRCLE
5
A2
100
AcDbEntity
8
1
62
256
6
ByLayer
370
18
48
1
60
0
100
AcDbCircle
10
14.09668
20
10.68933
30
0
40
1.8
39
0
210
0
220
0
230
1
0
CIRCLE
5
A5
100
AcDbEntity
8
1
62
256
6
ByLayer
370
18
48
1
60
0
100
AcDbCircle
10
14.09668
20
10.68933
30
0
40
2.625
39
0
210
0
220
0
230
1
0
CIRCLE
5
AE
100
AcDbEntity
8
1
62
256
6
ByLayer
370
13
48
1
60
0
100
AcDbCircle
10
-14.09668
20
10.68933
30
0
40
3
39
0
210
0
220
0
230
-1
0
CIRCLE
5
AF
100
AcDbEntity
8
1
62
256
6
ByLayer
370
13
48
1
60
0
100
AcDbCircle
10
14.09668
20
10.68933
30
0
40
3.06293413074916
39
0
210
0
220
0
230
1
0
CIRCLE
5
B5
100
AcDbEntity
8
1
62
256
6
ByLayer
370
13
48
1
60
0
100
AcDbCircle
10
-14.09668
20
10.68933
30
0
40
2.87330486655119
39
0
210
0
220
0
230
-1
0
ELLIPSE
5
BA
100
AcDbEntity
8
1
62
256
6
ByLayer
370
18
48
1
60
0
100
AcDbEllipse
10
9.194161
20
8.837671
30
0
11
0.580702955710919
21
0.814115518356255
31
0
210
0
220
0
230
1
40
0.082518
41
2.25900058762319
42
2.5369969212795
0
ELLIPSE
5
BB
100
AcDbEntity
8
1
62
256
6
ByLayer
370
18
48
1
60
0
100
AcDbEllipse
10
11.824786
20
5.966848
30
0
11
-0.861629160441487
21
-0.507538362960644
31
0
210
0
220
0
230
1
40
0.082518
41
0.604595897445674
42
0.882592188078916
0
POINT
5
6C
100
AcDbEntity
8
80
62
256
6
ByLayer
370
18
48
1
60
0
100
AcDbPoint
10
0
20
0
30
0
39
0
210
0
220
0
230
1
50
360
0
POINT
5
6E
100
AcDbEntity
8
81
62
256
6
ByLayer
370
18
48
1
60
0
100
AcDbPoint
10
23.707
20
19.5625
30
0
39
0
210
0
220
0
230
1
50
360
0
SPLINE
5
BC
100
AcDbEntity
8
1
62
256
6
ByLayer
370
18
48
1
60
0
100
AcDbSpline
70
4
71
3
72
12
73
8
40
0
40
0
40
0
40
0
40
0.597164015020261
40
0.597164015020261
40
0.895746022530364
40
0.895746022530364
40
1
40
1
40
1
40
1
41
1
10
8.93711923874974
20
7.99597531852419
30
0
41
1
10
8.91592373598547
20
8.03130916004969
30
0
41
1
10
8.90264905473066
20
8.07096504287958
30
0
41
1
10
8.89824074565536
20
8.1365683452585
30
0
41
1
10
8.89947898811045
20
8.15893800293924
30
0
41
1
10
8.9056794006234
20
8.18937728196798
30
0
41
1
10
8.90771379894579
20
8.19731479675914
30
0
41
1
10
8.91020883472015
20
8.20523526677007
30
0
0
SPLINE
5
BD
100
AcDbEntity
8
1
62
256
6
ByLayer
370
18
48
1
60
0
100
AcDbSpline
70
4
71
3
72
12
73
8
40
0
40
0
40
0
40
0
40
0.104253977466944
40
0.104253977466944
40
0.402835984977964
40
0.402835984977964
40
1
40
1
40
1
40
1
41
1
10
11.1700081163106
20
5.7390971000591
30
0
41
1
10
11.1619003293834
20
5.7373018730959
30
0
41
1
10
11.1538157097359
20
5.73596701627059
30
0
41
1
10
11.122951859796
20
5.73244315617166
30
0
41
1
10
11.1005594054754
20
5.73315926973311
30
0
41
1
10
11.0355899529201
20
5.74326850840706
30
0
41
1
10
10.9972419374012
20
5.75994891341432
30
0
41
1
10
10.9638898615967
20
5.78414330809375
30
0
0
SPLINE
5
BE
100
AcDbEntity
8
1
62
256
6
ByLayer
370
18
48
1
60
0
100
AcDbSpline
70
4
71
3
72
8
73
4
40
0
40
0
40
0
40
0
40
1
40
1
40
1
40
1
41
1
10
8.97448357724613
20
7.94577247025657
30
0
41
1
10
8.96047117950661
20
7.9610643190301
30
0
41
1
10
8.94802205349811
20
7.97779984362336
30
0
41
1
10
8.93711923874969
20
7.99597531852419
30
0
0
SPLINE
5
BF
100
AcDbEntity
8
1
62
256
6
ByLayer
370
18
48
1
60
0
100
AcDbSpline
70
4
71
3
72
8
73
4
40
0
40
0
40
0
40
0
40
1
40
1
40
1
40
1
41
1
10
10.9638898615967
20
5.78414330809375
30
0
41
1
10
10.9467337927826
20
5.79658873135517
30
0
41
1
10
10.9311469647369
20
5.81044908175687
30
0
41
1
10
10.9171345669973
20
5.82574093053043
30
0
0
SPLINE
5
C0
100
AcDbEntity
8
1
62
256
6
ByLayer
370
18
48
1
60
0
100
AcDbSpline
70
4
71
3
72
10
73
6
40
0
40
0
40
0
40
0
40
0.5
40
0.5
40
1
40
1
40
1
40
1
41
1
10
8.96517019733068
20
7.8819268792858
30
0
41
1
10
8.97401860779252
20
7.87227053372791
30
0
41
1
10
8.98725216597256
20
7.86446409967897
30
0
41
1
10
9.02102661186461
20
7.85257475151738
30
0
41
1
10
9.04186984653927
20
7.84849945499676
30
0
41
1
10
9.06540174529437
20
7.84655270056396
30
0
0
SPLINE
5
C1
100
AcDbEntity
8
1
62
256
6
ByLayer
370
18
48
1
60
0
100
AcDbSpline
70
4
71
3
72
10
73
6
40
0
40
0
40
0
40
0
40
0.5
40
0.5
40
1
40
1
40
1
40
1
41
1
10
10.8262163989491
20
5.92496070022301
30
0
41
1
10
10.8261048052793
20
5.90134867661865
30
0
41
1
10
10.8283479864669
20
5.88022957124957
30
0
41
1
10
10.8372484551518
20
5.84554742235102
30
0
41
1
10
10.8438718027699
20
5.83168384629744
30
0
41
1
10
10.8527202132317
20
5.82202750073952
30
0
0
SPLINE
5
C2
100
AcDbEntity
8
1
62
256
6
ByLayer
370
18
48
1
60
0
100
AcDbSpline
70
4
71
3
72
16
73
12
40
0
40
0
40
0
40
0
40
0.125000000000034
40
0.125000000000034
40
0.250000000000067
40
0.250000000000067
40
0.500000000000045
40
0.500000000000045
40
0.750000000000023
40
0.750000000000023
40
1
40
1
40
1
40
1
41
1
10
12.6014515909176
20
10.7537931964332
30
0
41
1
10
12.5823468880777
20
10.757010195802
30
0
41
1
10
12.5627176837764
20
10.7549306120231
30
0
41
1
10
12.5269972077372
20
10.7390146920247
30
0
41
1
10
12.5111071377648
20
10.7253356097595
30
0
41
1
10
12.472507978907
20
10.6753528966912
30
0
41
1
10
12.458534112763
20
10.633070205544
30
0
41
1
10
12.4422807255303
20
10.5466587825731
30
0
41
1
10
12.4403067136025
20
10.5022189994217
30
0
41
1
10
12.4443375777206
20
10.4137335838526
30
0
41
1
10
12.4504392644643
20
10.3696964168357
30
0
41
1
10
12.4600178520269
20
10.3264902004638
30
0
0
SPLINE
5
C3
100
AcDbEntity
8
1
62
256
6
ByLayer
370
18
48
1
60
0
100
AcDbSpline
70
4
71
3
72
16
73
12
40
0
40
0
40
0
40
0
40
0.124999999999985
40
0.124999999999985
40
0.249999999999971
40
0.249999999999971
40
0.499999999999981
40
0.499999999999981
40
0.74999999999999
40
0.74999999999999
40
1
40
1
40
1
40
1
41
1
10
14.9001220608292
20
11.9520039566876
30
0
41
1
10
14.9124604154264
20
11.9669406149943
30
0
41
1
10
14.9204740451953
20
11.9849797964647
30
0
41
1
10
14.9245506921717
20
12.0238725961492
30
0
41
1
10
14.9206492944157
20
12.0444733415459
30
0
41
1
10
14.8966625745774
20
12.1028925502156
30
0
41
1
10
14.8670316229756
20
12.1361356188589
30
0
41
1
10
14.800323829122
20
12.1934171765854
30
0
41
1
10
14.7628248539381
20
12.217346612638
30
0
41
1
10
14.6841788041318
20
12.258098489697
30
0
41
1
10
14.6429906554127
20
12.2748328574795
30
0
41
1
10
14.6007836806518
20
12.2881406655039
30
0
0
SPLINE
5
C4
100
AcDbEntity
8
1
62
256
6
ByLayer
370
18
48
1
60
0
100
AcDbSpline
70
4
71
3
72
8
73
4
40
0
40
0
40
0
40
0
40
1
40
1
40
1
40
1
41
1
10
14.1627799390257
20
12.1844870346817
30
0
41
1
10
14.1606360212935
20
12.17817371957
30
0
41
1
10
14.158491829704
20
12.1718595980152
30
0
41
1
10
14.156347353581
20
12.1655446385789
30
0
0
SPLINE
5
C5
100
AcDbEntity
8
1
62
256
6
ByLayer
370
18
48
1
60
0
100
AcDbSpline
70
4
71
3
72
8
73
4
40
0
40
0
40
0
40
0
40
1
40
1
40
1
40
1
41
1
10
13.2988345424319
20
9.44586146377873
30
0
41
1
10
13.2969690825028
20
9.43945853087442
30
0
41
1
10
13.2951038700866
20
9.43305644752419
30
0
41
1
10
13.2932388958964
20
9.42665518185157
30
0
0
SPLINE
5
C6
100
AcDbEntity
8
1
62
256
6
ByLayer
370
18
48
1
60
0
100
AcDbSpline
70
4
71
3
72
18
73
14
40
0
40
0
40
0
40
0
40
0.125000000000002
40
0.125000000000002
40
0.250000000000004
40
0.250000000000004
40
0.499999999999999
40
0.499999999999999
40
0.749999999999994
40
0.749999999999994
40
0.874999999999997
40
0.874999999999997
40
1
40
1
40
1
40
1
41
1
10
12.6208825422466
20
10.7585503653464
30
0
41
1
10
12.6521109803125
20
10.7661958456042
30
0
41
1
10
12.6803973620766
20
10.7844596209465
30
0
41
1
10
12.7307754859606
20
10.8287055913477
30
0
41
1
10
12.7533648883373
20
10.8554379607996
30
0
41
1
10
12.813278973453
20
10.941403511203
30
0
41
1
10
12.8440221173854
20
11.0074662202373
30
0
41
1
10
12.8878646766187
20
11.1462052451296
30
0
41
1
10
12.9007768805745
20
11.2184260340312
30
0
41
1
10
12.9010339009488
20
11.3238185113433
30
0
41
1
10
12.8978935147205
20
11.3585264825589
30
0
41
1
10
12.8818411158439
20
11.4241784017431
30
0
41
1
10
12.8691582767045
20
11.455062552111
30
0
41
1
10
12.8480741645006
20
11.4791101336277
30
0
0
SPLINE
5
C7
100
AcDbEntity
8
1
62
256
6
ByLayer
370
18
48
1
60
0
100
AcDbSpline
70
4
71
3
72
18
73
14
40
0
40
0
40
0
40
0
40
0.125000000000045
40
0.125000000000045
40
0.25000000000009
40
0.25000000000009
40
0.500000000000092
40
0.500000000000092
40
0.750000000000094
40
0.750000000000094
40
0.875000000000047
40
0.875000000000047
40
1
40
1
40
1
40
1
41
1
10
14.0370136031445
20
9.2131144999602
30
0
41
1
10
14.0472919072712
20
9.24338160013465
30
0
41
1
10
14.0676553550364
20
9.26974881521025
30
0
41
1
10
14.1162881252269
20
9.31634674837943
30
0
41
1
10
14.1447852436835
20
9.33647178795746
30
0
41
1
10
14.2362502745741
20
9.38903625998316
30
0
41
1
10
14.3049244007506
20
9.41386146673443
30
0
41
1
10
14.446836929701
20
9.44533633274412
30
0
41
1
10
14.5198265072042
20
9.45186532822689
30
0
41
1
10
14.6247222710688
20
9.44290487434111
30
0
41
1
10
14.6589861824879
20
9.43674523338493
30
0
41
1
10
14.7229120243691
20
9.41503507283639
30
0
41
1
10
14.7525365545648
20
9.39971688521581
30
0
41
1
10
14.7746324785481
20
9.37664066770185
30
0
0
SPLINE
5
C8
100
AcDbEntity
8
1
62
256
6
ByLayer
370
18
48
1
60
0
100
AcDbSpline
70
4
71
3
72
8
73
4
40
0
40
0
40
0
40
0
40
1
40
1
40
1
40
1
41
1
10
15.4245745563991
20
11.3796644898651
30
0
41
1
10
15.4180351062641
20
11.378364519529
30
0
41
1
10
15.4114948208004
20
11.3770643831387
30
0
41
1
10
15.4049536674432
20
11.3757640742208
30
0
0
SPLINE
5
C9
100
AcDbEntity
8
1
62
256
6
ByLayer
370
18
48
1
60
0
100
AcDbSpline
70
4
71
3
72
16
73
12
40
0
40
0
40
0
40
0
40
0.250000000000031
40
0.250000000000031
40
0.500000000000063
40
0.500000000000063
40
0.750000000000094
40
0.750000000000094
40
0.875000000000047
40
0.875000000000047
40
1
40
1
40
1
40
1
41
1
10
12.4600178520269
20
10.3264902004638
30
0
41
1
10
12.4695898150947
20
10.2833138652572
30
0
41
1
10
12.4827029421347
20
10.2407286367292
30
0
41
1
10
12.5164093599957
20
10.1589239222884
30
0
41
1
10
12.5369988339713
20
10.1194572837537
30
0
41
1
10
12.5881196117761
20
10.0481581960131
30
0
41
1
10
12.6186637479757
20
10.0157973827277
30
0
41
1
10
12.6742391403966
20
9.98686270782883
30
0
41
1
10
12.6946371893231
20
9.98097512287913
30
0
41
1
10
12.7339911156713
20
9.98153242262899
30
0
41
1
10
12.7527716906242
20
9.98796405680494
30
0
41
1
10
12.7687864003265
20
9.998994648674
30
0
0
SPLINE
5
CA
100
AcDbEntity
8
1
62
256
6
ByLayer
370
18
48
1
60
0
100
AcDbSpline
70
4
71
3
72
16
73
12
40
0
40
0
40
0
40
0
40
0.124999999999985
40
0.124999999999985
40
0.249999999999971
40
0.249999999999971
40
0.499999999999981
40
0.499999999999981
40
0.74999999999999
40
0.74999999999999
40
1
40
1
40
1
40
1
41
1
10
13.2932388958964
20
9.42665518185154
30
0
41
1
10
13.2809005412991
20
9.41171852354481
30
0
41
1
10
13.2728869115302
20
9.39367934207442
30
0
41
1
10
13.2688102645538
20
9.35478654238989
30
0
41
1
10
13.2727116623098
20
9.33418579699321
30
0
41
1
10
13.2966983821481
20
9.27576658832351
30
0
41
1
10
13.3263293337499
20
9.24252351968019
30
0
41
1
10
13.3930371276035
20
9.18524196195366
30
0
41
1
10
13.4305361027874
20
9.16131252590108
30
0
41
1
10
13.5091821525938
20
9.12056064884209
30
0
41
1
10
13.5503703013129
20
9.10382628105958
30
0
41
1
10
13.5925772760738
20
9.09051847303525
30
0
0
SPLINE
5
CB
100
AcDbEntity
8
1
62
256
6
ByLayer
370
18
48
1
60
0
100
AcDbSpline
70
4
71
3
72
8
73
4
40
0
40
0
40
0
40
0
40
1
40
1
40
1
40
1
41
1
10
14.8945264142936
20
11.9327976747604
30
0
41
1
10
14.8963918742228
20
11.9392006076647
30
0
41
1
10
14.898257086639
20
11.9456026910149
30
0
41
1
10
14.9001220608292
20
11.9520039566876
30
0
0
SPLINE
5
CC
100
AcDbEntity
8
1
62
256
6
ByLayer
370
18
48
1
60
0
100
AcDbSpline
70
4
71
3
72
16
73
12
40
0
40
0
40
0
40
0
40
0.124999999999993
40
0.124999999999993
40
0.249999999999986
40
0.249999999999986
40
0.499999999999991
40
0.499999999999991
40
0.749999999999995
40
0.749999999999995
40
1
40
1
40
1
40
1
41
1
10
12.8348858609894
20
11.4941521140861
30
0
41
1
10
12.8173910095688
20
11.5024749098492
30
0
41
1
10
12.8025045069907
20
11.5154372542044
30
0
41
1
10
12.782373002694
20
11.5489632359593
30
0
41
1
10
12.7772026186505
20
11.569282653869
30
0
41
1
10
12.7742529452052
20
11.6323656634418
30
0
41
1
10
12.7870585794943
20
11.6750166966779
30
0
41
1
10
12.8233081401636
20
11.755123350382
30
0
41
1
10
12.8471807367097
20
11.7926585363252
30
0
41
1
10
12.9012357766235
20
11.862829536702
30
0
41
1
10
12.9314926671177
20
11.8954028883504
30
0
41
1
10
12.9641210543159
20
11.9253012966981
30
0
0
SPLINE
5
CD
100
AcDbEntity
8
1
62
256
6
ByLayer
370
18
48
1
60
0
100
AcDbSpline
70
4
71
3
72
8
73
4
40
0
40
0
40
0
40
0
40
1
40
1
40
1
40
1
41
1
10
12.7687864003265
20
9.998994648674
30
0
41
1
10
12.7753258504614
20
10.0002946190102
30
0
41
1
10
12.7818661359252
20
10.0015947554005
30
0
41
1
10
12.7884072892823
20
10.0028950643184
30
0
0
SPLINE
5
CE
100
AcDbEntity
8
1
62
256
6
ByLayer
370
18
48
1
60
0
100
AcDbSpline
70
4
71
3
72
8
73
4
40
0
40
0
40
0
40
0
40
1
40
1
40
1
40
1
41
1
10
13.404893173384
20
12.0164675838512
30
0
41
1
10
13.4095043449778
20
12.0116518359888
30
0
41
1
10
13.4141161055882
20
12.0068354729778
30
0
41
1
10
13.4187284781774
20
12.0020184708373
30
0
0
SPLINE
5
CF
100
AcDbEntity
8
1
62
256
6
ByLayer
370
18
48
1
60
0
100
AcDbSpline
70
4
71
3
72
20
73
16
40
0
40
0
40
0
40
0
40
0.125000000000025
40
0.125000000000025
40
0.25000000000005
40
0.25000000000005
40
0.500000000000097
40
0.500000000000097
40
0.625000000000073
40
0.625000000000073
40
0.750000000000049
40
0.750000000000049
40
0.875000000000024
40
0.875000000000024
40
1
40
1
40
1
40
1
41
1
10
13.4187284781774
20
12.0020184708373
30
0
41
1
10
13.4408608359041
20
11.9789042031841
30
0
41
1
10
13.4705014967552
20
11.9636041217341
30
0
41
1
10
13.5343577097809
20
11.9419217939814
30
0
41
1
10
13.5687343376281
20
11.9357325488282
30
0
41
1
10
13.6739798680815
20
11.9267829739572
30
0
41
1
10
13.7470903210868
20
11.933388938019
30
0
41
1
10
13.8536197107919
20
11.9571057529237
30
0
41
1
10
13.8880720909117
20
11.9672543134469
30
0
41
1
10
13.9548355007311
20
11.9921645221455
30
0
41
1
10
13.9874881655521
20
12.0070975176017
30
0
41
1
10
14.0482872481488
20
12.042004822561
30
0
41
1
10
14.0765967918596
20
12.0619296966963
30
0
41
1
10
14.1254629232487
20
12.1086054440099
30
0
41
1
10
14.1460284588517
20
12.1351580089741
30
0
41
1
10
14.156347353581
20
12.1655446385789
30
0
0
SPLINE
5
D0
100
AcDbEntity
8
1
62
256
6
ByLayer
370
18
48
1
60
0
100
AcDbSpline
70
4
71
3
72
8
73
4
40
0
40
0
40
0
40
0
40
1
40
1
40
1
40
1
41
1
10
14.0305810176999
20
9.19417210385743
30
0
41
1
10
14.032724935432
20
9.20048541896912
30
0
41
1
10
14.0348691270216
20
9.20679954052386
30
0
41
1
10
14.0370136031445
20
9.2131144999602
30
0
0
SPLINE
5
D1
100
AcDbEntity
8
1
62
256
6
ByLayer
370
18
48
1
60
0
100
AcDbSpline
70
4
71
3
72
16
73
12
40
0
40
0
40
0
40
0
40
0.250000000000033
40
0.250000000000033
40
0.500000000000066
40
0.500000000000066
40
0.750000000000099
40
0.750000000000099
40
0.875000000000049
40
0.875000000000049
40
1
40
1
40
1
40
1
41
1
10
14.6007836806518
20
12.2881406655039
30
0
41
1
10
14.5586058959867
20
12.3014392699264
30
0
41
1
10
14.5151694427355
20
12.3113755830506
30
0
41
1
10
14.4274712729498
20
12.3230873261329
30
0
41
1
10
14.382997424389
20
12.3249896378869
30
0
41
1
10
14.2956902142366
20
12.3163672895169
30
0
41
1
10
14.2523928597445
20
12.3060956982741
30
0
41
1
10
14.1995470000215
20
12.2724333340618
30
0
41
1
10
14.1842491774249
20
12.2577118979787
30
0
41
1
10
14.1650548499916
20
12.2233517481474
30
0
41
1
10
14.1612345210995
20
12.2038714760526
30
0
41
1
10
14.1627799390257
20
12.1844870346817
30
0
0
SPLINE
5
D2
100
AcDbEntity
8
1
62
256
6
ByLayer
370
18
48
1
60
0
100
AcDbSpline
70
4
71
3
72
8
73
4
40
0
40
0
40
0
40
0
40
1
40
1
40
1
40
1
41
1
10
12.6208825422466
20
10.7585503653464
30
0
41
1
10
12.6144047097282
20
10.7569644345827
30
0
41
1
10
12.6079277367016
20
10.7553787142434
30
0
41
1
10
12.6014515909176
20
10.7537931964332
30
0
0
SPLINE
5
D3
100
AcDbEntity
8
1
62
256
6
ByLayer
370
18
48
1
60
0
100
AcDbSpline
70
4
71
3
72
8
73
4
40
0
40
0
40
0
40
0
40
1
40
1
40
1
40
1
41
1
10
14.7746324785481
20
9.37664066770185
30
0
41
1
10
14.7792448511374
20
9.37182366556129
30
0
41
1
10
14.7838566117477
20
9.36700730255032
30
0
41
1
10
14.7884677833415
20
9.36219155468788
30
0
0
SPLINE
5
D4
100
AcDbEntity
8
1
62
256
6
ByLayer
370
18
48
1
60
0
100
AcDbSpline
70
4
71
3
72
18
73
14
40
0
40
0
40
0
40
0
40
0.125000000000005
40
0.125000000000005
40
0.250000000000009
40
0.250000000000009
40
0.500000000000016
40
0.500000000000016
40
0.750000000000022
40
0.750000000000022
40
0.875000000000011
40
0.875000000000011
40
1
40
1
40
1
40
1
41
1
10
15.4049536674432
20
11.3757640742208
30
0
41
1
10
15.3736024377299
20
11.3695317966151
30
0
41
1
10
15.3405860357648
20
11.3739834521506
30
0
41
1
10
15.2759146567811
20
11.3928017000074
30
0
41
1
10
15.2442373020261
20
11.4074184087365
30
0
41
1
10
15.1529826184702
20
11.4603472130327
30
0
41
1
10
15.097146295681
20
11.5074081475086
30
0
41
1
10
14.9989319976607
20
11.6145705696902
30
0
41
1
10
14.9567829329599
20
11.6745169002781
30
0
41
1
10
14.9120950317221
20
11.7698395234771
30
0
41
1
10
14.9002974815588
20
11.8025927616771
30
0
41
1
10
14.8871361111735
20
11.8688092449789
30
0
41
1
10
14.885589785695
20
11.9021239345137
30
0
41
1
10
14.8945264142936
20
11.9327976747604
30
0
0
SPLINE
5
D5
100
AcDbEntity
8
1
62
256
6
ByLayer
370
18
48
1
60
0
100
AcDbSpline
70
4
71
3
72
18
73
14
40
0
40
0
40
0
40
0
40
0.125000000000004
40
0.125000000000004
40
0.250000000000007
40
0.250000000000007
40
0.500000000000006
40
0.500000000000006
40
0.750000000000004
40
0.750000000000004
40
0.875000000000002
40
0.875000000000002
40
1
40
1
40
1
40
1
41
1
10
15.345286792225
20
9.89954900491142
30
0
41
1
10
15.3242138666384
20
9.92358382748017
30
0
41
1
10
15.3115609124384
20
9.95440269809126
30
0
41
1
10
15.2955223036453
20
10.0198188791173
30
0
41
1
10
15.2923420673469
20
10.0545606274244
30
0
41
1
10
15.2925524146814
20
10.1600539037464
30
0
41
1
10
15.3053902180688
20
10.2319400449735
30
0
41
1
10
15.3490884489989
20
10.3705773331648
30
0
41
1
10
15.3799289618013
20
10.4370526592355
30
0
41
1
10
15.4401368244282
20
10.5234148285487
30
0
41
1
10
15.4626031856839
20
10.5500084257924
30
0
41
1
10
15.5133676571798
20
10.5945147485457
30
0
41
1
10
15.5414458618969
20
10.61251125046
30
0
41
1
10
15.5724784144789
20
10.6201087731927
30
0
0
SPLINE
5
D6
100
AcDbEntity
8
1
62
256
6
ByLayer
370
18
48
1
60
0
100
AcDbSpline
70
4
71
3
72
16
73
12
40
0
40
0
40
0
40
0
40
0.250000000000031
40
0.250000000000031
40
0.500000000000063
40
0.500000000000063
40
0.750000000000094
40
0.750000000000094
40
0.875000000000047
40
0.875000000000047
40
1
40
1
40
1
40
1
41
1
10
13.5925772760738
20
9.09051847303525
30
0
41
1
10
13.6347550607389
20
9.07721986861273
30
0
41
1
10
13.6781915139901
20
9.06728355548844
30
0
41
1
10
13.7658896837757
20
9.05557181240624
30
0
41
1
10
13.8103635323365
20
9.05366950065226
30
0
41
1
10
13.8976707424889
20
9.06229184902219
30
0
41
1
10
13.940968096981
20
9.07256344026499
30
0
41
1
10
13.9938139567041
20
9.1062258044773
30
0
41
1
10
14.0091117793007
20
9.12094724056047
30
0
41
1
10
14.0283061067339
20
9.1553073903917
30
0
41
1
10
14.0321264356261
20
9.17478766248647
30
0
41
1
10
14.0305810176999
20
9.19417210385743
30
0
0
SPLINE
5
D7
100
AcDbEntity
8
1
62
256
6
ByLayer
370
18
48
1
60
0
100
AcDbSpline
70
4
71
3
72
8
73
4
40
0
40
0
40
0
40
0
40
1
40
1
40
1
40
1
41
1
10
12.8480741645006
20
11.4791101336277
30
0
41
1
10
12.8436774872663
20
11.4841247841461
30
0
41
1
10
12.8392813933921
20
11.4891387693106
30
0
41
1
10
12.8348858609894
20
11.4941521140861
30
0
0
SPLINE
5
D8
100
AcDbEntity
8
1
62
256
6
ByLayer
370
18
48
1
60
0
100
AcDbSpline
70
4
71
3
72
16
73
12
40
0
40
0
40
0
40
0
40
0.250000000000031
40
0.250000000000031
40
0.500000000000063
40
0.500000000000063
40
0.750000000000094
40
0.750000000000094
40
0.875000000000047
40
0.875000000000047
40
1
40
1
40
1
40
1
41
1
10
15.7333431046986
20
11.0521689380753
30
0
41
1
10
15.7237711416309
20
11.0953452732819
30
0
41
1
10
15.7106580145908
20
11.1379305018099
30
0
41
1
10
15.6769515967299
20
11.2197352162507
30
0
41
1
10
15.6563621227543
20
11.2592018547855
30
0
41
1
10
15.6052413449494
20
11.330500942526
30
0
41
1
10
15.5746972087498
20
11.3628617558114
30
0
41
1
10
15.519121816329
20
11.3917964307103
30
0
41
1
10
15.4987237674024
20
11.39768401566
30
0
41
1
10
15.4593698410541
20
11.3971267159101
30
0
41
1
10
15.4405892661014
20
11.3906950817342
30
0
41
1
10
15.4245745563991
20
11.3796644898651
30
0
0
SPLINE
5
D9
100
AcDbEntity
8
1
62
256
6
ByLayer
370
18
48
1
60
0
100
AcDbSpline
70
4
71
3
72
8
73
4
40
0
40
0
40
0
40
0
40
1
40
1
40
1
40
1
41
1
10
15.5724784144789
20
10.6201087731927
30
0
41
1
10
15.5789562469974
20
10.6216947039565
30
0
41
1
10
15.5854332200239
20
10.6232804242957
30
0
41
1
10
15.5919093658079
20
10.6248659421059
30
0
0
SPLINE
5
DA
100
AcDbEntity
8
1
62
256
6
ByLayer
370
18
48
1
60
0
100
AcDbSpline
70
4
71
3
72
16
73
12
40
0
40
0
40
0
40
0
40
0.250000000000003
40
0.250000000000003
40
0.500000000000006
40
0.500000000000006
40
0.750000000000009
40
0.750000000000009
40
0.875000000000004
40
0.875000000000004
40
1
40
1
40
1
40
1
41
1
10
15.2292399024096
20
9.45335784184101
30
0
41
1
10
15.261845724007
20
9.48323557262509
30
0
41
1
10
15.2921690502182
20
9.51588448802877
30
0
41
1
10
15.3461608021427
20
9.58597745938741
30
0
41
1
10
15.3700451767281
20
9.62354178616815
30
0
41
1
10
15.4062316090756
20
9.70346322227863
30
0
41
1
10
15.4189848273681
20
9.74609562680686
30
0
41
1
10
15.4162552946702
20
9.80869266591802
30
0
41
1
10
15.4111550683403
20
9.82930168695088
30
0
41
1
10
15.3909954694253
20
9.86310453703226
30
0
41
1
10
15.3760352233649
20
9.8761531749511
30
0
41
1
10
15.3584750957362
20
9.88450702445297
30
0
0
SPLINE
5
DB
100
AcDbEntity
8
1
62
256
6
ByLayer
370
18
48
1
60
0
100
AcDbSpline
70
4
71
3
72
16
73
12
40
0
40
0
40
0
40
0
40
0.125000000000034
40
0.125000000000034
40
0.250000000000067
40
0.250000000000067
40
0.500000000000045
40
0.500000000000045
40
0.750000000000023
40
0.750000000000023
40
1
40
1
40
1
40
1
41
1
10
15.5919093658079
20
10.6248659421059
30
0
41
1
10
15.6110140686478
20
10.6216489427371
30
0
41
1
10
15.6306432729491
20
10.623728526516
30
0
41
1
10
15.6663637489884
20
10.6396444465144
30
0
41
1
10
15.6822538189608
20
10.6533235287796
30
0
41
1
10
15.7208529778186
20
10.703306241848
30
0
41
1
10
15.7348268439625
20
10.7455889329951
30
0
41
1
10
15.7510802311953
20
10.832000355966
30
0
41
1
10
15.7530542431231
20
10.8764401391175
30
0
41
1
10
15.7490233790049
20
10.9649255546865
30
0
41
1
10
15.7429216922613
20
11.0089627217034
30
0
41
1
10
15.7333431046986
20
11.0521689380753
30
0
0
SPLINE
5
DC
100
AcDbEntity
8
1
62
256
6
ByLayer
370
18
48
1
60
0
100
AcDbSpline
70
4
71
3
72
16
73
12
40
0
40
0
40
0
40
0
40
0.249999999999964
40
0.249999999999964
40
0.499999999999929
40
0.499999999999929
40
0.749999999999893
40
0.749999999999893
40
0.874999999999946
40
0.874999999999946
40
1
40
1
40
1
40
1
41
1
10
12.9641210543159
20
11.9253012966981
30
0
41
1
10
12.9967268759133
20
11.9551790274822
30
0
41
1
10
13.0318944043554
20
11.9825414238103
30
0
41
1
10
13.1064263420376
20
12.0302187158381
30
0
41
1
10
13.145929385621
20
12.0507382563658
30
0
41
1
10
13.2287005519267
20
12.0798213762876
30
0
41
1
10
13.2722822434973
20
12.0888104058525
30
0
41
1
10
13.3344031875266
20
12.0806355684131
30
0
41
1
10
13.3544892709984
20
12.0737585554488
30
0
41
1
10
13.3864064662129
20
12.0507295573881
30
0
41
1
10
13.3981015787678
20
12.0346889758507
30
0
41
1
10
13.404893173384
20
12.0164675838512
30
0
0
SPLINE
5
DD
100
AcDbEntity
8
1
62
256
6
ByLayer
370
18
48
1
60
0
100
AcDbSpline
70
4
71
3
72
8
73
4
40
0
40
0
40
0
40
0
40
1
40
1
40
1
40
1
41
1
10
15.3584750957362
20
9.88450702445297
30
0
41
1
10
15.3540795633335
20
9.88952036922851
30
0
41
1
10
15.3496834694592
20
9.89453435439299
30
0
41
1
10
15.345286792225
20
9.89954900491142
30
0
0
SPLINE
5
DE
100
AcDbEntity
8
1
62
256
6
ByLayer
370
18
48
1
60
0
100
AcDbSpline
70
4
71
3
72
18
73
14
40
0
40
0
40
0
40
0
40
0.125000000000002
40
0.125000000000002
40
0.250000000000005
40
0.250000000000005
40
0.500000000000013
40
0.500000000000013
40
0.750000000000021
40
0.750000000000021
40
0.87500000000001
40
0.87500000000001
40
1
40
1
40
1
40
1
41
1
10
12.7884072892823
20
10.0028950643184
30
0
41
1
10
12.8197585189957
20
10.009127341924
30
0
41
1
10
12.8527749209607
20
10.0046756863885
30
0
41
1
10
12.9174462999443
20
9.98585743853172
30
0
41
1
10
12.9491236546995
20
9.97124072980262
30
0
41
1
10
13.0403783382556
20
9.9183119255064
30
0
41
1
10
13.0962146610445
20
9.87125099103048
30
0
41
1
10
13.1944289590648
20
9.76408856884893
30
0
41
1
10
13.2365780237658
20
9.704142238261
30
0
41
1
10
13.2812659250035
20
9.608819615062
30
0
41
1
10
13.2930634751668
20
9.57606637686206
30
0
41
1
10
13.3062248455521
20
9.50984989356027
30
0
41
1
10
13.3077711710306
20
9.4765352040254
30
0
41
1
10
13.2988345424319
20
9.44586146377873
30
0
0
SPLINE
5
DF
100
AcDbEntity
8
1
62
256
6
ByLayer
370
18
48
1
60
0
100
AcDbSpline
70
4
71
3
72
16
73
12
40
0
40
0
40
0
40
0
40
0.124999999999948
40
0.124999999999948
40
0.249999999999895
40
0.249999999999895
40
0.49999999999993
40
0.49999999999993
40
0.749999999999965
40
0.749999999999965
40
1
40
1
40
1
40
1
41
1
10
14.7884677833415
20
9.36219155468788
30
0
41
1
10
14.7952341315842
20
9.34403789701236
30
0
41
1
10
14.8068497061166
20
9.32807829932088
30
0
41
1
10
14.8384935351795
20
9.30510141963475
30
0
41
1
10
14.8582850029079
20
9.29817975650332
30
0
41
1
10
14.9208708816041
20
9.28974326090193
30
0
41
1
10
14.9644756993497
20
9.29878288340572
30
0
41
1
10
15.0474368804361
20
9.32791274865011
30
0
41
1
10
15.0869098675478
20
9.34842309574898
30
0
41
1
10
15.161525053236
20
9.39615663425906
30
0
41
1
10
15.1966115152114
20
9.42345943349341
30
0
41
1
10
15.2292399024096
20
9.45335784184101
30
0
0
LINE
5
70
100
AcDbEntity
8
81
62
256
6
ByLayer
370
18
48
1
60
0
100
AcDbLine
10
23.707
20
19.5625
30
0
11
28.707
21
19.5625
31
0
39
0
210
0
220
0
230
1
0
LINE
5
71
100
AcDbEntity
8
80
62
256
6
ByLayer
370
18
48
1
60
0
100
AcDbLine
10
0
20
0
30
0
11
-10
21
0
31
0
39
0
210
0
220
0
230
1
0
LINE
5
72
100
AcDbEntity
8
1
62
256
6
ByLayer
370
18
48
1
60
0
100
AcDbLine
10
1.697085
20
14.134497
30
0
11
1.978236
21
13.937633
31
0
39
0
210
0
220
0
230
1
0
LINE
5
74
100
AcDbEntity
8
1
62
256
6
ByLayer
370
18
48
1
60
0
100
AcDbLine
10
5.899845
20
11.024869
30
0
11
5.921919
21
11.05004
31
0
39
0
210
0
220
0
230
1
0
LINE
5
75
100
AcDbEntity
8
1
62
256
6
ByLayer
370
18
48
1
60
0
100
AcDbLine
10
6.313636
20
10.775568
30
0
11
13.504254
21
2.928386
31
0
39
0
210
0
220
0
230
1
0
LINE
5
76
100
AcDbEntity
8
1
62
256
6
ByLayer
370
18
48
1
60
0
100
AcDbLine
10
13.743541
20
2.514238
30
0
11
13.716542
21
2.494442
31
0
39
0
210
0
220
0
230
1
0
LINE
5
77
100
AcDbEntity
8
1
62
256
6
ByLayer
370
18
48
1
60
0
100
AcDbLine
10
16.276434
20
-1.666113
30
0
11
16.757358
21
-2.499099
31
0
39
0
210
0
220
0
230
1
0
LINE
5
78
100
AcDbEntity
8
1
62
256
6
ByLayer
370
18
48
1
60
0
100
AcDbLine
10
1.943238
20
14.023177
30
0
11
1.732986
21
14.170397
31
0
39
0
210
0
220
0
230
1
0
LINE
5
79
100
AcDbEntity
8
1
62
256
6
ByLayer
370
18
48
1
60
0
100
AcDbLine
10
16.764955
20
-2.412258
30
0
11
16.358612
21
-1.708451
31
0
39
0
210
0
220
0
230
1
0
LINE
5
7A
100
AcDbEntity
8
1
62
256
6
ByLayer
370
18
48
1
60
0
100
AcDbLine
10
1.901954
20
14.339365
30
0
11
1.732986
21
14.170397
31
0
39
0
210
0
220
0
230
1
0
LINE
5
7B
100
AcDbEntity
8
1
62
256
6
ByLayer
370
18
48
1
60
0
100
AcDbLine
10
16.764955
20
-2.412258
30
0
11
16.821569
21
-1.765158
31
0
39
0
210
0
220
0
230
1
0
LINE
5
7C
100
AcDbEntity
8
1
62
256
6
ByLayer
370
18
48
1
60
0
100
AcDbLine
10
9.028274
20
8.079504
30
0
11
8.937119
21
7.995975
31
0
39
0
210
0
220
0
230
1
0
LINE
5
7D
100
AcDbEntity
8
1
62
256
6
ByLayer
370
18
48
1
60
0
100
AcDbLine
10
10.96389
20
5.784143
30
0
11
11.055045
21
5.867672
31
0
39
0
210
0
220
0
230
1
0
LINE
5
7E
100
AcDbEntity
8
1
62
256
6
ByLayer
370
18
48
1
60
0
100
AcDbLine
10
16.757358
20
-2.499099
30
0
11
16.764955
21
-2.412258
31
0
39
0
210
0
220
0
230
1
0
LINE
5
7F
100
AcDbEntity
8
1
62
256
6
ByLayer
370
18
48
1
60
0
100
AcDbLine
10
16.737535
20
-2.725678
30
0
11
16.732175
21
-2.728788
31
0
39
0
210
0
220
0
230
1
0
LINE
5
80
100
AcDbEntity
8
1
62
256
6
ByLayer
370
18
48
1
60
0
100
AcDbLine
10
10.826216
20
5.924961
30
0
11
9.065402
21
7.846553
31
0
39
0
210
0
220
0
230
1
0
LINE
5
81
100
AcDbEntity
8
1
62
256
6
ByLayer
370
18
48
1
60
0
100
AcDbLine
10
16.737535
20
-2.725678
30
0
11
16.757358
21
-2.499099
31
0
39
0
210
0
220
0
230
1
0
LINE
5
82
100
AcDbEntity
8
1
62
256
6
ByLayer
370
18
48
1
60
0
100
AcDbLine
10
13.716542
20
2.494442
30
0
11
5.899845
21
11.024869
31
0
39
0
210
0
220
0
230
1
0
LINE
5
83
100
AcDbEntity
8
1
62
256
6
ByLayer
370
18
48
1
60
0
100
AcDbLine
10
0.439429
20
12.87684
30
0
11
1.598966
21
14.036377
31
0
39
0
210
0
220
0
230
1
0
LINE
5
84
100
AcDbEntity
8
1
62
256
6
ByLayer
370
18
48
1
60
0
100
AcDbLine
10
16.732175
20
-2.728788
30
0
11
13.716542
21
2.494442
31
0
39
0
210
0
220
0
230
1
0
LINE
5
85
100
AcDbEntity
8
1
62
256
6
ByLayer
370
18
48
1
60
0
100
AcDbLine
10
5.899845
20
11.024869
30
0
11
1.598966
21
14.036377
31
0
39
0
210
0
220
0
230
1
0
LINE
5
86
100
AcDbEntity
8
1
62
256
6
ByLayer
370
18
48
1
60
0
100
AcDbLine
10
10.826216
20
5.924961
30
0
11
10.917135
21
5.825741
31
0
39
0
210
0
220
0
230
1
0
LINE
5
87
100
AcDbEntity
8
1
62
256
6
ByLayer
370
18
48
1
60
0
100
AcDbLine
10
1.697085
20
14.134497
30
0
11
1.598966
21
14.036377
31
0
39
0
210
0
220
0
230
1
0
LINE
5
88
100
AcDbEntity
8
1
62
256
6
ByLayer
370
18
48
1
60
0
100
AcDbLine
10
0
20
-12.4375
30
0
11
8.9E-05
21
-12.4375
31
0
39
0
210
0
220
0
230
1
0
LINE
5
89
100
AcDbEntity
8
1
62
256
6
ByLayer
370
18
48
1
60
0
100
AcDbLine
10
0
20
-12.4375
30
0
11
0
21
12.57219
31
0
39
0
210
0
220
0
230
1
0
LINE
5
8A
100
AcDbEntity
8
1
62
256
6
ByLayer
370
18
48
1
60
0
100
AcDbLine
10
8.974484
20
7.945772
30
0
11
9.065402
21
7.846553
31
0
39
0
210
0
220
0
230
1
0
LINE
5
8B
100
AcDbEntity
8
1
62
256
6
ByLayer
370
18
48
1
60
0
100
AcDbLine
10
8.9E-05
20
-12.4375
30
0
11
16.732175
21
-2.728788
31
0
39
0
210
0
220
0
230
1
0
LINE
5
8C
100
AcDbEntity
8
1
62
256
6
ByLayer
370
18
48
1
60
0
100
AcDbLine
10
1.732986
20
14.170397
30
0
11
1.697085
21
14.134497
31
0
39
0
210
0
220
0
230
1
0
LINE
5
8D
100
AcDbEntity
8
SK1
62
256
6
ByLayer
370
18
48
1
60
0
100
AcDbLine
10
-126.293
20
-12.4375
30
0
11
-126.293
21
12.4375
31
0
39
0
210
0
220
0
230
1
0
LINE
5
8F
100
AcDbEntity
8
SK1
62
256
6
ByLayer
370
18
48
1
60
0
100
AcDbLine
10
-126.293
20
12.4375
30
0
11
-0.621232
21
12.4375
31
0
39
0
210
0
220
0
230
1
0
LINE
5
90
100
AcDbEntity
8
SK1
62
256
6
ByLayer
370
18
48
1
60
0
100
AcDbLine
10
-126.293
20
-12.4375
30
0
11
0
21
-12.4375
31
0
39
0
210
0
220
0
230
1
0
LINE
5
91
100
AcDbEntity
8
SK1
62
256
6
ByLayer
370
18
48
1
60
0
100
AcDbLine
10
0
20
-12.4375
30
0
11
0
21
12.57219
31
0
39
0
210
0
220
0
230
1
0
LINE
5
92
100
AcDbEntity
8
1
62
256
6
ByLayer
370
13
48
1
60
0
100
AcDbLine
10
17.909427
20
3.860891
30
0
11
17.480047
21
-1.046941
31
0
39
0
210
0
220
0
230
1
0
LINE
5
93
100
AcDbEntity
8
1
62
256
6
ByLayer
370
13
48
1
60
0
100
AcDbLine
10
12.496997
20
4.294048
30
0
11
7.586313
21
9.653119
31
0
39
0
210
0
220
0
230
1
0
LINE
5
94
100
AcDbEntity
8
1
62
256
6
ByLayer
370
13
48
1
60
0
100
AcDbLine
10
9.358046
20
15.272337
30
0
11
16.45448
21
16.845578
31
0
39
0
210
0
220
0
230
1
0
LINE
5
95
100
AcDbEntity
8
1
62
256
6
ByLayer
370
13
48
1
60
0
100
AcDbLine
10
20.434999
20
12.501604
30
0
11
18.249249
21
5.569291
31
0
39
0
210
0
220
0
230
1
0
LINE
5
96
100
AcDbEntity
8
1
62
256
6
ByLayer
370
13
48
1
60
0
100
AcDbLine
10
18.103909
20
17.405484
30
0
11
22.568905
21
19.487546
31
0
39
0
210
0
220
0
230
1
0
LINE
5
97
100
AcDbEntity
8
1
62
256
6
ByLayer
370
13
48
1
60
0
100
AcDbLine
10
2.69995
20
15.082705
30
0
11
7.626529
21
15.082705
31
0
39
0
210
0
220
0
230
1
0
LINE
5
98
100
AcDbEntity
8
1
62
256
6
ByLayer
370
13
48
1
60
0
100
AcDbLine
10
15.990271
20
-1.377216
30
0
11
13.526982
21
2.889326
31
0
39
0
210
0
220
0
230
1
0
LINE
5
99
100
AcDbEntity
8
1
62
256
6
ByLayer
370
13
48
1
60
0
100
AcDbLine
10
23.59982
20
18.3625
30
0
11
21.136531
21
14.095958
31
0
39
0
210
0
220
0
230
1
0
LINE
5
9A
100
AcDbEntity
8
1
62
256
6
ByLayer
370
13
48
1
60
0
100
AcDbLine
10
6.276706
20
10.801614
30
0
11
2.241089
21
13.627383
31
0
39
0
210
0
220
0
230
1
0
LINE
5
9B
100
AcDbEntity
8
2
62
256
6
ByLayer
370
18
48
1
60
1
100
AcDbLine
10
23.707
20
18.151295
30
0
11
23.707
21
18.150295
31
0
39
0
210
0
220
0
230
1
0
LINE
5
9D
100
AcDbEntity
8
2
62
256
6
ByLayer
370
18
48
1
60
1
100
AcDbLine
10
21.686539
20
14.252252
30
0
11
21.686116
21
14.251345
31
0
39
0
210
0
220
0
230
1
0
MTEXT
5
E0
100
AcDbEntity
8
SK6
62
256
6
ByLayer
370
13
48
1
60
0
100
AcDbMText
10
-125.382743
20
-29.36476
30
0
210
0
220
0
230
1
1
\W0.7346;CP-30AR-2525-11
40
3.5
41
0
44
1.084337
50
0
71
7
72
5
7
iso_b_vert
0
DIMENSION
5
F2
100
AcDbEntity
8
SK2
62
256
6
ByLayer
370
13
48
1
60
0
100
AcDbDimension
2
DimnDraft3D1
10
23.707
20
37.0625
30
0
11
-51.293
21
37.0625
31
0
70
32
71
5
72
1
41
1
210
0
220
0
230
1
3
Standard
100
AcDbAlignedDimension
13
-126.293
23
14.025
33
0
14
23.707
24
21.15
34
0
50
0
100
AcDbRotatedDimension
1001
ACAD
1000
DSTYLE
1002
{
1070
   279
1070
     0
1070
   172
1070
     1
1070
   173
1070
     1
1070
   340
1005
E1
1070
   271
1070
     1
1070
   272
1070
     2
1070
    77
1070
     1
1070
    73
1070
     0
1070
   171
1070
     3
1070
   274
1070
     4
1070
   177
1070
   150
1070
   176
1070
     9
1070
   178
1070
    43
1070
    78
1070
     8
1070
    48
1040
-0.005
1070
    41
1041
3.175
1070
   147
1041
2.25
1070
    42
1041
1.5875
1070
    44
1041
3.175
1070
   140
1041
4.5
1070
   343
1005
F3
1070
   344
1005
F3
1002
}
0
DIMENSION
5
107
100
AcDbEntity
8
SK2
62
256
6
ByLayer
370
13
48
1
60
0
100
AcDbDimension
2
DimnDraft3D2
10
-135.393
20
-12.4375
30
0
11
-135.393
21
0
31
0
70
32
71
5
72
1
41
1
210
0
220
0
230
1
3
Standard
100
AcDbAlignedDimension
13
-127.8805
23
12.4375
33
0
14
-127.8805
24
-12.4375
34
0
50
90
100
AcDbRotatedDimension
1001
ACAD
1000
DSTYLE
1002
{
1070
    74
1070
     0
1070
   279
1070
     0
1070
   172
1070
     1
1070
   173
1070
     1
1070
   340
1005
E1
1070
   271
1070
     1
1070
   272
1070
     2
1070
    77
1070
     1
1070
    73
1070
     0
1070
   171
1070
     3
1070
   274
1070
     4
1070
   177
1070
   150
1070
   176
1070
     9
1070
   178
1070
    43
1070
    78
1070
     8
1070
    48
1040
-0.005
1070
    41
1041
3.175
1070
   147
1041
2.25
1070
    42
1041
1.5875
1070
    44
1041
3.175
1070
   140
1041
4.5
1070
   343
1005
F3
1070
   344
1005
F3
1002
}
0
DIMENSION
5
115
100
AcDbEntity
8
2
62
256
6
ByLayer
370
13
48
1
60
0
100
AcDbDimension
2
DimnDraft3D3
10
44.557
20
19.5625
30
0
11
44.557
21
3.5625
31
0
70
32
71
5
72
1
41
1
210
0
220
0
230
1
3
Standard
100
AcDbAlignedDimension
13
1.5875
23
-12.4375
33
0
14
25.2945
24
19.5625
34
0
50
90
100
AcDbRotatedDimension
1001
ACAD
1000
DSTYLE
1002
{
1070
    74
1070
     0
1070
   279
1070
     0
1070
   172
1070
     1
1070
   173
1070
     1
1070
   340
1005
E1
1070
   271
1070
     1
1070
   272
1070
     2
1070
    77
1070
     1
1070
    73
1070
     0
1070
   171
1070
     3
1070
   274
1070
     4
1070
   177
1070
   150
1070
   176
1070
     9
1070
   178
1070
    43
1070
    78
1070
     8
1070
    48
1040
-0.005
1070
    41
1041
3.175
1070
   147
1041
2.25
1070
    42
1041
1.5875
1070
    44
1041
3.175
1070
   140
1041
4.5
1070
   343
1005
F3
1070
   344
1005
F3
1002
}
0
DIMENSION
5
123
100
AcDbEntity
8
2
62
256
6
ByLayer
370
13
48
1
60
0
100
AcDbDimension
2
DimnDraft3D4
10
21.686116
20
14.251345
30
0
11
15.835526
21
-16.920782
31
0
70
34
71
5
72
1
41
1
210
0
220
0
230
1
3
Standard
100
AcDb2LineAngularDimension
13
23.707
23
18.151295
33
0
14
23.707
24
18.150295
34
0
15
21.686539
25
14.252252
35
0
16
14.861547
26
-21.314114
36
0
40
0
0
ENDSEC
0
SECTION
2
OBJECTS
0
DICTIONARY
5
18d
330
0
100
AcDbDictionary
280
0
281
1
3
ACAD_GROUP
350
18e
3
ACAD_MLINESTYLE
350
18f
0
DICTIONARY
5
18e
330
0
100
AcDbDictionary
280
0
281
1
0
DICTIONARY
5
18f
330
0
100
AcDbDictionary
280
0
281
1
3
Standard
350
18
0
MLINESTYLE
5
18
330
18f
100
AcDbMlineStyle
2
Standard
70
0
3

62
256
51
90
52
90
71
2
49
-0.5
62
256
6
ByLayer
49
0.5
62
256
6
ByLayer
0
RASTERVARIABLES
5
17c
330

100
AcDbRasterVariables
90
0
70
1
71
1
72
1
0
ENDSEC
0
EOF
