0
SECTION
2
HEADER
9
$ACADVER
1
AC1015
9
$DWGCODEPAGE
3
ANSI_1252
9
$HANDSEED
5
214
9
$ANGBASE
50
0
9
$ANGDIR
70
0
9
$ATTMODE
70
1
9
$AUNITS
70
0
9
$AUPREC
70
0
9
$CECOLOR
62
256
9
$CELTSCALE
40
1
9
$CELTYPE
6
ByLayer
9
$CELWEIGHT
370
18
9
$CLAYER
8
0
9
$CMLJUST
70
0
9
$CMLSCALE
40
1
9
$CMLSTYLE
2
Standard
9
$DIMSTYLE
2
Standard
9
$TEXTSIZE
40
0.2
9
$TEXTSTYLE
7
Standard
9
$LUNITS
70
2
9
$LUPREC
70
4
9
$EXTNAMES
290
1
9
$INSUNITS
70
4
9
$LTSCALE
40
1
9
$LWDISPLAY
290
1
9
$PDMODE
70
0
9
$PDSIZE
40
0
9
$PLINEGEN
70
0
0
ENDSEC
0
SECTION
2
CLASSES
0
CLASS
1
RASTERVARIABLES
2
AcDbRasterVariables
3
ISM
90
0
280
0
281
0
0
ENDSEC
0
SECTION
2
TABLES
0
TABLE
2
VPORT
5
20a
100
AcDbSymbolTable
0
VPORT
5
1
100
AcDbSymbolTableRecord
100
AcDbViewportTableRecord
2
*Active
70
0
10
0
20
0
11
1
21
1
12
-1
22
1
13
0
23
0
14
0.5
24
0.5
15
10
25
10
16
0
26
0
36
1
17
0
27
0
37
0
0
ENDTAB
0
TABLE
2
LTYPE
5
20b
100
AcDbSymbolTable
0
LTYPE
5
14
100
AcDbSymbolTableRecord
100
AcDbLinetypeTableRecord
70
0
2
ByBlock
3

72
65
73
0
40
0
0
LTYPE
5
15
100
AcDbSymbolTableRecord
100
AcDbLinetypeTableRecord
70
0
2
ByLayer
3

72
65
73
0
40
0
0
LTYPE
5
16
100
AcDbSymbolTableRecord
100
AcDbLinetypeTableRecord
70
0
2
CONTINUOUS
3
Solid line
72
65
73
0
40
0
0
LTYPE
5
6A
100
AcDbSymbolTableRecord
100
AcDbLinetypeTableRecord
70
0
2
CENTER
3
____ _ ____ _ ____ _ ____
72
65
73
4
40
47.5
49
22
74
0
49
-8.5
74
0
49
8.5
74
0
49
-8.5
74
0
0
LTYPE
5
6B
100
AcDbSymbolTableRecord
100
AcDbLinetypeTableRecord
70
0
2
DASHED
3
__ __ __ __ __ __ __ __ __
72
65
73
2
40
25.72
49
12.86
74
0
49
-12.86
74
0
0
ENDTAB
0
TABLE
2
LAYER
5
20c
100
AcDbSymbolTable
0
LAYER
5
10
100
AcDbSymbolTableRecord
100
AcDbLayerTableRecord
2
0
70
0
62
7
6
CONTINUOUS
290
1
370
-3
390
0
0
LAYER
5
6D
100
AcDbSymbolTableRecord
100
AcDbLayerTableRecord
2
80
70
0
62
-6
6
CONTINUOUS
290
1
370
-3
390
0
0
LAYER
5
6F
100
AcDbSymbolTableRecord
100
AcDbLayerTableRecord
2
81
70
0
62
-3
6
CONTINUOUS
290
1
370
-3
390
0
0
LAYER
5
73
100
AcDbSymbolTableRecord
100
AcDbLayerTableRecord
2
1
70
0
62
4
6
CONTINUOUS
290
1
370
-3
390
0
0
LAYER
5
CE
100
AcDbSymbolTableRecord
100
AcDbLayerTableRecord
2
2
70
0
62
7
6
CONTINUOUS
290
1
370
-3
390
0
0
LAYER
5
1f7
100
AcDbSymbolTableRecord
100
AcDbLayerTableRecord
2
SK1
70
0
62
4
6
CONTINUOUS
290
1
370
-3
390
0
0
LAYER
5
1f8
100
AcDbSymbolTableRecord
100
AcDbLayerTableRecord
2
SK6
70
0
62
5
6
CONTINUOUS
290
1
370
-3
390
0
0
LAYER
5
1f9
100
AcDbSymbolTableRecord
100
AcDbLayerTableRecord
2
SK2
70
0
62
7
6
CONTINUOUS
290
1
370
-3
390
0
0
ENDTAB
0
TABLE
2
STYLE
5
20d
100
AcDbSymbolTable
0
STYLE
5
11
100
AcDbSymbolTableRecord
100
AcDbTextStyleTableRecord
2
Standard
3
txt
70
0
71
0
40
0
41
1
42
0
50
0
0
STYLE
5
15A
100
AcDbSymbolTableRecord
100
AcDbTextStyleTableRecord
2
iso_b_vert
3
simplex.shx
70
0
71
0
40
0
41
1
42
0
50
0
0
STYLE
5
15B
100
AcDbSymbolTableRecord
100
AcDbTextStyleTableRecord
2
DWGDirectTextStyle
3
simplex
70
0
71
0
40
0
41
1
42
0
50
0
0
ENDTAB
0
TABLE
2
DIMSTYLE
5
20e
100
AcDbSymbolTable
100
AcDbDimStyleTable
0
DIMSTYLE
105
27
100
AcDbSymbolTableRecord
100
AcDbDimStyleTableRecord
2
Standard
70
0
3
<>
41
0.18
42
0.0625
44
0.18
140
0.18
147
0.09
73
0
74
0
77
1
271
2
275
0
278
52
280
0
340
11
0
ENDTAB
0
TABLE
2
VIEW
5
20f
100
AcDbSymbolTable
0
ENDTAB
0
TABLE
2
UCS
5
210
100
AcDbSymbolTable
0
ENDTAB
0
TABLE
2
APPID
5
211
100
AcDbSymbolTable
0
APPID
5
12
100
AcDbSymbolTableRecord
100
AcDbRegAppTableRecord
2
ACAD
70
0
0
ENDTAB
0
TABLE
2
BLOCK_RECORD
5
212
100
AcDbSymbolTable
0
BLOCK_RECORD
5
1F
100
AcDbSymbolTableRecord
100
AcDbBlockTableRecord
2
*Model_Space
340
0
70
0
0
BLOCK_RECORD
5
1B
100
AcDbSymbolTableRecord
100
AcDbBlockTableRecord
2
*Paper_Space
340
0
70
0
0
BLOCK_RECORD
5
23
100
AcDbSymbolTableRecord
100
AcDbBlockTableRecord
2
*Paper_Space0
340
0
70
0
0
BLOCK_RECORD
5
15D
100
AcDbSymbolTableRecord
100
AcDbBlockTableRecord
2
DimnDraft3D1
340
0
70
0
0
BLOCK_RECORD
5
16C
100
AcDbSymbolTableRecord
100
AcDbBlockTableRecord
2
_CLOSED
340
0
70
0
0
BLOCK_RECORD
5
173
100
AcDbSymbolTableRecord
100
AcDbBlockTableRecord
2
DimnDraft3D2
340
0
70
0
0
BLOCK_RECORD
5
181
100
AcDbSymbolTableRecord
100
AcDbBlockTableRecord
2
DimnDraft3D3
340
0
70
0
0
BLOCK_RECORD
5
18F
100
AcDbSymbolTableRecord
100
AcDbBlockTableRecord
2
DimnDraft3D4
340
0
70
0
0
ENDTAB
0
ENDSEC
0
SECTION
2
BLOCKS
0
BLOCK
5
20
100
AcDbEntity
8
0
100
AcDbBlockBegin
2
*Model_Space
70
0
10
0
20
0
30
0
3
*Model_Space
0
ENDBLK
5
21
100
AcDbEntity
8
0
100
AcDbBlockEnd
0
BLOCK
5
1C
100
AcDbEntity
8
0
100
AcDbBlockBegin
2
*Paper_Space
70
0
10
0
20
0
30
0
3
*Paper_Space
0
ENDBLK
5
1D
100
AcDbEntity
8
0
100
AcDbBlockEnd
0
BLOCK
5
24
100
AcDbEntity
8
0
100
AcDbBlockBegin
2
*Paper_Space0
70
0
10
0
20
0
30
0
3
*Paper_Space0
0
ENDBLK
5
25
100
AcDbEntity
8
0
100
AcDbBlockEnd
0
BLOCK
5
169
100
AcDbEntity
8
0
100
AcDbBlockBegin
2
DimnDraft3D1
70
0
10
0
20
0
30
0
3
DimnDraft3D1
0
MTEXT
5
15E
100
AcDbEntity
8
SK2
62
256
6
ByLayer
370
13
48
1
60
0
100
AcDbMText
10
-35.500658
20
33.6875
30
0
210
0
220
0
230
1
1
\W0.6864;125.0
40
4.5
41
0
44
1.084337
50
0
71
7
72
5
7
iso_b_vert
0
LINE
5
160
100
AcDbEntity
8
SK2
62
256
6
ByLayer
370
13
48
1
60
0
100
AcDbLine
10
-92.725
20
11.525
30
0
11
-92.725
21
35.7375
31
0
39
0
210
0
220
0
230
1
0
LINE
5
161
100
AcDbEntity
8
SK2
62
256
6
ByLayer
370
13
48
1
60
0
100
AcDbLine
10
32.275
20
16.65
30
0
11
32.275
21
35.7375
31
0
39
0
210
0
220
0
230
1
0
LINE
5
162
100
AcDbEntity
8
SK2
62
256
6
ByLayer
370
13
48
1
60
0
100
AcDbLine
10
-92.725
20
32.5625
30
0
11
32.275
21
32.5625
31
0
39
0
210
0
220
0
230
1
0
LINE
5
163
100
AcDbEntity
8
SK2
62
256
6
ByLayer
370
13
48
1
60
0
100
AcDbLine
10
-92.725
20
32.5625
30
0
11
-89.550003
21
33.413239
31
0
39
0
210
0
220
0
230
1
0
LINE
5
164
100
AcDbEntity
8
SK2
62
256
6
ByLayer
370
13
48
1
60
0
100
AcDbLine
10
-92.725
20
32.5625
30
0
11
-89.549997
21
31.711761
31
0
39
0
210
0
220
0
230
1
0
LINE
5
165
100
AcDbEntity
8
SK2
62
256
6
ByLayer
370
13
48
1
60
0
100
AcDbLine
10
-89.550003
20
33.413239
30
0
11
-89.549997
21
31.711761
31
0
39
0
210
0
220
0
230
1
0
LINE
5
166
100
AcDbEntity
8
SK2
62
256
6
ByLayer
370
13
48
1
60
0
100
AcDbLine
10
32.275
20
32.5625
30
0
11
29.100003
21
31.711761
31
0
39
0
210
0
220
0
230
1
0
LINE
5
167
100
AcDbEntity
8
SK2
62
256
6
ByLayer
370
13
48
1
60
0
100
AcDbLine
10
32.275
20
32.5625
30
0
11
29.099997
21
33.413239
31
0
39
0
210
0
220
0
230
1
0
LINE
5
168
100
AcDbEntity
8
SK2
62
256
6
ByLayer
370
13
48
1
60
0
100
AcDbLine
10
29.100003
20
31.711761
30
0
11
29.099997
21
33.413239
31
0
39
0
210
0
220
0
230
1
0
ENDBLK
5
16A
100
AcDbEntity
8
0
100
AcDbBlockEnd
0
BLOCK
5
16D
100
AcDbEntity
8
0
100
AcDbBlockBegin
2
_CLOSED
70
0
10
0
20
0
30
0
3
_CLOSED
0
LINE
5
16F
100
AcDbEntity
8
0
62
256
6
ByLayer
370
-2
48
1
60
0
100
AcDbLine
10
-1
20
0.166667
30
0
11
0
21
0
31
0
39
0
210
0
220
0
230
1
0
LINE
5
170
100
AcDbEntity
8
0
62
256
6
ByLayer
370
-2
48
1
60
0
100
AcDbLine
10
0
20
0
30
0
11
-1
21
-0.166667
31
0
39
0
210
0
220
0
230
1
0
LINE
5
171
100
AcDbEntity
8
0
62
256
6
ByLayer
370
-2
48
1
60
0
100
AcDbLine
10
-1
20
0.166667
30
0
11
-1
21
-0.166667
31
0
39
0
210
0
220
0
230
1
0
LINE
5
172
100
AcDbEntity
8
0
62
256
6
ByLayer
370
-2
48
1
60
0
100
AcDbLine
10
0
20
0
30
0
11
-1
21
0
31
0
39
0
210
0
220
0
230
1
0
ENDBLK
5
16E
100
AcDbEntity
8
0
100
AcDbBlockEnd
0
BLOCK
5
17E
100
AcDbEntity
8
0
100
AcDbBlockBegin
2
DimnDraft3D2
70
0
10
0
20
0
30
0
3
DimnDraft3D2
0
MTEXT
5
174
100
AcDbEntity
8
SK2
62
256
6
ByLayer
370
13
48
1
60
0
100
AcDbMText
10
-102.95
20
-4.156579
30
0
210
0
220
0
230
1
1
\W0.7346;20.0
40
4.5
41
0
44
1.084337
50
90
71
7
72
5
7
iso_b_vert
0
LINE
5
175
100
AcDbEntity
8
SK2
62
256
6
ByLayer
370
13
48
1
60
0
100
AcDbLine
10
-94.3125
20
9.9375
30
0
11
-105
21
9.9375
31
0
39
0
210
0
220
0
230
1
0
LINE
5
176
100
AcDbEntity
8
SK2
62
256
6
ByLayer
370
13
48
1
60
0
100
AcDbLine
10
-94.3125
20
-9.9375
30
0
11
-105
21
-9.9375
31
0
39
0
210
0
220
0
230
1
0
LINE
5
177
100
AcDbEntity
8
SK2
62
256
6
ByLayer
370
13
48
1
60
0
100
AcDbLine
10
-101.825
20
9.9375
30
0
11
-101.825
21
-9.9375
31
0
39
0
210
0
220
0
230
1
0
LINE
5
178
100
AcDbEntity
8
SK2
62
256
6
ByLayer
370
13
48
1
60
0
100
AcDbLine
10
-101.825
20
9.9375
30
0
11
-100.974261
21
6.762503
31
0
39
0
210
0
220
0
230
1
0
LINE
5
179
100
AcDbEntity
8
SK2
62
256
6
ByLayer
370
13
48
1
60
0
100
AcDbLine
10
-101.825
20
9.9375
30
0
11
-102.675739
21
6.762497
31
0
39
0
210
0
220
0
230
1
0
LINE
5
17A
100
AcDbEntity
8
SK2
62
256
6
ByLayer
370
13
48
1
60
0
100
AcDbLine
10
-100.974261
20
6.762503
30
0
11
-102.675739
21
6.762497
31
0
39
0
210
0
220
0
230
1
0
LINE
5
17B
100
AcDbEntity
8
SK2
62
256
6
ByLayer
370
13
48
1
60
0
100
AcDbLine
10
-101.825
20
-9.9375
30
0
11
-102.675739
21
-6.762503
31
0
39
0
210
0
220
0
230
1
0
LINE
5
17C
100
AcDbEntity
8
SK2
62
256
6
ByLayer
370
13
48
1
60
0
100
AcDbLine
10
-101.825
20
-9.9375
30
0
11
-100.974261
21
-6.762497
31
0
39
0
210
0
220
0
230
1
0
LINE
5
17D
100
AcDbEntity
8
SK2
62
256
6
ByLayer
370
13
48
1
60
0
100
AcDbLine
10
-102.675739
20
-6.762503
30
0
11
-100.974261
21
-6.762497
31
0
39
0
210
0
220
0
230
1
0
ENDBLK
5
17F
100
AcDbEntity
8
0
100
AcDbBlockEnd
0
BLOCK
5
18C
100
AcDbEntity
8
0
100
AcDbBlockBegin
2
DimnDraft3D3
70
0
10
0
20
0
30
0
3
DimnDraft3D3
0
MTEXT
5
182
100
AcDbEntity
8
2
62
256
6
ByLayer
370
13
48
1
60
0
100
AcDbMText
10
52
20
-1.594079
30
0
210
0
220
0
230
1
1
\W0.7346;25.0
40
4.5
41
0
44
1.084337
50
90
71
7
72
5
7
iso_b_vert
0
LINE
5
183
100
AcDbEntity
8
2
62
256
6
ByLayer
370
13
48
1
60
0
100
AcDbLine
10
1.5875
20
-9.9375
30
0
11
56.3
21
-9.9375
31
0
39
0
210
0
220
0
230
1
0
LINE
5
184
100
AcDbEntity
8
2
62
256
6
ByLayer
370
13
48
1
60
0
100
AcDbLine
10
33.8625
20
15.0625
30
0
11
56.3
21
15.0625
31
0
39
0
210
0
220
0
230
1
0
LINE
5
185
100
AcDbEntity
8
2
62
256
6
ByLayer
370
13
48
1
60
0
100
AcDbLine
10
53.125
20
-9.9375
30
0
11
53.125
21
15.0625
31
0
39
0
210
0
220
0
230
1
0
LINE
5
186
100
AcDbEntity
8
2
62
256
6
ByLayer
370
13
48
1
60
0
100
AcDbLine
10
53.125
20
-9.9375
30
0
11
52.274261
21
-6.762503
31
0
39
0
210
0
220
0
230
1
0
LINE
5
187
100
AcDbEntity
8
2
62
256
6
ByLayer
370
13
48
1
60
0
100
AcDbLine
10
53.125
20
-9.9375
30
0
11
53.975739
21
-6.762497
31
0
39
0
210
0
220
0
230
1
0
LINE
5
188
100
AcDbEntity
8
2
62
256
6
ByLayer
370
13
48
1
60
0
100
AcDbLine
10
52.274261
20
-6.762503
30
0
11
53.975739
21
-6.762497
31
0
39
0
210
0
220
0
230
1
0
LINE
5
189
100
AcDbEntity
8
2
62
256
6
ByLayer
370
13
48
1
60
0
100
AcDbLine
10
53.125
20
15.0625
30
0
11
53.975739
21
11.887503
31
0
39
0
210
0
220
0
230
1
0
LINE
5
18A
100
AcDbEntity
8
2
62
256
6
ByLayer
370
13
48
1
60
0
100
AcDbLine
10
53.125
20
15.0625
30
0
11
52.274261
21
11.887497
31
0
39
0
210
0
220
0
230
1
0
LINE
5
18B
100
AcDbEntity
8
2
62
256
6
ByLayer
370
13
48
1
60
0
100
AcDbLine
10
53.975739
20
11.887503
30
0
11
52.274261
21
11.887497
31
0
39
0
210
0
220
0
230
1
0
ENDBLK
5
18D
100
AcDbEntity
8
0
100
AcDbBlockEnd
0
BLOCK
5
19B
100
AcDbEntity
8
0
100
AcDbBlockBegin
2
DimnDraft3D4
70
0
10
0
20
0
30
0
3
DimnDraft3D4
0
MTEXT
5
190
100
AcDbEntity
8
2
62
256
6
ByLayer
370
13
48
1
60
0
100
AcDbMText
10
44.841087
20
-16.523089
30
0
210
0
220
0
230
1
1
\W0.7346;25.0
40
4.5
41
0
44
1.084337
50
29.537228401603
71
7
72
5
7
iso_b_vert
0
LINE
5
191
100
AcDbEntity
8
2
62
256
6
ByLayer
370
13
48
1
60
0
100
AcDbLine
10
32.275
20
12.062795
30
0
11
32.275
21
-23.040049
31
0
39
0
210
0
220
0
230
1
0
LINE
5
192
100
AcDbEntity
8
2
62
256
6
ByLayer
370
13
48
1
60
0
100
AcDbLine
10
30.750514
20
10.815874
30
0
11
16.585215
21
-19.561707
31
0
39
0
210
0
220
0
230
1
0
ARC
5
193
100
AcDbEntity
8
2
62
256
6
ByLayer
370
13
48
1
60
0
100
AcDbCircle
39
0
10
32.275
20
14.085144
30
0
40
33.9501932153244
210
0
220
0
230
1
100
AcDbArc
50
270
51
308.379764
0
ARC
5
194
100
AcDbEntity
8
2
62
256
6
ByLayer
370
13
48
1
60
0
100
AcDbCircle
39
0
10
32.275
20
14.085144
30
0
40
33.9501932153244
210
0
220
0
230
1
100
AcDbArc
50
245
51
270
0
LINE
5
195
100
AcDbEntity
8
2
62
256
6
ByLayer
370
13
48
1
60
0
100
AcDbLine
10
32.275
20
-19.865049
30
0
11
29.080996
21
-20.641385
31
0
39
0
210
0
220
0
230
1
0
LINE
5
196
100
AcDbEntity
8
2
62
256
6
ByLayer
370
13
48
1
60
0
100
AcDbLine
10
32.275
20
-19.865049
30
0
11
29.120737
21
-18.940372
31
0
39
0
210
0
220
0
230
1
0
LINE
5
197
100
AcDbEntity
8
2
62
256
6
ByLayer
370
13
48
1
60
0
100
AcDbLine
10
29.080996
20
-20.641385
30
0
11
29.120737
21
-18.940372
31
0
39
0
210
0
220
0
230
1
0
LINE
5
198
100
AcDbEntity
8
2
62
256
6
ByLayer
370
13
48
1
60
0
100
AcDbLine
10
17.927028
20
-16.68418
30
0
11
21.176541
21
-17.179185
31
0
39
0
210
0
220
0
230
1
0
LINE
5
199
100
AcDbEntity
8
2
62
256
6
ByLayer
370
13
48
1
60
0
100
AcDbLine
10
17.927028
20
-16.68418
30
0
11
20.493691
21
-18.737627
31
0
39
0
210
0
220
0
230
1
0
LINE
5
19A
100
AcDbEntity
8
2
62
256
6
ByLayer
370
13
48
1
60
0
100
AcDbLine
10
21.176541
20
-17.179185
30
0
11
20.493691
21
-18.737627
31
0
39
0
210
0
220
0
230
1
0
ENDBLK
5
19C
100
AcDbEntity
8
0
100
AcDbBlockEnd
0
ENDSEC
0
SECTION
2
ENTITIES
0
ARC
5
D0
100
AcDbEntity
8
1
62
256
6
ByLayer
370
18
48
1
60
0
100
AcDbCircle
39
0
10
22.765786
20
6.322401
30
0
40
5.25090221253897
210
0
220
0
230
1
100
AcDbArc
50
114
51
127.287849
0
ARC
5
D1
100
AcDbEntity
8
1
62
256
6
ByLayer
370
18
48
1
60
0
100
AcDbCircle
39
0
10
14.940252
20
-1.055947
30
0
40
1.95090221253896
210
0
220
0
230
1
100
AcDbArc
50
223.269068
51
275
0
ARC
5
D2
100
AcDbEntity
8
1
62
256
6
ByLayer
370
18
48
1
60
0
100
AcDbCircle
39
0
10
-16.744647
20
2.414522
30
0
40
5
210
0
220
0
230
-1
100
AcDbArc
50
245
51
254.320316
0
ARC
5
D3
100
AcDbEntity
8
1
62
256
6
ByLayer
370
18
48
1
60
0
100
AcDbCircle
39
0
10
-14.940252
20
-1.055947
30
0
40
1.7
210
0
220
0
230
-1
100
AcDbArc
50
276.675923
51
312.964542
0
ARC
5
D4
100
AcDbEntity
8
1
62
256
6
ByLayer
370
18
48
1
60
0
100
AcDbCircle
39
0
10
0.62115
20
11.4375
30
0
40
1.49999999990778
210
0
220
0
230
-1
100
AcDbArc
50
225
51
244.029085
0
ARC
5
D5
100
AcDbEntity
8
1
62
256
6
ByLayer
370
18
48
1
60
0
100
AcDbCircle
39
0
10
16.744647
20
2.414522
30
0
40
5.25090221253896
210
0
220
0
230
1
100
AcDbArc
50
275
51
295
0
ARC
5
D6
100
AcDbEntity
8
1
62
256
6
ByLayer
370
13
48
1
60
0
100
AcDbCircle
39
0
10
-23.31357
20
6.10107
30
0
40
2.578
210
0
220
0
230
-1
100
AcDbArc
50
180.000002
51
248.506885
0
ARC
5
D7
100
AcDbEntity
8
1
62
256
6
ByLayer
370
13
48
1
60
0
100
AcDbCircle
39
0
10
-23.31357
20
6.10107
30
0
40
2.578
210
0
220
0
230
-1
100
AcDbArc
50
95.489994
51
180.000002
0
ARC
5
D8
100
AcDbEntity
8
1
62
256
6
ByLayer
370
13
48
1
60
0
100
AcDbCircle
39
0
10
-23.31357
20
6.10107
30
0
40
5.51786771999517
210
0
220
0
230
-1
100
AcDbArc
50
51.5
51
65
0
ARC
5
D9
100
AcDbEntity
8
1
62
256
6
ByLayer
370
18
48
1
60
0
100
AcDbCircle
39
0
10
23.31357
20
6.10107
30
0
40
2.39894876836046
210
0
220
0
230
1
100
AcDbArc
50
301.398746
51
74.604367
0
ARC
5
DA
100
AcDbEntity
8
1
62
256
6
ByLayer
370
18
48
1
60
0
100
AcDbCircle
39
0
10
-23.31357
20
6.10107
30
0
40
2.3603546462382
210
0
220
0
230
-1
100
AcDbArc
50
180.000005
51
225
0
ARC
5
DB
100
AcDbEntity
8
1
62
256
6
ByLayer
370
18
48
1
60
0
100
AcDbCircle
39
0
10
-23.31357
20
6.10107
30
0
40
2.3603546462382
210
0
220
0
230
-1
100
AcDbArc
50
225
51
235.732509
0
ARC
5
DC
100
AcDbEntity
8
1
62
256
6
ByLayer
370
18
48
1
60
0
100
AcDbCircle
39
0
10
-23.31357
20
6.10107
30
0
40
2.3603546462382
210
0
220
0
230
-1
100
AcDbArc
50
108.264379
51
180.000005
0
ARC
5
DD
100
AcDbEntity
8
1
62
256
6
ByLayer
370
13
48
1
60
0
100
AcDbCircle
39
0
10
32.714411
20
6.148526
30
0
40
2.9926427035314
210
0
220
0
230
1
100
AcDbArc
50
155
51
159.447849
0
ARC
5
DE
100
AcDbEntity
8
1
62
256
6
ByLayer
370
13
48
1
60
0
100
AcDbCircle
39
0
10
-15.159498
20
-0.853002
30
0
40
2.00735729646859
210
0
220
0
230
-1
100
AcDbArc
50
265
51
270
0
ARC
5
DF
100
AcDbEntity
8
1
62
256
6
ByLayer
370
13
48
1
60
0
100
AcDbCircle
39
0
10
-31.467643
20
13.055143
30
0
40
2.00735729646859
210
0
220
0
230
-1
100
AcDbArc
50
85
51
90
0
ARC
5
E0
100
AcDbEntity
8
1
62
256
6
ByLayer
370
13
48
1
60
0
100
AcDbCircle
39
0
10
-23.31357
20
6.10107
30
0
40
5.51786771999517
210
0
220
0
230
-1
100
AcDbArc
50
205
51
245
0
ARC
5
E1
100
AcDbEntity
8
1
62
256
6
ByLayer
370
13
48
1
60
0
100
AcDbCircle
39
0
10
-30.381682
20
9.948674
30
0
40
5.0073572964686
210
0
220
0
230
-1
100
AcDbArc
50
65
51
85
0
ARC
5
E2
100
AcDbEntity
8
1
62
256
6
ByLayer
370
13
48
1
60
0
100
AcDbCircle
39
0
10
-16.245458
20
2.253466
30
0
40
5.0073572964686
210
0
220
0
230
-1
100
AcDbArc
50
245
51
265
0
ARC
5
E3
100
AcDbEntity
8
1
62
256
6
ByLayer
370
13
48
1
60
0
100
AcDbCircle
39
0
10
23.361026
20
15.501911
30
0
40
2.9926427035314
210
0
220
0
230
1
100
AcDbArc
50
290.552151
51
295
0
ARC
5
E4
100
AcDbEntity
8
1
62
256
6
ByLayer
370
13
48
1
60
0
100
AcDbCircle
39
0
10
-30.267643
20
14.255143
30
0
40
2.00735729646859
210
0
220
0
230
-1
100
AcDbArc
50
180
51
185
0
ARC
5
E5
100
AcDbEntity
8
1
62
256
6
ByLayer
370
13
48
1
60
0
100
AcDbCircle
39
0
10
23.266115
20
-3.299771
30
0
40
2.9926427035314
210
0
220
0
230
1
100
AcDbArc
50
110.552151
51
115
0
ARC
5
E6
100
AcDbEntity
8
1
62
256
6
ByLayer
370
13
48
1
60
0
100
AcDbCircle
39
0
10
-27.161174
20
13.169182
30
0
40
5.0073572964686
210
0
220
0
230
-1
100
AcDbArc
50
185
51
205
0
ARC
5
E7
100
AcDbEntity
8
1
62
256
6
ByLayer
370
13
48
1
60
0
100
AcDbCircle
39
0
10
-15.159498
20
-2.053002
30
0
40
0.807357296468598
210
0
220
0
230
-1
100
AcDbArc
50
270
51
0
0
ARC
5
E8
100
AcDbEntity
8
1
62
256
6
ByLayer
370
13
48
1
60
0
100
AcDbCircle
39
0
10
-31.467643
20
14.255143
30
0
40
0.807357296468598
210
0
220
0
230
-1
100
AcDbArc
50
90
51
180
0
ARC
5
E9
100
AcDbEntity
8
1
62
256
6
ByLayer
370
18
48
1
60
0
100
AcDbCircle
39
0
10
9.347574
20
5.23582
30
0
40
0.38
210
0
220
0
230
1
100
AcDbArc
50
346.784897
51
149.215103
0
ARC
5
EA
100
AcDbEntity
8
1
62
256
6
ByLayer
370
18
48
1
60
0
100
AcDbCircle
39
0
10
-8.656002
20
5.647833
30
0
40
0.425
210
0
220
0
230
-1
100
AcDbArc
50
272.063185
51
313.215103
0
ARC
5
EC
100
AcDbEntity
8
1
62
256
6
ByLayer
370
18
48
1
60
0
100
AcDbCircle
39
0
10
8.407311
20
2.908589
30
0
40
0.38
210
0
220
0
230
1
100
AcDbArc
50
166.784897
51
329.215103
0
ARC
5
ED
100
AcDbEntity
8
1
62
256
6
ByLayer
370
18
48
1
60
0
100
AcDbCircle
39
0
10
-7.623628
20
3.092618
30
0
40
0.425
210
0
220
0
230
-1
100
AcDbArc
50
152.063185
51
193.215103
0
ARC
5
EF
100
AcDbEntity
8
1
62
256
6
ByLayer
370
18
48
1
60
0
100
AcDbCircle
39
0
10
-8.877442
20
4.072205
30
0
40
1.175
210
0
220
0
230
-1
100
AcDbArc
50
258.376394
51
265.623606
0
ARC
5
F0
100
AcDbEntity
8
1
62
256
6
ByLayer
370
18
48
1
60
0
100
AcDbCircle
39
0
10
-8.656002
20
5.647833
30
0
40
0.425
210
0
220
0
230
-1
100
AcDbArc
50
210.784897
51
251.936815
0
ARC
5
F1
100
AcDbEntity
8
1
62
256
6
ByLayer
370
18
48
1
60
0
100
AcDbCircle
39
0
10
-7.623628
20
3.092618
30
0
40
0.425
210
0
220
0
230
-1
100
AcDbArc
50
90.784897
51
131.936815
0
ARC
5
F2
100
AcDbEntity
8
1
62
256
6
ByLayer
370
18
48
1
60
0
100
AcDbCircle
39
0
10
-10.352696
20
3.476163
30
0
40
0.425
210
0
220
0
230
-1
100
AcDbArc
50
32.063185
51
73.215103
0
ARC
5
F3
100
AcDbEntity
8
1
62
256
6
ByLayer
370
18
48
1
60
0
100
AcDbCircle
39
0
10
-7.402188
20
4.668246
30
0
40
0.425
210
0
220
0
230
-1
100
AcDbArc
50
212.063185
51
253.215103
0
ARC
5
F4
100
AcDbEntity
8
1
62
256
6
ByLayer
370
18
48
1
60
0
100
AcDbCircle
39
0
10
-8.877442
20
4.072205
30
0
40
1.175
210
0
220
0
230
-1
100
AcDbArc
50
198.376394
51
205.623606
0
ARC
5
F5
100
AcDbEntity
8
1
62
256
6
ByLayer
370
18
48
1
60
0
100
AcDbCircle
39
0
10
9.650097
20
3.083251
30
0
40
0.38
210
0
220
0
230
1
100
AcDbArc
50
226.784897
51
29.215103
0
ARC
5
F6
100
AcDbEntity
8
1
62
256
6
ByLayer
370
18
48
1
60
0
100
AcDbCircle
39
0
10
7.634656
20
3.897542
30
0
40
0.38
210
0
220
0
230
1
100
AcDbArc
50
106.784897
51
269.215103
0
ARC
5
F7
100
AcDbEntity
8
1
62
256
6
ByLayer
370
18
48
1
60
0
100
AcDbCircle
39
0
10
-8.877442
20
4.072205
30
0
40
1.175
210
0
220
0
230
-1
100
AcDbArc
50
78.376394
51
85.623606
0
ARC
5
F9
100
AcDbEntity
8
1
62
256
6
ByLayer
370
18
48
1
60
0
100
AcDbCircle
39
0
10
-9.098882
20
2.496577
30
0
40
0.425
210
0
220
0
230
-1
100
AcDbArc
50
92.063185
51
133.215103
0
ARC
5
FA
100
AcDbEntity
8
1
62
256
6
ByLayer
370
18
48
1
60
0
100
AcDbCircle
39
0
10
-10.131256
20
5.051791
30
0
40
0.425
210
0
220
0
230
-1
100
AcDbArc
50
332.063185
51
13.215103
0
ARC
5
FB
100
AcDbEntity
8
1
62
256
6
ByLayer
370
18
48
1
60
0
100
AcDbCircle
39
0
10
-8.877442
20
4.072205
30
0
40
1.175
210
0
220
0
230
-1
100
AcDbArc
50
318.376394
51
325.623606
0
ARC
5
FC
100
AcDbEntity
8
1
62
256
6
ByLayer
370
18
48
1
60
0
100
AcDbCircle
39
0
10
-7.402188
20
4.668246
30
0
40
0.425
210
0
220
0
230
-1
100
AcDbArc
50
150.784897
51
191.936815
0
ARC
5
FD
100
AcDbEntity
8
1
62
256
6
ByLayer
370
18
48
1
60
0
100
AcDbCircle
39
0
10
-8.877442
20
4.072205
30
0
40
1.175
210
0
220
0
230
-1
100
AcDbArc
50
18.376394
51
25.623606
0
ARC
5
FE
100
AcDbEntity
8
1
62
256
6
ByLayer
370
18
48
1
60
0
100
AcDbCircle
39
0
10
-9.098882
20
2.496577
30
0
40
0.425
210
0
220
0
230
-1
100
AcDbArc
50
30.784897
51
71.936815
0
ARC
5
FF
100
AcDbEntity
8
1
62
256
6
ByLayer
370
18
48
1
60
0
100
AcDbCircle
39
0
10
-10.352696
20
3.476163
30
0
40
0.425
210
0
220
0
230
-1
100
AcDbArc
50
330.784897
51
11.936815
0
ARC
5
100
100
AcDbEntity
8
1
62
256
6
ByLayer
370
18
48
1
60
0
100
AcDbCircle
39
0
10
8.104787
20
5.061158
30
0
40
0.38
210
0
220
0
230
1
100
AcDbArc
50
46.784897
51
209.215103
0
ARC
5
101
100
AcDbEntity
8
1
62
256
6
ByLayer
370
18
48
1
60
0
100
AcDbCircle
39
0
10
10.120229
20
4.246867
30
0
40
0.38
210
0
220
0
230
1
100
AcDbArc
50
286.784897
51
89.215103
0
ARC
5
102
100
AcDbEntity
8
1
62
256
6
ByLayer
370
18
48
1
60
0
100
AcDbCircle
39
0
10
-10.131256
20
5.051791
30
0
40
0.425
210
0
220
0
230
-1
100
AcDbArc
50
270.784897
51
311.936815
0
ARC
5
103
100
AcDbEntity
8
1
62
256
6
ByLayer
370
18
48
1
60
0
100
AcDbCircle
39
0
10
-8.877442
20
4.072205
30
0
40
1.175
210
0
220
0
230
-1
100
AcDbArc
50
138.376394
51
145.623606
0
ARC
5
104
100
AcDbEntity
8
1
62
256
6
ByLayer
370
18
48
1
60
0
100
AcDbCircle
39
0
10
-23.444286
20
6.119441
30
0
40
2.20000000000961
210
0
220
0
230
-1
100
AcDbArc
50
123
51
172
0
ARC
5
105
100
AcDbEntity
8
1
62
256
6
ByLayer
370
18
48
1
60
0
100
AcDbCircle
39
0
10
-23.444286
20
6.119441
30
0
40
2.20000000000658
210
0
220
0
230
-1
100
AcDbArc
50
172
51
221
0
CIRCLE
5
EB
100
AcDbEntity
8
1
62
256
6
ByLayer
370
18
48
1
60
0
100
AcDbCircle
10
-8.877442
20
4.072205
30
0
40
1.15
39
0
210
0
220
0
230
-1
0
CIRCLE
5
EE
100
AcDbEntity
8
1
62
256
6
ByLayer
370
18
48
1
60
0
100
AcDbCircle
10
8.877442
20
4.072205
30
0
40
2.3
39
0
210
0
220
0
230
1
0
CIRCLE
5
F8
100
AcDbEntity
8
1
62
256
6
ByLayer
370
18
48
1
60
0
100
AcDbCircle
10
8.877442
20
4.072205
30
0
40
4
39
0
210
0
220
0
230
1
0
ELLIPSE
5
106
100
AcDbEntity
8
1
62
256
6
ByLayer
370
18
48
1
60
0
100
AcDbEllipse
10
-1.122861
20
-4.402039
30
0
11
7.0022526659967
21
0.984102434476221
31
0
210
0
220
0
230
-1
40
0.707107
41
0.0400278740357922
42
1.50959231461757
0
ELLIPSE
5
107
100
AcDbEntity
8
1
62
256
6
ByLayer
370
18
48
1
60
0
100
AcDbEllipse
10
25.982539
20
13.349816
30
0
11
0.499999394336848
21
0.0176504864103214
31
0
210
0
220
0
230
-1
40
0.044092
41
2.01568594944424
42
-3.14003616861467
0
ELLIPSE
5
108
100
AcDbEntity
8
SK1
62
256
6
ByLayer
370
18
48
1
60
0
100
AcDbEllipse
10
-1.490712
20
-4.453737
30
0
11
-0.695865504800327
21
4.95134034370785
31
0
210
0
220
0
230
1
40
0.707107
41
-3.10656339073452
42
-2.90697495299735
0
ELLIPSE
5
109
100
AcDbEntity
8
SK1
62
256
6
ByLayer
370
18
48
1
60
0
100
AcDbEllipse
10
-1.122861
20
-4.402039
30
0
11
7.0022526659967
21
0.984102434476221
31
0
210
0
220
0
230
-1
40
0.707107
41
1.50959231461757
42
1.67605707522679
0
ELLIPSE
5
10A
100
AcDbEntity
8
SK1
62
256
6
ByLayer
370
18
48
1
60
0
100
AcDbEllipse
10
-2.190937
20
-4.552148
30
0
11
0.556692403840258
21
-3.96107227496628
31
0
210
0
220
0
230
1
40
0.707107
41
-0.391237930929978
42
0.67829560790471
0
ELLIPSE
5
10B
100
AcDbEntity
8
1
62
256
6
ByLayer
370
18
48
1
60
0
100
AcDbEllipse
10
-63.990154
20
44.946408
30
0
11
70.7214493379357
21
-70.7214493379363
31
0
210
0
220
0
230
-1
40
0.999848
41
-0.327860303992191
42
-0.209408536055006
0
ELLIPSE
5
10C
100
AcDbEntity
8
1
62
256
6
ByLayer
370
18
48
1
60
0
100
AcDbEllipse
10
-2.190937
20
-4.552148
30
0
11
0.556692403840258
21
-3.96107227496628
31
0
210
0
220
0
230
1
40
0.707107
41
0.67829560790471
42
1.5707963267949
0
ELLIPSE
5
10D
100
AcDbEntity
8
1
62
256
6
ByLayer
370
18
48
1
60
0
100
AcDbEllipse
10
-61.367691
20
42.313958
30
0
11
16.1268906358719
21
100.735565996153
31
0
210
0
220
0
230
-1
40
0.941679
41
1.83800406349673
42
1.84129389576816
0
ELLIPSE
5
10E
100
AcDbEntity
8
1
62
256
6
ByLayer
370
18
48
1
60
0
100
AcDbEllipse
10
-1.490712
20
-4.453737
30
0
11
-0.695865504800327
21
4.95134034370785
31
0
210
0
220
0
230
1
40
0.707107
41
-2.90697495299735
42
-1.5707963267949
0
ELLIPSE
5
10F
100
AcDbEntity
8
1
62
256
6
ByLayer
370
18
48
1
60
0
100
AcDbEllipse
10
2.525518
20
7.427367
30
0
11
-0.975171420847534
21
-1.74615025125623
31
0
210
0
220
0
230
1
40
0.848036
41
-2.41183863393648
42
-0.999163139676877
0
ELLIPSE
5
110
100
AcDbEntity
8
1
62
256
6
ByLayer
370
18
48
1
60
0
100
AcDbEllipse
10
9.606637
20
4.174686
30
0
11
-0.577568368984271
21
4.10961248527752
31
0
210
0
220
0
230
1
40
0.999848
41
-3.14159265358977
42
2.37597089665373E-14
0
ELLIPSE
5
111
100
AcDbEntity
8
1
62
256
6
ByLayer
370
18
48
1
60
0
100
AcDbEllipse
10
4.238192
20
7.661476
30
0
11
3.00917664613404
21
-1.86131705850436
31
0
210
0
220
0
230
-1
40
0.724269
41
-2.78454212735022
42
-2.42492639399311
0
ELLIPSE
5
112
100
AcDbEntity
8
1
62
256
6
ByLayer
370
18
48
1
60
0
100
AcDbEllipse
10
2.823124
20
7.462602
30
0
11
-2.99311442728584
21
-0.420654799970521
31
0
210
-8.58920633178108E-16
220
-1.20713422729958E-16
230
1
40
0.992546
41
-1.05168906306426
42
-2.96059518465387E-16
0
ELLIPSE
5
113
100
AcDbEntity
8
1
62
256
6
ByLayer
370
18
48
1
60
0
100
AcDbEllipse
10
5.407246
20
-0.656775
30
0
11
2.37955773389997
21
2.61865428628804
31
0
210
0
220
0
230
-1
40
0.724269
41
2.42492639399819
42
2.78454212735419
0
ELLIPSE
5
114
100
AcDbEntity
8
1
62
256
6
ByLayer
370
18
48
1
60
0
100
AcDbEllipse
10
6.881045
20
-1.051139
30
0
11
5.44647409194318
21
0.765452045723732
31
0
210
0
220
0
230
-1
40
0.240328
41
-2.73264227692815
42
-2.67964997066644
0
ELLIPSE
5
115
100
AcDbEntity
8
1
62
256
6
ByLayer
370
18
48
1
60
0
100
AcDbEllipse
10
5.546197
20
8.446797
30
0
11
5.44647397382303
21
0.765451953936809
31
0
210
0
220
0
230
-1
40
0.240328
41
2.67964996475879
42
2.73264227170521
0
ELLIPSE
5
116
100
AcDbEntity
8
1
62
256
6
ByLayer
370
18
48
1
60
0
100
AcDbEllipse
10
3.696389
20
-0.903812
30
0
11
1.41869917194994
21
-1.40971367997497
31
0
210
0
220
0
230
1
40
0.848036
41
-2.14242951391291
42
-0.729754019653306
0
ELLIPSE
5
117
100
AcDbEntity
8
1
62
256
6
ByLayer
370
18
48
1
60
0
100
AcDbEllipse
10
7.141441
20
-2.903949
30
0
11
3.46593824058734
21
0.487105853359701
31
0
210
0
220
0
230
-1
40
0.377658
41
2.88031721715651
42
-2.67964998362345
0
ELLIPSE
5
118
100
AcDbEntity
8
1
62
256
6
ByLayer
370
18
48
1
60
0
100
AcDbEllipse
10
3.992178
20
-0.85565
30
0
11
-2.99311442728587
21
-0.420654799970528
31
-2.62162641975114E-15
210
8.58920633178108E-16
220
1.20713422729958E-16
230
-1
40
0.992546
41
-1.05168906306426
42
-2.59052078657211E-16
0
ELLIPSE
5
119
100
AcDbEntity
8
1
62
256
6
ByLayer
370
18
48
1
60
0
100
AcDbEllipse
10
5.285802
20
10.299607
30
0
11
3.46593824060598
21
0.487105853362807
31
0
210
0
220
0
230
-1
40
0.377658
41
2.67964998362491
42
-2.88031721715702
0
POINT
5
6C
100
AcDbEntity
8
80
62
256
6
ByLayer
370
18
48
1
60
0
100
AcDbPoint
10
0
20
0
30
0
39
0
210
0
220
0
230
1
50
360
0
POINT
5
6E
100
AcDbEntity
8
81
62
256
6
ByLayer
370
18
48
1
60
0
100
AcDbPoint
10
32.275
20
15.0625
30
0
39
0
210
0
220
0
230
1
50
360
0
SPLINE
5
11A
100
AcDbEntity
8
SK1
62
256
6
ByLayer
370
18
48
1
60
0
100
AcDbSpline
70
4
71
3
72
14
73
10
40
0
40
0
40
0
40
0
40
0.25
40
0.25
40
0.5
40
0.5
40
0.75
40
0.75
40
1
40
1
40
1
40
1
41
1
10
-0.621149636700324
20
9.93749999999997
30
0
41
1
10
-0.562047981407375
20
9.93749999999997
30
0
41
1
10
-0.504221499440007
20
9.94097902484114
30
0
41
1
10
-0.391017973252872
20
9.9541636808018
30
0
41
1
10
-0.335043513769449
20
9.96403644887619
30
0
41
1
10
-0.229198884167403
20
9.98859484173121
30
0
41
1
10
-0.179270827275275
20
10.0031941733222
30
0
41
1
10
-0.0849226853271432
20
10.0357329925119
30
0
41
1
10
-0.040548308908825
20
10.0537057394586
30
0
41
1
10
2.84E-14
20
10.0721527442342
30
0
0
SPLINE
5
11B
100
AcDbEntity
8
SK1
62
256
6
ByLayer
370
18
48
1
60
0
100
AcDbSpline
70
4
71
3
72
22
73
18
40
0
40
0
40
0
40
0
40
0.125
40
0.125
40
0.25
40
0.25
40
0.375
40
0.375
40
0.5
40
0.5
40
0.625
40
0.625
40
0.75
40
0.75
40
0.875
40
0.875
40
1
40
1
40
1
40
1
41
1
10
-1.16654901824398
20
-9.42937114049508
30
0
41
1
10
-1.25299593917706
20
-9.43500316569919
30
0
41
1
10
-1.34043517908177
20
-9.4338517720762
30
0
41
1
10
-1.51200687594255
20
-9.41846341099514
30
0
41
1
10
-1.59684984214823
20
-9.40429787276292
30
0
41
1
10
-1.76462191663313
20
-9.36283126474507
30
0
41
1
10
-1.84785982767843
20
-9.33527887537747
30
0
41
1
10
-2.0066137041965
20
-9.2684387390542
30
0
41
1
10
-2.08285441807422
20
-9.22904197748008
30
0
41
1
10
-2.22875045251274
20
-9.13769869000689
30
0
41
1
10
-2.29904939206588
20
-9.08512811795831
30
0
41
1
10
-2.42766356194963
20
-8.96934221579434
30
0
41
1
10
-2.48627296893031
20
-8.90618200844801
30
0
41
1
10
-2.59050841339303
20
-8.76785903152057
30
0
41
1
10
-2.63599815638037
20
-8.69247357680831
30
0
41
1
10
-2.70650104747654
20
-8.53447144965625
30
0
41
1
10
-2.73233555590758
20
-8.44976482720548
30
0
41
1
10
-2.7443861324941
20
-8.36402051942454
30
0
0
SPLINE
5
11C
100
AcDbEntity
8
SK1
62
256
6
ByLayer
370
18
48
1
60
0
100
AcDbSpline
70
4
71
3
72
24
73
20
40
0
40
0
40
0
40
0
40
0.125
40
0.125
40
0.1875
40
0.1875
40
0.25
40
0.25
40
0.375
40
0.375
40
0.5
40
0.5
40
0.625
40
0.625
40
0.75
40
0.75
40
0.875
40
0.875
40
1
40
1
40
1
40
1
41
1
10
2.84E-14
20
-9.15503954680167
30
0
41
1
10
2.84E-14
20
-9.13658488514309
30
0
41
1
10
2.84E-14
20
-9.10822892501972
30
0
41
1
10
2.84E-14
20
-9.05210510594256
30
0
41
1
10
2.84E-14
20
-9.03103152672048
30
0
41
1
10
2.84E-14
20
-8.98515056839048
30
0
41
1
10
2.84E-14
20
-8.96028445789082
30
0
41
1
10
2.84E-14
20
-8.88019964462188
30
0
41
1
10
2.84E-14
20
-8.81953307760085
30
0
41
1
10
2.84E-14
20
-8.68408889354146
30
0
41
1
10
2.84E-14
20
-8.61060507588834
30
0
41
1
10
2.84E-14
20
-8.45359888745449
30
0
41
1
10
2.84E-14
20
-8.36996463350764
30
0
41
1
10
2.84E-14
20
-8.19232845106933
30
0
41
1
10
2.84E-14
20
-8.0986975594636
30
0
41
1
10
2.84E-14
20
-7.90661350750577
30
0
41
1
10
2.84E-14
20
-7.80751681985487
30
0
41
1
10
2.84E-14
20
-7.60269932887235
30
0
41
1
10
2.84E-14
20
-7.49625014375408
30
0
41
1
10
2.84E-14
20
-7.3894133588667
30
0
0
SPLINE
5
11D
100
AcDbEntity
8
1
62
256
6
ByLayer
370
18
48
1
60
0
100
AcDbSpline
70
4
71
3
72
24
73
20
40
0
40
0
40
0
40
0
40
0.125
40
0.125
40
0.1875
40
0.1875
40
0.25
40
0.25
40
0.375
40
0.375
40
0.5
40
0.5
40
0.625
40
0.625
40
0.75
40
0.75
40
0.875
40
0.875
40
1
40
1
40
1
40
1
41
1
10
2.84E-14
20
-9.15503954680167
30
0
41
1
10
2.84E-14
20
-9.13658488514309
30
0
41
1
10
2.84E-14
20
-9.10822892501972
30
0
41
1
10
2.84E-14
20
-9.05210510594256
30
0
41
1
10
2.84E-14
20
-9.03103152672048
30
0
41
1
10
2.84E-14
20
-8.98515056839048
30
0
41
1
10
2.84E-14
20
-8.96028445789082
30
0
41
1
10
2.84E-14
20
-8.88019964462188
30
0
41
1
10
2.84E-14
20
-8.81953307760085
30
0
41
1
10
2.84E-14
20
-8.68408889354146
30
0
41
1
10
2.84E-14
20
-8.61060507588834
30
0
41
1
10
2.84E-14
20
-8.45359888745449
30
0
41
1
10
2.84E-14
20
-8.36996463350764
30
0
41
1
10
2.84E-14
20
-8.19232845106933
30
0
41
1
10
2.84E-14
20
-8.0986975594636
30
0
41
1
10
2.84E-14
20
-7.90661350750577
30
0
41
1
10
2.84E-14
20
-7.80751681985487
30
0
41
1
10
2.84E-14
20
-7.60269932887235
30
0
41
1
10
2.84E-14
20
-7.49625014375408
30
0
41
1
10
2.84E-14
20
-7.3894133588667
30
0
0
SPLINE
5
11E
100
AcDbEntity
8
1
62
256
6
ByLayer
370
18
48
1
60
0
100
AcDbSpline
70
4
71
3
72
8
73
4
40
0
40
0
40
0
40
0
40
1
40
1
40
1
40
1
41
1
10
5.68E-14
20
10.0721527442342
30
0
41
1
10
0.0122227051916468
20
10.0777133288087
30
0
41
1
10
0.0241284272441646
20
10.0833277287273
30
0
41
1
10
0.0357226063037501
20
10.0889753037594
30
0
0
SPLINE
5
11F
100
AcDbEntity
8
1
62
256
6
ByLayer
370
13
48
1
60
0
100
AcDbSpline
70
4
71
3
72
8
73
4
40
0
40
0
40
0
40
0
40
1
40
1
40
1
40
1
41
1
10
29.9122412018052
20
7.19912214227284
30
0
41
1
10
29.9077251118872
20
7.18707674544078
30
0
41
1
10
29.9027374990669
20
7.17519780082719
30
0
41
1
10
29.8973008694639
20
7.16353891101946
30
0
0
SPLINE
5
120
100
AcDbEntity
8
1
62
256
6
ByLayer
370
13
48
1
60
0
100
AcDbSpline
70
4
71
3
72
8
73
4
40
0
40
0
40
0
40
0
40
1
40
1
40
1
40
1
41
1
10
24.3760389110194
20
12.6848008694639
30
0
41
1
10
24.3876978008272
20
12.6902374990668
30
0
41
1
10
24.3995767454408
20
12.6952251118872
30
0
41
1
10
24.4116221422729
20
12.6997412018051
30
0
0
SPLINE
5
121
100
AcDbEntity
8
1
62
256
6
ByLayer
370
13
48
1
60
0
100
AcDbSpline
70
4
71
3
72
8
73
4
40
0
40
0
40
0
40
0
40
1
40
1
40
1
40
1
41
1
10
22.2511013801796
20
-0.482660578264898
30
0
41
1
10
22.2394424903719
20
-0.488097207867838
30
0
41
1
10
22.2275635457583
20
-0.49308482068821
30
0
41
1
10
22.2155181489262
20
-0.497600910606138
30
0
0
SPLINE
5
122
100
AcDbEntity
8
1
62
256
6
ByLayer
370
18
48
1
60
0
100
AcDbSpline
70
4
71
3
72
10
73
6
40
0
40
0
40
0
40
0
40
0.5
40
0.5
40
1
40
1
40
1
40
1
41
1
10
9.75578351564647
20
4.85267992130008
30
0
41
1
10
9.76681975664113
20
4.83186843595158
30
0
41
1
10
9.78051807563966
20
4.81040726307793
30
0
41
1
10
9.8121075222688
20
4.76996229147588
30
0
41
1
10
9.82964295894655
20
4.75143640034611
30
0
41
1
10
9.84722401728564
20
4.73564141638388
30
0
0
SPLINE
5
123
100
AcDbEntity
8
1
62
256
6
ByLayer
370
18
48
1
60
0
100
AcDbSpline
70
4
71
3
72
10
73
6
40
0
40
0
40
0
40
0
40
0.5
40
0.5
40
1
40
1
40
1
40
1
41
1
10
9.99252426372655
20
3.7017764422032
30
0
41
1
10
9.97997795338566
20
3.6817473326993
30
0
41
1
10
9.96822823743096
20
3.65910568177421
30
0
41
1
10
9.949010657419
20
3.61152024823926
30
0
41
1
10
9.9417584890106
20
3.58711467637804
30
0
41
1
10
9.93688619606732
20
3.564067392391
30
0
0
SPLINE
5
124
100
AcDbEntity
8
1
62
256
6
ByLayer
370
18
48
1
60
0
100
AcDbSpline
70
4
71
3
72
10
73
6
40
0
40
0
40
0
40
0
40
0.5
40
0.5
40
1
40
1
40
1
40
1
41
1
10
8.6407014914063
20
5.22310815890131
30
0
41
1
10
8.66450154710114
20
5.22225076307009
30
0
41
1
10
8.68990251835302
20
5.22342218182737
30
0
41
1
10
8.74033772805146
20
5.23050664709828
30
0
41
1
10
8.76511257557846
20
5.23638594488523
30
0
41
1
10
8.78778006070175
20
5.24377870379695
30
0
0
SPLINE
5
125
100
AcDbEntity
8
1
62
256
6
ByLayer
370
18
48
1
60
0
100
AcDbSpline
70
4
71
3
72
10
73
6
40
0
40
0
40
0
40
0
40
0.5
40
0.5
40
1
40
1
40
1
40
1
41
1
10
9.11418298756368
20
2.92130120070596
30
0
41
1
10
9.09038293186879
20
2.9221585965372
30
0
41
1
10
9.06498196061696
20
2.92098717777992
30
0
41
1
10
9.01454675091847
20
2.91390271250898
30
0
41
1
10
8.98977190339147
20
2.90802341472207
30
0
41
1
10
8.96710441826818
20
2.90063065581035
30
0
0
SPLINE
5
126
100
AcDbEntity
8
1
62
256
6
ByLayer
370
18
48
1
60
0
100
AcDbSpline
70
4
71
3
72
10
73
6
40
0
40
0
40
0
40
0
40
0.5
40
0.5
40
1
40
1
40
1
40
1
41
1
10
7.99910096332346
20
3.29172943830722
30
0
41
1
10
7.98806472232874
20
3.31254092365572
30
0
41
1
10
7.97436640333027
20
3.33400209652936
30
0
41
1
10
7.94277695670107
20
3.37444706813139
30
0
41
1
10
7.92524152002332
20
3.39297295926116
30
0
41
1
10
7.90766046168423
20
3.40876794322341
30
0
0
SPLINE
5
127
100
AcDbEntity
8
1
62
256
6
ByLayer
370
18
48
1
60
0
100
AcDbSpline
70
4
71
3
72
10
73
6
40
0
40
0
40
0
40
0
40
0.5
40
0.5
40
1
40
1
40
1
40
1
41
1
10
7.76236021524332
20
4.44263291740407
30
0
41
1
10
7.77490652558421
20
4.46266202690796
30
0
41
1
10
7.78665624153891
20
4.48530367783309
30
0
41
1
10
7.80587382155099
20
4.53288911136804
30
0
41
1
10
7.81312598995933
20
4.55729468322926
30
0
41
1
10
7.81799828290261
20
4.58034196721627
30
0
0
SPLINE
5
128
100
AcDbEntity
8
1
62
256
6
ByLayer
370
18
48
1
60
0
100
AcDbSpline
70
4
71
3
72
8
73
4
40
0
40
0
40
0
40
0
40
1
40
1
40
1
40
1
41
1
10
24.7593902653676
20
4.3252544888509
30
0
41
1
10
24.8255766558752
20
4.37938665326024
30
0
41
1
10
24.8896058036685
20
4.43760898812027
30
0
41
1
10
24.9514813274584
20
4.49991463229114
30
0
0
SPLINE
5
129
100
AcDbEntity
8
1
62
256
6
ByLayer
370
18
48
1
60
0
100
AcDbSpline
70
4
71
3
72
16
73
12
40
0
40
0
40
0
40
0
40
0.249999999999993
40
0.249999999999993
40
0.499999999999985
40
0.499999999999985
40
0.624999999999989
40
0.624999999999989
40
0.749999999999993
40
0.749999999999993
40
1
40
1
40
1
40
1
41
1
10
19.0996822524812
20
0.018476739663015
30
0
41
1
10
19.2761859734923
20
0.123529020029167
30
0
41
1
10
19.4531514406096
20
0.223716788793468
30
0
41
1
10
19.808685492905
20
0.412850806217079
30
0
41
1
10
19.9872550510897
20
0.50180573618556
30
0
41
1
10
20.2578523416798
20
0.623184963950905
30
0
41
1
10
20.3486981054694
20
0.661638346280967
30
0
41
1
10
20.5309683424463
20
0.733351733488689
30
0
41
1
10
20.6215361297467
20
0.76642729840998
30
0
41
1
10
20.8908608749427
20
0.859392587126678
30
0
41
1
10
21.0671140748543
20
0.913497345677627
30
0
41
1
10
21.2392450661752
20
0.961613478201969
30
0
0
SPLINE
5
12A
100
AcDbEntity
8
1
62
256
6
ByLayer
370
18
48
1
60
0
100
AcDbSpline
70
4
71
3
72
18
73
14
40
0
40
0
40
0
40
0
40
0.125000000000002
40
0.125000000000002
40
0.250000000000004
40
0.250000000000004
40
0.500000000000008
40
0.500000000000008
40
0.625000000000003
40
0.625000000000003
40
0.749999999999998
40
0.749999999999998
40
1
40
1
40
1
40
1
41
1
10
8.367891470393
20
-0.190192436560039
30
0
41
1
10
8.25216069033374
20
-0.206457336990354
30
0
41
1
10
8.13626428733531
20
-0.217788778808057
30
0
41
1
10
7.90413173212696
20
-0.23054527086498
30
0
41
1
10
7.78743163482872
20
-0.231948025010553
30
0
41
1
10
7.44038538298699
20
-0.221089975934717
30
0
41
1
10
7.21418914126744
20
-0.194106979778326
30
0
41
1
10
6.88157764323009
20
-0.125139493532828
30
0
41
1
10
6.77182445575582
20
-0.0973740538057939
30
0
41
1
10
6.55441721939272
20
-0.0321493370454959
30
0
41
1
10
6.44713642960667
20
0.0052390729730121
30
0
41
1
10
6.13306081009162
20
0.13013592061742
30
0
41
1
10
5.93240021100311
20
0.23071583270098
30
0
41
1
10
5.73950120985759
20
0.348903131003595
30
0
0
SPLINE
5
12B
100
AcDbEntity
8
1
62
256
6
ByLayer
370
18
48
1
60
0
100
AcDbSpline
70
4
71
3
72
8
73
4
40
0
40
0
40
0
40
0
40
1
40
1
40
1
40
1
41
1.02417048289515
10
22.0859728603296
20
9.62472800025734
30
0
41
1.02233815481013
10
21.4389389578868
20
9.95968593617472
30
0
41
1.02059845255999
10
20.7823748403609
20
10.2489419113883
30
0
41
1.01923193651471
10
20.2485123418427
20
10.4645202908129
30
0
0
SPLINE
5
12C
100
AcDbEntity
8
1
62
256
6
ByLayer
370
18
48
1
60
0
100
AcDbSpline
70
4
71
3
72
10
73
6
40
0
40
0
40
0
40
0
40
0.5
40
0.5
40
1
40
1
40
1
40
1
41
1
10
10.1043632348621
20
8.34759490467286
30
0
41
1
10
10.0407540075894
20
8.80019807447272
30
0
41
1
10
9.98369736685387
20
9.20617716842381
30
0
41
1
10
9.88858636879266
20
9.88292708429435
30
0
41
1
10
9.85054939524386
20
10.1535742142146
30
0
41
1
10
9.82399660995489
20
10.3425070987047
30
0
0
SPLINE
5
12D
100
AcDbEntity
8
1
62
256
6
ByLayer
370
18
48
1
60
0
100
AcDbSpline
70
4
71
3
72
26
73
22
40
0
40
0
40
0
40
0
40
0.0625000000000001
40
0.0625000000000001
40
0.125
40
0.125
40
0.1875
40
0.1875
40
0.25
40
0.25
40
0.312500000000001
40
0.312500000000001
40
0.375000000000001
40
0.375000000000001
40
0.500000000000001
40
0.500000000000001
40
0.625000000000001
40
0.625000000000001
40
0.750000000000001
40
0.750000000000001
40
1
40
1
40
1
40
1
41
1
10
20.0451793959562
20
7.69631556137523
30
0
41
1
10
20.0298789642505
20
7.67366501934646
30
0
41
1
10
20.0171599396484
20
7.64931560918254
30
0
41
1
10
19.9981541626792
20
7.59638360055959
30
0
41
1
10
19.9918393782072
20
7.56748279722646
30
0
41
1
10
19.9878806244445
20
7.50567519795942
30
0
41
1
10
19.9901791032965
20
7.47307768742584
30
0
41
1
10
20.0048209867004
20
7.40390562711085
30
0
41
1
10
20.0171439609037
20
7.36800259768876
30
0
41
1
10
20.0508008107073
20
7.29609142187488
30
0
41
1
10
20.072557376152
20
7.25930189326326
30
0
41
1
10
20.1225394541823
20
7.18826050855475
30
0
41
1
10
20.1510343044327
20
7.15346132773263
30
0
41
1
10
20.243422550234
20
7.05299449094588
30
0
41
1
10
20.3123213295608
20
6.99272587165768
30
0
41
1
10
20.4585027262056
20
6.88087512454592
30
0
41
1
10
20.5335204755701
20
6.83108949860397
30
0
41
1
10
20.6858511744111
20
6.73883094840883
30
0
41
1
10
20.7633578071007
20
6.69634898777099
30
0
41
1
10
20.9971460320319
20
6.57716964013073
30
0
41
1
10
21.1531484828012
20
6.50918446550773
30
0
41
1
10
21.3092314810466
20
6.44763018652031
30
0
0
SPLINE
5
12E
100
AcDbEntity
8
1
62
256
6
ByLayer
370
18
48
1
60
0
100
AcDbSpline
70
4
71
3
72
12
73
8
40
0
40
0
40
0
40
0
40
0.108853985813152
40
0.5026292242874
40
0.699516843524524
40
0.896404462761648
40
1
40
1
40
1
40
1
41
1.02441262532196
10
13.6706759864463
20
5.96410912112768
30
0
41
1.02394775681994
10
14.0192454968665
20
5.98522885251827
30
0
41
1.02173322384664
10
15.6745182109736
20
6.07961202907424
30
0
41
1.01876555595691
10
18.0459470422966
20
6.17920865968752
30
0
41
1.01610930227499
10
19.6621360829484
20
6.22422501555677
30
0
41
1.01814069316835
10
20.4001650320131
20
6.33740667892332
30
0
41
1.02005196039548
10
21.0651449338866
20
6.41973326760195
30
0
41
1.02076673287779
10
21.3092316618196
20
6.44763020718108
30
0
0
SPLINE
5
12F
100
AcDbEntity
8
1
62
256
6
ByLayer
370
18
48
1
60
0
100
AcDbSpline
70
4
71
3
72
11
73
7
40
0
40
0
40
0
40
0
40
0.423407924939097
40
0.740963868643419
40
0.89974184049558
40
1
40
1
40
1
40
1
41
1.02805999725224
10
11.5156582778595
20
-1.69429111362201
30
0
41
1.02767136955276
10
12.3445281390728
20
-1.46870003873294
30
0
41
1.02349884684922
10
15.0984022564867
20
0.167064722282223
30
0
41
1.01876555595691
10
18.5551856087157
20
2.59587773166806
30
0
41
1.01635405201137
10
19.8920476165259
20
3.50904270871265
30
0
41
1.01722454828226
10
20.3984843169473
20
3.62650630503941
30
0
41
1.01774327987905
10
20.6115005388857
20
3.66673124777922
30
0
0
SPLINE
5
130
100
AcDbEntity
8
1
62
256
6
ByLayer
370
18
48
1
60
0
100
AcDbSpline
70
4
71
3
72
14
73
10
40
0
40
0
40
0
40
0
40
0.499999999999993
40
0.499999999999993
40
0.624999999999991
40
0.624999999999991
40
0.749999999999989
40
0.749999999999989
40
1
40
1
40
1
40
1
41
1
10
4.59321404075425
20
-3.80066284943555
30
0
41
1
10
4.35123611819844
20
-3.83467062865111
30
0
41
1
10
4.08485442379961
20
-3.85138674780347
30
0
41
1
10
3.72132522844262
20
-3.82746816450501
30
0
41
1
10
3.64708378063179
20
-3.82040042563824
30
0
41
1
10
3.49549552520077
20
-3.80087667992649
30
0
41
1
10
3.41830721960801
20
-3.78841615583832
30
0
41
1
10
3.18579067823205
20
-3.74243446274755
30
0
41
1
10
3.0284305231215
20
-3.70024649924883
30
0
41
1
10
2.86979494937319
20
-3.64377687528977
30
0
0
SPLINE
5
131
100
AcDbEntity
8
1
62
256
6
ByLayer
370
18
48
1
60
0
100
AcDbSpline
70
4
71
2
72
6
73
3
40
0
40
0
40
0
40
1
40
1
40
1
41
1.02805999725224
10
11.5156582778595
20
-1.69429111362201
30
0
41
1.02805999725224
10
11.593618044526
20
-2.24900367692471
30
0
41
1.02805999725224
10
11.6715778111924
20
-2.80371624022745
30
0
0
SPLINE
5
132
100
AcDbEntity
8
1
62
256
6
ByLayer
370
18
48
1
60
0
100
AcDbSpline
70
4
71
3
72
8
73
4
40
0
40
0
40
0
40
0
40
1
40
1
40
1
40
1
41
1
10
24.4466931541295
20
8.09166911701388
30
0
41
1
10
24.3696284796925
20
8.13473637511814
30
0
41
1
10
24.2920255544966
20
8.17300395894193
30
0
41
1
10
24.213900513905
20
8.20661575027913
30
0
0
SPLINE
5
133
100
AcDbEntity
8
1
62
256
6
ByLayer
370
18
48
1
60
0
100
AcDbSpline
70
4
71
3
72
11
73
7
40
0
40
0
40
0
40
0
40
0.423407924937776
40
0.740963868641107
40
0.899741840492773
40
1
40
1
40
1
40
1
41
1.02805999725224
10
9.8239966099549
20
10.3425070987047
30
0
41
1.02767136955276
10
10.6829387858739
20
10.3541225363388
30
0
41
1.02349884684922
10
13.7810103638957
20
9.54079510800353
30
0
41
1.01876555595691
10
17.7733553871685
20
8.15888881830867
30
0
41
1.01635405201136
10
19.3101320077106
20
7.64958741271668
30
0
41
1.01722454828229
10
19.8293275643413
20
7.67626702989252
30
0
41
1.0177432798791
10
20.0451793959668
20
7.69631556137623
30
0
0
SPLINE
5
134
100
AcDbEntity
8
1
62
256
6
ByLayer
370
18
48
1
60
0
100
AcDbSpline
70
4
71
2
72
6
73
3
40
0
40
0
40
0
40
1
40
1
40
1
41
0.937301687733887
10
11.235291655329
20
0.300621063498546
30
0
41
0.930554445970897
10
11.4330900816527
20
-1.10678787030033
30
0
41
1.02805999725224
10
11.5156582778595
20
-1.69429111362201
30
0
0
SPLINE
5
135
100
AcDbEntity
8
1
62
256
6
ByLayer
370
18
48
1
60
0
100
AcDbSpline
70
4
71
3
72
8
73
4
40
0
40
0
40
0
40
0
40
1
40
1
40
1
40
1
41
1.01923193626848
10
21.5699772614494
20
1.06180816643577
30
0
41
1.02059843516864
10
22.0237316953552
20
1.41618341124768
30
0
41
1.0223381109506
10
22.5751237698135
20
1.87520064913197
30
0
41
1.0241704137769
10
23.1047596879506
20
2.37552231111263
30
0
0
SPLINE
5
136
100
AcDbEntity
8
1
62
256
6
ByLayer
370
18
48
1
60
0
100
AcDbSpline
70
4
71
3
72
10
73
6
40
0
40
0
40
0
40
0
40
0.5
40
0.5
40
1
40
1
40
1
40
1
41
1
10
4.4413893762331
20
0.751434141276007
30
0
41
1
10
4.32164013864727
20
0.759462988690444
30
0
41
1
10
4.20333792905799
20
0.760780761624659
30
0
41
1
10
3.96992269963673
20
0.75147610108715
30
0
41
1
10
3.85526225375341
20
0.740831624034882
30
0
41
1
10
3.7439007515089
20
0.725180785555722
30
0
0
SPLINE
5
137
100
AcDbEntity
8
1
62
256
6
ByLayer
370
18
48
1
60
0
100
AcDbSpline
70
4
71
3
72
26
73
22
40
0
40
0
40
0
40
0
40
0.124999999999999
40
0.124999999999999
40
0.249999999999998
40
0.249999999999998
40
0.374999999999997
40
0.374999999999997
40
0.499999999999996
40
0.499999999999996
40
0.624999999999995
40
0.624999999999995
40
0.687499999999996
40
0.687499999999996
40
0.749999999999996
40
0.749999999999996
40
0.874999999999995
40
0.874999999999995
40
0.937499999999998
40
0.937499999999998
40
1
40
1
40
1
40
1
41
1
10
10.1043632320766
20
8.34759492449226
30
0
41
1
10
10.2934949991
20
8.33579846551169
30
0
41
1
10
10.4800059748615
20
8.31149828696869
30
0
41
1
10
10.8467277751386
20
8.23943559961603
30
0
41
1
10
11.0270143308559
20
8.19168440520977
30
0
41
1
10
11.3813581400522
20
8.0730025151781
30
0
41
1
10
11.5565309916629
20
8.00144211263662
30
0
41
1
10
11.8921746417618
20
7.83832582357903
30
0
41
1
10
12.0533470671906
20
7.7467182074661
30
0
41
1
10
12.3629642783265
20
7.54330267895767
30
0
41
1
10
12.5114132531041
20
7.43150309001896
30
0
41
1
10
12.7243241786776
20
7.24735298486331
30
0
41
1
10
12.7936193319478
20
7.18320685204898
30
0
41
1
10
12.9268455899675
20
7.05112735266937
30
0
41
1
10
12.9910443270041
20
6.98297187235488
30
0
41
1
10
13.1763790018735
20
6.77203488139318
30
0
41
1
10
13.2902998605396
20
6.62282547066653
30
0
41
1
10
13.4458684859853
20
6.38493794553568
30
0
41
1
10
13.4953019350653
20
6.30300882467427
30
0
41
1
10
13.5877255594308
20
6.13603186467799
30
0
41
1
10
13.6307974019045
20
6.05090378146807
30
0
41
1
10
13.670675986358
20
5.96410912112233
30
0
0
SPLINE
5
138
100
AcDbEntity
8
1
62
256
6
ByLayer
370
18
48
1
60
0
100
AcDbSpline
70
4
71
3
72
18
73
14
40
0
40
0
40
0
40
0
40
0.249999999999995
40
0.249999999999995
40
0.374999999999993
40
0.374999999999993
40
0.499999999999992
40
0.499999999999992
40
0.62499999999999
40
0.62499999999999
40
0.749999999999989
40
0.749999999999989
40
1
40
1
40
1
40
1
41
1
10
4.83477872977031
20
6.78633807297677
30
0
41
1
10
4.98766582143801
20
6.95315808939117
30
0
41
1
10
5.15233489644564
20
7.10459364383038
30
0
41
1
10
5.41783332311169
20
7.30993443942867
30
0
41
1
10
5.50943386337067
20
7.37472208629137
30
0
41
1
10
5.6992110806697
20
7.49690573253403
30
0
41
1
10
5.79770104663962
20
7.55446364384775
30
0
41
1
10
6.00030929997942
20
7.66113778597287
30
0
41
1
10
6.10400263759337
20
7.71006659022729
30
0
41
1
10
6.31633291706012
20
7.79910646499002
30
0
41
1
10
6.42526775319297
20
7.83928612529556
30
0
41
1
10
6.75552112733399
20
7.94505035928006
30
0
41
1
10
6.981307345396
20
7.99650472503231
30
0
41
1
10
7.21275473242449
20
8.02903253399498
30
0
0
SPLINE
5
139
100
AcDbEntity
8
1
62
256
6
ByLayer
370
18
48
1
60
0
100
AcDbSpline
70
4
71
3
72
14
73
10
40
0
40
0
40
0
40
0
40
0.25
40
0.25
40
0.5
40
0.5
40
0.75
40
0.75
40
1
40
1
40
1
40
1
41
1
10
4.4413893762331
20
0.751434141276007
30
0
41
1
10
4.53199296636214
20
0.745359427023033
30
0
41
1
10
4.62356075304066
20
0.735368084833368
30
0
41
1
10
4.80883450612893
20
0.706309708602561
30
0
41
1
10
4.90305953733085
20
0.687117847394006
30
0
41
1
10
5.09177331652793
20
0.638390680770868
30
0
41
1
10
5.18465788446363
20
0.609310439415225
30
0
41
1
10
5.3673101102876
20
0.541135252926836
30
0
41
1
10
5.45769492255189
20
0.501681590178066
30
0
41
1
10
5.5440043307988
20
0.45800002699545
30
0
0
SPLINE
5
13A
100
AcDbEntity
8
1
62
256
6
ByLayer
370
18
48
1
60
0
100
AcDbSpline
70
4
71
3
72
8
73
4
40
0
40
0
40
0
40
0
40
1
40
1
40
1
40
1
41
1
10
10.1043632320766
20
8.3475949244922
30
0
41
1
10
9.81856967962827
20
8.36531455785391
30
0
41
1
10
9.53278679415345
20
8.35509177648669
30
0
41
1
10
9.24684525183145
20
8.31490531345267
30
0
0
SPLINE
5
13B
100
AcDbEntity
8
1
62
256
6
ByLayer
370
18
48
1
60
0
100
AcDbSpline
70
4
71
3
72
8
73
4
40
0
40
0
40
0
40
0
40
1
40
1
40
1
40
1
41
1
10
4.83477872977036
20
6.7863380729768
30
0
41
1
10
4.78426992012149
20
6.73122628843836
30
0
41
1
10
4.73162721563793
20
6.67831319683003
30
0
41
1
10
4.67692624819475
20
6.6275811628999
30
0
0
SPLINE
5
13C
100
AcDbEntity
8
1
62
256
6
ByLayer
370
18
48
1
60
0
100
AcDbSpline
70
4
71
3
72
8
73
4
40
0
40
0
40
0
40
0
40
1
40
1
40
1
40
1
41
1
10
22.5588748661935
20
5.99500464108579
30
0
41
1
10
22.1977694608474
20
5.75147203183769
30
0
41
1
10
21.838826849617
20
5.48930109538767
30
0
41
1
10
21.4824010549885
20
5.21546464326045
30
0
0
SPLINE
5
13D
100
AcDbEntity
8
1
62
256
6
ByLayer
370
18
48
1
60
0
100
AcDbSpline
70
4
71
3
72
8
73
4
40
0
40
0
40
0
40
0
40
1
40
1
40
1
40
1
41
1
10
21.5699354712437
20
1.06177552900709
30
0
41
1
10
21.4602192214727
20
1.0260289112066
30
0
41
1
10
21.350003782335
20
0.992574091535204
30
0
41
1
10
21.2392450661672
20
0.961613478199752
30
0
0
SPLINE
5
13E
100
AcDbEntity
8
1
62
256
6
ByLayer
370
18
48
1
60
0
100
AcDbSpline
70
4
71
3
72
16
73
12
40
0
40
0
40
0
40
0
40
0.25
40
0.25
40
0.5
40
0.5
40
0.625
40
0.625
40
0.75
40
0.75
40
1
40
1
40
1
40
1
41
1
10
19.9029746556942
20
10.4696714978575
30
0
41
1
10
19.724517274275
20
10.4684797524404
30
0
41
1
10
19.5411755732475
20
10.4719133367482
30
0
41
1
10
19.1655502672137
20
10.4917353967083
30
0
41
1
10
18.9733156309856
20
10.509388617633
30
0
41
1
10
18.6787737912732
20
10.5512537741849
30
0
41
1
10
18.5792521963952
20
10.5675248714896
30
0
41
1
10
18.380775540561
20
10.603436307468
30
0
41
1
10
18.2815574026043
20
10.6231029932541
30
0
41
1
10
17.9838259334791
20
10.686374043429
30
0
41
1
10
17.785214228371
20
10.7341289412766
30
0
41
1
10
17.5863311600354
20
10.7865292821895
30
0
0
SPLINE
5
13F
100
AcDbEntity
8
1
62
256
6
ByLayer
370
18
48
1
60
0
100
AcDbSpline
70
4
71
3
72
18
73
14
40
0
40
0
40
0
40
0
40
0.25
40
0.25
40
0.375000000000001
40
0.375000000000001
40
0.500000000000001
40
0.500000000000001
40
0.750000000000001
40
0.750000000000001
40
0.875
40
0.875
40
1
40
1
40
1
40
1
41
1
10
1.92343609114016
20
-1.15298431597114
30
0
41
1
10
2.06360274914405
20
-1.05926727282983
30
0
41
1
10
2.22544125691903
20
-0.944727420316411
30
0
41
1
10
2.49817982965709
20
-0.74545651679793
30
0
41
1
10
2.59428701018308
20
-0.67429407900147
30
0
41
1
10
2.7958819329767
20
-0.523433956637405
30
0
41
1
10
2.90014961290788
20
-0.44465282450463
30
0
41
1
10
3.22272466451139
20
-0.199111312262772
30
0
41
1
10
3.45073264097087
20
-0.0232255707224738
30
0
41
1
10
3.81121272028056
20
0.257197967359872
30
0
41
1
10
3.93465047121757
20
0.353601585389782
30
0
41
1
10
4.18498219572078
20
0.54971876508634
30
0
41
1
10
4.3121826493157
20
0.649669996033055
30
0
41
1
10
4.4413893762331
20
0.751434141276007
30
0
0
SPLINE
5
140
100
AcDbEntity
8
1
62
256
6
ByLayer
370
18
48
1
60
0
100
AcDbSpline
70
4
71
3
72
8
73
4
40
0
40
0
40
0
40
0
40
1
40
1
40
1
40
1
41
1
10
21.3092314810466
20
6.44763018652031
30
0
41
1
10
21.7274025434705
20
6.28261713446148
30
0
41
1
10
22.1442776983275
20
6.12968396466289
30
0
41
1
10
22.5588748661727
20
5.99500464109255
30
0
0
SPLINE
5
141
100
AcDbEntity
8
1
62
256
6
ByLayer
370
18
48
1
60
0
100
AcDbSpline
70
4
71
3
72
24
73
20
40
0
40
0
40
0
40
0
40
0.124999999999999
40
0.124999999999999
40
0.187499999999997
40
0.187499999999997
40
0.249999999999996
40
0.249999999999996
40
0.374999999999997
40
0.374999999999997
40
0.499999999999997
40
0.499999999999997
40
0.624999999999998
40
0.624999999999998
40
0.749999999999999
40
0.749999999999999
40
0.874999999999999
40
0.874999999999999
40
1
40
1
40
1
40
1
41
1
10
14.0064737776965
20
3.57478368379026
30
0
41
1
10
13.9777182519535
20
3.38635610269333
30
0
41
1
10
13.9352171191146
20
3.20240003729376
30
0
41
1
10
13.8521714151252
20
2.93262128500652
30
0
41
1
10
13.8212596534234
20
2.84372548974875
30
0
41
1
10
13.7530390642526
20
2.66795251615991
30
0
41
1
10
13.7155761240151
20
2.58077029036915
30
0
41
1
10
13.5949671869583
20
2.32513771941214
30
0
41
1
10
13.5036820945113
20
2.16229913844785
30
0
41
1
10
13.3004963994728
20
1.85025810768593
30
0
41
1
10
13.1881704303677
20
1.70058585829122
30
0
41
1
10
12.944418198797
20
1.41666621653476
30
0
41
1
10
12.8137675979017
20
1.28318144285581
30
0
41
1
10
12.5346523064535
20
1.03264567111819
30
0
41
1
10
12.3879592339855
20
0.917231761782972
30
0
41
1
10
12.0814856198471
20
0.706266170288757
30
0
41
1
10
11.9215317632241
20
0.61057413974217
30
0
41
1
10
11.5878817281573
20
0.439496150612882
30
0
41
1
10
11.4135223416131
20
0.363977544837013
30
0
41
1
10
11.2352916557377
20
0.30062106059043
30
0
0
SPLINE
5
142
100
AcDbEntity
8
1
62
256
6
ByLayer
370
18
48
1
60
0
100
AcDbSpline
70
4
71
3
72
25
73
21
40
0
40
0
40
0
40
0
40
0.125000000000001
40
0.125000000000001
40
0.250000000000002
40
0.250000000000002
40
0.375000000000003
40
0.375000000000003
40
0.500000000000004
40
0.500000000000004
40
0.625000000000005
40
0.625000000000005
40
0.750000000000006
40
0.750000000000006
40
0.812500000000004
40
0.812500000000004
40
0.875000000000003
40
0.937500000000001
40
0.937500000000001
40
1
40
1
40
1
40
1
41
1
10
20.6115005388822
20
3.66673124777853
30
0
41
1
10
20.7144794737026
20
3.58042720136436
30
0
41
1
10
20.819046195351
20
3.49673846880737
30
0
41
1
10
21.0350200317119
20
3.34062811742271
30
0
41
1
10
21.1465197950608
20
3.26835910425882
30
0
41
1
10
21.3782696494641
20
3.13823412941807
30
0
41
1
10
21.49839850583
20
3.08017847672809
30
0
41
1
10
21.7488004935146
20
2.98077625495225
30
0
41
1
10
21.8790513227289
20
2.9393929510851
30
0
41
1
10
22.1524697317103
20
2.87790209404551
30
0
41
1
10
22.2962592241579
20
2.8578924696383
30
0
41
1
10
22.5922227296979
20
2.8469409826165
30
0
41
1
10
22.7451577644666
20
2.85561991728315
30
0
41
1
10
22.9845235764372
20
2.8971096916687
30
0
41
1
10
23.0664950100077
20
2.91592139317103
30
0
41
1
10
23.2317478648639
20
2.96414552102502
30
0
41
1
10
23.3978779982005
20
3.02259610836171
30
0
41
1
10
23.5657658560339
20
3.10153653872197
30
0
41
1
10
23.7345396338177
20
3.19080416241829
30
0
41
1
10
23.819615783395
20
3.24076262313085
30
0
41
1
10
23.9045845228829
20
3.2955976226946
30
0
0
SPLINE
5
143
100
AcDbEntity
8
1
62
256
6
ByLayer
370
18
48
1
60
0
100
AcDbSpline
70
4
71
3
72
8
73
4
40
0
40
0
40
0
40
0
40
1
40
1
40
1
40
1
41
1
10
5.54400433079874
20
0.458000026995507
30
0
41
1
10
5.61078229727505
20
0.424203410600029
30
0
41
1
10
5.67596360313613
20
0.387831990325964
30
0
41
1
10
5.73950120985759
20
0.348903131003595
30
0
0
SPLINE
5
144
100
AcDbEntity
8
1
62
256
6
ByLayer
370
18
48
1
60
0
100
AcDbSpline
70
4
71
3
72
8
73
4
40
0
40
0
40
0
40
0
40
1
40
1
40
1
40
1
41
1
10
11.2352916557377
20
0.30062106059043
30
0
41
1
10
10.9654534537088
20
0.204812476667343
30
0
41
1
10
10.687923532122
20
0.135866805931641
30
0
41
1
10
10.4019819898
20
0.0956803428976229
30
0
0
SPLINE
5
145
100
AcDbEntity
8
1
62
256
6
ByLayer
370
18
48
1
60
0
100
AcDbSpline
70
4
71
3
72
28
73
24
40
0
40
0
40
0
40
0
40
0.125000000000004
40
0.125000000000004
40
0.250000000000009
40
0.250000000000009
40
0.375000000000013
40
0.375000000000013
40
0.500000000000017
40
0.500000000000017
40
0.562500000000016
40
0.562500000000016
40
0.625000000000015
40
0.625000000000015
40
0.750000000000014
40
0.750000000000014
40
0.81250000000001
40
0.81250000000001
40
0.875000000000007
40
0.875000000000007
40
0.937500000000003
40
0.937500000000003
40
1
40
1
40
1
40
1
41
1
10
3.84065082721034
20
-3.71263913019075
30
0
41
1
10
3.71946767258257
20
-3.6801449762182
30
0
41
1
10
3.60805687778051
20
-3.63987123725207
30
0
41
1
10
3.39706169643247
20
-3.54603128253359
30
0
41
1
10
3.29748568280971
20
-3.49243447263967
30
0
41
1
10
3.10409919589975
20
-3.37050034421318
30
0
41
1
10
3.01027764062795
20
-3.30216515175186
30
0
41
1
10
2.82400420105137
20
-3.14612797168311
30
0
41
1
10
2.73241955048027
20
-3.05906677831891
30
0
41
1
10
2.5975672892674
20
-2.91218590072623
30
0
41
1
10
2.55299850250268
20
-2.86044563314218
30
0
41
1
10
2.46473783753655
20
-2.75058328214223
30
0
41
1
10
2.42085985285789
20
-2.6921917528141
30
0
41
1
10
2.2923451499191
20
-2.50789285901161
30
0
41
1
10
2.21158698419507
20
-2.37423822837931
30
0
41
1
10
2.10052591906381
20
-2.15456479416662
30
0
41
1
10
2.06498608604159
20
-2.07759936731688
30
0
41
1
10
1.99899656149458
20
-1.91905887614996
30
0
41
1
10
1.96865045573085
20
-1.83784532497941
30
0
41
1
10
1.91347816434751
20
-1.67131423504185
30
0
41
1
10
1.88865256913468
20
-1.58600243512711
30
0
41
1
10
1.84478282261529
20
-1.41079419619746
30
0
41
1
10
1.82606614338189
20
-1.32210199991096
30
0
41
1
10
1.81054318483214
20
-1.23297592389062
30
0
0
SPLINE
5
146
100
AcDbEntity
8
1
62
256
6
ByLayer
370
18
48
1
60
0
100
AcDbSpline
70
4
71
3
72
8
73
4
40
0
40
0
40
0
40
0
40
1
40
1
40
1
40
1
41
1
10
22.0860548584676
20
9.62468555100949
30
0
41
1
10
22.4248828704582
20
9.40464806723477
30
0
41
1
10
22.7656577216769
20
9.18334629128265
30
0
41
1
10
23.1083966007971
20
8.96076906069794
30
0
0
SPLINE
5
147
100
AcDbEntity
8
1
62
256
6
ByLayer
370
18
48
1
60
0
100
AcDbSpline
70
4
71
3
72
14
73
10
40
0
40
0
40
0
40
0
40
0.25
40
0.25
40
0.5
40
0.5
40
0.75
40
0.75
40
1
40
1
40
1
40
1
41
1
10
4.67692624819475
20
6.62758116289987
30
0
41
1
10
4.6060619952199
20
6.56185860159258
30
0
41
1
10
4.5314158866224
20
6.50010304776993
30
0
41
1
10
4.37491343911208
20
6.38425811657018
30
0
41
1
10
4.29222511284124
20
6.32972954653368
30
0
41
1
10
4.12511424512158
20
6.23131508539964
30
0
41
1
10
4.04052002712186
20
6.18715810404623
30
0
41
1
10
3.86952505756918
20
6.10763070613629
30
0
41
1
10
3.78333128025739
20
6.07240753701009
30
0
41
1
10
3.69790613036869
20
6.04159231799955
30
0
0
SPLINE
5
148
100
AcDbEntity
8
1
62
256
6
ByLayer
370
18
48
1
60
0
100
AcDbSpline
70
4
71
3
72
22
73
18
40
0
40
0
40
0
40
0
40
0.125
40
0.125
40
0.25
40
0.25
40
0.5
40
0.5
40
0.625
40
0.625
40
0.75
40
0.75
40
0.875
40
0.875
40
0.9375
40
0.9375
40
1
40
1
40
1
40
1
41
1
10
19.0996822524809
20
0.0184767396627876
30
0
41
1
10
18.8138059833923
20
-0.151672386929619
30
0
41
1
10
18.5238718917103
20
-0.314917885825224
30
0
41
1
10
17.9375329356424
20
-0.630400071717929
30
0
41
1
10
17.6408233444244
20
-0.782669488232273
30
0
41
1
10
16.7432410645336
20
-1.22149553128801
30
0
41
1
10
16.1348743777338
20
-1.49052944432356
30
0
41
1
10
15.2021017941288
20
-1.84642090846941
30
0
41
1
10
14.8877371180822
20
-1.9577263973392
30
0
41
1
10
14.2549079769164
20
-2.16678833222966
30
0
41
1
10
13.9367134686055
20
-2.2644984512639
30
0
41
1
10
13.2968633154701
20
-2.44665536718517
30
0
41
1
10
12.9752445900881
20
-2.53124364201096
30
0
41
1
10
12.4896061047644
20
-2.64582358285344
30
0
41
1
10
12.3271871044452
20
-2.68194947399238
30
0
41
1
10
12.0008261092165
20
-2.74836503230131
30
0
41
1
10
11.8369457189975
20
-2.77889077304269
30
0
41
1
10
11.6715778111925
20
-2.80371624022743
30
0
0
SPLINE
5
149
100
AcDbEntity
8
1
62
256
6
ByLayer
370
18
48
1
60
0
100
AcDbSpline
70
4
71
3
72
20
73
16
40
0
40
0
40
0
40
0
40
0.0625000000000022
40
0.0625000000000022
40
0.125000000000004
40
0.125000000000004
40
0.250000000000004
40
0.250000000000004
40
0.500000000000002
40
0.500000000000002
40
0.750000000000001
40
0.750000000000001
40
0.875000000000001
40
0.875000000000001
40
1
40
1
40
1
40
1
41
1
10
9.66807707662193
20
11.4519322253101
30
0
41
1
10
9.83384473876586
20
11.4736451811172
30
0
41
1
10
9.99977585325061
20
11.4894735786006
30
0
41
1
10
10.3317920065015
20
11.5155888413493
30
0
41
1
10
10.4978838056114
20
11.5256323229059
30
0
41
1
10
10.9963372076743
20
11.5493542987347
30
0
41
1
10
11.3288748589745
20
11.5566947573231
30
0
41
1
10
12.327046886347
20
11.558588550715
30
0
41
1
10
12.9944651048407
20
11.5331740865628
30
0
41
1
10
14.3204335161827
20
11.4198620081788
30
0
41
1
10
14.9795027912193
20
11.3289358802982
30
0
41
1
10
15.9637505140522
20
11.1544139545774
30
0
41
1
10
16.2907243686069
20
11.0898593394786
30
0
41
1
10
16.9410743570184
20
10.9482590501043
30
0
41
1
10
17.2646845680725
20
10.8712745106968
30
0
41
1
10
17.586331160035
20
10.7865292821896
30
0
0
SPLINE
5
14A
100
AcDbEntity
8
1
62
256
6
ByLayer
370
18
48
1
60
0
100
AcDbSpline
70
4
71
3
72
24
73
20
40
0
40
0
40
0
40
0
40
0.125
40
0.125
40
0.25
40
0.25
40
0.3125
40
0.3125
40
0.375
40
0.375
40
0.5
40
0.5
40
0.625
40
0.625
40
0.75
40
0.75
40
0.875
40
0.875
40
1
40
1
40
1
40
1
41
1
10
23.1083966007971
20
8.96076906069797
30
0
41
1
10
22.9181170672578
20
9.01834968564026
30
0
41
1
10
22.7316538234165
20
9.05807316658158
30
0
41
1
10
22.3691830042846
20
9.09881374460016
30
0
41
1
10
22.1993359371146
20
9.09900812664463
30
0
41
1
10
21.9590399294842
20
9.07365610435031
30
0
41
1
10
21.8812964353596
20
9.06103293598022
30
0
41
1
10
21.7299838797875
20
9.02839105716802
30
0
41
1
10
21.6568377453755
20
9.00844002565242
30
0
41
1
10
21.4459668673482
20
8.9398825536887
30
0
41
1
10
21.315730550999
20
8.88245305403422
30
0
41
1
10
21.0710445209014
20
8.74970102509076
30
0
41
1
10
20.9566416491162
20
8.67432540365414
30
0
41
1
10
20.7408769773097
20
8.50879300175413
30
0
41
1
10
20.6398444955725
20
8.41879470506851
30
0
41
1
10
20.4511615114488
20
8.22843696133398
30
0
41
1
10
20.3633485480955
20
8.12767303167945
30
0
41
1
10
20.1980723465925
20
7.91729113864719
30
0
41
1
10
20.1204693409877
20
7.80779274421812
30
0
41
1
10
20.0451793959564
20
7.69631556137523
30
0
0
SPLINE
5
14B
100
AcDbEntity
8
1
62
256
6
ByLayer
370
18
48
1
60
0
100
AcDbSpline
70
4
71
3
72
8
73
4
40
0
40
0
40
0
40
0
40
1
40
1
40
1
40
1
41
1
10
0.630604722416052
20
7.15446305607801
30
0
41
1
10
0.627331250999845
20
7.17775501548013
30
0
41
1
10
0.624468192757746
20
7.2009219771864
30
0
41
1
10
0.621996915450524
20
7.22397021491972
30
0
0
SPLINE
5
14C
100
AcDbEntity
8
1
62
256
6
ByLayer
370
18
48
1
60
0
100
AcDbSpline
70
4
71
3
72
16
73
12
40
0
40
0
40
0
40
0
40
0.250000000000006
40
0.250000000000006
40
0.375000000000005
40
0.375000000000005
40
0.500000000000005
40
0.500000000000005
40
0.750000000000002
40
0.750000000000002
40
1
40
1
40
1
40
1
41
1
10
2.26512272222024
20
9.28017665311236
30
0
41
1
10
2.39086274317728
20
9.16019941874146
30
0
41
1
10
2.54038168799738
20
9.00717872943392
30
0
41
1
10
2.79684745800506
20
8.73517704980964
30
0
41
1
10
2.88775680748486
20
8.63734192496202
30
0
41
1
10
3.0804276961554
20
8.42763033974356
30
0
41
1
10
3.18065021674065
20
8.31742915695054
30
0
41
1
10
3.49160833313064
20
7.97289252766541
30
0
41
1
10
3.71283126327538
20
7.72444175945296
30
0
41
1
10
4.182319029767
20
7.19287569851295
30
0
41
1
10
4.42562747020659
20
6.91536268453493
30
0
41
1
10
4.67692624819475
20
6.62758116289987
30
0
0
SPLINE
5
14D
100
AcDbEntity
8
1
62
256
6
ByLayer
370
18
48
1
60
0
100
AcDbSpline
70
4
71
3
72
18
73
14
40
0
40
0
40
0
40
0
40
0.25
40
0.25
40
0.499999999999999
40
0.499999999999999
40
0.624999999999999
40
0.624999999999999
40
0.75
40
0.75
40
0.875
40
0.875
40
1
40
1
40
1
40
1
41
1
10
3.69790613036869
20
6.04159231799955
30
0
41
1
10
3.39312562791045
20
6.16612126859789
30
0
41
1
10
3.10054302234815
20
6.28488241626729
30
0
41
1
10
2.54013237531987
20
6.50997245061026
30
0
41
1
10
2.27227850380561
20
6.61632451737844
30
0
41
1
10
1.89116084902102
20
6.76479329088781
30
0
41
1
10
1.76802574641769
20
6.81224813282054
30
0
41
1
10
1.53397557060273
20
6.90122497961317
30
0
41
1
10
1.42244886998358
20
6.94298677685103
30
0
41
1
10
1.21072595622471
20
7.02073859860081
30
0
41
1
10
1.11052744151886
20
7.05673050644216
30
0
41
1
10
0.922118206508202
20
7.12242728134905
30
0
41
1
10
0.833602736041684
20
7.15222779950133
30
0
41
1
10
0.752565217322086
20
7.17819484841544
30
0
0
SPLINE
5
14E
100
AcDbEntity
8
1
62
256
6
ByLayer
370
18
48
1
60
0
100
AcDbSpline
70
4
71
3
72
8
73
4
40
0
40
0
40
0
40
0
40
1
40
1
40
1
40
1
41
1
10
19.9029746556942
20
10.4696714978575
30
0
41
1
10
20.0179766686328
20
10.4704394858263
30
0
41
1
10
20.1331439466112
20
10.4686601413388
30
0
41
1
10
20.2484630781486
20
10.464540183858
30
0
0
SPLINE
5
14F
100
AcDbEntity
8
1
62
256
6
ByLayer
370
18
48
1
60
0
100
AcDbSpline
70
4
71
3
72
30
73
26
40
0
40
0
40
0
40
0
40
0.0624999999999984
40
0.0624999999999984
40
0.124999999999997
40
0.124999999999997
40
0.187499999999995
40
0.187499999999995
40
0.249999999999993
40
0.249999999999993
40
0.312499999999992
40
0.312499999999992
40
0.37499999999999
40
0.37499999999999
40
0.499999999999987
40
0.499999999999987
40
0.562499999999988
40
0.562499999999988
40
0.624999999999988
40
0.624999999999988
40
0.749999999999992
40
0.749999999999992
40
0.874999999999996
40
0.874999999999996
40
1
40
1
40
1
40
1
41
1
10
0.621996915450524
20
7.22397021491972
30
0
41
1
10
0.612328950725583
20
7.3141379790662
30
0
41
1
10
0.605965131937296
20
7.40367759220268
30
0
41
1
10
0.599831442446856
20
7.58180756773001
30
0
41
1
10
0.600058295170896
20
7.67039277372683
30
0
41
1
10
0.607093597008173
20
7.84671656260164
30
0
41
1
10
0.613970212106665
20
7.9345837653112
30
0
41
1
10
0.633594529572576
20
8.10469412887889
30
0
41
1
10
0.646349859506074
20
8.18758973866468
30
0
41
1
10
0.677175915254907
20
8.34937869873377
30
0
41
1
10
0.695366329345035
20
8.42868651360553
30
0
41
1
10
0.735990365233732
20
8.58121763143808
30
0
41
1
10
0.758337081387765
20
8.65428491301972
30
0
41
1
10
0.830461798947624
20
8.86497034596533
30
0
41
1
10
0.885233064992434
20
8.99408928243872
30
0
41
1
10
0.975104609284472
20
9.17399074563033
30
0
41
1
10
1.00624786454878
20
9.2313802654663
30
0
41
1
10
1.07008057376916
20
9.34061613881377
30
0
41
1
10
1.1028719104722
20
9.39266741388818
30
0
41
1
10
1.20399672355867
20
9.54238534925346
30
0
41
1
10
1.27499121852378
20
9.63368010331973
30
0
41
1
10
1.4271355173727
20
9.80431644001374
30
0
41
1
10
1.50831593584328
20
9.88369471552707
30
0
41
1
10
1.68658235558357
20
10.0332458411208
30
0
41
1
10
1.78291311599895
20
10.1027943572287
30
0
41
1
10
1.88997382119914
20
10.1671489765327
30
0
0
SPLINE
5
150
100
AcDbEntity
8
1
62
256
6
ByLayer
370
18
48
1
60
0
100
AcDbSpline
70
4
71
3
72
12
73
8
40
0
40
0
40
0
40
0
40
0.108853988597827
40
0.502629237150059
40
0.699516861426175
40
0.896404485702291
40
1
40
1
40
1
40
1
41
1.02441262532194
10
14.0064737777827
20
3.57478368380941
30
0
41
1.02394775681993
10
14.3473616834337
20
3.65056087316495
30
0
41
1.02173322384663
10
15.9645274690522
20
4.01608893487243
30
0
41
1.01876555595691
10
18.2715437211615
20
4.57400488139361
30
0
41
1.01610930227499
10
19.83753252864
20
4.97621445647204
30
0
41
1.01814069306383
10
20.5781685442537
20
5.07084560197229
30
0
41
1.02005196006992
10
21.2400804612037
20
5.17500149469275
30
0
41
1.02076673234807
10
21.4824010549898
20
5.21546464326068
30
0
0
SPLINE
5
151
100
AcDbEntity
8
1
62
256
6
ByLayer
370
18
48
1
60
0
100
AcDbSpline
70
4
71
3
72
10
73
6
40
0
40
0
40
0
40
0
40
0.5
40
0.5
40
1
40
1
40
1
40
1
41
1
10
3.69790613036869
20
6.04159231799955
30
0
41
1
10
3.58500882543112
20
6.00086713130824
30
0
41
1
10
3.47165267025528
20
5.96699189842414
30
0
41
1
10
3.24471483893669
20
5.91159815554747
30
0
41
1
10
3.13156212876106
20
5.89022558149105
30
0
41
1
10
3.02020062651653
20
5.87457474301189
30
0
0
SPLINE
5
152
100
AcDbEntity
8
1
62
256
6
ByLayer
370
18
48
1
60
0
100
AcDbSpline
70
4
71
3
72
8
73
4
40
0
40
0
40
0
40
0
40
1
40
1
40
1
40
1
41
1
10
23.1048467515228
20
2.37560455645283
30
0
41
1
10
23.3698985908095
20
2.68051181864405
30
0
41
1
10
23.636473365923
20
2.98717101809675
30
0
41
1
10
23.9045845228876
20
3.29559762269221
30
0
0
SPLINE
5
153
100
AcDbEntity
8
1
62
256
6
ByLayer
370
18
48
1
60
0
100
AcDbSpline
70
4
71
3
72
20
73
16
40
0
40
0
40
0
40
0
40
0.250000000000002
40
0.250000000000002
40
0.375000000000002
40
0.375000000000002
40
0.500000000000002
40
0.500000000000002
40
0.75
40
0.75
40
0.8125
40
0.8125
40
0.875
40
0.875
40
1
40
1
40
1
40
1
41
1
10
5.54400433080005
20
0.45800002699778
30
0
41
1
10
5.38161540755667
20
0.111783011433289
30
0
41
1
10
5.22484669639155
20
-0.220713194188846
30
0
41
1
10
4.99782865727397
20
-0.69773728841605
30
0
41
1
10
4.92351273716204
20
-0.853117009663436
30
0
41
1
10
4.77771384905063
20
-1.15594388289853
30
0
41
1
10
4.70741050786037
20
-1.30093931760695
30
0
41
1
10
4.50411696272127
20
-1.71651635227738
30
0
41
1
10
4.37866074640218
20
-1.96795728569441
30
0
41
1
10
4.23503960154019
20
-2.2462287503007
30
0
41
1
10
4.20698196177617
20
-2.30006006715578
30
0
41
1
10
4.15224444613497
20
-2.40387673448737
30
0
41
1
10
4.12554867599331
20
-2.45388709388354
30
0
41
1
10
4.04845690704511
20
-2.59624333827458
30
0
41
1
10
4.00074452803554
20
-2.68152376601887
30
0
41
1
10
3.95678439012491
20
-2.75662155921432
30
0
0
SPLINE
5
154
100
AcDbEntity
8
1
62
256
6
ByLayer
370
18
48
1
60
0
100
AcDbSpline
70
4
71
3
72
26
73
22
40
0
40
0
40
0
40
0
40
0.250000000000007
40
0.250000000000007
40
0.375000000000009
40
0.375000000000009
40
0.500000000000012
40
0.500000000000012
40
0.625000000000015
40
0.625000000000015
40
0.687500000000012
40
0.687500000000012
40
0.75000000000001
40
0.75000000000001
40
0.812500000000007
40
0.812500000000007
40
0.875000000000005
40
0.875000000000005
40
0.937500000000002
40
0.937500000000002
40
1
40
1
40
1
40
1
41
1
10
21.4824010549885
20
5.21546464326045
30
0
41
1
10
21.3493083993243
20
5.11325512989364
30
0
41
1
10
21.2182249573609
20
5.00498916751164
30
0
41
1
10
21.0269131586629
20
4.82657394869335
30
0
41
1
10
20.9637351839093
20
4.76404538857412
30
0
41
1
10
20.8420129467688
20
4.63258476496929
30
0
41
1
10
20.7834490562646
20
4.56377267326681
30
0
41
1
10
20.6738880597668
20
4.41599748885483
30
0
41
1
10
20.6243788991415
20
4.3391690858025
30
0
41
1
10
20.5633340447437
20
4.21709565898067
30
0
41
1
10
20.5456523407749
20
4.17597738735407
30
0
41
1
10
20.5173331903269
20
4.09423632226034
30
0
41
1
10
20.5065558636685
20
4.05285548880789
30
0
41
1
10
20.494048361648
20
3.9744990607928
30
0
41
1
10
20.4921024701638
20
3.93718524890471
30
0
41
1
10
20.4970515978368
20
3.8663838902234
30
0
41
1
10
20.5038626337323
20
3.83425882448142
30
0
41
1
10
20.5246441607805
20
3.77603639605098
30
0
41
1
10
20.5386976763498
20
3.74991439239531
30
0
41
1
10
20.5715987510443
20
3.70419628161028
30
0
41
1
10
20.5905506204405
20
3.68428602378501
30
0
41
1
10
20.6115005388822
20
3.66673124777853
30
0
0
SPLINE
5
155
100
AcDbEntity
8
1
62
256
6
ByLayer
370
18
48
1
60
0
100
AcDbSpline
70
4
71
1
72
4
73
2
40
0
40
0
40
1
40
1
41
1
10
9.82399660995489
20
10.3425070987047
30
0
41
1
10
9.66807707662193
20
11.4519322253101
30
0
0
SPLINE
5
156
100
AcDbEntity
8
1
62
256
6
ByLayer
370
18
48
1
60
0
100
AcDbSpline
70
4
71
3
72
14
73
10
40
0
40
0
40
0
40
0
40
0.5
40
0.5
40
0.624999999999997
40
0.624999999999997
40
0.749999999999994
40
0.749999999999994
40
1
40
1
40
1
40
1
41
1
10
2.58912138692929
20
10.4591973404431
30
0
41
1
10
2.3475686851335
20
10.4252493221081
30
0
41
1
10
2.08738973510711
20
10.3680321030201
30
0
41
1
10
1.74519773264558
20
10.24523842644
30
0
41
1
10
1.67591512004597
20
10.2180725877267
30
0
41
1
10
1.53585349977274
20
10.1577342065673
30
0
41
1
10
1.46518727279502
20
10.1245872898408
30
0
41
1
10
1.25414473744476
20
10.0163660756641
30
0
41
1
10
1.11384286630229
20
9.93222384834917
30
0
41
1
10
0.975708263414191
20
9.83335018155398
30
0
0
SPLINE
5
157
100
AcDbEntity
8
1
62
256
6
ByLayer
370
18
48
1
60
0
100
AcDbSpline
70
4
71
3
72
16
73
12
40
0
40
0
40
0
40
0
40
0.249999999999999
40
0.249999999999999
40
0.499999999999998
40
0.499999999999998
40
0.624999999999998
40
0.624999999999998
40
0.749999999999999
40
0.749999999999999
40
1
40
1
40
1
40
1
41
1
10
13.670675986358
20
5.96410912112233
30
0
41
1
10
13.7560806400309
20
5.77821673267007
30
0
41
1
10
13.8274349348924
20
5.58719379804154
30
0
41
1
10
13.9422656295131
20
5.19495363236513
30
0
41
1
10
13.9853197287182
20
4.99485115300914
30
0
41
1
10
14.0278458328839
20
4.69152844669946
30
0
41
1
10
14.0383776437751
20
4.58951397602468
30
0
41
1
10
14.0519353984291
20
4.3859839159966
30
0
41
1
10
14.0549989217714
20
4.28432814405656
30
0
41
1
10
14.0531737903321
20
3.97968369849661
30
0
41
1
10
14.0373312181356
20
3.77701631499758
30
0
41
1
10
14.0064737776965
20
3.57478368379026
30
0
0
SPLINE
5
158
100
AcDbEntity
8
1
62
256
6
ByLayer
370
18
48
1
60
0
100
AcDbSpline
70
4
71
3
72
8
73
4
40
0
40
0
40
0
40
0
40
1
40
1
40
1
40
1
41
1
10
1.79965877048065
20
-1.16378872135121
30
0
41
1
10
1.80293224189685
20
-1.18708068075333
30
0
41
1
10
1.80656577374253
20
-1.21013935945624
30
0
41
1
10
1.81054318483211
20
-1.23297592389062
30
0
0
LINE
5
70
100
AcDbEntity
8
81
62
256
6
ByLayer
370
18
48
1
60
0
100
AcDbLine
10
32.275
20
15.0625
30
0
11
37.275
21
15.0625
31
0
39
0
210
0
220
0
230
1
0
LINE
5
71
100
AcDbEntity
8
80
62
256
6
ByLayer
370
18
48
1
60
0
100
AcDbLine
10
0
20
0
30
0
11
-10
21
0
31
0
39
0
210
0
220
0
230
1
0
LINE
5
72
100
AcDbEntity
8
1
62
256
6
ByLayer
370
18
48
1
60
0
100
AcDbLine
10
3.903164
20
10.643655
30
0
11
3.604638
21
12.767777
31
0
39
0
210
0
220
0
230
1
0
LINE
5
74
100
AcDbEntity
8
1
62
256
6
ByLayer
370
18
48
1
60
0
100
AcDbLine
10
25.31761
20
13.112265
30
0
11
25.231636
21
13.168097
31
0
39
0
210
0
220
0
230
1
0
LINE
5
75
100
AcDbEntity
8
1
62
256
6
ByLayer
370
18
48
1
60
0
100
AcDbLine
10
20.700545
20
10.961008
30
0
11
20.630051
21
11.119339
31
0
39
0
210
0
220
0
230
1
0
LINE
5
76
100
AcDbEntity
8
1
62
256
6
ByLayer
370
18
48
1
60
0
100
AcDbLine
10
25.482539
20
13.189178
30
0
11
25.482539
21
13.499957
31
0
39
0
210
0
220
0
230
1
0
LINE
5
77
100
AcDbEntity
8
1
62
256
6
ByLayer
370
18
48
1
60
0
100
AcDbLine
10
3.379065
20
-3.769335
30
0
11
2.010414
21
-3.961686
31
0
39
0
210
0
220
0
230
1
0
LINE
5
78
100
AcDbEntity
8
1
62
256
6
ByLayer
370
18
48
1
60
0
100
AcDbLine
10
17.188977
20
-2.664196
30
0
11
17.202293
21
-2.816399
31
0
39
0
210
0
220
0
230
1
0
LINE
5
79
100
AcDbEntity
8
1
62
256
6
ByLayer
370
18
48
1
60
0
100
AcDbLine
10
2.010414
20
-3.961686
30
0
11
1.875456
21
-3.001411
31
0
39
0
210
0
220
0
230
1
0
LINE
5
7A
100
AcDbEntity
8
1
62
256
6
ByLayer
370
18
48
1
60
0
100
AcDbLine
10
0.196938
20
8.941871
30
0
11
0.035723
21
10.088975
31
0
39
0
210
0
220
0
230
1
0
LINE
5
7B
100
AcDbEntity
8
1
62
256
6
ByLayer
370
18
48
1
60
0
100
AcDbLine
10
15.097912
20
-2.85801
30
0
11
15.110284
21
-2.999426
31
0
39
0
210
0
220
0
230
1
0
LINE
5
7C
100
AcDbEntity
8
1
62
256
6
ByLayer
370
18
48
1
60
0
100
AcDbLine
10
0
20
0.181611
30
0
11
0
21
5.832355
31
0
39
0
210
0
220
0
230
1
0
LINE
5
7D
100
AcDbEntity
8
1
62
256
6
ByLayer
370
18
48
1
60
0
100
AcDbLine
10
0
20
8.52743
30
0
11
0
21
10.072153
31
0
39
0
210
0
220
0
230
1
0
LINE
5
7E
100
AcDbEntity
8
1
62
256
6
ByLayer
370
18
48
1
60
0
100
AcDbLine
10
18.833375
20
-2.064771
30
0
11
18.857738
21
-2.117017
31
0
39
0
210
0
220
0
230
1
0
LINE
5
7F
100
AcDbEntity
8
SK1
62
256
6
ByLayer
370
18
48
1
60
0
100
AcDbLine
10
0
20
0.181611
30
0
11
0
21
5.832355
31
0
39
0
210
0
220
0
230
1
0
LINE
5
81
100
AcDbEntity
8
SK1
62
256
6
ByLayer
370
18
48
1
60
0
100
AcDbLine
10
0
20
8.52743
30
0
11
0
21
10.072153
31
0
39
0
210
0
220
0
230
1
0
LINE
5
82
100
AcDbEntity
8
SK1
62
256
6
ByLayer
370
18
48
1
60
0
100
AcDbLine
10
-5.316497
20
9.9375
30
0
11
-2.744386
21
-8.364021
31
0
39
0
210
0
220
0
230
1
0
LINE
5
83
100
AcDbEntity
8
SK1
62
256
6
ByLayer
370
18
48
1
60
0
100
AcDbLine
10
-92.725
20
9.9375
30
0
11
-5.316497
21
9.9375
31
0
39
0
210
0
220
0
230
1
0
LINE
5
84
100
AcDbEntity
8
SK1
62
256
6
ByLayer
370
18
48
1
60
0
100
AcDbLine
10
-5.316497
20
9.9375
30
0
11
-1.371101
21
9.9375
31
0
39
0
210
0
220
0
230
1
0
LINE
5
85
100
AcDbEntity
8
SK1
62
256
6
ByLayer
370
18
48
1
60
0
100
AcDbLine
10
0
20
-9.9375
30
0
11
0
21
-9.283915
31
0
39
0
210
0
220
0
230
1
0
LINE
5
86
100
AcDbEntity
8
SK1
62
256
6
ByLayer
370
18
48
1
60
0
100
AcDbLine
10
-0.62115
20
9.9375
30
0
11
-1.371101
21
9.9375
31
0
39
0
210
0
220
0
230
1
0
LINE
5
87
100
AcDbEntity
8
SK1
62
256
6
ByLayer
370
18
48
1
60
0
100
AcDbLine
10
-92.725
20
-9.9375
30
0
11
0
21
-9.9375
31
0
39
0
210
0
220
0
230
1
0
LINE
5
88
100
AcDbEntity
8
SK1
62
256
6
ByLayer
370
18
48
1
60
0
100
AcDbLine
10
-92.725
20
-9.9375
30
0
11
-92.725
21
9.9375
31
0
39
0
210
0
220
0
230
1
0
LINE
5
89
100
AcDbEntity
8
SK1
62
256
6
ByLayer
370
18
48
1
60
0
100
AcDbLine
10
-1.371101
20
9.9375
30
0
11
0
21
0.181611
31
0
39
0
210
0
220
0
230
1
0
LINE
5
8A
100
AcDbEntity
8
SK1
62
256
6
ByLayer
370
18
48
1
60
0
100
AcDbLine
10
0
20
0.181611
30
0
11
0
21
-7.389413
31
0
39
0
210
0
220
0
230
1
0
LINE
5
8B
100
AcDbEntity
8
1
62
256
6
ByLayer
370
18
48
1
60
0
100
AcDbLine
10
0
20
0.181611
30
0
11
0
21
-7.389413
31
0
39
0
210
0
220
0
230
1
0
LINE
5
8C
100
AcDbEntity
8
1
62
256
6
ByLayer
370
18
48
1
60
0
100
AcDbLine
10
3.604638
20
12.767777
30
0
11
25.231636
21
13.529746
31
0
39
0
210
0
220
0
230
1
0
LINE
5
8D
100
AcDbEntity
8
1
62
256
6
ByLayer
370
18
48
1
60
0
100
AcDbLine
10
25.836308
20
1.137144
30
0
11
25.714949
21
0.803714
31
0
39
0
210
0
220
0
230
1
0
LINE
5
8E
100
AcDbEntity
8
1
62
256
6
ByLayer
370
18
48
1
60
0
100
AcDbLine
10
19.885752
20
-9.530629
30
0
11
19.621527
21
-9.9375
31
0
39
0
210
0
220
0
230
1
0
LINE
5
8F
100
AcDbEntity
8
1
62
256
6
ByLayer
370
18
48
1
60
0
100
AcDbLine
10
18.963774
20
-2.344411
30
0
11
25.714949
21
0.803714
31
0
39
0
210
0
220
0
230
1
0
LINE
5
90
100
AcDbEntity
8
1
62
256
6
ByLayer
370
18
48
1
60
0
100
AcDbLine
10
25.868372
20
1.068382
30
0
11
25.836308
21
1.137144
31
0
39
0
210
0
220
0
230
1
0
LINE
5
91
100
AcDbEntity
8
1
62
256
6
ByLayer
370
18
48
1
60
0
100
AcDbLine
10
0
20
-9.9375
30
0
11
0
21
-9.283915
31
0
39
0
210
0
220
0
230
1
0
LINE
5
92
100
AcDbEntity
8
1
62
256
6
ByLayer
370
18
48
1
60
0
100
AcDbLine
10
0.439511
20
10.37684
30
0
11
2.763641
21
12.70097
31
0
39
0
210
0
220
0
230
1
0
LINE
5
93
100
AcDbEntity
8
1
62
256
6
ByLayer
370
18
48
1
60
0
100
AcDbLine
10
0
20
-9.9375
30
0
11
19.621527
21
-9.9375
31
0
39
0
210
0
220
0
230
1
0
LINE
5
94
100
AcDbEntity
8
1
62
256
6
ByLayer
370
18
48
1
60
0
100
AcDbLine
10
0.609964
20
-4.158507
30
0
11
2.010414
21
-3.961686
31
0
39
0
210
0
220
0
230
1
0
LINE
5
95
100
AcDbEntity
8
1
62
256
6
ByLayer
370
18
48
1
60
0
100
AcDbLine
10
25.714949
20
0.803714
30
0
11
25.734328
21
0.762155
31
0
39
0
210
0
220
0
230
1
0
LINE
5
96
100
AcDbEntity
8
1
62
256
6
ByLayer
370
18
48
1
60
0
100
AcDbLine
10
25.231636
20
13.529746
30
0
11
25.482539
21
13.499957
31
0
39
0
210
0
220
0
230
1
0
LINE
5
97
100
AcDbEntity
8
1
62
256
6
ByLayer
370
18
48
1
60
0
100
AcDbLine
10
25.836308
20
1.137144
30
0
11
18.857738
21
-2.117017
31
0
39
0
210
0
220
0
230
1
0
LINE
5
98
100
AcDbEntity
8
1
62
256
6
ByLayer
370
18
48
1
60
0
100
AcDbLine
10
0
20
-9.283915
30
0
11
0
21
-9.15504
31
0
39
0
210
0
220
0
230
1
0
LINE
5
99
100
AcDbEntity
8
1
62
256
6
ByLayer
370
18
48
1
60
0
100
AcDbLine
10
25.231636
20
13.529746
30
0
11
25.231636
21
13.168097
31
0
39
0
210
0
220
0
230
1
0
LINE
5
9A
100
AcDbEntity
8
1
62
256
6
ByLayer
370
18
48
1
60
0
100
AcDbLine
10
18.857738
20
-2.117017
30
0
11
18.963774
21
-2.344411
31
0
39
0
210
0
220
0
230
1
0
LINE
5
9B
100
AcDbEntity
8
1
62
256
6
ByLayer
370
18
48
1
60
0
100
AcDbLine
10
0
20
0.181611
30
0
11
0.609964
21
-4.158507
31
0
39
0
210
0
220
0
230
1
0
LINE
5
9C
100
AcDbEntity
8
1
62
256
6
ByLayer
370
18
48
1
60
0
100
AcDbLine
10
15.110284
20
-2.999426
30
0
11
17.202293
21
-2.816399
31
0
39
0
210
0
220
0
230
1
0
LINE
5
9D
100
AcDbEntity
8
1
62
256
6
ByLayer
370
18
48
1
60
0
100
AcDbLine
10
25.231636
20
13.168097
30
0
11
20.630051
21
11.119339
31
0
39
0
210
0
220
0
230
1
0
LINE
5
9E
100
AcDbEntity
8
1
62
256
6
ByLayer
370
18
48
1
60
0
100
AcDbLine
10
2.763641
20
12.70097
30
0
11
3.604638
21
12.767777
31
0
39
0
210
0
220
0
230
1
0
LINE
5
9F
100
AcDbEntity
8
1
62
256
6
ByLayer
370
13
48
1
60
0
100
AcDbLine
10
32.267361
20
14.08019
30
0
11
32.149477
21
12.732762
31
0
39
0
210
0
220
0
230
1
0
LINE
5
A0
100
AcDbEntity
8
1
62
256
6
ByLayer
370
13
48
1
60
0
100
AcDbLine
10
25.645522
20
1.100184
30
0
11
22.251101
21
-0.482661
31
0
39
0
210
0
220
0
230
1
0
LINE
5
A1
100
AcDbEntity
8
1
62
256
6
ByLayer
370
13
48
1
60
0
100
AcDbLine
10
31.699381
20
11.052982
30
0
11
30.002156
21
7.413271
31
0
39
0
210
0
220
0
230
1
0
LINE
5
A2
100
AcDbEntity
8
1
62
256
6
ByLayer
370
13
48
1
60
0
100
AcDbLine
10
29.897301
20
7.163539
30
0
11
28.314457
21
3.769118
31
0
39
0
210
0
220
0
230
1
0
LINE
5
A3
100
AcDbEntity
8
1
62
256
6
ByLayer
370
13
48
1
60
0
100
AcDbLine
10
29.945262
20
14.936977
30
0
11
31.29269
21
15.054861
31
0
39
0
210
0
220
0
230
1
0
LINE
5
A4
100
AcDbEntity
8
1
62
256
6
ByLayer
370
13
48
1
60
0
100
AcDbLine
10
20.981618
20
11.101957
30
0
11
24.376039
21
12.684801
31
0
39
0
210
0
220
0
230
1
0
LINE
5
A5
100
AcDbEntity
8
1
62
256
6
ByLayer
370
13
48
1
60
0
100
AcDbLine
10
16.681878
20
-2.734836
30
0
11
15.33445
21
-2.852721
31
0
39
0
210
0
220
0
230
1
0
LINE
5
A6
100
AcDbEntity
8
1
62
256
6
ByLayer
370
13
48
1
60
0
100
AcDbLine
10
22.001369
20
-0.587516
30
0
11
18.361659
21
-2.284741
31
0
39
0
210
0
220
0
230
1
0
LINE
5
A7
100
AcDbEntity
8
1
62
256
6
ByLayer
370
13
48
1
60
0
100
AcDbLine
10
24.625771
20
12.789656
30
0
11
28.265482
21
14.486881
31
0
39
0
210
0
220
0
230
1
0
LINE
5
A8
100
AcDbEntity
8
1
62
256
6
ByLayer
370
18
48
1
60
0
100
AcDbLine
10
0.976439
20
0.285748
30
0
11
1.314352
21
0.333239
31
0
39
0
210
0
220
0
230
1
0
LINE
5
A9
100
AcDbEntity
8
1
62
256
6
ByLayer
370
18
48
1
60
0
100
AcDbLine
10
0.130367
20
5.367452
30
0
11
0.826232
21
0.416112
31
0
39
0
210
0
220
0
230
1
0
LINE
5
AA
100
AcDbEntity
8
1
62
256
6
ByLayer
370
18
48
1
60
0
100
AcDbLine
10
1.799659
20
-1.163789
30
0
11
0.999064
21
-1.276305
31
0
39
0
210
0
220
0
230
1
0
LINE
5
AB
100
AcDbEntity
8
1
62
256
6
ByLayer
370
18
48
1
60
0
100
AcDbLine
10
0.238821
20
5.534169
30
0
11
0.576735
21
5.581659
31
0
39
0
210
0
220
0
230
1
0
LINE
5
AC
100
AcDbEntity
8
1
62
256
6
ByLayer
370
18
48
1
60
0
100
AcDbLine
10
4.858895
20
-3.763324
30
0
11
4.593214
21
-3.800663
31
0
39
0
210
0
220
0
230
1
0
LINE
5
AD
100
AcDbEntity
8
1
62
256
6
ByLayer
370
18
48
1
60
0
100
AcDbLine
10
24.642491
20
7.964516
30
0
11
24.446693
21
8.091669
31
0
39
0
210
0
220
0
230
1
0
LINE
5
AE
100
AcDbEntity
8
1
62
256
6
ByLayer
370
18
48
1
60
0
100
AcDbLine
10
11.671578
20
-2.803716
30
0
11
6.288777
21
-3.56022
31
0
39
0
210
0
220
0
230
1
0
LINE
5
AF
100
AcDbEntity
8
1
62
256
6
ByLayer
370
18
48
1
60
0
100
AcDbLine
10
24.625689
20
4.125133
30
0
11
23.904585
21
3.295598
31
0
39
0
210
0
220
0
230
1
0
LINE
5
B0
100
AcDbEntity
8
1
62
256
6
ByLayer
370
18
48
1
60
0
100
AcDbLine
10
0.976439
20
0.285748
30
0
11
0.826232
21
0.416112
31
0
39
0
210
0
220
0
230
1
0
LINE
5
B1
100
AcDbEntity
8
1
62
256
6
ByLayer
370
18
48
1
60
0
100
AcDbLine
10
0.238821
20
5.534169
30
0
11
0.130367
21
5.367452
31
0
39
0
210
0
220
0
230
1
0
LINE
5
B2
100
AcDbEntity
8
1
62
256
6
ByLayer
370
18
48
1
60
0
100
AcDbLine
10
3.743901
20
0.725181
30
0
11
2.026593
21
0.483829
31
0
39
0
210
0
220
0
230
1
0
LINE
5
B3
100
AcDbEntity
8
1
62
256
6
ByLayer
370
18
48
1
60
0
100
AcDbLine
10
1.314352
20
0.333239
30
0
11
1.127941
21
0.458514
31
0
39
0
210
0
220
0
230
1
0
LINE
5
B4
100
AcDbEntity
8
1
62
256
6
ByLayer
370
18
48
1
60
0
100
AcDbLine
10
6.284716
20
-3.562938
30
0
11
6.288777
21
-3.56022
31
0
39
0
210
0
220
0
230
1
0
LINE
5
B5
100
AcDbEntity
8
1
62
256
6
ByLayer
370
18
48
1
60
0
100
AcDbLine
10
4.858895
20
-3.763324
30
0
11
6.284716
21
-3.562938
31
0
39
0
210
0
220
0
230
1
0
LINE
5
B6
100
AcDbEntity
8
1
62
256
6
ByLayer
370
18
48
1
60
0
100
AcDbLine
10
22.558875
20
5.995005
30
0
11
25.622875
21
6.425622
31
0
39
0
210
0
220
0
230
1
0
LINE
5
B7
100
AcDbEntity
8
1
62
256
6
ByLayer
370
18
48
1
60
0
100
AcDbLine
10
1.302893
20
5.633223
30
0
11
2.026593
21
0.483829
31
0
39
0
210
0
220
0
230
1
0
LINE
5
B8
100
AcDbEntity
8
1
62
256
6
ByLayer
370
18
48
1
60
0
100
AcDbLine
10
0.130367
20
5.367452
30
0
11
0.432075
21
5.409855
31
0
39
0
210
0
220
0
230
1
0
LINE
5
B9
100
AcDbEntity
8
1
62
256
6
ByLayer
370
18
48
1
60
0
100
AcDbLine
10
0.826232
20
0.416112
30
0
11
1.127941
21
0.458514
31
0
39
0
210
0
220
0
230
1
0
LINE
5
BA
100
AcDbEntity
8
1
62
256
6
ByLayer
370
18
48
1
60
0
100
AcDbLine
10
24.625689
20
4.125133
30
0
11
24.75939
21
4.325254
31
0
39
0
210
0
220
0
230
1
0
LINE
5
BB
100
AcDbEntity
8
1
62
256
6
ByLayer
370
18
48
1
60
0
100
AcDbLine
10
0.576735
20
5.581659
30
0
11
1.314352
21
0.333239
31
0
39
0
210
0
220
0
230
1
0
LINE
5
BC
100
AcDbEntity
8
1
62
256
6
ByLayer
370
18
48
1
60
0
100
AcDbLine
10
0.999064
20
-1.276305
30
0
11
-0.16999
21
7.041947
31
0
39
0
210
0
220
0
230
1
0
LINE
5
BD
100
AcDbEntity
8
1
62
256
6
ByLayer
370
18
48
1
60
0
100
AcDbLine
10
0.432075
20
5.409855
30
0
11
1.127941
21
0.458514
31
0
39
0
210
0
220
0
230
1
0
LINE
5
BE
100
AcDbEntity
8
1
62
256
6
ByLayer
370
18
48
1
60
0
100
AcDbLine
10
2.265123
20
9.280177
30
0
11
9.823997
21
10.342507
31
0
39
0
210
0
220
0
230
1
0
LINE
5
BF
100
AcDbEntity
8
1
62
256
6
ByLayer
370
18
48
1
60
0
100
AcDbLine
10
3.956784
20
-2.756622
30
0
11
11.515658
21
-1.694291
31
0
39
0
210
0
220
0
230
1
0
LINE
5
C0
100
AcDbEntity
8
1
62
256
6
ByLayer
370
18
48
1
60
0
100
AcDbLine
10
0.630605
20
7.154463
30
0
11
1.799659
21
-1.163789
31
0
39
0
210
0
220
0
230
1
0
LINE
5
C1
100
AcDbEntity
8
1
62
256
6
ByLayer
370
18
48
1
60
0
100
AcDbLine
10
7.212755
20
8.029033
30
0
11
9.246845
21
8.314905
31
0
39
0
210
0
220
0
230
1
0
LINE
5
C2
100
AcDbEntity
8
1
62
256
6
ByLayer
370
18
48
1
60
0
100
AcDbLine
10
24.213901
20
8.206616
30
0
11
24.030217
21
8.362132
31
0
39
0
210
0
220
0
230
1
0
LINE
5
C3
100
AcDbEntity
8
1
62
256
6
ByLayer
370
18
48
1
60
0
100
AcDbLine
10
3.020201
20
5.874575
30
0
11
1.302893
21
5.633223
31
0
39
0
210
0
220
0
230
1
0
LINE
5
C4
100
AcDbEntity
8
1
62
256
6
ByLayer
370
18
48
1
60
0
100
AcDbLine
10
10.401982
20
0.09568
30
0
11
8.367891
21
-0.190192
31
0
39
0
210
0
220
0
230
1
0
LINE
5
C5
100
AcDbEntity
8
1
62
256
6
ByLayer
370
18
48
1
60
0
100
AcDbLine
10
0.630605
20
7.154463
30
0
11
-0.16999
21
7.041947
31
0
39
0
210
0
220
0
230
1
0
LINE
5
C6
100
AcDbEntity
8
1
62
256
6
ByLayer
370
18
48
1
60
0
100
AcDbLine
10
4.280624
20
10.696922
30
0
11
2.854802
21
10.496536
31
0
39
0
210
0
220
0
230
1
0
LINE
5
C7
100
AcDbEntity
8
1
62
256
6
ByLayer
370
18
48
1
60
0
100
AcDbLine
10
25.104647
20
4.676111
30
0
11
24.951481
21
4.499915
31
0
39
0
210
0
220
0
230
1
0
LINE
5
C8
100
AcDbEntity
8
1
62
256
6
ByLayer
370
18
48
1
60
0
100
AcDbLine
10
4.280624
20
10.696922
30
0
11
4.285276
21
10.695429
31
0
39
0
210
0
220
0
230
1
0
LINE
5
C9
100
AcDbEntity
8
1
62
256
6
ByLayer
370
18
48
1
60
0
100
AcDbLine
10
9.668077
20
11.451932
30
0
11
4.285276
21
10.695429
31
0
39
0
210
0
220
0
230
1
0
LINE
5
CA
100
AcDbEntity
8
1
62
256
6
ByLayer
370
18
48
1
60
0
100
AcDbLine
10
2.854802
20
10.496536
30
0
11
2.589121
21
10.459197
31
0
39
0
210
0
220
0
230
1
0
LINE
5
CB
100
AcDbEntity
8
1
62
256
6
ByLayer
370
18
48
1
60
0
100
AcDbLine
10
24.030217
20
8.362132
30
0
11
23.108397
21
8.960769
31
0
39
0
210
0
220
0
230
1
0
LINE
5
CC
100
AcDbEntity
8
1
62
256
6
ByLayer
370
18
48
1
60
0
100
AcDbLine
10
0.576735
20
5.581659
30
0
11
0.432075
21
5.409855
31
0
39
0
210
0
220
0
230
1
0
LINE
5
CD
100
AcDbEntity
8
2
62
256
6
ByLayer
370
18
48
1
60
1
100
AcDbLine
10
32.275
20
13.651295
30
0
11
32.275
21
13.650295
31
0
39
0
210
0
220
0
230
1
0
LINE
5
CF
100
AcDbEntity
8
2
62
256
6
ByLayer
370
18
48
1
60
1
100
AcDbLine
10
31.421843
20
12.255544
30
0
11
31.421421
21
12.254638
31
0
39
0
210
0
220
0
230
1
0
MTEXT
5
159
100
AcDbEntity
8
SK6
62
256
6
ByLayer
370
13
48
1
60
0
100
AcDbMText
10
-91.814743
20
-26.86476
30
0
210
0
220
0
230
1
1
\W0.7191;CP-25BR-2020-11
40
3.5
41
0
44
1.084337
50
0
71
7
72
5
7
iso_b_vert
0
DIMENSION
5
16B
100
AcDbEntity
8
SK2
62
256
6
ByLayer
370
13
48
1
60
0
100
AcDbDimension
2
DimnDraft3D1
10
32.275
20
32.5625
30
0
11
-30.225
21
32.5625
31
0
70
32
71
5
72
1
41
1
210
0
220
0
230
1
3
Standard
100
AcDbAlignedDimension
13
-92.725
23
11.525
33
0
14
32.275
24
16.65
34
0
50
0
100
AcDbRotatedDimension
1001
ACAD
1000
DSTYLE
1002
{
1070
   279
1070
     0
1070
   172
1070
     1
1070
   173
1070
     1
1070
   340
1005
15A
1070
   271
1070
     1
1070
   272
1070
     2
1070
    77
1070
     1
1070
    73
1070
     0
1070
   171
1070
     3
1070
   274
1070
     4
1070
   177
1070
   150
1070
   176
1070
     9
1070
   178
1070
    43
1070
    78
1070
     8
1070
    48
1040
-0.005
1070
    41
1041
3.175
1070
   147
1041
2.25
1070
    42
1041
1.5875
1070
    44
1041
3.175
1070
   140
1041
4.5
1070
   343
1005
16C
1070
   344
1005
16C
1002
}
0
DIMENSION
5
180
100
AcDbEntity
8
SK2
62
256
6
ByLayer
370
13
48
1
60
0
100
AcDbDimension
2
DimnDraft3D2
10
-101.825
20
-9.9375
30
0
11
-101.825
21
0
31
0
70
32
71
5
72
1
41
1
210
0
220
0
230
1
3
Standard
100
AcDbAlignedDimension
13
-94.3125
23
9.9375
33
0
14
-94.3125
24
-9.9375
34
0
50
90
100
AcDbRotatedDimension
1001
ACAD
1000
DSTYLE
1002
{
1070
    74
1070
     0
1070
   279
1070
     0
1070
   172
1070
     1
1070
   173
1070
     1
1070
   340
1005
15A
1070
   271
1070
     1
1070
   272
1070
     2
1070
    77
1070
     1
1070
    73
1070
     0
1070
   171
1070
     3
1070
   274
1070
     4
1070
   177
1070
   150
1070
   176
1070
     9
1070
   178
1070
    43
1070
    78
1070
     8
1070
    48
1040
-0.005
1070
    41
1041
3.175
1070
   147
1041
2.25
1070
    42
1041
1.5875
1070
    44
1041
3.175
1070
   140
1041
4.5
1070
   343
1005
16C
1070
   344
1005
16C
1002
}
0
DIMENSION
5
18E
100
AcDbEntity
8
2
62
256
6
ByLayer
370
13
48
1
60
0
100
AcDbDimension
2
DimnDraft3D3
10
53.125
20
15.0625
30
0
11
53.125
21
2.5625
31
0
70
32
71
5
72
1
41
1
210
0
220
0
230
1
3
Standard
100
AcDbAlignedDimension
13
1.5875
23
-9.9375
33
0
14
33.8625
24
15.0625
34
0
50
90
100
AcDbRotatedDimension
1001
ACAD
1000
DSTYLE
1002
{
1070
    74
1070
     0
1070
   279
1070
     0
1070
   172
1070
     1
1070
   173
1070
     1
1070
   340
1005
15A
1070
   271
1070
     1
1070
   272
1070
     2
1070
    77
1070
     1
1070
    73
1070
     0
1070
   171
1070
     3
1070
   274
1070
     4
1070
   177
1070
   150
1070
   176
1070
     9
1070
   178
1070
    43
1070
    78
1070
     8
1070
    48
1040
-0.005
1070
    41
1041
3.175
1070
   147
1041
2.25
1070
    42
1041
1.5875
1070
    44
1041
3.175
1070
   140
1041
4.5
1070
   343
1005
16C
1070
   344
1005
16C
1002
}
0
DIMENSION
5
19D
100
AcDbEntity
8
2
62
256
6
ByLayer
370
13
48
1
60
0
100
AcDbDimension
2
DimnDraft3D4
10
31.421421
20
12.254638
30
0
11
46.793621
21
-11.537571
31
0
70
34
71
5
72
1
41
1
210
0
220
0
230
1
3
Standard
100
AcDb2LineAngularDimension
13
32.275
23
13.651295
33
0
14
32.275
24
13.650295
34
0
15
31.421843
25
12.255544
35
0
16
24.926833
26
-19.060294
36
0
40
0
0
ENDSEC
0
SECTION
2
OBJECTS
0
DICTIONARY
5
207
330
0
100
AcDbDictionary
280
0
281
1
3
ACAD_GROUP
350
208
3
ACAD_MLINESTYLE
350
209
0
DICTIONARY
5
208
330
0
100
AcDbDictionary
280
0
281
1
0
DICTIONARY
5
209
330
0
100
AcDbDictionary
280
0
281
1
3
Standard
350
18
0
MLINESTYLE
5
18
330
209
100
AcDbMlineStyle
2
Standard
70
0
3

62
256
51
90
52
90
71
2
49
-0.5
62
256
6
ByLayer
49
0.5
62
256
6
ByLayer
0
RASTERVARIABLES
5
1f6
330

100
AcDbRasterVariables
90
0
70
1
71
1
72
1
0
ENDSEC
0
EOF
