0
SECTION
2
HEADER
9
$ACADVER
1
AC1015
9
$DWGCODEPAGE
3
ANSI_1252
9
$HANDSEED
5
196
9
$ANGBASE
50
0
9
$ANGDIR
70
0
9
$ATTMODE
70
1
9
$AUNITS
70
0
9
$AUPREC
70
0
9
$CECOLOR
62
256
9
$CELTSCALE
40
1
9
$CELTYPE
6
ByLayer
9
$CELWEIGHT
370
18
9
$CLAYER
8
0
9
$CMLJUST
70
0
9
$CMLSCALE
40
1
9
$CMLSTYLE
2
Standard
9
$DIMSTYLE
2
Standard
9
$TEXTSIZE
40
0.2
9
$TEXTSTYLE
7
Standard
9
$LUNITS
70
2
9
$LUPREC
70
4
9
$EXTNAMES
290
1
9
$INSUNITS
70
4
9
$LTSCALE
40
1
9
$LWDISPLAY
290
1
9
$PDMODE
70
0
9
$PDSIZE
40
0
9
$PLINEGEN
70
0
0
ENDSEC
0
SECTION
2
CLASSES
0
CLASS
1
RASTERVARIABLES
2
AcDbRasterVariables
3
ISM
90
0
280
0
281
0
0
ENDSEC
0
SECTION
2
TABLES
0
TABLE
2
VPORT
5
18c
100
AcDbSymbolTable
0
VPORT
5
1
100
AcDbSymbolTableRecord
100
AcDbViewportTableRecord
2
*Active
70
0
10
0
20
0
11
1
21
1
12
-1
22
1
13
0
23
0
14
0.5
24
0.5
15
10
25
10
16
0
26
0
36
1
17
0
27
0
37
0
0
ENDTAB
0
TABLE
2
LTYPE
5
18d
100
AcDbSymbolTable
0
LTYPE
5
14
100
AcDbSymbolTableRecord
100
AcDbLinetypeTableRecord
70
0
2
ByBlock
3

72
65
73
0
40
0
0
LTYPE
5
15
100
AcDbSymbolTableRecord
100
AcDbLinetypeTableRecord
70
0
2
ByLayer
3

72
65
73
0
40
0
0
LTYPE
5
16
100
AcDbSymbolTableRecord
100
AcDbLinetypeTableRecord
70
0
2
CONTINUOUS
3
Solid line
72
65
73
0
40
0
0
LTYPE
5
6A
100
AcDbSymbolTableRecord
100
AcDbLinetypeTableRecord
70
0
2
CENTER
3
____ _ ____ _ ____ _ ____
72
65
73
4
40
47.5
49
22
74
0
49
-8.5
74
0
49
8.5
74
0
49
-8.5
74
0
0
LTYPE
5
6B
100
AcDbSymbolTableRecord
100
AcDbLinetypeTableRecord
70
0
2
DASHED
3
__ __ __ __ __ __ __ __ __
72
65
73
2
40
25.72
49
12.86
74
0
49
-12.86
74
0
0
ENDTAB
0
TABLE
2
LAYER
5
18e
100
AcDbSymbolTable
0
LAYER
5
10
100
AcDbSymbolTableRecord
100
AcDbLayerTableRecord
2
0
70
0
62
7
6
CONTINUOUS
290
1
370
-3
390
0
0
LAYER
5
6D
100
AcDbSymbolTableRecord
100
AcDbLayerTableRecord
2
80
70
0
62
-6
6
CONTINUOUS
290
1
370
-3
390
0
0
LAYER
5
6F
100
AcDbSymbolTableRecord
100
AcDbLayerTableRecord
2
81
70
0
62
-3
6
CONTINUOUS
290
1
370
-3
390
0
0
LAYER
5
73
100
AcDbSymbolTableRecord
100
AcDbLayerTableRecord
2
1
70
0
62
4
6
CONTINUOUS
290
1
370
-3
390
0
0
LAYER
5
98
100
AcDbSymbolTableRecord
100
AcDbLayerTableRecord
2
2
70
0
62
7
6
CONTINUOUS
290
1
370
-3
390
0
0
LAYER
5
179
100
AcDbSymbolTableRecord
100
AcDbLayerTableRecord
2
SK1
70
0
62
4
6
CONTINUOUS
290
1
370
-3
390
0
0
LAYER
5
17a
100
AcDbSymbolTableRecord
100
AcDbLayerTableRecord
2
SK6
70
0
62
5
6
CONTINUOUS
290
1
370
-3
390
0
0
LAYER
5
17b
100
AcDbSymbolTableRecord
100
AcDbLayerTableRecord
2
SK2
70
0
62
7
6
CONTINUOUS
290
1
370
-3
390
0
0
ENDTAB
0
TABLE
2
STYLE
5
18f
100
AcDbSymbolTable
0
STYLE
5
11
100
AcDbSymbolTableRecord
100
AcDbTextStyleTableRecord
2
Standard
3
txt
70
0
71
0
40
0
41
1
42
0
50
0
0
STYLE
5
DD
100
AcDbSymbolTableRecord
100
AcDbTextStyleTableRecord
2
iso_b_vert
3
simplex.shx
70
0
71
0
40
0
41
1
42
0
50
0
0
STYLE
5
DE
100
AcDbSymbolTableRecord
100
AcDbTextStyleTableRecord
2
DWGDirectTextStyle
3
simplex
70
0
71
0
40
0
41
1
42
0
50
0
0
ENDTAB
0
TABLE
2
DIMSTYLE
5
190
100
AcDbSymbolTable
100
AcDbDimStyleTable
0
DIMSTYLE
105
27
100
AcDbSymbolTableRecord
100
AcDbDimStyleTableRecord
2
Standard
70
0
3
<>
41
0.18
42
0.0625
44
0.18
140
0.18
147
0.09
73
0
74
0
77
1
271
2
275
0
278
52
280
0
340
11
0
ENDTAB
0
TABLE
2
VIEW
5
191
100
AcDbSymbolTable
0
ENDTAB
0
TABLE
2
UCS
5
192
100
AcDbSymbolTable
0
ENDTAB
0
TABLE
2
APPID
5
193
100
AcDbSymbolTable
0
APPID
5
12
100
AcDbSymbolTableRecord
100
AcDbRegAppTableRecord
2
ACAD
70
0
0
ENDTAB
0
TABLE
2
BLOCK_RECORD
5
194
100
AcDbSymbolTable
0
BLOCK_RECORD
5
1F
100
AcDbSymbolTableRecord
100
AcDbBlockTableRecord
2
*Model_Space
340
0
70
0
0
BLOCK_RECORD
5
1B
100
AcDbSymbolTableRecord
100
AcDbBlockTableRecord
2
*Paper_Space
340
0
70
0
0
BLOCK_RECORD
5
23
100
AcDbSymbolTableRecord
100
AcDbBlockTableRecord
2
*Paper_Space0
340
0
70
0
0
BLOCK_RECORD
5
E0
100
AcDbSymbolTableRecord
100
AcDbBlockTableRecord
2
DimnDraft3D1
340
0
70
0
0
BLOCK_RECORD
5
EF
100
AcDbSymbolTableRecord
100
AcDbBlockTableRecord
2
_CLOSED
340
0
70
0
0
BLOCK_RECORD
5
F6
100
AcDbSymbolTableRecord
100
AcDbBlockTableRecord
2
DimnDraft3D2
340
0
70
0
0
BLOCK_RECORD
5
104
100
AcDbSymbolTableRecord
100
AcDbBlockTableRecord
2
DimnDraft3D3
340
0
70
0
0
BLOCK_RECORD
5
112
100
AcDbSymbolTableRecord
100
AcDbBlockTableRecord
2
DimnDraft3D4
340
0
70
0
0
ENDTAB
0
ENDSEC
0
SECTION
2
BLOCKS
0
BLOCK
5
20
100
AcDbEntity
8
0
100
AcDbBlockBegin
2
*Model_Space
70
0
10
0
20
0
30
0
3
*Model_Space
0
ENDBLK
5
21
100
AcDbEntity
8
0
100
AcDbBlockEnd
0
BLOCK
5
1C
100
AcDbEntity
8
0
100
AcDbBlockBegin
2
*Paper_Space
70
0
10
0
20
0
30
0
3
*Paper_Space
0
ENDBLK
5
1D
100
AcDbEntity
8
0
100
AcDbBlockEnd
0
BLOCK
5
24
100
AcDbEntity
8
0
100
AcDbBlockBegin
2
*Paper_Space0
70
0
10
0
20
0
30
0
3
*Paper_Space0
0
ENDBLK
5
25
100
AcDbEntity
8
0
100
AcDbBlockEnd
0
BLOCK
5
EC
100
AcDbEntity
8
0
100
AcDbBlockBegin
2
DimnDraft3D1
70
0
10
0
20
0
30
0
3
DimnDraft3D1
0
MTEXT
5
E1
100
AcDbEntity
8
SK2
62
256
6
ByLayer
370
13
48
1
60
0
100
AcDbMText
10
-66.568658
20
42.7
30
0
210
0
220
0
230
1
1
\W0.6864;170.0
40
4.5
41
0
44
1.084337
50
0
71
7
72
5
7
iso_b_vert
0
LINE
5
E3
100
AcDbEntity
8
SK2
62
256
6
ByLayer
370
13
48
1
60
0
100
AcDbLine
10
-146.293
20
17.5125
30
0
11
-146.293
21
44.75
31
0
39
0
210
0
220
0
230
1
0
LINE
5
E4
100
AcDbEntity
8
SK2
62
256
6
ByLayer
370
13
48
1
60
0
100
AcDbLine
10
23.707
20
25.6625
30
0
11
23.707
21
44.75
31
0
39
0
210
0
220
0
230
1
0
LINE
5
E5
100
AcDbEntity
8
SK2
62
256
6
ByLayer
370
13
48
1
60
0
100
AcDbLine
10
-146.293
20
41.575
30
0
11
23.707
21
41.575
31
0
39
0
210
0
220
0
230
1
0
LINE
5
E6
100
AcDbEntity
8
SK2
62
256
6
ByLayer
370
13
48
1
60
0
100
AcDbLine
10
-146.293
20
41.575
30
0
11
-143.118003
21
42.425739
31
0
39
0
210
0
220
0
230
1
0
LINE
5
E7
100
AcDbEntity
8
SK2
62
256
6
ByLayer
370
13
48
1
60
0
100
AcDbLine
10
-146.293
20
41.575
30
0
11
-143.117997
21
40.724261
31
0
39
0
210
0
220
0
230
1
0
LINE
5
E8
100
AcDbEntity
8
SK2
62
256
6
ByLayer
370
13
48
1
60
0
100
AcDbLine
10
-143.118003
20
42.425739
30
0
11
-143.117997
21
40.724261
31
0
39
0
210
0
220
0
230
1
0
LINE
5
E9
100
AcDbEntity
8
SK2
62
256
6
ByLayer
370
13
48
1
60
0
100
AcDbLine
10
23.707
20
41.575
30
0
11
20.532003
21
40.724261
31
0
39
0
210
0
220
0
230
1
0
LINE
5
EA
100
AcDbEntity
8
SK2
62
256
6
ByLayer
370
13
48
1
60
0
100
AcDbLine
10
23.707
20
41.575
30
0
11
20.531997
21
42.425739
31
0
39
0
210
0
220
0
230
1
0
LINE
5
EB
100
AcDbEntity
8
SK2
62
256
6
ByLayer
370
13
48
1
60
0
100
AcDbLine
10
20.532003
20
40.724261
30
0
11
20.531997
21
42.425739
31
0
39
0
210
0
220
0
230
1
0
ENDBLK
5
ED
100
AcDbEntity
8
0
100
AcDbBlockEnd
0
BLOCK
5
F0
100
AcDbEntity
8
0
100
AcDbBlockBegin
2
_CLOSED
70
0
10
0
20
0
30
0
3
_CLOSED
0
LINE
5
F2
100
AcDbEntity
8
0
62
256
6
ByLayer
370
-2
48
1
60
0
100
AcDbLine
10
-1
20
0.166667
30
0
11
0
21
0
31
0
39
0
210
0
220
0
230
1
0
LINE
5
F3
100
AcDbEntity
8
0
62
256
6
ByLayer
370
-2
48
1
60
0
100
AcDbLine
10
0
20
0
30
0
11
-1
21
-0.166667
31
0
39
0
210
0
220
0
230
1
0
LINE
5
F4
100
AcDbEntity
8
0
62
256
6
ByLayer
370
-2
48
1
60
0
100
AcDbLine
10
-1
20
0.166667
30
0
11
-1
21
-0.166667
31
0
39
0
210
0
220
0
230
1
0
LINE
5
F5
100
AcDbEntity
8
0
62
256
6
ByLayer
370
-2
48
1
60
0
100
AcDbLine
10
0
20
0
30
0
11
-1
21
0
31
0
39
0
210
0
220
0
230
1
0
ENDBLK
5
F1
100
AcDbEntity
8
0
100
AcDbBlockEnd
0
BLOCK
5
101
100
AcDbEntity
8
0
100
AcDbBlockBegin
2
DimnDraft3D2
70
0
10
0
20
0
30
0
3
DimnDraft3D2
0
MTEXT
5
F7
100
AcDbEntity
8
SK2
62
256
6
ByLayer
370
13
48
1
60
0
100
AcDbMText
10
-156.518
20
-4.156579
30
0
210
0
220
0
230
1
1
\W0.7346;32.0
40
4.5
41
0
44
1.084337
50
90
71
7
72
5
7
iso_b_vert
0
LINE
5
F8
100
AcDbEntity
8
SK2
62
256
6
ByLayer
370
13
48
1
60
0
100
AcDbLine
10
-147.8805
20
15.925
30
0
11
-158.568
21
15.925
31
0
39
0
210
0
220
0
230
1
0
LINE
5
F9
100
AcDbEntity
8
SK2
62
256
6
ByLayer
370
13
48
1
60
0
100
AcDbLine
10
-147.8805
20
-15.925
30
0
11
-158.568
21
-15.925
31
0
39
0
210
0
220
0
230
1
0
LINE
5
FA
100
AcDbEntity
8
SK2
62
256
6
ByLayer
370
13
48
1
60
0
100
AcDbLine
10
-155.393
20
15.925
30
0
11
-155.393
21
-15.925
31
0
39
0
210
0
220
0
230
1
0
LINE
5
FB
100
AcDbEntity
8
SK2
62
256
6
ByLayer
370
13
48
1
60
0
100
AcDbLine
10
-155.393
20
15.925
30
0
11
-154.542261
21
12.750003
31
0
39
0
210
0
220
0
230
1
0
LINE
5
FC
100
AcDbEntity
8
SK2
62
256
6
ByLayer
370
13
48
1
60
0
100
AcDbLine
10
-155.393
20
15.925
30
0
11
-156.243739
21
12.749997
31
0
39
0
210
0
220
0
230
1
0
LINE
5
FD
100
AcDbEntity
8
SK2
62
256
6
ByLayer
370
13
48
1
60
0
100
AcDbLine
10
-154.542261
20
12.750003
30
0
11
-156.243739
21
12.749997
31
0
39
0
210
0
220
0
230
1
0
LINE
5
FE
100
AcDbEntity
8
SK2
62
256
6
ByLayer
370
13
48
1
60
0
100
AcDbLine
10
-155.393
20
-15.925
30
0
11
-156.243739
21
-12.750003
31
0
39
0
210
0
220
0
230
1
0
LINE
5
FF
100
AcDbEntity
8
SK2
62
256
6
ByLayer
370
13
48
1
60
0
100
AcDbLine
10
-155.393
20
-15.925
30
0
11
-154.542261
21
-12.749997
31
0
39
0
210
0
220
0
230
1
0
LINE
5
100
100
AcDbEntity
8
SK2
62
256
6
ByLayer
370
13
48
1
60
0
100
AcDbLine
10
-156.243739
20
-12.750003
30
0
11
-154.542261
21
-12.749997
31
0
39
0
210
0
220
0
230
1
0
ENDBLK
5
102
100
AcDbEntity
8
0
100
AcDbBlockEnd
0
BLOCK
5
10F
100
AcDbEntity
8
0
100
AcDbBlockBegin
2
DimnDraft3D3
70
0
10
0
20
0
30
0
3
DimnDraft3D3
0
MTEXT
5
105
100
AcDbEntity
8
2
62
256
6
ByLayer
370
13
48
1
60
0
100
AcDbMText
10
43.432
20
-0.318421
30
0
210
0
220
0
230
1
1
\W0.7640;40.0
40
4.5
41
0
44
1.084337
50
90
71
7
72
5
7
iso_b_vert
0
LINE
5
106
100
AcDbEntity
8
2
62
256
6
ByLayer
370
13
48
1
60
0
100
AcDbLine
10
1.5875
20
-15.925
30
0
11
47.732
21
-15.925
31
0
39
0
210
0
220
0
230
1
0
LINE
5
107
100
AcDbEntity
8
2
62
256
6
ByLayer
370
13
48
1
60
0
100
AcDbLine
10
25.2945
20
24.075
30
0
11
47.732
21
24.075
31
0
39
0
210
0
220
0
230
1
0
LINE
5
108
100
AcDbEntity
8
2
62
256
6
ByLayer
370
13
48
1
60
0
100
AcDbLine
10
44.557
20
-15.925
30
0
11
44.557
21
24.075
31
0
39
0
210
0
220
0
230
1
0
LINE
5
109
100
AcDbEntity
8
2
62
256
6
ByLayer
370
13
48
1
60
0
100
AcDbLine
10
44.557
20
-15.925
30
0
11
43.706261
21
-12.750003
31
0
39
0
210
0
220
0
230
1
0
LINE
5
10A
100
AcDbEntity
8
2
62
256
6
ByLayer
370
13
48
1
60
0
100
AcDbLine
10
44.557
20
-15.925
30
0
11
45.407739
21
-12.749997
31
0
39
0
210
0
220
0
230
1
0
LINE
5
10B
100
AcDbEntity
8
2
62
256
6
ByLayer
370
13
48
1
60
0
100
AcDbLine
10
43.706261
20
-12.750003
30
0
11
45.407739
21
-12.749997
31
0
39
0
210
0
220
0
230
1
0
LINE
5
10C
100
AcDbEntity
8
2
62
256
6
ByLayer
370
13
48
1
60
0
100
AcDbLine
10
44.557
20
24.075
30
0
11
45.407739
21
20.900003
31
0
39
0
210
0
220
0
230
1
0
LINE
5
10D
100
AcDbEntity
8
2
62
256
6
ByLayer
370
13
48
1
60
0
100
AcDbLine
10
44.557
20
24.075
30
0
11
43.706261
21
20.899997
31
0
39
0
210
0
220
0
230
1
0
LINE
5
10E
100
AcDbEntity
8
2
62
256
6
ByLayer
370
13
48
1
60
0
100
AcDbLine
10
45.407739
20
20.900003
30
0
11
43.706261
21
20.899997
31
0
39
0
210
0
220
0
230
1
0
ENDBLK
5
110
100
AcDbEntity
8
0
100
AcDbBlockEnd
0
BLOCK
5
11D
100
AcDbEntity
8
0
100
AcDbBlockBegin
2
DimnDraft3D4
70
0
10
0
20
0
30
0
3
DimnDraft3D4
0
MTEXT
5
113
100
AcDbEntity
8
2
62
256
6
ByLayer
370
13
48
1
60
0
100
AcDbMText
10
9.328961
20
-22.553164
30
0
210
0
220
0
230
1
1
\W0.7346;30.0
40
4.5
41
0
44
1.084337
50
347.500000000422
71
7
72
5
7
iso_b_vert
0
LINE
5
114
100
AcDbEntity
8
2
62
256
6
ByLayer
370
13
48
1
60
0
100
AcDbLine
10
23.707
20
21.075295
30
0
11
23.707
21
-28.883035
31
0
39
0
210
0
220
0
230
1
0
LINE
5
115
100
AcDbEntity
8
2
62
256
6
ByLayer
370
13
48
1
60
0
100
AcDbLine
10
21.01521
20
17.325082
30
0
11
1.739016
21
-24.01285
31
0
39
0
210
0
220
0
230
1
0
ARC
5
116
100
AcDbEntity
8
2
62
256
6
ByLayer
370
13
48
1
60
0
100
AcDbCircle
39
0
10
23.707
20
23.097644
30
0
40
48.8056791904528
210
0
220
0
230
1
100
AcDbArc
50
232.019706
51
282.980294
0
LINE
5
117
100
AcDbEntity
8
2
62
256
6
ByLayer
370
13
48
1
60
0
100
AcDbLine
10
23.707
20
-25.708035
30
0
11
26.867747
21
-24.805793
31
0
39
0
210
0
220
0
230
1
0
LINE
5
118
100
AcDbEntity
8
2
62
256
6
ByLayer
370
13
48
1
60
0
100
AcDbLine
10
23.707
20
-25.708035
30
0
11
26.895414
21
-26.507045
31
0
39
0
210
0
220
0
230
1
0
LINE
5
119
100
AcDbEntity
8
2
62
256
6
ByLayer
370
13
48
1
60
0
100
AcDbLine
10
26.867747
20
-24.805793
30
0
11
26.895414
21
-26.507045
31
0
39
0
210
0
220
0
230
1
0
LINE
5
11A
100
AcDbEntity
8
2
62
256
6
ByLayer
370
13
48
1
60
0
100
AcDbLine
10
3.080829
20
-21.135323
30
0
11
-0.146526
21
-20.511993
31
0
39
0
210
0
220
0
230
1
0
LINE
5
11B
100
AcDbEntity
8
2
62
256
6
ByLayer
370
13
48
1
60
0
100
AcDbLine
10
3.080829
20
-21.135323
30
0
11
0.597518
21
-18.981822
31
0
39
0
210
0
220
0
230
1
0
LINE
5
11C
100
AcDbEntity
8
2
62
256
6
ByLayer
370
13
48
1
60
0
100
AcDbLine
10
-0.146526
20
-20.511993
30
0
11
0.597518
21
-18.981822
31
0
39
0
210
0
220
0
230
1
0
ENDBLK
5
11E
100
AcDbEntity
8
0
100
AcDbBlockEnd
0
ENDSEC
0
SECTION
2
ENTITIES
0
ARC
5
9A
100
AcDbEntity
8
1
62
256
6
ByLayer
370
18
48
1
60
0
100
AcDbCircle
39
0
10
0.621232
20
17.425
30
0
40
1.5
210
0
220
0
230
-1
100
AcDbArc
50
225
51
245.533925
0
ARC
5
9B
100
AcDbEntity
8
SK1
62
256
6
ByLayer
370
18
48
1
60
0
100
AcDbCircle
39
0
10
0.621232
20
17.425
30
0
40
1.5
210
0
220
0
230
-1
100
AcDbArc
50
245.533925
51
270
0
ARC
5
9C
100
AcDbEntity
8
1
62
256
6
ByLayer
370
13
48
1
60
0
100
AcDbCircle
39
0
10
1.688094
20
8.760898
30
0
40
8
210
0
220
0
230
1
100
AcDbArc
50
42.5
51
55
0
ARC
5
9E
100
AcDbEntity
8
1
62
256
6
ByLayer
370
13
48
1
60
0
100
AcDbCircle
39
0
10
-16.683091
20
3.535284
30
0
40
0.8
210
0
220
0
230
-1
100
AcDbArc
50
185
51
330
0
ARC
5
9F
100
AcDbEntity
8
1
62
256
6
ByLayer
370
13
48
1
60
0
100
AcDbCircle
39
0
10
-22.907
20
23.275
30
0
40
0.8
210
0
220
0
230
-1
100
AcDbArc
50
65
51
210
0
ARC
5
A0
100
AcDbEntity
8
1
62
256
6
ByLayer
370
13
48
1
60
0
100
AcDbCircle
39
0
10
-2.69995
20
18.795205
30
0
40
0.8
210
0
220
0
230
-1
100
AcDbArc
50
305
51
90
0
ARC
5
A1
100
AcDbEntity
8
1
62
256
6
ByLayer
370
13
48
1
60
0
100
AcDbCircle
39
0
10
28.064734
20
14.608458
30
0
40
8
210
0
220
0
230
1
100
AcDbArc
50
150
51
162.5
0
ARC
5
A3
100
AcDbEntity
8
1
62
256
6
ByLayer
370
13
48
1
60
0
100
AcDbCircle
39
0
10
14.722963
20
29.168446
30
0
40
8
210
0
220
0
230
1
100
AcDbArc
50
282.5
51
295
0
ARC
5
A4
100
AcDbEntity
8
1
62
256
6
ByLayer
370
13
48
1
60
0
100
AcDbCircle
39
0
10
7.626529
20
27.595205
30
0
40
8
210
0
220
0
230
1
100
AcDbArc
50
270
51
282.5
0
ARC
5
A5
100
AcDbEntity
8
1
62
256
6
ByLayer
370
13
48
1
60
0
100
AcDbCircle
39
0
10
25.878984
20
7.676145
30
0
40
8
210
0
220
0
230
1
100
AcDbArc
50
162.5
51
175
0
ARC
5
A7
100
AcDbEntity
8
1
62
256
6
ByLayer
370
13
48
1
60
0
100
AcDbCircle
39
0
10
6.598779
20
3.401826
30
0
40
8
210
0
220
0
230
1
100
AcDbArc
50
30
51
42.5
0
ARC
5
A8
100
AcDbEntity
8
1
62
256
6
ByLayer
370
18
48
1
60
0
100
AcDbCircle
39
0
10
-14.09668
20
15.20183
30
0
40
1.6764
210
0
220
0
230
-1
100
AcDbArc
50
167.5
51
227.5
0
ARC
5
A9
100
AcDbEntity
8
1
62
256
6
ByLayer
370
18
48
1
60
0
100
AcDbCircle
39
0
10
-14.09668
20
15.20183
30
0
40
1.6764
210
0
220
0
230
-1
100
AcDbArc
50
287.5
51
347.5
0
ARC
5
AA
100
AcDbEntity
8
1
62
256
6
ByLayer
370
18
48
1
60
0
100
AcDbCircle
39
0
10
14.09668
20
15.20183
30
0
40
1.2903
210
0
220
0
230
1
100
AcDbArc
50
342.5
51
42.5
0
ARC
5
AB
100
AcDbEntity
8
1
62
256
6
ByLayer
370
18
48
1
60
0
100
AcDbCircle
39
0
10
-14.09668
20
15.20183
30
0
40
1.2903
210
0
220
0
230
-1
100
AcDbArc
50
77.5
51
137.5
0
ARC
5
AC
100
AcDbEntity
8
1
62
256
6
ByLayer
370
18
48
1
60
0
100
AcDbCircle
39
0
10
14.09668
20
15.20183
30
0
40
1.2903
210
0
220
0
230
1
100
AcDbArc
50
282.5
51
342.5
0
ARC
5
AD
100
AcDbEntity
8
1
62
256
6
ByLayer
370
18
48
1
60
0
100
AcDbCircle
39
0
10
-14.09668
20
15.20183
30
0
40
1.6764
210
0
220
0
230
-1
100
AcDbArc
50
227.5
51
287.5
0
ARC
5
AE
100
AcDbEntity
8
1
62
256
6
ByLayer
370
18
48
1
60
0
100
AcDbCircle
39
0
10
14.09668
20
15.20183
30
0
40
1.2903
210
0
220
0
230
1
100
AcDbArc
50
162.5
51
222.5
0
ARC
5
AF
100
AcDbEntity
8
1
62
256
6
ByLayer
370
18
48
1
60
0
100
AcDbCircle
39
0
10
14.09668
20
15.20183
30
0
40
1.2903
210
0
220
0
230
1
100
AcDbArc
50
102.5
51
162.5
0
ARC
5
B0
100
AcDbEntity
8
1
62
256
6
ByLayer
370
18
48
1
60
0
100
AcDbCircle
39
0
10
-14.09668
20
15.20183
30
0
40
1.6764
210
0
220
0
230
-1
100
AcDbArc
50
47.5
51
107.5
0
ARC
5
B2
100
AcDbEntity
8
1
62
256
6
ByLayer
370
18
48
1
60
0
100
AcDbCircle
39
0
10
14.09668
20
15.20183
30
0
40
1.2903
210
0
220
0
230
1
100
AcDbArc
50
222.5
51
282.5
0
ARC
5
B4
100
AcDbEntity
8
1
62
256
6
ByLayer
370
18
48
1
60
0
100
AcDbCircle
39
0
10
-14.09668
20
15.20183
30
0
40
1.6764
210
0
220
0
230
-1
100
AcDbArc
50
347.5
51
47.5
0
ARC
5
B5
100
AcDbEntity
8
1
62
256
6
ByLayer
370
18
48
1
60
0
100
AcDbCircle
39
0
10
-14.09668
20
15.20183
30
0
40
1.6764
210
0
220
0
230
-1
100
AcDbArc
50
107.5
51
167.5
0
CIRCLE
5
9D
100
AcDbEntity
8
1
62
256
6
ByLayer
370
13
48
1
60
0
100
AcDbCircle
10
-14.09668
20
15.20183
30
0
40
3
39
0
210
0
220
0
230
-1
0
CIRCLE
5
A2
100
AcDbEntity
8
1
62
256
6
ByLayer
370
13
48
1
60
0
100
AcDbCircle
10
14.09668
20
15.20183
30
0
40
3.06293413074916
39
0
210
0
220
0
230
1
0
CIRCLE
5
A6
100
AcDbEntity
8
1
62
256
6
ByLayer
370
13
48
1
60
0
100
AcDbCircle
10
-14.09668
20
15.20183
30
0
40
2.87330486655119
39
0
210
0
220
0
230
-1
0
CIRCLE
5
B1
100
AcDbEntity
8
1
62
256
6
ByLayer
370
18
48
1
60
0
100
AcDbCircle
10
14.09668
20
15.20183
30
0
40
2.625
39
0
210
0
220
0
230
1
0
CIRCLE
5
B3
100
AcDbEntity
8
1
62
256
6
ByLayer
370
18
48
1
60
0
100
AcDbCircle
10
14.09668
20
15.20183
30
0
40
1.8
39
0
210
0
220
0
230
1
0
ELLIPSE
5
B6
100
AcDbEntity
8
1
62
256
6
ByLayer
370
18
48
1
60
0
100
AcDbEllipse
10
9.194161
20
13.350171
30
0
11
0.58070295571094
21
0.81411551835626
31
0
210
0
220
0
230
1
40
0.082518
41
2.25900058762328
42
2.53699692127962
0
ELLIPSE
5
B7
100
AcDbEntity
8
1
62
256
6
ByLayer
370
18
48
1
60
0
100
AcDbEllipse
10
11.824786
20
10.479348
30
0
11
-0.861629160441497
21
-0.507538362960657
31
0
210
0
220
0
230
1
40
0.082518
41
0.60459589744543
42
0.882592188078745
0
POINT
5
6C
100
AcDbEntity
8
80
62
256
6
ByLayer
370
18
48
1
60
0
100
AcDbPoint
10
0
20
0
30
0
39
0
210
0
220
0
230
1
50
360
0
POINT
5
6E
100
AcDbEntity
8
81
62
256
6
ByLayer
370
18
48
1
60
0
100
AcDbPoint
10
23.707
20
24.075
30
0
39
0
210
0
220
0
230
1
50
360
0
SPLINE
5
B8
100
AcDbEntity
8
1
62
256
6
ByLayer
370
18
48
1
60
0
100
AcDbSpline
70
4
71
3
72
12
73
8
40
0
40
0
40
0
40
0
40
0.597164015022497
40
0.597164015022497
40
0.895746022533767
40
0.895746022533767
40
1
40
1
40
1
40
1
41
1
10
8.9371192387498
20
12.5084753185241
30
0
41
1
10
8.91592373598553
20
12.5438091600496
30
0
41
1
10
8.9026490547306
20
12.5834650428795
30
0
41
1
10
8.89824074565513
20
12.6490683452585
30
0
41
1
10
8.89947898811022
20
12.6714380029393
30
0
41
1
10
8.90567940062311
20
12.7018772819677
30
0
41
1
10
8.90771379894539
20
12.7098147967586
30
0
41
1
10
8.91020883471958
20
12.7177352667693
30
0
0
SPLINE
5
B9
100
AcDbEntity
8
1
62
256
6
ByLayer
370
18
48
1
60
0
100
AcDbSpline
70
4
71
3
72
12
73
8
40
0
40
0
40
0
40
0
40
0.104253977470329
40
0.104253977470329
40
0.402835984980275
40
0.402835984980275
40
1
40
1
40
1
40
1
41
1
10
11.1700081163116
20
10.251597100059
30
0
41
1
10
11.1619003293842
20
10.2498018730958
30
0
41
1
10
11.1538157097363
20
10.2484670162704
30
0
41
1
10
11.122951859796
20
10.2449431561715
30
0
41
1
10
11.1005594054755
20
10.245659269733
30
0
41
1
10
11.03558995292
20
10.255768508407
30
0
41
1
10
10.9972419374011
20
10.2724489134144
30
0
41
1
10
10.9638898615966
20
10.2966433080939
30
0
0
SPLINE
5
BA
100
AcDbEntity
8
1
62
256
6
ByLayer
370
18
48
1
60
0
100
AcDbSpline
70
4
71
3
72
10
73
6
40
0
40
0
40
0
40
0
40
0.5
40
0.5
40
1
40
1
40
1
40
1
41
1
10
8.96517019733045
20
12.3944268792861
30
0
41
1
10
8.97401860779223
20
12.3847705337282
30
0
41
1
10
8.98725216597228
20
12.3769640996792
30
0
41
1
10
9.0210266118645
20
12.3650747515176
30
0
41
1
10
9.04186984653904
20
12.360999454997
30
0
41
1
10
9.06540174529414
20
12.3590527005642
30
0
0
SPLINE
5
BB
100
AcDbEntity
8
1
62
256
6
ByLayer
370
18
48
1
60
0
100
AcDbSpline
70
4
71
3
72
8
73
4
40
0
40
0
40
0
40
0
40
1
40
1
40
1
40
1
41
1
10
8.97448357724591
20
12.4582724702569
30
0
41
1
10
8.96047117950644
20
12.4735643190303
30
0
41
1
10
8.94802205349811
20
12.4902998436234
30
0
41
1
10
8.93711923874969
20
12.5084753185241
30
0
0
SPLINE
5
BC
100
AcDbEntity
8
1
62
256
6
ByLayer
370
18
48
1
60
0
100
AcDbSpline
70
4
71
3
72
10
73
6
40
0
40
0
40
0
40
0
40
0.5
40
0.5
40
1
40
1
40
1
40
1
41
1
10
10.8262163989493
20
10.4374607002228
30
0
41
1
10
10.8261048052795
20
10.4138486766184
30
0
41
1
10
10.8283479864672
20
10.3927295712494
30
0
41
1
10
10.837248455152
20
10.3580474223508
30
0
41
1
10
10.8438718027701
20
10.3441838462972
30
0
41
1
10
10.8527202132319
20
10.3345275007393
30
0
0
SPLINE
5
BD
100
AcDbEntity
8
1
62
256
6
ByLayer
370
18
48
1
60
0
100
AcDbSpline
70
4
71
3
72
8
73
4
40
0
40
0
40
0
40
0
40
1
40
1
40
1
40
1
41
1
10
10.9638898615966
20
10.2966433080937
30
0
41
1
10
10.9467337927827
20
10.3090887313551
30
0
41
1
10
10.931146964737
20
10.3229490817567
30
0
41
1
10
10.9171345669976
20
10.3382409305302
30
0
0
SPLINE
5
BE
100
AcDbEntity
8
1
62
256
6
ByLayer
370
18
48
1
60
0
100
AcDbSpline
70
4
71
3
72
16
73
12
40
0
40
0
40
0
40
0
40
0.249999999999963
40
0.249999999999963
40
0.499999999999927
40
0.499999999999927
40
0.74999999999989
40
0.74999999999989
40
0.874999999999945
40
0.874999999999945
40
1
40
1
40
1
40
1
41
1
10
12.9641210543159
20
16.4378012966981
30
0
41
1
10
12.9967268759133
20
16.4676790274821
30
0
41
1
10
13.0318944043554
20
16.4950414238103
30
0
41
1
10
13.1064263420376
20
16.5427187158381
30
0
41
1
10
13.145929385621
20
16.5632382563658
30
0
41
1
10
13.2287005519267
20
16.5923213762877
30
0
41
1
10
13.2722822434974
20
16.6013104058525
30
0
41
1
10
13.3344031875266
20
16.5931355684131
30
0
41
1
10
13.3544892709984
20
16.5862585554488
30
0
41
1
10
13.3864064662129
20
16.5632295573881
30
0
41
1
10
13.3981015787679
20
16.5471889758508
30
0
41
1
10
13.404893173384
20
16.5289675838512
30
0
0
SPLINE
5
BF
100
AcDbEntity
8
1
62
256
6
ByLayer
370
18
48
1
60
0
100
AcDbSpline
70
4
71
3
72
16
73
12
40
0
40
0
40
0
40
0
40
0.125000000000005
40
0.125000000000005
40
0.250000000000011
40
0.250000000000011
40
0.500000000000007
40
0.500000000000007
40
0.750000000000004
40
0.750000000000004
40
1
40
1
40
1
40
1
41
1
10
12.6014515909177
20
15.2662931964332
30
0
41
1
10
12.5823468880777
20
15.269510195802
30
0
41
1
10
12.5627176837764
20
15.2674306120231
30
0
41
1
10
12.5269972077372
20
15.2515146920247
30
0
41
1
10
12.5111071377647
20
15.2378356097595
30
0
41
1
10
12.472507978907
20
15.1878528966911
30
0
41
1
10
12.458534112763
20
15.145570205544
30
0
41
1
10
12.4422807255303
20
15.0591587825731
30
0
41
1
10
12.4403067136025
20
15.0147189994217
30
0
41
1
10
12.4443375777207
20
14.9262335838526
30
0
41
1
10
12.4504392644643
20
14.8821964168357
30
0
41
1
10
12.4600178520269
20
14.8389902004638
30
0
0
SPLINE
5
C0
100
AcDbEntity
8
1
62
256
6
ByLayer
370
18
48
1
60
0
100
AcDbSpline
70
4
71
3
72
8
73
4
40
0
40
0
40
0
40
0
40
1
40
1
40
1
40
1
41
1
10
14.0305810176999
20
13.7066721038574
30
0
41
1
10
14.0327249354321
20
13.7129854189691
30
0
41
1
10
14.0348691270216
20
13.7192995405239
30
0
41
1
10
14.0370136031445
20
13.7256144999602
30
0
0
SPLINE
5
C1
100
AcDbEntity
8
1
62
256
6
ByLayer
370
18
48
1
60
0
100
AcDbSpline
70
4
71
3
72
8
73
4
40
0
40
0
40
0
40
0
40
1
40
1
40
1
40
1
41
1
10
14.8945264142936
20
16.4452976747604
30
0
41
1
10
14.8963918742228
20
16.4517006076647
30
0
41
1
10
14.898257086639
20
16.4581026910149
30
0
41
1
10
14.9001220608292
20
16.4645039566876
30
0
0
SPLINE
5
C2
100
AcDbEntity
8
1
62
256
6
ByLayer
370
18
48
1
60
0
100
AcDbSpline
70
4
71
3
72
16
73
12
40
0
40
0
40
0
40
0
40
0.125000000000038
40
0.125000000000038
40
0.250000000000077
40
0.250000000000077
40
0.500000000000064
40
0.500000000000064
40
0.750000000000032
40
0.750000000000032
40
1
40
1
40
1
40
1
41
1
10
15.591909365808
20
15.1373659421059
30
0
41
1
10
15.6110140686479
20
15.1341489427371
30
0
41
1
10
15.6306432729491
20
15.136228526516
30
0
41
1
10
15.6663637489884
20
15.1521444465144
30
0
41
1
10
15.6822538189608
20
15.1658235287797
30
0
41
1
10
15.7208529778186
20
15.215806241848
30
0
41
1
10
15.7348268439625
20
15.2580889329951
30
0
41
1
10
15.7510802311953
20
15.344500355966
30
0
41
1
10
15.7530542431232
20
15.3889401391174
30
0
41
1
10
15.7490233790049
20
15.4774255546865
30
0
41
1
10
15.7429216922613
20
15.5214627217034
30
0
41
1
10
15.7333431046986
20
15.5646689380754
30
0
0
SPLINE
5
C3
100
AcDbEntity
8
1
62
256
6
ByLayer
370
18
48
1
60
0
100
AcDbSpline
70
4
71
3
72
18
73
14
40
0
40
0
40
0
40
0
40
0.125000000000001
40
0.125000000000001
40
0.250000000000001
40
0.250000000000001
40
0.500000000000014
40
0.500000000000014
40
0.750000000000027
40
0.750000000000027
40
0.875000000000013
40
0.875000000000013
40
1
40
1
40
1
40
1
41
1
10
15.4049536674432
20
15.8882640742208
30
0
41
1
10
15.3736024377299
20
15.8820317966151
30
0
41
1
10
15.3405860357649
20
15.8864834521506
30
0
41
1
10
15.2759146567812
20
15.9053017000074
30
0
41
1
10
15.2442373020261
20
15.9199184087365
30
0
41
1
10
15.1529826184701
20
15.9728472130327
30
0
41
1
10
15.0971462956811
20
16.0199081475086
30
0
41
1
10
14.9989319976607
20
16.1270705696902
30
0
41
1
10
14.9567829329599
20
16.1870169002781
30
0
41
1
10
14.9120950317221
20
16.2823395234771
30
0
41
1
10
14.9002974815588
20
16.3150927616771
30
0
41
1
10
14.8871361111735
20
16.3813092449788
30
0
41
1
10
14.8855897856951
20
16.4146239345137
30
0
41
1
10
14.8945264142936
20
16.4452976747604
30
0
0
SPLINE
5
C4
100
AcDbEntity
8
1
62
256
6
ByLayer
370
18
48
1
60
0
100
AcDbSpline
70
4
71
3
72
16
73
12
40
0
40
0
40
0
40
0
40
0.249999999999966
40
0.249999999999966
40
0.499999999999932
40
0.499999999999932
40
0.749999999999898
40
0.749999999999898
40
0.874999999999949
40
0.874999999999949
40
1
40
1
40
1
40
1
41
1
10
12.4600178520269
20
14.8389902004638
30
0
41
1
10
12.4695898150947
20
14.7958138652572
30
0
41
1
10
12.4827029421348
20
14.7532286367292
30
0
41
1
10
12.5164093599957
20
14.6714239222884
30
0
41
1
10
12.5369988339713
20
14.6319572837536
30
0
41
1
10
12.5881196117761
20
14.5606581960131
30
0
41
1
10
12.6186637479758
20
14.5282973827277
30
0
41
1
10
12.6742391403965
20
14.4993627078288
30
0
41
1
10
12.6946371893231
20
14.4934751228792
30
0
41
1
10
12.7339911156714
20
14.494032422629
30
0
41
1
10
12.7527716906242
20
14.5004640568049
30
0
41
1
10
12.7687864003265
20
14.511494648674
30
0
0
SPLINE
5
C5
100
AcDbEntity
8
1
62
256
6
ByLayer
370
18
48
1
60
0
100
AcDbSpline
70
4
71
3
72
8
73
4
40
0
40
0
40
0
40
0
40
1
40
1
40
1
40
1
41
1
10
12.8480741645006
20
15.9916101336277
30
0
41
1
10
12.8436774872664
20
15.9966247841461
30
0
41
1
10
12.8392813933921
20
16.0016387693106
30
0
41
1
10
12.8348858609894
20
16.0066521140861
30
0
0
SPLINE
5
C6
100
AcDbEntity
8
1
62
256
6
ByLayer
370
18
48
1
60
0
100
AcDbSpline
70
4
71
3
72
16
73
12
40
0
40
0
40
0
40
0
40
0.250000000000029
40
0.250000000000029
40
0.500000000000058
40
0.500000000000058
40
0.750000000000086
40
0.750000000000086
40
0.875000000000043
40
0.875000000000043
40
1
40
1
40
1
40
1
41
1
10
13.5925772760738
20
13.6030184730352
30
0
41
1
10
13.6347550607389
20
13.5897198686127
30
0
41
1
10
13.6781915139901
20
13.5797835554885
30
0
41
1
10
13.7658896837757
20
13.5680718124062
30
0
41
1
10
13.8103635323365
20
13.5661695006523
30
0
41
1
10
13.8976707424889
20
13.5747918490222
30
0
41
1
10
13.940968096981
20
13.585063440265
30
0
41
1
10
13.993813956704
20
13.6187258044773
30
0
41
1
10
14.0091117793007
20
13.6334472405605
30
0
41
1
10
14.028306106734
20
13.6678073903917
30
0
41
1
10
14.0321264356261
20
13.6872876624864
30
0
41
1
10
14.0305810176999
20
13.7066721038574
30
0
0
SPLINE
5
C7
100
AcDbEntity
8
1
62
256
6
ByLayer
370
18
48
1
60
0
100
AcDbSpline
70
4
71
3
72
8
73
4
40
0
40
0
40
0
40
0
40
1
40
1
40
1
40
1
41
1
10
15.3584750957362
20
14.397007024453
30
0
41
1
10
15.3540795633335
20
14.4020203692285
30
0
41
1
10
15.3496834694593
20
14.407034354393
30
0
41
1
10
15.345286792225
20
14.4120490049114
30
0
0
SPLINE
5
C8
100
AcDbEntity
8
1
62
256
6
ByLayer
370
18
48
1
60
0
100
AcDbSpline
70
4
71
3
72
18
73
14
40
0
40
0
40
0
40
0
40
0.125000000000007
40
0.125000000000007
40
0.250000000000013
40
0.250000000000013
40
0.500000000000009
40
0.500000000000009
40
0.750000000000005
40
0.750000000000005
40
0.875000000000002
40
0.875000000000002
40
1
40
1
40
1
40
1
41
1
10
15.345286792225
20
14.4120490049114
30
0
41
1
10
15.3242138666383
20
14.4360838274802
30
0
41
1
10
15.3115609124384
20
14.4669026980912
30
0
41
1
10
15.2955223036453
20
14.5323188791173
30
0
41
1
10
15.2923420673469
20
14.5670606274244
30
0
41
1
10
15.2925524146814
20
14.6725539037463
30
0
41
1
10
15.3053902180688
20
14.7444400449735
30
0
41
1
10
15.3490884489989
20
14.8830773331648
30
0
41
1
10
15.3799289618013
20
14.9495526592355
30
0
41
1
10
15.4401368244281
20
15.0359148285487
30
0
41
1
10
15.4626031856839
20
15.0625084257924
30
0
41
1
10
15.5133676571797
20
15.1070147485457
30
0
41
1
10
15.541445861897
20
15.12501125046
30
0
41
1
10
15.572478414479
20
15.1326087731927
30
0
0
SPLINE
5
C9
100
AcDbEntity
8
1
62
256
6
ByLayer
370
18
48
1
60
0
100
AcDbSpline
70
4
71
3
72
18
73
14
40
0
40
0
40
0
40
0
40
0.125000000000006
40
0.125000000000006
40
0.250000000000012
40
0.250000000000012
40
0.500000000000025
40
0.500000000000025
40
0.750000000000038
40
0.750000000000038
40
0.875000000000019
40
0.875000000000019
40
1
40
1
40
1
40
1
41
1
10
12.7884072892824
20
14.5153950643183
30
0
41
1
10
12.8197585189956
20
14.521627341924
30
0
41
1
10
12.8527749209607
20
14.5171756863885
30
0
41
1
10
12.9174462999444
20
14.4983574385317
30
0
41
1
10
12.9491236546995
20
14.4837407298026
30
0
41
1
10
13.0403783382556
20
14.4308119255064
30
0
41
1
10
13.0962146610445
20
14.3837509910305
30
0
41
1
10
13.1944289590648
20
14.2765885688489
30
0
41
1
10
13.2365780237658
20
14.216642238261
30
0
41
1
10
13.2812659250035
20
14.121319615062
30
0
41
1
10
13.2930634751668
20
14.088566376862
30
0
41
1
10
13.3062248455521
20
14.0223498935603
30
0
41
1
10
13.3077711710306
20
13.9890352040254
30
0
41
1
10
13.2988345424319
20
13.9583614637787
30
0
0
SPLINE
5
CA
100
AcDbEntity
8
1
62
256
6
ByLayer
370
18
48
1
60
0
100
AcDbSpline
70
4
71
3
72
16
73
12
40
0
40
0
40
0
40
0
40
0.125000000000021
40
0.125000000000021
40
0.250000000000042
40
0.250000000000042
40
0.500000000000028
40
0.500000000000028
40
0.750000000000014
40
0.750000000000014
40
1
40
1
40
1
40
1
41
1
10
14.9001220608292
20
16.4645039566876
30
0
41
1
10
14.9124604154265
20
16.4794406149943
30
0
41
1
10
14.9204740451953
20
16.4974797964647
30
0
41
1
10
14.9245506921717
20
16.5363725961492
30
0
41
1
10
14.9206492944157
20
16.5569733415459
30
0
41
1
10
14.8966625745774
20
16.6153925502156
30
0
41
1
10
14.8670316229757
20
16.6486356188589
30
0
41
1
10
14.800323829122
20
16.7059171765854
30
0
41
1
10
14.7628248539381
20
16.729846612638
30
0
41
1
10
14.6841788041318
20
16.770598489697
30
0
41
1
10
14.6429906554126
20
16.7873328574795
30
0
41
1
10
14.6007836806518
20
16.8006406655039
30
0
0
SPLINE
5
CB
100
AcDbEntity
8
1
62
256
6
ByLayer
370
18
48
1
60
0
100
AcDbSpline
70
4
71
3
72
8
73
4
40
0
40
0
40
0
40
0
40
1
40
1
40
1
40
1
41
1
10
13.2988345424319
20
13.9583614637787
30
0
41
1
10
13.2969690825028
20
13.9519585308744
30
0
41
1
10
13.2951038700866
20
13.9455564475242
30
0
41
1
10
13.2932388958964
20
13.9391551818516
30
0
0
SPLINE
5
CC
100
AcDbEntity
8
1
62
256
6
ByLayer
370
18
48
1
60
0
100
AcDbSpline
70
4
71
3
72
16
73
12
40
0
40
0
40
0
40
0
40
0.124999999999945
40
0.124999999999945
40
0.249999999999891
40
0.249999999999891
40
0.499999999999927
40
0.499999999999927
40
0.749999999999963
40
0.749999999999963
40
1
40
1
40
1
40
1
41
1
10
14.7884677833415
20
13.8746915546879
30
0
41
1
10
14.7952341315842
20
13.8565378970123
30
0
41
1
10
14.8068497061166
20
13.8405782993209
30
0
41
1
10
14.8384935351795
20
13.8176014196348
30
0
41
1
10
14.8582850029079
20
13.8106797565033
30
0
41
1
10
14.9208708816041
20
13.8022432609019
30
0
41
1
10
14.9644756993497
20
13.8112828834057
30
0
41
1
10
15.0474368804361
20
13.8404127486501
30
0
41
1
10
15.0869098675479
20
13.860923095749
30
0
41
1
10
15.161525053236
20
13.908656634259
30
0
41
1
10
15.1966115152114
20
13.9359594334934
30
0
41
1
10
15.2292399024096
20
13.965857841841
30
0
0
SPLINE
5
CD
100
AcDbEntity
8
1
62
256
6
ByLayer
370
18
48
1
60
0
100
AcDbSpline
70
4
71
3
72
16
73
12
40
0
40
0
40
0
40
0
40
0.250000000000031
40
0.250000000000031
40
0.500000000000063
40
0.500000000000063
40
0.750000000000094
40
0.750000000000094
40
0.875000000000047
40
0.875000000000047
40
1
40
1
40
1
40
1
41
1
10
14.6007836806518
20
16.8006406655039
30
0
41
1
10
14.5586058959867
20
16.8139392699264
30
0
41
1
10
14.5151694427355
20
16.8238755830506
30
0
41
1
10
14.4274712729499
20
16.8355873261329
30
0
41
1
10
14.3829974243891
20
16.8374896378869
30
0
41
1
10
14.2956902142367
20
16.8288672895169
30
0
41
1
10
14.2523928597446
20
16.8185956982741
30
0
41
1
10
14.1995470000215
20
16.7849333340618
30
0
41
1
10
14.1842491774249
20
16.7702118979786
30
0
41
1
10
14.1650548499916
20
16.7358517481474
30
0
41
1
10
14.1612345210995
20
16.7163714760526
30
0
41
1
10
14.1627799390257
20
16.6969870346817
30
0
0
SPLINE
5
CE
100
AcDbEntity
8
1
62
256
6
ByLayer
370
18
48
1
60
0
100
AcDbSpline
70
4
71
3
72
16
73
12
40
0
40
0
40
0
40
0
40
0.124999999999985
40
0.124999999999985
40
0.249999999999971
40
0.249999999999971
40
0.499999999999981
40
0.499999999999981
40
0.74999999999999
40
0.74999999999999
40
1
40
1
40
1
40
1
41
1
10
13.2932388958964
20
13.9391551818516
30
0
41
1
10
13.2809005412991
20
13.9242185235448
30
0
41
1
10
13.2728869115302
20
13.9061793420744
30
0
41
1
10
13.2688102645538
20
13.8672865423899
30
0
41
1
10
13.2727116623098
20
13.8466857969932
30
0
41
1
10
13.2966983821481
20
13.7882665883235
30
0
41
1
10
13.32632933375
20
13.7550235196802
30
0
41
1
10
13.3930371276036
20
13.6977419619537
30
0
41
1
10
13.4305361027875
20
13.6738125259011
30
0
41
1
10
13.5091821525938
20
13.6330606488421
30
0
41
1
10
13.550370301313
20
13.6163262810596
30
0
41
1
10
13.5925772760738
20
13.6030184730352
30
0
0
SPLINE
5
CF
100
AcDbEntity
8
1
62
256
6
ByLayer
370
18
48
1
60
0
100
AcDbSpline
70
4
71
3
72
8
73
4
40
0
40
0
40
0
40
0
40
1
40
1
40
1
40
1
41
1
10
14.1627799390257
20
16.6969870346817
30
0
41
1
10
14.1606360212935
20
16.69067371957
30
0
41
1
10
14.158491829704
20
16.6843595980152
30
0
41
1
10
14.156347353581
20
16.6780446385789
30
0
0
SPLINE
5
D0
100
AcDbEntity
8
1
62
256
6
ByLayer
370
18
48
1
60
0
100
AcDbSpline
70
4
71
3
72
16
73
12
40
0
40
0
40
0
40
0
40
0.25000000000003
40
0.25000000000003
40
0.500000000000059
40
0.500000000000059
40
0.750000000000089
40
0.750000000000089
40
0.875000000000045
40
0.875000000000045
40
1
40
1
40
1
40
1
41
1
10
15.7333431046986
20
15.5646689380754
30
0
41
1
10
15.7237711416309
20
15.6078452732819
30
0
41
1
10
15.7106580145908
20
15.6504305018099
30
0
41
1
10
15.6769515967299
20
15.7322352162507
30
0
41
1
10
15.6563621227543
20
15.7717018547854
30
0
41
1
10
15.6052413449494
20
15.843000942526
30
0
41
1
10
15.5746972087499
20
15.8753617558115
30
0
41
1
10
15.5191218163289
20
15.9042964307103
30
0
41
1
10
15.4987237674024
20
15.91018401566
30
0
41
1
10
15.4593698410542
20
15.9096267159101
30
0
41
1
10
15.4405892661014
20
15.9031950817342
30
0
41
1
10
15.4245745563991
20
15.8921644898651
30
0
0
SPLINE
5
D1
100
AcDbEntity
8
1
62
256
6
ByLayer
370
18
48
1
60
0
100
AcDbSpline
70
4
71
3
72
20
73
16
40
0
40
0
40
0
40
0
40
0.125000000000025
40
0.125000000000025
40
0.25000000000005
40
0.25000000000005
40
0.500000000000095
40
0.500000000000095
40
0.625000000000071
40
0.625000000000071
40
0.750000000000048
40
0.750000000000048
40
0.875000000000024
40
0.875000000000024
40
1
40
1
40
1
40
1
41
1
10
13.4187284781774
20
16.5145184708373
30
0
41
1
10
13.4408608359041
20
16.4914042031841
30
0
41
1
10
13.4705014967553
20
16.4761041217341
30
0
41
1
10
13.5343577097808
20
16.4544217939814
30
0
41
1
10
13.5687343376281
20
16.4482325488281
30
0
41
1
10
13.6739798680815
20
16.4392829739572
30
0
41
1
10
13.7470903210867
20
16.445888938019
30
0
41
1
10
13.853619710792
20
16.4696057529237
30
0
41
1
10
13.8880720909117
20
16.4797543134469
30
0
41
1
10
13.9548355007311
20
16.5046645221455
30
0
41
1
10
13.9874881655522
20
16.5195975176017
30
0
41
1
10
14.0482872481488
20
16.554504822561
30
0
41
1
10
14.0765967918597
20
16.5744296966963
30
0
41
1
10
14.1254629232487
20
16.6211054440099
30
0
41
1
10
14.1460284588517
20
16.6476580089741
30
0
41
1
10
14.156347353581
20
16.6780446385789
30
0
0
SPLINE
5
D2
100
AcDbEntity
8
1
62
256
6
ByLayer
370
18
48
1
60
0
100
AcDbSpline
70
4
71
3
72
16
73
12
40
0
40
0
40
0
40
0
40
0.249999999999999
40
0.249999999999999
40
0.499999999999997
40
0.499999999999997
40
0.749999999999996
40
0.749999999999996
40
0.874999999999998
40
0.874999999999998
40
1
40
1
40
1
40
1
41
1
10
15.2292399024096
20
13.965857841841
30
0
41
1
10
15.261845724007
20
13.9957355726251
30
0
41
1
10
15.2921690502182
20
14.0283844880288
30
0
41
1
10
15.3461608021427
20
14.0984774593874
30
0
41
1
10
15.3700451767281
20
14.1360417861681
30
0
41
1
10
15.4062316090756
20
14.2159632222786
30
0
41
1
10
15.4189848273681
20
14.2585956268068
30
0
41
1
10
15.4162552946702
20
14.321192665918
30
0
41
1
10
15.4111550683404
20
14.3418016869509
30
0
41
1
10
15.3909954694254
20
14.3756045370323
30
0
41
1
10
15.3760352233648
20
14.3886531749511
30
0
41
1
10
15.3584750957362
20
14.397007024453
30
0
0
SPLINE
5
D3
100
AcDbEntity
8
1
62
256
6
ByLayer
370
18
48
1
60
0
100
AcDbSpline
70
4
71
3
72
8
73
4
40
0
40
0
40
0
40
0
40
1
40
1
40
1
40
1
41
1
10
12.6208825422466
20
15.2710503653464
30
0
41
1
10
12.6144047097282
20
15.2694644345827
30
0
41
1
10
12.6079277367016
20
15.2678787142434
30
0
41
1
10
12.6014515909177
20
15.2662931964332
30
0
0
SPLINE
5
D4
100
AcDbEntity
8
1
62
256
6
ByLayer
370
18
48
1
60
0
100
AcDbSpline
70
4
71
3
72
16
73
12
40
0
40
0
40
0
40
0
40
0.125000000000003
40
0.125000000000003
40
0.250000000000005
40
0.250000000000005
40
0.500000000000003
40
0.500000000000003
40
0.750000000000002
40
0.750000000000002
40
1
40
1
40
1
40
1
41
1
10
12.8348858609894
20
16.0066521140861
30
0
41
1
10
12.8173910095689
20
16.0149749098492
30
0
41
1
10
12.8025045069907
20
16.0279372542044
30
0
41
1
10
12.782373002694
20
16.0614632359593
30
0
41
1
10
12.7772026186506
20
16.081782653869
30
0
41
1
10
12.7742529452053
20
16.1448656634419
30
0
41
1
10
12.7870585794943
20
16.1875166966779
30
0
41
1
10
12.8233081401637
20
16.267623350382
30
0
41
1
10
12.8471807367097
20
16.3051585363252
30
0
41
1
10
12.9012357766235
20
16.375329536702
30
0
41
1
10
12.9314926671177
20
16.4079028883505
30
0
41
1
10
12.9641210543159
20
16.4378012966981
30
0
0
SPLINE
5
D5
100
AcDbEntity
8
1
62
256
6
ByLayer
370
18
48
1
60
0
100
AcDbSpline
70
4
71
3
72
18
73
14
40
0
40
0
40
0
40
0
40
0.125000000000001
40
0.125000000000001
40
0.250000000000009
40
0.250000000000009
40
0.500000000000011
40
0.500000000000011
40
0.750000000000014
40
0.750000000000014
40
0.875000000000007
40
0.875000000000007
40
1
40
1
40
1
40
1
41
1
10
12.6208825422466
20
15.2710503653464
30
0
41
1
10
12.6521109803126
20
15.2786958456042
30
0
41
1
10
12.6803973620766
20
15.2969596209465
30
0
41
1
10
12.7307754859606
20
15.3412055913477
30
0
41
1
10
12.7533648883373
20
15.3679379607996
30
0
41
1
10
12.8132789734531
20
15.453903511203
30
0
41
1
10
12.8440221173853
20
15.5199662202373
30
0
41
1
10
12.8878646766187
20
15.6587052451296
30
0
41
1
10
12.9007768805745
20
15.7309260340311
30
0
41
1
10
12.9010339009488
20
15.8363185113433
30
0
41
1
10
12.8978935147205
20
15.8710264825589
30
0
41
1
10
12.8818411158439
20
15.9366784017431
30
0
41
1
10
12.8691582767045
20
15.967562552111
30
0
41
1
10
12.8480741645006
20
15.9916101336277
30
0
0
SPLINE
5
D6
100
AcDbEntity
8
1
62
256
6
ByLayer
370
18
48
1
60
0
100
AcDbSpline
70
4
71
3
72
8
73
4
40
0
40
0
40
0
40
0
40
1
40
1
40
1
40
1
41
1
10
13.404893173384
20
16.5289675838512
30
0
41
1
10
13.4095043449778
20
16.5241518359888
30
0
41
1
10
13.4141161055882
20
16.5193354729778
30
0
41
1
10
13.4187284781774
20
16.5145184708373
30
0
0
SPLINE
5
D7
100
AcDbEntity
8
1
62
256
6
ByLayer
370
18
48
1
60
0
100
AcDbSpline
70
4
71
3
72
8
73
4
40
0
40
0
40
0
40
0
40
1
40
1
40
1
40
1
41
1
10
12.7687864003265
20
14.511494648674
30
0
41
1
10
12.7753258504614
20
14.5127946190101
30
0
41
1
10
12.7818661359252
20
14.5140947554004
30
0
41
1
10
12.7884072892824
20
14.5153950643183
30
0
0
SPLINE
5
D8
100
AcDbEntity
8
1
62
256
6
ByLayer
370
18
48
1
60
0
100
AcDbSpline
70
4
71
3
72
18
73
14
40
0
40
0
40
0
40
0
40
0.125000000000018
40
0.125000000000018
40
0.250000000000036
40
0.250000000000036
40
0.499999999999991
40
0.499999999999991
40
0.749999999999946
40
0.749999999999946
40
0.874999999999973
40
0.874999999999973
40
1
40
1
40
1
40
1
41
1
10
14.0370136031445
20
13.7256144999602
30
0
41
1
10
14.0472919072712
20
13.7558816001346
30
0
41
1
10
14.0676553550364
20
13.7822488152102
30
0
41
1
10
14.116288125227
20
13.8288467483794
30
0
41
1
10
14.1447852436836
20
13.8489717879575
30
0
41
1
10
14.2362502745741
20
13.9015362599831
30
0
41
1
10
14.3049244007506
20
13.9263614667344
30
0
41
1
10
14.4468369297011
20
13.9578363327441
30
0
41
1
10
14.5198265072044
20
13.9643653282269
30
0
41
1
10
14.624722271069
20
13.9554048743411
30
0
41
1
10
14.6589861824879
20
13.9492452333849
30
0
41
1
10
14.7229120243692
20
13.9275350728364
30
0
41
1
10
14.7525365545648
20
13.9122168852158
30
0
41
1
10
14.7746324785481
20
13.8891406677018
30
0
0
SPLINE
5
D9
100
AcDbEntity
8
1
62
256
6
ByLayer
370
18
48
1
60
0
100
AcDbSpline
70
4
71
3
72
8
73
4
40
0
40
0
40
0
40
0
40
1
40
1
40
1
40
1
41
1
10
15.4245745563991
20
15.8921644898651
30
0
41
1
10
15.4180351062642
20
15.890864519529
30
0
41
1
10
15.4114948208004
20
15.8895643831387
30
0
41
1
10
15.4049536674432
20
15.8882640742208
30
0
0
SPLINE
5
DA
100
AcDbEntity
8
1
62
256
6
ByLayer
370
18
48
1
60
0
100
AcDbSpline
70
4
71
3
72
8
73
4
40
0
40
0
40
0
40
0
40
1
40
1
40
1
40
1
41
1
10
14.7746324785481
20
13.8891406677018
30
0
41
1
10
14.7792448511374
20
13.8843236655613
30
0
41
1
10
14.7838566117477
20
13.8795073025503
30
0
41
1
10
14.7884677833415
20
13.8746915546879
30
0
0
SPLINE
5
DB
100
AcDbEntity
8
1
62
256
6
ByLayer
370
18
48
1
60
0
100
AcDbSpline
70
4
71
3
72
8
73
4
40
0
40
0
40
0
40
0
40
1
40
1
40
1
40
1
41
1
10
15.572478414479
20
15.1326087731927
30
0
41
1
10
15.5789562469974
20
15.1341947039564
30
0
41
1
10
15.585433220024
20
15.1357804242957
30
0
41
1
10
15.591909365808
20
15.1373659421059
30
0
0
LINE
5
70
100
AcDbEntity
8
81
62
256
6
ByLayer
370
18
48
1
60
0
100
AcDbLine
10
23.707
20
24.075
30
0
11
28.707
21
24.075
31
0
39
0
210
0
220
0
230
1
0
LINE
5
71
100
AcDbEntity
8
80
62
256
6
ByLayer
370
18
48
1
60
0
100
AcDbLine
10
0
20
0
30
0
11
-10
21
0
31
0
39
0
210
0
220
0
230
1
0
LINE
5
72
100
AcDbEntity
8
1
62
256
6
ByLayer
370
18
48
1
60
0
100
AcDbLine
10
5.902769
20
15.540703
30
0
11
5.921919
21
15.562539
31
0
39
0
210
0
220
0
230
1
0
LINE
5
74
100
AcDbEntity
8
1
62
256
6
ByLayer
370
18
48
1
60
0
100
AcDbLine
10
2.225886
20
18.150797
30
0
11
2.204999
21
18.12991
31
0
39
0
210
0
220
0
230
1
0
LINE
5
75
100
AcDbEntity
8
1
62
256
6
ByLayer
370
18
48
1
60
0
100
AcDbLine
10
13.74354
20
7.026737
30
0
11
13.720118
21
7.009564
31
0
39
0
210
0
220
0
230
1
0
LINE
5
76
100
AcDbEntity
8
1
62
256
6
ByLayer
370
18
48
1
60
0
100
AcDbLine
10
16.276434
20
2.846387
30
0
11
16.757358
21
2.013401
31
0
39
0
210
0
220
0
230
1
0
LINE
5
77
100
AcDbEntity
8
1
62
256
6
ByLayer
370
18
48
1
60
0
100
AcDbLine
10
6.313636
20
15.288068
30
0
11
13.504254
21
7.440886
31
0
39
0
210
0
220
0
230
1
0
LINE
5
78
100
AcDbEntity
8
1
62
256
6
ByLayer
370
18
48
1
60
0
100
AcDbLine
10
16.764955
20
2.100242
30
0
11
16.358612
21
2.804049
31
0
39
0
210
0
220
0
230
1
0
LINE
5
79
100
AcDbEntity
8
1
62
256
6
ByLayer
370
18
48
1
60
0
100
AcDbLine
10
16.764955
20
2.100242
30
0
11
16.821569
21
2.747342
31
0
39
0
210
0
220
0
230
1
0
LINE
5
7A
100
AcDbEntity
8
1
62
256
6
ByLayer
370
18
48
1
60
0
100
AcDbLine
10
9.028274
20
12.592004
30
0
11
8.937119
21
12.508475
31
0
39
0
210
0
220
0
230
1
0
LINE
5
7B
100
AcDbEntity
8
1
62
256
6
ByLayer
370
18
48
1
60
0
100
AcDbLine
10
10.96389
20
10.296643
30
0
11
11.055045
21
10.380172
31
0
39
0
210
0
220
0
230
1
0
LINE
5
7C
100
AcDbEntity
8
1
62
256
6
ByLayer
370
18
48
1
60
0
100
AcDbLine
10
16.757358
20
2.013401
30
0
11
16.764955
21
2.100242
31
0
39
0
210
0
220
0
230
1
0
LINE
5
7D
100
AcDbEntity
8
1
62
256
6
ByLayer
370
18
48
1
60
0
100
AcDbLine
10
16.737535
20
1.786822
30
0
11
16.757358
21
2.013401
31
0
39
0
210
0
220
0
230
1
0
LINE
5
7E
100
AcDbEntity
8
1
62
256
6
ByLayer
370
18
48
1
60
0
100
AcDbLine
10
10.826216
20
10.437461
30
0
11
9.065402
21
12.359053
31
0
39
0
210
0
220
0
230
1
0
LINE
5
7F
100
AcDbEntity
8
1
62
256
6
ByLayer
370
18
48
1
60
0
100
AcDbLine
10
0
20
-15.925
30
0
11
8.9E-05
21
-15.925
31
0
39
0
210
0
220
0
230
1
0
LINE
5
80
100
AcDbEntity
8
1
62
256
6
ByLayer
370
18
48
1
60
0
100
AcDbLine
10
0
20
-15.925
30
0
11
0
21
16.05969
31
0
39
0
210
0
220
0
230
1
0
LINE
5
81
100
AcDbEntity
8
1
62
256
6
ByLayer
370
18
48
1
60
0
100
AcDbLine
10
8.9E-05
20
-15.925
30
0
11
16.736253
21
1.785465
31
0
39
0
210
0
220
0
230
1
0
LINE
5
82
100
AcDbEntity
8
1
62
256
6
ByLayer
370
18
48
1
60
0
100
AcDbLine
10
0.439429
20
16.36434
30
0
11
2.204999
21
18.12991
31
0
39
0
210
0
220
0
230
1
0
LINE
5
83
100
AcDbEntity
8
1
62
256
6
ByLayer
370
18
48
1
60
0
100
AcDbLine
10
13.720118
20
7.009564
30
0
11
5.902769
21
15.540703
31
0
39
0
210
0
220
0
230
1
0
LINE
5
84
100
AcDbEntity
8
1
62
256
6
ByLayer
370
18
48
1
60
0
100
AcDbLine
10
16.736253
20
1.785465
30
0
11
13.720118
21
7.009564
31
0
39
0
210
0
220
0
230
1
0
LINE
5
85
100
AcDbEntity
8
1
62
256
6
ByLayer
370
18
48
1
60
0
100
AcDbLine
10
16.737535
20
1.786822
30
0
11
16.736253
21
1.785465
31
0
39
0
210
0
220
0
230
1
0
LINE
5
86
100
AcDbEntity
8
1
62
256
6
ByLayer
370
18
48
1
60
0
100
AcDbLine
10
5.902769
20
15.540703
30
0
11
2.204999
21
18.12991
31
0
39
0
210
0
220
0
230
1
0
LINE
5
87
100
AcDbEntity
8
1
62
256
6
ByLayer
370
18
48
1
60
0
100
AcDbLine
10
8.974484
20
12.458272
30
0
11
9.065402
21
12.359053
31
0
39
0
210
0
220
0
230
1
0
LINE
5
88
100
AcDbEntity
8
1
62
256
6
ByLayer
370
18
48
1
60
0
100
AcDbLine
10
10.826216
20
10.437461
30
0
11
10.917135
21
10.338241
31
0
39
0
210
0
220
0
230
1
0
LINE
5
89
100
AcDbEntity
8
SK1
62
256
6
ByLayer
370
18
48
1
60
0
100
AcDbLine
10
0
20
-15.925
30
0
11
0
21
16.05969
31
0
39
0
210
0
220
0
230
1
0
LINE
5
8B
100
AcDbEntity
8
SK1
62
256
6
ByLayer
370
18
48
1
60
0
100
AcDbLine
10
-146.293
20
-15.925
30
0
11
0
21
-15.925
31
0
39
0
210
0
220
0
230
1
0
LINE
5
8C
100
AcDbEntity
8
SK1
62
256
6
ByLayer
370
18
48
1
60
0
100
AcDbLine
10
-146.293
20
15.925
30
0
11
-0.621232
21
15.925
31
0
39
0
210
0
220
0
230
1
0
LINE
5
8D
100
AcDbEntity
8
SK1
62
256
6
ByLayer
370
18
48
1
60
0
100
AcDbLine
10
-146.293
20
-15.925
30
0
11
-146.293
21
15.925
31
0
39
0
210
0
220
0
230
1
0
LINE
5
8E
100
AcDbEntity
8
1
62
256
6
ByLayer
370
13
48
1
60
0
100
AcDbLine
10
15.990271
20
3.135284
30
0
11
13.526982
21
7.401826
31
0
39
0
210
0
220
0
230
1
0
LINE
5
8F
100
AcDbEntity
8
1
62
256
6
ByLayer
370
13
48
1
60
0
100
AcDbLine
10
18.103909
20
21.917984
30
0
11
22.568905
21
24.000046
31
0
39
0
210
0
220
0
230
1
0
LINE
5
90
100
AcDbEntity
8
1
62
256
6
ByLayer
370
13
48
1
60
0
100
AcDbLine
10
17.909427
20
8.373391
30
0
11
17.480047
21
3.465559
31
0
39
0
210
0
220
0
230
1
0
LINE
5
91
100
AcDbEntity
8
1
62
256
6
ByLayer
370
13
48
1
60
0
100
AcDbLine
10
9.358046
20
19.784837
30
0
11
16.45448
21
21.358078
31
0
39
0
210
0
220
0
230
1
0
LINE
5
92
100
AcDbEntity
8
1
62
256
6
ByLayer
370
13
48
1
60
0
100
AcDbLine
10
12.496997
20
8.806548
30
0
11
7.586313
21
14.165619
31
0
39
0
210
0
220
0
230
1
0
LINE
5
93
100
AcDbEntity
8
1
62
256
6
ByLayer
370
13
48
1
60
0
100
AcDbLine
10
20.434999
20
17.014104
30
0
11
18.249249
21
10.081791
31
0
39
0
210
0
220
0
230
1
0
LINE
5
94
100
AcDbEntity
8
1
62
256
6
ByLayer
370
13
48
1
60
0
100
AcDbLine
10
23.59982
20
22.875
30
0
11
21.136531
21
18.608458
31
0
39
0
210
0
220
0
230
1
0
LINE
5
95
100
AcDbEntity
8
1
62
256
6
ByLayer
370
13
48
1
60
0
100
AcDbLine
10
2.69995
20
19.595205
30
0
11
7.626529
21
19.595205
31
0
39
0
210
0
220
0
230
1
0
LINE
5
96
100
AcDbEntity
8
1
62
256
6
ByLayer
370
13
48
1
60
0
100
AcDbLine
10
6.276706
20
15.314114
30
0
11
2.241089
21
18.139883
31
0
39
0
210
0
220
0
230
1
0
LINE
5
97
100
AcDbEntity
8
2
62
256
6
ByLayer
370
18
48
1
60
1
100
AcDbLine
10
23.707
20
22.663795
30
0
11
23.707
21
22.662795
31
0
39
0
210
0
220
0
230
1
0
LINE
5
99
100
AcDbEntity
8
2
62
256
6
ByLayer
370
18
48
1
60
1
100
AcDbLine
10
21.686539
20
18.764752
30
0
11
21.686116
21
18.763845
31
0
39
0
210
0
220
0
230
1
0
MTEXT
5
DC
100
AcDbEntity
8
SK6
62
256
6
ByLayer
370
13
48
1
60
0
100
AcDbMText
10
-145.382743
20
-32.85226
30
0
210
0
220
0
230
1
1
\W0.7346;CP-30AR-3232-11
40
3.5
41
0
44
1.084337
50
0
71
7
72
5
7
iso_b_vert
0
DIMENSION
5
EE
100
AcDbEntity
8
SK2
62
256
6
ByLayer
370
13
48
1
60
0
100
AcDbDimension
2
DimnDraft3D1
10
23.707
20
41.575
30
0
11
-61.293
21
41.575
31
0
70
32
71
5
72
1
41
1
210
0
220
0
230
1
3
Standard
100
AcDbAlignedDimension
13
-146.293
23
17.5125
33
0
14
23.707
24
25.6625
34
0
50
0
100
AcDbRotatedDimension
1001
ACAD
1000
DSTYLE
1002
{
1070
   279
1070
     0
1070
   172
1070
     1
1070
   173
1070
     1
1070
   340
1005
DD
1070
   271
1070
     1
1070
   272
1070
     2
1070
    77
1070
     1
1070
    73
1070
     0
1070
   171
1070
     3
1070
   274
1070
     4
1070
   177
1070
   150
1070
   176
1070
     9
1070
   178
1070
    43
1070
    78
1070
     8
1070
    48
1040
-0.005
1070
    41
1041
3.175
1070
   147
1041
2.25
1070
    42
1041
1.5875
1070
    44
1041
3.175
1070
   140
1041
4.5
1070
   343
1005
EF
1070
   344
1005
EF
1002
}
0
DIMENSION
5
103
100
AcDbEntity
8
SK2
62
256
6
ByLayer
370
13
48
1
60
0
100
AcDbDimension
2
DimnDraft3D2
10
-155.393
20
-15.925
30
0
11
-155.393
21
0
31
0
70
32
71
5
72
1
41
1
210
0
220
0
230
1
3
Standard
100
AcDbAlignedDimension
13
-147.8805
23
15.925
33
0
14
-147.8805
24
-15.925
34
0
50
90
100
AcDbRotatedDimension
1001
ACAD
1000
DSTYLE
1002
{
1070
    74
1070
     0
1070
   279
1070
     0
1070
   172
1070
     1
1070
   173
1070
     1
1070
   340
1005
DD
1070
   271
1070
     1
1070
   272
1070
     2
1070
    77
1070
     1
1070
    73
1070
     0
1070
   171
1070
     3
1070
   274
1070
     4
1070
   177
1070
   150
1070
   176
1070
     9
1070
   178
1070
    43
1070
    78
1070
     8
1070
    48
1040
-0.005
1070
    41
1041
3.175
1070
   147
1041
2.25
1070
    42
1041
1.5875
1070
    44
1041
3.175
1070
   140
1041
4.5
1070
   343
1005
EF
1070
   344
1005
EF
1002
}
0
DIMENSION
5
111
100
AcDbEntity
8
2
62
256
6
ByLayer
370
13
48
1
60
0
100
AcDbDimension
2
DimnDraft3D3
10
44.557
20
24.075
30
0
11
44.557
21
4.075
31
0
70
32
71
5
72
1
41
1
210
0
220
0
230
1
3
Standard
100
AcDbAlignedDimension
13
1.5875
23
-15.925
33
0
14
25.2945
24
24.075
34
0
50
90
100
AcDbRotatedDimension
1001
ACAD
1000
DSTYLE
1002
{
1070
    74
1070
     0
1070
   279
1070
     0
1070
   172
1070
     1
1070
   173
1070
     1
1070
   340
1005
DD
1070
   271
1070
     1
1070
   272
1070
     2
1070
    77
1070
     1
1070
    73
1070
     0
1070
   171
1070
     3
1070
   274
1070
     4
1070
   177
1070
   150
1070
   176
1070
     9
1070
   178
1070
    43
1070
    78
1070
     8
1070
    48
1040
-0.005
1070
    41
1041
3.175
1070
   147
1041
2.25
1070
    42
1041
1.5875
1070
    44
1041
3.175
1070
   140
1041
4.5
1070
   343
1005
EF
1070
   344
1005
EF
1002
}
0
DIMENSION
5
11F
100
AcDbEntity
8
2
62
256
6
ByLayer
370
13
48
1
60
0
100
AcDbDimension
2
DimnDraft3D4
10
21.686116
20
18.763845
30
0
11
14.117496
21
-20.157813
31
0
70
34
71
5
72
1
41
1
210
0
220
0
230
1
3
Standard
100
AcDb2LineAngularDimension
13
23.707
23
22.663795
33
0
14
23.707
24
22.662795
34
0
15
21.686539
25
18.764752
35
0
16
13.143518
26
-24.551145
36
0
40
0
0
ENDSEC
0
SECTION
2
OBJECTS
0
DICTIONARY
5
189
330
0
100
AcDbDictionary
280
0
281
1
3
ACAD_GROUP
350
18a
3
ACAD_MLINESTYLE
350
18b
0
DICTIONARY
5
18a
330
0
100
AcDbDictionary
280
0
281
1
0
DICTIONARY
5
18b
330
0
100
AcDbDictionary
280
0
281
1
3
Standard
350
18
0
MLINESTYLE
5
18
330
18b
100
AcDbMlineStyle
2
Standard
70
0
3

62
256
51
90
52
90
71
2
49
-0.5
62
256
6
ByLayer
49
0.5
62
256
6
ByLayer
0
RASTERVARIABLES
5
178
330

100
AcDbRasterVariables
90
0
70
1
71
1
72
1
0
ENDSEC
0
EOF
