0
SECTION
2
HEADER
9
$ACADVER
1
AC1015
9
$DWGCODEPAGE
3
ANSI_1252
9
$HANDSEED
5
19a
9
$ANGBASE
50
0
9
$ANGDIR
70
0
9
$ATTMODE
70
1
9
$AUNITS
70
0
9
$AUPREC
70
0
9
$CECOLOR
62
256
9
$CELTSCALE
40
1
9
$CELTYPE
6
ByLayer
9
$CELWEIGHT
370
18
9
$CLAYER
8
0
9
$CMLJUST
70
0
9
$CMLSCALE
40
1
9
$CMLSTYLE
2
Standard
9
$DIMSTYLE
2
Standard
9
$TEXTSIZE
40
0.2
9
$TEXTSTYLE
7
Standard
9
$LUNITS
70
2
9
$LUPREC
70
4
9
$EXTNAMES
290
1
9
$INSUNITS
70
4
9
$LTSCALE
40
1
9
$LWDISPLAY
290
1
9
$PDMODE
70
0
9
$PDSIZE
40
0
9
$PLINEGEN
70
0
0
ENDSEC
0
SECTION
2
CLASSES
0
CLASS
1
RASTERVARIABLES
2
AcDbRasterVariables
3
ISM
90
0
280
0
281
0
0
ENDSEC
0
SECTION
2
TABLES
0
TABLE
2
VPORT
5
190
100
AcDbSymbolTable
0
VPORT
5
1
100
AcDbSymbolTableRecord
100
AcDbViewportTableRecord
2
*Active
70
0
10
0
20
0
11
1
21
1
12
-1
22
1
13
0
23
0
14
0.5
24
0.5
15
10
25
10
16
0
26
0
36
1
17
0
27
0
37
0
0
ENDTAB
0
TABLE
2
LTYPE
5
191
100
AcDbSymbolTable
0
LTYPE
5
14
100
AcDbSymbolTableRecord
100
AcDbLinetypeTableRecord
70
0
2
ByBlock
3

72
65
73
0
40
0
0
LTYPE
5
15
100
AcDbSymbolTableRecord
100
AcDbLinetypeTableRecord
70
0
2
ByLayer
3

72
65
73
0
40
0
0
LTYPE
5
16
100
AcDbSymbolTableRecord
100
AcDbLinetypeTableRecord
70
0
2
CONTINUOUS
3
Solid line
72
65
73
0
40
0
0
LTYPE
5
6A
100
AcDbSymbolTableRecord
100
AcDbLinetypeTableRecord
70
0
2
CENTER
3
____ _ ____ _ ____ _ ____
72
65
73
4
40
47.5
49
22
74
0
49
-8.5
74
0
49
8.5
74
0
49
-8.5
74
0
0
LTYPE
5
6B
100
AcDbSymbolTableRecord
100
AcDbLinetypeTableRecord
70
0
2
DASHED
3
__ __ __ __ __ __ __ __ __
72
65
73
2
40
25.72
49
12.86
74
0
49
-12.86
74
0
0
ENDTAB
0
TABLE
2
LAYER
5
192
100
AcDbSymbolTable
0
LAYER
5
10
100
AcDbSymbolTableRecord
100
AcDbLayerTableRecord
2
0
70
0
62
7
6
CONTINUOUS
290
1
370
-3
390
0
0
LAYER
5
6D
100
AcDbSymbolTableRecord
100
AcDbLayerTableRecord
2
80
70
0
62
-6
6
CONTINUOUS
290
1
370
-3
390
0
0
LAYER
5
6F
100
AcDbSymbolTableRecord
100
AcDbLayerTableRecord
2
81
70
0
62
-3
6
CONTINUOUS
290
1
370
-3
390
0
0
LAYER
5
73
100
AcDbSymbolTableRecord
100
AcDbLayerTableRecord
2
1
70
0
62
4
6
CONTINUOUS
290
1
370
-3
390
0
0
LAYER
5
109
100
AcDbSymbolTableRecord
100
AcDbLayerTableRecord
2
2
70
0
62
7
6
CONTINUOUS
290
1
370
-3
390
0
0
LAYER
5
17d
100
AcDbSymbolTableRecord
100
AcDbLayerTableRecord
2
SK1
70
0
62
4
6
CONTINUOUS
290
1
370
-3
390
0
0
LAYER
5
17e
100
AcDbSymbolTableRecord
100
AcDbLayerTableRecord
2
SK6
70
0
62
5
6
CONTINUOUS
290
1
370
-3
390
0
0
LAYER
5
17f
100
AcDbSymbolTableRecord
100
AcDbLayerTableRecord
2
SK2
70
0
62
7
6
CONTINUOUS
290
1
370
-3
390
0
0
ENDTAB
0
TABLE
2
STYLE
5
193
100
AcDbSymbolTable
0
STYLE
5
11
100
AcDbSymbolTableRecord
100
AcDbTextStyleTableRecord
2
Standard
3
txt
70
0
71
0
40
0
41
1
42
0
50
0
0
STYLE
5
E0
100
AcDbSymbolTableRecord
100
AcDbTextStyleTableRecord
2
iso_b_vert
3
simplex.shx
70
0
71
0
40
0
41
1
42
0
50
0
0
STYLE
5
E1
100
AcDbSymbolTableRecord
100
AcDbTextStyleTableRecord
2
DWGDirectTextStyle
3
simplex
70
0
71
0
40
0
41
1
42
0
50
0
0
ENDTAB
0
TABLE
2
DIMSTYLE
5
194
100
AcDbSymbolTable
100
AcDbDimStyleTable
0
DIMSTYLE
105
27
100
AcDbSymbolTableRecord
100
AcDbDimStyleTableRecord
2
Standard
70
0
3
<>
41
0.18
42
0.0625
44
0.18
140
0.18
147
0.09
73
0
74
0
77
1
271
2
275
0
278
52
280
0
340
11
0
ENDTAB
0
TABLE
2
VIEW
5
195
100
AcDbSymbolTable
0
ENDTAB
0
TABLE
2
UCS
5
196
100
AcDbSymbolTable
0
ENDTAB
0
TABLE
2
APPID
5
197
100
AcDbSymbolTable
0
APPID
5
12
100
AcDbSymbolTableRecord
100
AcDbRegAppTableRecord
2
ACAD
70
0
0
ENDTAB
0
TABLE
2
BLOCK_RECORD
5
198
100
AcDbSymbolTable
0
BLOCK_RECORD
5
1F
100
AcDbSymbolTableRecord
100
AcDbBlockTableRecord
2
*Model_Space
340
0
70
0
0
BLOCK_RECORD
5
1B
100
AcDbSymbolTableRecord
100
AcDbBlockTableRecord
2
*Paper_Space
340
0
70
0
0
BLOCK_RECORD
5
23
100
AcDbSymbolTableRecord
100
AcDbBlockTableRecord
2
*Paper_Space0
340
0
70
0
0
BLOCK_RECORD
5
E3
100
AcDbSymbolTableRecord
100
AcDbBlockTableRecord
2
DimnDraft3D1
340
0
70
0
0
BLOCK_RECORD
5
F2
100
AcDbSymbolTableRecord
100
AcDbBlockTableRecord
2
_CLOSED
340
0
70
0
0
BLOCK_RECORD
5
F9
100
AcDbSymbolTableRecord
100
AcDbBlockTableRecord
2
DimnDraft3D2
340
0
70
0
0
BLOCK_RECORD
5
107
100
AcDbSymbolTableRecord
100
AcDbBlockTableRecord
2
DimnDraft3D3
340
0
70
0
0
BLOCK_RECORD
5
116
100
AcDbSymbolTableRecord
100
AcDbBlockTableRecord
2
DimnDraft3D4
340
0
70
0
0
ENDTAB
0
ENDSEC
0
SECTION
2
BLOCKS
0
BLOCK
5
20
100
AcDbEntity
8
0
100
AcDbBlockBegin
2
*Model_Space
70
0
10
0
20
0
30
0
3
*Model_Space
0
ENDBLK
5
21
100
AcDbEntity
8
0
100
AcDbBlockEnd
0
BLOCK
5
1C
100
AcDbEntity
8
0
100
AcDbBlockBegin
2
*Paper_Space
70
0
10
0
20
0
30
0
3
*Paper_Space
0
ENDBLK
5
1D
100
AcDbEntity
8
0
100
AcDbBlockEnd
0
BLOCK
5
24
100
AcDbEntity
8
0
100
AcDbBlockBegin
2
*Paper_Space0
70
0
10
0
20
0
30
0
3
*Paper_Space0
0
ENDBLK
5
25
100
AcDbEntity
8
0
100
AcDbBlockEnd
0
BLOCK
5
EF
100
AcDbEntity
8
0
100
AcDbBlockBegin
2
DimnDraft3D1
70
0
10
0
20
0
30
0
3
DimnDraft3D1
0
MTEXT
5
E4
100
AcDbEntity
8
SK2
62
256
6
ByLayer
370
13
48
1
60
0
100
AcDbMText
10
-111.518
20
-4.156579
30
0
210
0
220
0
230
1
1
\W0.7346;20.0
40
4.5
41
0
44
1.084337
50
90
71
7
72
5
7
iso_b_vert
0
LINE
5
E6
100
AcDbEntity
8
SK2
62
256
6
ByLayer
370
13
48
1
60
0
100
AcDbLine
10
-102.8805
20
-9.9375
30
0
11
-113.568
21
-9.9375
31
0
39
0
210
0
220
0
230
1
0
LINE
5
E7
100
AcDbEntity
8
SK2
62
256
6
ByLayer
370
13
48
1
60
0
100
AcDbLine
10
-102.8805
20
9.9375
30
0
11
-113.568
21
9.9375
31
0
39
0
210
0
220
0
230
1
0
LINE
5
E8
100
AcDbEntity
8
SK2
62
256
6
ByLayer
370
13
48
1
60
0
100
AcDbLine
10
-110.393
20
-9.9375
30
0
11
-110.393
21
9.9375
31
0
39
0
210
0
220
0
230
1
0
LINE
5
E9
100
AcDbEntity
8
SK2
62
256
6
ByLayer
370
13
48
1
60
0
100
AcDbLine
10
-110.393
20
-9.9375
30
0
11
-111.243739
21
-6.762503
31
0
39
0
210
0
220
0
230
1
0
LINE
5
EA
100
AcDbEntity
8
SK2
62
256
6
ByLayer
370
13
48
1
60
0
100
AcDbLine
10
-110.393
20
-9.9375
30
0
11
-109.542261
21
-6.762497
31
0
39
0
210
0
220
0
230
1
0
LINE
5
EB
100
AcDbEntity
8
SK2
62
256
6
ByLayer
370
13
48
1
60
0
100
AcDbLine
10
-111.243739
20
-6.762503
30
0
11
-109.542261
21
-6.762497
31
0
39
0
210
0
220
0
230
1
0
LINE
5
EC
100
AcDbEntity
8
SK2
62
256
6
ByLayer
370
13
48
1
60
0
100
AcDbLine
10
-110.393
20
9.9375
30
0
11
-109.542261
21
6.762503
31
0
39
0
210
0
220
0
230
1
0
LINE
5
ED
100
AcDbEntity
8
SK2
62
256
6
ByLayer
370
13
48
1
60
0
100
AcDbLine
10
-110.393
20
9.9375
30
0
11
-111.243739
21
6.762497
31
0
39
0
210
0
220
0
230
1
0
LINE
5
EE
100
AcDbEntity
8
SK2
62
256
6
ByLayer
370
13
48
1
60
0
100
AcDbLine
10
-109.542261
20
6.762503
30
0
11
-111.243739
21
6.762497
31
0
39
0
210
0
220
0
230
1
0
ENDBLK
5
F0
100
AcDbEntity
8
0
100
AcDbBlockEnd
0
BLOCK
5
F3
100
AcDbEntity
8
0
100
AcDbBlockBegin
2
_CLOSED
70
0
10
0
20
0
30
0
3
_CLOSED
0
LINE
5
F5
100
AcDbEntity
8
0
62
256
6
ByLayer
370
-2
48
1
60
0
100
AcDbLine
10
-1
20
0.166667
30
0
11
0
21
0
31
0
39
0
210
0
220
0
230
1
0
LINE
5
F6
100
AcDbEntity
8
0
62
256
6
ByLayer
370
-2
48
1
60
0
100
AcDbLine
10
0
20
0
30
0
11
-1
21
-0.166667
31
0
39
0
210
0
220
0
230
1
0
LINE
5
F7
100
AcDbEntity
8
0
62
256
6
ByLayer
370
-2
48
1
60
0
100
AcDbLine
10
-1
20
0.166667
30
0
11
-1
21
-0.166667
31
0
39
0
210
0
220
0
230
1
0
LINE
5
F8
100
AcDbEntity
8
0
62
256
6
ByLayer
370
-2
48
1
60
0
100
AcDbLine
10
0
20
0
30
0
11
-1
21
0
31
0
39
0
210
0
220
0
230
1
0
ENDBLK
5
F4
100
AcDbEntity
8
0
100
AcDbBlockEnd
0
BLOCK
5
104
100
AcDbEntity
8
0
100
AcDbBlockBegin
2
DimnDraft3D2
70
0
10
0
20
0
30
0
3
DimnDraft3D2
0
MTEXT
5
FA
100
AcDbEntity
8
SK2
62
256
6
ByLayer
370
13
48
1
60
0
100
AcDbMText
10
-44.068658
20
-40.4375
30
0
210
0
220
0
230
1
1
\W0.6864;125.0
40
4.5
41
0
44
1.084337
50
0
71
7
72
5
7
iso_b_vert
0
LINE
5
FB
100
AcDbEntity
8
SK2
62
256
6
ByLayer
370
13
48
1
60
0
100
AcDbLine
10
-101.293
20
-11.525
30
0
11
-101.293
21
-44.7375
31
0
39
0
210
0
220
0
230
1
0
LINE
5
FC
100
AcDbEntity
8
SK2
62
256
6
ByLayer
370
13
48
1
60
0
100
AcDbLine
10
23.707
20
-16.65
30
0
11
23.707
21
-44.7375
31
0
39
0
210
0
220
0
230
1
0
LINE
5
FD
100
AcDbEntity
8
SK2
62
256
6
ByLayer
370
13
48
1
60
0
100
AcDbLine
10
-101.293
20
-41.5625
30
0
11
23.707
21
-41.5625
31
0
39
0
210
0
220
0
230
1
0
LINE
5
FE
100
AcDbEntity
8
SK2
62
256
6
ByLayer
370
13
48
1
60
0
100
AcDbLine
10
-101.293
20
-41.5625
30
0
11
-98.118003
21
-40.711761
31
0
39
0
210
0
220
0
230
1
0
LINE
5
FF
100
AcDbEntity
8
SK2
62
256
6
ByLayer
370
13
48
1
60
0
100
AcDbLine
10
-101.293
20
-41.5625
30
0
11
-98.117997
21
-42.413239
31
0
39
0
210
0
220
0
230
1
0
LINE
5
100
100
AcDbEntity
8
SK2
62
256
6
ByLayer
370
13
48
1
60
0
100
AcDbLine
10
-98.118003
20
-40.711761
30
0
11
-98.117997
21
-42.413239
31
0
39
0
210
0
220
0
230
1
0
LINE
5
101
100
AcDbEntity
8
SK2
62
256
6
ByLayer
370
13
48
1
60
0
100
AcDbLine
10
23.707
20
-41.5625
30
0
11
20.532003
21
-42.413239
31
0
39
0
210
0
220
0
230
1
0
LINE
5
102
100
AcDbEntity
8
SK2
62
256
6
ByLayer
370
13
48
1
60
0
100
AcDbLine
10
23.707
20
-41.5625
30
0
11
20.531997
21
-40.711761
31
0
39
0
210
0
220
0
230
1
0
LINE
5
103
100
AcDbEntity
8
SK2
62
256
6
ByLayer
370
13
48
1
60
0
100
AcDbLine
10
20.532003
20
-42.413239
30
0
11
20.531997
21
-40.711761
31
0
39
0
210
0
220
0
230
1
0
ENDBLK
5
105
100
AcDbEntity
8
0
100
AcDbBlockEnd
0
BLOCK
5
113
100
AcDbEntity
8
0
100
AcDbBlockBegin
2
DimnDraft3D3
70
0
10
0
20
0
30
0
3
DimnDraft3D3
0
MTEXT
5
108
100
AcDbEntity
8
2
62
256
6
ByLayer
370
13
48
1
60
0
100
AcDbMText
10
14.005244
20
10.472314
30
0
210
0
220
0
230
1
1
\W0.7346;30.0
40
4.5
41
0
44
1.084337
50
12.4999999999999
71
7
72
5
7
iso_b_vert
0
LINE
5
10A
100
AcDbEntity
8
2
62
256
6
ByLayer
370
13
48
1
60
0
100
AcDbLine
10
23.707
20
-11.875
30
0
11
23.707
21
14.040049
31
0
39
0
210
0
220
0
230
1
0
LINE
5
10B
100
AcDbEntity
8
2
62
256
6
ByLayer
370
13
48
1
60
0
100
AcDbLine
10
20.848048
20
-7.954103
30
0
11
11.82078
21
11.404937
31
0
39
0
210
0
220
0
230
1
0
ARC
5
10C
100
AcDbEntity
8
2
62
256
6
ByLayer
370
13
48
1
60
0
100
AcDbCircle
39
0
10
23.707
20
-14.085144
30
0
40
24.9501932152631
210
0
220
0
230
1
100
AcDbArc
50
90
51
115
0
LINE
5
10D
100
AcDbEntity
8
2
62
256
6
ByLayer
370
13
48
1
60
0
100
AcDbLine
10
23.707
20
10.865049
30
0
11
20.560629
21
9.913885
31
0
39
0
210
0
220
0
230
1
0
LINE
5
10E
100
AcDbEntity
8
2
62
256
6
ByLayer
370
13
48
1
60
0
100
AcDbLine
10
23.707
20
10.865049
30
0
11
20.506575
21
11.614504
31
0
39
0
210
0
220
0
230
1
0
LINE
5
10F
100
AcDbEntity
8
2
62
256
6
ByLayer
370
13
48
1
60
0
100
AcDbLine
10
20.560629
20
9.913885
30
0
11
20.506575
21
11.614504
31
0
39
0
210
0
220
0
230
1
0
LINE
5
110
100
AcDbEntity
8
2
62
256
6
ByLayer
370
13
48
1
60
0
100
AcDbLine
10
13.162593
20
8.52741
30
0
11
15.746424
21
10.559202
31
0
39
0
210
0
220
0
230
1
0
LINE
5
111
100
AcDbEntity
8
2
62
256
6
ByLayer
370
13
48
1
60
0
100
AcDbLine
10
13.162593
20
8.52741
30
0
11
16.416158
21
8.995079
31
0
39
0
210
0
220
0
230
1
0
LINE
5
112
100
AcDbEntity
8
2
62
256
6
ByLayer
370
13
48
1
60
0
100
AcDbLine
10
15.746424
20
10.559202
30
0
11
16.416158
21
8.995079
31
0
39
0
210
0
220
0
230
1
0
ENDBLK
5
114
100
AcDbEntity
8
0
100
AcDbBlockEnd
0
BLOCK
5
121
100
AcDbEntity
8
0
100
AcDbBlockBegin
2
DimnDraft3D4
70
0
10
0
20
0
30
0
3
DimnDraft3D4
0
MTEXT
5
117
100
AcDbEntity
8
2
62
256
6
ByLayer
370
13
48
1
60
0
100
AcDbMText
10
43.432
20
-6.719079
30
0
210
0
220
0
230
1
1
\W0.7346;25.0
40
4.5
41
0
44
1.084337
50
90
71
7
72
5
7
iso_b_vert
0
LINE
5
118
100
AcDbEntity
8
2
62
256
6
ByLayer
370
13
48
1
60
0
100
AcDbLine
10
25.2945
20
-15.0625
30
0
11
47.732
21
-15.0625
31
0
39
0
210
0
220
0
230
1
0
LINE
5
119
100
AcDbEntity
8
2
62
256
6
ByLayer
370
13
48
1
60
0
100
AcDbLine
10
1.5875
20
9.9375
30
0
11
47.732
21
9.9375
31
0
39
0
210
0
220
0
230
1
0
LINE
5
11A
100
AcDbEntity
8
2
62
256
6
ByLayer
370
13
48
1
60
0
100
AcDbLine
10
44.557
20
-15.0625
30
0
11
44.557
21
9.9375
31
0
39
0
210
0
220
0
230
1
0
LINE
5
11B
100
AcDbEntity
8
2
62
256
6
ByLayer
370
13
48
1
60
0
100
AcDbLine
10
44.557
20
-15.0625
30
0
11
43.706261
21
-11.887503
31
0
39
0
210
0
220
0
230
1
0
LINE
5
11C
100
AcDbEntity
8
2
62
256
6
ByLayer
370
13
48
1
60
0
100
AcDbLine
10
44.557
20
-15.0625
30
0
11
45.407739
21
-11.887497
31
0
39
0
210
0
220
0
230
1
0
LINE
5
11D
100
AcDbEntity
8
2
62
256
6
ByLayer
370
13
48
1
60
0
100
AcDbLine
10
43.706261
20
-11.887503
30
0
11
45.407739
21
-11.887497
31
0
39
0
210
0
220
0
230
1
0
LINE
5
11E
100
AcDbEntity
8
2
62
256
6
ByLayer
370
13
48
1
60
0
100
AcDbLine
10
44.557
20
9.9375
30
0
11
45.407739
21
6.762503
31
0
39
0
210
0
220
0
230
1
0
LINE
5
11F
100
AcDbEntity
8
2
62
256
6
ByLayer
370
13
48
1
60
0
100
AcDbLine
10
44.557
20
9.9375
30
0
11
43.706261
21
6.762497
31
0
39
0
210
0
220
0
230
1
0
LINE
5
120
100
AcDbEntity
8
2
62
256
6
ByLayer
370
13
48
1
60
0
100
AcDbLine
10
45.407739
20
6.762503
30
0
11
43.706261
21
6.762497
31
0
39
0
210
0
220
0
230
1
0
ENDBLK
5
122
100
AcDbEntity
8
0
100
AcDbBlockEnd
0
ENDSEC
0
SECTION
2
ENTITIES
0
ARC
5
9D
100
AcDbEntity
8
1
62
256
6
ByLayer
370
13
48
1
60
0
100
AcDbCircle
39
0
10
0.621232
20
-11.4375
30
0
40
1.5
210
0
220
0
230
-1
100
AcDbArc
50
114.466075
51
119.947051
0
ARC
5
9E
100
AcDbEntity
8
SK1
62
256
6
ByLayer
370
13
48
1
60
0
100
AcDbCircle
39
0
10
0.621232
20
-11.4375
30
0
40
1.5
210
0
220
0
230
-1
100
AcDbArc
50
90
51
114.466075
0
ARC
5
9F
100
AcDbEntity
8
1
62
256
6
ByLayer
370
13
48
1
60
0
100
AcDbCircle
39
0
10
-14.09668
20
-6.18933
30
0
40
1.6764
210
0
220
0
230
-1
100
AcDbArc
50
72.5
51
132.5
0
ARC
5
A1
100
AcDbEntity
8
1
62
256
6
ByLayer
370
13
48
1
60
0
100
AcDbCircle
39
0
10
-14.09668
20
-6.18933
30
0
40
1.2903
210
0
220
0
230
-1
100
AcDbArc
50
102.5
51
162.5
0
ARC
5
A2
100
AcDbEntity
8
1
62
256
6
ByLayer
370
13
48
1
60
0
100
AcDbCircle
39
0
10
-14.09668
20
-6.18933
30
0
40
1.2903
210
0
220
0
230
-1
100
AcDbArc
50
42.5
51
102.5
0
ARC
5
A3
100
AcDbEntity
8
1
62
256
6
ByLayer
370
13
48
1
60
0
100
AcDbCircle
39
0
10
-14.09668
20
-6.18933
30
0
40
1.6764
210
0
220
0
230
-1
100
AcDbArc
50
252.5
51
312.5
0
ARC
5
A4
100
AcDbEntity
8
1
62
256
6
ByLayer
370
13
48
1
60
0
100
AcDbCircle
39
0
10
-14.09668
20
-6.18933
30
0
40
1.6764
210
0
220
0
230
-1
100
AcDbArc
50
12.5
51
72.5
0
ARC
5
A5
100
AcDbEntity
8
1
62
256
6
ByLayer
370
13
48
1
60
0
100
AcDbCircle
39
0
10
-14.09668
20
-6.18933
30
0
40
1.2903
210
0
220
0
230
-1
100
AcDbArc
50
282.5
51
342.5
0
ARC
5
A6
100
AcDbEntity
8
1
62
256
6
ByLayer
370
13
48
1
60
0
100
AcDbCircle
39
0
10
-14.09668
20
-6.18933
30
0
40
1.6764
210
0
220
0
230
-1
100
AcDbArc
50
312.5
51
12.5
0
ARC
5
A7
100
AcDbEntity
8
1
62
256
6
ByLayer
370
13
48
1
60
0
100
AcDbCircle
39
0
10
-14.09668
20
-6.18933
30
0
40
1.6764
210
0
220
0
230
-1
100
AcDbArc
50
192.5
51
252.5
0
ARC
5
A8
100
AcDbEntity
8
1
62
256
6
ByLayer
370
13
48
1
60
0
100
AcDbCircle
39
0
10
-14.09668
20
-6.18933
30
0
40
1.2903
210
0
220
0
230
-1
100
AcDbArc
50
342.5
51
42.5
0
ARC
5
A9
100
AcDbEntity
8
1
62
256
6
ByLayer
370
13
48
1
60
0
100
AcDbCircle
39
0
10
-14.09668
20
-6.18933
30
0
40
1.2903
210
0
220
0
230
-1
100
AcDbArc
50
162.5
51
222.5
0
ARC
5
AB
100
AcDbEntity
8
1
62
256
6
ByLayer
370
13
48
1
60
0
100
AcDbCircle
39
0
10
-14.09668
20
-6.18933
30
0
40
1.6764
210
0
220
0
230
-1
100
AcDbArc
50
132.5
51
192.5
0
ARC
5
AC
100
AcDbEntity
8
1
62
256
6
ByLayer
370
13
48
1
60
0
100
AcDbCircle
39
0
10
14.09668
20
-6.18933
30
0
40
1.2903
210
0
220
0
230
1
100
AcDbArc
50
257.5
51
317.5
0
ARC
5
AD
100
AcDbEntity
8
1
62
256
6
ByLayer
370
13
48
1
60
0
100
AcDbCircle
39
0
10
7.626529
20
-18.582705
30
0
40
8
210
0
220
0
230
1
100
AcDbArc
50
77.5
51
90
0
ARC
5
AE
100
AcDbEntity
8
1
62
256
6
ByLayer
370
13
48
1
60
0
100
AcDbCircle
39
0
10
28.064734
20
-5.595958
30
0
40
8
210
0
220
0
230
1
100
AcDbArc
50
197.5
51
210
0
ARC
5
AF
100
AcDbEntity
8
1
62
256
6
ByLayer
370
13
48
1
60
0
100
AcDbCircle
39
0
10
14.722963
20
-20.155946
30
0
40
8
210
0
220
0
230
1
100
AcDbArc
50
65
51
77.5
0
ARC
5
B0
100
AcDbEntity
8
1
62
256
6
ByLayer
370
13
48
1
60
0
100
AcDbCircle
39
0
10
25.878984
20
1.336355
30
0
40
8
210
0
220
0
230
1
100
AcDbArc
50
185
51
197.5
0
ARC
5
B2
100
AcDbEntity
8
1
62
256
6
ByLayer
370
13
48
1
60
0
100
AcDbCircle
39
0
10
-22.907
20
-14.2625
30
0
40
0.8
210
0
220
0
230
-1
100
AcDbArc
50
150
51
295
0
ARC
5
B3
100
AcDbEntity
8
1
62
256
6
ByLayer
370
13
48
1
60
0
100
AcDbCircle
39
0
10
-16.683091
20
5.477216
30
0
40
0.8
210
0
220
0
230
-1
100
AcDbArc
50
30
51
175
0
ARC
5
B5
100
AcDbEntity
8
1
62
256
6
ByLayer
370
13
48
1
60
0
100
AcDbCircle
39
0
10
6.598779
20
5.610674
30
0
40
8
210
0
220
0
230
1
100
AcDbArc
50
317.5
51
330
0
ARC
5
B6
100
AcDbEntity
8
1
62
256
6
ByLayer
370
13
48
1
60
0
100
AcDbCircle
39
0
10
-2.69995
20
-9.782705
30
0
40
0.8
210
0
220
0
230
-1
100
AcDbArc
50
270
51
55
0
ARC
5
B8
100
AcDbEntity
8
1
62
256
6
ByLayer
370
13
48
1
60
0
100
AcDbCircle
39
0
10
1.688094
20
0.251602
30
0
40
8
210
0
220
0
230
1
100
AcDbArc
50
305
51
317.5
0
CIRCLE
5
A0
100
AcDbEntity
8
1
62
256
6
ByLayer
370
13
48
1
60
0
100
AcDbCircle
10
14.09668
20
-6.18933
30
0
40
1.8
39
0
210
0
220
0
230
1
0
CIRCLE
5
AA
100
AcDbEntity
8
1
62
256
6
ByLayer
370
13
48
1
60
0
100
AcDbCircle
10
14.09668
20
-6.18933
30
0
40
2.625
39
0
210
0
220
0
230
1
0
CIRCLE
5
B1
100
AcDbEntity
8
1
62
256
6
ByLayer
370
13
48
1
60
0
100
AcDbCircle
10
-14.09668
20
-6.18933
30
0
40
3
39
0
210
0
220
0
230
-1
0
CIRCLE
5
B4
100
AcDbEntity
8
1
62
256
6
ByLayer
370
13
48
1
60
0
100
AcDbCircle
10
-14.09668
20
-6.18933
30
0
40
2.87330486655119
39
0
210
0
220
0
230
-1
0
CIRCLE
5
B7
100
AcDbEntity
8
1
62
256
6
ByLayer
370
13
48
1
60
0
100
AcDbCircle
10
14.09668
20
-6.18933
30
0
40
3.06293413074916
39
0
210
0
220
0
230
1
0
ELLIPSE
5
B9
100
AcDbEntity
8
1
62
256
6
ByLayer
370
13
48
1
60
0
100
AcDbEllipse
10
9.194161
20
-4.337671
30
0
11
-0.580702955710931
21
0.814115518356321
31
0
210
0
220
0
230
1
40
0.082518
41
0.604595897445633
42
0.882592188078875
0
ELLIPSE
5
BA
100
AcDbEntity
8
1
62
256
6
ByLayer
370
13
48
1
60
0
100
AcDbEllipse
10
11.824786
20
-1.466848
30
0
11
0.861629160441522
21
-0.507538362960704
31
0
210
0
220
0
230
1
40
0.082518
41
2.25900058762325
42
2.53699692127957
0
POINT
5
6C
100
AcDbEntity
8
80
62
256
6
ByLayer
370
18
48
1
60
0
100
AcDbPoint
10
0
20
0
30
0
39
0
210
0
220
0
230
1
50
360
0
POINT
5
6E
100
AcDbEntity
8
81
62
256
6
ByLayer
370
18
48
1
60
0
100
AcDbPoint
10
23.707
20
-15.0625
30
0
39
0
210
0
220
0
230
1
50
360
0
SPLINE
5
BB
100
AcDbEntity
8
1
62
256
6
ByLayer
370
13
48
1
60
0
100
AcDbSpline
70
4
71
3
72
12
73
8
40
0
40
0
40
0
40
0
40
0.1042539774583
40
0.1042539774583
40
0.402835984972197
40
0.402835984972197
40
1
40
1
40
1
40
1
41
1
10
8.91020883471964
20
-3.70523526676675
30
0
41
1
10
8.90771379894568
20
-3.69731479675681
30
0
41
1
10
8.90567940062357
20
-3.68937728196664
30
0
41
1
10
8.89947898811079
20
-3.6589380029389
30
0
41
1
10
8.8982407456557
20
-3.63656834525818
30
0
41
1
10
8.90264905473089
20
-3.57096504287935
30
0
41
1
10
8.91592373598564
20
-3.53130916004946
30
0
41
1
10
8.93711923874986
20
-3.49597531852402
30
0
0
SPLINE
5
BC
100
AcDbEntity
8
1
62
256
6
ByLayer
370
13
48
1
60
0
100
AcDbSpline
70
4
71
3
72
12
73
8
40
0
40
0
40
0
40
0
40
0.597164015020251
40
0.597164015020251
40
0.895746022530382
40
0.895746022530382
40
1
40
1
40
1
40
1
41
1
10
10.9638898615968
20
-1.28414330809369
30
0
41
1
10
10.9972419374013
20
-1.25994891341432
30
0
41
1
10
11.0355899529201
20
-1.24326850840714
30
0
41
1
10
11.1005594054755
20
-1.23315926973331
30
0
41
1
10
11.1229518597961
20
-1.23244315617185
30
0
41
1
10
11.1538157097362
20
-1.23596701627085
30
0
41
1
10
11.161900329384
20
-1.23730187309624
30
0
41
1
10
11.1700081163113
20
-1.23909710005952
30
0
0
SPLINE
5
BD
100
AcDbEntity
8
1
62
256
6
ByLayer
370
13
48
1
60
0
100
AcDbSpline
70
4
71
3
72
8
73
4
40
0
40
0
40
0
40
0
40
1
40
1
40
1
40
1
41
1
10
10.9171345669972
20
-1.32574093053052
30
0
41
1
10
10.9311469647369
20
-1.3104490817569
30
0
41
1
10
10.9467337927827
20
-1.29658873135514
30
0
41
1
10
10.9638898615968
20
-1.28414330809369
30
0
0
SPLINE
5
BE
100
AcDbEntity
8
1
62
256
6
ByLayer
370
13
48
1
60
0
100
AcDbSpline
70
4
71
3
72
10
73
6
40
0
40
0
40
0
40
0
40
0.5
40
0.5
40
1
40
1
40
1
40
1
41
1
10
9.06540174529454
20
-3.34655270056365
30
0
41
1
10
9.0418698465395
20
-3.34849945499644
30
0
41
1
10
9.02102661186495
20
-3.35257475151707
30
0
41
1
10
8.98725216597285
20
-3.36446409967866
30
0
41
1
10
8.9740186077928
20
-3.37227053372757
30
0
41
1
10
8.96517019733102
20
-3.38192687928546
30
0
0
SPLINE
5
BF
100
AcDbEntity
8
1
62
256
6
ByLayer
370
13
48
1
60
0
100
AcDbSpline
70
4
71
3
72
10
73
6
40
0
40
0
40
0
40
0
40
0.5
40
0.5
40
1
40
1
40
1
40
1
41
1
10
10.8527202132317
20
-1.32202750073966
30
0
41
1
10
10.8438718027699
20
-1.33168384629758
30
0
41
1
10
10.8372484551517
20
-1.34554742235113
30
0
41
1
10
10.828347986467
20
-1.38022957124966
30
0
41
1
10
10.8261048052793
20
-1.40134867661868
30
0
41
1
10
10.8262163989492
20
-1.42496070022301
30
0
0
SPLINE
5
C0
100
AcDbEntity
8
1
62
256
6
ByLayer
370
13
48
1
60
0
100
AcDbSpline
70
4
71
3
72
8
73
4
40
0
40
0
40
0
40
0
40
1
40
1
40
1
40
1
41
1
10
8.93711923874986
20
-3.49597531852402
30
0
41
1
10
8.94802205349833
20
-3.47779984362308
30
0
41
1
10
8.96047117950684
20
-3.46106431902976
30
0
41
1
10
8.97448357724647
20
-3.44577247025612
30
0
0
SPLINE
5
C1
100
AcDbEntity
8
1
62
256
6
ByLayer
370
13
48
1
60
0
100
AcDbSpline
70
4
71
3
72
18
73
14
40
0
40
0
40
0
40
0
40
0.124999999999987
40
0.124999999999987
40
0.249999999999975
40
0.249999999999975
40
0.499999999999979
40
0.499999999999979
40
0.749999999999984
40
0.749999999999984
40
0.874999999999992
40
0.874999999999992
40
1
40
1
40
1
40
1
41
1
10
12.6208825422466
20
-6.25855036534637
30
0
41
1
10
12.6521109803126
20
-6.2661958456041
30
0
41
1
10
12.6803973620766
20
-6.28445962094645
30
0
41
1
10
12.7307754859607
20
-6.32870559134761
30
0
41
1
10
12.7533648883373
20
-6.35543796079958
30
0
41
1
10
12.8132789734531
20
-6.44140351120296
30
0
41
1
10
12.8440221173854
20
-6.50746622023729
30
0
41
1
10
12.8878646766187
20
-6.64620524512955
30
0
41
1
10
12.9007768805745
20
-6.7184260340311
30
0
41
1
10
12.9010339009488
20
-6.82381851134332
30
0
41
1
10
12.8978935147205
20
-6.85852648255883
30
0
41
1
10
12.8818411158439
20
-6.92417840174306
30
0
41
1
10
12.8691582767045
20
-6.95506255211092
30
0
41
1
10
12.8480741645006
20
-6.97911013362764
30
0
0
SPLINE
5
C2
100
AcDbEntity
8
1
62
256
6
ByLayer
370
13
48
1
60
0
100
AcDbSpline
70
4
71
3
72
8
73
4
40
0
40
0
40
0
40
0
40
1
40
1
40
1
40
1
41
1
10
14.1627799390257
20
-7.68448703468167
30
0
41
1
10
14.1606360212935
20
-7.67817371957
30
0
41
1
10
14.158491829704
20
-7.6718595980152
30
0
41
1
10
14.156347353581
20
-7.66554463857889
30
0
0
SPLINE
5
C3
100
AcDbEntity
8
1
62
256
6
ByLayer
370
13
48
1
60
0
100
AcDbSpline
70
4
71
3
72
18
73
14
40
0
40
0
40
0
40
0
40
0.125000000000002
40
0.125000000000002
40
0.250000000000003
40
0.250000000000003
40
0.50000000000001
40
0.50000000000001
40
0.750000000000016
40
0.750000000000016
40
0.875000000000008
40
0.875000000000008
40
1
40
1
40
1
40
1
41
1
10
12.7884072892824
20
-5.5028950643183
30
0
41
1
10
12.8197585189957
20
-5.50912734192397
30
0
41
1
10
12.8527749209608
20
-5.50467568638848
30
0
41
1
10
12.9174462999445
20
-5.48585743853164
30
0
41
1
10
12.9491236546995
20
-5.47124072980256
30
0
41
1
10
13.0403783382555
20
-5.41831192550632
30
0
41
1
10
13.0962146610445
20
-5.37125099103042
30
0
41
1
10
13.194428959065
20
-5.26408856884888
30
0
41
1
10
13.2365780237658
20
-5.20414223826094
30
0
41
1
10
13.2812659250036
20
-5.10881961506192
30
0
41
1
10
13.2930634751668
20
-5.076066376862
30
0
41
1
10
13.3062248455523
20
-5.00984989356022
30
0
41
1
10
13.3077711710307
20
-4.97653520402537
30
0
41
1
10
13.298834542432
20
-4.94586146377867
30
0
0
SPLINE
5
C4
100
AcDbEntity
8
1
62
256
6
ByLayer
370
13
48
1
60
0
100
AcDbSpline
70
4
71
3
72
16
73
12
40
0
40
0
40
0
40
0
40
0.250000000000001
40
0.250000000000001
40
0.500000000000002
40
0.500000000000002
40
0.750000000000002
40
0.750000000000002
40
0.875000000000001
40
0.875000000000001
40
1
40
1
40
1
40
1
41
1
10
15.2292399024097
20
-4.95335784184104
30
0
41
1
10
15.2618457240071
20
-4.98323557262512
30
0
41
1
10
15.2921690502182
20
-5.0158844880288
30
0
41
1
10
15.3461608021428
20
-5.08597745938744
30
0
41
1
10
15.3700451767281
20
-5.12354178616818
30
0
41
1
10
15.4062316090756
20
-5.20346322227866
30
0
41
1
10
15.4189848273682
20
-5.24609562680689
30
0
41
1
10
15.4162552946703
20
-5.30869266591804
30
0
41
1
10
15.4111550683405
20
-5.32930168695088
30
0
41
1
10
15.3909954694254
20
-5.36310453703226
30
0
41
1
10
15.3760352233649
20
-5.3761531749511
30
0
41
1
10
15.3584750957362
20
-5.384507024453
30
0
0
SPLINE
5
C5
100
AcDbEntity
8
1
62
256
6
ByLayer
370
13
48
1
60
0
100
AcDbSpline
70
4
71
3
72
16
73
12
40
0
40
0
40
0
40
0
40
0.250000000000002
40
0.250000000000002
40
0.500000000000003
40
0.500000000000003
40
0.750000000000005
40
0.750000000000005
40
0.875000000000002
40
0.875000000000002
40
1
40
1
40
1
40
1
41
1
10
12.460017852027
20
-5.8264902004637
30
0
41
1
10
12.4695898150948
20
-5.7833138652571
30
0
41
1
10
12.4827029421348
20
-5.74072863672916
30
0
41
1
10
12.5164093599958
20
-5.65892392228832
30
0
41
1
10
12.5369988339713
20
-5.6194572837536
30
0
41
1
10
12.5881196117762
20
-5.54815819601305
30
0
41
1
10
12.6186637479758
20
-5.51579738272758
30
0
41
1
10
12.6742391403966
20
-5.48686270782878
30
0
41
1
10
12.6946371893231
20
-5.48097512287907
30
0
41
1
10
12.7339911156714
20
-5.48153242262893
30
0
41
1
10
12.7527716906242
20
-5.48796405680488
30
0
41
1
10
12.7687864003266
20
-5.49899464867394
30
0
0
SPLINE
5
C6
100
AcDbEntity
8
1
62
256
6
ByLayer
370
13
48
1
60
0
100
AcDbSpline
70
4
71
3
72
8
73
4
40
0
40
0
40
0
40
0
40
1
40
1
40
1
40
1
41
1
10
14.7746324785482
20
-4.87664066770185
30
0
41
1
10
14.7792448511375
20
-4.87182366556129
30
0
41
1
10
14.7838566117479
20
-4.86700730255032
30
0
41
1
10
14.7884677833416
20
-4.86219155468785
30
0
0
SPLINE
5
C7
100
AcDbEntity
8
1
62
256
6
ByLayer
370
13
48
1
60
0
100
AcDbSpline
70
4
71
3
72
16
73
12
40
0
40
0
40
0
40
0
40
0.124999999999983
40
0.124999999999983
40
0.249999999999966
40
0.249999999999966
40
0.499999999999978
40
0.499999999999978
40
0.749999999999989
40
0.749999999999989
40
1
40
1
40
1
40
1
41
1
10
15.591909365808
20
-6.12486594210588
30
0
41
1
10
15.6110140686479
20
-6.12164894273712
30
0
41
1
10
15.6306432729492
20
-6.123728526516
30
0
41
1
10
15.6663637489884
20
-6.13964444651444
30
0
41
1
10
15.6822538189609
20
-6.15332352877968
30
0
41
1
10
15.7208529778186
20
-6.203306241848
30
0
41
1
10
15.7348268439626
20
-6.2455889329951
30
0
41
1
10
15.7510802311954
20
-6.33200035596602
30
0
41
1
10
15.7530542431231
20
-6.37644013911748
30
0
41
1
10
15.749023379005
20
-6.46492555468654
30
0
41
1
10
15.7429216922613
20
-6.5089627217034
30
0
41
1
10
15.7333431046987
20
-6.55216893807537
30
0
0
SPLINE
5
C8
100
AcDbEntity
8
1
62
256
6
ByLayer
370
13
48
1
60
0
100
AcDbSpline
70
4
71
3
72
16
73
12
40
0
40
0
40
0
40
0
40
0.124999999999994
40
0.124999999999994
40
0.249999999999987
40
0.249999999999987
40
0.499999999999992
40
0.499999999999992
40
0.749999999999996
40
0.749999999999996
40
1
40
1
40
1
40
1
41
1
10
14.9001220608292
20
-7.45200395668755
30
0
41
1
10
14.9124604154265
20
-7.46694061499431
30
0
41
1
10
14.9204740451953
20
-7.4849797964647
30
0
41
1
10
14.9245506921716
20
-7.5238725961492
30
0
41
1
10
14.9206492944157
20
-7.54447334154588
30
0
41
1
10
14.8966625745774
20
-7.60289255021559
30
0
41
1
10
14.8670316229756
20
-7.6361356188589
30
0
41
1
10
14.800323829122
20
-7.69341717658543
30
0
41
1
10
14.7628248539381
20
-7.71734661263801
30
0
41
1
10
14.6841788041318
20
-7.75809848969701
30
0
41
1
10
14.6429906554126
20
-7.77483285747951
30
0
41
1
10
14.6007836806518
20
-7.78814066550388
30
0
0
SPLINE
5
C9
100
AcDbEntity
8
1
62
256
6
ByLayer
370
13
48
1
60
0
100
AcDbSpline
70
4
71
3
72
16
73
12
40
0
40
0
40
0
40
0
40
0.125000000000006
40
0.125000000000006
40
0.250000000000011
40
0.250000000000011
40
0.500000000000008
40
0.500000000000008
40
0.750000000000004
40
0.750000000000004
40
1
40
1
40
1
40
1
41
1
10
12.8348858609894
20
-6.99415211408606
30
0
41
1
10
12.8173910095689
20
-7.00247490984916
30
0
41
1
10
12.8025045069907
20
-7.01543725420441
30
0
41
1
10
12.782373002694
20
-7.04896323595923
30
0
41
1
10
12.7772026186505
20
-7.06928265386898
30
0
41
1
10
12.7742529452052
20
-7.13236566344179
30
0
41
1
10
12.7870585794943
20
-7.17501669667789
30
0
41
1
10
12.8233081401636
20
-7.25512335038201
30
0
41
1
10
12.8471807367097
20
-7.29265853632515
30
0
41
1
10
12.9012357766235
20
-7.36282953670198
30
0
41
1
10
12.9314926671177
20
-7.39540288835039
30
0
41
1
10
12.9641210543159
20
-7.42530129669802
30
0
0
SPLINE
5
CA
100
AcDbEntity
8
1
62
256
6
ByLayer
370
13
48
1
60
0
100
AcDbSpline
70
4
71
3
72
16
73
12
40
0
40
0
40
0
40
0
40
0.125000000000017
40
0.125000000000017
40
0.250000000000034
40
0.250000000000034
40
0.500000000000023
40
0.500000000000023
40
0.750000000000011
40
0.750000000000011
40
1
40
1
40
1
40
1
41
1
10
12.6014515909177
20
-6.25379319643318
30
0
41
1
10
12.5823468880778
20
-6.25701019580194
30
0
41
1
10
12.5627176837765
20
-6.25493061202306
30
0
41
1
10
12.5269972077372
20
-6.23901469202463
30
0
41
1
10
12.5111071377648
20
-6.22533560975938
30
0
41
1
10
12.472507978907
20
-6.17535289669107
30
0
41
1
10
12.458534112763
20
-6.13307020554396
30
0
41
1
10
12.4422807255304
20
-6.04665878257305
30
0
41
1
10
12.4403067136025
20
-6.00221899942159
30
0
41
1
10
12.4443375777206
20
-5.91373358385252
30
0
41
1
10
12.4504392644643
20
-5.86969641683567
30
0
41
1
10
12.460017852027
20
-5.8264902004637
30
0
0
SPLINE
5
CB
100
AcDbEntity
8
1
62
256
6
ByLayer
370
13
48
1
60
0
100
AcDbSpline
70
4
71
3
72
18
73
14
40
0
40
0
40
0
40
0
40
0.124999999999996
40
0.124999999999996
40
0.249999999999992
40
0.249999999999992
40
0.499999999999993
40
0.499999999999993
40
0.749999999999993
40
0.749999999999993
40
0.874999999999996
40
0.874999999999996
40
1
40
1
40
1
40
1
41
1
10
15.345286792225
20
-5.39954900491142
30
0
41
1
10
15.3242138666384
20
-5.4235838274802
30
0
41
1
10
15.3115609124385
20
-5.45440269809126
30
0
41
1
10
15.2955223036453
20
-5.51981887911728
30
0
41
1
10
15.292342067347
20
-5.55456062742445
30
0
41
1
10
15.2925524146814
20
-5.66005390374636
30
0
41
1
10
15.3053902180688
20
-5.73194004497353
30
0
41
1
10
15.349088448999
20
-5.87057733316479
30
0
41
1
10
15.3799289618013
20
-5.93705265923546
30
0
41
1
10
15.4401368244282
20
-6.02341482854871
30
0
41
1
10
15.4626031856839
20
-6.05000842579247
30
0
41
1
10
15.5133676571799
20
-6.09451474854572
30
0
41
1
10
15.541445861897
20
-6.11251125045999
30
0
41
1
10
15.572478414479
20
-6.1201087731927
30
0
0
SPLINE
5
CC
100
AcDbEntity
8
1
62
256
6
ByLayer
370
13
48
1
60
0
100
AcDbSpline
70
4
71
3
72
8
73
4
40
0
40
0
40
0
40
0
40
1
40
1
40
1
40
1
41
1
10
14.0305810177
20
-4.6941721038574
30
0
41
1
10
14.0327249354322
20
-4.7004854189691
30
0
41
1
10
14.0348691270217
20
-4.70679954052386
30
0
41
1
10
14.0370136031446
20
-4.71311449996017
30
0
0
SPLINE
5
CD
100
AcDbEntity
8
1
62
256
6
ByLayer
370
13
48
1
60
0
100
AcDbSpline
70
4
71
3
72
8
73
4
40
0
40
0
40
0
40
0
40
1
40
1
40
1
40
1
41
1
10
12.6208825422466
20
-6.25855036534637
30
0
41
1
10
12.6144047097282
20
-6.25696443458261
30
0
41
1
10
12.6079277367016
20
-6.25537871424336
30
0
41
1
10
12.6014515909177
20
-6.25379319643318
30
0
0
SPLINE
5
CE
100
AcDbEntity
8
1
62
256
6
ByLayer
370
13
48
1
60
0
100
AcDbSpline
70
4
71
3
72
8
73
4
40
0
40
0
40
0
40
0
40
1
40
1
40
1
40
1
41
1
10
12.8480741645006
20
-6.97911013362764
30
0
41
1
10
12.8436774872663
20
-6.98412478414608
30
0
41
1
10
12.8392813933921
20
-6.98913876931053
30
0
41
1
10
12.8348858609894
20
-6.99415211408606
30
0
0
SPLINE
5
CF
100
AcDbEntity
8
1
62
256
6
ByLayer
370
13
48
1
60
0
100
AcDbSpline
70
4
71
3
72
16
73
12
40
0
40
0
40
0
40
0
40
0.249999999999982
40
0.249999999999982
40
0.499999999999963
40
0.499999999999963
40
0.749999999999945
40
0.749999999999945
40
0.874999999999972
40
0.874999999999972
40
1
40
1
40
1
40
1
41
1
10
12.9641210543159
20
-7.42530129669802
30
0
41
1
10
12.9967268759133
20
-7.4551790274821
30
0
41
1
10
13.0318944043554
20
-7.48254142381026
30
0
41
1
10
13.1064263420375
20
-7.53021871583809
30
0
41
1
10
13.1459293856209
20
-7.5507382563658
30
0
41
1
10
13.2287005519267
20
-7.57982137628761
30
0
41
1
10
13.2722822434974
20
-7.58881040585246
30
0
41
1
10
13.3344031875266
20
-7.58063556841307
30
0
41
1
10
13.3544892709984
20
-7.57375855544876
30
0
41
1
10
13.3864064662129
20
-7.55072955738808
30
0
41
1
10
13.3981015787679
20
-7.53468897585068
30
0
41
1
10
13.404893173384
20
-7.51646758385118
30
0
0
SPLINE
5
D0
100
AcDbEntity
8
1
62
256
6
ByLayer
370
13
48
1
60
0
100
AcDbSpline
70
4
71
3
72
8
73
4
40
0
40
0
40
0
40
0
40
1
40
1
40
1
40
1
41
1
10
15.572478414479
20
-6.1201087731927
30
0
41
1
10
15.5789562469974
20
-6.12169470395645
30
0
41
1
10
15.585433220024
20
-6.12328042429573
30
0
41
1
10
15.591909365808
20
-6.12486594210588
30
0
0
SPLINE
5
D1
100
AcDbEntity
8
1
62
256
6
ByLayer
370
13
48
1
60
0
100
AcDbSpline
70
4
71
3
72
16
73
12
40
0
40
0
40
0
40
0
40
0.250000000000017
40
0.250000000000017
40
0.500000000000035
40
0.500000000000035
40
0.750000000000052
40
0.750000000000052
40
0.875000000000026
40
0.875000000000026
40
1
40
1
40
1
40
1
41
1
10
13.5925772760739
20
-4.59051847303519
30
0
41
1
10
13.634755060739
20
-4.5772198686127
30
0
41
1
10
13.6781915139901
20
-4.56728355548844
30
0
41
1
10
13.7658896837758
20
-4.55557181240621
30
0
41
1
10
13.8103635323366
20
-4.55366950065223
30
0
41
1
10
13.897670742489
20
-4.56229184902216
30
0
41
1
10
13.9409680969811
20
-4.57256344026493
30
0
41
1
10
13.9938139567041
20
-4.60622580447728
30
0
41
1
10
14.0091117793008
20
-4.62094724056044
30
0
41
1
10
14.028306106734
20
-4.65530739039167
30
0
41
1
10
14.0321264356262
20
-4.67478766248644
30
0
41
1
10
14.0305810177
20
-4.6941721038574
30
0
0
SPLINE
5
D2
100
AcDbEntity
8
1
62
256
6
ByLayer
370
13
48
1
60
0
100
AcDbSpline
70
4
71
3
72
16
73
12
40
0
40
0
40
0
40
0
40
0.125
40
0.125
40
0.25
40
0.25
40
0.5
40
0.5
40
0.75
40
0.75
40
1
40
1
40
1
40
1
41
1
10
13.2932388958965
20
-4.92665518185152
30
0
41
1
10
13.2809005412992
20
-4.91171852354475
30
0
41
1
10
13.2728869115303
20
-4.89367934207439
30
0
41
1
10
13.268810264554
20
-4.85478654238986
30
0
41
1
10
13.2727116623099
20
-4.83418579699318
30
0
41
1
10
13.2966983821482
20
-4.77576658832345
30
0
41
1
10
13.32632933375
20
-4.74252351968016
30
0
41
1
10
13.3930371276036
20
-4.68524196195364
30
0
41
1
10
13.4305361027876
20
-4.66131252590105
30
0
41
1
10
13.5091821525939
20
-4.62056064884206
30
0
41
1
10
13.550370301313
20
-4.60382628105955
30
0
41
1
10
13.5925772760739
20
-4.59051847303519
30
0
0
SPLINE
5
D3
100
AcDbEntity
8
1
62
256
6
ByLayer
370
13
48
1
60
0
100
AcDbSpline
70
4
71
3
72
8
73
4
40
0
40
0
40
0
40
0
40
1
40
1
40
1
40
1
41
1
10
14.8945264142936
20
-7.43279767476039
30
0
41
1
10
14.8963918742228
20
-7.4392006076647
30
0
41
1
10
14.898257086639
20
-7.44560269101493
30
0
41
1
10
14.9001220608292
20
-7.45200395668755
30
0
0
SPLINE
5
D4
100
AcDbEntity
8
1
62
256
6
ByLayer
370
13
48
1
60
0
100
AcDbSpline
70
4
71
3
72
16
73
12
40
0
40
0
40
0
40
0
40
0.125000000000001
40
0.125000000000001
40
0.250000000000001
40
0.250000000000001
40
0.500000000000001
40
0.500000000000001
40
0.75
40
0.75
40
1
40
1
40
1
40
1
41
1
10
14.7884677833416
20
-4.86219155468788
30
0
41
1
10
14.7952341315843
20
-4.84403789701236
30
0
41
1
10
14.8068497061167
20
-4.82807829932085
30
0
41
1
10
14.8384935351796
20
-4.80510141963475
30
0
41
1
10
14.858285002908
20
-4.79817975650332
30
0
41
1
10
14.9208708816041
20
-4.78974326090193
30
0
41
1
10
14.9644756993498
20
-4.79878288340575
30
0
41
1
10
15.0474368804361
20
-4.82791274865014
30
0
41
1
10
15.0869098675479
20
-4.84842309574898
30
0
41
1
10
15.161525053236
20
-4.89615663425909
30
0
41
1
10
15.1966115152115
20
-4.92345943349341
30
0
41
1
10
15.2292399024097
20
-4.95335784184104
30
0
0
SPLINE
5
D5
100
AcDbEntity
8
1
62
256
6
ByLayer
370
13
48
1
60
0
100
AcDbSpline
70
4
71
3
72
8
73
4
40
0
40
0
40
0
40
0
40
1
40
1
40
1
40
1
41
1
10
13.298834542432
20
-4.94586146377867
30
0
41
1
10
13.2969690825029
20
-4.93945853087436
30
0
41
1
10
13.2951038700867
20
-4.93305644752414
30
0
41
1
10
13.2932388958965
20
-4.92665518185152
30
0
0
SPLINE
5
D6
100
AcDbEntity
8
1
62
256
6
ByLayer
370
13
48
1
60
0
100
AcDbSpline
70
4
71
3
72
8
73
4
40
0
40
0
40
0
40
0
40
1
40
1
40
1
40
1
41
1
10
12.7687864003266
20
-5.49899464867394
30
0
41
1
10
12.7753258504615
20
-5.50029461901011
30
0
41
1
10
12.7818661359252
20
-5.50159475540039
30
0
41
1
10
12.7884072892824
20
-5.50289506431827
30
0
0
SPLINE
5
D7
100
AcDbEntity
8
1
62
256
6
ByLayer
370
13
48
1
60
0
100
AcDbSpline
70
4
71
3
72
16
73
12
40
0
40
0
40
0
40
0
40
0.250000000000002
40
0.250000000000002
40
0.500000000000003
40
0.500000000000003
40
0.750000000000005
40
0.750000000000005
40
0.875000000000002
40
0.875000000000002
40
1
40
1
40
1
40
1
41
1
10
15.7333431046987
20
-6.55216893807537
30
0
41
1
10
15.7237711416309
20
-6.59534527328196
30
0
41
1
10
15.7106580145909
20
-6.6379305018099
30
0
41
1
10
15.6769515967299
20
-6.71973521625074
30
0
41
1
10
15.6563621227544
20
-6.75920185478549
30
0
41
1
10
15.6052413449495
20
-6.83050094252602
30
0
41
1
10
15.5746972087499
20
-6.86286175581148
30
0
41
1
10
15.5191218163291
20
-6.89179643071031
30
0
41
1
10
15.4987237674026
20
-6.89768401565999
30
0
41
1
10
15.4593698410542
20
-6.89712671591013
30
0
41
1
10
15.4405892661015
20
-6.89069508173421
30
0
41
1
10
15.4245745563991
20
-6.87966448986512
30
0
0
SPLINE
5
D8
100
AcDbEntity
8
1
62
256
6
ByLayer
370
13
48
1
60
0
100
AcDbSpline
70
4
71
3
72
8
73
4
40
0
40
0
40
0
40
0
40
1
40
1
40
1
40
1
41
1
10
15.4245745563991
20
-6.87966448986512
30
0
41
1
10
15.4180351062642
20
-6.87836451952896
30
0
41
1
10
15.4114948208004
20
-6.87706438313867
30
0
41
1
10
15.4049536674432
20
-6.8757640742208
30
0
0
SPLINE
5
D9
100
AcDbEntity
8
1
62
256
6
ByLayer
370
13
48
1
60
0
100
AcDbSpline
70
4
71
3
72
8
73
4
40
0
40
0
40
0
40
0
40
1
40
1
40
1
40
1
41
1
10
15.3584750957362
20
-5.384507024453
30
0
41
1
10
15.3540795633335
20
-5.38952036922853
30
0
41
1
10
15.3496834694593
20
-5.39453435439299
30
0
41
1
10
15.345286792225
20
-5.39954900491142
30
0
0
SPLINE
5
DA
100
AcDbEntity
8
1
62
256
6
ByLayer
370
13
48
1
60
0
100
AcDbSpline
70
4
71
3
72
18
73
14
40
0
40
0
40
0
40
0
40
0.125000000000002
40
0.125000000000002
40
0.250000000000003
40
0.250000000000003
40
0.50000000000001
40
0.50000000000001
40
0.750000000000016
40
0.750000000000016
40
0.875000000000008
40
0.875000000000008
40
1
40
1
40
1
40
1
41
1
10
15.4049536674432
20
-6.8757640742208
30
0
41
1
10
15.37360243773
20
-6.86953179661509
30
0
41
1
10
15.3405860357648
20
-6.87398345215058
30
0
41
1
10
15.2759146567812
20
-6.89280170000742
30
0
41
1
10
15.2442373020261
20
-6.9074184087365
30
0
41
1
10
15.1529826184701
20
-6.96034721303275
30
0
41
1
10
15.0971462956811
20
-7.00740814750867
30
0
41
1
10
14.9989319976607
20
-7.11457056969022
30
0
41
1
10
14.9567829329599
20
-7.17451690027815
30
0
41
1
10
14.9120950317221
20
-7.26983952347715
30
0
41
1
10
14.9002974815588
20
-7.30259276167706
30
0
41
1
10
14.8871361111735
20
-7.36880924497888
30
0
41
1
10
14.885589785695
20
-7.4021239345137
30
0
41
1
10
14.8945264142936
20
-7.43279767476039
30
0
0
SPLINE
5
DB
100
AcDbEntity
8
1
62
256
6
ByLayer
370
13
48
1
60
0
100
AcDbSpline
70
4
71
3
72
16
73
12
40
0
40
0
40
0
40
0
40
0.249999999999984
40
0.249999999999984
40
0.499999999999969
40
0.499999999999969
40
0.749999999999953
40
0.749999999999953
40
0.874999999999976
40
0.874999999999976
40
1
40
1
40
1
40
1
41
1
10
14.6007836806518
20
-7.78814066550388
30
0
41
1
10
14.5586058959867
20
-7.80143926992636
30
0
41
1
10
14.5151694427355
20
-7.81137558305062
30
0
41
1
10
14.4274712729499
20
-7.82308732613285
30
0
41
1
10
14.3829974243891
20
-7.82498963788686
30
0
41
1
10
14.2956902142367
20
-7.8163672895169
30
0
41
1
10
14.2523928597446
20
-7.80609569827414
30
0
41
1
10
14.1995470000215
20
-7.77243333406179
30
0
41
1
10
14.1842491774249
20
-7.75771189797862
30
0
41
1
10
14.1650548499916
20
-7.72335174814742
30
0
41
1
10
14.1612345210995
20
-7.70387147605266
30
0
41
1
10
14.1627799390257
20
-7.68448703468167
30
0
0
SPLINE
5
DC
100
AcDbEntity
8
1
62
256
6
ByLayer
370
13
48
1
60
0
100
AcDbSpline
70
4
71
3
72
18
73
14
40
0
40
0
40
0
40
0
40
0.125000000000015
40
0.125000000000015
40
0.250000000000031
40
0.250000000000031
40
0.500000000000022
40
0.500000000000022
40
0.750000000000012
40
0.750000000000012
40
0.875000000000006
40
0.875000000000006
40
1
40
1
40
1
40
1
41
1
10
14.0370136031446
20
-4.71311449996017
30
0
41
1
10
14.0472919072713
20
-4.74338160013463
30
0
41
1
10
14.0676553550365
20
-4.76974881521022
30
0
41
1
10
14.116288125227
20
-4.8163467483794
30
0
41
1
10
14.1447852436837
20
-4.83647178795746
30
0
41
1
10
14.2362502745741
20
-4.88903625998313
30
0
41
1
10
14.3049244007506
20
-4.9138614667344
30
0
41
1
10
14.4468369297011
20
-4.94533633274412
30
0
41
1
10
14.5198265072044
20
-4.95186532822689
30
0
41
1
10
14.624722271069
20
-4.94290487434108
30
0
41
1
10
14.6589861824879
20
-4.93674523338493
30
0
41
1
10
14.7229120243692
20
-4.91503507283639
30
0
41
1
10
14.7525365545648
20
-4.89971688521581
30
0
41
1
10
14.7746324785482
20
-4.87664066770185
30
0
0
SPLINE
5
DD
100
AcDbEntity
8
1
62
256
6
ByLayer
370
13
48
1
60
0
100
AcDbSpline
70
4
71
3
72
20
73
16
40
0
40
0
40
0
40
0
40
0.124999999999985
40
0.124999999999985
40
0.24999999999997
40
0.24999999999997
40
0.499999999999982
40
0.499999999999982
40
0.624999999999986
40
0.624999999999986
40
0.749999999999991
40
0.749999999999991
40
0.874999999999995
40
0.874999999999995
40
1
40
1
40
1
40
1
41
1
10
13.4187284781774
20
-7.50201847083721
30
0
41
1
10
13.4408608359041
20
-7.47890420318402
30
0
41
1
10
13.4705014967553
20
-7.46360412173405
30
0
41
1
10
13.5343577097809
20
-7.44192179398141
30
0
41
1
10
13.5687343376281
20
-7.43573254882813
30
0
41
1
10
13.6739798680815
20
-7.42678297395713
30
0
41
1
10
13.7470903210868
20
-7.43338893801894
30
0
41
1
10
13.8536197107919
20
-7.45710575292361
30
0
41
1
10
13.8880720909117
20
-7.46725431344689
30
0
41
1
10
13.9548355007311
20
-7.49216452214549
30
0
41
1
10
13.9874881655522
20
-7.50709751760164
30
0
41
1
10
14.0482872481488
20
-7.54200482256093
30
0
41
1
10
14.0765967918596
20
-7.56192969669627
30
0
41
1
10
14.1254629232487
20
-7.6086054440099
30
0
41
1
10
14.1460284588517
20
-7.63515800897403
30
0
41
1
10
14.156347353581
20
-7.66554463857889
30
0
0
SPLINE
5
DE
100
AcDbEntity
8
1
62
256
6
ByLayer
370
13
48
1
60
0
100
AcDbSpline
70
4
71
3
72
8
73
4
40
0
40
0
40
0
40
0
40
1
40
1
40
1
40
1
41
1
10
13.404893173384
20
-7.51646758385121
30
0
41
1
10
13.4095043449778
20
-7.51165183598874
30
0
41
1
10
13.4141161055882
20
-7.50683547297777
30
0
41
1
10
13.4187284781774
20
-7.50201847083721
30
0
0
LINE
5
70
100
AcDbEntity
8
80
62
256
6
ByLayer
370
18
48
1
60
0
100
AcDbLine
10
0
20
0
30
0
11
-5
21
0
31
0
39
0
210
0
220
0
230
1
0
LINE
5
71
100
AcDbEntity
8
81
62
256
6
ByLayer
370
18
48
1
60
0
100
AcDbLine
10
23.707
20
-15.0625
30
0
11
28.707
21
-15.0625
31
0
39
0
210
0
220
0
230
1
0
LINE
5
72
100
AcDbEntity
8
1
62
256
6
ByLayer
370
13
48
1
60
0
100
AcDbLine
10
1.978249
20
-9.437623
30
0
11
0.975778
21
-10.139562
31
0
39
0
210
0
220
0
230
1
0
LINE
5
74
100
AcDbEntity
8
1
62
256
6
ByLayer
370
13
48
1
60
0
100
AcDbLine
10
5.921919
20
-6.55004
30
0
11
5.899845
21
-6.524869
31
0
39
0
210
0
220
0
230
1
0
LINE
5
75
100
AcDbEntity
8
1
62
256
6
ByLayer
370
13
48
1
60
0
100
AcDbLine
10
13.504254
20
1.571614
30
0
11
6.313636
21
-6.275568
31
0
39
0
210
0
220
0
230
1
0
LINE
5
76
100
AcDbEntity
8
1
62
256
6
ByLayer
370
13
48
1
60
0
100
AcDbLine
10
13.716542
20
2.005558
30
0
11
13.743541
21
1.985762
31
0
39
0
210
0
220
0
230
1
0
LINE
5
77
100
AcDbEntity
8
1
62
256
6
ByLayer
370
13
48
1
60
0
100
AcDbLine
10
16.757358
20
6.999099
30
0
11
16.276434
21
6.166113
31
0
39
0
210
0
220
0
230
1
0
LINE
5
78
100
AcDbEntity
8
1
62
256
6
ByLayer
370
13
48
1
60
0
100
AcDbLine
10
1.062688
20
-10.139745
30
0
11
1.943227
21
-9.523185
31
0
39
0
210
0
220
0
230
1
0
LINE
5
79
100
AcDbEntity
8
1
62
256
6
ByLayer
370
13
48
1
60
0
100
AcDbLine
10
16.358612
20
6.208451
30
0
11
16.764955
21
6.912258
31
0
39
0
210
0
220
0
230
1
0
LINE
5
7A
100
AcDbEntity
8
1
62
256
6
ByLayer
370
13
48
1
60
0
100
AcDbLine
10
1.971661
20
-10.113663
30
0
11
1.931789
21
-10.141581
31
0
39
0
210
0
220
0
230
1
0
LINE
5
7B
100
AcDbEntity
8
1
62
256
6
ByLayer
370
13
48
1
60
0
100
AcDbLine
10
16.821569
20
6.265158
30
0
11
16.764955
21
6.912258
31
0
39
0
210
0
220
0
230
1
0
LINE
5
7C
100
AcDbEntity
8
1
62
256
6
ByLayer
370
13
48
1
60
0
100
AcDbLine
10
11.055045
20
-1.367672
30
0
11
10.96389
21
-1.284143
31
0
39
0
210
0
220
0
230
1
0
LINE
5
7D
100
AcDbEntity
8
1
62
256
6
ByLayer
370
13
48
1
60
0
100
AcDbLine
10
8.937119
20
-3.495975
30
0
11
9.028274
21
-3.579504
31
0
39
0
210
0
220
0
230
1
0
LINE
5
7E
100
AcDbEntity
8
1
62
256
6
ByLayer
370
13
48
1
60
0
100
AcDbLine
10
1.985051
20
-10.141694
30
0
11
1.931789
21
-10.141581
31
0
39
0
210
0
220
0
230
1
0
LINE
5
7F
100
AcDbEntity
8
1
62
256
6
ByLayer
370
13
48
1
60
0
100
AcDbLine
10
1.062688
20
-10.139745
30
0
11
1.931789
21
-10.141581
31
0
39
0
210
0
220
0
230
1
0
LINE
5
80
100
AcDbEntity
8
1
62
256
6
ByLayer
370
13
48
1
60
0
100
AcDbLine
10
9.065402
20
-3.346553
30
0
11
10.826216
21
-1.424961
31
0
39
0
210
0
220
0
230
1
0
LINE
5
81
100
AcDbEntity
8
1
62
256
6
ByLayer
370
13
48
1
60
0
100
AcDbLine
10
0.738247
20
-10.13906
30
0
11
5.899845
21
-6.524869
31
0
39
0
210
0
220
0
230
1
0
LINE
5
82
100
AcDbEntity
8
1
62
256
6
ByLayer
370
13
48
1
60
0
100
AcDbLine
10
0.738247
20
-10.13906
30
0
11
0.975778
21
-10.139562
31
0
39
0
210
0
220
0
230
1
0
LINE
5
83
100
AcDbEntity
8
1
62
256
6
ByLayer
370
13
48
1
60
0
100
AcDbLine
10
16.764955
20
6.912258
30
0
11
16.757358
21
6.999099
31
0
39
0
210
0
220
0
230
1
0
LINE
5
84
100
AcDbEntity
8
1
62
256
6
ByLayer
370
13
48
1
60
0
100
AcDbLine
10
0.738247
20
-10.13906
30
0
11
0.127568
21
-10.137769
31
0
39
0
210
0
220
0
230
1
0
LINE
5
85
100
AcDbEntity
8
1
62
256
6
ByLayer
370
13
48
1
60
0
100
AcDbLine
10
10.917135
20
-1.325741
30
0
11
10.826216
21
-1.424961
31
0
39
0
210
0
220
0
230
1
0
LINE
5
86
100
AcDbEntity
8
1
62
256
6
ByLayer
370
13
48
1
60
0
100
AcDbLine
10
16.730992
20
7.226738
30
0
11
16.737535
21
7.225678
31
0
39
0
210
0
220
0
230
1
0
LINE
5
87
100
AcDbEntity
8
1
62
256
6
ByLayer
370
13
48
1
60
0
100
AcDbLine
10
16.757358
20
6.999099
30
0
11
16.737535
21
7.225678
31
0
39
0
210
0
220
0
230
1
0
LINE
5
88
100
AcDbEntity
8
1
62
256
6
ByLayer
370
13
48
1
60
0
100
AcDbLine
10
0.975778
20
-10.139562
30
0
11
1.062688
21
-10.139745
31
0
39
0
210
0
220
0
230
1
0
LINE
5
89
100
AcDbEntity
8
1
62
256
6
ByLayer
370
13
48
1
60
0
100
AcDbLine
10
9.065402
20
-3.346553
30
0
11
8.974484
21
-3.445772
31
0
39
0
210
0
220
0
230
1
0
LINE
5
8A
100
AcDbEntity
8
1
62
256
6
ByLayer
370
13
48
1
60
0
100
AcDbLine
10
0
20
-10.07219
30
0
11
0
21
9.9375
31
0
39
0
210
0
220
0
230
1
0
LINE
5
8B
100
AcDbEntity
8
1
62
256
6
ByLayer
370
13
48
1
60
0
100
AcDbLine
10
8.9E-05
20
9.9375
30
0
11
0
21
9.9375
31
0
39
0
210
0
220
0
230
1
0
LINE
5
8C
100
AcDbEntity
8
1
62
256
6
ByLayer
370
13
48
1
60
0
100
AcDbLine
10
5.899845
20
-6.524869
30
0
11
13.716542
21
2.005558
31
0
39
0
210
0
220
0
230
1
0
LINE
5
8D
100
AcDbEntity
8
1
62
256
6
ByLayer
370
13
48
1
60
0
100
AcDbLine
10
16.730992
20
7.226738
30
0
11
8.9E-05
21
9.9375
31
0
39
0
210
0
220
0
230
1
0
LINE
5
8E
100
AcDbEntity
8
1
62
256
6
ByLayer
370
13
48
1
60
0
100
AcDbLine
10
13.716542
20
2.005558
30
0
11
16.730992
21
7.226738
31
0
39
0
210
0
220
0
230
1
0
LINE
5
8F
100
AcDbEntity
8
SK1
62
256
6
ByLayer
370
13
48
1
60
0
100
AcDbLine
10
0
20
-10.07219
30
0
11
0
21
9.9375
31
0
39
0
210
0
220
0
230
1
0
LINE
5
91
100
AcDbEntity
8
SK1
62
256
6
ByLayer
370
13
48
1
60
0
100
AcDbLine
10
-0.621232
20
-9.9375
30
0
11
-101.293
21
-9.9375
31
0
39
0
210
0
220
0
230
1
0
LINE
5
92
100
AcDbEntity
8
SK1
62
256
6
ByLayer
370
13
48
1
60
0
100
AcDbLine
10
-101.293
20
-9.9375
30
0
11
-101.293
21
9.9375
31
0
39
0
210
0
220
0
230
1
0
LINE
5
93
100
AcDbEntity
8
SK1
62
256
6
ByLayer
370
13
48
1
60
0
100
AcDbLine
10
0
20
9.9375
30
0
11
-101.293
21
9.9375
31
0
39
0
210
0
220
0
230
1
0
LINE
5
94
100
AcDbEntity
8
1
62
256
6
ByLayer
370
13
48
1
60
0
100
AcDbLine
10
18.249249
20
-1.069291
30
0
11
20.434999
21
-8.001604
31
0
39
0
210
0
220
0
230
1
0
LINE
5
95
100
AcDbEntity
8
1
62
256
6
ByLayer
370
13
48
1
60
0
100
AcDbLine
10
22.568905
20
-14.987546
30
0
11
18.103909
21
-12.905484
31
0
39
0
210
0
220
0
230
1
0
LINE
5
96
100
AcDbEntity
8
1
62
256
6
ByLayer
370
13
48
1
60
0
100
AcDbLine
10
16.45448
20
-12.345578
30
0
11
9.358046
21
-10.772337
31
0
39
0
210
0
220
0
230
1
0
LINE
5
97
100
AcDbEntity
8
1
62
256
6
ByLayer
370
13
48
1
60
0
100
AcDbLine
10
2.241089
20
-9.127383
30
0
11
6.276706
21
-6.301614
31
0
39
0
210
0
220
0
230
1
0
LINE
5
98
100
AcDbEntity
8
1
62
256
6
ByLayer
370
13
48
1
60
0
100
AcDbLine
10
17.480047
20
5.546941
30
0
11
17.909427
21
0.639109
31
0
39
0
210
0
220
0
230
1
0
LINE
5
99
100
AcDbEntity
8
1
62
256
6
ByLayer
370
13
48
1
60
0
100
AcDbLine
10
7.586313
20
-5.153119
30
0
11
12.496997
21
0.205952
31
0
39
0
210
0
220
0
230
1
0
LINE
5
9A
100
AcDbEntity
8
1
62
256
6
ByLayer
370
13
48
1
60
0
100
AcDbLine
10
7.626529
20
-10.582705
30
0
11
2.69995
21
-10.582705
31
0
39
0
210
0
220
0
230
1
0
LINE
5
9B
100
AcDbEntity
8
1
62
256
6
ByLayer
370
13
48
1
60
0
100
AcDbLine
10
21.136531
20
-9.595958
30
0
11
23.59982
21
-13.8625
31
0
39
0
210
0
220
0
230
1
0
LINE
5
9C
100
AcDbEntity
8
1
62
256
6
ByLayer
370
13
48
1
60
0
100
AcDbLine
10
13.526982
20
1.610674
30
0
11
15.990271
21
5.877216
31
0
39
0
210
0
220
0
230
1
0
MTEXT
5
DF
100
AcDbEntity
8
SK6
62
256
6
ByLayer
370
13
48
1
60
0
100
AcDbMText
10
-100.742979
20
20.842166
30
0
210
0
220
0
230
1
1
\W0.7367;CP-30AL-2020-11
40
3.5
41
0
44
1.084337
50
0
71
7
72
5
7
iso_b_vert
0
DIMENSION
5
F1
100
AcDbEntity
8
SK2
62
256
6
ByLayer
370
13
48
1
60
0
100
AcDbDimension
2
DimnDraft3D1
10
-110.393
20
9.9375
30
0
11
-110.393
21
0
31
0
70
32
71
5
72
1
41
1
210
0
220
0
230
1
3
Standard
100
AcDbAlignedDimension
13
-102.8805
23
-9.9375
33
0
14
-102.8805
24
9.9375
34
0
50
90
100
AcDbRotatedDimension
1001
ACAD
1000
DSTYLE
1002
{
1070
    74
1070
     0
1070
   279
1070
     0
1070
   172
1070
     1
1070
   173
1070
     1
1070
   340
1005
E0
1070
   271
1070
     1
1070
   272
1070
     2
1070
    77
1070
     1
1070
    73
1070
     0
1070
   171
1070
     3
1070
   274
1070
     4
1070
   177
1070
   150
1070
   176
1070
     9
1070
   178
1070
    43
1070
    78
1070
     8
1070
    48
1040
-0.005
1070
    41
1041
3.175
1070
   147
1041
2.25
1070
    42
1041
1.5875
1070
    44
1041
3.175
1070
   140
1041
4.5
1070
   343
1005
F2
1070
   344
1005
F2
1002
}
0
DIMENSION
5
106
100
AcDbEntity
8
SK2
62
256
6
ByLayer
370
13
48
1
60
0
100
AcDbDimension
2
DimnDraft3D2
10
23.707
20
-41.5625
30
0
11
-38.793
21
-41.5625
31
0
70
32
71
5
72
1
41
1
210
0
220
0
230
1
3
Standard
100
AcDbAlignedDimension
13
-101.293
23
-11.525
33
0
14
23.707
24
-16.65
34
0
50
0
100
AcDbRotatedDimension
1001
ACAD
1000
DSTYLE
1002
{
1070
   279
1070
     0
1070
   172
1070
     1
1070
   173
1070
     1
1070
   340
1005
E0
1070
   271
1070
     1
1070
   272
1070
     2
1070
    77
1070
     1
1070
    73
1070
     0
1070
   171
1070
     3
1070
   274
1070
     4
1070
   177
1070
   150
1070
   176
1070
     9
1070
   178
1070
    43
1070
    78
1070
     8
1070
    48
1040
-0.005
1070
    41
1041
3.175
1070
   147
1041
2.25
1070
    42
1041
1.5875
1070
    44
1041
3.175
1070
   140
1041
4.5
1070
   343
1005
F2
1070
   344
1005
F2
1002
}
0
DIMENSION
5
115
100
AcDbEntity
8
2
62
256
6
ByLayer
370
13
48
1
60
0
100
AcDbDimension
2
DimnDraft3D3
10
21.518955
20
-9.392866
30
0
11
17.332812
21
14.666962
31
0
70
34
71
5
72
1
41
1
210
0
220
0
230
1
3
Standard
100
AcDb2LineAngularDimension
13
23.707
23
-15.0625
33
0
14
23.707
24
-13.4625
34
0
15
23.632046
25
-13.924405
35
0
16
18.30679
26
10.27363
36
0
40
0
0
DIMENSION
5
123
100
AcDbEntity
8
2
62
256
6
ByLayer
370
13
48
1
60
0
100
AcDbDimension
2
DimnDraft3D4
10
44.557
20
9.9375
30
0
11
44.557
21
-2.5625
31
0
70
32
71
5
72
1
41
1
210
0
220
0
230
1
3
Standard
100
AcDbAlignedDimension
13
25.2945
23
-15.0625
33
0
14
1.5875
24
9.9375
34
0
50
90
100
AcDbRotatedDimension
1001
ACAD
1000
DSTYLE
1002
{
1070
    74
1070
     0
1070
   279
1070
     0
1070
   172
1070
     1
1070
   173
1070
     1
1070
   340
1005
E0
1070
   271
1070
     1
1070
   272
1070
     2
1070
    77
1070
     1
1070
    73
1070
     0
1070
   171
1070
     3
1070
   274
1070
     4
1070
   177
1070
   150
1070
   176
1070
     9
1070
   178
1070
    43
1070
    78
1070
     8
1070
    48
1040
-0.005
1070
    41
1041
3.175
1070
   147
1041
2.25
1070
    42
1041
1.5875
1070
    44
1041
3.175
1070
   140
1041
4.5
1070
   343
1005
F2
1070
   344
1005
F2
1002
}
0
ENDSEC
0
SECTION
2
OBJECTS
0
DICTIONARY
5
18d
330
0
100
AcDbDictionary
280
0
281
1
3
ACAD_GROUP
350
18e
3
ACAD_MLINESTYLE
350
18f
0
DICTIONARY
5
18e
330
0
100
AcDbDictionary
280
0
281
1
0
DICTIONARY
5
18f
330
0
100
AcDbDictionary
280
0
281
1
3
Standard
350
18
0
MLINESTYLE
5
18
330
18f
100
AcDbMlineStyle
2
Standard
70
0
3

62
256
51
90
52
90
71
2
49
-0.5
62
256
6
ByLayer
49
0.5
62
256
6
ByLayer
0
RASTERVARIABLES
5
17c
330

100
AcDbRasterVariables
90
0
70
1
71
1
72
1
0
ENDSEC
0
EOF
