0
SECTION
2
HEADER
9
$ACADVER
1
AC1015
9
$DWGCODEPAGE
3
ANSI_1252
9
$HANDSEED
5
222
9
$ANGBASE
50
0
9
$ANGDIR
70
0
9
$ATTMODE
70
1
9
$AUNITS
70
0
9
$AUPREC
70
0
9
$CECOLOR
62
256
9
$CELTSCALE
40
1
9
$CELTYPE
6
ByLayer
9
$CELWEIGHT
370
18
9
$CLAYER
8
0
9
$CMLJUST
70
0
9
$CMLSCALE
40
1
9
$CMLSTYLE
2
Standard
9
$DIMSTYLE
2
Standard
9
$TEXTSIZE
40
0.2
9
$TEXTSTYLE
7
Standard
9
$LUNITS
70
2
9
$LUPREC
70
4
9
$EXTNAMES
290
1
9
$INSUNITS
70
4
9
$LTSCALE
40
1
9
$LWDISPLAY
290
1
9
$PDMODE
70
0
9
$PDSIZE
40
0
9
$PLINEGEN
70
0
0
ENDSEC
0
SECTION
2
CLASSES
0
CLASS
1
RASTERVARIABLES
2
AcDbRasterVariables
3
ISM
90
0
280
0
281
0
0
ENDSEC
0
SECTION
2
TABLES
0
TABLE
2
VPORT
5
218
100
AcDbSymbolTable
0
VPORT
5
1
100
AcDbSymbolTableRecord
100
AcDbViewportTableRecord
2
*Active
70
0
10
0
20
0
11
1
21
1
12
-1
22
1
13
0
23
0
14
0.5
24
0.5
15
10
25
10
16
0
26
0
36
1
17
0
27
0
37
0
0
ENDTAB
0
TABLE
2
LTYPE
5
219
100
AcDbSymbolTable
0
LTYPE
5
14
100
AcDbSymbolTableRecord
100
AcDbLinetypeTableRecord
70
0
2
ByBlock
3

72
65
73
0
40
0
0
LTYPE
5
15
100
AcDbSymbolTableRecord
100
AcDbLinetypeTableRecord
70
0
2
ByLayer
3

72
65
73
0
40
0
0
LTYPE
5
16
100
AcDbSymbolTableRecord
100
AcDbLinetypeTableRecord
70
0
2
CONTINUOUS
3
Solid line
72
65
73
0
40
0
0
LTYPE
5
6A
100
AcDbSymbolTableRecord
100
AcDbLinetypeTableRecord
70
0
2
CENTER
3
____ _ ____ _ ____ _ ____
72
65
73
4
40
47.5
49
22
74
0
49
-8.5
74
0
49
8.5
74
0
49
-8.5
74
0
0
LTYPE
5
6B
100
AcDbSymbolTableRecord
100
AcDbLinetypeTableRecord
70
0
2
DASHED
3
__ __ __ __ __ __ __ __ __
72
65
73
2
40
25.72
49
12.86
74
0
49
-12.86
74
0
0
ENDTAB
0
TABLE
2
LAYER
5
21a
100
AcDbSymbolTable
0
LAYER
5
10
100
AcDbSymbolTableRecord
100
AcDbLayerTableRecord
2
0
70
0
62
7
6
CONTINUOUS
290
1
370
-3
390
0
0
LAYER
5
6D
100
AcDbSymbolTableRecord
100
AcDbLayerTableRecord
2
80
70
0
62
-6
6
CONTINUOUS
290
1
370
-3
390
0
0
LAYER
5
6F
100
AcDbSymbolTableRecord
100
AcDbLayerTableRecord
2
81
70
0
62
-3
6
CONTINUOUS
290
1
370
-3
390
0
0
LAYER
5
83
100
AcDbSymbolTableRecord
100
AcDbLayerTableRecord
2
1
70
0
62
4
6
CONTINUOUS
290
1
370
-3
390
0
0
LAYER
5
183
100
AcDbSymbolTableRecord
100
AcDbLayerTableRecord
2
2
70
0
62
7
6
CONTINUOUS
290
1
370
-3
390
0
0
LAYER
5
205
100
AcDbSymbolTableRecord
100
AcDbLayerTableRecord
2
SK1
70
0
62
4
6
CONTINUOUS
290
1
370
-3
390
0
0
LAYER
5
206
100
AcDbSymbolTableRecord
100
AcDbLayerTableRecord
2
SK6
70
0
62
5
6
CONTINUOUS
290
1
370
-3
390
0
0
LAYER
5
207
100
AcDbSymbolTableRecord
100
AcDbLayerTableRecord
2
SK2
70
0
62
7
6
CONTINUOUS
290
1
370
-3
390
0
0
ENDTAB
0
TABLE
2
STYLE
5
21b
100
AcDbSymbolTable
0
STYLE
5
11
100
AcDbSymbolTableRecord
100
AcDbTextStyleTableRecord
2
Standard
3
txt
70
0
71
0
40
0
41
1
42
0
50
0
0
STYLE
5
15A
100
AcDbSymbolTableRecord
100
AcDbTextStyleTableRecord
2
iso_b_vert
3
simplex.shx
70
0
71
0
40
0
41
1
42
0
50
0
0
STYLE
5
15B
100
AcDbSymbolTableRecord
100
AcDbTextStyleTableRecord
2
DWGDirectTextStyle
3
simplex
70
0
71
0
40
0
41
1
42
0
50
0
0
ENDTAB
0
TABLE
2
DIMSTYLE
5
21c
100
AcDbSymbolTable
100
AcDbDimStyleTable
0
DIMSTYLE
105
27
100
AcDbSymbolTableRecord
100
AcDbDimStyleTableRecord
2
Standard
70
0
3
<>
41
0.18
42
0.0625
44
0.18
140
0.18
147
0.09
73
0
74
0
77
1
271
2
275
0
278
52
280
0
340
11
0
ENDTAB
0
TABLE
2
VIEW
5
21d
100
AcDbSymbolTable
0
ENDTAB
0
TABLE
2
UCS
5
21e
100
AcDbSymbolTable
0
ENDTAB
0
TABLE
2
APPID
5
21f
100
AcDbSymbolTable
0
APPID
5
12
100
AcDbSymbolTableRecord
100
AcDbRegAppTableRecord
2
ACAD
70
0
0
ENDTAB
0
TABLE
2
BLOCK_RECORD
5
220
100
AcDbSymbolTable
0
BLOCK_RECORD
5
1F
100
AcDbSymbolTableRecord
100
AcDbBlockTableRecord
2
*Model_Space
340
0
70
0
0
BLOCK_RECORD
5
1B
100
AcDbSymbolTableRecord
100
AcDbBlockTableRecord
2
*Paper_Space
340
0
70
0
0
BLOCK_RECORD
5
23
100
AcDbSymbolTableRecord
100
AcDbBlockTableRecord
2
*Paper_Space0
340
0
70
0
0
BLOCK_RECORD
5
15D
100
AcDbSymbolTableRecord
100
AcDbBlockTableRecord
2
DimnDraft3D1
340
0
70
0
0
BLOCK_RECORD
5
16C
100
AcDbSymbolTableRecord
100
AcDbBlockTableRecord
2
_CLOSED
340
0
70
0
0
BLOCK_RECORD
5
173
100
AcDbSymbolTableRecord
100
AcDbBlockTableRecord
2
DimnDraft3D2
340
0
70
0
0
BLOCK_RECORD
5
181
100
AcDbSymbolTableRecord
100
AcDbBlockTableRecord
2
DimnDraft3D3
340
0
70
0
0
BLOCK_RECORD
5
190
100
AcDbSymbolTableRecord
100
AcDbBlockTableRecord
2
DimnDraft3D4
340
0
70
0
0
BLOCK_RECORD
5
19E
100
AcDbSymbolTableRecord
100
AcDbBlockTableRecord
2
DimnDraft3D5
340
0
70
0
0
ENDTAB
0
ENDSEC
0
SECTION
2
BLOCKS
0
BLOCK
5
20
100
AcDbEntity
8
0
100
AcDbBlockBegin
2
*Model_Space
70
0
10
0
20
0
30
0
3
*Model_Space
0
ENDBLK
5
21
100
AcDbEntity
8
0
100
AcDbBlockEnd
0
BLOCK
5
1C
100
AcDbEntity
8
0
100
AcDbBlockBegin
2
*Paper_Space
70
0
10
0
20
0
30
0
3
*Paper_Space
0
ENDBLK
5
1D
100
AcDbEntity
8
0
100
AcDbBlockEnd
0
BLOCK
5
24
100
AcDbEntity
8
0
100
AcDbBlockBegin
2
*Paper_Space0
70
0
10
0
20
0
30
0
3
*Paper_Space0
0
ENDBLK
5
25
100
AcDbEntity
8
0
100
AcDbBlockEnd
0
BLOCK
5
169
100
AcDbEntity
8
0
100
AcDbBlockBegin
2
DimnDraft3D1
70
0
10
0
20
0
30
0
3
DimnDraft3D1
0
MTEXT
5
15E
100
AcDbEntity
8
SK2
62
256
6
ByLayer
370
13
48
1
60
0
100
AcDbMText
10
-94.22505
20
-4.156579
30
0
210
0
220
0
230
1
1
\W0.7346;25.0
40
4.5
41
0
44
1.084337
50
90
71
7
72
5
7
iso_b_vert
0
LINE
5
160
100
AcDbEntity
8
SK2
62
256
6
ByLayer
370
13
48
1
60
0
100
AcDbLine
10
-85.5875
20
-12.4625
30
0
11
-96.27505
21
-12.4625
31
0
39
0
210
0
220
0
230
1
0
LINE
5
161
100
AcDbEntity
8
SK2
62
256
6
ByLayer
370
13
48
1
60
0
100
AcDbLine
10
-85.5875
20
12.4625
30
0
11
-96.27505
21
12.4625
31
0
39
0
210
0
220
0
230
1
0
LINE
5
162
100
AcDbEntity
8
SK2
62
256
6
ByLayer
370
13
48
1
60
0
100
AcDbLine
10
-93.10005
20
-12.4625
30
0
11
-93.10005
21
12.4625
31
0
39
0
210
0
220
0
230
1
0
LINE
5
163
100
AcDbEntity
8
SK2
62
256
6
ByLayer
370
13
48
1
60
0
100
AcDbLine
10
-93.10005
20
-12.4625
30
0
11
-93.950789
21
-9.287503
31
0
39
0
210
0
220
0
230
1
0
LINE
5
164
100
AcDbEntity
8
SK2
62
256
6
ByLayer
370
13
48
1
60
0
100
AcDbLine
10
-93.10005
20
-12.4625
30
0
11
-92.249311
21
-9.287497
31
0
39
0
210
0
220
0
230
1
0
LINE
5
165
100
AcDbEntity
8
SK2
62
256
6
ByLayer
370
13
48
1
60
0
100
AcDbLine
10
-93.950789
20
-9.287503
30
0
11
-92.249311
21
-9.287497
31
0
39
0
210
0
220
0
230
1
0
LINE
5
166
100
AcDbEntity
8
SK2
62
256
6
ByLayer
370
13
48
1
60
0
100
AcDbLine
10
-93.10005
20
12.4625
30
0
11
-92.249311
21
9.287503
31
0
39
0
210
0
220
0
230
1
0
LINE
5
167
100
AcDbEntity
8
SK2
62
256
6
ByLayer
370
13
48
1
60
0
100
AcDbLine
10
-93.10005
20
12.4625
30
0
11
-93.950789
21
9.287497
31
0
39
0
210
0
220
0
230
1
0
LINE
5
168
100
AcDbEntity
8
SK2
62
256
6
ByLayer
370
13
48
1
60
0
100
AcDbLine
10
-92.249311
20
9.287503
30
0
11
-93.950789
21
9.287497
31
0
39
0
210
0
220
0
230
1
0
ENDBLK
5
16A
100
AcDbEntity
8
0
100
AcDbBlockEnd
0
BLOCK
5
16D
100
AcDbEntity
8
0
100
AcDbBlockBegin
2
_CLOSED
70
0
10
0
20
0
30
0
3
_CLOSED
0
LINE
5
16F
100
AcDbEntity
8
0
62
256
6
ByLayer
370
-2
48
1
60
0
100
AcDbLine
10
-1
20
0.166667
30
0
11
0
21
0
31
0
39
0
210
0
220
0
230
1
0
LINE
5
170
100
AcDbEntity
8
0
62
256
6
ByLayer
370
-2
48
1
60
0
100
AcDbLine
10
0
20
0
30
0
11
-1
21
-0.166667
31
0
39
0
210
0
220
0
230
1
0
LINE
5
171
100
AcDbEntity
8
0
62
256
6
ByLayer
370
-2
48
1
60
0
100
AcDbLine
10
-1
20
0.166667
30
0
11
-1
21
-0.166667
31
0
39
0
210
0
220
0
230
1
0
LINE
5
172
100
AcDbEntity
8
0
62
256
6
ByLayer
370
-2
48
1
60
0
100
AcDbLine
10
0
20
0
30
0
11
-1
21
0
31
0
39
0
210
0
220
0
230
1
0
ENDBLK
5
16E
100
AcDbEntity
8
0
100
AcDbBlockEnd
0
BLOCK
5
17E
100
AcDbEntity
8
0
100
AcDbBlockBegin
2
DimnDraft3D2
70
0
10
0
20
0
30
0
3
DimnDraft3D2
0
MTEXT
5
174
100
AcDbEntity
8
SK2
62
256
6
ByLayer
370
13
48
1
60
0
100
AcDbMText
10
-30.713158
20
-47.9125
30
0
210
0
220
0
230
1
1
\W0.6261;116.0
40
4.5
41
0
44
1.084337
50
0
71
7
72
5
7
iso_b_vert
0
LINE
5
175
100
AcDbEntity
8
SK2
62
256
6
ByLayer
370
13
48
1
60
0
100
AcDbLine
10
-84
20
-14.05
30
0
11
-84
21
-52.2125
31
0
39
0
210
0
220
0
230
1
0
LINE
5
176
100
AcDbEntity
8
SK2
62
256
6
ByLayer
370
13
48
1
60
0
100
AcDbLine
10
32
20
-21.125
30
0
11
32
21
-52.2125
31
0
39
0
210
0
220
0
230
1
0
LINE
5
177
100
AcDbEntity
8
SK2
62
256
6
ByLayer
370
13
48
1
60
0
100
AcDbLine
10
-84
20
-49.0375
30
0
11
32
21
-49.0375
31
0
39
0
210
0
220
0
230
1
0
LINE
5
178
100
AcDbEntity
8
SK2
62
256
6
ByLayer
370
13
48
1
60
0
100
AcDbLine
10
-84
20
-49.0375
30
0
11
-80.825003
21
-48.186761
31
0
39
0
210
0
220
0
230
1
0
LINE
5
179
100
AcDbEntity
8
SK2
62
256
6
ByLayer
370
13
48
1
60
0
100
AcDbLine
10
-84
20
-49.0375
30
0
11
-80.824997
21
-49.888239
31
0
39
0
210
0
220
0
230
1
0
LINE
5
17A
100
AcDbEntity
8
SK2
62
256
6
ByLayer
370
13
48
1
60
0
100
AcDbLine
10
-80.825003
20
-48.186761
30
0
11
-80.824997
21
-49.888239
31
0
39
0
210
0
220
0
230
1
0
LINE
5
17B
100
AcDbEntity
8
SK2
62
256
6
ByLayer
370
13
48
1
60
0
100
AcDbLine
10
32
20
-49.0375
30
0
11
28.825003
21
-49.888239
31
0
39
0
210
0
220
0
230
1
0
LINE
5
17C
100
AcDbEntity
8
SK2
62
256
6
ByLayer
370
13
48
1
60
0
100
AcDbLine
10
32
20
-49.0375
30
0
11
28.824997
21
-48.186761
31
0
39
0
210
0
220
0
230
1
0
LINE
5
17D
100
AcDbEntity
8
SK2
62
256
6
ByLayer
370
13
48
1
60
0
100
AcDbLine
10
28.825003
20
-49.888239
30
0
11
28.824997
21
-48.186761
31
0
39
0
210
0
220
0
230
1
0
ENDBLK
5
17F
100
AcDbEntity
8
0
100
AcDbBlockEnd
0
BLOCK
5
18D
100
AcDbEntity
8
0
100
AcDbBlockBegin
2
DimnDraft3D3
70
0
10
0
20
0
30
0
3
DimnDraft3D3
0
MTEXT
5
182
100
AcDbEntity
8
2
62
256
6
ByLayer
370
13
48
1
60
0
100
AcDbMText
10
11.843421
20
25.43755
30
0
210
0
220
0
230
1
1
\W0.7346;32.0
40
4.5
41
0
44
1.084337
50
0
71
7
72
5
7
iso_b_vert
0
LINE
5
184
100
AcDbEntity
8
2
62
256
6
ByLayer
370
13
48
1
60
0
100
AcDbLine
10
32
20
-17.95
30
0
11
32
21
27.48755
31
0
39
0
210
0
220
0
230
1
0
LINE
5
185
100
AcDbEntity
8
2
62
256
6
ByLayer
370
13
48
1
60
0
100
AcDbLine
10
0
20
14.05
30
0
11
0
21
27.48755
31
0
39
0
210
0
220
0
230
1
0
LINE
5
186
100
AcDbEntity
8
2
62
256
6
ByLayer
370
13
48
1
60
0
100
AcDbLine
10
32
20
24.31255
30
0
11
0
21
24.31255
31
0
39
0
210
0
220
0
230
1
0
LINE
5
187
100
AcDbEntity
8
2
62
256
6
ByLayer
370
13
48
1
60
0
100
AcDbLine
10
32
20
24.31255
30
0
11
28.825003
21
23.461811
31
0
39
0
210
0
220
0
230
1
0
LINE
5
188
100
AcDbEntity
8
2
62
256
6
ByLayer
370
13
48
1
60
0
100
AcDbLine
10
32
20
24.31255
30
0
11
28.824997
21
25.163289
31
0
39
0
210
0
220
0
230
1
0
LINE
5
189
100
AcDbEntity
8
2
62
256
6
ByLayer
370
13
48
1
60
0
100
AcDbLine
10
28.825003
20
23.461811
30
0
11
28.824997
21
25.163289
31
0
39
0
210
0
220
0
230
1
0
LINE
5
18A
100
AcDbEntity
8
2
62
256
6
ByLayer
370
13
48
1
60
0
100
AcDbLine
10
0
20
24.31255
30
0
11
3.174997
21
25.163289
31
0
39
0
210
0
220
0
230
1
0
LINE
5
18B
100
AcDbEntity
8
2
62
256
6
ByLayer
370
13
48
1
60
0
100
AcDbLine
10
0
20
24.31255
30
0
11
3.175003
21
23.461811
31
0
39
0
210
0
220
0
230
1
0
LINE
5
18C
100
AcDbEntity
8
2
62
256
6
ByLayer
370
13
48
1
60
0
100
AcDbLine
10
3.174997
20
25.163289
30
0
11
3.175003
21
23.461811
31
0
39
0
210
0
220
0
230
1
0
ENDBLK
5
18E
100
AcDbEntity
8
0
100
AcDbBlockEnd
0
BLOCK
5
19B
100
AcDbEntity
8
0
100
AcDbBlockBegin
2
DimnDraft3D4
70
0
10
0
20
0
30
0
3
DimnDraft3D4
0
MTEXT
5
191
100
AcDbEntity
8
2
62
256
6
ByLayer
370
13
48
1
60
0
100
AcDbMText
10
20.800958
20
12.751135
30
0
210
0
220
0
230
1
1
\W0.7346;25.0
40
4.5
41
0
44
1.084337
50
12.5
71
7
72
5
7
iso_b_vert
0
LINE
5
192
100
AcDbEntity
8
2
62
256
6
ByLayer
370
13
48
1
60
0
100
AcDbLine
10
32
20
-16.35
30
0
11
32
21
16.482849
31
0
39
0
210
0
220
0
230
1
0
LINE
5
193
100
AcDbEntity
8
2
62
256
6
ByLayer
370
13
48
1
60
0
100
AcDbLine
10
30.408903
20
-15.148026
30
0
11
17.190191
21
13.199593
31
0
39
0
210
0
220
0
230
1
0
ARC
5
194
100
AcDbEntity
8
2
62
256
6
ByLayer
370
13
48
1
60
0
100
AcDbCircle
39
0
10
32
20
-18.560144
30
0
40
31.8679927985409
210
0
220
0
230
1
100
AcDbArc
50
90
51
115
0
LINE
5
195
100
AcDbEntity
8
2
62
256
6
ByLayer
370
13
48
1
60
0
100
AcDbLine
10
32
20
13.307849
30
0
11
28.847156
21
12.378366
31
0
39
0
210
0
220
0
230
1
0
LINE
5
196
100
AcDbEntity
8
2
62
256
6
ByLayer
370
13
48
1
60
0
100
AcDbLine
10
32
20
13.307849
30
0
11
28.80481
21
14.079316
31
0
39
0
210
0
220
0
230
1
0
LINE
5
197
100
AcDbEntity
8
2
62
256
6
ByLayer
370
13
48
1
60
0
100
AcDbLine
10
28.847156
20
12.378366
30
0
11
28.80481
21
14.079316
31
0
39
0
210
0
220
0
230
1
0
LINE
5
198
100
AcDbEntity
8
2
62
256
6
ByLayer
370
13
48
1
60
0
100
AcDbLine
10
18.532004
20
10.322066
30
0
11
21.101788
21
12.371596
31
0
39
0
210
0
220
0
230
1
0
LINE
5
199
100
AcDbEntity
8
2
62
256
6
ByLayer
370
13
48
1
60
0
100
AcDbLine
10
18.532004
20
10.322066
30
0
11
21.782273
21
10.81212
31
0
39
0
210
0
220
0
230
1
0
LINE
5
19A
100
AcDbEntity
8
2
62
256
6
ByLayer
370
13
48
1
60
0
100
AcDbLine
10
21.101788
20
12.371596
30
0
11
21.782273
21
10.81212
31
0
39
0
210
0
220
0
230
1
0
ENDBLK
5
19C
100
AcDbEntity
8
0
100
AcDbBlockEnd
0
BLOCK
5
1A9
100
AcDbEntity
8
0
100
AcDbBlockBegin
2
DimnDraft3D5
70
0
10
0
20
0
30
0
3
DimnDraft3D5
0
MTEXT
5
19F
100
AcDbEntity
8
2
62
256
6
ByLayer
370
13
48
1
60
0
100
AcDbMText
10
51.725
20
-7.694079
30
0
210
0
220
0
230
1
1
\W0.7346;32.0
40
4.5
41
0
44
1.084337
50
90
71
7
72
5
7
iso_b_vert
0
LINE
5
1A0
100
AcDbEntity
8
2
62
256
6
ByLayer
370
13
48
1
60
0
100
AcDbLine
10
33.5875
20
-19.5375
30
0
11
56.025
21
-19.5375
31
0
39
0
210
0
220
0
230
1
0
LINE
5
1A1
100
AcDbEntity
8
2
62
256
6
ByLayer
370
13
48
1
60
0
100
AcDbLine
10
1.5875
20
12.4625
30
0
11
56.025
21
12.4625
31
0
39
0
210
0
220
0
230
1
0
LINE
5
1A2
100
AcDbEntity
8
2
62
256
6
ByLayer
370
13
48
1
60
0
100
AcDbLine
10
52.85
20
-19.5375
30
0
11
52.85
21
12.4625
31
0
39
0
210
0
220
0
230
1
0
LINE
5
1A3
100
AcDbEntity
8
2
62
256
6
ByLayer
370
13
48
1
60
0
100
AcDbLine
10
52.85
20
-19.5375
30
0
11
51.999261
21
-16.362503
31
0
39
0
210
0
220
0
230
1
0
LINE
5
1A4
100
AcDbEntity
8
2
62
256
6
ByLayer
370
13
48
1
60
0
100
AcDbLine
10
52.85
20
-19.5375
30
0
11
53.700739
21
-16.362497
31
0
39
0
210
0
220
0
230
1
0
LINE
5
1A5
100
AcDbEntity
8
2
62
256
6
ByLayer
370
13
48
1
60
0
100
AcDbLine
10
51.999261
20
-16.362503
30
0
11
53.700739
21
-16.362497
31
0
39
0
210
0
220
0
230
1
0
LINE
5
1A6
100
AcDbEntity
8
2
62
256
6
ByLayer
370
13
48
1
60
0
100
AcDbLine
10
52.85
20
12.4625
30
0
11
53.700739
21
9.287503
31
0
39
0
210
0
220
0
230
1
0
LINE
5
1A7
100
AcDbEntity
8
2
62
256
6
ByLayer
370
13
48
1
60
0
100
AcDbLine
10
52.85
20
12.4625
30
0
11
51.999261
21
9.287497
31
0
39
0
210
0
220
0
230
1
0
LINE
5
1A8
100
AcDbEntity
8
2
62
256
6
ByLayer
370
13
48
1
60
0
100
AcDbLine
10
53.700739
20
9.287503
30
0
11
51.999261
21
9.287497
31
0
39
0
210
0
220
0
230
1
0
ENDBLK
5
1AA
100
AcDbEntity
8
0
100
AcDbBlockEnd
0
ENDSEC
0
SECTION
2
ENTITIES
0
ARC
5
D0
100
AcDbEntity
8
SK1
62
256
6
ByLayer
370
13
48
1
60
0
100
AcDbCircle
39
0
10
1.317366
20
-13.9625
30
0
40
1.50000000011013
210
0
220
0
230
-1
100
AcDbArc
50
136.94479
51
151.431291
0
ARC
5
D1
100
AcDbEntity
8
1
62
256
6
ByLayer
370
13
48
1
60
0
100
AcDbCircle
39
0
10
14.665252
20
-3.419053
30
0
40
1.9652394818269
210
0
220
0
230
1
100
AcDbArc
50
85
51
122.452879
0
ARC
5
D2
100
AcDbEntity
8
1
62
256
6
ByLayer
370
13
48
1
60
0
100
AcDbCircle
39
0
10
-14.665252
20
-3.419053
30
0
40
1.7
210
0
220
0
230
-1
100
AcDbArc
50
65.109095
51
83.324098
0
ARC
5
D3
100
AcDbEntity
8
1
62
256
6
ByLayer
370
13
48
1
60
0
100
AcDbCircle
39
0
10
1.317366
20
-13.9625
30
0
40
1.50000000024309
210
0
220
0
230
-1
100
AcDbArc
50
151.431291
51
165
0
ARC
5
D4
100
AcDbEntity
8
1
62
256
6
ByLayer
370
13
48
1
60
0
100
AcDbCircle
39
0
10
16.469647
20
-6.889522
30
0
40
5.2652394818269
210
0
220
0
230
1
100
AcDbArc
50
65
51
85
0
ARC
5
D5
100
AcDbEntity
8
1
62
256
6
ByLayer
370
13
48
1
60
0
100
AcDbCircle
39
0
10
-16.469647
20
-6.889522
30
0
40
5
210
0
220
0
230
-1
100
AcDbArc
50
105.679684
51
115
0
ARC
5
D6
100
AcDbEntity
8
1
62
256
6
ByLayer
370
13
48
1
60
0
100
AcDbCircle
39
0
10
22.490786
20
-10.797401
30
0
40
5.2652394818269
210
0
220
0
230
1
100
AcDbArc
50
230.440502
51
246
0
ARC
5
D7
100
AcDbEntity
8
1
62
256
6
ByLayer
370
13
48
1
60
0
100
AcDbCircle
39
0
10
-14.884498
20
-2.421998
30
0
40
0.807357296468598
210
0
220
0
230
-1
100
AcDbArc
50
32.782518
51
90
0
ARC
5
D8
100
AcDbEntity
8
1
62
256
6
ByLayer
370
13
48
1
60
0
100
AcDbCircle
39
0
10
-23.03857
20
-10.57607
30
0
40
2.578
210
0
220
0
230
-1
100
AcDbArc
50
179.999992
51
266.506862
0
ARC
5
D9
100
AcDbEntity
8
1
62
256
6
ByLayer
370
13
48
1
60
0
100
AcDbCircle
39
0
10
-23.03857
20
-10.57607
30
0
40
2.578
210
0
220
0
230
-1
100
AcDbArc
50
113.489993
51
179.999992
0
ARC
5
DA
100
AcDbEntity
8
1
62
256
6
ByLayer
370
13
48
1
60
0
100
AcDbCircle
39
0
10
-23.03857
20
-10.57607
30
0
40
2.3603546462382
210
0
220
0
230
-1
100
AcDbArc
50
180.00001
51
253.732507
0
ARC
5
DB
100
AcDbEntity
8
1
62
256
6
ByLayer
370
13
48
1
60
0
100
AcDbCircle
39
0
10
-23.03857
20
-10.57607
30
0
40
2.3603546462382
210
0
220
0
230
-1
100
AcDbArc
50
126.264386
51
135
0
ARC
5
DC
100
AcDbEntity
8
1
62
256
6
ByLayer
370
13
48
1
60
0
100
AcDbCircle
39
0
10
-23.03857
20
-10.57607
30
0
40
2.3603546462382
210
0
220
0
230
-1
100
AcDbArc
50
135
51
179.999995
0
ARC
5
DD
100
AcDbEntity
8
1
62
256
6
ByLayer
370
13
48
1
60
0
100
AcDbCircle
39
0
10
23.03857
20
-10.57607
30
0
40
2.39894876836046
210
0
220
0
230
1
100
AcDbArc
50
283.398756
51
56.604377
0
ARC
5
DE
100
AcDbEntity
8
1
62
256
6
ByLayer
370
13
48
1
60
0
100
AcDbCircle
39
0
10
-23.03857
20
-10.57607
30
0
40
5.51786771999517
210
0
220
0
230
-1
100
AcDbArc
50
295
51
310.125005
0
ARC
5
DF
100
AcDbEntity
8
1
62
256
6
ByLayer
370
13
48
1
60
0
100
AcDbCircle
39
0
10
-8.682043
20
-8.044627
30
0
40
1.175
210
0
220
0
230
-1
100
AcDbArc
50
336.376394
51
343.623606
0
ARC
5
E0
100
AcDbEntity
8
1
62
256
6
ByLayer
370
13
48
1
60
0
100
AcDbCircle
39
0
10
8.252807
20
-6.865313
30
0
40
0.38
210
0
220
0
230
1
100
AcDbArc
50
28.784897
51
191.215103
0
ARC
5
E1
100
AcDbEntity
8
1
62
256
6
ByLayer
370
13
48
1
60
0
100
AcDbCircle
39
0
10
-9.900906
20
-9.067374
30
0
40
0.425
210
0
220
0
230
-1
100
AcDbArc
50
50.063185
51
91.215103
0
ARC
5
E2
100
AcDbEntity
8
1
62
256
6
ByLayer
370
13
48
1
60
0
100
AcDbCircle
39
0
10
-8.958337
20
-6.477687
30
0
40
0.425
210
0
220
0
230
-1
100
AcDbArc
50
228.784897
51
269.936815
0
ARC
5
E3
100
AcDbEntity
8
1
62
256
6
ByLayer
370
13
48
1
60
0
100
AcDbCircle
39
0
10
-8.682043
20
-8.044627
30
0
40
1.175
210
0
220
0
230
-1
100
AcDbArc
50
216.376394
51
223.623606
0
ARC
5
E5
100
AcDbEntity
8
1
62
256
6
ByLayer
370
13
48
1
60
0
100
AcDbCircle
39
0
10
9.111278
20
-9.223941
30
0
40
0.38
210
0
220
0
230
1
100
AcDbArc
50
208.784897
51
11.215103
0
ARC
5
E6
100
AcDbEntity
8
1
62
256
6
ByLayer
370
13
48
1
60
0
100
AcDbCircle
39
0
10
9.917976
20
-8.262555
30
0
40
0.38
210
0
220
0
230
1
100
AcDbArc
50
268.784897
51
71.215103
0
ARC
5
E9
100
AcDbEntity
8
1
62
256
6
ByLayer
370
13
48
1
60
0
100
AcDbCircle
39
0
10
-8.405749
20
-9.611567
30
0
40
0.425
210
0
220
0
230
-1
100
AcDbArc
50
110.063185
51
151.215103
0
ARC
5
EA
100
AcDbEntity
8
1
62
256
6
ByLayer
370
13
48
1
60
0
100
AcDbCircle
39
0
10
-8.682043
20
-8.044627
30
0
40
1.175
210
0
220
0
230
-1
100
AcDbArc
50
156.376394
51
163.623606
0
ARC
5
EB
100
AcDbEntity
8
1
62
256
6
ByLayer
370
13
48
1
60
0
100
AcDbCircle
39
0
10
-8.682043
20
-8.044627
30
0
40
1.175
210
0
220
0
230
-1
100
AcDbArc
50
276.376394
51
283.623606
0
ARC
5
EC
100
AcDbEntity
8
1
62
256
6
ByLayer
370
13
48
1
60
0
100
AcDbCircle
39
0
10
7.446109
20
-7.826699
30
0
40
0.38
210
0
220
0
230
1
100
AcDbArc
50
88.784897
51
251.215103
0
ARC
5
ED
100
AcDbEntity
8
1
62
256
6
ByLayer
370
13
48
1
60
0
100
AcDbCircle
39
0
10
-7.186886
20
-8.58882
30
0
40
0.425
210
0
220
0
230
-1
100
AcDbArc
50
108.784897
51
149.936815
0
ARC
5
EE
100
AcDbEntity
8
1
62
256
6
ByLayer
370
13
48
1
60
0
100
AcDbCircle
39
0
10
-7.46318
20
-7.02188
30
0
40
0.425
210
0
220
0
230
-1
100
AcDbArc
50
230.063185
51
271.215103
0
ARC
5
EF
100
AcDbEntity
8
1
62
256
6
ByLayer
370
13
48
1
60
0
100
AcDbCircle
39
0
10
7.875344
20
-9.006013
30
0
40
0.38
210
0
220
0
230
1
100
AcDbArc
50
148.784897
51
311.215103
0
ARC
5
F0
100
AcDbEntity
8
1
62
256
6
ByLayer
370
13
48
1
60
0
100
AcDbCircle
39
0
10
-10.177199
20
-7.500434
30
0
40
0.425
210
0
220
0
230
-1
100
AcDbArc
50
350.063185
51
31.215103
0
ARC
5
F1
100
AcDbEntity
8
1
62
256
6
ByLayer
370
13
48
1
60
0
100
AcDbCircle
39
0
10
-8.405749
20
-9.611567
30
0
40
0.425
210
0
220
0
230
-1
100
AcDbArc
50
48.784897
51
89.936815
0
ARC
5
F2
100
AcDbEntity
8
1
62
256
6
ByLayer
370
13
48
1
60
0
100
AcDbCircle
39
0
10
-10.177199
20
-7.500434
30
0
40
0.425
210
0
220
0
230
-1
100
AcDbArc
50
288.784897
51
329.936815
0
ARC
5
F3
100
AcDbEntity
8
1
62
256
6
ByLayer
370
13
48
1
60
0
100
AcDbCircle
39
0
10
-8.682043
20
-8.044627
30
0
40
1.175
210
0
220
0
230
-1
100
AcDbArc
50
96.376394
51
103.623606
0
ARC
5
F4
100
AcDbEntity
8
1
62
256
6
ByLayer
370
13
48
1
60
0
100
AcDbCircle
39
0
10
-7.46318
20
-7.02188
30
0
40
0.425
210
0
220
0
230
-1
100
AcDbArc
50
168.784897
51
209.936815
0
ARC
5
F5
100
AcDbEntity
8
1
62
256
6
ByLayer
370
13
48
1
60
0
100
AcDbCircle
39
0
10
-8.682043
20
-8.044627
30
0
40
1.175
210
0
220
0
230
-1
100
AcDbArc
50
36.376394
51
43.623606
0
ARC
5
F6
100
AcDbEntity
8
1
62
256
6
ByLayer
370
13
48
1
60
0
100
AcDbCircle
39
0
10
-7.186886
20
-8.58882
30
0
40
0.425
210
0
220
0
230
-1
100
AcDbArc
50
170.063185
51
211.215103
0
ARC
5
F7
100
AcDbEntity
8
1
62
256
6
ByLayer
370
13
48
1
60
0
100
AcDbCircle
39
0
10
9.488741
20
-7.083241
30
0
40
0.38
210
0
220
0
230
1
100
AcDbArc
50
328.784897
51
131.215103
0
ARC
5
F8
100
AcDbEntity
8
1
62
256
6
ByLayer
370
13
48
1
60
0
100
AcDbCircle
39
0
10
-8.958337
20
-6.477687
30
0
40
0.425
210
0
220
0
230
-1
100
AcDbArc
50
290.063185
51
331.215103
0
ARC
5
F9
100
AcDbEntity
8
1
62
256
6
ByLayer
370
13
48
1
60
0
100
AcDbCircle
39
0
10
-9.900906
20
-9.067374
30
0
40
0.425
210
0
220
0
230
-1
100
AcDbArc
50
348.784897
51
29.936815
0
ARC
5
FA
100
AcDbEntity
8
1
62
256
6
ByLayer
370
13
48
1
60
0
100
AcDbCircle
39
0
10
-23.168565
20
-10.598992
30
0
40
2.19999999999974
210
0
220
0
230
-1
100
AcDbArc
50
141
51
190
0
ARC
5
FB
100
AcDbEntity
8
1
62
256
6
ByLayer
370
13
48
1
60
0
100
AcDbCircle
39
0
10
-23.168565
20
-10.598992
30
0
40
2.2000000000004
210
0
220
0
230
-1
100
AcDbArc
50
190
51
239
0
ARC
5
FC
100
AcDbEntity
8
1
62
256
6
ByLayer
370
13
48
1
60
0
100
AcDbCircle
39
0
10
-26.886174
20
-17.644182
30
0
40
5.0073572964686
210
0
220
0
230
-1
100
AcDbArc
50
155
51
175
0
ARC
5
FD
100
AcDbEntity
8
1
62
256
6
ByLayer
370
13
48
1
60
0
100
AcDbCircle
39
0
10
-31.192643
20
-18.730143
30
0
40
0.807357296468598
210
0
220
0
230
-1
100
AcDbArc
50
180
51
270
0
ARC
5
FE
100
AcDbEntity
8
1
62
256
6
ByLayer
370
13
48
1
60
0
100
AcDbCircle
39
0
10
-29.992643
20
-18.730143
30
0
40
2.00735729646859
210
0
220
0
230
-1
100
AcDbArc
50
175
51
180
0
ARC
5
FF
100
AcDbEntity
8
1
62
256
6
ByLayer
370
13
48
1
60
0
100
AcDbCircle
39
0
10
-31.192643
20
-17.530143
30
0
40
2.00735729646859
210
0
220
0
230
-1
100
AcDbArc
50
270
51
275
0
ARC
5
100
100
AcDbEntity
8
1
62
256
6
ByLayer
370
13
48
1
60
0
100
AcDbCircle
39
0
10
22.991115
20
-1.175229
30
0
40
2.9926427035314
210
0
220
0
230
1
100
AcDbArc
50
245
51
249.447849
0
ARC
5
101
100
AcDbEntity
8
1
62
256
6
ByLayer
370
13
48
1
60
0
100
AcDbCircle
39
0
10
-14.884498
20
-3.621998
30
0
40
2.00735729646859
210
0
220
0
230
-1
100
AcDbArc
50
90
51
95
0
ARC
5
102
100
AcDbEntity
8
1
62
256
6
ByLayer
370
13
48
1
60
0
100
AcDbCircle
39
0
10
32.439411
20
-10.623526
30
0
40
2.9926427035314
210
0
220
0
230
1
100
AcDbArc
50
200.552151
51
205
0
ARC
5
103
100
AcDbEntity
8
1
62
256
6
ByLayer
370
13
48
1
60
0
100
AcDbCircle
39
0
10
23.086026
20
-19.976911
30
0
40
2.9926427035314
210
0
220
0
230
1
100
AcDbArc
50
65
51
69.447849
0
ARC
5
104
100
AcDbEntity
8
1
62
256
6
ByLayer
370
13
48
1
60
0
100
AcDbCircle
39
0
10
-30.106682
20
-14.423674
30
0
40
5.0073572964686
210
0
220
0
230
-1
100
AcDbArc
50
275
51
295
0
ARC
5
105
100
AcDbEntity
8
1
62
256
6
ByLayer
370
13
48
1
60
0
100
AcDbCircle
39
0
10
-15.970458
20
-6.728466
30
0
40
5.0073572964686
210
0
220
0
230
-1
100
AcDbArc
50
95
51
115
0
ARC
5
106
100
AcDbEntity
8
1
62
256
6
ByLayer
370
13
48
1
60
0
100
AcDbCircle
39
0
10
-23.03857
20
-10.57607
30
0
40
5.51786771999517
210
0
220
0
230
-1
100
AcDbArc
50
115
51
155
0
CIRCLE
5
E4
100
AcDbEntity
8
1
62
256
6
ByLayer
370
13
48
1
60
0
100
AcDbCircle
10
8.682043
20
-8.044627
30
0
40
4
39
0
210
0
220
0
230
1
0
CIRCLE
5
E7
100
AcDbEntity
8
1
62
256
6
ByLayer
370
13
48
1
60
0
100
AcDbCircle
10
-8.682043
20
-8.044627
30
0
40
2.3
39
0
210
0
220
0
230
-1
0
CIRCLE
5
E8
100
AcDbEntity
8
1
62
256
6
ByLayer
370
13
48
1
60
0
100
AcDbCircle
10
-8.682043
20
-8.044627
30
0
40
1.15
39
0
210
0
220
0
230
-1
0
ELLIPSE
5
107
100
AcDbEntity
8
SK1
62
256
6
ByLayer
370
13
48
1
60
0
100
AcDbEllipse
10
-1.382244
20
0.837965
30
0
11
-0.868240888334652
21
-4.92403876506104
31
0
210
0
220
0
230
1
40
0.707107
41
2.99055525635756
42
3.10184870085188
0
ELLIPSE
5
108
100
AcDbEntity
8
SK1
62
256
6
ByLayer
370
13
48
1
60
0
100
AcDbEllipse
10
-0.967181
20
0.764778
30
0
11
6.96364240320019
21
-1.22787803968973
31
0
210
0
220
0
230
-1
40
0.707107
41
-1.69028910049812
42
-1.55657508595894
0
ELLIPSE
5
109
100
AcDbEntity
8
SK1
62
256
6
ByLayer
370
13
48
1
60
0
100
AcDbEllipse
10
-2.078609
20
0.960752
30
0
11
0.694592710667721
21
3.93923101204883
31
0
210
0
220
0
230
1
40
0.707107
41
-0.565295859815304
42
0.410437757807203
0
ELLIPSE
5
10A
100
AcDbEntity
8
1
62
256
6
ByLayer
370
13
48
1
60
0
100
AcDbEllipse
10
-2.078609
20
0.960752
30
0
11
0.694592710667721
21
3.93923101204883
31
0
210
0
220
0
230
1
40
0.707107
41
-1.5707963267949
42
-0.565295859815304
0
ELLIPSE
5
10B
100
AcDbEntity
8
1
62
256
6
ByLayer
370
13
48
1
60
0
100
AcDbEllipse
10
-64.264537
20
-49.420791
30
0
11
70.7214493379359
21
70.721449337936
31
0
210
0
220
0
230
-1
40
0.999848
41
0.209408536054998
42
0.327672556145778
0
ELLIPSE
5
10C
100
AcDbEntity
8
1
62
256
6
ByLayer
370
13
48
1
60
0
100
AcDbEllipse
10
-0.967181
20
0.764778
30
0
11
6.96364240320019
21
-1.22787803968973
31
0
210
0
220
0
230
-1
40
0.707107
41
-1.55657508595894
42
-0.0400330746454023
0
ELLIPSE
5
10D
100
AcDbEntity
8
1
62
256
6
ByLayer
370
13
48
1
60
0
100
AcDbEllipse
10
-1.382244
20
0.837965
30
0
11
-0.868240888334652
21
-4.92403876506104
31
0
210
0
220
0
230
1
40
0.707107
41
1.5707963267949
42
2.99055525635756
0
ELLIPSE
5
10E
100
AcDbEntity
8
1
62
256
6
ByLayer
370
13
48
1
60
0
100
AcDbEllipse
10
25.707539
20
-17.824814
30
0
11
0.499999394288314
21
-0.017651088302345
31
0
210
0
220
0
230
-1
40
0.044092
41
3.1400361045861
42
-2.01568603277008
0
ELLIPSE
5
10F
100
AcDbEntity
8
1
62
256
6
ByLayer
370
13
48
1
60
0
100
AcDbEllipse
10
-61.622603
20
-46.779421
30
0
11
16.174229442511
21
-100.715232719176
31
0
210
0
220
0
230
-1
40
0.941586
41
-1.84099120818983
42
-1.83751324780002
0
ELLIPSE
5
110
100
AcDbEntity
8
1
62
256
6
ByLayer
370
13
48
1
60
0
100
AcDbEllipse
10
2.51309
20
-11.221666
30
0
11
-2.97661046204352
21
0.524856735517363
31
0
210
-8.54184564237123E-16
220
1.50615785179708E-16
230
1
40
0.992546
41
0
42
1.05168906306426
0
ELLIPSE
5
111
100
AcDbEntity
8
1
62
256
6
ByLayer
370
13
48
1
60
0
100
AcDbEllipse
10
3.920354
20
-11.469805
30
0
11
3.07230256557735
21
1.75516444401623
31
0
210
0
220
0
230
-1
40
0.724269
41
2.42492639399577
42
2.78454212735231
0
ELLIPSE
5
112
100
AcDbEntity
8
1
62
256
6
ByLayer
370
13
48
1
60
0
100
AcDbEllipse
10
5.200156
20
-12.300296
30
0
11
5.41644253445732
21
-0.955064946167996
31
0
210
0
220
0
230
-1
40
0.240328
41
-2.73264228392667
42
-2.67964997858219
0
ELLIPSE
5
113
100
AcDbEntity
8
1
62
256
6
ByLayer
370
13
48
1
60
0
100
AcDbEllipse
10
9.407217
20
-8.172495
30
0
11
-0.72063993731776
21
-4.08695217500066
31
0
210
0
220
0
230
1
40
0.999848
41
0
42
3.14159265358977
0
ELLIPSE
5
114
100
AcDbEntity
8
1
62
256
6
ByLayer
370
13
48
1
60
0
100
AcDbEllipse
10
2.216895
20
-11.176067
30
0
11
-0.913637607830417
21
1.77911953548881
31
0
210
0
220
0
230
1
40
0.848036
41
0.999163139676882
42
2.41183863393649
0
ELLIPSE
5
115
100
AcDbEntity
8
1
62
256
6
ByLayer
370
13
48
1
60
0
100
AcDbEllipse
10
3.677806
20
-2.890825
30
0
11
1.46703323667211
21
1.35934303341701
31
0
210
0
220
0
230
1
40
0.848036
41
0.729754019653309
42
2.14242951391291
0
ELLIPSE
5
116
100
AcDbEntity
8
1
62
256
6
ByLayer
370
13
48
1
60
0
100
AcDbEllipse
10
4.875257
20
-14.142889
30
0
11
3.44682713554396
21
-0.607768621834501
31
0
210
0
220
0
230
-1
40
0.377658
41
2.88031721715676
42
-2.67964998362415
0
ELLIPSE
5
117
100
AcDbEntity
8
1
62
256
6
ByLayer
370
13
48
1
60
0
100
AcDbEllipse
10
7.190563
20
-1.012138
30
0
11
3.44682713554246
21
-0.607768621834224
31
0
210
0
220
0
230
-1
40
0.377658
41
2.67964998362404
42
-2.88031721715675
0
ELLIPSE
5
118
100
AcDbEntity
8
1
62
256
6
ByLayer
370
13
48
1
60
0
100
AcDbEllipse
10
3.971734
20
-2.949281
30
0
11
-2.97661046204355
21
0.524856735517368
31
-2.62162641975114E-15
210
8.54184564237123E-16
220
-1.50615785179708E-16
230
-1
40
0.992546
41
0
42
1.05168906306425
0
ELLIPSE
5
119
100
AcDbEntity
8
1
62
256
6
ByLayer
370
13
48
1
60
0
100
AcDbEllipse
10
6.865664
20
-2.854731
30
0
11
5.41644254194424
21
-0.955064970426412
31
0
210
0
220
0
230
-1
40
0.240328
41
2.67964997910839
42
2.73264228439135
0
ELLIPSE
5
11A
100
AcDbEntity
8
1
62
256
6
ByLayer
370
13
48
1
60
0
100
AcDbEllipse
10
5.378999
20
-3.19742
30
0
11
2.28671845499247
21
-2.70010444015909
31
0
210
0
220
0
230
-1
40
0.724269
41
-2.78454212735761
42
-2.42492639400256
0
POINT
5
6C
100
AcDbEntity
8
80
62
256
6
ByLayer
370
18
48
1
60
0
100
AcDbPoint
10
0
20
0
30
0
39
0
210
0
220
0
230
1
50
360
0
POINT
5
6E
100
AcDbEntity
8
81
62
256
6
ByLayer
370
18
48
1
60
0
100
AcDbPoint
10
32
20
-19.5375
30
0
39
0
210
0
220
0
230
1
50
360
0
SPLINE
5
11B
100
AcDbEntity
8
SK1
62
256
6
ByLayer
370
13
48
1
60
0
100
AcDbSpline
70
4
71
3
72
20
73
16
40
0
40
0
40
0
40
0
40
0.25
40
0.25
40
0.375
40
0.375
40
0.5
40
0.5
40
0.625
40
0.625
40
0.75
40
0.75
40
0.875
40
0.875
40
1
40
1
40
1
40
1
41
1
10
-0.221322117548738
20
-12.9384458439008
30
0
41
1
10
-0.280139051889336
20
-12.8754941292397
30
0
41
1
10
-0.34946968453977
20
-12.8123246874763
30
0
41
1
10
-0.46866956373367
20
-12.7247013506098
30
0
41
1
10
-0.511424697392471
20
-12.6963323607568
30
0
41
1
10
-0.601354198149664
20
-12.6433908131598
30
0
41
1
10
-0.648288882659074
20
-12.6189074071582
30
0
41
1
10
-0.74645942964662
20
-12.5743461856081
30
0
41
1
10
-0.798090204974159
20
-12.5541917110295
30
0
41
1
10
-0.901833400197944
20
-12.5201712125454
30
0
41
1
10
-0.954361933070402
20
-12.5060727250056
30
0
41
1
10
-1.06069492575847
20
-12.483624614361
30
0
41
1
10
-1.11408513554514
20
-12.4754303483426
30
0
41
1
10
-1.21746510179204
20
-12.4649289153729
30
0
41
1
10
-1.26801364463017
20
-12.4625
30
0
41
1
10
-1.31736640742818
20
-12.4625
30
0
0
SPLINE
5
11C
100
AcDbEntity
8
SK1
62
256
6
ByLayer
370
13
48
1
60
0
100
AcDbSpline
70
4
71
3
72
24
73
20
40
0
40
0
40
0
40
0
40
0.0625
40
0.0625
40
0.125
40
0.125
40
0.25
40
0.25
40
0.375
40
0.375
40
0.5
40
0.5
40
0.625
40
0.625
40
0.75
40
0.75
40
0.875
40
0.875
40
1
40
1
40
1
40
1
41
1
10
-2.55313184934042
20
4.76879013906282
30
0
41
1
10
-2.54555379806052
20
4.81176740351466
30
0
41
1
10
-2.53449673557176
20
4.85461655365006
30
0
41
1
10
-2.50696571627682
20
4.93733762815515
30
0
41
1
10
-2.49045555800359
20
4.97753609490934
30
0
41
1
10
-2.43362095684023
20
5.09503896461592
30
0
41
1
10
-2.38566679674966
20
5.16955465995119
30
0
41
1
10
-2.27662438776679
20
5.30612549548826
30
0
41
1
10
-2.21458087252074
20
5.36935662098605
30
0
41
1
10
-2.08240478047898
20
5.48200351602321
30
0
41
1
10
-2.01196462956222
20
5.5319458808217
30
0
41
1
10
-1.86314068445984
20
5.6201835922493
30
0
41
1
10
-1.78399147091923
20
5.65873145613602
30
0
41
1
10
-1.62160937799729
20
5.72242314892964
30
0
41
1
10
-1.53872071408307
20
5.74759370406613
30
0
41
1
10
-1.36969654606801
20
5.78516774253529
30
0
41
1
10
-1.28314054723001
20
5.79759271767657
30
0
41
1
10
-1.10847920506569
20
5.80894521187111
30
0
41
1
10
-1.02163018722092
20
5.80785844455744
30
0
41
1
10
-0.935257881834559
20
5.80007803755538
30
0
0
SPLINE
5
11D
100
AcDbEntity
8
SK1
62
256
6
ByLayer
370
13
48
1
60
0
100
AcDbSpline
70
4
71
3
72
22
73
18
40
0
40
0
40
0
40
0
40
0.144561280394237
40
0.144561280394237
40
0.216841920591355
40
0.216841920591355
40
0.289122560788474
40
0.289122560788474
40
0.433683841182714
40
0.433683841182714
40
0.578245121576953
40
0.578245121576953
40
0.722806401971193
40
0.722806401971193
40
0.867367682365432
40
0.867367682365432
40
1
40
1
40
1
40
1
41
1
10
-2.84E-14
20
4.02406505805075
30
0
41
1
10
-2.84E-14
20
4.12585056091157
30
0
41
1
10
-2.84E-14
20
4.2251175477447
30
0
41
1
10
-2.84E-14
20
4.37088312904766
30
0
41
1
10
-2.84E-14
20
4.41905741452297
30
0
41
1
10
-2.84E-14
20
4.5127959982259
30
0
41
1
10
-2.84E-14
20
4.55855503047582
30
0
41
1
10
-2.84E-14
20
4.69268897295618
30
0
41
1
10
-2.84E-14
20
4.77794666886521
30
0
41
1
10
-2.84E-14
20
4.94032498113336
30
0
41
1
10
-2.84E-14
20
5.01765616590117
30
0
41
1
10
-2.84E-14
20
5.15918031046814
30
0
41
1
10
-2.84E-14
20
5.22403840274751
30
0
41
1
10
-2.84E-14
20
5.34166945877104
30
0
41
1
10
-2.84E-14
20
5.39483283421379
30
0
41
1
10
-2.84E-14
20
5.48138370728668
30
0
41
1
10
-2.84E-14
20
5.51624432642609
30
0
41
1
10
-2.84E-14
20
5.54427505804927
30
0
0
SPLINE
5
11E
100
AcDbEntity
8
1
62
256
6
ByLayer
370
13
48
1
60
0
100
AcDbSpline
70
4
71
3
72
22
73
18
40
0
40
0
40
0
40
0
40
0.144558544284145
40
0.144558544284145
40
0.216837816426217
40
0.216837816426217
40
0.28911708856829
40
0.28911708856829
40
0.433675632852437
40
0.433675632852437
40
0.578234177136584
40
0.578234177136584
40
0.722792721420732
40
0.722792721420732
40
0.867351265704879
40
0.867351265704879
40
1
40
1
40
1
40
1
41
1
10
-2.84E-14
20
4.02406505805075
30
0
41
1
10
-2.84E-14
20
4.12585056091157
30
0
41
1
10
-2.84E-14
20
4.2251175477447
30
0
41
1
10
-2.84E-14
20
4.37088312904766
30
0
41
1
10
-2.84E-14
20
4.41905741452297
30
0
41
1
10
-2.84E-14
20
4.5127959982259
30
0
41
1
10
-2.84E-14
20
4.55855503047582
30
0
41
1
10
-2.84E-14
20
4.69268897295618
30
0
41
1
10
-2.84E-14
20
4.77794666886521
30
0
41
1
10
-2.84E-14
20
4.94032498113336
30
0
41
1
10
-2.84E-14
20
5.01765616590117
30
0
41
1
10
-2.84E-14
20
5.15918031046814
30
0
41
1
10
-2.84E-14
20
5.22403840274751
30
0
41
1
10
-2.84E-14
20
5.34166945877104
30
0
41
1
10
-2.84E-14
20
5.39483283421379
30
0
41
1
10
-2.84E-14
20
5.4813896171585
30
0
41
1
10
-2.84E-14
20
5.5162542758907
30
0
41
1
10
-2.84E-14
20
5.5442870580433
30
0
0
SPLINE
5
11F
100
AcDbEntity
8
1
62
256
6
ByLayer
370
13
48
1
60
0
100
AcDbSpline
70
4
71
3
72
10
73
6
40
0
40
0
40
0
40
0
40
0.5
40
0.5
40
1
40
1
40
1
40
1
41
1
10
7.73600531744387
20
-7.34774952676872
30
0
41
1
10
7.75412690286794
20
-7.33257773477149
30
0
41
1
10
7.77229820170788
20
-7.31467510702856
30
0
41
1
10
7.80527991405273
20
-7.2753572291989
30
0
41
1
10
7.81971887253735
20
-7.2543871943306
30
0
41
1
10
7.83147470091649
20
-7.2339735460329
30
0
0
SPLINE
5
120
100
AcDbEntity
8
1
62
256
6
ByLayer
370
13
48
1
60
0
100
AcDbSpline
70
4
71
3
72
10
73
6
40
0
40
0
40
0
40
0
40
0.5
40
0.5
40
1
40
1
40
1
40
1
41
1
10
8.55154781939399
20
-9.21235817941098
30
0
41
1
10
8.52915214625546
20
-9.20417884014594
30
0
41
1
10
8.5045975754299
20
-9.19743849415877
30
0
41
1
10
8.45444033377083
20
-9.18859818111812
30
0
41
1
10
8.42909571802943
20
-9.18654099484505
30
0
41
1
10
8.40528023800243
20
-9.18656725840867
30
0
0
SPLINE
5
121
100
AcDbEntity
8
1
62
256
6
ByLayer
370
13
48
1
60
0
100
AcDbSpline
70
4
71
3
72
10
73
6
40
0
40
0
40
0
40
0
40
0.5
40
0.5
40
1
40
1
40
1
40
1
41
1
10
9.62808012693125
20
-8.7415044963733
30
0
41
1
10
9.60995854150718
20
-8.75667628837053
30
0
41
1
10
9.59178724266729
20
-8.77457891611343
30
0
41
1
10
9.55880553032245
20
-8.81389679394312
30
0
41
1
10
9.54436657183783
20
-8.83486682881139
30
0
41
1
10
9.53261074345863
20
-8.85528047710912
30
0
0
SPLINE
5
122
100
AcDbEntity
8
1
62
256
6
ByLayer
370
13
48
1
60
0
100
AcDbSpline
70
4
71
3
72
10
73
6
40
0
40
0
40
0
40
0
40
0.5
40
0.5
40
1
40
1
40
1
40
1
41
1
10
9.75857502972326
20
-7.57377332853369
30
0
41
1
10
9.76264001598582
20
-7.59697661330952
30
0
41
1
10
9.76903602439444
20
-7.62162041498325
30
0
41
1
10
9.78658118989523
20
-7.66984754462806
30
0
41
1
10
9.79753356601861
20
-7.69288546204439
30
0
41
1
10
9.80937322764521
20
-7.71334023027231
30
0
0
SPLINE
5
123
100
AcDbEntity
8
1
62
256
6
ByLayer
370
13
48
1
60
0
100
AcDbSpline
70
4
71
3
72
10
73
6
40
0
40
0
40
0
40
0
40
0.5
40
0.5
40
1
40
1
40
1
40
1
41
1
10
7.60551041465192
20
-8.51548069460833
30
0
41
1
10
7.60144542838935
20
-8.4922774098325
30
0
41
1
10
7.59504941998074
20
-8.46763360815876
30
0
41
1
10
7.57750425447995
20
-8.41940647851393
30
0
41
1
10
7.56655187835651
20
-8.3963685610976
30
0
41
1
10
7.55471221672997
20
-8.37591379286968
30
0
0
SPLINE
5
124
100
AcDbEntity
8
1
62
256
6
ByLayer
370
13
48
1
60
0
100
AcDbSpline
70
4
71
3
72
10
73
6
40
0
40
0
40
0
40
0
40
0.5
40
0.5
40
1
40
1
40
1
40
1
41
1
10
8.81253762498119
20
-6.87689584373103
30
0
41
1
10
8.83493329811972
20
-6.88507518299608
30
0
41
1
10
8.85948786894528
20
-6.89181552898324
30
0
41
1
10
8.90964511060429
20
-6.90065584202389
30
0
41
1
10
8.93498972634575
20
-6.90271302829697
30
0
41
1
10
8.95880520637274
20
-6.90268676473335
30
0
0
SPLINE
5
125
100
AcDbEntity
8
1
62
256
6
ByLayer
370
13
48
1
60
0
100
AcDbSpline
70
4
71
3
72
26
73
22
40
0
40
0
40
0
40
0
40
0.25
40
0.25
40
0.375000000000002
40
0.375000000000002
40
0.500000000000004
40
0.500000000000004
40
0.625000000000006
40
0.625000000000006
40
0.687500000000005
40
0.687500000000005
40
0.750000000000004
40
0.750000000000004
40
0.812500000000003
40
0.812500000000003
40
0.875000000000002
40
0.875000000000002
40
0.937500000000001
40
0.937500000000001
40
1
40
1
40
1
40
1
41
1
10
21.0233576990003
20
-10.8524686608929
30
0
41
1
10
20.8652215689437
20
-10.9085382245941
30
0
41
1
10
20.7069415022747
20
-10.9710375774695
30
0
41
1
10
20.4691363955634
20
-11.0819852328862
30
0
41
1
10
20.3901943787751
20
-11.1217363721894
30
0
41
1
10
20.2347366987117
20
-11.2086224562466
30
0
41
1
10
20.1580271548447
20
-11.2557596724338
30
0
41
1
10
20.0080312731771
20
-11.3624406259224
30
0
41
1
10
19.937071120645
20
-11.4202679984743
30
0
41
1
10
19.8412329132277
20
-11.5174493302988
30
0
41
1
10
19.8115409473738
20
-11.5512328564679
30
0
41
1
10
19.7591100085036
20
-11.6204866153169
30
0
41
1
10
19.7360827605382
20
-11.6564944395577
30
0
41
1
10
19.6999367497351
20
-11.7271872019075
30
0
41
1
10
19.6863682846977
20
-11.7626382945766
30
0
41
1
10
19.6693212506427
20
-11.8312572227798
30
0
41
1
10
19.6658865352505
20
-11.8637546600356
30
0
41
1
10
19.6676858233405
20
-11.925662766297
30
0
41
1
10
19.6729881375259
20
-11.9547663468416
30
0
41
1
10
19.6901350362288
20
-12.0083294027657
30
0
41
1
10
19.7019965305851
20
-12.033107867484
30
0
41
1
10
19.7164971491644
20
-12.0562785887804
30
0
0
SPLINE
5
126
100
AcDbEntity
8
1
62
256
6
ByLayer
370
13
48
1
60
0
100
AcDbSpline
70
4
71
3
72
24
73
20
40
0
40
0
40
0
40
0
40
0.125000000000001
40
0.125000000000001
40
0.250000000000002
40
0.250000000000002
40
0.375000000000003
40
0.375000000000003
40
0.500000000000004
40
0.500000000000004
40
0.625000000000005
40
0.625000000000005
40
0.750000000000006
40
0.750000000000006
40
0.812500000000005
40
0.812500000000005
40
0.875000000000004
40
0.875000000000004
40
1
40
1
40
1
40
1
41
1
10
11.1700821703649
20
-4.35762869712136
30
0
41
1
10
11.3459931735089
20
-4.42716674754354
30
0
41
1
10
11.5176107836927
20
-4.50872440426099
30
0
41
1
10
11.8450870324555
20
-4.69134239560029
30
0
41
1
10
12.0016038458064
20
-4.79255844223911
30
0
41
1
10
12.3005281715351
20
-5.01409129408111
30
0
41
1
10
12.4431039951986
20
-5.13455441078005
30
0
41
1
10
12.713305684813
20
-5.39467854608827
30
0
41
1
10
12.8392181454735
20
-5.53264164466486
30
0
41
1
10
13.0729132371694
20
-5.82489516044876
30
0
41
1
10
13.1799472941548
20
-5.97839635334154
30
0
41
1
10
13.3721191390337
20
-6.29733837563256
30
0
41
1
10
13.4576656385494
20
-6.46326356351591
30
0
41
1
10
13.5692796558334
20
-6.72294960121877
30
0
41
1
10
13.6036771588584
20
-6.81138615571246
30
0
41
1
10
13.6657218015773
20
-6.98943291738178
30
0
41
1
10
13.6935123141557
20
-7.07935336464857
30
0
41
1
10
13.7670922862702
20
-7.35186602828159
30
0
41
1
10
13.8031475544695
20
-7.53719330076183
30
0
41
1
10
13.8253095353779
20
-7.72650965024337
30
0
0
SPLINE
5
127
100
AcDbEntity
8
1
62
256
6
ByLayer
370
13
48
1
60
0
100
AcDbSpline
70
4
71
3
72
8
73
4
40
0
40
0
40
0
40
0
40
1
40
1
40
1
40
1
41
1
10
23.8648695750832
20
-12.7117541855066
30
0
41
1
10
23.9441200586119
20
-12.680889394161
30
0
41
1
10
24.023011229618
20
-12.6453534249473
30
0
41
1
10
24.1015319839697
20
-12.6050019206044
30
0
0
SPLINE
5
128
100
AcDbEntity
8
1
62
256
6
ByLayer
370
13
48
1
60
0
100
AcDbSpline
70
4
71
3
72
28
73
24
40
0
40
0
40
0
40
0
40
0.0625000000000004
40
0.0625000000000004
40
0.125000000000001
40
0.125000000000001
40
0.187500000000001
40
0.187500000000001
40
0.250000000000002
40
0.250000000000002
40
0.375000000000002
40
0.375000000000002
40
0.437500000000003
40
0.437500000000003
40
0.500000000000004
40
0.500000000000004
40
0.625000000000003
40
0.625000000000003
40
0.750000000000002
40
0.750000000000002
40
0.875000000000001
40
0.875000000000001
40
1
40
1
40
1
40
1
41
1
10
1.80459676448243
20
-2.49604696030454
30
0
41
1
10
1.82322072206145
20
-2.40751692092238
30
0
41
1
10
1.84502131261141
20
-2.31953195621062
30
0
41
1
10
1.89497901422331
20
-2.14596148148016
30
0
41
1
10
1.92276682523416
20
-2.06156805198714
30
0
41
1
10
1.98371735837236
20
-1.89706389349126
30
0
41
1
10
2.0168792901697
20
-1.81695887923982
30
0
41
1
10
2.08836159903001
20
-1.66081796785082
30
0
41
1
10
2.12656583680675
20
-1.58513974854495
30
0
41
1
10
2.24522573883081
20
-1.36947610872929
30
0
41
1
10
2.33059918820339
20
-1.23872131622517
30
0
41
1
10
2.46546754209393
20
-1.05901979078064
30
0
41
1
10
2.51135663247516
20
-1.00219515157607
30
0
41
1
10
2.6033976721854
20
-0.895479978537907
30
0
41
1
10
2.64974501814734
20
-0.845326657953621
30
0
41
1
10
2.78964119970945
20
-0.703241532268521
30
0
41
1
10
2.88420845121669
20
-0.61942963244158
30
0
41
1
10
3.07581403709816
20
-0.469988355297261
30
0
41
1
10
3.17196330263741
20
-0.404969115847621
30
0
41
1
10
3.36948742343756
20
-0.289858357459849
30
0
41
1
10
3.47087327973341
20
-0.239769350053478
30
0
41
1
10
3.68501489570818
20
-0.153350185735633
30
0
41
1
10
3.79776335528453
20
-0.116989161108933
30
0
41
1
10
3.92000671802816
20
-0.0887440328023388
30
0
0
SPLINE
5
129
100
AcDbEntity
8
1
62
256
6
ByLayer
370
13
48
1
60
0
100
AcDbSpline
70
4
71
3
72
11
73
7
40
0
40
0
40
0
40
0
40
0.100258159507228
40
0.259036131358894
40
0.576592075062225
40
1
40
1
40
1
40
1
41
1.0177432798791
10
19.7164971491749
20
-12.0562785887818
30
0
41
1.01722454828229
10
19.5014764923116
20
-12.0287091500357
30
0
41
1.01635405201136
10
18.9835283207974
20
-11.9839261217452
30
0
41
1.01876555595691
10
17.4299135003251
20
-12.4392845440807
30
0
41
1.02349884684922
10
13.3917726717707
20
-13.6810181818268
30
0
41
1.02767136955276
10
10.2672036373438
20
-14.3857290142468
30
0
41
1.02805999725224
10
9.40919007871792
20
-14.3441440027873
30
0
0
SPLINE
5
12A
100
AcDbEntity
8
1
62
256
6
ByLayer
370
13
48
1
60
0
100
AcDbSpline
70
4
71
3
72
8
73
4
40
0
40
0
40
0
40
0
40
1
40
1
40
1
40
1
41
1
10
22.2880362388706
20
-10.4437307679163
30
0
41
1
10
21.8689913918091
20
-10.5638588159896
30
0
41
1
10
21.4470328953778
20
-10.702150089941
30
0
41
1
10
21.0233576990003
20
-10.8524686608929
30
0
0
SPLINE
5
12B
100
AcDbEntity
8
1
62
256
6
ByLayer
370
13
48
1
60
0
100
AcDbSpline
70
4
71
2
72
6
73
3
40
0
40
0
40
0
40
1
40
1
40
1
41
1.02805999725224
10
11.5198994315614
20
-2.37371642350898
30
0
41
0.930554445970897
10
11.4168779661658
20
-2.95798018723734
30
0
41
0.937301687733887
10
11.1700821698549
20
-4.35762870001341
30
0
0
SPLINE
5
12C
100
AcDbEntity
8
1
62
256
6
ByLayer
370
13
48
1
60
0
100
AcDbSpline
70
4
71
3
72
8
73
4
40
0
40
0
40
0
40
0
40
1
40
1
40
1
40
1
41
1
10
0.321631361490063
20
-10.9063616894171
30
0
41
1
10
0.324905505258698
20
-10.8834137383817
30
0
41
1
10
0.328575334706727
20
-10.8603608086543
30
0
41
1
10
0.332659689672965
20
-10.8371972805894
30
0
0
SPLINE
5
12D
100
AcDbEntity
8
1
62
256
6
ByLayer
370
13
48
1
60
0
100
AcDbSpline
70
4
71
3
72
14
73
10
40
0
40
0
40
0
40
0
40
0.249999999999995
40
0.249999999999995
40
0.374999999999994
40
0.374999999999994
40
0.499999999999993
40
0.499999999999993
40
1
40
1
40
1
40
1
41
1
10
0.584061190516366
20
-13.5264964403007
30
0
41
1
10
0.718661004328396
20
-13.6301307040476
30
0
41
1
10
0.855940885977105
20
-13.7191181388804
30
0
41
1
10
1.06307799400969
20
-13.8346387058839
30
0
41
1
10
1.13254436232029
20
-13.8702316461598
30
0
41
1
10
1.27041488170445
20
-13.9354213508625
30
0
41
1
10
1.33870721510985
20
-13.9649885691908
30
0
41
1
10
1.67640532593828
20
-14.0996497718425
30
0
41
1
10
1.93442892982918
20
-14.165912250155
30
0
41
1
10
2.17464971549165
20
-14.2082696559943
30
0
0
SPLINE
5
12E
100
AcDbEntity
8
1
62
256
6
ByLayer
370
13
48
1
60
0
100
AcDbSpline
70
4
71
3
72
16
73
12
40
0
40
0
40
0
40
0
40
0.250000000000001
40
0.250000000000001
40
0.375
40
0.375
40
0.499999999999998
40
0.499999999999998
40
0.749999999999999
40
0.749999999999999
40
1
40
1
40
1
40
1
41
1
10
13.8253095353779
20
-7.72650965024337
30
0
41
1
10
13.8490903612522
20
-7.92969599593675
30
0
41
1
10
13.8578502928995
20
-8.13279281773779
30
0
41
1
10
13.8490423746948
20
-8.43731537830135
30
0
41
1
10
13.8424329822906
20
-8.53880230886898
30
0
41
1
10
13.8217803899956
20
-8.74173522506985
30
0
41
1
10
13.8076947411161
20
-8.84331999638596
30
0
41
1
10
13.7546087329154
20
-9.14497378706639
30
0
41
1
10
13.7045973852858
20
-9.34345180300528
30
0
41
1
10
13.5761476580531
20
-9.73144549312249
30
0
41
1
10
13.4981702260229
20
-9.91986183276225
30
0
41
1
10
13.4063300477597
20
-10.1026604011649
30
0
0
SPLINE
5
12F
100
AcDbEntity
8
1
62
256
6
ByLayer
370
13
48
1
60
0
100
AcDbSpline
70
4
71
3
72
8
73
4
40
0
40
0
40
0
40
0
40
1
40
1
40
1
40
1
41
1
10
24.7313630777782
20
-9.03305228885839
30
0
41
1
10
24.6716996825089
20
-8.96862517496405
30
0
41
1
10
24.6097414697258
20
-8.90820372254501
30
0
41
1
10
24.5454845834723
20
-8.85179466227035
30
0
0
SPLINE
5
130
100
AcDbEntity
8
1
62
256
6
ByLayer
370
13
48
1
60
0
100
AcDbSpline
70
4
71
3
72
8
73
4
40
0
40
0
40
0
40
0
40
1
40
1
40
1
40
1
41
1
10
1.80459676448243
20
-2.49604696030457
30
0
41
1
10
1.79982479171903
20
-2.51873080367571
30
0
41
1
10
1.79538873704143
20
-2.54164862722192
30
0
41
1
10
1.7913043820752
20
-2.5648121552868
30
0
0
SPLINE
5
131
100
AcDbEntity
8
1
62
256
6
ByLayer
370
13
48
1
60
0
100
AcDbSpline
70
4
71
3
72
16
73
12
40
0
40
0
40
0
40
0
40
0.250000000000004
40
0.250000000000004
40
0.375000000000005
40
0.375000000000005
40
0.500000000000006
40
0.500000000000006
40
0.750000000000003
40
0.750000000000003
40
1
40
1
40
1
40
1
41
1
10
21.1448731399836
20
-5.36735139507104
30
0
41
1
10
20.9745262350203
20
-5.31325728863055
30
0
41
1
10
20.8002686326384
20
-5.25303434126752
30
0
41
1
10
20.5343523945874
20
-5.15072638643602
30
0
41
1
10
20.4449940993048
20
-5.11451020006101
30
0
41
1
10
20.2653376575518
20
-5.03647935917678
30
0
41
1
10
20.1758892382368
20
-4.99487893017445
30
0
41
1
10
19.909692862164
20
-4.8641299341044
30
0
41
1
10
19.7343365660145
20
-4.76899720536878
30
0
41
1
10
19.385619777475
20
-4.56757044379265
30
0
41
1
10
19.2122586156444
20
-4.46126770097399
30
0
41
1
10
19.0395286876434
20
-4.35011952458919
30
0
0
SPLINE
5
132
100
AcDbEntity
8
1
62
256
6
ByLayer
370
13
48
1
60
0
100
AcDbSpline
70
4
71
3
72
12
73
8
40
0
40
0
40
0
40
0
40
0.103595537238353
40
0.300483156475477
40
0.497370775712601
40
0.89114601418685
40
1
40
1
40
1
40
1
41
1.0207667328778
10
21.0233578789421
20
-10.85246868785
30
0
41
1.02005196039548
10
20.7803934311996
20
-10.8160702383761
30
0
41
1.01814069316835
10
20.1186917736253
20
-10.7105863369382
30
0
41
1.01610930227499
10
19.3850623949429
20
-10.5717167819087
30
0
41
1.01876555595691
10
17.7714289411499
20
-10.4703236646923
30
0
41
1.02173322384664
10
15.4049205924787
20
-10.2880260329764
30
0
41
1.02394775681994
10
13.7539501511442
20
-10.1359321674737
30
0
41
1.02441262532196
10
13.4063300478477
20
-10.1026604011733
30
0
0
SPLINE
5
133
100
AcDbEntity
8
1
62
256
6
ByLayer
370
13
48
1
60
0
100
AcDbSpline
70
4
71
3
72
18
73
14
40
0
40
0
40
0
40
0
40
0.125
40
0.125
40
0.250000000000001
40
0.250000000000001
40
0.375000000000001
40
0.375000000000001
40
0.500000000000002
40
0.500000000000002
40
0.750000000000001
40
0.750000000000001
40
1
40
1
40
1
40
1
41
1
10
0.45371766193233
20
-10.8651709760499
30
0
41
1
10
0.535612051723064
20
-10.8420479141777
30
0
41
1
10
0.625113624041518
20
-10.8153546950656
30
0
41
1
10
0.81570086961608
20
-10.7562733283349
30
0
41
1
10
0.917094445563095
20
-10.7238002235249
30
0
41
1
10
1.13140188289023
20
-10.6534847892147
30
0
41
1
10
1.24431811016169
20
-10.6156406578559
30
0
41
1
10
1.48133095610461
20
-10.5348862466933
30
0
41
1
10
1.60604719822993
20
-10.4917576660754
30
0
41
1
10
1.99211417190824
20
-10.3566801500677
30
0
41
1
10
2.26351650768464
20
-10.2597408354107
30
0
41
1
10
2.83144129659985
20
-10.054345969363
30
0
41
1
10
3.12799037302563
20
-9.94586815345397
30
0
41
1
10
3.43693120913744
20
-9.83205174866819
30
0
0
SPLINE
5
134
100
AcDbEntity
8
1
62
256
6
ByLayer
370
13
48
1
60
0
100
AcDbSpline
70
4
71
2
72
6
73
3
40
0
40
0
40
0
40
1
40
1
40
1
41
1.02805999725224
10
11.7144423614751
20
-1.27040864195439
30
0
41
1.02805999725224
10
11.6171708965182
20
-1.82206253273168
30
0
41
1.02805999725224
10
11.5198994315614
20
-2.37371642350898
30
0
0
SPLINE
5
135
100
AcDbEntity
8
1
62
256
6
ByLayer
370
13
48
1
60
0
100
AcDbSpline
70
4
71
3
72
8
73
4
40
0
40
0
40
0
40
0
40
1
40
1
40
1
40
1
41
1
10
22.7337195341194
20
-13.4268665559351
30
0
41
1
10
22.3834216089389
20
-13.6373467841031
30
0
41
1
10
22.0351310279521
20
-13.8466208781963
30
0
41
1
10
21.6888302233922
20
-14.0546993939939
30
0
0
SPLINE
5
136
100
AcDbEntity
8
1
62
256
6
ByLayer
370
13
48
1
60
0
100
AcDbSpline
70
4
71
3
72
20
73
16
40
0
40
0
40
0
40
0
40
0.125000000000001
40
0.125000000000001
40
0.187500000000001
40
0.187500000000001
40
0.250000000000001
40
0.250000000000001
40
0.5
40
0.5
40
0.625
40
0.625
40
0.749999999999999
40
0.749999999999999
40
1
40
1
40
1
40
1
41
1
10
4.0027050034482
20
-1.04823222660124
30
0
41
1
10
4.04401748684455
20
-1.12481845893822
30
0
41
1
10
4.08872455675512
20
-1.21171207416404
30
0
41
1
10
4.16080120219894
20
-1.35667206291353
30
0
41
1
10
4.18573537362587
20
-1.40758362629205
30
0
41
1
10
4.23681639521234
20
-1.51324736306154
30
0
41
1
10
4.26297825715522
20
-1.56802508483929
30
0
41
1
10
4.39680037783484
20
-1.85113933965951
30
0
41
1
10
4.51340500758997
20
-2.10680546086135
30
0
41
1
10
4.70207128244309
20
-2.52922417963899
30
0
41
1
10
4.76727152904198
20
-2.67658483827026
30
0
41
1
10
4.90241309494616
20
-2.98431554537117
30
0
41
1
10
4.97126106973823
20
-3.14219420169948
30
0
41
1
10
5.18149291479671
20
-3.62685052104482
30
0
41
1
10
5.32656217646704
20
-3.96461532808058
30
0
41
1
10
5.4767693771729
20
-4.31628872928493
30
0
0
SPLINE
5
137
100
AcDbEntity
8
1
62
256
6
ByLayer
370
13
48
1
60
0
100
AcDbSpline
70
4
71
3
72
14
73
10
40
0
40
0
40
0
40
0
40
0.25
40
0.25
40
0.5
40
0.5
40
0.75
40
0.75
40
1
40
1
40
1
40
1
41
1
10
3.43693120913744
20
-9.83205174866819
30
0
41
1
10
3.5212288846987
20
-9.86582949061679
30
0
41
1
10
3.60614088421548
20
-9.90403932218709
30
0
41
1
10
3.77425622209168
20
-9.98948591253108
30
0
41
1
10
3.85725785115434
20
-10.0365682902766
30
0
41
1
10
4.02083230428676
20
-10.1407548851569
30
0
41
1
10
4.10156723941321
20
-10.1981360188319
30
0
41
1
10
4.25393142006664
20
-10.3193722370804
30
0
41
1
10
4.32637681852472
20
-10.3836952827091
30
0
41
1
10
4.39490421859969
20
-10.4518509343709
30
0
0
SPLINE
5
138
100
AcDbEntity
8
1
62
256
6
ByLayer
370
13
48
1
60
0
100
AcDbSpline
70
4
71
3
72
8
73
4
40
0
40
0
40
0
40
0
40
1
40
1
40
1
40
1
41
1
10
10.3444324620617
20
-4.12373073583788
30
0
41
1
10
10.6287973291878
20
-4.1738719342778
30
0
41
1
10
10.9037520178366
20
-4.25246125975698
30
0
41
1
10
11.1700821703649
20
-4.35762869712136
30
0
0
SPLINE
5
139
100
AcDbEntity
8
1
62
256
6
ByLayer
370
13
48
1
60
0
100
AcDbSpline
70
4
71
3
72
11
73
7
40
0
40
0
40
0
40
0
40
0.100258159504418
40
0.25903613135658
40
0.576592075060903
40
1
40
1
40
1
40
1
41
1.01774327987905
10
20.4231037690199
20
-8.04891331193273
30
0
41
1.01722454828226
10
20.2116211410649
20
-8.00127871420605
30
0
41
1.01635405201137
10
19.7095923685905
20
-7.86621228757207
30
0
41
1.01876555595691
10
18.4054137390999
20
-6.90694777472531
30
0
41
1.02349884684922
10
15.035500517502
20
-4.3589743333981
30
0
41
1.02767136955276
10
12.3403913526763
20
-2.62809721539868
30
0
41
1.02805999725224
10
11.5198994315614
20
-2.37371642350898
30
0
0
SPLINE
5
13A
100
AcDbEntity
8
1
62
256
6
ByLayer
370
13
48
1
60
0
100
AcDbSpline
70
4
71
3
72
18
73
14
40
0
40
0
40
0
40
0
40
0.249999999999998
40
0.249999999999998
40
0.374999999999998
40
0.374999999999998
40
0.499999999999999
40
0.499999999999999
40
0.749999999999999
40
0.749999999999999
40
0.875
40
0.875
40
1
40
1
40
1
40
1
41
1
10
5.6759545915759
20
-4.21408103485814
30
0
41
1
10
5.8728607610893
20
-4.10269781111873
30
0
41
1
10
6.07690931147255
20
-4.00918212351624
30
0
41
1
10
6.39515244172875
20
-3.89532244070441
30
0
41
1
10
6.50367271564846
20
-3.86170085226448
30
0
41
1
10
6.72322382318481
20
-3.80410327176784
30
0
41
1
10
6.83387915185492
20
-3.78018507700085
30
0
41
1
10
7.16869496251334
20
-3.72286757776351
30
0
41
1
10
7.39569510457943
20
-3.7037951539113
30
0
41
1
10
7.74290888566935
20
-3.70505545878737
30
0
41
1
10
7.85948893700777
20
-3.71053013307389
30
0
41
1
10
8.09103488818295
20
-3.73138016356552
30
0
41
1
10
8.20646522860778
20
-3.74674942870934
30
0
41
1
10
8.32155787176384
20
-3.76704336697881
30
0
0
SPLINE
5
13B
100
AcDbEntity
8
1
62
256
6
ByLayer
370
13
48
1
60
0
100
AcDbSpline
70
4
71
3
72
10
73
6
40
0
40
0
40
0
40
0
40
0.5
40
0.5
40
1
40
1
40
1
40
1
41
1
10
9.40919007871793
20
-14.3441440027873
30
0
41
1
10
9.44232035134678
20
-14.1562528899483
30
0
41
1
10
9.48977960241723
20
-13.8870981021799
30
0
41
1
10
9.60845089288557
20
-13.2140797700361
30
0
41
1
10
9.67964124230787
20
-12.8103392356251
30
0
41
1
10
9.7590073433899
20
-12.3602317094648
30
0
0
SPLINE
5
13C
100
AcDbEntity
8
1
62
256
6
ByLayer
370
13
48
1
60
0
100
AcDbSpline
70
4
71
3
72
10
73
6
40
0
40
0
40
0
40
0
40
0.5
40
0.5
40
1
40
1
40
1
40
1
41
1
10
3.66843789834283
20
-4.52048401961412
30
0
41
1
10
3.77918535578317
20
-4.54001178440572
30
0
41
1
10
3.89340446672912
20
-4.5546513689832
30
0
41
1
10
4.12635277792953
20
-4.57209643540241
30
0
41
1
10
4.24462891062129
20
-4.57490815279331
30
0
41
1
10
4.36458540294097
20
-4.57106338445806
30
0
0
SPLINE
5
13D
100
AcDbEntity
8
1
62
256
6
ByLayer
370
13
48
1
60
0
100
AcDbSpline
70
4
71
3
72
16
73
12
40
0
40
0
40
0
40
0
40
0.249999999999999
40
0.249999999999999
40
0.499999999999998
40
0.499999999999998
40
0.624999999999998
40
0.624999999999998
40
0.749999999999999
40
0.749999999999999
40
1
40
1
40
1
40
1
41
1
10
4.39490421859969
20
-10.4518509343709
30
0
41
1
10
4.13371509477184
20
-10.7306869464048
30
0
41
1
10
3.88086980674399
20
-10.999539564838
30
0
41
1
10
3.39311665152363
20
-11.5143969233376
30
0
41
1
10
3.16335767764471
20
-11.7549757731339
30
0
41
1
10
2.84056483357975
20
-12.0884502382559
30
0
41
1
10
2.73655740003065
20
-12.1950865739393
30
0
41
1
10
2.53668505248294
20
-12.3979462914824
30
0
41
1
10
2.4424166859055
20
-12.492549127273
30
0
41
1
10
2.17661442619431
20
-12.7554345845286
30
0
41
1
10
2.02184621923365
20
-12.903143921845
30
0
41
1
10
1.89199565060471
20
-13.0186598058796
30
0
0
SPLINE
5
13E
100
AcDbEntity
8
1
62
256
6
ByLayer
370
13
48
1
60
0
100
AcDbSpline
70
4
71
3
72
24
73
20
40
0
40
0
40
0
40
0
40
0.124999999999999
40
0.124999999999999
40
0.249999999999998
40
0.249999999999998
40
0.374999999999997
40
0.374999999999997
40
0.499999999999996
40
0.499999999999996
40
0.624999999999996
40
0.624999999999996
40
0.687499999999995
40
0.687499999999995
40
0.749999999999995
40
0.749999999999995
40
0.874999999999998
40
0.874999999999998
40
1
40
1
40
1
40
1
41
1
10
19.7164971491645
20
-12.0562785887804
30
0
41
1
10
19.7878507320206
20
-12.1703154439238
30
0
41
1
10
19.8615850251158
20
-12.2824554407278
30
0
41
1
10
20.0194183226403
20
-12.4984772310445
30
0
41
1
10
20.1036611822783
20
-12.6022444062606
30
0
41
1
10
20.2855858363763
20
-12.7990711303832
30
0
41
1
10
20.3834158765972
20
-12.8925405853014
30
0
41
1
10
20.593272112881
20
-13.0655022277869
30
0
41
1
10
20.7049747222759
20
-13.1448245350782
30
0
41
1
10
20.9448787172589
20
-13.286035114373
30
0
41
1
10
21.0730314365292
20
-13.347974811421
30
0
41
1
10
21.2813812364484
20
-13.4238498075375
30
0
41
1
10
21.353786531253
20
-13.4463414487005
30
0
41
1
10
21.5038677261627
20
-13.4842441749963
30
0
41
1
10
21.5811233188282
20
-13.4995728624901
30
0
41
1
10
21.820388171805
20
-13.5332956507434
30
0
41
1
10
21.9901385565663
20
-13.5390289642718
30
0
41
1
10
22.353810393937
20
-13.5109632534696
30
0
41
1
10
22.5415463789005
20
-13.4777714443632
30
0
41
1
10
22.7337195341194
20
-13.4268665559351
30
0
0
SPLINE
5
13F
100
AcDbEntity
8
1
62
256
6
ByLayer
370
13
48
1
60
0
100
AcDbSpline
70
4
71
3
72
26
73
22
40
0
40
0
40
0
40
0
40
0.0625000000000004
40
0.0625000000000004
40
0.125000000000001
40
0.125000000000001
40
0.187500000000002
40
0.187500000000002
40
0.250000000000002
40
0.250000000000002
40
0.312500000000003
40
0.312500000000003
40
0.375000000000003
40
0.375000000000003
40
0.500000000000001
40
0.500000000000001
40
0.624999999999999
40
0.624999999999999
40
0.749999999999997
40
0.749999999999997
40
1
40
1
40
1
40
1
41
1
10
20.4231037690164
20
-8.04891331193193
30
0
41
1
10
20.4015539598517
20
-8.06572625243359
30
0
41
1
10
20.3819187774449
20
-8.08496297076428
30
0
41
1
10
20.3474422061396
20
-8.12950500036368
30
0
41
1
10
20.3324856068116
20
-8.1551206305802
30
0
41
1
10
20.3096848058592
20
-8.21258232664567
30
0
41
1
10
20.3017567704369
20
-8.24445012094083
30
0
41
1
10
20.294339725855
20
-8.31503562728253
30
0
41
1
10
20.2949821986997
20
-8.35239461923803
30
0
41
1
10
20.3047474815868
20
-8.43113982015981
30
0
41
1
10
20.3140740727283
20
-8.47287156880279
30
0
41
1
10
20.3395232498833
20
-8.55555116354589
30
0
41
1
10
20.3557591756508
20
-8.59726146960176
30
0
41
1
10
20.4125065420158
20
-8.72139096728506
30
0
41
1
10
20.4593042703992
20
-8.79990041333804
30
0
41
1
10
20.5636412457371
20
-8.95140920073641
30
0
41
1
10
20.619767953334
20
-9.02222322427539
30
0
41
1
10
20.7368281309765
20
-9.15785181043398
30
0
41
1
10
20.7977854041372
20
-9.22254715936546
30
0
41
1
10
20.9827540595157
20
-9.40753037794087
30
0
41
1
10
21.1099792213908
20
-9.5203051337744
30
0
41
1
10
21.2394237400306
20
-9.62709725056473
30
0
0
SPLINE
5
140
100
AcDbEntity
8
1
62
256
6
ByLayer
370
13
48
1
60
0
100
AcDbSpline
70
4
71
3
72
8
73
4
40
0
40
0
40
0
40
0
40
1
40
1
40
1
40
1
41
1
10
23.7271340719598
20
-7.79293274506315
30
0
41
1
10
23.4699501743379
20
-7.47533708118343
30
0
41
1
10
23.2142400410949
20
-7.15956136474432
30
0
41
1
10
22.9599907742186
20
-6.84558966802774
30
0
0
SPLINE
5
141
100
AcDbEntity
8
1
62
256
6
ByLayer
370
13
48
1
60
0
100
AcDbSpline
70
4
71
3
72
8
73
4
40
0
40
0
40
0
40
0
40
1
40
1
40
1
40
1
41
1.0241704137769
10
22.9599066340042
20
-6.84550443431435
30
0
41
1.0223381109506
10
22.4480543299507
20
-6.32700352779337
30
0
41
1.02059843516864
10
21.913017619226
20
-5.8490226049238
30
0
41
1.01923193626848
10
21.4719071179491
20
-5.47902743456634
30
0
0
SPLINE
5
142
100
AcDbEntity
8
1
62
256
6
ByLayer
370
13
48
1
60
0
100
AcDbSpline
70
4
71
3
72
8
73
4
40
0
40
0
40
0
40
0
40
1
40
1
40
1
40
1
41
1
10
5.6759545915759
20
-4.21408103485811
30
0
41
1
10
5.6110970926502
20
-4.25076874927495
30
0
41
1
10
5.5446861492176
20
-4.28484321829356
30
0
41
1
10
5.47676937717171
20
-4.31628872928263
30
0
0
SPLINE
5
143
100
AcDbEntity
8
1
62
256
6
ByLayer
370
13
48
1
60
0
100
AcDbSpline
70
4
71
3
72
10
73
6
40
0
40
0
40
0
40
0
40
0.5
40
0.5
40
1
40
1
40
1
40
1
41
1
10
2.76546737447481
20
-9.6414843352776
30
0
41
1
10
2.87621483191512
20
-9.6610121000692
30
0
41
1
10
2.98855272043917
20
-9.68632062716662
30
0
41
1
10
3.21341909361576
20
-9.74960064176761
30
0
41
1
10
3.32552396670636
20
-9.78741131153888
30
0
41
1
10
3.43693120913744
20
-9.83205174866819
30
0
0
SPLINE
5
144
100
AcDbEntity
8
1
62
256
6
ByLayer
370
13
48
1
60
0
100
AcDbSpline
70
4
71
3
72
26
73
22
40
0
40
0
40
0
40
0
40
0.0624999999999987
40
0.0624999999999987
40
0.124999999999997
40
0.124999999999997
40
0.249999999999997
40
0.249999999999997
40
0.312499999999997
40
0.312499999999997
40
0.374999999999997
40
0.374999999999997
40
0.499999999999997
40
0.499999999999997
40
0.624999999999998
40
0.624999999999998
40
0.749999999999999
40
0.749999999999999
40
0.874999999999999
40
0.874999999999999
40
1
40
1
40
1
40
1
41
1
10
13.4063300477597
20
-10.1026604011649
30
0
41
1
10
13.3634466662997
20
-10.188010446022
30
0
41
1
10
13.3174301347694
20
-10.2715834858794
30
0
41
1
10
13.2192354005139
20
-10.4352331900494
30
0
41
1
10
13.1669727798721
20
-10.5153871994109
30
0
41
1
10
13.0031967677309
20
-10.7477005431582
30
0
41
1
10
12.8841379732362
20
-10.8928432789119
30
0
41
1
10
12.6915546044226
20
-11.0971836858836
30
0
41
1
10
12.6250163835616
20
-11.1630571441095
30
0
41
1
10
12.4872617753255
20
-11.2904066548743
30
0
41
1
10
12.4157701670396
20
-11.3520953456246
30
0
41
1
10
12.1965621950617
20
-11.5287027873668
30
0
41
1
10
12.0443019020032
20
-11.6352534765109
30
0
41
1
10
11.7277742017403
20
-11.8277396049364
30
0
41
1
10
11.5635028985019
20
-11.913666579635
30
0
41
1
10
11.2223710370538
20
-12.0649697081967
30
0
41
1
10
11.0448074739788
20
-12.1303730737173
30
0
41
1
10
10.6865375832271
20
-12.2366162453476
30
0
41
1
10
10.5046943605566
20
-12.2780464409597
30
0
41
1
10
10.1356810057722
20
-12.3372668234107
30
0
41
1
10
9.94843558345673
20
-12.355043059758
30
0
41
1
10
9.75900733991449
20
-12.3602317291749
30
0
0
SPLINE
5
145
100
AcDbEntity
8
1
62
256
6
ByLayer
370
13
48
1
60
0
100
AcDbSpline
70
4
71
3
72
30
73
26
40
0
40
0
40
0
40
0
40
0.125000000000001
40
0.125000000000001
40
0.250000000000003
40
0.250000000000003
40
0.375000000000004
40
0.375000000000004
40
0.437500000000004
40
0.437500000000004
40
0.500000000000004
40
0.500000000000004
40
0.625000000000004
40
0.625000000000004
40
0.687500000000003
40
0.687500000000003
40
0.750000000000003
40
0.750000000000003
40
0.812500000000002
40
0.812500000000002
40
0.875000000000001
40
0.875000000000001
40
0.937500000000001
40
0.937500000000001
40
1
40
1
40
1
40
1
41
1
10
1.4861203924815
20
-13.8919993018916
30
0
41
1
10
1.38137084959439
20
-13.8239475209548
30
0
41
1
10
1.28752597948403
20
-13.7510794768683
30
0
41
1
10
1.11458741384465
20
-13.5953980454516
30
0
41
1
10
1.03622671015609
20
-13.5132349692923
30
0
41
1
10
0.890130215773013
20
-13.3373928201882
30
0
41
1
10
0.822365109704492
20
-13.2436760082765
30
0
41
1
10
0.726526979713441
20
-13.0905200719513
30
0
41
1
10
0.695572181909512
20
-13.0373561039601
30
0
41
1
10
0.635590634852605
20
-12.9259590447303
30
0
41
1
10
0.606469216576187
20
-12.8675176011048
30
0
41
1
10
0.522930890122126
20
-12.6845892573601
30
0
41
1
10
0.472699175150382
20
-12.5536374870354
30
0
41
1
10
0.40797120959212
20
-12.3405632816204
30
0
41
1
10
0.388188117806408
20
-12.2667606215058
30
0
41
1
10
0.35291208822656
20
-12.1129046631024
30
0
41
1
10
0.337500558068768
20
-12.0330103241121
30
0
41
1
10
0.312339633998675
20
-11.8702441076751
30
0
41
1
10
0.302485089327888
20
-11.7869538410601
30
0
41
1
10
0.288809492538348
20
-11.616262225327
30
0
41
1
10
0.285003587639181
20
-11.5282085585372
30
0
41
1
10
0.284126183006094
20
-11.3517466528572
30
0
41
1
10
0.286991047579193
20
-11.2632074935285
30
0
41
1
10
0.299337647085253
20
-11.0854000926455
30
0
41
1
10
0.308822476640529
20
-10.9961371186949
30
0
41
1
10
0.321631361490063
20
-10.9063616894171
30
0
0
SPLINE
5
146
100
AcDbEntity
8
1
62
256
6
ByLayer
370
13
48
1
60
0
100
AcDbSpline
70
4
71
3
72
22
73
18
40
0
40
0
40
0
40
0
40
0.0625000000000001
40
0.0625000000000001
40
0.125
40
0.125
40
0.25
40
0.25
40
0.375
40
0.375
40
0.5
40
0.5
40
0.75
40
0.75
40
0.875
40
0.875
40
1
40
1
40
1
40
1
41
1
10
11.7144423614751
20
-1.27040864195439
30
0
41
1
10
11.8788431353086
20
-1.30099024288845
30
0
41
1
10
12.0415583610334
20
-1.33721673131137
30
0
41
1
10
12.3654026764037
20
-1.41498166553348
30
0
41
1
10
12.5264619600376
20
-1.45675389112171
30
0
41
1
10
13.00780582525
20
-1.58821257167722
30
0
41
1
10
13.3262765409759
20
-1.68397364925741
30
0
41
1
10
13.9593797299997
20
-1.88835004841667
30
0
41
1
10
14.2739703688364
20
-1.99710547327999
30
0
41
1
10
14.8991178512806
20
-2.22812547181374
30
0
41
1
10
15.2094065193186
20
-2.35033432536213
30
0
41
1
10
16.1291904500889
20
-2.73856228374962
30
0
41
1
10
16.7277973881798
20
-3.02866399977427
30
0
41
1
10
17.6095180771549
20
-3.4985478916785
30
0
41
1
10
17.9007327949073
20
-3.66107956517882
30
0
41
1
10
18.4757043996193
20
-3.99683250231178
30
0
41
1
10
18.7597646855359
20
-4.1700971103368
30
0
41
1
10
19.0395286876431
20
-4.35011952458896
30
0
0
SPLINE
5
147
100
AcDbEntity
8
1
62
256
6
ByLayer
370
13
48
1
60
0
100
AcDbSpline
70
4
71
3
72
8
73
4
40
0
40
0
40
0
40
0
40
1
40
1
40
1
40
1
41
1.01923193651471
10
19.8230972782873
20
-14.8298932201657
30
0
41
1.02059845255999
10
20.3641581391377
20
-14.6330776977718
30
0
41
1.02233815481013
10
21.030417183496
20
-14.3669116867374
30
0
41
1.02417048289515
10
21.6887467937478
20
-14.0547389556891
30
0
0
SPLINE
5
148
100
AcDbEntity
8
1
62
256
6
ByLayer
370
13
48
1
60
0
100
AcDbSpline
70
4
71
1
72
4
73
2
40
0
40
0
40
1
40
1
41
1
10
9.21464714880426
20
-15.4474517843419
30
0
41
1
10
9.40919007871793
20
-14.3441440027873
30
0
0
SPLINE
5
149
100
AcDbEntity
8
1
62
256
6
ByLayer
370
13
48
1
60
0
100
AcDbSpline
70
4
71
3
72
8
73
4
40
0
40
0
40
0
40
0
40
1
40
1
40
1
40
1
41
1
10
21.1448731399757
20
-5.36735139506854
30
0
41
1
10
21.2544838751032
20
-5.40215857148456
30
0
41
1
10
21.3634646176045
20
-5.43943947473846
30
0
41
1
10
21.4718664922305
20
-5.47899335856232
30
0
0
SPLINE
5
14A
100
AcDbEntity
8
1
62
256
6
ByLayer
370
13
48
1
60
0
100
AcDbSpline
70
4
71
3
72
8
73
4
40
0
40
0
40
0
40
0
40
1
40
1
40
1
40
1
41
1
10
19.823047350346
20
-14.8299113818144
30
0
41
1
10
19.7076546836652
20
-14.8300042498776
30
0
41
1
10
19.5924954642538
20
-14.8277632303985
30
0
41
1
10
19.4775903098278
20
-14.8229821978958
30
0
0
SPLINE
5
14B
100
AcDbEntity
8
1
62
256
6
ByLayer
370
13
48
1
60
0
100
AcDbSpline
70
4
71
3
72
8
73
4
40
0
40
0
40
0
40
0
40
1
40
1
40
1
40
1
41
1
10
21.2394237400306
20
-9.62709725056473
30
0
41
1
10
21.5860756553372
20
-9.91320596976843
30
0
41
1
10
21.935649974695
20
-10.1877441152447
30
0
41
1
10
22.2880362388916
20
-10.4437307679104
30
0
0
SPLINE
5
14C
100
AcDbEntity
8
1
62
256
6
ByLayer
370
13
48
1
60
0
100
AcDbSpline
70
4
71
3
72
16
73
12
40
0
40
0
40
0
40
0
40
0.250000000000003
40
0.250000000000003
40
0.375000000000003
40
0.375000000000003
40
0.500000000000002
40
0.500000000000002
40
0.750000000000001
40
0.750000000000001
40
1
40
1
40
1
40
1
41
1
10
17.1512998735934
20
-15.0587972689893
30
0
41
1
10
17.3518905332623
20
-15.0133697679358
30
0
41
1
10
17.5520478713859
20
-14.9725754096292
30
0
41
1
10
17.8518060983515
20
-14.9197335808935
30
0
41
1
10
17.9516501527352
20
-14.9035415385994
30
0
41
1
10
18.1512591929948
20
-14.8745787142933
30
0
41
1
10
18.251288015113
20
-14.8617907824738
30
0
41
1
10
18.5471115007878
20
-14.8302304910079
30
0
41
1
10
18.7398451213951
20
-14.8192969160015
30
0
41
1
10
19.1159333865576
20
-14.8125960652341
30
0
41
1
10
19.2992832311388
20
-14.8155631056635
30
0
41
1
10
19.4775903098278
20
-14.8229821978958
30
0
0
SPLINE
5
14D
100
AcDbEntity
8
1
62
256
6
ByLayer
370
13
48
1
60
0
100
AcDbSpline
70
4
71
3
72
18
73
14
40
0
40
0
40
0
40
0
40
0.25
40
0.25
40
0.375
40
0.375
40
0.5
40
0.5
40
0.624999999999999
40
0.624999999999999
40
0.749999999999999
40
0.749999999999999
40
1
40
1
40
1
40
1
41
1
10
6.88027799712833
20
-11.9409477169801
30
0
41
1
10
6.65010680575617
20
-11.9003623257594
30
0
41
1
10
6.42625386202556
20
-11.8410594792438
30
0
41
1
10
6.09989278785207
20
-11.7238339974312
30
0
41
1
10
5.9924265618005
20
-11.6798770425346
30
0
41
1
10
5.7833330750187
20
-11.5834811885698
30
0
41
1
10
5.681410495227
20
-11.5309633451267
30
0
41
1
10
5.4826485392322
20
-11.4172832599375
30
0
41
1
10
5.38622731282456
20
-11.3563231611056
30
0
41
1
10
5.2008298504378
20
-11.2275908164695
30
0
41
1
10
5.11154616702109
20
-11.1596458237381
30
0
41
1
10
4.85337576524191
20
-10.9451643547384
30
0
41
1
10
4.69409202681831
20
-10.7880741829071
30
0
41
1
10
4.54712000444877
20
-10.6160201061879
30
0
0
SPLINE
5
14E
100
AcDbEntity
8
1
62
256
6
ByLayer
370
13
48
1
60
0
100
AcDbSpline
70
4
71
3
72
8
73
4
40
0
40
0
40
0
40
0
40
1
40
1
40
1
40
1
41
1
10
8.90315258742612
20
-12.2976350858392
30
0
41
1
10
9.18751745455228
20
-12.3477762842791
30
0
41
1
10
9.47276947889026
20
-12.3679665170734
30
0
41
1
10
9.75900733991449
20
-12.3602317291749
30
0
0
SPLINE
5
14F
100
AcDbEntity
8
1
62
256
6
ByLayer
370
13
48
1
60
0
100
AcDbSpline
70
4
71
3
72
18
73
14
40
0
40
0
40
0
40
0
40
0.125
40
0.125
40
0.249999999999999
40
0.249999999999999
40
0.499999999999999
40
0.499999999999999
40
0.624999999999999
40
0.624999999999999
40
0.749999999999999
40
0.749999999999999
40
1
40
1
40
1
40
1
41
1
10
4.36458540294097
20
-4.57106338445806
30
0
41
1
10
4.23900890272188
20
-4.46485198144282
30
0
41
1
10
4.11537418386129
20
-4.36052240627458
30
0
41
1
10
3.87203934554702
20
-4.15578824467116
30
0
41
1
10
3.75204122730227
20
-4.05513543773884
30
0
41
1
10
3.40156738305964
20
-3.7623021527599
30
0
41
1
10
3.17983662675573
20
-3.5785661924385
30
0
41
1
10
2.86602735435486
20
-3.32191655050184
30
0
41
1
10
2.7645726133382
20
-3.23954452015423
30
0
41
1
10
2.56836543906758
20
-3.08174073635732
30
0
41
1
10
2.47480033770245
20
-3.00726755656538
30
0
41
1
10
2.20918236417396
20
-2.79859960457728
30
0
41
1
10
2.05143982725036
20
-2.67848144417883
30
0
41
1
10
1.9146292326254
20
-2.57992974510924
30
0
0
SPLINE
5
150
100
AcDbEntity
8
1
62
256
6
ByLayer
370
13
48
1
60
0
100
AcDbSpline
70
4
71
3
72
14
73
10
40
0
40
0
40
0
40
0
40
0.25
40
0.25
40
0.375
40
0.375
40
0.5
40
0.5
40
1
40
1
40
1
40
1
41
1
10
2.94733900132229
20
-0.123681957171073
30
0
41
1
10
3.10784870002041
20
-0.0727830346640985
30
0
41
1
10
3.26658533426922
20
-0.0361125611472346
30
0
41
1
10
3.50056497079697
20
0.0017264108694519
30
0
41
1
10
3.57814112137882
20
0.0114855113265264
30
0
41
1
10
3.7303184022395
20
0.0257070098793406
30
0
41
1
10
3.80476128469556
20
0.0301794541074685
30
0
41
1
10
4.16890377440794
20
0.0413964808966512
30
0
41
1
10
4.43453981213062
20
0.015393957687138
30
0
41
1
10
4.67518347389546
20
-0.0270380126185046
30
0
0
SPLINE
5
151
100
AcDbEntity
8
1
62
256
6
ByLayer
370
13
48
1
60
0
100
AcDbSpline
70
4
71
3
72
8
73
4
40
0
40
0
40
0
40
0
40
1
40
1
40
1
40
1
41
1
10
4.39490421859972
20
-10.4518509343709
30
0
41
1
10
4.44780134124059
20
-10.5044610999496
30
0
41
1
10
4.49856533694484
20
-10.5591791622237
30
0
41
1
10
4.54712000444877
20
-10.6160201061879
30
0
0
SPLINE
5
152
100
AcDbEntity
8
1
62
256
6
ByLayer
370
13
48
1
60
0
100
AcDbSpline
70
4
71
3
72
25
73
21
40
0
40
0
40
0
40
0
40
0.0625000000000006
40
0.0625000000000006
40
0.125000000000001
40
0.187500000000002
40
0.187500000000002
40
0.250000000000002
40
0.250000000000002
40
0.375000000000002
40
0.375000000000002
40
0.500000000000001
40
0.500000000000001
40
0.625000000000001
40
0.625000000000001
40
0.750000000000001
40
0.750000000000001
40
0.875
40
0.875
40
1
40
1
40
1
40
1
41
1
10
23.727134071955
20
-7.79293274506531
30
0
41
1
10
23.6441308070139
20
-7.73516578325814
30
0
41
1
10
23.5608500086631
20
-7.68226864108848
30
0
41
1
10
23.3952944384435
20
-7.58716527691533
30
0
41
1
10
23.2302638215756
20
-7.5024134754585
30
0
41
1
10
23.0662747993779
20
-7.43820089433277
30
0
41
1
10
22.902805609887
20
-7.38423890185138
30
0
41
1
10
22.8215406300135
20
-7.36257789815363
30
0
41
1
10
22.5837686054725
20
-7.31275965185208
30
0
41
1
10
22.4312296250466
20
-7.29874864841634
30
0
41
1
10
22.1350642110922
20
-7.2993644867025
30
0
41
1
10
21.9906639854974
20
-7.31434374086967
30
0
41
1
10
21.7152661356608
20
-7.36625497447795
30
0
41
1
10
21.5836503952555
20
-7.40306738036986
30
0
41
1
10
21.329931858185
20
-7.49367014565448
30
0
41
1
10
21.207850068013
20
-7.54749799578278
30
0
41
1
10
20.9717000932291
20
-7.6694557487252
30
0
41
1
10
20.8577461003367
20
-7.73778945193556
30
0
41
1
10
20.6364556567081
20
-7.88626732692222
30
0
41
1
10
20.5290319396353
20
-7.96625575260717
30
0
41
1
10
20.4231037690164
20
-8.04891331193193
30
0
0
SPLINE
5
153
100
AcDbEntity
8
1
62
256
6
ByLayer
370
13
48
1
60
0
100
AcDbSpline
70
4
71
3
72
14
73
10
40
0
40
0
40
0
40
0
40
0.25
40
0.25
40
0.5
40
0.5
40
0.75
40
0.75
40
1
40
1
40
1
40
1
41
1
10
5.47676937717179
20
-4.31628872928258
30
0
41
1
10
5.38898808171408
20
-4.35693152792862
30
0
41
1
10
5.29728141646234
20
-4.3932067721145
30
0
41
1
10
5.1123611777432
20
-4.45496595736844
30
0
41
1
10
5.01851830678933
20
-4.48078685915439
30
0
41
1
10
4.82821893333676
20
-4.52289832658937
30
0
41
1
10
4.73338151518101
20
-4.53879009046892
30
0
41
1
10
4.54720650315173
20
-4.56136480438707
30
0
41
1
10
4.455345804281
20
-4.56815439045178
30
0
41
1
10
4.36458540294097
20
-4.57106338445806
30
0
0
SPLINE
5
154
100
AcDbEntity
8
1
62
256
6
ByLayer
370
13
48
1
60
0
100
AcDbSpline
70
4
71
3
72
12
73
8
40
0
40
0
40
0
40
0
40
0.103595514297712
40
0.300483138573828
40
0.497370762849944
40
0.891146011402176
40
1
40
1
40
1
40
1
41
1.02076673234807
10
21.2394237400319
20
-9.627097250565
30
0
41
1.02005196006992
10
20.9986629049241
20
-9.57820188429017
30
0
41
1.01814069306383
10
20.3407891950644
20
-9.45100904776237
30
0
41
1.01610930227499
10
19.6039069342504
20
-9.33058772481446
30
0
41
1.01876555595691
10
18.0529089965809
20
-8.87397094371908
30
0
41
1.02173322384663
10
15.7667691021748
20
-8.23588115843501
30
0
41
1.02394775681993
10
14.1633451956428
20
-7.81413749454392
30
0
41
1.02441262532194
10
13.8253095354634
20
-7.72650965026552
30
0
0
SPLINE
5
155
100
AcDbEntity
8
1
62
256
6
ByLayer
370
13
48
1
60
0
100
AcDbSpline
70
4
71
3
72
20
73
16
40
0
40
0
40
0
40
0
40
0.125
40
0.125
40
0.25
40
0.25
40
0.5
40
0.5
40
0.75
40
0.75
40
0.875
40
0.875
40
0.9375
40
0.9375
40
1
40
1
40
1
40
1
41
1
10
17.1512998735931
20
-15.0587972689894
30
0
41
1
10
16.826891654221
20
-15.1322655688175
30
0
41
1
10
16.5007918560846
20
-15.1979093778301
30
0
41
1
10
15.845896264482
20
-15.316726520858
30
0
41
1
10
15.5168686699882
20
-15.3698305880706
30
0
41
1
10
14.5271297969034
20
-15.5098964495922
30
0
41
1
10
13.8652887329615
20
-15.5777660017416
30
0
41
1
10
12.5361735312433
20
-15.6447334232697
30
0
41
1
10
11.8682749338875
20
-15.6468398457016
30
0
41
1
10
10.8707770583805
20
-15.6101115045796
30
0
41
1
10
10.5386981583429
20
-15.5911701209353
30
0
41
1
10
10.0413762856421
20
-15.5500668230316
30
0
41
1
10
9.87573617762001
20
-15.5342329394972
30
0
41
1
10
9.54483368916505
20
-15.4965463888154
30
0
41
1
10
9.37955605853773
20
-15.4749367211813
30
0
41
1
10
9.21464714880426
20
-15.4474517843419
30
0
0
SPLINE
5
156
100
AcDbEntity
8
1
62
256
6
ByLayer
370
13
48
1
60
0
100
AcDbSpline
70
4
71
3
72
8
73
4
40
0
40
0
40
0
40
0
40
1
40
1
40
1
40
1
41
1
10
21.9405181489262
20
-3.97739908939388
30
0
41
1
10
21.9525635457583
20
-3.98191517931181
30
0
41
1
10
21.9644424903719
20
-3.98690279213218
30
0
41
1
10
21.9761013801796
20
-3.99233942173512
30
0
0
SPLINE
5
157
100
AcDbEntity
8
1
62
256
6
ByLayer
370
13
48
1
60
0
100
AcDbSpline
70
4
71
3
72
8
73
4
40
0
40
0
40
0
40
0
40
1
40
1
40
1
40
1
41
1
10
24.1366221422729
20
-17.1747412018051
30
0
41
1
10
24.1245767454408
20
-17.1702251118872
30
0
41
1
10
24.1126978008272
20
-17.1652374990668
30
0
41
1
10
24.1010389110194
20
-17.1598008694639
30
0
0
SPLINE
5
158
100
AcDbEntity
8
1
62
256
6
ByLayer
370
13
48
1
60
0
100
AcDbSpline
70
4
71
3
72
8
73
4
40
0
40
0
40
0
40
0
40
1
40
1
40
1
40
1
41
1
10
29.6223008694639
20
-11.6385389110195
30
0
41
1
10
29.6277374990669
20
-11.6501978008272
30
0
41
1
10
29.6327251118872
20
-11.6620767454408
30
0
41
1
10
29.6372412018052
20
-11.6741221422729
30
0
0
LINE
5
70
100
AcDbEntity
8
80
62
256
6
ByLayer
370
18
48
1
60
0
100
AcDbLine
10
0
20
0
30
0
11
-5
21
0
31
0
39
0
210
0
220
0
230
1
0
LINE
5
71
100
AcDbEntity
8
81
62
256
6
ByLayer
370
18
48
1
60
0
100
AcDbLine
10
32
20
-19.5375
30
0
11
37
21
-19.5375
31
0
39
0
210
0
220
0
230
1
0
LINE
5
72
100
AcDbEntity
8
SK1
62
256
6
ByLayer
370
13
48
1
60
0
100
AcDbLine
10
-84
20
-9.4625
30
0
11
-81
21
-12.4625
31
0
39
0
210
0
220
0
230
1
0
LINE
5
74
100
AcDbEntity
8
SK1
62
256
6
ByLayer
370
13
48
1
60
0
100
AcDbLine
10
0
20
-8.06796
30
0
11
0
21
-3.539134
31
0
39
0
210
0
220
0
230
1
0
LINE
5
75
100
AcDbEntity
8
SK1
62
256
6
ByLayer
370
13
48
1
60
0
100
AcDbLine
10
0
20
12.4625
30
0
11
-81
21
12.4625
31
0
39
0
210
0
220
0
230
1
0
LINE
5
76
100
AcDbEntity
8
SK1
62
256
6
ByLayer
370
13
48
1
60
0
100
AcDbLine
10
0
20
5.670857
30
0
11
0
21
12.4625
31
0
39
0
210
0
220
0
230
1
0
LINE
5
77
100
AcDbEntity
8
SK1
62
256
6
ByLayer
370
13
48
1
60
0
100
AcDbLine
10
-84
20
9.4625
30
0
11
-81
21
12.4625
31
0
39
0
210
0
220
0
230
1
0
LINE
5
78
100
AcDbEntity
8
SK1
62
256
6
ByLayer
370
13
48
1
60
0
100
AcDbLine
10
0
20
5.61357
30
0
11
0
21
5.670857
31
0
39
0
210
0
220
0
230
1
0
LINE
5
79
100
AcDbEntity
8
SK1
62
256
6
ByLayer
370
13
48
1
60
0
100
AcDbLine
10
-84
20
9.4625
30
0
11
-84
21
-9.4625
31
0
39
0
210
0
220
0
230
1
0
LINE
5
7A
100
AcDbEntity
8
SK1
62
256
6
ByLayer
370
13
48
1
60
0
100
AcDbLine
10
-5.591473
20
-12.4625
30
0
11
-81
21
-12.4625
31
0
39
0
210
0
220
0
230
1
0
LINE
5
7B
100
AcDbEntity
8
SK1
62
256
6
ByLayer
370
13
48
1
60
0
100
AcDbLine
10
-0.163125
20
-12.608392
30
0
11
-0.221322
21
-12.938446
31
0
39
0
210
0
220
0
230
1
0
LINE
5
7C
100
AcDbEntity
8
SK1
62
256
6
ByLayer
370
13
48
1
60
0
100
AcDbLine
10
0
20
-12.881597
30
0
11
0
21
-13.245182
31
0
39
0
210
0
220
0
230
1
0
LINE
5
7D
100
AcDbEntity
8
SK1
62
256
6
ByLayer
370
13
48
1
60
0
100
AcDbLine
10
-1.57343
20
-12.4625
30
0
11
-1.317366
21
-12.4625
31
0
39
0
210
0
220
0
230
1
0
LINE
5
7E
100
AcDbEntity
8
SK1
62
256
6
ByLayer
370
13
48
1
60
0
100
AcDbLine
10
-1.57343
20
-12.4625
30
0
11
-5.591473
21
-12.4625
31
0
39
0
210
0
220
0
230
1
0
LINE
5
7F
100
AcDbEntity
8
SK1
62
256
6
ByLayer
370
13
48
1
60
0
100
AcDbLine
10
0
20
4.024065
30
0
11
0
21
-3.539134
31
0
39
0
210
0
220
0
230
1
0
LINE
5
80
100
AcDbEntity
8
SK1
62
256
6
ByLayer
370
13
48
1
60
0
100
AcDbLine
10
-1.57343
20
-12.4625
30
0
11
0
21
-3.539134
31
0
39
0
210
0
220
0
230
1
0
LINE
5
81
100
AcDbEntity
8
SK1
62
256
6
ByLayer
370
13
48
1
60
0
100
AcDbLine
10
-2.553132
20
4.76879
30
0
11
-5.591473
21
-12.4625
31
0
39
0
210
0
220
0
230
1
0
LINE
5
82
100
AcDbEntity
8
1
62
256
6
ByLayer
370
13
48
1
60
0
100
AcDbLine
10
3.460685
20
-0.015975
30
0
11
2.099577
21
0.224026
31
0
39
0
210
0
220
0
230
1
0
LINE
5
84
100
AcDbEntity
8
1
62
256
6
ByLayer
370
13
48
1
60
0
100
AcDbLine
10
2.099577
20
0.224026
30
0
11
1.931184
21
-0.730976
31
0
39
0
210
0
220
0
230
1
0
LINE
5
85
100
AcDbEntity
8
1
62
256
6
ByLayer
370
13
48
1
60
0
100
AcDbLine
10
14.801691
20
12.4625
30
0
11
19.611369
21
5.056246
31
0
39
0
210
0
220
0
230
1
0
LINE
5
86
100
AcDbEntity
8
1
62
256
6
ByLayer
370
13
48
1
60
0
100
AcDbLine
10
1.070497
20
-17.078572
30
0
11
0.131522
21
-13.574271
31
0
39
0
210
0
220
0
230
1
0
LINE
5
87
100
AcDbEntity
8
1
62
256
6
ByLayer
370
13
48
1
60
0
100
AcDbLine
10
0
20
5.670857
30
0
11
0
21
12.4625
31
0
39
0
210
0
220
0
230
1
0
LINE
5
88
100
AcDbEntity
8
1
62
256
6
ByLayer
370
13
48
1
60
0
100
AcDbLine
10
24.942299
20
-17.652407
30
0
11
25.042609
21
-17.587265
31
0
39
0
210
0
220
0
230
1
0
LINE
5
89
100
AcDbEntity
8
1
62
256
6
ByLayer
370
13
48
1
60
0
100
AcDbLine
10
18.582738
20
-2.357983
30
0
11
25.561308
21
-5.612144
31
0
39
0
210
0
220
0
230
1
0
LINE
5
8A
100
AcDbEntity
8
1
62
256
6
ByLayer
370
13
48
1
60
0
100
AcDbLine
10
24.942299
20
-18.006447
30
0
11
3.039171
21
-17.234723
31
0
39
0
210
0
220
0
230
1
0
LINE
5
8B
100
AcDbEntity
8
1
62
256
6
ByLayer
370
13
48
1
60
0
100
AcDbLine
10
14.801691
20
12.4625
30
0
11
0
21
12.4625
31
0
39
0
210
0
220
0
230
1
0
LINE
5
8C
100
AcDbEntity
8
1
62
256
6
ByLayer
370
13
48
1
60
0
100
AcDbLine
10
14.836534
20
-1.461292
30
0
11
14.822912
21
-1.616989
31
0
39
0
210
0
220
0
230
1
0
LINE
5
8D
100
AcDbEntity
8
1
62
256
6
ByLayer
370
13
48
1
60
0
100
AcDbLine
10
24.942299
20
-17.652407
30
0
11
24.942299
21
-18.006447
31
0
39
0
210
0
220
0
230
1
0
LINE
5
8E
100
AcDbEntity
8
1
62
256
6
ByLayer
370
13
48
1
60
0
100
AcDbLine
10
25.561308
20
-5.612144
30
0
11
25.593372
21
-5.543382
31
0
39
0
210
0
220
0
230
1
0
LINE
5
8F
100
AcDbEntity
8
1
62
256
6
ByLayer
370
13
48
1
60
0
100
AcDbLine
10
0
20
4.024065
30
0
11
0
21
-3.539134
31
0
39
0
210
0
220
0
230
1
0
LINE
5
90
100
AcDbEntity
8
1
62
256
6
ByLayer
370
13
48
1
60
0
100
AcDbLine
10
20.34922
20
-15.607437
30
0
11
24.942299
21
-17.652407
31
0
39
0
210
0
220
0
230
1
0
LINE
5
91
100
AcDbEntity
8
1
62
256
6
ByLayer
370
13
48
1
60
0
100
AcDbLine
10
3.039171
20
-17.234723
30
0
11
3.530682
21
-14.447227
31
0
39
0
210
0
220
0
230
1
0
LINE
5
92
100
AcDbEntity
8
1
62
256
6
ByLayer
370
13
48
1
60
0
100
AcDbLine
10
0
20
-3.539134
30
0
11
0.706848
21
0.469601
31
0
39
0
210
0
220
0
230
1
0
LINE
5
93
100
AcDbEntity
8
1
62
256
6
ByLayer
370
13
48
1
60
0
100
AcDbLine
10
25.207539
20
-17.974956
30
0
11
24.942299
21
-18.006447
31
0
39
0
210
0
220
0
230
1
0
LINE
5
94
100
AcDbEntity
8
1
62
256
6
ByLayer
370
13
48
1
60
0
100
AcDbLine
10
0
20
-12.881597
30
0
11
0
21
-13.245182
31
0
39
0
210
0
220
0
230
1
0
LINE
5
95
100
AcDbEntity
8
1
62
256
6
ByLayer
370
13
48
1
60
0
100
AcDbLine
10
25.433014
20
-5.25966
30
0
11
18.694833
21
-2.117595
31
0
39
0
210
0
220
0
230
1
0
LINE
5
96
100
AcDbEntity
8
1
62
256
6
ByLayer
370
13
48
1
60
0
100
AcDbLine
10
0
20
5.61357
30
0
11
0
21
5.670857
31
0
39
0
210
0
220
0
230
1
0
LINE
5
97
100
AcDbEntity
8
1
62
256
6
ByLayer
370
13
48
1
60
0
100
AcDbLine
10
0
20
-8.06796
30
0
11
0
21
-3.539134
31
0
39
0
210
0
220
0
230
1
0
LINE
5
98
100
AcDbEntity
8
1
62
256
6
ByLayer
370
13
48
1
60
0
100
AcDbLine
10
16.928543
20
-1.644319
30
0
11
16.913977
21
-1.810804
31
0
39
0
210
0
220
0
230
1
0
LINE
5
99
100
AcDbEntity
8
1
62
256
6
ByLayer
370
13
48
1
60
0
100
AcDbLine
10
20.34922
20
-15.607437
30
0
11
20.425545
21
-15.436007
31
0
39
0
210
0
220
0
230
1
0
LINE
5
9A
100
AcDbEntity
8
1
62
256
6
ByLayer
370
13
48
1
60
0
100
AcDbLine
10
18.694833
20
-2.117595
30
0
11
18.582738
21
-2.357983
31
0
39
0
210
0
220
0
230
1
0
LINE
5
9B
100
AcDbEntity
8
1
62
256
6
ByLayer
370
13
48
1
60
0
100
AcDbLine
10
18.582738
20
-2.357983
30
0
11
18.558375
21
-2.410229
31
0
39
0
210
0
220
0
230
1
0
LINE
5
9C
100
AcDbEntity
8
1
62
256
6
ByLayer
370
13
48
1
60
0
100
AcDbLine
10
25.433014
20
-5.25966
30
0
11
25.561308
21
-5.612144
31
0
39
0
210
0
220
0
230
1
0
LINE
5
9D
100
AcDbEntity
8
1
62
256
6
ByLayer
370
13
48
1
60
0
100
AcDbLine
10
16.928543
20
-1.644319
30
0
11
14.836534
21
-1.461292
31
0
39
0
210
0
220
0
230
1
0
LINE
5
9E
100
AcDbEntity
8
1
62
256
6
ByLayer
370
13
48
1
60
0
100
AcDbLine
10
3.039171
20
-17.234723
30
0
11
1.070497
21
-17.078572
31
0
39
0
210
0
220
0
230
1
0
LINE
5
9F
100
AcDbEntity
8
1
62
256
6
ByLayer
370
13
48
1
60
0
100
AcDbLine
10
25.207539
20
-17.974956
30
0
11
25.207539
21
-17.664177
31
0
39
0
210
0
220
0
230
1
0
LINE
5
A0
100
AcDbEntity
8
1
62
256
6
ByLayer
370
13
48
1
60
0
100
AcDbLine
10
25.451651
20
-5.219695
30
0
11
25.433014
21
-5.25966
31
0
39
0
210
0
220
0
230
1
0
LINE
5
A1
100
AcDbEntity
8
1
62
256
6
ByLayer
370
13
48
1
60
0
100
AcDbLine
10
0.706848
20
0.469601
30
0
11
2.099577
21
0.224026
31
0
39
0
210
0
220
0
230
1
0
LINE
5
A2
100
AcDbEntity
8
1
62
256
6
ByLayer
370
13
48
1
60
0
100
AcDbLine
10
6.361322
20
-0.326509
30
0
11
11.714442
21
-1.270409
31
0
39
0
210
0
220
0
230
1
0
LINE
5
A3
100
AcDbEntity
8
1
62
256
6
ByLayer
370
13
48
1
60
0
100
AcDbLine
10
6.357359
20
-0.323651
30
0
11
4.939399
21
-0.073626
31
0
39
0
210
0
220
0
230
1
0
LINE
5
A4
100
AcDbEntity
8
1
62
256
6
ByLayer
370
13
48
1
60
0
100
AcDbLine
10
1.063378
20
-4.162684
30
0
11
0.763333
21
-4.109778
31
0
39
0
210
0
220
0
230
1
0
LINE
5
A5
100
AcDbEntity
8
1
62
256
6
ByLayer
370
13
48
1
60
0
100
AcDbLine
10
6.361322
20
-0.326509
30
0
11
6.357359
21
-0.323651
31
0
39
0
210
0
220
0
230
1
0
LINE
5
A6
100
AcDbEntity
8
1
62
256
6
ByLayer
370
13
48
1
60
0
100
AcDbLine
10
1.791304
20
-2.564812
30
0
11
0.995124
21
-2.424424
31
0
39
0
210
0
220
0
230
1
0
LINE
5
A7
100
AcDbEntity
8
1
62
256
6
ByLayer
370
13
48
1
60
0
100
AcDbLine
10
1.9606
20
-4.219346
30
0
11
1.057629
21
-9.340346
31
0
39
0
210
0
220
0
230
1
0
LINE
5
A8
100
AcDbEntity
8
1
62
256
6
ByLayer
370
13
48
1
60
0
100
AcDbLine
10
-0.104908
20
-9.033817
30
0
11
-0.002337
21
-9.204217
31
0
39
0
210
0
220
0
230
1
0
LINE
5
A9
100
AcDbEntity
8
1
62
256
6
ByLayer
370
13
48
1
60
0
100
AcDbLine
10
0.333713
20
-9.263472
30
0
11
-0.002337
21
-9.204217
31
0
39
0
210
0
220
0
230
1
0
LINE
5
AA
100
AcDbEntity
8
1
62
256
6
ByLayer
370
13
48
1
60
0
100
AcDbLine
10
0.195137
20
-9.086723
30
0
11
-0.104908
21
-9.033817
31
0
39
0
210
0
220
0
230
1
0
LINE
5
AB
100
AcDbEntity
8
1
62
256
6
ByLayer
370
13
48
1
60
0
100
AcDbLine
10
22.73372
20
-13.426867
30
0
11
23.675871
21
-12.860765
31
0
39
0
210
0
220
0
230
1
0
LINE
5
AC
100
AcDbEntity
8
1
62
256
6
ByLayer
370
13
48
1
60
0
100
AcDbLine
10
0.33266
20
-10.837197
30
0
11
-0.463521
21
-10.696809
31
0
39
0
210
0
220
0
230
1
0
LINE
5
AD
100
AcDbEntity
8
1
62
256
6
ByLayer
370
13
48
1
60
0
100
AcDbLine
10
1.9606
20
-4.219346
30
0
11
3.668438
21
-4.520484
31
0
39
0
210
0
220
0
230
1
0
LINE
5
AE
100
AcDbEntity
8
1
62
256
6
ByLayer
370
13
48
1
60
0
100
AcDbLine
10
1.063378
20
-4.162684
30
0
11
0.195137
21
-9.086723
31
0
39
0
210
0
220
0
230
1
0
LINE
5
AF
100
AcDbEntity
8
1
62
256
6
ByLayer
370
13
48
1
60
0
100
AcDbLine
10
4.939399
20
-0.073626
30
0
11
4.675183
21
-0.027038
31
0
39
0
210
0
220
0
230
1
0
LINE
5
B0
100
AcDbEntity
8
1
62
256
6
ByLayer
370
13
48
1
60
0
100
AcDbLine
10
8.903153
20
-12.297635
30
0
11
6.880278
21
-11.940948
31
0
39
0
210
0
220
0
230
1
0
LINE
5
B1
100
AcDbEntity
8
1
62
256
6
ByLayer
370
13
48
1
60
0
100
AcDbLine
10
24.731363
20
-9.033052
30
0
11
24.878286
21
-9.214487
31
0
39
0
210
0
220
0
230
1
0
LINE
5
B2
100
AcDbEntity
8
1
62
256
6
ByLayer
370
13
48
1
60
0
100
AcDbLine
10
24.101532
20
-12.605002
30
0
11
24.301649
21
-12.48476
31
0
39
0
210
0
220
0
230
1
0
LINE
5
B3
100
AcDbEntity
8
1
62
256
6
ByLayer
370
13
48
1
60
0
100
AcDbLine
10
2.438865
20
-14.254858
30
0
11
2.17465
21
-14.20827
31
0
39
0
210
0
220
0
230
1
0
LINE
5
B4
100
AcDbEntity
8
1
62
256
6
ByLayer
370
13
48
1
60
0
100
AcDbLine
10
0.763333
20
-4.109778
30
0
11
-0.104908
21
-9.033817
31
0
39
0
210
0
220
0
230
1
0
LINE
5
B5
100
AcDbEntity
8
1
62
256
6
ByLayer
370
13
48
1
60
0
100
AcDbLine
10
1.791304
20
-2.564812
30
0
11
0.33266
21
-10.837197
31
0
39
0
210
0
220
0
230
1
0
LINE
5
B6
100
AcDbEntity
8
1
62
256
6
ByLayer
370
13
48
1
60
0
100
AcDbLine
10
23.727134
20
-7.792933
30
0
11
24.418849
21
-8.647129
31
0
39
0
210
0
220
0
230
1
0
LINE
5
B7
100
AcDbEntity
8
1
62
256
6
ByLayer
370
13
48
1
60
0
100
AcDbLine
10
0.763333
20
-4.109778
30
0
11
0.917998
21
-3.984736
31
0
39
0
210
0
220
0
230
1
0
LINE
5
B8
100
AcDbEntity
8
1
62
256
6
ByLayer
370
13
48
1
60
0
100
AcDbLine
10
2.438865
20
-14.254858
30
0
11
3.856825
21
-14.504883
31
0
39
0
210
0
220
0
230
1
0
LINE
5
B9
100
AcDbEntity
8
1
62
256
6
ByLayer
370
13
48
1
60
0
100
AcDbLine
10
1.254048
20
-4.043991
30
0
11
0.333713
21
-9.263472
31
0
39
0
210
0
220
0
230
1
0
LINE
5
BA
100
AcDbEntity
8
1
62
256
6
ByLayer
370
13
48
1
60
0
100
AcDbLine
10
0.195137
20
-9.086723
30
0
11
0.333713
21
-9.263472
31
0
39
0
210
0
220
0
230
1
0
LINE
5
BB
100
AcDbEntity
8
1
62
256
6
ByLayer
370
13
48
1
60
0
100
AcDbLine
10
24.545485
20
-8.851795
30
0
11
24.418849
21
-8.647129
31
0
39
0
210
0
220
0
230
1
0
LINE
5
BC
100
AcDbEntity
8
1
62
256
6
ByLayer
370
13
48
1
60
0
100
AcDbLine
10
1.254048
20
-4.043991
30
0
11
0.917998
21
-3.984736
31
0
39
0
210
0
220
0
230
1
0
LINE
5
BD
100
AcDbEntity
8
1
62
256
6
ByLayer
370
13
48
1
60
0
100
AcDbLine
10
25.335142
20
-10.981018
30
0
11
22.288036
21
-10.443731
31
0
39
0
210
0
220
0
230
1
0
LINE
5
BE
100
AcDbEntity
8
1
62
256
6
ByLayer
370
13
48
1
60
0
100
AcDbLine
10
11.519899
20
-2.373716
30
0
11
4.002705
21
-1.048232
31
0
39
0
210
0
220
0
230
1
0
LINE
5
BF
100
AcDbEntity
8
1
62
256
6
ByLayer
370
13
48
1
60
0
100
AcDbLine
10
9.40919
20
-14.344144
30
0
11
1.891996
21
-13.01866
31
0
39
0
210
0
220
0
230
1
0
LINE
5
C0
100
AcDbEntity
8
1
62
256
6
ByLayer
370
13
48
1
60
0
100
AcDbLine
10
1.057629
20
-9.340346
30
0
11
2.765467
21
-9.641484
31
0
39
0
210
0
220
0
230
1
0
LINE
5
C1
100
AcDbEntity
8
1
62
256
6
ByLayer
370
13
48
1
60
0
100
AcDbLine
10
1.063378
20
-4.162684
30
0
11
1.254048
21
-4.043991
31
0
39
0
210
0
220
0
230
1
0
LINE
5
C2
100
AcDbEntity
8
1
62
256
6
ByLayer
370
13
48
1
60
0
100
AcDbLine
10
3.861527
20
-14.503552
30
0
11
9.214647
21
-15.447452
31
0
39
0
210
0
220
0
230
1
0
LINE
5
C3
100
AcDbEntity
8
1
62
256
6
ByLayer
370
13
48
1
60
0
100
AcDbLine
10
3.861527
20
-14.503552
30
0
11
3.856825
21
-14.504883
31
0
39
0
210
0
220
0
230
1
0
LINE
5
C4
100
AcDbEntity
8
1
62
256
6
ByLayer
370
13
48
1
60
0
100
AcDbLine
10
-0.463521
20
-10.696809
30
0
11
0.995124
21
-2.424424
31
0
39
0
210
0
220
0
230
1
0
LINE
5
C5
100
AcDbEntity
8
1
62
256
6
ByLayer
370
13
48
1
60
0
100
AcDbLine
10
8.321558
20
-3.767043
30
0
11
10.344432
21
-4.123731
31
0
39
0
210
0
220
0
230
1
0
LINE
5
C6
100
AcDbEntity
8
1
62
256
6
ByLayer
370
13
48
1
60
0
100
AcDbLine
10
23.675871
20
-12.860765
30
0
11
23.86487
21
-12.711754
31
0
39
0
210
0
220
0
230
1
0
LINE
5
C7
100
AcDbEntity
8
1
62
256
6
ByLayer
370
13
48
1
60
0
100
AcDbLine
10
31.01769
20
-19.529861
30
0
11
29.670262
21
-19.411977
31
0
39
0
210
0
220
0
230
1
0
LINE
5
C8
100
AcDbEntity
8
1
62
256
6
ByLayer
370
13
48
1
60
0
100
AcDbLine
10
29.727156
20
-11.888271
30
0
11
31.424381
21
-15.527982
31
0
39
0
210
0
220
0
230
1
0
LINE
5
C9
100
AcDbEntity
8
1
62
256
6
ByLayer
370
13
48
1
60
0
100
AcDbLine
10
15.05945
20
-1.622279
30
0
11
16.406878
21
-1.740164
31
0
39
0
210
0
220
0
230
1
0
LINE
5
CA
100
AcDbEntity
8
1
62
256
6
ByLayer
370
13
48
1
60
0
100
AcDbLine
10
31.874477
20
-17.207762
30
0
11
31.992361
21
-18.55519
31
0
39
0
210
0
220
0
230
1
0
LINE
5
CB
100
AcDbEntity
8
1
62
256
6
ByLayer
370
13
48
1
60
0
100
AcDbLine
10
24.101039
20
-17.159801
30
0
11
20.706618
21
-15.576957
31
0
39
0
210
0
220
0
230
1
0
LINE
5
CC
100
AcDbEntity
8
1
62
256
6
ByLayer
370
13
48
1
60
0
100
AcDbLine
10
28.039457
20
-8.244118
30
0
11
29.622301
21
-11.638539
31
0
39
0
210
0
220
0
230
1
0
LINE
5
CD
100
AcDbEntity
8
1
62
256
6
ByLayer
370
13
48
1
60
0
100
AcDbLine
10
27.990482
20
-18.961881
30
0
11
24.350771
21
-17.264656
31
0
39
0
210
0
220
0
230
1
0
LINE
5
CE
100
AcDbEntity
8
1
62
256
6
ByLayer
370
13
48
1
60
0
100
AcDbLine
10
18.086659
20
-2.190259
30
0
11
21.726369
21
-3.887484
31
0
39
0
210
0
220
0
230
1
0
LINE
5
CF
100
AcDbEntity
8
1
62
256
6
ByLayer
370
13
48
1
60
0
100
AcDbLine
10
21.976101
20
-3.992339
30
0
11
25.370522
21
-5.575184
31
0
39
0
210
0
220
0
230
1
0
MTEXT
5
159
100
AcDbEntity
8
SK6
62
256
6
ByLayer
370
13
48
1
60
0
100
AcDbMText
10
-83.449979
20
23.367166
30
0
210
0
220
0
230
1
1
\W0.7293;QS-CP-25BL-2525-11B
40
3.5
41
0
44
1.084337
50
0
71
7
72
5
7
iso_b_vert
0
DIMENSION
5
16B
100
AcDbEntity
8
SK2
62
256
6
ByLayer
370
13
48
1
60
0
100
AcDbDimension
2
DimnDraft3D1
10
-93.10005
20
12.4625
30
0
11
-93.10005
21
0
31
0
70
32
71
5
72
1
41
1
210
0
220
0
230
1
3
Standard
100
AcDbAlignedDimension
13
-85.5875
23
-12.4625
33
0
14
-85.5875
24
12.4625
34
0
50
90
100
AcDbRotatedDimension
1001
ACAD
1000
DSTYLE
1002
{
1070
    74
1070
     0
1070
   279
1070
     0
1070
   172
1070
     1
1070
   173
1070
     1
1070
   340
1005
15A
1070
   271
1070
     1
1070
   272
1070
     2
1070
    77
1070
     1
1070
    73
1070
     0
1070
   171
1070
     3
1070
   274
1070
     4
1070
   177
1070
   150
1070
   176
1070
     9
1070
   178
1070
    43
1070
    78
1070
     8
1070
    48
1040
-0.005
1070
    41
1041
3.175
1070
   147
1041
2.25
1070
    42
1041
1.5875
1070
    44
1041
3.175
1070
   140
1041
4.5
1070
   343
1005
16C
1070
   344
1005
16C
1002
}
0
DIMENSION
5
180
100
AcDbEntity
8
SK2
62
256
6
ByLayer
370
13
48
1
60
0
100
AcDbDimension
2
DimnDraft3D2
10
32
20
-49.0375
30
0
11
-26
21
-49.0375
31
0
70
32
71
5
72
1
41
1
210
0
220
0
230
1
3
Standard
100
AcDbAlignedDimension
13
-84
23
-14.05
33
0
14
32
24
-21.125
34
0
50
0
100
AcDbRotatedDimension
1001
ACAD
1000
DSTYLE
1002
{
1070
   279
1070
     0
1070
   172
1070
     1
1070
   173
1070
     1
1070
   340
1005
15A
1070
   271
1070
     1
1070
   272
1070
     2
1070
    77
1070
     1
1070
    73
1070
     0
1070
   171
1070
     3
1070
   274
1070
     4
1070
   177
1070
   150
1070
   176
1070
     9
1070
   178
1070
    43
1070
    78
1070
     8
1070
    48
1040
-0.005
1070
    41
1041
3.175
1070
   147
1041
2.25
1070
    42
1041
1.5875
1070
    44
1041
3.175
1070
   140
1041
4.5
1070
   343
1005
16C
1070
   344
1005
16C
1002
}
0
DIMENSION
5
18F
100
AcDbEntity
8
2
62
256
6
ByLayer
370
13
48
1
60
0
100
AcDbDimension
2
DimnDraft3D3
10
0
20
24.31255
30
0
11
16
21
24.31255
31
0
70
32
71
5
72
1
41
1
210
0
220
0
230
1
3
Standard
100
AcDbAlignedDimension
13
32
23
-17.95
33
0
14
0
24
14.05
34
0
50
0
100
AcDbRotatedDimension
1001
ACAD
1000
DSTYLE
1002
{
1070
   279
1070
     0
1070
   172
1070
     1
1070
   173
1070
     1
1070
   340
1005
15A
1070
   271
1070
     1
1070
   272
1070
     2
1070
    77
1070
     1
1070
    73
1070
     0
1070
   171
1070
     3
1070
   274
1070
     4
1070
   177
1070
   150
1070
   176
1070
     9
1070
   178
1070
    43
1070
    78
1070
     8
1070
    48
1040
-0.005
1070
    41
1041
3.175
1070
   147
1041
2.25
1070
    42
1041
1.5875
1070
    44
1041
3.175
1070
   140
1041
4.5
1070
   343
1005
16C
1070
   344
1005
16C
1002
}
0
DIMENSION
5
19D
100
AcDbEntity
8
2
62
256
6
ByLayer
370
13
48
1
60
0
100
AcDbDimension
2
DimnDraft3D4
10
31.07981
20
-16.58679
30
0
11
24.128526
21
16.945782
31
0
70
34
71
5
72
1
41
1
210
0
220
0
230
1
3
Standard
100
AcDb2LineAngularDimension
13
32
23
-19.5375
33
0
14
32
24
-17.9375
34
0
15
31.925046
25
-18.399405
35
0
16
25.102504
26
12.55245
36
0
40
0
0
DIMENSION
5
1AB
100
AcDbEntity
8
2
62
256
6
ByLayer
370
13
48
1
60
0
100
AcDbDimension
2
DimnDraft3D5
10
52.85
20
12.4625
30
0
11
52.85
21
-3.5375
31
0
70
32
71
5
72
1
41
1
210
0
220
0
230
1
3
Standard
100
AcDbAlignedDimension
13
33.5875
23
-19.5375
33
0
14
1.5875
24
12.4625
34
0
50
90
100
AcDbRotatedDimension
1001
ACAD
1000
DSTYLE
1002
{
1070
    74
1070
     0
1070
   279
1070
     0
1070
   172
1070
     1
1070
   173
1070
     1
1070
   340
1005
15A
1070
   271
1070
     1
1070
   272
1070
     2
1070
    77
1070
     1
1070
    73
1070
     0
1070
   171
1070
     3
1070
   274
1070
     4
1070
   177
1070
   150
1070
   176
1070
     9
1070
   178
1070
    43
1070
    78
1070
     8
1070
    48
1040
-0.005
1070
    41
1041
3.175
1070
   147
1041
2.25
1070
    42
1041
1.5875
1070
    44
1041
3.175
1070
   140
1041
4.5
1070
   343
1005
16C
1070
   344
1005
16C
1002
}
0
ENDSEC
0
SECTION
2
OBJECTS
0
DICTIONARY
5
215
330
0
100
AcDbDictionary
280
0
281
1
3
ACAD_GROUP
350
216
3
ACAD_MLINESTYLE
350
217
0
DICTIONARY
5
216
330
0
100
AcDbDictionary
280
0
281
1
0
DICTIONARY
5
217
330
0
100
AcDbDictionary
280
0
281
1
3
Standard
350
18
0
MLINESTYLE
5
18
330
217
100
AcDbMlineStyle
2
Standard
70
0
3

62
256
51
90
52
90
71
2
49
-0.5
62
256
6
ByLayer
49
0.5
62
256
6
ByLayer
0
RASTERVARIABLES
5
204
330

100
AcDbRasterVariables
90
0
70
1
71
1
72
1
0
ENDSEC
0
EOF
