0
SECTION
2
HEADER
9
$ACADVER
1
AC1015
9
$DWGCODEPAGE
3
ANSI_1252
9
$HANDSEED
5
21d
9
$ANGBASE
50
0
9
$ANGDIR
70
0
9
$ATTMODE
70
1
9
$AUNITS
70
0
9
$AUPREC
70
0
9
$CECOLOR
62
256
9
$CELTSCALE
40
1
9
$CELTYPE
6
ByLayer
9
$CELWEIGHT
370
18
9
$CLAYER
8
0
9
$CMLJUST
70
0
9
$CMLSCALE
40
1
9
$CMLSTYLE
2
Standard
9
$DIMSTYLE
2
Standard
9
$TEXTSIZE
40
0.2
9
$TEXTSTYLE
7
Standard
9
$LUNITS
70
2
9
$LUPREC
70
4
9
$EXTNAMES
290
1
9
$INSUNITS
70
4
9
$LTSCALE
40
1
9
$LWDISPLAY
290
1
9
$PDMODE
70
0
9
$PDSIZE
40
0
9
$PLINEGEN
70
0
0
ENDSEC
0
SECTION
2
CLASSES
0
CLASS
1
RASTERVARIABLES
2
AcDbRasterVariables
3
ISM
90
0
280
0
281
0
0
ENDSEC
0
SECTION
2
TABLES
0
TABLE
2
VPORT
5
213
100
AcDbSymbolTable
0
VPORT
5
1
100
AcDbSymbolTableRecord
100
AcDbViewportTableRecord
2
*Active
70
0
10
0
20
0
11
1
21
1
12
-1
22
1
13
0
23
0
14
0.5
24
0.5
15
10
25
10
16
0
26
0
36
1
17
0
27
0
37
0
0
ENDTAB
0
TABLE
2
LTYPE
5
214
100
AcDbSymbolTable
0
LTYPE
5
14
100
AcDbSymbolTableRecord
100
AcDbLinetypeTableRecord
70
0
2
ByBlock
3

72
65
73
0
40
0
0
LTYPE
5
15
100
AcDbSymbolTableRecord
100
AcDbLinetypeTableRecord
70
0
2
ByLayer
3

72
65
73
0
40
0
0
LTYPE
5
16
100
AcDbSymbolTableRecord
100
AcDbLinetypeTableRecord
70
0
2
CONTINUOUS
3
Solid line
72
65
73
0
40
0
0
LTYPE
5
6A
100
AcDbSymbolTableRecord
100
AcDbLinetypeTableRecord
70
0
2
CENTER
3
____ _ ____ _ ____ _ ____
72
65
73
4
40
47.5
49
22
74
0
49
-8.5
74
0
49
8.5
74
0
49
-8.5
74
0
0
LTYPE
5
6B
100
AcDbSymbolTableRecord
100
AcDbLinetypeTableRecord
70
0
2
DASHED
3
__ __ __ __ __ __ __ __ __
72
65
73
2
40
25.72
49
12.86
74
0
49
-12.86
74
0
0
ENDTAB
0
TABLE
2
LAYER
5
215
100
AcDbSymbolTable
0
LAYER
5
10
100
AcDbSymbolTableRecord
100
AcDbLayerTableRecord
2
0
70
0
62
7
6
CONTINUOUS
290
1
370
-3
390
0
0
LAYER
5
6D
100
AcDbSymbolTableRecord
100
AcDbLayerTableRecord
2
80
70
0
62
-6
6
CONTINUOUS
290
1
370
-3
390
0
0
LAYER
5
6F
100
AcDbSymbolTableRecord
100
AcDbLayerTableRecord
2
81
70
0
62
-3
6
CONTINUOUS
290
1
370
-3
390
0
0
LAYER
5
73
100
AcDbSymbolTableRecord
100
AcDbLayerTableRecord
2
1
70
0
62
4
6
CONTINUOUS
290
1
370
-3
390
0
0
LAYER
5
17E
100
AcDbSymbolTableRecord
100
AcDbLayerTableRecord
2
2
70
0
62
7
6
CONTINUOUS
290
1
370
-3
390
0
0
LAYER
5
200
100
AcDbSymbolTableRecord
100
AcDbLayerTableRecord
2
SK1
70
0
62
4
6
CONTINUOUS
290
1
370
-3
390
0
0
LAYER
5
201
100
AcDbSymbolTableRecord
100
AcDbLayerTableRecord
2
SK6
70
0
62
5
6
CONTINUOUS
290
1
370
-3
390
0
0
LAYER
5
202
100
AcDbSymbolTableRecord
100
AcDbLayerTableRecord
2
SK2
70
0
62
7
6
CONTINUOUS
290
1
370
-3
390
0
0
ENDTAB
0
TABLE
2
STYLE
5
216
100
AcDbSymbolTable
0
STYLE
5
11
100
AcDbSymbolTableRecord
100
AcDbTextStyleTableRecord
2
Standard
3
txt
70
0
71
0
40
0
41
1
42
0
50
0
0
STYLE
5
155
100
AcDbSymbolTableRecord
100
AcDbTextStyleTableRecord
2
iso_b_vert
3
simplex.shx
70
0
71
0
40
0
41
1
42
0
50
0
0
STYLE
5
156
100
AcDbSymbolTableRecord
100
AcDbTextStyleTableRecord
2
DWGDirectTextStyle
3
simplex
70
0
71
0
40
0
41
1
42
0
50
0
0
ENDTAB
0
TABLE
2
DIMSTYLE
5
217
100
AcDbSymbolTable
100
AcDbDimStyleTable
0
DIMSTYLE
105
27
100
AcDbSymbolTableRecord
100
AcDbDimStyleTableRecord
2
Standard
70
0
3
<>
41
0.18
42
0.0625
44
0.18
140
0.18
147
0.09
73
0
74
0
77
1
271
2
275
0
278
52
280
0
340
11
0
ENDTAB
0
TABLE
2
VIEW
5
218
100
AcDbSymbolTable
0
ENDTAB
0
TABLE
2
UCS
5
219
100
AcDbSymbolTable
0
ENDTAB
0
TABLE
2
APPID
5
21a
100
AcDbSymbolTable
0
APPID
5
12
100
AcDbSymbolTableRecord
100
AcDbRegAppTableRecord
2
ACAD
70
0
0
ENDTAB
0
TABLE
2
BLOCK_RECORD
5
21b
100
AcDbSymbolTable
0
BLOCK_RECORD
5
1F
100
AcDbSymbolTableRecord
100
AcDbBlockTableRecord
2
*Model_Space
340
0
70
0
0
BLOCK_RECORD
5
1B
100
AcDbSymbolTableRecord
100
AcDbBlockTableRecord
2
*Paper_Space
340
0
70
0
0
BLOCK_RECORD
5
23
100
AcDbSymbolTableRecord
100
AcDbBlockTableRecord
2
*Paper_Space0
340
0
70
0
0
BLOCK_RECORD
5
158
100
AcDbSymbolTableRecord
100
AcDbBlockTableRecord
2
DimnDraft3D1
340
0
70
0
0
BLOCK_RECORD
5
167
100
AcDbSymbolTableRecord
100
AcDbBlockTableRecord
2
_CLOSED
340
0
70
0
0
BLOCK_RECORD
5
16E
100
AcDbSymbolTableRecord
100
AcDbBlockTableRecord
2
DimnDraft3D2
340
0
70
0
0
BLOCK_RECORD
5
17C
100
AcDbSymbolTableRecord
100
AcDbBlockTableRecord
2
DimnDraft3D3
340
0
70
0
0
BLOCK_RECORD
5
18B
100
AcDbSymbolTableRecord
100
AcDbBlockTableRecord
2
DimnDraft3D4
340
0
70
0
0
BLOCK_RECORD
5
199
100
AcDbSymbolTableRecord
100
AcDbBlockTableRecord
2
DimnDraft3D5
340
0
70
0
0
ENDTAB
0
ENDSEC
0
SECTION
2
BLOCKS
0
BLOCK
5
20
100
AcDbEntity
8
0
100
AcDbBlockBegin
2
*Model_Space
70
0
10
0
20
0
30
0
3
*Model_Space
0
ENDBLK
5
21
100
AcDbEntity
8
0
100
AcDbBlockEnd
0
BLOCK
5
1C
100
AcDbEntity
8
0
100
AcDbBlockBegin
2
*Paper_Space
70
0
10
0
20
0
30
0
3
*Paper_Space
0
ENDBLK
5
1D
100
AcDbEntity
8
0
100
AcDbBlockEnd
0
BLOCK
5
24
100
AcDbEntity
8
0
100
AcDbBlockBegin
2
*Paper_Space0
70
0
10
0
20
0
30
0
3
*Paper_Space0
0
ENDBLK
5
25
100
AcDbEntity
8
0
100
AcDbBlockEnd
0
BLOCK
5
164
100
AcDbEntity
8
0
100
AcDbBlockBegin
2
DimnDraft3D1
70
0
10
0
20
0
30
0
3
DimnDraft3D1
0
MTEXT
5
159
100
AcDbEntity
8
SK2
62
256
6
ByLayer
370
13
48
1
60
0
100
AcDbMText
10
-79.22505
20
-4.156579
30
0
210
0
220
0
230
1
1
\W0.7346;20.0
40
4.5
41
0
44
1.084337
50
90
71
7
72
5
7
iso_b_vert
0
LINE
5
15B
100
AcDbEntity
8
SK2
62
256
6
ByLayer
370
13
48
1
60
0
100
AcDbLine
10
-70.5875
20
-9.9625
30
0
11
-81.27505
21
-9.9625
31
0
39
0
210
0
220
0
230
1
0
LINE
5
15C
100
AcDbEntity
8
SK2
62
256
6
ByLayer
370
13
48
1
60
0
100
AcDbLine
10
-70.5875
20
9.9625
30
0
11
-81.27505
21
9.9625
31
0
39
0
210
0
220
0
230
1
0
LINE
5
15D
100
AcDbEntity
8
SK2
62
256
6
ByLayer
370
13
48
1
60
0
100
AcDbLine
10
-78.10005
20
-9.9625
30
0
11
-78.10005
21
9.9625
31
0
39
0
210
0
220
0
230
1
0
LINE
5
15E
100
AcDbEntity
8
SK2
62
256
6
ByLayer
370
13
48
1
60
0
100
AcDbLine
10
-78.10005
20
-9.9625
30
0
11
-78.950789
21
-6.787503
31
0
39
0
210
0
220
0
230
1
0
LINE
5
15F
100
AcDbEntity
8
SK2
62
256
6
ByLayer
370
13
48
1
60
0
100
AcDbLine
10
-78.10005
20
-9.9625
30
0
11
-77.249311
21
-6.787497
31
0
39
0
210
0
220
0
230
1
0
LINE
5
160
100
AcDbEntity
8
SK2
62
256
6
ByLayer
370
13
48
1
60
0
100
AcDbLine
10
-78.950789
20
-6.787503
30
0
11
-77.249311
21
-6.787497
31
0
39
0
210
0
220
0
230
1
0
LINE
5
161
100
AcDbEntity
8
SK2
62
256
6
ByLayer
370
13
48
1
60
0
100
AcDbLine
10
-78.10005
20
9.9625
30
0
11
-77.249311
21
6.787503
31
0
39
0
210
0
220
0
230
1
0
LINE
5
162
100
AcDbEntity
8
SK2
62
256
6
ByLayer
370
13
48
1
60
0
100
AcDbLine
10
-78.10005
20
9.9625
30
0
11
-78.950789
21
6.787497
31
0
39
0
210
0
220
0
230
1
0
LINE
5
163
100
AcDbEntity
8
SK2
62
256
6
ByLayer
370
13
48
1
60
0
100
AcDbLine
10
-77.249311
20
6.787503
30
0
11
-78.950789
21
6.787497
31
0
39
0
210
0
220
0
230
1
0
ENDBLK
5
165
100
AcDbEntity
8
0
100
AcDbBlockEnd
0
BLOCK
5
168
100
AcDbEntity
8
0
100
AcDbBlockBegin
2
_CLOSED
70
0
10
0
20
0
30
0
3
_CLOSED
0
LINE
5
16A
100
AcDbEntity
8
0
62
256
6
ByLayer
370
-2
48
1
60
0
100
AcDbLine
10
-1
20
0.166667
30
0
11
0
21
0
31
0
39
0
210
0
220
0
230
1
0
LINE
5
16B
100
AcDbEntity
8
0
62
256
6
ByLayer
370
-2
48
1
60
0
100
AcDbLine
10
0
20
0
30
0
11
-1
21
-0.166667
31
0
39
0
210
0
220
0
230
1
0
LINE
5
16C
100
AcDbEntity
8
0
62
256
6
ByLayer
370
-2
48
1
60
0
100
AcDbLine
10
-1
20
0.166667
30
0
11
-1
21
-0.166667
31
0
39
0
210
0
220
0
230
1
0
LINE
5
16D
100
AcDbEntity
8
0
62
256
6
ByLayer
370
-2
48
1
60
0
100
AcDbLine
10
0
20
0
30
0
11
-1
21
0
31
0
39
0
210
0
220
0
230
1
0
ENDBLK
5
169
100
AcDbEntity
8
0
100
AcDbBlockEnd
0
BLOCK
5
179
100
AcDbEntity
8
0
100
AcDbBlockBegin
2
DimnDraft3D2
70
0
10
0
20
0
30
0
3
DimnDraft3D2
0
MTEXT
5
16F
100
AcDbEntity
8
SK2
62
256
6
ByLayer
370
13
48
1
60
0
100
AcDbMText
10
-23.213158
20
-46.4125
30
0
210
0
220
0
230
1
1
\W0.6261;101.0
40
4.5
41
0
44
1.084337
50
0
71
7
72
5
7
iso_b_vert
0
LINE
5
170
100
AcDbEntity
8
SK2
62
256
6
ByLayer
370
13
48
1
60
0
100
AcDbLine
10
-69
20
-11.55
30
0
11
-69
21
-50.7125
31
0
39
0
210
0
220
0
230
1
0
LINE
5
171
100
AcDbEntity
8
SK2
62
256
6
ByLayer
370
13
48
1
60
0
100
AcDbLine
10
32
20
-19.625
30
0
11
32
21
-50.7125
31
0
39
0
210
0
220
0
230
1
0
LINE
5
172
100
AcDbEntity
8
SK2
62
256
6
ByLayer
370
13
48
1
60
0
100
AcDbLine
10
-69
20
-47.5375
30
0
11
32
21
-47.5375
31
0
39
0
210
0
220
0
230
1
0
LINE
5
173
100
AcDbEntity
8
SK2
62
256
6
ByLayer
370
13
48
1
60
0
100
AcDbLine
10
-69
20
-47.5375
30
0
11
-65.825003
21
-46.686761
31
0
39
0
210
0
220
0
230
1
0
LINE
5
174
100
AcDbEntity
8
SK2
62
256
6
ByLayer
370
13
48
1
60
0
100
AcDbLine
10
-69
20
-47.5375
30
0
11
-65.824997
21
-48.388239
31
0
39
0
210
0
220
0
230
1
0
LINE
5
175
100
AcDbEntity
8
SK2
62
256
6
ByLayer
370
13
48
1
60
0
100
AcDbLine
10
-65.825003
20
-46.686761
30
0
11
-65.824997
21
-48.388239
31
0
39
0
210
0
220
0
230
1
0
LINE
5
176
100
AcDbEntity
8
SK2
62
256
6
ByLayer
370
13
48
1
60
0
100
AcDbLine
10
32
20
-47.5375
30
0
11
28.825003
21
-48.388239
31
0
39
0
210
0
220
0
230
1
0
LINE
5
177
100
AcDbEntity
8
SK2
62
256
6
ByLayer
370
13
48
1
60
0
100
AcDbLine
10
32
20
-47.5375
30
0
11
28.824997
21
-46.686761
31
0
39
0
210
0
220
0
230
1
0
LINE
5
178
100
AcDbEntity
8
SK2
62
256
6
ByLayer
370
13
48
1
60
0
100
AcDbLine
10
28.825003
20
-48.388239
30
0
11
28.824997
21
-46.686761
31
0
39
0
210
0
220
0
230
1
0
ENDBLK
5
17A
100
AcDbEntity
8
0
100
AcDbBlockEnd
0
BLOCK
5
188
100
AcDbEntity
8
0
100
AcDbBlockBegin
2
DimnDraft3D3
70
0
10
0
20
0
30
0
3
DimnDraft3D3
0
MTEXT
5
17D
100
AcDbEntity
8
2
62
256
6
ByLayer
370
13
48
1
60
0
100
AcDbMText
10
11.843421
20
22.93755
30
0
210
0
220
0
230
1
1
\W0.7346;32.0
40
4.5
41
0
44
1.084337
50
0
71
7
72
5
7
iso_b_vert
0
LINE
5
17F
100
AcDbEntity
8
2
62
256
6
ByLayer
370
13
48
1
60
0
100
AcDbLine
10
32
20
-16.45
30
0
11
32
21
24.98755
31
0
39
0
210
0
220
0
230
1
0
LINE
5
180
100
AcDbEntity
8
2
62
256
6
ByLayer
370
13
48
1
60
0
100
AcDbLine
10
0
20
11.55
30
0
11
0
21
24.98755
31
0
39
0
210
0
220
0
230
1
0
LINE
5
181
100
AcDbEntity
8
2
62
256
6
ByLayer
370
13
48
1
60
0
100
AcDbLine
10
32
20
21.81255
30
0
11
0
21
21.81255
31
0
39
0
210
0
220
0
230
1
0
LINE
5
182
100
AcDbEntity
8
2
62
256
6
ByLayer
370
13
48
1
60
0
100
AcDbLine
10
32
20
21.81255
30
0
11
28.825003
21
20.961811
31
0
39
0
210
0
220
0
230
1
0
LINE
5
183
100
AcDbEntity
8
2
62
256
6
ByLayer
370
13
48
1
60
0
100
AcDbLine
10
32
20
21.81255
30
0
11
28.824997
21
22.663289
31
0
39
0
210
0
220
0
230
1
0
LINE
5
184
100
AcDbEntity
8
2
62
256
6
ByLayer
370
13
48
1
60
0
100
AcDbLine
10
28.825003
20
20.961811
30
0
11
28.824997
21
22.663289
31
0
39
0
210
0
220
0
230
1
0
LINE
5
185
100
AcDbEntity
8
2
62
256
6
ByLayer
370
13
48
1
60
0
100
AcDbLine
10
0
20
21.81255
30
0
11
3.174997
21
22.663289
31
0
39
0
210
0
220
0
230
1
0
LINE
5
186
100
AcDbEntity
8
2
62
256
6
ByLayer
370
13
48
1
60
0
100
AcDbLine
10
0
20
21.81255
30
0
11
3.175003
21
20.961811
31
0
39
0
210
0
220
0
230
1
0
LINE
5
187
100
AcDbEntity
8
2
62
256
6
ByLayer
370
13
48
1
60
0
100
AcDbLine
10
3.174997
20
22.663289
30
0
11
3.175003
21
20.961811
31
0
39
0
210
0
220
0
230
1
0
ENDBLK
5
189
100
AcDbEntity
8
0
100
AcDbBlockEnd
0
BLOCK
5
196
100
AcDbEntity
8
0
100
AcDbBlockBegin
2
DimnDraft3D4
70
0
10
0
20
0
30
0
3
DimnDraft3D4
0
MTEXT
5
18C
100
AcDbEntity
8
2
62
256
6
ByLayer
370
13
48
1
60
0
100
AcDbMText
10
21.657485
20
10.387589
30
0
210
0
220
0
230
1
1
\W0.7346;25.0
40
4.5
41
0
44
1.084337
50
12.5
71
7
72
5
7
iso_b_vert
0
LINE
5
18D
100
AcDbEntity
8
2
62
256
6
ByLayer
370
13
48
1
60
0
100
AcDbLine
10
32
20
-14.85
30
0
11
32
21
14.025498
31
0
39
0
210
0
220
0
230
1
0
LINE
5
18E
100
AcDbEntity
8
2
62
256
6
ByLayer
370
13
48
1
60
0
100
AcDbLine
10
30.408903
20
-13.648026
30
0
11
18.86264
21
11.113016
31
0
39
0
210
0
220
0
230
1
0
ARC
5
18F
100
AcDbEntity
8
2
62
256
6
ByLayer
370
13
48
1
60
0
100
AcDbCircle
39
0
10
32
20
-17.060144
30
0
40
27.9106424810684
210
0
220
0
230
1
100
AcDbArc
50
90
51
115
0
LINE
5
190
100
AcDbEntity
8
2
62
256
6
ByLayer
370
13
48
1
60
0
100
AcDbLine
10
32
20
10.850498
30
0
11
28.850449
21
9.909918
31
0
39
0
210
0
220
0
230
1
0
LINE
5
191
100
AcDbEntity
8
2
62
256
6
ByLayer
370
13
48
1
60
0
100
AcDbLine
10
32
20
10.850498
30
0
11
28.802113
21
11.610709
31
0
39
0
210
0
220
0
230
1
0
LINE
5
192
100
AcDbEntity
8
2
62
256
6
ByLayer
370
13
48
1
60
0
100
AcDbLine
10
28.850449
20
9.909918
30
0
11
28.802113
21
11.610709
31
0
39
0
210
0
220
0
230
1
0
LINE
5
193
100
AcDbEntity
8
2
62
256
6
ByLayer
370
13
48
1
60
0
100
AcDbLine
10
20.204453
20
8.235488
30
0
11
22.781438
21
10.275956
31
0
39
0
210
0
220
0
230
1
0
LINE
5
194
100
AcDbEntity
8
2
62
256
6
ByLayer
370
13
48
1
60
0
100
AcDbLine
10
20.204453
20
8.235488
30
0
11
23.456427
21
8.714094
31
0
39
0
210
0
220
0
230
1
0
LINE
5
195
100
AcDbEntity
8
2
62
256
6
ByLayer
370
13
48
1
60
0
100
AcDbLine
10
22.781438
20
10.275956
30
0
11
23.456427
21
8.714094
31
0
39
0
210
0
220
0
230
1
0
ENDBLK
5
197
100
AcDbEntity
8
0
100
AcDbBlockEnd
0
BLOCK
5
1A4
100
AcDbEntity
8
0
100
AcDbBlockBegin
2
DimnDraft3D5
70
0
10
0
20
0
30
0
3
DimnDraft3D5
0
MTEXT
5
19A
100
AcDbEntity
8
2
62
256
6
ByLayer
370
13
48
1
60
0
100
AcDbMText
10
51.725
20
-8.194079
30
0
210
0
220
0
230
1
1
\W0.7346;28.0
40
4.5
41
0
44
1.084337
50
90
71
7
72
5
7
iso_b_vert
0
LINE
5
19B
100
AcDbEntity
8
2
62
256
6
ByLayer
370
13
48
1
60
0
100
AcDbLine
10
33.5875
20
-18.0375
30
0
11
56.025
21
-18.0375
31
0
39
0
210
0
220
0
230
1
0
LINE
5
19C
100
AcDbEntity
8
2
62
256
6
ByLayer
370
13
48
1
60
0
100
AcDbLine
10
1.5875
20
9.9625
30
0
11
56.025
21
9.9625
31
0
39
0
210
0
220
0
230
1
0
LINE
5
19D
100
AcDbEntity
8
2
62
256
6
ByLayer
370
13
48
1
60
0
100
AcDbLine
10
52.85
20
-18.0375
30
0
11
52.85
21
9.9625
31
0
39
0
210
0
220
0
230
1
0
LINE
5
19E
100
AcDbEntity
8
2
62
256
6
ByLayer
370
13
48
1
60
0
100
AcDbLine
10
52.85
20
-18.0375
30
0
11
51.999261
21
-14.862503
31
0
39
0
210
0
220
0
230
1
0
LINE
5
19F
100
AcDbEntity
8
2
62
256
6
ByLayer
370
13
48
1
60
0
100
AcDbLine
10
52.85
20
-18.0375
30
0
11
53.700739
21
-14.862497
31
0
39
0
210
0
220
0
230
1
0
LINE
5
1A0
100
AcDbEntity
8
2
62
256
6
ByLayer
370
13
48
1
60
0
100
AcDbLine
10
51.999261
20
-14.862503
30
0
11
53.700739
21
-14.862497
31
0
39
0
210
0
220
0
230
1
0
LINE
5
1A1
100
AcDbEntity
8
2
62
256
6
ByLayer
370
13
48
1
60
0
100
AcDbLine
10
52.85
20
9.9625
30
0
11
53.700739
21
6.787503
31
0
39
0
210
0
220
0
230
1
0
LINE
5
1A2
100
AcDbEntity
8
2
62
256
6
ByLayer
370
13
48
1
60
0
100
AcDbLine
10
52.85
20
9.9625
30
0
11
51.999261
21
6.787497
31
0
39
0
210
0
220
0
230
1
0
LINE
5
1A3
100
AcDbEntity
8
2
62
256
6
ByLayer
370
13
48
1
60
0
100
AcDbLine
10
53.700739
20
6.787503
30
0
11
51.999261
21
6.787497
31
0
39
0
210
0
220
0
230
1
0
ENDBLK
5
1A5
100
AcDbEntity
8
0
100
AcDbBlockEnd
0
ENDSEC
0
SECTION
2
ENTITIES
0
ARC
5
CD
100
AcDbEntity
8
1
62
256
6
ByLayer
370
13
48
1
60
0
100
AcDbCircle
39
0
10
14.665252
20
-1.919053
30
0
40
1.9652394818269
210
0
220
0
230
1
100
AcDbArc
50
85
51
122.452879
0
ARC
5
CE
100
AcDbEntity
8
1
62
256
6
ByLayer
370
13
48
1
60
0
100
AcDbCircle
39
0
10
22.490786
20
-9.297401
30
0
40
5.26523948182689
210
0
220
0
230
1
100
AcDbArc
50
230.440502
51
246
0
ARC
5
CF
100
AcDbEntity
8
1
62
256
6
ByLayer
370
13
48
1
60
0
100
AcDbCircle
39
0
10
-16.469647
20
-5.389522
30
0
40
5
210
0
220
0
230
-1
100
AcDbArc
50
105.679684
51
115
0
ARC
5
D0
100
AcDbEntity
8
1
62
256
6
ByLayer
370
13
48
1
60
0
100
AcDbCircle
39
0
10
-14.665252
20
-1.919053
30
0
40
1.7
210
0
220
0
230
-1
100
AcDbArc
50
65.109095
51
83.324098
0
ARC
5
D1
100
AcDbEntity
8
1
62
256
6
ByLayer
370
13
48
1
60
0
100
AcDbCircle
39
0
10
16.469647
20
-5.389522
30
0
40
5.26523948182689
210
0
220
0
230
1
100
AcDbArc
50
65
51
85
0
ARC
5
D2
100
AcDbEntity
8
1
62
256
6
ByLayer
370
13
48
1
60
0
100
AcDbCircle
39
0
10
-23.03857
20
-9.07607
30
0
40
2.3603546462382
210
-6.87019198406657E-17
220
1.23259516440783E-32
230
-1
100
AcDbArc
50
180.00001
51
253.732507
0
ARC
5
D3
100
AcDbEntity
8
1
62
256
6
ByLayer
370
13
48
1
60
0
100
AcDbCircle
39
0
10
-23.03857
20
-9.07607
30
0
40
2.3603546462382
210
-6.87019198406657E-17
220
1.23259516440783E-32
230
-1
100
AcDbArc
50
126.264386
51
135
0
ARC
5
D4
100
AcDbEntity
8
1
62
256
6
ByLayer
370
13
48
1
60
0
100
AcDbCircle
39
0
10
-23.03857
20
-9.07607
30
0
40
2.3603546462382
210
-6.87019198406657E-17
220
1.23259516440783E-32
230
-1
100
AcDbArc
50
135
51
179.999995
0
ARC
5
D5
100
AcDbEntity
8
1
62
256
6
ByLayer
370
13
48
1
60
0
100
AcDbCircle
39
0
10
-14.884498
20
-0.921998
30
0
40
0.807357296468598
210
0
220
0
230
-1
100
AcDbArc
50
32.782518
51
90
0
ARC
5
D6
100
AcDbEntity
8
1
62
256
6
ByLayer
370
13
48
1
60
0
100
AcDbCircle
39
0
10
-23.03857
20
-9.07607
30
0
40
2.578
210
0
220
0
230
-1
100
AcDbArc
50
179.999992
51
266.506862
0
ARC
5
D7
100
AcDbEntity
8
1
62
256
6
ByLayer
370
13
48
1
60
0
100
AcDbCircle
39
0
10
-23.03857
20
-9.07607
30
0
40
2.578
210
0
220
0
230
-1
100
AcDbArc
50
113.489993
51
179.999992
0
ARC
5
D8
100
AcDbEntity
8
1
62
256
6
ByLayer
370
13
48
1
60
0
100
AcDbCircle
39
0
10
23.03857
20
-9.07607
30
0
40
2.39894876836046
210
0
220
0
230
1
100
AcDbArc
50
283.398756
51
56.604377
0
ARC
5
D9
100
AcDbEntity
8
1
62
256
6
ByLayer
370
13
48
1
60
0
100
AcDbCircle
39
0
10
-23.03857
20
-9.07607
30
0
40
5.51786771999517
210
0
220
0
230
-1
100
AcDbArc
50
295
51
310.739999
0
ARC
5
DA
100
AcDbEntity
8
1
62
256
6
ByLayer
370
13
48
1
60
0
100
AcDbCircle
39
0
10
9.917976
20
-6.762555
30
0
40
0.38
210
0
220
0
230
1
100
AcDbArc
50
268.784897
51
71.215103
0
ARC
5
DB
100
AcDbEntity
8
1
62
256
6
ByLayer
370
13
48
1
60
0
100
AcDbCircle
39
0
10
-8.682043
20
-6.544627
30
0
40
1.175
210
0
220
0
230
-1
100
AcDbArc
50
156.376394
51
163.623606
0
ARC
5
DC
100
AcDbEntity
8
1
62
256
6
ByLayer
370
13
48
1
60
0
100
AcDbCircle
39
0
10
-8.682043
20
-6.544627
30
0
40
1.175
210
0
220
0
230
-1
100
AcDbArc
50
276.376394
51
283.623606
0
ARC
5
DD
100
AcDbEntity
8
1
62
256
6
ByLayer
370
13
48
1
60
0
100
AcDbCircle
39
0
10
-8.958337
20
-4.977687
30
0
40
0.425
210
0
220
0
230
-1
100
AcDbArc
50
290.063185
51
331.215103
0
ARC
5
DE
100
AcDbEntity
8
1
62
256
6
ByLayer
370
13
48
1
60
0
100
AcDbCircle
39
0
10
9.488741
20
-5.583241
30
0
40
0.38
210
0
220
0
230
1
100
AcDbArc
50
328.784897
51
131.215103
0
ARC
5
DF
100
AcDbEntity
8
1
62
256
6
ByLayer
370
13
48
1
60
0
100
AcDbCircle
39
0
10
-7.46318
20
-5.52188
30
0
40
0.425
210
0
220
0
230
-1
100
AcDbArc
50
168.784897
51
209.936815
0
ARC
5
E0
100
AcDbEntity
8
1
62
256
6
ByLayer
370
13
48
1
60
0
100
AcDbCircle
39
0
10
-7.186886
20
-7.08882
30
0
40
0.425
210
0
220
0
230
-1
100
AcDbArc
50
108.784897
51
149.936815
0
ARC
5
E1
100
AcDbEntity
8
1
62
256
6
ByLayer
370
13
48
1
60
0
100
AcDbCircle
39
0
10
-9.900906
20
-7.567374
30
0
40
0.425
210
0
220
0
230
-1
100
AcDbArc
50
348.784897
51
29.936815
0
ARC
5
E2
100
AcDbEntity
8
1
62
256
6
ByLayer
370
13
48
1
60
0
100
AcDbCircle
39
0
10
-8.405749
20
-8.111567
30
0
40
0.425
210
0
220
0
230
-1
100
AcDbArc
50
48.784897
51
89.936815
0
ARC
5
E5
100
AcDbEntity
8
1
62
256
6
ByLayer
370
13
48
1
60
0
100
AcDbCircle
39
0
10
-10.177199
20
-6.000434
30
0
40
0.425
210
0
220
0
230
-1
100
AcDbArc
50
350.063185
51
31.215103
0
ARC
5
E6
100
AcDbEntity
8
1
62
256
6
ByLayer
370
13
48
1
60
0
100
AcDbCircle
39
0
10
-8.405749
20
-8.111567
30
0
40
0.425
210
0
220
0
230
-1
100
AcDbArc
50
110.063185
51
151.215103
0
ARC
5
E7
100
AcDbEntity
8
1
62
256
6
ByLayer
370
13
48
1
60
0
100
AcDbCircle
39
0
10
-9.900906
20
-7.567374
30
0
40
0.425
210
0
220
0
230
-1
100
AcDbArc
50
50.063185
51
91.215103
0
ARC
5
E8
100
AcDbEntity
8
1
62
256
6
ByLayer
370
13
48
1
60
0
100
AcDbCircle
39
0
10
-8.682043
20
-6.544627
30
0
40
1.175
210
0
220
0
230
-1
100
AcDbArc
50
96.376394
51
103.623606
0
ARC
5
EA
100
AcDbEntity
8
1
62
256
6
ByLayer
370
13
48
1
60
0
100
AcDbCircle
39
0
10
-8.958337
20
-4.977687
30
0
40
0.425
210
0
220
0
230
-1
100
AcDbArc
50
228.784897
51
269.936815
0
ARC
5
EB
100
AcDbEntity
8
1
62
256
6
ByLayer
370
13
48
1
60
0
100
AcDbCircle
39
0
10
-7.46318
20
-5.52188
30
0
40
0.425
210
0
220
0
230
-1
100
AcDbArc
50
230.063185
51
271.215103
0
ARC
5
EC
100
AcDbEntity
8
1
62
256
6
ByLayer
370
13
48
1
60
0
100
AcDbCircle
39
0
10
9.111278
20
-7.723941
30
0
40
0.38
210
0
220
0
230
1
100
AcDbArc
50
208.784897
51
11.215103
0
ARC
5
ED
100
AcDbEntity
8
1
62
256
6
ByLayer
370
13
48
1
60
0
100
AcDbCircle
39
0
10
7.875344
20
-7.506013
30
0
40
0.38
210
0
220
0
230
1
100
AcDbArc
50
148.784897
51
311.215103
0
ARC
5
EE
100
AcDbEntity
8
1
62
256
6
ByLayer
370
13
48
1
60
0
100
AcDbCircle
39
0
10
8.252807
20
-5.365313
30
0
40
0.38
210
0
220
0
230
1
100
AcDbArc
50
28.784897
51
191.215103
0
ARC
5
EF
100
AcDbEntity
8
1
62
256
6
ByLayer
370
13
48
1
60
0
100
AcDbCircle
39
0
10
-8.682043
20
-6.544627
30
0
40
1.175
210
0
220
0
230
-1
100
AcDbArc
50
336.376394
51
343.623606
0
ARC
5
F0
100
AcDbEntity
8
1
62
256
6
ByLayer
370
13
48
1
60
0
100
AcDbCircle
39
0
10
7.446109
20
-6.326699
30
0
40
0.38
210
0
220
0
230
1
100
AcDbArc
50
88.784897
51
251.215103
0
ARC
5
F1
100
AcDbEntity
8
1
62
256
6
ByLayer
370
13
48
1
60
0
100
AcDbCircle
39
0
10
-8.682043
20
-6.544627
30
0
40
1.175
210
0
220
0
230
-1
100
AcDbArc
50
216.376394
51
223.623606
0
ARC
5
F2
100
AcDbEntity
8
1
62
256
6
ByLayer
370
13
48
1
60
0
100
AcDbCircle
39
0
10
-7.186886
20
-7.08882
30
0
40
0.425
210
0
220
0
230
-1
100
AcDbArc
50
170.063185
51
211.215103
0
ARC
5
F3
100
AcDbEntity
8
1
62
256
6
ByLayer
370
13
48
1
60
0
100
AcDbCircle
39
0
10
-10.177199
20
-6.000434
30
0
40
0.425
210
0
220
0
230
-1
100
AcDbArc
50
288.784897
51
329.936815
0
ARC
5
F4
100
AcDbEntity
8
1
62
256
6
ByLayer
370
13
48
1
60
0
100
AcDbCircle
39
0
10
-8.682043
20
-6.544627
30
0
40
1.175
210
0
220
0
230
-1
100
AcDbArc
50
36.376394
51
43.623606
0
ARC
5
F5
100
AcDbEntity
8
1
62
256
6
ByLayer
370
13
48
1
60
0
100
AcDbCircle
39
0
10
-31.192643
20
-17.230143
30
0
40
0.807357296468598
210
0
220
0
230
-1
100
AcDbArc
50
180
51
270
0
ARC
5
F6
100
AcDbEntity
8
1
62
256
6
ByLayer
370
13
48
1
60
0
100
AcDbCircle
39
0
10
-31.192643
20
-16.030143
30
0
40
2.00735729646859
210
0
220
0
230
-1
100
AcDbArc
50
270
51
275
0
ARC
5
F7
100
AcDbEntity
8
1
62
256
6
ByLayer
370
13
48
1
60
0
100
AcDbCircle
39
0
10
-30.106682
20
-12.923674
30
0
40
5.0073572964686
210
0
220
0
230
-1
100
AcDbArc
50
275
51
295
0
ARC
5
F8
100
AcDbEntity
8
1
62
256
6
ByLayer
370
13
48
1
60
0
100
AcDbCircle
39
0
10
-23.03857
20
-9.07607
30
0
40
5.51786771999517
210
0
220
0
230
-1
100
AcDbArc
50
115
51
155
0
ARC
5
F9
100
AcDbEntity
8
1
62
256
6
ByLayer
370
13
48
1
60
0
100
AcDbCircle
39
0
10
22.991115
20
0.324771
30
0
40
2.9926427035314
210
0
220
0
230
1
100
AcDbArc
50
245
51
249.447849
0
ARC
5
FA
100
AcDbEntity
8
1
62
256
6
ByLayer
370
13
48
1
60
0
100
AcDbCircle
39
0
10
-15.970458
20
-5.228466
30
0
40
5.0073572964686
210
0
220
0
230
-1
100
AcDbArc
50
95
51
115
0
ARC
5
FB
100
AcDbEntity
8
1
62
256
6
ByLayer
370
13
48
1
60
0
100
AcDbCircle
39
0
10
-14.884498
20
-2.121998
30
0
40
2.00735729646859
210
0
220
0
230
-1
100
AcDbArc
50
90
51
95
0
ARC
5
FC
100
AcDbEntity
8
1
62
256
6
ByLayer
370
13
48
1
60
0
100
AcDbCircle
39
0
10
32.439411
20
-9.123526
30
0
40
2.9926427035314
210
0
220
0
230
1
100
AcDbArc
50
200.552151
51
205
0
ARC
5
FD
100
AcDbEntity
8
1
62
256
6
ByLayer
370
13
48
1
60
0
100
AcDbCircle
39
0
10
-26.886174
20
-16.144182
30
0
40
5.0073572964686
210
0
220
0
230
-1
100
AcDbArc
50
155
51
175
0
ARC
5
FE
100
AcDbEntity
8
1
62
256
6
ByLayer
370
13
48
1
60
0
100
AcDbCircle
39
0
10
-29.992643
20
-17.230143
30
0
40
2.00735729646859
210
0
220
0
230
-1
100
AcDbArc
50
175
51
180
0
ARC
5
FF
100
AcDbEntity
8
1
62
256
6
ByLayer
370
13
48
1
60
0
100
AcDbCircle
39
0
10
23.086026
20
-18.476911
30
0
40
2.9926427035314
210
0
220
0
230
1
100
AcDbArc
50
65
51
69.447849
0
ARC
5
100
100
AcDbEntity
8
1
62
256
6
ByLayer
370
13
48
1
60
0
100
AcDbCircle
39
0
10
-23.168565
20
-9.098992
30
0
40
2.20000000000035
210
0
220
0
230
-1
100
AcDbArc
50
141
51
190
0
ARC
5
101
100
AcDbEntity
8
1
62
256
6
ByLayer
370
13
48
1
60
0
100
AcDbCircle
39
0
10
-23.168565
20
-9.098992
30
0
40
2.20000000000233
210
0
220
0
230
-1
100
AcDbArc
50
190
51
239
0
CIRCLE
5
E3
100
AcDbEntity
8
1
62
256
6
ByLayer
370
13
48
1
60
0
100
AcDbCircle
10
-8.682043
20
-6.544627
30
0
40
2.3
39
0
210
0
220
0
230
-1
0
CIRCLE
5
E4
100
AcDbEntity
8
1
62
256
6
ByLayer
370
13
48
1
60
0
100
AcDbCircle
10
-8.682043
20
-6.544627
30
0
40
1.15
39
0
210
0
220
0
230
-1
0
CIRCLE
5
E9
100
AcDbEntity
8
1
62
256
6
ByLayer
370
13
48
1
60
0
100
AcDbCircle
10
8.682043
20
-6.544627
30
0
40
4
39
0
210
0
220
0
230
1
0
ELLIPSE
5
102
100
AcDbEntity
8
1
62
256
6
ByLayer
370
13
48
1
60
0
100
AcDbEllipse
10
-0.967181
20
2.264778
30
0
11
6.96364240320019
21
-1.22787803968973
31
-4.7841560218372E-16
210
-6.87019198406657E-17
220
0
230
-1
40
0.707107
41
-1.55657508595894
42
-0.0400330746454086
0
ELLIPSE
5
103
100
AcDbEntity
8
1
62
256
6
ByLayer
370
13
48
1
60
0
100
AcDbEllipse
10
25.707539
20
-16.324814
30
0
11
0.499999394287326
21
-0.0176510883022706
31
0
210
0
220
0
230
-1
40
0.044092
41
3.14003610458545
42
-2.01568603276887
0
ELLIPSE
5
104
100
AcDbEntity
8
SK1
62
256
6
ByLayer
370
13
48
1
60
0
100
AcDbEllipse
10
-1.382244
20
2.337965
30
0
11
-0.868240888334652
21
-4.92403876506104
31
0
210
0
220
0
230
1
40
0.707107
41
2.99055525635756
42
3.10184870085189
0
ELLIPSE
5
105
100
AcDbEntity
8
SK1
62
256
6
ByLayer
370
13
48
1
60
0
100
AcDbEllipse
10
-2.078609
20
2.460752
30
0
11
0.694592710667721
21
3.93923101204883
31
0
210
0
220
0
230
1
40
0.707107
41
-0.565295859815297
42
0.410437757807203
0
ELLIPSE
5
106
100
AcDbEntity
8
SK1
62
256
6
ByLayer
370
13
48
1
60
0
100
AcDbEllipse
10
-0.967181
20
2.264778
30
0
11
6.96364240320019
21
-1.22787803968973
31
-4.7841560218372E-16
210
-6.87019198406657E-17
220
0
230
-1
40
0.707107
41
-1.69028910049811
42
-1.55657508595894
0
ELLIPSE
5
107
100
AcDbEntity
8
1
62
256
6
ByLayer
370
13
48
1
60
0
100
AcDbEllipse
10
-64.264537
20
-47.920791
30
0
11
70.7214493379357
21
70.7214493379362
31
-4.85869934343056E-15
210
-6.87019198406657E-17
220
1.23259516440783E-32
230
-1
40
0.999848
41
0.209408536055001
42
0.327672556145782
0
ELLIPSE
5
108
100
AcDbEntity
8
1
62
256
6
ByLayer
370
13
48
1
60
0
100
AcDbEllipse
10
-2.078609
20
2.460752
30
0
11
0.694592710667721
21
3.93923101204883
31
0
210
0
220
0
230
1
40
0.707107
41
-1.5707963267949
42
-0.565295859815297
0
ELLIPSE
5
109
100
AcDbEntity
8
1
62
256
6
ByLayer
370
13
48
1
60
0
100
AcDbEllipse
10
-61.586931
20
-45.26248
30
0
11
16.2579232323302
21
-100.679125159243
31
0
210
0
220
0
230
-1
40
0.941421
41
-1.84012359226481
42
-1.83664491984972
0
ELLIPSE
5
10A
100
AcDbEntity
8
1
62
256
6
ByLayer
370
13
48
1
60
0
100
AcDbEllipse
10
-1.382244
20
2.337965
30
0
11
-0.868240888334652
21
-4.92403876506104
31
0
210
0
220
0
230
1
40
0.707107
41
1.5707963267949
42
2.99055525635756
0
ELLIPSE
5
10B
100
AcDbEntity
8
1
62
256
6
ByLayer
370
13
48
1
60
0
100
AcDbEllipse
10
2.51309
20
-9.721666
30
0
11
-2.97661046204352
21
0.524856735517363
31
0
210
-8.54184564237123E-16
220
1.50615785179708E-16
230
1
40
0.992546
41
0
42
1.05168906306426
0
ELLIPSE
5
10C
100
AcDbEntity
8
1
62
256
6
ByLayer
370
13
48
1
60
0
100
AcDbEllipse
10
5.378999
20
-1.69742
30
0
11
2.2867184549933
21
-2.70010444014111
31
0
210
0
220
0
230
-1
40
0.724269
41
-2.78454212735463
42
-2.42492639399876
0
ELLIPSE
5
10D
100
AcDbEntity
8
1
62
256
6
ByLayer
370
13
48
1
60
0
100
AcDbEllipse
10
4.875257
20
-12.642889
30
0
11
3.44682713554271
21
-0.607768621834275
31
0
210
0
220
0
230
-1
40
0.377658
41
2.88031721715671
42
-2.67964998362407
0
ELLIPSE
5
10E
100
AcDbEntity
8
1
62
256
6
ByLayer
370
13
48
1
60
0
100
AcDbEllipse
10
2.216895
20
-9.676067
30
0
11
-0.913637607830417
21
1.77911953548881
31
0
210
0
220
0
230
1
40
0.848036
41
0.999163139676882
42
2.41183863393649
0
ELLIPSE
5
10F
100
AcDbEntity
8
1
62
256
6
ByLayer
370
13
48
1
60
0
100
AcDbEllipse
10
3.920354
20
-9.969805
30
0
11
3.07230256553552
21
1.75516444391433
31
0
210
0
220
0
230
-1
40
0.724269
41
2.42492639397309
42
2.78454212733471
0
ELLIPSE
5
110
100
AcDbEntity
8
1
62
256
6
ByLayer
370
13
48
1
60
0
100
AcDbEllipse
10
3.677806
20
-1.390825
30
0
11
1.46703323667211
21
1.35934303341701
31
0
210
0
220
0
230
1
40
0.848036
41
0.729754019653308
42
2.14242951391291
0
ELLIPSE
5
111
100
AcDbEntity
8
1
62
256
6
ByLayer
370
13
48
1
60
0
100
AcDbEllipse
10
3.971734
20
-1.449281
30
0
11
-2.97661046204355
21
0.524856735517368
31
-2.62162641975114E-15
210
8.54184564237123E-16
220
-1.50615785179708E-16
230
-1
40
0.992546
41
0
42
1.05168906306425
0
ELLIPSE
5
112
100
AcDbEntity
8
1
62
256
6
ByLayer
370
13
48
1
60
0
100
AcDbEllipse
10
7.190563
20
0.487862
30
0
11
3.4468271355432
21
-0.60776862183431
31
0
210
0
220
0
230
-1
40
0.377658
41
2.6796499836241
42
-2.88031721715677
0
ELLIPSE
5
113
100
AcDbEntity
8
1
62
256
6
ByLayer
370
13
48
1
60
0
100
AcDbEllipse
10
9.407217
20
-6.672495
30
0
11
-0.72063993731776
21
-4.08695217500066
31
0
210
0
220
0
230
1
40
0.999848
41
0
42
3.14159265358977
0
ELLIPSE
5
114
100
AcDbEntity
8
1
62
256
6
ByLayer
370
13
48
1
60
0
100
AcDbEllipse
10
6.865664
20
-1.354731
30
0
11
5.41644274931449
21
-0.955064984501541
31
0
210
0
220
0
230
-1
40
0.240328
41
2.67964998851012
42
2.73264229270005
0
ELLIPSE
5
115
100
AcDbEntity
8
1
62
256
6
ByLayer
370
13
48
1
60
0
100
AcDbEllipse
10
5.200156
20
-10.800296
30
0
11
5.41644253445732
21
-0.955064946167996
31
0
210
0
220
0
230
-1
40
0.240328
41
-2.73264228392667
42
-2.67964997858219
0
POINT
5
6C
100
AcDbEntity
8
80
62
256
6
ByLayer
370
18
48
1
60
0
100
AcDbPoint
10
0
20
0
30
0
39
0
210
0
220
0
230
1
50
360
0
POINT
5
6E
100
AcDbEntity
8
81
62
256
6
ByLayer
370
18
48
1
60
0
100
AcDbPoint
10
32
20
-18.0375
30
0
39
0
210
0
220
0
230
1
50
360
0
SPLINE
5
116
100
AcDbEntity
8
1
62
256
6
ByLayer
370
13
48
1
60
0
100
AcDbSpline
70
4
71
3
72
22
73
18
40
0
40
0
40
0
40
0
40
0.144558544285128
40
0.144558544285128
40
0.216837816427692
40
0.216837816427692
40
0.289117088570256
40
0.289117088570256
40
0.433675632855384
40
0.433675632855384
40
0.578234177140512
40
0.578234177140512
40
0.72279272142564
40
0.72279272142564
40
0.867351265710767
40
0.867351265710767
40
1
40
1
40
1
40
1
41
1
10
-2.84E-14
20
5.52406505805075
30
0
41
1
10
-2.84E-14
20
5.62585056091208
30
0
41
1
10
-2.84E-14
20
5.72511754774499
30
0
41
1
10
-2.84E-14
20
5.87088312904683
30
0
41
1
10
-2.84E-14
20
5.91905741452234
30
0
41
1
10
-2.84E-14
20
6.01279599822618
30
0
41
1
10
-2.84E-14
20
6.05855503047641
30
0
41
1
10
-2.84E-14
20
6.19268897295726
30
0
41
1
10
-2.84E-14
20
6.27794666886612
30
0
41
1
10
-2.84E-14
20
6.44032498113313
30
0
41
1
10
-2.84E-14
20
6.5176561659014
30
0
41
1
10
-2.84E-14
20
6.65918031046922
30
0
41
1
10
-2.84E-14
20
6.72403840274851
30
0
41
1
10
-2.84E-14
20
6.84166945877129
30
0
41
1
10
-2.84E-14
20
6.89483283421364
30
0
41
1
10
-2.84E-14
20
6.98138961715722
30
0
41
1
10
-2.84E-14
20
7.016254275888
30
0
41
1
10
0
20
7.04428705803977
30
0
0
SPLINE
5
117
100
AcDbEntity
8
SK1
62
256
6
ByLayer
370
13
48
1
60
0
100
AcDbSpline
70
4
71
3
72
22
73
18
40
0
40
0
40
0
40
0
40
0.144558544285128
40
0.144558544285128
40
0.216837816427692
40
0.216837816427692
40
0.289117088570256
40
0.289117088570256
40
0.433675632855384
40
0.433675632855384
40
0.578234177140512
40
0.578234177140512
40
0.72279272142564
40
0.72279272142564
40
0.867351265710767
40
0.867351265710767
40
1
40
1
40
1
40
1
41
1
10
-2.84E-14
20
5.52406505805075
30
0
41
1
10
-2.84E-14
20
5.62585056091208
30
0
41
1
10
-2.84E-14
20
5.72511754774499
30
0
41
1
10
-2.84E-14
20
5.87088312904683
30
0
41
1
10
-2.84E-14
20
5.91905741452234
30
0
41
1
10
-2.84E-14
20
6.01279599822618
30
0
41
1
10
-2.84E-14
20
6.05855503047641
30
0
41
1
10
-2.84E-14
20
6.19268897295726
30
0
41
1
10
-2.84E-14
20
6.27794666886612
30
0
41
1
10
-2.84E-14
20
6.44032498113313
30
0
41
1
10
-2.84E-14
20
6.5176561659014
30
0
41
1
10
-2.84E-14
20
6.65918031046922
30
0
41
1
10
-2.84E-14
20
6.72403840274851
30
0
41
1
10
-2.84E-14
20
6.84166945877129
30
0
41
1
10
-2.84E-14
20
6.89483283421364
30
0
41
1
10
-2.84E-14
20
6.98138961715722
30
0
41
1
10
-2.84E-14
20
7.016254275888
30
0
41
1
10
0
20
7.04428705803977
30
0
0
SPLINE
5
118
100
AcDbEntity
8
SK1
62
256
6
ByLayer
370
13
48
1
60
0
100
AcDbSpline
70
4
71
3
72
16
73
12
40
0
40
0
40
0
40
0
40
0.196283304952755
40
0.196283304952755
40
0.397212478714566
40
0.397212478714566
40
0.598141652476378
40
0.598141652476378
40
0.799070826238189
40
0.799070826238189
40
1
40
1
40
1
40
1
41
1
10
-0.449018026160473
20
-10.2394012308467
30
0
41
1
10
-0.499627126600586
20
-10.2034764160761
30
0
41
1
10
-0.554082888515183
20
-10.1696525173061
30
0
41
1
10
-0.667749584860303
20
-10.1088942151047
30
0
41
1
10
-0.727627509371729
20
-10.0817220698578
30
0
41
1
10
-0.850944915041225
20
-10.0353382531443
30
0
41
1
10
-0.912385350090119
20
-10.016843134013
30
0
41
1
10
-1.0344776970193
20
-9.98808234936593
30
0
41
1
10
-1.09561611871214
20
-9.97785051323979
30
0
41
1
10
-1.21080431805871
20
-9.96516843678756
30
0
41
1
10
-1.26557303722791
20
-9.96250000000001
30
0
41
1
10
-1.31736640742815
20
-9.96250000000001
30
0
0
SPLINE
5
119
100
AcDbEntity
8
SK1
62
256
6
ByLayer
370
13
48
1
60
0
100
AcDbSpline
70
4
71
3
72
24
73
20
40
0
40
0
40
0
40
0
40
0.0624999999999997
40
0.0624999999999997
40
0.124999999999999
40
0.124999999999999
40
0.249999999999999
40
0.249999999999999
40
0.374999999999999
40
0.374999999999999
40
0.499999999999999
40
0.499999999999999
40
0.624999999999999
40
0.624999999999999
40
0.75
40
0.75
40
0.875
40
0.875
40
1
40
1
40
1
40
1
41
1
10
-2.55313184934039
20
6.26879013906279
30
0
41
1
10
-2.54555379802636
20
6.31176740370819
30
0
41
1
10
-2.53449673551364
20
6.35461655392893
30
0
41
1
10
-2.50696571588009
20
6.43733762924285
30
0
41
1
10
-2.4904555572854
20
6.4775360966666
30
0
41
1
10
-2.43362095447137
20
6.59503896896842
30
0
41
1
10
-2.38566679990333
20
6.66955465543117
30
0
41
1
10
-2.27662439113519
20
6.80612549183957
30
0
41
1
10
-2.21458087589323
20
6.86935661777093
30
0
41
1
10
-2.08240478372889
20
6.98200351359432
30
0
41
1
10
-2.01196463270236
20
7.03194587873821
30
0
41
1
10
-1.86314068730263
20
7.12018359078542
30
0
41
1
10
-1.78399147356944
20
7.15873145494891
30
0
41
1
10
-1.62160938020483
20
7.22242314821136
30
0
41
1
10
-1.53872071604715
20
7.24759370353834
30
0
41
1
10
-1.36969654750371
20
7.28516774230729
30
0
41
1
10
-1.28314054836071
20
7.2975927175589
30
0
41
1
10
-1.10847920564086
20
7.3089452118779
30
0
41
1
10
-1.02163018751168
20
7.30785844458362
30
0
41
1
10
-0.935257881834531
20
7.30007803755535
30
0
0
SPLINE
5
11A
100
AcDbEntity
8
1
62
256
6
ByLayer
370
13
48
1
60
0
100
AcDbSpline
70
4
71
3
72
10
73
6
40
0
40
0
40
0
40
0
40
0.5
40
0.5
40
1
40
1
40
1
40
1
41
1
10
8.55154781939399
20
-7.71235817941098
30
0
41
1
10
8.52915214625546
20
-7.70417884014594
30
0
41
1
10
8.50459757542987
20
-7.69743849415877
30
0
41
1
10
8.45444033377083
20
-7.68859818111812
30
0
41
1
10
8.4290957180294
20
-7.68654099484505
30
0
41
1
10
8.4052802380024
20
-7.68656725840867
30
0
0
SPLINE
5
11B
100
AcDbEntity
8
1
62
256
6
ByLayer
370
13
48
1
60
0
100
AcDbSpline
70
4
71
3
72
10
73
6
40
0
40
0
40
0
40
0
40
0.5
40
0.5
40
1
40
1
40
1
40
1
41
1
10
9.62808012693125
20
-7.2415044963733
30
0
41
1
10
9.60995854150718
20
-7.25667628837053
30
0
41
1
10
9.59178724266727
20
-7.27457891611346
30
0
41
1
10
9.55880553032242
20
-7.31389679394312
30
0
41
1
10
9.5443665718378
20
-7.33486682881139
30
0
41
1
10
9.53261074345863
20
-7.35528047710912
30
0
0
SPLINE
5
11C
100
AcDbEntity
8
1
62
256
6
ByLayer
370
13
48
1
60
0
100
AcDbSpline
70
4
71
3
72
10
73
6
40
0
40
0
40
0
40
0
40
0.5
40
0.5
40
1
40
1
40
1
40
1
41
1
10
7.60551041465189
20
-7.01548069460833
30
0
41
1
10
7.60144542838935
20
-6.9922774098325
30
0
41
1
10
7.59504941998071
20
-6.96763360815876
30
0
41
1
10
7.57750425447992
20
-6.91940647851396
30
0
41
1
10
7.56655187835651
20
-6.8963685610976
30
0
41
1
10
7.55471221672994
20
-6.87591379286968
30
0
0
SPLINE
5
11D
100
AcDbEntity
8
1
62
256
6
ByLayer
370
13
48
1
60
0
100
AcDbSpline
70
4
71
3
72
10
73
6
40
0
40
0
40
0
40
0
40
0.5
40
0.5
40
1
40
1
40
1
40
1
41
1
10
8.81253762498116
20
-5.37689584373103
30
0
41
1
10
8.83493329811969
20
-5.38507518299608
30
0
41
1
10
8.85948786894528
20
-5.39181552898324
30
0
41
1
10
8.90964511060432
20
-5.40065584202389
30
0
41
1
10
8.93498972634575
20
-5.40271302829697
30
0
41
1
10
8.95880520637274
20
-5.40268676473335
30
0
0
SPLINE
5
11E
100
AcDbEntity
8
1
62
256
6
ByLayer
370
13
48
1
60
0
100
AcDbSpline
70
4
71
3
72
10
73
6
40
0
40
0
40
0
40
0
40
0.5
40
0.5
40
1
40
1
40
1
40
1
41
1
10
7.73600531744387
20
-5.84774952676872
30
0
41
1
10
7.75412690286794
20
-5.83257773477149
30
0
41
1
10
7.77229820170786
20
-5.81467510702856
30
0
41
1
10
7.80527991405273
20
-5.7753572291989
30
0
41
1
10
7.81971887253732
20
-5.7543871943306
30
0
41
1
10
7.83147470091649
20
-5.7339735460329
30
0
0
SPLINE
5
11F
100
AcDbEntity
8
1
62
256
6
ByLayer
370
13
48
1
60
0
100
AcDbSpline
70
4
71
3
72
10
73
6
40
0
40
0
40
0
40
0
40
0.5
40
0.5
40
1
40
1
40
1
40
1
41
1
10
9.75857502972326
20
-6.07377332853369
30
0
41
1
10
9.7626400159858
20
-6.09697661330952
30
0
41
1
10
9.76903602439444
20
-6.12162041498325
30
0
41
1
10
9.7865811898952
20
-6.16984754462806
30
0
41
1
10
9.79753356601864
20
-6.19288546204439
30
0
41
1
10
9.80937322764518
20
-6.21334023027234
30
0
0
SPLINE
5
120
100
AcDbEntity
8
1
62
256
6
ByLayer
370
13
48
1
60
0
100
AcDbSpline
70
4
71
3
72
8
73
4
40
0
40
0
40
0
40
0
40
1
40
1
40
1
40
1
41
1
10
21.9405181489262
20
-2.47739908939388
30
0
41
1
10
21.9525635457583
20
-2.48191517931181
30
0
41
1
10
21.9644424903719
20
-2.48690279213218
30
0
41
1
10
21.9761013801796
20
-2.49233942173512
30
0
0
SPLINE
5
121
100
AcDbEntity
8
1
62
256
6
ByLayer
370
13
48
1
60
0
100
AcDbSpline
70
4
71
3
72
8
73
4
40
0
40
0
40
0
40
0
40
1
40
1
40
1
40
1
41
1
10
29.6223008694639
20
-10.1385389110195
30
0
41
1
10
29.6277374990669
20
-10.1501978008272
30
0
41
1
10
29.6327251118872
20
-10.1620767454408
30
0
41
1
10
29.6372412018052
20
-10.1741221422729
30
0
0
SPLINE
5
122
100
AcDbEntity
8
1
62
256
6
ByLayer
370
13
48
1
60
0
100
AcDbSpline
70
4
71
3
72
8
73
4
40
0
40
0
40
0
40
0
40
1
40
1
40
1
40
1
41
1
10
24.1366221422729
20
-15.6747412018051
30
0
41
1
10
24.1245767454408
20
-15.6702251118872
30
0
41
1
10
24.1126978008272
20
-15.6652374990668
30
0
41
1
10
24.1010389110194
20
-15.6598008694639
30
0
0
SPLINE
5
123
100
AcDbEntity
8
1
62
256
6
ByLayer
370
13
48
1
60
0
100
AcDbSpline
70
4
71
3
72
14
73
10
40
0
40
0
40
0
40
0
40
0.25
40
0.25
40
0.5
40
0.5
40
0.75
40
0.75
40
1
40
1
40
1
40
1
41
1
10
3.43693120913744
20
-8.33205174866819
30
0
41
1
10
3.52122888469867
20
-8.36582949061679
30
0
41
1
10
3.60614088421545
20
-8.40403932218709
30
0
41
1
10
3.77425622209165
20
-8.48948591253108
30
0
41
1
10
3.85725785115432
20
-8.53656829027662
30
0
41
1
10
4.02083230428673
20
-8.64075488515695
30
0
41
1
10
4.10156723941321
20
-8.69813601883192
30
0
41
1
10
4.25393142006661
20
-8.81937223708042
30
0
41
1
10
4.32637681852469
20
-8.88369528270914
30
0
41
1
10
4.39490421859966
20
-8.95185093437087
30
0
0
SPLINE
5
124
100
AcDbEntity
8
1
62
256
6
ByLayer
370
13
48
1
60
0
100
AcDbSpline
70
4
71
3
72
16
73
12
40
0
40
0
40
0
40
0
40
0.250000000000003
40
0.250000000000003
40
0.375000000000002
40
0.375000000000002
40
0.500000000000002
40
0.500000000000002
40
0.750000000000001
40
0.750000000000001
40
1
40
1
40
1
40
1
41
1
10
21.1448731399836
20
-3.86735139507104
30
0
41
1
10
20.9745262350202
20
-3.81325728863055
30
0
41
1
10
20.8002686326384
20
-3.75303434126752
30
0
41
1
10
20.5343523945874
20
-3.65072638643602
30
0
41
1
10
20.4449940993048
20
-3.61451020006098
30
0
41
1
10
20.2653376575518
20
-3.53647935917678
30
0
41
1
10
20.1758892382368
20
-3.49487893017445
30
0
41
1
10
19.909692862164
20
-3.36412993410443
30
0
41
1
10
19.7343365660145
20
-3.26899720536878
30
0
41
1
10
19.3856197774749
20
-3.06757044379265
30
0
41
1
10
19.2122586156444
20
-2.96126770097399
30
0
41
1
10
19.0395286876434
20
-2.85011952458919
30
0
0
SPLINE
5
125
100
AcDbEntity
8
1
62
256
6
ByLayer
370
13
48
1
60
0
100
AcDbSpline
70
4
71
3
72
8
73
4
40
0
40
0
40
0
40
0
40
1
40
1
40
1
40
1
41
1
10
1.80459676448243
20
-0.996046960304568
30
0
41
1
10
1.79982479171903
20
-1.01873080367571
30
0
41
1
10
1.79538873704141
20
-1.04164862722192
30
0
41
1
10
1.79130438207517
20
-1.0648121552868
30
0
0
SPLINE
5
126
100
AcDbEntity
8
1
62
256
6
ByLayer
370
13
48
1
60
0
100
AcDbSpline
70
4
71
3
72
8
73
4
40
0
40
0
40
0
40
0
40
1
40
1
40
1
40
1
41
1
10
4.39490421859969
20
-8.9518509343709
30
0
41
1
10
4.44780134124059
20
-9.00446109994957
30
0
41
1
10
4.49856533694481
20
-9.05917916222373
30
0
41
1
10
4.54712000444877
20
-9.11602010618785
30
0
0
SPLINE
5
127
100
AcDbEntity
8
1
62
256
6
ByLayer
370
13
48
1
60
0
100
AcDbSpline
70
4
71
3
72
24
73
20
40
0
40
0
40
0
40
0
40
0.125
40
0.125
40
0.25
40
0.25
40
0.375
40
0.375
40
0.5
40
0.5
40
0.625
40
0.625
40
0.75
40
0.75
40
0.812499999999999
40
0.812499999999999
40
0.874999999999999
40
0.874999999999999
40
1
40
1
40
1
40
1
41
1
10
11.1700821703649
20
-2.85762869712136
30
0
41
1
10
11.3459931735089
20
-2.92716674754354
30
0
41
1
10
11.5176107836927
20
-3.00872440426099
30
0
41
1
10
11.8450870324555
20
-3.19134239560029
30
0
41
1
10
12.0016038458064
20
-3.29255844223911
30
0
41
1
10
12.300528171535
20
-3.51409129408114
30
0
41
1
10
12.4431039951986
20
-3.63455441078005
30
0
41
1
10
12.713305684813
20
-3.8946785460883
30
0
41
1
10
12.8392181454734
20
-4.03264164466486
30
0
41
1
10
13.0729132371693
20
-4.32489516044876
30
0
41
1
10
13.1799472941548
20
-4.47839635334151
30
0
41
1
10
13.3721191390337
20
-4.79733837563256
30
0
41
1
10
13.4576656385494
20
-4.96326356351594
30
0
41
1
10
13.5692796558334
20
-5.22294960121877
30
0
41
1
10
13.6036771588584
20
-5.31138615571246
30
0
41
1
10
13.6657218015773
20
-5.48943291738181
30
0
41
1
10
13.6935123141557
20
-5.57935336464857
30
0
41
1
10
13.7670922862702
20
-5.85186602828162
30
0
41
1
10
13.8031475544695
20
-6.03719330076183
30
0
41
1
10
13.8253095353779
20
-6.22650965024337
30
0
0
SPLINE
5
128
100
AcDbEntity
8
1
62
256
6
ByLayer
370
13
48
1
60
0
100
AcDbSpline
70
4
71
3
72
10
73
6
40
0
40
0
40
0
40
0
40
0.499999999999999
40
0.499999999999999
40
1
40
1
40
1
40
1
41
1
10
3.66843789834283
20
-3.02048401961415
30
0
41
1
10
3.77918535578317
20
-3.04001178440572
30
0
41
1
10
3.89340446672912
20
-3.0546513689832
30
0
41
1
10
4.12635277792953
20
-3.07209643540242
30
0
41
1
10
4.24462891062129
20
-3.07490815279334
30
0
41
1
10
4.36458540294097
20
-3.07106338445806
30
0
0
SPLINE
5
129
100
AcDbEntity
8
1
62
256
6
ByLayer
370
13
48
1
60
0
100
AcDbSpline
70
4
71
3
72
8
73
4
40
0
40
0
40
0
40
0
40
1
40
1
40
1
40
1
41
1
10
19.823047350346
20
-13.3299113818144
30
0
41
1
10
19.7076546836652
20
-13.3300042498776
30
0
41
1
10
19.5924954642538
20
-13.3277632303985
30
0
41
1
10
19.4775903098278
20
-13.3229821978958
30
0
0
SPLINE
5
12A
100
AcDbEntity
8
1
62
256
6
ByLayer
370
13
48
1
60
0
100
AcDbSpline
70
4
71
3
72
11
73
7
40
0
40
0
40
0
40
0
40
0.100258159507228
40
0.259036131358894
40
0.576592075062225
40
1
40
1
40
1
40
1
41
1.0177432798791
10
19.7164971491749
20
-10.5562785887817
30
0
41
1.01722454828229
10
19.5014764923116
20
-10.5287091500357
30
0
41
1.01635405201136
10
18.9835283207974
20
-10.4839261217452
30
0
41
1.01876555595691
10
17.4299135003251
20
-10.9392845440806
30
0
41
1.02349884684922
10
13.3917726717706
20
-12.1810181818268
30
0
41
1.02767136955276
10
10.2672036373438
20
-12.8857290142468
30
0
41
1.02805999725224
10
9.40919007871795
20
-12.8441440027873
30
0
0
SPLINE
5
12B
100
AcDbEntity
8
1
62
256
6
ByLayer
370
13
48
1
60
0
100
AcDbSpline
70
4
71
3
72
20
73
16
40
0
40
0
40
0
40
0
40
0.125
40
0.125
40
0.187500000000001
40
0.187500000000001
40
0.250000000000001
40
0.250000000000001
40
0.5
40
0.5
40
0.625
40
0.625
40
0.75
40
0.75
40
1
40
1
40
1
40
1
41
1
10
4.0027050034482
20
0.451767773398728
30
0
41
1
10
4.04401748684452
20
0.375181541061778
30
0
41
1
10
4.08872455675512
20
0.288287925835959
30
0
41
1
10
4.16080120219894
20
0.143327937086468
30
0
41
1
10
4.18573537362587
20
0.0924163737079482
30
0
41
1
10
4.23681639521234
20
-0.013247363061538
30
0
41
1
10
4.26297825715522
20
-0.0680250848392916
30
0
41
1
10
4.39680037783484
20
-0.351139339659511
30
0
41
1
10
4.51340500758994
20
-0.606805460861352
30
0
41
1
10
4.70207128244309
20
-1.02922417963899
30
0
41
1
10
4.76727152904198
20
-1.17658483827029
30
0
41
1
10
4.90241309494616
20
-1.48431554537117
30
0
41
1
10
4.97126106973823
20
-1.64219420169948
30
0
41
1
10
5.18149291479668
20
-2.12685052104482
30
0
41
1
10
5.32656217646701
20
-2.46461532808061
30
0
41
1
10
5.4767693771729
20
-2.81628872928493
30
0
0
SPLINE
5
12C
100
AcDbEntity
8
1
62
256
6
ByLayer
370
13
48
1
60
0
100
AcDbSpline
70
4
71
3
72
25
73
21
40
0
40
0
40
0
40
0
40
0.0625
40
0.0625
40
0.125
40
0.1875
40
0.1875
40
0.25
40
0.25
40
0.375
40
0.375
40
0.5
40
0.5
40
0.625
40
0.625
40
0.75
40
0.75
40
0.875
40
0.875
40
1
40
1
40
1
40
1
41
1
10
23.7271340719549
20
-6.29293274506531
30
0
41
1
10
23.6441308070139
20
-6.23516578325814
30
0
41
1
10
23.5608500086631
20
-6.18226864108848
30
0
41
1
10
23.3952944384435
20
-6.08716527691538
30
0
41
1
10
23.2302638215756
20
-6.0024134754585
30
0
41
1
10
23.0662747993779
20
-5.93820089433277
30
0
41
1
10
22.902805609887
20
-5.88423890185138
30
0
41
1
10
22.8215406300135
20
-5.86257789815366
30
0
41
1
10
22.5837686054725
20
-5.81275965185211
30
0
41
1
10
22.4312296250465
20
-5.79874864841634
30
0
41
1
10
22.1350642110922
20
-5.7993644867025
30
0
41
1
10
21.9906639854974
20
-5.81434374086967
30
0
41
1
10
21.7152661356608
20
-5.86625497447795
30
0
41
1
10
21.5836503952554
20
-5.90306738036986
30
0
41
1
10
21.329931858185
20
-5.99367014565448
30
0
41
1
10
21.207850068013
20
-6.04749799578278
30
0
41
1
10
20.9717000932291
20
-6.1694557487252
30
0
41
1
10
20.8577461003367
20
-6.23778945193556
30
0
41
1
10
20.6364556567081
20
-6.38626732692222
30
0
41
1
10
20.5290319396353
20
-6.46625575260717
30
0
41
1
10
20.4231037690164
20
-6.54891331193193
30
0
0
SPLINE
5
12D
100
AcDbEntity
8
1
62
256
6
ByLayer
370
13
48
1
60
0
100
AcDbSpline
70
4
71
3
72
8
73
4
40
0
40
0
40
0
40
0
40
1
40
1
40
1
40
1
41
1
10
10.3444324620617
20
-2.62373073583788
30
0
41
1
10
10.6287973291878
20
-2.6738719342778
30
0
41
1
10
10.9037520178366
20
-2.75246125975701
30
0
41
1
10
11.1700821703649
20
-2.85762869712136
30
0
0
SPLINE
5
12E
100
AcDbEntity
8
1
62
256
6
ByLayer
370
13
48
1
60
0
100
AcDbSpline
70
4
71
3
72
8
73
4
40
0
40
0
40
0
40
0
40
1
40
1
40
1
40
1
41
1
10
22.2880362388705
20
-8.94373076791635
30
0
41
1
10
21.8689913918091
20
-9.06385881598962
30
0
41
1
10
21.4470328953777
20
-9.20215008994103
30
0
41
1
10
21.0233576990002
20
-9.35246866089292
30
0
0
SPLINE
5
12F
100
AcDbEntity
8
1
62
256
6
ByLayer
370
13
48
1
60
0
100
AcDbSpline
70
4
71
3
72
8
73
4
40
0
40
0
40
0
40
0
40
1
40
1
40
1
40
1
41
1
10
8.90315258742612
20
-10.7976350858392
30
0
41
1
10
9.18751745455228
20
-10.8477762842791
30
0
41
1
10
9.47276947889026
20
-10.8679665170734
30
0
41
1
10
9.75900733991446
20
-10.8602317291749
30
0
0
SPLINE
5
130
100
AcDbEntity
8
1
62
256
6
ByLayer
370
13
48
1
60
0
100
AcDbSpline
70
4
71
3
72
26
73
22
40
0
40
0
40
0
40
0
40
0.0624999999999989
40
0.0624999999999989
40
0.124999999999998
40
0.124999999999998
40
0.249999999999998
40
0.249999999999998
40
0.312499999999999
40
0.312499999999999
40
0.374999999999999
40
0.374999999999999
40
0.499999999999999
40
0.499999999999999
40
0.624999999999999
40
0.624999999999999
40
0.75
40
0.75
40
0.875
40
0.875
40
1
40
1
40
1
40
1
41
1
10
13.4063300477597
20
-8.60266040116491
30
0
41
1
10
13.3634466662997
20
-8.68801044602202
30
0
41
1
10
13.3174301347694
20
-8.77158348587935
30
0
41
1
10
13.2192354005139
20
-8.93523319004939
30
0
41
1
10
13.1669727798721
20
-9.0153871994109
30
0
41
1
10
13.0031967677308
20
-9.24770054315817
30
0
41
1
10
12.8841379732362
20
-9.39284327891193
30
0
41
1
10
12.6915546044226
20
-9.59718368588364
30
0
41
1
10
12.6250163835616
20
-9.6630571441095
30
0
41
1
10
12.4872617753255
20
-9.79040665487429
30
0
41
1
10
12.4157701670396
20
-9.8520953456246
30
0
41
1
10
12.1965621950617
20
-10.0287027873668
30
0
41
1
10
12.0443019020031
20
-10.1352534765109
30
0
41
1
10
11.7277742017403
20
-10.3277396049364
30
0
41
1
10
11.5635028985019
20
-10.413666579635
30
0
41
1
10
11.2223710370538
20
-10.5649697081967
30
0
41
1
10
11.0448074739788
20
-10.6303730737173
30
0
41
1
10
10.6865375832271
20
-10.7366162453476
30
0
41
1
10
10.5046943605566
20
-10.7780464409597
30
0
41
1
10
10.1356810057722
20
-10.8372668234108
30
0
41
1
10
9.94843558345673
20
-10.855043059758
30
0
41
1
10
9.75900733991446
20
-10.8602317291749
30
0
0
SPLINE
5
131
100
AcDbEntity
8
1
62
256
6
ByLayer
370
13
48
1
60
0
100
AcDbSpline
70
4
71
3
72
8
73
4
40
0
40
0
40
0
40
0
40
1
40
1
40
1
40
1
41
1
10
22.7337195341194
20
-11.9268665559351
30
0
41
1
10
22.3834216089389
20
-12.1373467841031
30
0
41
1
10
22.0351310279521
20
-12.3466208781963
30
0
41
1
10
21.6888302233922
20
-12.5546993939939
30
0
0
SPLINE
5
132
100
AcDbEntity
8
1
62
256
6
ByLayer
370
13
48
1
60
0
100
AcDbSpline
70
4
71
3
72
11
73
7
40
0
40
0
40
0
40
0
40
0.100258159504418
40
0.259036131356579
40
0.576592075060902
40
1
40
1
40
1
40
1
41
1.01774327987905
10
20.4231037690199
20
-6.54891331193271
30
0
41
1.01722454828226
10
20.2116211410649
20
-6.50127871420608
30
0
41
1.01635405201137
10
19.7095923685905
20
-6.36621228757208
30
0
41
1.01876555595691
10
18.4054137390999
20
-5.40694777472533
30
0
41
1.02349884684922
10
15.035500517502
20
-2.85897433339811
30
0
41
1.02767136955276
10
12.3403913526763
20
-1.12809721539868
30
0
41
1.02805999725224
10
11.5198994315614
20
-0.873716423508976
30
0
0
SPLINE
5
133
100
AcDbEntity
8
1
62
256
6
ByLayer
370
13
48
1
60
0
100
AcDbSpline
70
4
71
3
72
8
73
4
40
0
40
0
40
0
40
0
40
1
40
1
40
1
40
1
41
1.01923193651471
10
19.8230972782873
20
-13.3298932201657
30
0
41
1.02059845255999
10
20.3641581391377
20
-13.1330776977718
30
0
41
1.02233815481013
10
21.030417183496
20
-12.8669116867375
30
0
41
1.02417048289515
10
21.6887467937478
20
-12.5547389556891
30
0
0
SPLINE
5
134
100
AcDbEntity
8
1
62
256
6
ByLayer
370
13
48
1
60
0
100
AcDbSpline
70
4
71
3
72
16
73
12
40
0
40
0
40
0
40
0
40
0.249999999999995
40
0.249999999999995
40
0.374999999999994
40
0.374999999999994
40
0.499999999999994
40
0.499999999999994
40
0.749999999999997
40
0.749999999999997
40
1
40
1
40
1
40
1
41
1
10
13.8253095353779
20
-6.22650965024337
30
0
41
1
10
13.8490903612522
20
-6.42969599593675
30
0
41
1
10
13.8578502928995
20
-6.63279281773779
30
0
41
1
10
13.8490423746948
20
-6.93731537830138
30
0
41
1
10
13.8424329822906
20
-7.03880230886898
30
0
41
1
10
13.8217803899956
20
-7.24173522506985
30
0
41
1
10
13.8076947411161
20
-7.34331999638596
30
0
41
1
10
13.7546087329154
20
-7.64497378706639
30
0
41
1
10
13.7045973852858
20
-7.84345180300528
30
0
41
1
10
13.5761476580531
20
-8.23144549312249
30
0
41
1
10
13.4981702260229
20
-8.41986183276225
30
0
41
1
10
13.4063300477597
20
-8.60266040116491
30
0
0
SPLINE
5
135
100
AcDbEntity
8
1
62
256
6
ByLayer
370
13
48
1
60
0
100
AcDbSpline
70
4
71
1
72
4
73
2
40
0
40
0
40
1
40
1
41
1
10
9.21464714880426
20
-13.9474517843419
30
0
41
1
10
9.40919007871793
20
-12.8441440027874
30
0
0
SPLINE
5
136
100
AcDbEntity
8
1
62
256
6
ByLayer
370
13
48
1
60
0
100
AcDbSpline
70
4
71
3
72
12
73
8
40
0
40
0
40
0
40
0
40
0.103595514297712
40
0.300483138573828
40
0.497370762849944
40
0.891146011402176
40
1
40
1
40
1
40
1
41
1.02076673234807
10
21.2394237400319
20
-8.12709725056502
30
0
41
1.02005196006992
10
20.9986629049241
20
-8.07820188429016
30
0
41
1.01814069306383
10
20.3407891950644
20
-7.95100904776235
30
0
41
1.01610930227499
10
19.6039069342504
20
-7.83058772481444
30
0
41
1.01876555595691
10
18.0529089965809
20
-7.37397094371906
30
0
41
1.02173322384663
10
15.7667691021748
20
-6.735881158435
30
0
41
1.02394775681993
10
14.1633451956428
20
-6.31413749454392
30
0
41
1.02441262532194
10
13.8253095354634
20
-6.22650965026551
30
0
0
SPLINE
5
137
100
AcDbEntity
8
1
62
256
6
ByLayer
370
13
48
1
60
0
100
AcDbSpline
70
4
71
3
72
8
73
4
40
0
40
0
40
0
40
0
40
1
40
1
40
1
40
1
41
1
10
24.7313630777782
20
-7.53305228885839
30
0
41
1
10
24.6716996825089
20
-7.46862517496405
30
0
41
1
10
24.6097414697258
20
-7.40820372254501
30
0
41
1
10
24.5454845834723
20
-7.35179466227035
30
0
0
SPLINE
5
138
100
AcDbEntity
8
1
62
256
6
ByLayer
370
13
48
1
60
0
100
AcDbSpline
70
4
71
2
72
6
73
3
40
0
40
0
40
0
40
1
40
1
40
1
41
1.02805999725224
10
11.7144423614751
20
0.229591358045617
30
0
41
1.02805999725224
10
11.6171708965183
20
-0.32206253273168
30
0
41
1.02805999725224
10
11.5198994315614
20
-0.873716423508976
30
0
0
SPLINE
5
139
100
AcDbEntity
8
1
62
256
6
ByLayer
370
13
48
1
60
0
100
AcDbSpline
70
4
71
3
72
10
73
6
40
0
40
0
40
0
40
0
40
0.5
40
0.5
40
1
40
1
40
1
40
1
41
1
10
9.40919007871793
20
-12.8441440027874
30
0
41
1
10
9.44232035134678
20
-12.6562528899483
30
0
41
1
10
9.4897796024172
20
-12.3870981021799
30
0
41
1
10
9.60845089288557
20
-11.7140797700361
30
0
41
1
10
9.67964124230789
20
-11.3103392356251
30
0
41
1
10
9.7590073433899
20
-10.8602317094648
30
0
0
SPLINE
5
13A
100
AcDbEntity
8
1
62
256
6
ByLayer
370
13
48
1
60
0
100
AcDbSpline
70
4
71
3
72
18
73
14
40
0
40
0
40
0
40
0
40
0.125
40
0.125
40
0.250000000000001
40
0.250000000000001
40
0.375000000000001
40
0.375000000000001
40
0.500000000000001
40
0.500000000000001
40
0.750000000000001
40
0.750000000000001
40
1
40
1
40
1
40
1
41
1
10
0.45371766193233
20
-9.36517097604994
30
0
41
1
10
0.535612051723035
20
-9.34204791417775
30
0
41
1
10
0.625113624041518
20
-9.31535469506559
30
0
41
1
10
0.815700869616052
20
-9.25627332833491
30
0
41
1
10
0.917094445563066
20
-9.2238002235249
30
0
41
1
10
1.13140188289023
20
-9.15348478921473
30
0
41
1
10
1.24431811016169
20
-9.11564065785589
30
0
41
1
10
1.48133095610459
20
-9.0348862466933
30
0
41
1
10
1.60604719822993
20
-8.99175766607536
30
0
41
1
10
1.99211417190821
20
-8.85668015006775
30
0
41
1
10
2.26351650768464
20
-8.75974083541075
30
0
41
1
10
2.83144129659982
20
-8.55434596936303
30
0
41
1
10
3.12799037302563
20
-8.44586815345397
30
0
41
1
10
3.43693120913744
20
-8.33205174866819
30
0
0
SPLINE
5
13B
100
AcDbEntity
8
1
62
256
6
ByLayer
370
13
48
1
60
0
100
AcDbSpline
70
4
71
3
72
8
73
4
40
0
40
0
40
0
40
0
40
1
40
1
40
1
40
1
41
1
10
21.1448731399757
20
-3.86735139506851
30
0
41
1
10
21.2544838751032
20
-3.90215857148456
30
0
41
1
10
21.3634646176045
20
-3.93943947473846
30
0
41
1
10
21.4718664922305
20
-3.97899335856232
30
0
0
SPLINE
5
13C
100
AcDbEntity
8
1
62
256
6
ByLayer
370
13
48
1
60
0
100
AcDbSpline
70
4
71
3
72
18
73
14
40
0
40
0
40
0
40
0
40
0.249999999999999
40
0.249999999999999
40
0.374999999999999
40
0.374999999999999
40
0.5
40
0.5
40
0.75
40
0.75
40
0.875
40
0.875
40
1
40
1
40
1
40
1
41
1
10
5.67595459157587
20
-2.71408103485814
30
0
41
1
10
5.8728607610893
20
-2.60269781111873
30
0
41
1
10
6.07690931147255
20
-2.50918212351624
30
0
41
1
10
6.39515244172873
20
-2.39532244070441
30
0
41
1
10
6.50367271564843
20
-2.36170085226448
30
0
41
1
10
6.72322382318481
20
-2.30410327176784
30
0
41
1
10
6.83387915185489
20
-2.28018507700085
30
0
41
1
10
7.16869496251334
20
-2.22286757776351
30
0
41
1
10
7.3956951045794
20
-2.2037951539113
30
0
41
1
10
7.74290888566932
20
-2.20505545878737
30
0
41
1
10
7.85948893700774
20
-2.21053013307386
30
0
41
1
10
8.09103488818295
20
-2.23138016356552
30
0
41
1
10
8.20646522860775
20
-2.24674942870934
30
0
41
1
10
8.32155787176384
20
-2.26704336697881
30
0
0
SPLINE
5
13D
100
AcDbEntity
8
1
62
256
6
ByLayer
370
13
48
1
60
0
100
AcDbSpline
70
4
71
3
72
26
73
22
40
0
40
0
40
0
40
0
40
0.0625000000000013
40
0.0625000000000013
40
0.125000000000003
40
0.125000000000003
40
0.187500000000004
40
0.187500000000004
40
0.250000000000005
40
0.250000000000005
40
0.312500000000007
40
0.312500000000007
40
0.375000000000008
40
0.375000000000008
40
0.500000000000006
40
0.500000000000006
40
0.625000000000005
40
0.625000000000005
40
0.750000000000003
40
0.750000000000003
40
1
40
1
40
1
40
1
41
1
10
20.4231037690164
20
-6.54891331193193
30
0
41
1
10
20.4015539598517
20
-6.56572625243359
30
0
41
1
10
20.3819187774449
20
-6.58496297076431
30
0
41
1
10
20.3474422061396
20
-6.62950500036371
30
0
41
1
10
20.3324856068116
20
-6.6551206305802
30
0
41
1
10
20.3096848058592
20
-6.71258232664567
30
0
41
1
10
20.3017567704369
20
-6.74445012094085
30
0
41
1
10
20.294339725855
20
-6.81503562728253
30
0
41
1
10
20.2949821986997
20
-6.85239461923803
30
0
41
1
10
20.3047474815868
20
-6.93113982015981
30
0
41
1
10
20.3140740727283
20
-6.97287156880279
30
0
41
1
10
20.3395232498833
20
-7.05555116354589
30
0
41
1
10
20.3557591756508
20
-7.09726146960176
30
0
41
1
10
20.4125065420158
20
-7.22139096728506
30
0
41
1
10
20.4593042703992
20
-7.29990041333801
30
0
41
1
10
20.5636412457371
20
-7.45140920073641
30
0
41
1
10
20.619767953334
20
-7.52222322427542
30
0
41
1
10
20.7368281309764
20
-7.65785181043398
30
0
41
1
10
20.7977854041372
20
-7.72254715936546
30
0
41
1
10
20.9827540595157
20
-7.90753037794087
30
0
41
1
10
21.1099792213908
20
-8.0203051337744
30
0
41
1
10
21.2394237400306
20
-8.12709725056476
30
0
0
SPLINE
5
13E
100
AcDbEntity
8
1
62
256
6
ByLayer
370
13
48
1
60
0
100
AcDbSpline
70
4
71
3
72
16
73
12
40
0
40
0
40
0
40
0
40
0.249999999999999
40
0.249999999999999
40
0.499999999999998
40
0.499999999999998
40
0.624999999999999
40
0.624999999999999
40
0.749999999999999
40
0.749999999999999
40
1
40
1
40
1
40
1
41
1
10
4.39490421859966
20
-8.95185093437087
30
0
41
1
10
4.13371509477184
20
-9.2306869464048
30
0
41
1
10
3.88086980674399
20
-9.49953956483805
30
0
41
1
10
3.39311665152363
20
-10.0143969233376
30
0
41
1
10
3.16335767764468
20
-10.2549757731339
30
0
41
1
10
2.84056483357975
20
-10.5884502382559
30
0
41
1
10
2.73655740003065
20
-10.6950865739393
30
0
41
1
10
2.53668505248291
20
-10.8979462914824
30
0
41
1
10
2.4424166859055
20
-10.992549127273
30
0
41
1
10
2.17661442619431
20
-11.2554345845286
30
0
41
1
10
2.02184621923365
20
-11.403143921845
30
0
41
1
10
1.89199565060468
20
-11.5186598058797
30
0
0
SPLINE
5
13F
100
AcDbEntity
8
1
62
256
6
ByLayer
370
13
48
1
60
0
100
AcDbSpline
70
4
71
3
72
8
73
4
40
0
40
0
40
0
40
0
40
1
40
1
40
1
40
1
41
1
10
23.7271340719597
20
-6.29293274506315
30
0
41
1
10
23.4699501743379
20
-5.97533708118343
30
0
41
1
10
23.2142400410949
20
-5.65956136474435
30
0
41
1
10
22.9599907742186
20
-5.34558966802774
30
0
0
SPLINE
5
140
100
AcDbEntity
8
1
62
256
6
ByLayer
370
13
48
1
60
0
100
AcDbSpline
70
4
71
3
72
8
73
4
40
0
40
0
40
0
40
0
40
1
40
1
40
1
40
1
41
1
10
23.8648695750832
20
-11.2117541855066
30
0
41
1
10
23.9441200586119
20
-11.180889394161
30
0
41
1
10
24.023011229618
20
-11.1453534249473
30
0
41
1
10
24.1015319839697
20
-11.1050019206044
30
0
0
SPLINE
5
141
100
AcDbEntity
8
1
62
256
6
ByLayer
370
13
48
1
60
0
100
AcDbSpline
70
4
71
3
72
30
73
26
40
0
40
0
40
0
40
0
40
0.125000000000001
40
0.125000000000001
40
0.250000000000003
40
0.250000000000003
40
0.375000000000004
40
0.375000000000004
40
0.437500000000004
40
0.437500000000004
40
0.500000000000004
40
0.500000000000004
40
0.625000000000004
40
0.625000000000004
40
0.687500000000003
40
0.687500000000003
40
0.750000000000003
40
0.750000000000003
40
0.812500000000002
40
0.812500000000002
40
0.875000000000001
40
0.875000000000001
40
0.937500000000001
40
0.937500000000001
40
1
40
1
40
1
40
1
41
1
10
1.48612039248147
20
-12.3919993018916
30
0
41
1
10
1.38137084959439
20
-12.3239475209548
30
0
41
1
10
1.28752597948403
20
-12.2510794768682
30
0
41
1
10
1.11458741384462
20
-12.0953980454516
30
0
41
1
10
1.03622671015609
20
-12.0132349692923
30
0
41
1
10
0.890130215772984
20
-11.8373928201882
30
0
41
1
10
0.822365109704492
20
-11.7436760082765
30
0
41
1
10
0.726526979713441
20
-11.5905200719513
30
0
41
1
10
0.695572181909512
20
-11.5373561039601
30
0
41
1
10
0.635590634852605
20
-11.4259590447303
30
0
41
1
10
0.606469216576187
20
-11.3675176011048
30
0
41
1
10
0.522930890122126
20
-11.1845892573601
30
0
41
1
10
0.472699175150353
20
-11.0536374870354
30
0
41
1
10
0.407971209592091
20
-10.8405632816204
30
0
41
1
10
0.388188117806408
20
-10.7667606215058
30
0
41
1
10
0.352912088226532
20
-10.6129046631024
30
0
41
1
10
0.33750055806874
20
-10.5330103241121
30
0
41
1
10
0.312339633998675
20
-10.3702441076751
30
0
41
1
10
0.302485089327888
20
-10.2869538410601
30
0
41
1
10
0.28880949253832
20
-10.116262225327
30
0
41
1
10
0.285003587639181
20
-10.0282085585372
30
0
41
1
10
0.284126183006094
20
-9.85174665285723
30
0
41
1
10
0.286991047579193
20
-9.76320749352851
30
0
41
1
10
0.299337647085253
20
-9.5854000926455
30
0
41
1
10
0.308822476640501
20
-9.49613711869489
30
0
41
1
10
0.321631361490063
20
-9.40636168941714
30
0
0
SPLINE
5
142
100
AcDbEntity
8
1
62
256
6
ByLayer
370
13
48
1
60
0
100
AcDbSpline
70
4
71
3
72
12
73
8
40
0
40
0
40
0
40
0
40
0.103595537238352
40
0.300483156475476
40
0.497370775712601
40
0.89114601418685
40
1
40
1
40
1
40
1
41
1.02076673287779
10
21.0233578789422
20
-9.35246868784996
30
0
41
1.02005196039548
10
20.7803934311996
20
-9.31607023837607
30
0
41
1.01814069316835
10
20.1186917736252
20
-9.21058633693818
30
0
41
1.01610930227499
10
19.385062394943
20
-9.07171678190866
30
0
41
1.01876555595691
10
17.7714289411499
20
-8.97032366469225
30
0
41
1.02173322384664
10
15.4049205924787
20
-8.78802603297639
30
0
41
1.02394775681994
10
13.7539501511442
20
-8.63593216747374
30
0
41
1.02441262532196
10
13.4063300478477
20
-8.6026604011733
30
0
0
SPLINE
5
143
100
AcDbEntity
8
1
62
256
6
ByLayer
370
13
48
1
60
0
100
AcDbSpline
70
4
71
2
72
6
73
3
40
0
40
0
40
0
40
1
40
1
40
1
41
1.02805999725224
10
11.5198994315614
20
-0.873716423508976
30
0
41
0.930554445970897
10
11.4168779661658
20
-1.45798018723735
30
0
41
0.937301687733887
10
11.1700821698549
20
-2.8576287000134
30
0
0
SPLINE
5
144
100
AcDbEntity
8
1
62
256
6
ByLayer
370
13
48
1
60
0
100
AcDbSpline
70
4
71
3
72
26
73
22
40
0
40
0
40
0
40
0
40
0.250000000000004
40
0.250000000000004
40
0.375000000000006
40
0.375000000000006
40
0.500000000000009
40
0.500000000000009
40
0.625000000000012
40
0.625000000000012
40
0.68750000000001
40
0.68750000000001
40
0.750000000000008
40
0.750000000000008
40
0.812500000000006
40
0.812500000000006
40
0.875000000000004
40
0.875000000000004
40
0.937500000000002
40
0.937500000000002
40
1
40
1
40
1
40
1
41
1
10
21.0233576990003
20
-9.35246866089292
30
0
41
1
10
20.8652215689437
20
-9.40853822459414
30
0
41
1
10
20.7069415022747
20
-9.47103757746947
30
0
41
1
10
20.4691363955633
20
-9.58198523288618
30
0
41
1
10
20.3901943787751
20
-9.62173637218947
30
0
41
1
10
20.2347366987117
20
-9.70862245624667
30
0
41
1
10
20.1580271548447
20
-9.75575967243384
30
0
41
1
10
20.0080312731771
20
-9.86244062592243
30
0
41
1
10
19.937071120645
20
-9.92026799847423
30
0
41
1
10
19.8412329132277
20
-10.0174493302988
30
0
41
1
10
19.8115409473738
20
-10.0512328564679
30
0
41
1
10
19.7591100085035
20
-10.1204866153169
30
0
41
1
10
19.7360827605382
20
-10.1564944395577
30
0
41
1
10
19.6999367497351
20
-10.2271872019075
30
0
41
1
10
19.6863682846976
20
-10.2626382945766
30
0
41
1
10
19.6693212506426
20
-10.3312572227798
30
0
41
1
10
19.6658865352505
20
-10.3637546600356
30
0
41
1
10
19.6676858233406
20
-10.4256627662971
30
0
41
1
10
19.6729881375259
20
-10.4547663468416
30
0
41
1
10
19.6901350362288
20
-10.5083294027657
30
0
41
1
10
19.7019965305851
20
-10.533107867484
30
0
41
1
10
19.7164971491644
20
-10.5562785887804
30
0
0
SPLINE
5
145
100
AcDbEntity
8
1
62
256
6
ByLayer
370
13
48
1
60
0
100
AcDbSpline
70
4
71
3
72
8
73
4
40
0
40
0
40
0
40
0
40
1
40
1
40
1
40
1
41
1.0241704137769
10
22.9599066340042
20
-5.34550443431433
30
0
41
1.0223381109506
10
22.4480543299506
20
-4.82700352779338
30
0
41
1.02059843516864
10
21.9130176192259
20
-4.34902260492384
30
0
41
1.01923193626848
10
21.4719071179491
20
-3.97902743456635
30
0
0
SPLINE
5
146
100
AcDbEntity
8
1
62
256
6
ByLayer
370
13
48
1
60
0
100
AcDbSpline
70
4
71
3
72
18
73
14
40
0
40
0
40
0
40
0
40
0.250000000000001
40
0.250000000000001
40
0.375000000000001
40
0.375000000000001
40
0.500000000000001
40
0.500000000000001
40
0.625000000000001
40
0.625000000000001
40
0.750000000000001
40
0.750000000000001
40
1
40
1
40
1
40
1
41
1
10
6.88027799712833
20
-10.4409477169801
30
0
41
1
10
6.65010680575614
20
-10.4003623257594
30
0
41
1
10
6.42625386202556
20
-10.3410594792438
30
0
41
1
10
6.09989278785207
20
-10.2238339974312
30
0
41
1
10
5.99242656180047
20
-10.1798770425347
30
0
41
1
10
5.7833330750187
20
-10.0834811885698
30
0
41
1
10
5.681410495227
20
-10.0309633451267
30
0
41
1
10
5.48264853923217
20
-9.91728325993748
30
0
41
1
10
5.38622731282456
20
-9.85632316110556
30
0
41
1
10
5.20082985043777
20
-9.72759081646953
30
0
41
1
10
5.11154616702106
20
-9.65964582373812
30
0
41
1
10
4.85337576524188
20
-9.44516435473841
30
0
41
1
10
4.69409202681831
20
-9.28807418290708
30
0
41
1
10
4.54712000444877
20
-9.11602010618785
30
0
0
SPLINE
5
147
100
AcDbEntity
8
1
62
256
6
ByLayer
370
13
48
1
60
0
100
AcDbSpline
70
4
71
3
72
10
73
6
40
0
40
0
40
0
40
0
40
0.5
40
0.5
40
1
40
1
40
1
40
1
41
1
10
2.76546737447478
20
-8.14148433527762
30
0
41
1
10
2.87621483191512
20
-8.1610121000692
30
0
41
1
10
2.98855272043917
20
-8.18632062716662
30
0
41
1
10
3.21341909361576
20
-8.24960064176761
30
0
41
1
10
3.32552396670633
20
-8.28741131153888
30
0
41
1
10
3.43693120913744
20
-8.33205174866819
30
0
0
SPLINE
5
148
100
AcDbEntity
8
1
62
256
6
ByLayer
370
13
48
1
60
0
100
AcDbSpline
70
4
71
3
72
18
73
14
40
0
40
0
40
0
40
0
40
0.124999999999999
40
0.124999999999999
40
0.249999999999998
40
0.249999999999998
40
0.499999999999998
40
0.499999999999998
40
0.624999999999999
40
0.624999999999999
40
0.749999999999999
40
0.749999999999999
40
1
40
1
40
1
40
1
41
1
10
4.36458540294097
20
-3.07106338445806
30
0
41
1
10
4.23900890272188
20
-2.96485198144282
30
0
41
1
10
4.11537418386126
20
-2.86052240627458
30
0
41
1
10
3.87203934554702
20
-2.65578824467116
30
0
41
1
10
3.75204122730227
20
-2.55513543773884
30
0
41
1
10
3.40156738305964
20
-2.2623021527599
30
0
41
1
10
3.17983662675573
20
-2.0785661924385
30
0
41
1
10
2.86602735435483
20
-1.82191655050184
30
0
41
1
10
2.76457261333817
20
-1.73954452015423
30
0
41
1
10
2.56836543906758
20
-1.58174073635732
30
0
41
1
10
2.47480033770245
20
-1.50726755656538
30
0
41
1
10
2.20918236417396
20
-1.29859960457728
30
0
41
1
10
2.05143982725036
20
-1.17848144417883
30
0
41
1
10
1.91462923262537
20
-1.07992974510924
30
0
0
SPLINE
5
149
100
AcDbEntity
8
1
62
256
6
ByLayer
370
13
48
1
60
0
100
AcDbSpline
70
4
71
3
72
22
73
18
40
0
40
0
40
0
40
0
40
0.0625000000000002
40
0.0625000000000002
40
0.125
40
0.125
40
0.25
40
0.25
40
0.375
40
0.375
40
0.499999999999999
40
0.499999999999999
40
0.75
40
0.75
40
0.875
40
0.875
40
1
40
1
40
1
40
1
41
1
10
11.7144423614751
20
0.22959135804561
30
0
41
1
10
11.8788431353086
20
0.199009757111554
30
0
41
1
10
12.0415583610334
20
0.162783268688628
30
0
41
1
10
12.3654026764037
20
0.0850183344665254
30
0
41
1
10
12.5264619600376
20
0.0432461088782929
30
0
41
1
10
13.00780582525
20
-0.088212571677218
30
0
41
1
10
13.3262765409759
20
-0.18397364925741
30
0
41
1
10
13.9593797299997
20
-0.388350048416669
30
0
41
1
10
14.2739703688364
20
-0.497105473280015
30
0
41
1
10
14.8991178512806
20
-0.72812547181374
30
0
41
1
10
15.2094065193186
20
-0.850334325362155
30
0
41
1
10
16.1291904500889
20
-1.23856228374959
30
0
41
1
10
16.7277973881798
20
-1.5286639997743
30
0
41
1
10
17.6095180771549
20
-1.99854789167853
30
0
41
1
10
17.9007327949072
20
-2.16107956517882
30
0
41
1
10
18.4757043996193
20
-2.49683250231178
30
0
41
1
10
18.7597646855359
20
-2.6700971103368
30
0
41
1
10
19.0395286876431
20
-2.85011952458893
30
0
0
SPLINE
5
14A
100
AcDbEntity
8
1
62
256
6
ByLayer
370
13
48
1
60
0
100
AcDbSpline
70
4
71
3
72
20
73
16
40
0
40
0
40
0
40
0
40
0.125
40
0.125
40
0.25
40
0.25
40
0.5
40
0.5
40
0.75
40
0.75
40
0.875
40
0.875
40
0.9375
40
0.9375
40
1
40
1
40
1
40
1
41
1
10
17.1512998735931
20
-13.5587972689894
30
0
41
1
10
16.8268916542209
20
-13.6322655688175
30
0
41
1
10
16.5007918560845
20
-13.6979093778301
30
0
41
1
10
15.845896264482
20
-13.816726520858
30
0
41
1
10
15.5168686699881
20
-13.8698305880706
30
0
41
1
10
14.5271297969033
20
-14.0098964495922
30
0
41
1
10
13.8652887329615
20
-14.0777660017416
30
0
41
1
10
12.5361735312433
20
-14.1447334232698
30
0
41
1
10
11.8682749338875
20
-14.1468398457016
30
0
41
1
10
10.8707770583805
20
-14.1101115045797
30
0
41
1
10
10.5386981583429
20
-14.0911701209353
30
0
41
1
10
10.0413762856421
20
-14.0500668230316
30
0
41
1
10
9.87573617761996
20
-14.0342329394972
30
0
41
1
10
9.54483368916502
20
-13.9965463888155
30
0
41
1
10
9.37955605853773
20
-13.9749367211813
30
0
41
1
10
9.21464714880423
20
-13.9474517843419
30
0
0
SPLINE
5
14B
100
AcDbEntity
8
1
62
256
6
ByLayer
370
13
48
1
60
0
100
AcDbSpline
70
4
71
3
72
14
73
10
40
0
40
0
40
0
40
0
40
0.25
40
0.25
40
0.5
40
0.5
40
0.75
40
0.75
40
1
40
1
40
1
40
1
41
1
10
5.47676937717179
20
-2.81628872928258
30
0
41
1
10
5.38898808171408
20
-2.85693152792862
30
0
41
1
10
5.29728141646231
20
-2.8932067721145
30
0
41
1
10
5.1123611777432
20
-2.95496595736844
30
0
41
1
10
5.01851830678933
20
-2.98078685915439
30
0
41
1
10
4.82821893333673
20
-3.02289832658937
30
0
41
1
10
4.73338151518101
20
-3.03879009046892
30
0
41
1
10
4.54720650315173
20
-3.0613648043871
30
0
41
1
10
4.45534580428097
20
-3.06815439045181
30
0
41
1
10
4.36458540294097
20
-3.07106338445806
30
0
0
SPLINE
5
14C
100
AcDbEntity
8
1
62
256
6
ByLayer
370
13
48
1
60
0
100
AcDbSpline
70
4
71
3
72
16
73
12
40
0
40
0
40
0
40
0
40
0.250000000000006
40
0.250000000000006
40
0.375000000000006
40
0.375000000000006
40
0.500000000000006
40
0.500000000000006
40
0.750000000000003
40
0.750000000000003
40
1
40
1
40
1
40
1
41
1
10
17.1512998735934
20
-13.5587972689893
30
0
41
1
10
17.3518905332623
20
-13.5133697679358
30
0
41
1
10
17.5520478713859
20
-13.4725754096292
30
0
41
1
10
17.8518060983515
20
-13.4197335808935
30
0
41
1
10
17.9516501527352
20
-13.4035415385994
30
0
41
1
10
18.1512591929948
20
-13.3745787142933
30
0
41
1
10
18.251288015113
20
-13.3617907824738
30
0
41
1
10
18.5471115007878
20
-13.3302304910079
30
0
41
1
10
18.7398451213951
20
-13.3192969160015
30
0
41
1
10
19.1159333865576
20
-13.3125960652341
30
0
41
1
10
19.2992832311388
20
-13.3155631056634
30
0
41
1
10
19.4775903098278
20
-13.3229821978958
30
0
0
SPLINE
5
14D
100
AcDbEntity
8
1
62
256
6
ByLayer
370
13
48
1
60
0
100
AcDbSpline
70
4
71
3
72
28
73
24
40
0
40
0
40
0
40
0
40
0.0625000000000012
40
0.0625000000000012
40
0.125000000000002
40
0.125000000000002
40
0.187500000000004
40
0.187500000000004
40
0.250000000000005
40
0.250000000000005
40
0.375000000000007
40
0.375000000000007
40
0.437500000000008
40
0.437500000000008
40
0.500000000000008
40
0.500000000000008
40
0.625000000000006
40
0.625000000000006
40
0.750000000000004
40
0.750000000000004
40
0.875000000000002
40
0.875000000000002
40
1
40
1
40
1
40
1
41
1
10
1.80459676448243
20
-0.996046960304568
30
0
41
1
10
1.82322072206145
20
-0.907516920922376
30
0
41
1
10
1.84502131261141
20
-0.819531956210625
30
0
41
1
10
1.89497901422331
20
-0.645961481480157
30
0
41
1
10
1.92276682523414
20
-0.561568051987138
30
0
41
1
10
1.98371735837236
20
-0.397063893491264
30
0
41
1
10
2.0168792901697
20
-0.31695887923982
30
0
41
1
10
2.08836159903001
20
-0.160817967850818
30
0
41
1
10
2.12656583680675
20
-0.0851397485449468
30
0
41
1
10
2.24522573883078
20
0.130523891270684
30
0
41
1
10
2.33059918820337
20
0.261278683774833
30
0
41
1
10
2.46546754209393
20
0.440980209219361
30
0
41
1
10
2.51135663247516
20
0.497804848423925
30
0
41
1
10
2.60339767218537
20
0.604520021462093
30
0
41
1
10
2.64974501814731
20
0.65467334204638
30
0
41
1
10
2.78964119970945
20
0.796758467731479
30
0
41
1
10
2.88420845121669
20
0.88057036755842
30
0
41
1
10
3.07581403709813
20
1.03001164470274
30
0
41
1
10
3.17196330263738
20
1.09503088415238
30
0
41
1
10
3.36948742343756
20
1.21014164254015
30
0
41
1
10
3.47087327973341
20
1.26023064994652
30
0
41
1
10
3.68501489570815
20
1.34664981426437
30
0
41
1
10
3.79776335528453
20
1.38301083889107
30
0
41
1
10
3.92000671802813
20
1.41125596719763
30
0
0
SPLINE
5
14E
100
AcDbEntity
8
1
62
256
6
ByLayer
370
13
48
1
60
0
100
AcDbSpline
70
4
71
3
72
8
73
4
40
0
40
0
40
0
40
0
40
1
40
1
40
1
40
1
41
1
10
0.321631361490063
20
-9.40636168941714
30
0
41
1
10
0.324905505258698
20
-9.38341373838173
30
0
41
1
10
0.328575334706727
20
-9.36036080865426
30
0
41
1
10
0.332659689672965
20
-9.33719728058938
30
0
0
SPLINE
5
14F
100
AcDbEntity
8
1
62
256
6
ByLayer
370
13
48
1
60
0
100
AcDbSpline
70
4
71
3
72
8
73
4
40
0
40
0
40
0
40
0
40
1
40
1
40
1
40
1
41
1
10
21.2394237400306
20
-8.12709725056476
30
0
41
1
10
21.5860756553372
20
-8.41320596976846
30
0
41
1
10
21.935649974695
20
-8.6877441152447
30
0
41
1
10
22.2880362388916
20
-8.94373076791035
30
0
0
SPLINE
5
150
100
AcDbEntity
8
1
62
256
6
ByLayer
370
13
48
1
60
0
100
AcDbSpline
70
4
71
3
72
14
73
10
40
0
40
0
40
0
40
0
40
0.25
40
0.25
40
0.375
40
0.375
40
0.5
40
0.5
40
1
40
1
40
1
40
1
41
1
10
2.94733900132229
20
1.37631804282893
30
0
41
1
10
3.10784870002038
20
1.4272169653359
30
0
41
1
10
3.2665853342692
20
1.46388743885276
30
0
41
1
10
3.50056497079697
20
1.50172641086945
30
0
41
1
10
3.57814112137882
20
1.51148551132653
30
0
41
1
10
3.73031840223948
20
1.52570700987934
30
0
41
1
10
3.80476128469553
20
1.53017945410747
30
0
41
1
10
4.16890377440794
20
1.54139648089665
30
0
41
1
10
4.43453981213062
20
1.51539395768714
30
0
41
1
10
4.67518347389546
20
1.47296198738149
30
0
0
SPLINE
5
151
100
AcDbEntity
8
1
62
256
6
ByLayer
370
13
48
1
60
0
100
AcDbSpline
70
4
71
3
72
24
73
20
40
0
40
0
40
0
40
0
40
0.124999999999999
40
0.124999999999999
40
0.249999999999998
40
0.249999999999998
40
0.374999999999997
40
0.374999999999997
40
0.499999999999996
40
0.499999999999996
40
0.624999999999996
40
0.624999999999996
40
0.687499999999995
40
0.687499999999995
40
0.749999999999995
40
0.749999999999995
40
0.874999999999998
40
0.874999999999998
40
1
40
1
40
1
40
1
41
1
10
19.7164971491645
20
-10.5562785887804
30
0
41
1
10
19.7878507320206
20
-10.6703154439239
30
0
41
1
10
19.8615850251158
20
-10.7824554407278
30
0
41
1
10
20.0194183226403
20
-10.9984772310445
30
0
41
1
10
20.1036611822783
20
-11.1022444062606
30
0
41
1
10
20.2855858363763
20
-11.2990711303832
30
0
41
1
10
20.3834158765972
20
-11.3925405853014
30
0
41
1
10
20.593272112881
20
-11.5655022277869
30
0
41
1
10
20.7049747222759
20
-11.6448245350782
30
0
41
1
10
20.9448787172589
20
-11.786035114373
30
0
41
1
10
21.0730314365292
20
-11.847974811421
30
0
41
1
10
21.2813812364484
20
-11.9238498075375
30
0
41
1
10
21.3537865312531
20
-11.9463414487004
30
0
41
1
10
21.5038677261627
20
-11.9842441749962
30
0
41
1
10
21.5811233188283
20
-11.9995728624901
30
0
41
1
10
21.820388171805
20
-12.0332956507434
30
0
41
1
10
21.9901385565663
20
-12.0390289642718
30
0
41
1
10
22.353810393937
20
-12.0109632534696
30
0
41
1
10
22.5415463789005
20
-11.9777714443631
30
0
41
1
10
22.7337195341194
20
-11.9268665559351
30
0
0
SPLINE
5
152
100
AcDbEntity
8
1
62
256
6
ByLayer
370
13
48
1
60
0
100
AcDbSpline
70
4
71
3
72
8
73
4
40
0
40
0
40
0
40
0
40
1
40
1
40
1
40
1
41
1
10
5.6759545915759
20
-2.71408103485811
30
0
41
1
10
5.61109709265017
20
-2.75076874927495
30
0
41
1
10
5.54468614921757
20
-2.78484321829356
30
0
41
1
10
5.47676937717171
20
-2.81628872928263
30
0
0
SPLINE
5
153
100
AcDbEntity
8
1
62
256
6
ByLayer
370
13
48
1
60
0
100
AcDbSpline
70
4
71
3
72
14
73
10
40
0
40
0
40
0
40
0
40
0.249999999999995
40
0.249999999999995
40
0.374999999999994
40
0.374999999999994
40
0.499999999999993
40
0.499999999999993
40
1
40
1
40
1
40
1
41
1
10
0.584061190516337
20
-12.0264964403007
30
0
41
1
10
0.718661004328368
20
-12.1301307040476
30
0
41
1
10
0.855940885977077
20
-12.2191181388804
30
0
41
1
10
1.06307799400966
20
-12.3346387058839
30
0
41
1
10
1.13254436232026
20
-12.3702316461598
30
0
41
1
10
1.27041488170445
20
-12.4354213508625
30
0
41
1
10
1.33870721510985
20
-12.4649885691908
30
0
41
1
10
1.67640532593825
20
-12.5996497718425
30
0
41
1
10
1.93442892982918
20
-12.6659122501551
30
0
41
1
10
2.17464971549165
20
-12.7082696559943
30
0
0
LINE
5
70
100
AcDbEntity
8
80
62
256
6
ByLayer
370
18
48
1
60
0
100
AcDbLine
10
0
20
0
30
0
11
-5
21
0
31
0
39
0
210
0
220
0
230
1
0
LINE
5
71
100
AcDbEntity
8
81
62
256
6
ByLayer
370
18
48
1
60
0
100
AcDbLine
10
32
20
-18.0375
30
0
11
37
21
-18.0375
31
0
39
0
210
0
220
0
230
1
0
LINE
5
72
100
AcDbEntity
8
1
62
256
6
ByLayer
370
13
48
1
60
0
100
AcDbLine
10
3.039171
20
-15.734723
30
0
11
3.530682
21
-12.947227
31
0
39
0
210
0
220
0
230
1
0
LINE
5
74
100
AcDbEntity
8
1
62
256
6
ByLayer
370
13
48
1
60
0
100
AcDbLine
10
24.942299
20
-16.152407
30
0
11
25.042609
21
-16.087265
31
0
39
0
210
0
220
0
230
1
0
LINE
5
75
100
AcDbEntity
8
1
62
256
6
ByLayer
370
13
48
1
60
0
100
AcDbLine
10
25.207539
20
-16.474956
30
0
11
25.207539
21
-16.164177
31
0
39
0
210
0
220
0
230
1
0
LINE
5
76
100
AcDbEntity
8
1
62
256
6
ByLayer
370
13
48
1
60
0
100
AcDbLine
10
3.460685
20
1.484025
30
0
11
2.099577
21
1.724026
31
0
39
0
210
0
220
0
230
1
0
LINE
5
77
100
AcDbEntity
8
1
62
256
6
ByLayer
370
13
48
1
60
0
100
AcDbLine
10
1.344264
20
-15.600287
30
0
11
0.321051
21
-11.781603
31
0
39
0
210
0
220
0
230
1
0
LINE
5
78
100
AcDbEntity
8
1
62
256
6
ByLayer
370
13
48
1
60
0
100
AcDbLine
10
2.099577
20
1.724026
30
0
11
1.931184
21
0.769024
31
0
39
0
210
0
220
0
230
1
0
LINE
5
79
100
AcDbEntity
8
1
62
256
6
ByLayer
370
13
48
1
60
0
100
AcDbLine
10
16.928543
20
-0.144319
30
0
11
16.913977
21
-0.310804
31
0
39
0
210
0
220
0
230
1
0
LINE
5
7A
100
AcDbEntity
8
1
62
256
6
ByLayer
370
13
48
1
60
0
100
AcDbLine
10
14.836534
20
0.038708
30
0
11
14.822912
21
-0.116989
31
0
39
0
210
0
220
0
230
1
0
LINE
5
7B
100
AcDbEntity
8
1
62
256
6
ByLayer
370
13
48
1
60
0
100
AcDbLine
10
20.34922
20
-14.107437
30
0
11
20.425545
21
-13.936007
31
0
39
0
210
0
220
0
230
1
0
LINE
5
7C
100
AcDbEntity
8
1
62
256
6
ByLayer
370
13
48
1
60
0
100
AcDbLine
10
0
20
-6.56796
30
0
11
0
21
-2.039134
31
0
39
0
210
0
220
0
230
1
0
LINE
5
7D
100
AcDbEntity
8
1
62
256
6
ByLayer
370
13
48
1
60
0
100
AcDbLine
10
18.582738
20
-0.857983
30
0
11
18.558375
21
-0.910229
31
0
39
0
210
0
220
0
230
1
0
LINE
5
7E
100
AcDbEntity
8
SK1
62
256
6
ByLayer
370
13
48
1
60
0
100
AcDbLine
10
0
20
-6.56796
30
0
11
0
21
-2.039134
31
0
39
0
210
0
220
0
230
1
0
LINE
5
80
100
AcDbEntity
8
SK1
62
256
6
ByLayer
370
13
48
1
60
0
100
AcDbLine
10
-69
20
6.9625
30
0
11
-69
21
-6.9625
31
0
39
0
210
0
220
0
230
1
0
LINE
5
81
100
AcDbEntity
8
SK1
62
256
6
ByLayer
370
13
48
1
60
0
100
AcDbLine
10
0
20
7.170857
30
0
11
0
21
9.9625
31
0
39
0
210
0
220
0
230
1
0
LINE
5
82
100
AcDbEntity
8
SK1
62
256
6
ByLayer
370
13
48
1
60
0
100
AcDbLine
10
-69
20
-6.9625
30
0
11
-66
21
-9.9625
31
0
39
0
210
0
220
0
230
1
0
LINE
5
83
100
AcDbEntity
8
SK1
62
256
6
ByLayer
370
13
48
1
60
0
100
AcDbLine
10
-5.415146
20
-9.9625
30
0
11
-66
21
-9.9625
31
0
39
0
210
0
220
0
230
1
0
LINE
5
84
100
AcDbEntity
8
SK1
62
256
6
ByLayer
370
13
48
1
60
0
100
AcDbLine
10
0
20
9.9625
30
0
11
-66
21
9.9625
31
0
39
0
210
0
220
0
230
1
0
LINE
5
85
100
AcDbEntity
8
SK1
62
256
6
ByLayer
370
13
48
1
60
0
100
AcDbLine
10
-69
20
6.9625
30
0
11
-66
21
9.9625
31
0
39
0
210
0
220
0
230
1
0
LINE
5
86
100
AcDbEntity
8
SK1
62
256
6
ByLayer
370
13
48
1
60
0
100
AcDbLine
10
-1.397103
20
-9.9625
30
0
11
-5.415146
21
-9.9625
31
0
39
0
210
0
220
0
230
1
0
LINE
5
87
100
AcDbEntity
8
SK1
62
256
6
ByLayer
370
13
48
1
60
0
100
AcDbLine
10
0
20
7.11357
30
0
11
0
21
7.170857
31
0
39
0
210
0
220
0
230
1
0
LINE
5
88
100
AcDbEntity
8
SK1
62
256
6
ByLayer
370
13
48
1
60
0
100
AcDbLine
10
-2.553132
20
6.26879
30
0
11
-5.415146
21
-9.9625
31
0
39
0
210
0
220
0
230
1
0
LINE
5
89
100
AcDbEntity
8
SK1
62
256
6
ByLayer
370
13
48
1
60
0
100
AcDbLine
10
-1.397103
20
-9.9625
30
0
11
-1.317366
21
-9.9625
31
0
39
0
210
0
220
0
230
1
0
LINE
5
8A
100
AcDbEntity
8
SK1
62
256
6
ByLayer
370
13
48
1
60
0
100
AcDbLine
10
0
20
5.524065
30
0
11
0
21
-2.039134
31
0
39
0
210
0
220
0
230
1
0
LINE
5
8B
100
AcDbEntity
8
SK1
62
256
6
ByLayer
370
13
48
1
60
0
100
AcDbLine
10
-1.397103
20
-9.9625
30
0
11
0
21
-2.039134
31
0
39
0
210
0
220
0
230
1
0
LINE
5
8C
100
AcDbEntity
8
1
62
256
6
ByLayer
370
13
48
1
60
0
100
AcDbLine
10
0
20
-2.039134
30
0
11
0.706848
21
1.969601
31
0
39
0
210
0
220
0
230
1
0
LINE
5
8D
100
AcDbEntity
8
1
62
256
6
ByLayer
370
13
48
1
60
0
100
AcDbLine
10
3.039171
20
-15.734723
30
0
11
1.344264
21
-15.600287
31
0
39
0
210
0
220
0
230
1
0
LINE
5
8E
100
AcDbEntity
8
1
62
256
6
ByLayer
370
13
48
1
60
0
100
AcDbLine
10
24.942299
20
-16.506447
30
0
11
3.039171
21
-15.734723
31
0
39
0
210
0
220
0
230
1
0
LINE
5
8F
100
AcDbEntity
8
1
62
256
6
ByLayer
370
13
48
1
60
0
100
AcDbLine
10
25.451651
20
-3.719695
30
0
11
25.433014
21
-3.75966
31
0
39
0
210
0
220
0
230
1
0
LINE
5
90
100
AcDbEntity
8
1
62
256
6
ByLayer
370
13
48
1
60
0
100
AcDbLine
10
24.942299
20
-16.152407
30
0
11
24.942299
21
-16.506447
31
0
39
0
210
0
220
0
230
1
0
LINE
5
91
100
AcDbEntity
8
1
62
256
6
ByLayer
370
13
48
1
60
0
100
AcDbLine
10
25.433014
20
-3.75966
30
0
11
18.694833
21
-0.617595
31
0
39
0
210
0
220
0
230
1
0
LINE
5
92
100
AcDbEntity
8
1
62
256
6
ByLayer
370
13
48
1
60
0
100
AcDbLine
10
25.561308
20
-4.112144
30
0
11
25.593372
21
-4.043382
31
0
39
0
210
0
220
0
230
1
0
LINE
5
93
100
AcDbEntity
8
1
62
256
6
ByLayer
370
13
48
1
60
0
100
AcDbLine
10
16.928543
20
-0.144319
30
0
11
14.836534
21
0.038708
31
0
39
0
210
0
220
0
230
1
0
LINE
5
94
100
AcDbEntity
8
1
62
256
6
ByLayer
370
13
48
1
60
0
100
AcDbLine
10
25.433014
20
-3.75966
30
0
11
25.561308
21
-4.112144
31
0
39
0
210
0
220
0
230
1
0
LINE
5
95
100
AcDbEntity
8
1
62
256
6
ByLayer
370
13
48
1
60
0
100
AcDbLine
10
0
20
5.524065
30
0
11
0
21
-2.039134
31
0
39
0
210
0
220
0
230
1
0
LINE
5
96
100
AcDbEntity
8
1
62
256
6
ByLayer
370
13
48
1
60
0
100
AcDbLine
10
0
20
7.170857
30
0
11
0
21
9.9625
31
0
39
0
210
0
220
0
230
1
0
LINE
5
97
100
AcDbEntity
8
1
62
256
6
ByLayer
370
13
48
1
60
0
100
AcDbLine
10
17.399322
20
9.9625
30
0
11
0
21
9.9625
31
0
39
0
210
0
220
0
230
1
0
LINE
5
98
100
AcDbEntity
8
1
62
256
6
ByLayer
370
13
48
1
60
0
100
AcDbLine
10
18.582738
20
-0.857983
30
0
11
25.561308
21
-4.112144
31
0
39
0
210
0
220
0
230
1
0
LINE
5
99
100
AcDbEntity
8
1
62
256
6
ByLayer
370
13
48
1
60
0
100
AcDbLine
10
17.399322
20
9.9625
30
0
11
19.611369
21
6.556246
31
0
39
0
210
0
220
0
230
1
0
LINE
5
9A
100
AcDbEntity
8
1
62
256
6
ByLayer
370
13
48
1
60
0
100
AcDbLine
10
0.706848
20
1.969601
30
0
11
2.099577
21
1.724026
31
0
39
0
210
0
220
0
230
1
0
LINE
5
9B
100
AcDbEntity
8
1
62
256
6
ByLayer
370
13
48
1
60
0
100
AcDbLine
10
25.207539
20
-16.474956
30
0
11
24.942299
21
-16.506447
31
0
39
0
210
0
220
0
230
1
0
LINE
5
9C
100
AcDbEntity
8
1
62
256
6
ByLayer
370
13
48
1
60
0
100
AcDbLine
10
20.34922
20
-14.107437
30
0
11
24.942299
21
-16.152407
31
0
39
0
210
0
220
0
230
1
0
LINE
5
9D
100
AcDbEntity
8
1
62
256
6
ByLayer
370
13
48
1
60
0
100
AcDbLine
10
0
20
7.11357
30
0
11
0
21
7.170857
31
0
39
0
210
0
220
0
230
1
0
LINE
5
9E
100
AcDbEntity
8
1
62
256
6
ByLayer
370
13
48
1
60
0
100
AcDbLine
10
18.694833
20
-0.617595
30
0
11
18.582738
21
-0.857983
31
0
39
0
210
0
220
0
230
1
0
LINE
5
9F
100
AcDbEntity
8
1
62
256
6
ByLayer
370
13
48
1
60
0
100
AcDbLine
10
27.990482
20
-17.461881
30
0
11
24.350771
21
-15.764656
31
0
39
0
210
0
220
0
230
1
0
LINE
5
A0
100
AcDbEntity
8
1
62
256
6
ByLayer
370
13
48
1
60
0
100
AcDbLine
10
24.101039
20
-15.659801
30
0
11
20.706618
21
-14.076957
31
0
39
0
210
0
220
0
230
1
0
LINE
5
A1
100
AcDbEntity
8
1
62
256
6
ByLayer
370
13
48
1
60
0
100
AcDbLine
10
29.727156
20
-10.388271
30
0
11
31.424381
21
-14.027982
31
0
39
0
210
0
220
0
230
1
0
LINE
5
A2
100
AcDbEntity
8
1
62
256
6
ByLayer
370
13
48
1
60
0
100
AcDbLine
10
31.874477
20
-15.707762
30
0
11
31.992361
21
-17.05519
31
0
39
0
210
0
220
0
230
1
0
LINE
5
A3
100
AcDbEntity
8
1
62
256
6
ByLayer
370
13
48
1
60
0
100
AcDbLine
10
21.976101
20
-2.492339
30
0
11
25.370522
21
-4.075184
31
0
39
0
210
0
220
0
230
1
0
LINE
5
A4
100
AcDbEntity
8
1
62
256
6
ByLayer
370
13
48
1
60
0
100
AcDbLine
10
31.01769
20
-18.029861
30
0
11
29.670262
21
-17.911977
31
0
39
0
210
0
220
0
230
1
0
LINE
5
A5
100
AcDbEntity
8
1
62
256
6
ByLayer
370
13
48
1
60
0
100
AcDbLine
10
15.05945
20
-0.122279
30
0
11
16.406878
21
-0.240164
31
0
39
0
210
0
220
0
230
1
0
LINE
5
A6
100
AcDbEntity
8
1
62
256
6
ByLayer
370
13
48
1
60
0
100
AcDbLine
10
18.086659
20
-0.690259
30
0
11
21.726369
21
-2.387484
31
0
39
0
210
0
220
0
230
1
0
LINE
5
A7
100
AcDbEntity
8
1
62
256
6
ByLayer
370
13
48
1
60
0
100
AcDbLine
10
28.039457
20
-6.744118
30
0
11
29.622301
21
-10.138539
31
0
39
0
210
0
220
0
230
1
0
LINE
5
A8
100
AcDbEntity
8
1
62
256
6
ByLayer
370
13
48
1
60
0
100
AcDbLine
10
1.254048
20
-2.543991
30
0
11
0.333713
21
-7.763472
31
0
39
0
210
0
220
0
230
1
0
LINE
5
A9
100
AcDbEntity
8
1
62
256
6
ByLayer
370
13
48
1
60
0
100
AcDbLine
10
2.438865
20
-12.754858
30
0
11
3.856825
21
-13.004883
31
0
39
0
210
0
220
0
230
1
0
LINE
5
AA
100
AcDbEntity
8
1
62
256
6
ByLayer
370
13
48
1
60
0
100
AcDbLine
10
24.545485
20
-7.351795
30
0
11
24.418849
21
-7.147129
31
0
39
0
210
0
220
0
230
1
0
LINE
5
AB
100
AcDbEntity
8
1
62
256
6
ByLayer
370
13
48
1
60
0
100
AcDbLine
10
23.675871
20
-11.360765
30
0
11
23.86487
21
-11.211754
31
0
39
0
210
0
220
0
230
1
0
LINE
5
AC
100
AcDbEntity
8
1
62
256
6
ByLayer
370
13
48
1
60
0
100
AcDbLine
10
0.195137
20
-7.586723
30
0
11
-0.104908
21
-7.533817
31
0
39
0
210
0
220
0
230
1
0
LINE
5
AD
100
AcDbEntity
8
1
62
256
6
ByLayer
370
13
48
1
60
0
100
AcDbLine
10
6.361322
20
1.173491
30
0
11
6.357359
21
1.176349
31
0
39
0
210
0
220
0
230
1
0
LINE
5
AE
100
AcDbEntity
8
1
62
256
6
ByLayer
370
13
48
1
60
0
100
AcDbLine
10
0.763333
20
-2.609778
30
0
11
-0.104908
21
-7.533817
31
0
39
0
210
0
220
0
230
1
0
LINE
5
AF
100
AcDbEntity
8
1
62
256
6
ByLayer
370
13
48
1
60
0
100
AcDbLine
10
11.519899
20
-0.873716
30
0
11
4.002705
21
0.451768
31
0
39
0
210
0
220
0
230
1
0
LINE
5
B0
100
AcDbEntity
8
1
62
256
6
ByLayer
370
13
48
1
60
0
100
AcDbLine
10
6.361322
20
1.173491
30
0
11
11.714442
21
0.229591
31
0
39
0
210
0
220
0
230
1
0
LINE
5
B1
100
AcDbEntity
8
1
62
256
6
ByLayer
370
13
48
1
60
0
100
AcDbLine
10
8.321558
20
-2.267043
30
0
11
10.344432
21
-2.623731
31
0
39
0
210
0
220
0
230
1
0
LINE
5
B2
100
AcDbEntity
8
1
62
256
6
ByLayer
370
13
48
1
60
0
100
AcDbLine
10
1.063378
20
-2.662684
30
0
11
0.763333
21
-2.609778
31
0
39
0
210
0
220
0
230
1
0
LINE
5
B3
100
AcDbEntity
8
1
62
256
6
ByLayer
370
13
48
1
60
0
100
AcDbLine
10
22.73372
20
-11.926867
30
0
11
23.675871
21
-11.360765
31
0
39
0
210
0
220
0
230
1
0
LINE
5
B4
100
AcDbEntity
8
1
62
256
6
ByLayer
370
13
48
1
60
0
100
AcDbLine
10
1.254048
20
-2.543991
30
0
11
0.917998
21
-2.484736
31
0
39
0
210
0
220
0
230
1
0
LINE
5
B5
100
AcDbEntity
8
1
62
256
6
ByLayer
370
13
48
1
60
0
100
AcDbLine
10
1.791304
20
-1.064812
30
0
11
0.33266
21
-9.337197
31
0
39
0
210
0
220
0
230
1
0
LINE
5
B6
100
AcDbEntity
8
1
62
256
6
ByLayer
370
13
48
1
60
0
100
AcDbLine
10
0.195137
20
-7.586723
30
0
11
0.333713
21
-7.763472
31
0
39
0
210
0
220
0
230
1
0
LINE
5
B7
100
AcDbEntity
8
1
62
256
6
ByLayer
370
13
48
1
60
0
100
AcDbLine
10
0.33266
20
-9.337197
30
0
11
-0.463521
21
-9.196809
31
0
39
0
210
0
220
0
230
1
0
LINE
5
B8
100
AcDbEntity
8
1
62
256
6
ByLayer
370
13
48
1
60
0
100
AcDbLine
10
8.903153
20
-10.797635
30
0
11
6.880278
21
-10.440948
31
0
39
0
210
0
220
0
230
1
0
LINE
5
B9
100
AcDbEntity
8
1
62
256
6
ByLayer
370
13
48
1
60
0
100
AcDbLine
10
4.939399
20
1.426374
30
0
11
4.675183
21
1.472962
31
0
39
0
210
0
220
0
230
1
0
LINE
5
BA
100
AcDbEntity
8
1
62
256
6
ByLayer
370
13
48
1
60
0
100
AcDbLine
10
6.357359
20
1.176349
30
0
11
4.939399
21
1.426374
31
0
39
0
210
0
220
0
230
1
0
LINE
5
BB
100
AcDbEntity
8
1
62
256
6
ByLayer
370
13
48
1
60
0
100
AcDbLine
10
-0.463521
20
-9.196809
30
0
11
0.995124
21
-0.924424
31
0
39
0
210
0
220
0
230
1
0
LINE
5
BC
100
AcDbEntity
8
1
62
256
6
ByLayer
370
13
48
1
60
0
100
AcDbLine
10
1.063378
20
-2.662684
30
0
11
1.254048
21
-2.543991
31
0
39
0
210
0
220
0
230
1
0
LINE
5
BD
100
AcDbEntity
8
1
62
256
6
ByLayer
370
13
48
1
60
0
100
AcDbLine
10
1.791304
20
-1.064812
30
0
11
0.995124
21
-0.924424
31
0
39
0
210
0
220
0
230
1
0
LINE
5
BE
100
AcDbEntity
8
1
62
256
6
ByLayer
370
13
48
1
60
0
100
AcDbLine
10
1.057629
20
-7.840346
30
0
11
2.765467
21
-8.141484
31
0
39
0
210
0
220
0
230
1
0
LINE
5
BF
100
AcDbEntity
8
1
62
256
6
ByLayer
370
13
48
1
60
0
100
AcDbLine
10
1.063378
20
-2.662684
30
0
11
0.195137
21
-7.586723
31
0
39
0
210
0
220
0
230
1
0
LINE
5
C0
100
AcDbEntity
8
1
62
256
6
ByLayer
370
13
48
1
60
0
100
AcDbLine
10
9.40919
20
-12.844144
30
0
11
1.891996
21
-11.51866
31
0
39
0
210
0
220
0
230
1
0
LINE
5
C1
100
AcDbEntity
8
1
62
256
6
ByLayer
370
13
48
1
60
0
100
AcDbLine
10
0.763333
20
-2.609778
30
0
11
0.917998
21
-2.484736
31
0
39
0
210
0
220
0
230
1
0
LINE
5
C2
100
AcDbEntity
8
1
62
256
6
ByLayer
370
13
48
1
60
0
100
AcDbLine
10
1.9606
20
-2.719346
30
0
11
3.668438
21
-3.020484
31
0
39
0
210
0
220
0
230
1
0
LINE
5
C3
100
AcDbEntity
8
1
62
256
6
ByLayer
370
13
48
1
60
0
100
AcDbLine
10
23.727134
20
-6.292933
30
0
11
24.418849
21
-7.147129
31
0
39
0
210
0
220
0
230
1
0
LINE
5
C4
100
AcDbEntity
8
1
62
256
6
ByLayer
370
13
48
1
60
0
100
AcDbLine
10
24.731363
20
-7.533052
30
0
11
24.878286
21
-7.714487
31
0
39
0
210
0
220
0
230
1
0
LINE
5
C5
100
AcDbEntity
8
1
62
256
6
ByLayer
370
13
48
1
60
0
100
AcDbLine
10
1.9606
20
-2.719346
30
0
11
1.057629
21
-7.840346
31
0
39
0
210
0
220
0
230
1
0
LINE
5
C6
100
AcDbEntity
8
1
62
256
6
ByLayer
370
13
48
1
60
0
100
AcDbLine
10
3.861527
20
-13.003552
30
0
11
9.214647
21
-13.947452
31
0
39
0
210
0
220
0
230
1
0
LINE
5
C7
100
AcDbEntity
8
1
62
256
6
ByLayer
370
13
48
1
60
0
100
AcDbLine
10
2.438865
20
-12.754858
30
0
11
2.17465
21
-12.70827
31
0
39
0
210
0
220
0
230
1
0
LINE
5
C8
100
AcDbEntity
8
1
62
256
6
ByLayer
370
13
48
1
60
0
100
AcDbLine
10
3.861527
20
-13.003552
30
0
11
3.856825
21
-13.004883
31
0
39
0
210
0
220
0
230
1
0
LINE
5
C9
100
AcDbEntity
8
1
62
256
6
ByLayer
370
13
48
1
60
0
100
AcDbLine
10
0.333713
20
-7.763472
30
0
11
-0.002337
21
-7.704217
31
0
39
0
210
0
220
0
230
1
0
LINE
5
CA
100
AcDbEntity
8
1
62
256
6
ByLayer
370
13
48
1
60
0
100
AcDbLine
10
-0.104908
20
-7.533817
30
0
11
-0.002337
21
-7.704217
31
0
39
0
210
0
220
0
230
1
0
LINE
5
CB
100
AcDbEntity
8
1
62
256
6
ByLayer
370
13
48
1
60
0
100
AcDbLine
10
24.101532
20
-11.105002
30
0
11
24.301649
21
-10.98476
31
0
39
0
210
0
220
0
230
1
0
LINE
5
CC
100
AcDbEntity
8
1
62
256
6
ByLayer
370
13
48
1
60
0
100
AcDbLine
10
25.335142
20
-9.481018
30
0
11
22.288036
21
-8.943731
31
0
39
0
210
0
220
0
230
1
0
MTEXT
5
154
100
AcDbEntity
8
SK6
62
256
6
ByLayer
370
13
48
1
60
0
100
AcDbMText
10
-68.449979
20
20.867166
30
0
210
0
220
0
230
1
1
\W0.7293;QS-CP-25BL-2020-11B
40
3.5
41
0
44
1.084337
50
0
71
7
72
5
7
iso_b_vert
0
DIMENSION
5
166
100
AcDbEntity
8
SK2
62
256
6
ByLayer
370
13
48
1
60
0
100
AcDbDimension
2
DimnDraft3D1
10
-78.10005
20
9.9625
30
0
11
-78.10005
21
0
31
0
70
32
71
5
72
1
41
1
210
0
220
0
230
1
3
Standard
100
AcDbAlignedDimension
13
-70.5875
23
-9.9625
33
0
14
-70.5875
24
9.9625
34
0
50
90
100
AcDbRotatedDimension
1001
ACAD
1000
DSTYLE
1002
{
1070
    74
1070
     0
1070
   279
1070
     0
1070
   172
1070
     1
1070
   173
1070
     1
1070
   340
1005
155
1070
   271
1070
     1
1070
   272
1070
     2
1070
    77
1070
     1
1070
    73
1070
     0
1070
   171
1070
     3
1070
   274
1070
     4
1070
   177
1070
   150
1070
   176
1070
     9
1070
   178
1070
    43
1070
    78
1070
     8
1070
    48
1040
-0.005
1070
    41
1041
3.175
1070
   147
1041
2.25
1070
    42
1041
1.5875
1070
    44
1041
3.175
1070
   140
1041
4.5
1070
   343
1005
167
1070
   344
1005
167
1002
}
0
DIMENSION
5
17B
100
AcDbEntity
8
SK2
62
256
6
ByLayer
370
13
48
1
60
0
100
AcDbDimension
2
DimnDraft3D2
10
32
20
-47.5375
30
0
11
-18.5
21
-47.5375
31
0
70
32
71
5
72
1
41
1
210
0
220
0
230
1
3
Standard
100
AcDbAlignedDimension
13
-69
23
-11.55
33
0
14
32
24
-19.625
34
0
50
0
100
AcDbRotatedDimension
1001
ACAD
1000
DSTYLE
1002
{
1070
   279
1070
     0
1070
   172
1070
     1
1070
   173
1070
     1
1070
   340
1005
155
1070
   271
1070
     1
1070
   272
1070
     2
1070
    77
1070
     1
1070
    73
1070
     0
1070
   171
1070
     3
1070
   274
1070
     4
1070
   177
1070
   150
1070
   176
1070
     9
1070
   178
1070
    43
1070
    78
1070
     8
1070
    48
1040
-0.005
1070
    41
1041
3.175
1070
   147
1041
2.25
1070
    42
1041
1.5875
1070
    44
1041
3.175
1070
   140
1041
4.5
1070
   343
1005
167
1070
   344
1005
167
1002
}
0
DIMENSION
5
18A
100
AcDbEntity
8
2
62
256
6
ByLayer
370
13
48
1
60
0
100
AcDbDimension
2
DimnDraft3D3
10
0
20
21.81255
30
0
11
16
21
21.81255
31
0
70
32
71
5
72
1
41
1
210
0
220
0
230
1
3
Standard
100
AcDbAlignedDimension
13
32
23
-16.45
33
0
14
0
24
11.55
34
0
50
0
100
AcDbRotatedDimension
1001
ACAD
1000
DSTYLE
1002
{
1070
   279
1070
     0
1070
   172
1070
     1
1070
   173
1070
     1
1070
   340
1005
155
1070
   271
1070
     1
1070
   272
1070
     2
1070
    77
1070
     1
1070
    73
1070
     0
1070
   171
1070
     3
1070
   274
1070
     4
1070
   177
1070
   150
1070
   176
1070
     9
1070
   178
1070
    43
1070
    78
1070
     8
1070
    48
1040
-0.005
1070
    41
1041
3.175
1070
   147
1041
2.25
1070
    42
1041
1.5875
1070
    44
1041
3.175
1070
   140
1041
4.5
1070
   343
1005
167
1070
   344
1005
167
1002
}
0
DIMENSION
5
198
100
AcDbEntity
8
2
62
256
6
ByLayer
370
13
48
1
60
0
100
AcDbDimension
2
DimnDraft3D4
10
31.07981
20
-15.08679
30
0
11
24.985053
21
14.582237
31
0
70
34
71
5
72
1
41
1
210
0
220
0
230
1
3
Standard
100
AcDb2LineAngularDimension
13
32
23
-18.0375
33
0
14
32
24
-16.4375
34
0
15
31.925046
25
-16.899405
35
0
16
25.959031
26
10.188905
36
0
40
0
0
DIMENSION
5
1A6
100
AcDbEntity
8
2
62
256
6
ByLayer
370
13
48
1
60
0
100
AcDbDimension
2
DimnDraft3D5
10
52.85
20
9.9625
30
0
11
52.85
21
-4.0375
31
0
70
32
71
5
72
1
41
1
210
0
220
0
230
1
3
Standard
100
AcDbAlignedDimension
13
33.5875
23
-18.0375
33
0
14
1.5875
24
9.9625
34
0
50
90
100
AcDbRotatedDimension
1001
ACAD
1000
DSTYLE
1002
{
1070
    74
1070
     0
1070
   279
1070
     0
1070
   172
1070
     1
1070
   173
1070
     1
1070
   340
1005
155
1070
   271
1070
     1
1070
   272
1070
     2
1070
    77
1070
     1
1070
    73
1070
     0
1070
   171
1070
     3
1070
   274
1070
     4
1070
   177
1070
   150
1070
   176
1070
     9
1070
   178
1070
    43
1070
    78
1070
     8
1070
    48
1040
-0.005
1070
    41
1041
3.175
1070
   147
1041
2.25
1070
    42
1041
1.5875
1070
    44
1041
3.175
1070
   140
1041
4.5
1070
   343
1005
167
1070
   344
1005
167
1002
}
0
ENDSEC
0
SECTION
2
OBJECTS
0
DICTIONARY
5
210
330
0
100
AcDbDictionary
280
0
281
1
3
ACAD_GROUP
350
211
3
ACAD_MLINESTYLE
350
212
0
DICTIONARY
5
211
330
0
100
AcDbDictionary
280
0
281
1
0
DICTIONARY
5
212
330
0
100
AcDbDictionary
280
0
281
1
3
Standard
350
18
0
MLINESTYLE
5
18
330
212
100
AcDbMlineStyle
2
Standard
70
0
3

62
256
51
90
52
90
71
2
49
-0.5
62
256
6
ByLayer
49
0.5
62
256
6
ByLayer
0
RASTERVARIABLES
5
1ff
330

100
AcDbRasterVariables
90
0
70
1
71
1
72
1
0
ENDSEC
0
EOF
