0
SECTION
2
HEADER
9
$ACADVER
1
AC1015
9
$DWGCODEPAGE
3
ANSI_1252
9
$HANDSEED
5
1d4
9
$ANGBASE
50
0
9
$ANGDIR
70
0
9
$ATTMODE
70
1
9
$AUNITS
70
0
9
$AUPREC
70
0
9
$CECOLOR
62
256
9
$CELTSCALE
40
1
9
$CELTYPE
6
ByLayer
9
$CELWEIGHT
370
18
9
$CLAYER
8
0
9
$CMLJUST
70
0
9
$CMLSCALE
40
1
9
$CMLSTYLE
2
Standard
9
$DIMSTYLE
2
Standard
9
$TEXTSIZE
40
0.2
9
$TEXTSTYLE
7
Standard
9
$LUNITS
70
2
9
$LUPREC
70
4
9
$EXTNAMES
290
1
9
$INSUNITS
70
4
9
$LTSCALE
40
1
9
$LWDISPLAY
290
1
9
$PDMODE
70
0
9
$PDSIZE
40
0
9
$PLINEGEN
70
0
0
ENDSEC
0
SECTION
2
CLASSES
0
CLASS
1
RASTERVARIABLES
2
AcDbRasterVariables
3
ISM
90
0
280
0
281
0
0
ENDSEC
0
SECTION
2
TABLES
0
TABLE
2
VPORT
5
1ca
100
AcDbSymbolTable
0
VPORT
5
1
100
AcDbSymbolTableRecord
100
AcDbViewportTableRecord
2
*Active
70
0
10
0
20
0
11
1
21
1
12
-1
22
1
13
0
23
0
14
0.5
24
0.5
15
10
25
10
16
0
26
0
36
1
17
0
27
0
37
0
0
ENDTAB
0
TABLE
2
LTYPE
5
1cb
100
AcDbSymbolTable
0
LTYPE
5
14
100
AcDbSymbolTableRecord
100
AcDbLinetypeTableRecord
70
0
2
ByBlock
3

72
65
73
0
40
0
0
LTYPE
5
15
100
AcDbSymbolTableRecord
100
AcDbLinetypeTableRecord
70
0
2
ByLayer
3

72
65
73
0
40
0
0
LTYPE
5
16
100
AcDbSymbolTableRecord
100
AcDbLinetypeTableRecord
70
0
2
CONTINUOUS
3
Solid line
72
65
73
0
40
0
0
LTYPE
5
6A
100
AcDbSymbolTableRecord
100
AcDbLinetypeTableRecord
70
0
2
CENTER
3
____ _ ____ _ ____ _ ____
72
65
73
4
40
47.5
49
22
74
0
49
-8.5
74
0
49
8.5
74
0
49
-8.5
74
0
0
LTYPE
5
6B
100
AcDbSymbolTableRecord
100
AcDbLinetypeTableRecord
70
0
2
DASHED
3
__ __ __ __ __ __ __ __ __
72
65
73
2
40
25.72
49
12.86
74
0
49
-12.86
74
0
0
ENDTAB
0
TABLE
2
LAYER
5
1cc
100
AcDbSymbolTable
0
LAYER
5
10
100
AcDbSymbolTableRecord
100
AcDbLayerTableRecord
2
0
70
0
62
7
6
CONTINUOUS
290
1
370
-3
390
0
0
LAYER
5
6D
100
AcDbSymbolTableRecord
100
AcDbLayerTableRecord
2
80
70
0
62
-6
6
CONTINUOUS
290
1
370
-3
390
0
0
LAYER
5
6F
100
AcDbSymbolTableRecord
100
AcDbLayerTableRecord
2
81
70
0
62
-3
6
CONTINUOUS
290
1
370
-3
390
0
0
LAYER
5
73
100
AcDbSymbolTableRecord
100
AcDbLayerTableRecord
2
1
70
0
62
4
6
CONTINUOUS
290
1
370
-3
390
0
0
LAYER
5
B2
100
AcDbSymbolTableRecord
100
AcDbLayerTableRecord
2
2
70
0
62
7
6
CONTINUOUS
290
1
370
-3
390
0
0
LAYER
5
1b7
100
AcDbSymbolTableRecord
100
AcDbLayerTableRecord
2
SK1
70
0
62
4
6
CONTINUOUS
290
1
370
-3
390
0
0
LAYER
5
1b8
100
AcDbSymbolTableRecord
100
AcDbLayerTableRecord
2
SK6
70
0
62
5
6
CONTINUOUS
290
1
370
-3
390
0
0
LAYER
5
1b9
100
AcDbSymbolTableRecord
100
AcDbLayerTableRecord
2
SK2
70
0
62
7
6
CONTINUOUS
290
1
370
-3
390
0
0
ENDTAB
0
TABLE
2
STYLE
5
1cd
100
AcDbSymbolTable
0
STYLE
5
11
100
AcDbSymbolTableRecord
100
AcDbTextStyleTableRecord
2
Standard
3
txt
70
0
71
0
40
0
41
1
42
0
50
0
0
STYLE
5
10C
100
AcDbSymbolTableRecord
100
AcDbTextStyleTableRecord
2
iso_b_vert
3
simplex.shx
70
0
71
0
40
0
41
1
42
0
50
0
0
STYLE
5
10D
100
AcDbSymbolTableRecord
100
AcDbTextStyleTableRecord
2
DWGDirectTextStyle
3
simplex
70
0
71
0
40
0
41
1
42
0
50
0
0
ENDTAB
0
TABLE
2
DIMSTYLE
5
1ce
100
AcDbSymbolTable
100
AcDbDimStyleTable
0
DIMSTYLE
105
27
100
AcDbSymbolTableRecord
100
AcDbDimStyleTableRecord
2
Standard
70
0
3
<>
41
0.18
42
0.0625
44
0.18
140
0.18
147
0.09
73
0
74
0
77
1
271
2
275
0
278
52
280
0
340
11
0
ENDTAB
0
TABLE
2
VIEW
5
1cf
100
AcDbSymbolTable
0
ENDTAB
0
TABLE
2
UCS
5
1d0
100
AcDbSymbolTable
0
ENDTAB
0
TABLE
2
APPID
5
1d1
100
AcDbSymbolTable
0
APPID
5
12
100
AcDbSymbolTableRecord
100
AcDbRegAppTableRecord
2
ACAD
70
0
0
ENDTAB
0
TABLE
2
BLOCK_RECORD
5
1d2
100
AcDbSymbolTable
0
BLOCK_RECORD
5
1F
100
AcDbSymbolTableRecord
100
AcDbBlockTableRecord
2
*Model_Space
340
0
70
0
0
BLOCK_RECORD
5
1B
100
AcDbSymbolTableRecord
100
AcDbBlockTableRecord
2
*Paper_Space
340
0
70
0
0
BLOCK_RECORD
5
23
100
AcDbSymbolTableRecord
100
AcDbBlockTableRecord
2
*Paper_Space0
340
0
70
0
0
BLOCK_RECORD
5
10F
100
AcDbSymbolTableRecord
100
AcDbBlockTableRecord
2
DimnDraft3D1
340
0
70
0
0
BLOCK_RECORD
5
11E
100
AcDbSymbolTableRecord
100
AcDbBlockTableRecord
2
_CLOSED
340
0
70
0
0
BLOCK_RECORD
5
125
100
AcDbSymbolTableRecord
100
AcDbBlockTableRecord
2
DimnDraft3D2
340
0
70
0
0
BLOCK_RECORD
5
133
100
AcDbSymbolTableRecord
100
AcDbBlockTableRecord
2
DimnDraft3D3
340
0
70
0
0
BLOCK_RECORD
5
141
100
AcDbSymbolTableRecord
100
AcDbBlockTableRecord
2
DimnDraft3D4
340
0
70
0
0
BLOCK_RECORD
5
14F
100
AcDbSymbolTableRecord
100
AcDbBlockTableRecord
2
DimnDraft3D5
340
0
70
0
0
ENDTAB
0
ENDSEC
0
SECTION
2
BLOCKS
0
BLOCK
5
20
100
AcDbEntity
8
0
100
AcDbBlockBegin
2
*Model_Space
70
0
10
0
20
0
30
0
3
*Model_Space
0
ENDBLK
5
21
100
AcDbEntity
8
0
100
AcDbBlockEnd
0
BLOCK
5
1C
100
AcDbEntity
8
0
100
AcDbBlockBegin
2
*Paper_Space
70
0
10
0
20
0
30
0
3
*Paper_Space
0
ENDBLK
5
1D
100
AcDbEntity
8
0
100
AcDbBlockEnd
0
BLOCK
5
24
100
AcDbEntity
8
0
100
AcDbBlockBegin
2
*Paper_Space0
70
0
10
0
20
0
30
0
3
*Paper_Space0
0
ENDBLK
5
25
100
AcDbEntity
8
0
100
AcDbBlockEnd
0
BLOCK
5
11B
100
AcDbEntity
8
0
100
AcDbBlockBegin
2
DimnDraft3D1
70
0
10
0
20
0
30
0
3
DimnDraft3D1
0
MTEXT
5
110
100
AcDbEntity
8
SK2
62
256
6
ByLayer
370
13
48
1
60
0
100
AcDbMText
10
-23.213158
20
36.6625
30
0
210
0
220
0
230
1
1
\W0.6261;101.0
40
4.5
41
0
44
1.084337
50
0
71
7
72
5
7
iso_b_vert
0
LINE
5
112
100
AcDbEntity
8
SK2
62
256
6
ByLayer
370
13
48
1
60
0
100
AcDbLine
10
32
20
16.625
30
0
11
32
21
38.7125
31
0
39
0
210
0
220
0
230
1
0
LINE
5
113
100
AcDbEntity
8
SK2
62
256
6
ByLayer
370
13
48
1
60
0
100
AcDbLine
10
-69
20
11.55
30
0
11
-69
21
38.7125
31
0
39
0
210
0
220
0
230
1
0
LINE
5
114
100
AcDbEntity
8
SK2
62
256
6
ByLayer
370
13
48
1
60
0
100
AcDbLine
10
32
20
35.5375
30
0
11
-69
21
35.5375
31
0
39
0
210
0
220
0
230
1
0
LINE
5
115
100
AcDbEntity
8
SK2
62
256
6
ByLayer
370
13
48
1
60
0
100
AcDbLine
10
32
20
35.5375
30
0
11
28.825003
21
34.686761
31
0
39
0
210
0
220
0
230
1
0
LINE
5
116
100
AcDbEntity
8
SK2
62
256
6
ByLayer
370
13
48
1
60
0
100
AcDbLine
10
32
20
35.5375
30
0
11
28.824997
21
36.388239
31
0
39
0
210
0
220
0
230
1
0
LINE
5
117
100
AcDbEntity
8
SK2
62
256
6
ByLayer
370
13
48
1
60
0
100
AcDbLine
10
28.825003
20
34.686761
30
0
11
28.824997
21
36.388239
31
0
39
0
210
0
220
0
230
1
0
LINE
5
118
100
AcDbEntity
8
SK2
62
256
6
ByLayer
370
13
48
1
60
0
100
AcDbLine
10
-69
20
35.5375
30
0
11
-65.825003
21
36.388239
31
0
39
0
210
0
220
0
230
1
0
LINE
5
119
100
AcDbEntity
8
SK2
62
256
6
ByLayer
370
13
48
1
60
0
100
AcDbLine
10
-69
20
35.5375
30
0
11
-65.824997
21
34.686761
31
0
39
0
210
0
220
0
230
1
0
LINE
5
11A
100
AcDbEntity
8
SK2
62
256
6
ByLayer
370
13
48
1
60
0
100
AcDbLine
10
-65.825003
20
36.388239
30
0
11
-65.824997
21
34.686761
31
0
39
0
210
0
220
0
230
1
0
ENDBLK
5
11C
100
AcDbEntity
8
0
100
AcDbBlockEnd
0
BLOCK
5
11F
100
AcDbEntity
8
0
100
AcDbBlockBegin
2
_CLOSED
70
0
10
0
20
0
30
0
3
_CLOSED
0
LINE
5
121
100
AcDbEntity
8
0
62
256
6
ByLayer
370
-2
48
1
60
0
100
AcDbLine
10
-1
20
0.166667
30
0
11
0
21
0
31
0
39
0
210
0
220
0
230
1
0
LINE
5
122
100
AcDbEntity
8
0
62
256
6
ByLayer
370
-2
48
1
60
0
100
AcDbLine
10
0
20
0
30
0
11
-1
21
-0.166667
31
0
39
0
210
0
220
0
230
1
0
LINE
5
123
100
AcDbEntity
8
0
62
256
6
ByLayer
370
-2
48
1
60
0
100
AcDbLine
10
-1
20
0.166667
30
0
11
-1
21
-0.166667
31
0
39
0
210
0
220
0
230
1
0
LINE
5
124
100
AcDbEntity
8
0
62
256
6
ByLayer
370
-2
48
1
60
0
100
AcDbLine
10
0
20
0
30
0
11
-1
21
0
31
0
39
0
210
0
220
0
230
1
0
ENDBLK
5
120
100
AcDbEntity
8
0
100
AcDbBlockEnd
0
BLOCK
5
130
100
AcDbEntity
8
0
100
AcDbBlockBegin
2
DimnDraft3D2
70
0
10
0
20
0
30
0
3
DimnDraft3D2
0
MTEXT
5
126
100
AcDbEntity
8
2
62
256
6
ByLayer
370
13
48
1
60
0
100
AcDbMText
10
11.843421
20
-24.68755
30
0
210
0
220
0
230
1
1
\W0.7346;32.0
40
4.5
41
0
44
1.084337
50
0
71
7
72
5
7
iso_b_vert
0
LINE
5
127
100
AcDbEntity
8
2
62
256
6
ByLayer
370
13
48
1
60
0
100
AcDbLine
10
0
20
-11.55
30
0
11
0
21
-28.98755
31
0
39
0
210
0
220
0
230
1
0
LINE
5
128
100
AcDbEntity
8
2
62
256
6
ByLayer
370
13
48
1
60
0
100
AcDbLine
10
32
20
13.45
30
0
11
32
21
-28.98755
31
0
39
0
210
0
220
0
230
1
0
LINE
5
129
100
AcDbEntity
8
2
62
256
6
ByLayer
370
13
48
1
60
0
100
AcDbLine
10
0
20
-25.81255
30
0
11
32
21
-25.81255
31
0
39
0
210
0
220
0
230
1
0
LINE
5
12A
100
AcDbEntity
8
2
62
256
6
ByLayer
370
13
48
1
60
0
100
AcDbLine
10
0
20
-25.81255
30
0
11
3.174997
21
-24.961811
31
0
39
0
210
0
220
0
230
1
0
LINE
5
12B
100
AcDbEntity
8
2
62
256
6
ByLayer
370
13
48
1
60
0
100
AcDbLine
10
0
20
-25.81255
30
0
11
3.175003
21
-26.663289
31
0
39
0
210
0
220
0
230
1
0
LINE
5
12C
100
AcDbEntity
8
2
62
256
6
ByLayer
370
13
48
1
60
0
100
AcDbLine
10
3.174997
20
-24.961811
30
0
11
3.175003
21
-26.663289
31
0
39
0
210
0
220
0
230
1
0
LINE
5
12D
100
AcDbEntity
8
2
62
256
6
ByLayer
370
13
48
1
60
0
100
AcDbLine
10
32
20
-25.81255
30
0
11
28.825003
21
-26.663289
31
0
39
0
210
0
220
0
230
1
0
LINE
5
12E
100
AcDbEntity
8
2
62
256
6
ByLayer
370
13
48
1
60
0
100
AcDbLine
10
32
20
-25.81255
30
0
11
28.824997
21
-24.961811
31
0
39
0
210
0
220
0
230
1
0
LINE
5
12F
100
AcDbEntity
8
2
62
256
6
ByLayer
370
13
48
1
60
0
100
AcDbLine
10
28.825003
20
-26.663289
30
0
11
28.824997
21
-24.961811
31
0
39
0
210
0
220
0
230
1
0
ENDBLK
5
131
100
AcDbEntity
8
0
100
AcDbBlockEnd
0
BLOCK
5
13E
100
AcDbEntity
8
0
100
AcDbBlockBegin
2
DimnDraft3D3
70
0
10
0
20
0
30
0
3
DimnDraft3D3
0
MTEXT
5
134
100
AcDbEntity
8
SK2
62
256
6
ByLayer
370
13
48
1
60
0
100
AcDbMText
10
-79.22505
20
-4.156579
30
0
210
0
220
0
230
1
1
\W0.7346;20.0
40
4.5
41
0
44
1.084337
50
90
71
7
72
5
7
iso_b_vert
0
LINE
5
135
100
AcDbEntity
8
SK2
62
256
6
ByLayer
370
13
48
1
60
0
100
AcDbLine
10
-70.5875
20
9.9625
30
0
11
-81.27505
21
9.9625
31
0
39
0
210
0
220
0
230
1
0
LINE
5
136
100
AcDbEntity
8
SK2
62
256
6
ByLayer
370
13
48
1
60
0
100
AcDbLine
10
-70.5875
20
-9.9625
30
0
11
-81.27505
21
-9.9625
31
0
39
0
210
0
220
0
230
1
0
LINE
5
137
100
AcDbEntity
8
SK2
62
256
6
ByLayer
370
13
48
1
60
0
100
AcDbLine
10
-78.10005
20
9.9625
30
0
11
-78.10005
21
-9.9625
31
0
39
0
210
0
220
0
230
1
0
LINE
5
138
100
AcDbEntity
8
SK2
62
256
6
ByLayer
370
13
48
1
60
0
100
AcDbLine
10
-78.10005
20
9.9625
30
0
11
-77.249311
21
6.787503
31
0
39
0
210
0
220
0
230
1
0
LINE
5
139
100
AcDbEntity
8
SK2
62
256
6
ByLayer
370
13
48
1
60
0
100
AcDbLine
10
-78.10005
20
9.9625
30
0
11
-78.950789
21
6.787497
31
0
39
0
210
0
220
0
230
1
0
LINE
5
13A
100
AcDbEntity
8
SK2
62
256
6
ByLayer
370
13
48
1
60
0
100
AcDbLine
10
-77.249311
20
6.787503
30
0
11
-78.950789
21
6.787497
31
0
39
0
210
0
220
0
230
1
0
LINE
5
13B
100
AcDbEntity
8
SK2
62
256
6
ByLayer
370
13
48
1
60
0
100
AcDbLine
10
-78.10005
20
-9.9625
30
0
11
-78.950789
21
-6.787503
31
0
39
0
210
0
220
0
230
1
0
LINE
5
13C
100
AcDbEntity
8
SK2
62
256
6
ByLayer
370
13
48
1
60
0
100
AcDbLine
10
-78.10005
20
-9.9625
30
0
11
-77.249311
21
-6.787497
31
0
39
0
210
0
220
0
230
1
0
LINE
5
13D
100
AcDbEntity
8
SK2
62
256
6
ByLayer
370
13
48
1
60
0
100
AcDbLine
10
-78.950789
20
-6.787503
30
0
11
-77.249311
21
-6.787497
31
0
39
0
210
0
220
0
230
1
0
ENDBLK
5
13F
100
AcDbEntity
8
0
100
AcDbBlockEnd
0
BLOCK
5
14C
100
AcDbEntity
8
0
100
AcDbBlockBegin
2
DimnDraft3D4
70
0
10
0
20
0
30
0
3
DimnDraft3D4
0
MTEXT
5
142
100
AcDbEntity
8
2
62
256
6
ByLayer
370
13
48
1
60
0
100
AcDbMText
10
51.725
20
-1.619079
30
0
210
0
220
0
230
1
1
\W0.7346;25.0
40
4.5
41
0
44
1.084337
50
90
71
7
72
5
7
iso_b_vert
0
LINE
5
143
100
AcDbEntity
8
2
62
256
6
ByLayer
370
13
48
1
60
0
100
AcDbLine
10
1.5875
20
-9.9625
30
0
11
56.025
21
-9.9625
31
0
39
0
210
0
220
0
230
1
0
LINE
5
144
100
AcDbEntity
8
2
62
256
6
ByLayer
370
13
48
1
60
0
100
AcDbLine
10
33.5875
20
15.0375
30
0
11
56.025
21
15.0375
31
0
39
0
210
0
220
0
230
1
0
LINE
5
145
100
AcDbEntity
8
2
62
256
6
ByLayer
370
13
48
1
60
0
100
AcDbLine
10
52.85
20
-9.9625
30
0
11
52.85
21
15.0375
31
0
39
0
210
0
220
0
230
1
0
LINE
5
146
100
AcDbEntity
8
2
62
256
6
ByLayer
370
13
48
1
60
0
100
AcDbLine
10
52.85
20
-9.9625
30
0
11
51.999261
21
-6.787503
31
0
39
0
210
0
220
0
230
1
0
LINE
5
147
100
AcDbEntity
8
2
62
256
6
ByLayer
370
13
48
1
60
0
100
AcDbLine
10
52.85
20
-9.9625
30
0
11
53.700739
21
-6.787497
31
0
39
0
210
0
220
0
230
1
0
LINE
5
148
100
AcDbEntity
8
2
62
256
6
ByLayer
370
13
48
1
60
0
100
AcDbLine
10
51.999261
20
-6.787503
30
0
11
53.700739
21
-6.787497
31
0
39
0
210
0
220
0
230
1
0
LINE
5
149
100
AcDbEntity
8
2
62
256
6
ByLayer
370
13
48
1
60
0
100
AcDbLine
10
52.85
20
15.0375
30
0
11
53.700739
21
11.862503
31
0
39
0
210
0
220
0
230
1
0
LINE
5
14A
100
AcDbEntity
8
2
62
256
6
ByLayer
370
13
48
1
60
0
100
AcDbLine
10
52.85
20
15.0375
30
0
11
51.999261
21
11.862497
31
0
39
0
210
0
220
0
230
1
0
LINE
5
14B
100
AcDbEntity
8
2
62
256
6
ByLayer
370
13
48
1
60
0
100
AcDbLine
10
53.700739
20
11.862503
30
0
11
51.999261
21
11.862497
31
0
39
0
210
0
220
0
230
1
0
ENDBLK
5
14D
100
AcDbEntity
8
0
100
AcDbBlockEnd
0
BLOCK
5
15B
100
AcDbEntity
8
0
100
AcDbBlockBegin
2
DimnDraft3D5
70
0
10
0
20
0
30
0
3
DimnDraft3D5
0
MTEXT
5
150
100
AcDbEntity
8
2
62
256
6
ByLayer
370
13
48
1
60
0
100
AcDbMText
10
44.566087
20
-16.548089
30
0
210
0
220
0
230
1
1
\W0.7346;30.0
40
4.5
41
0
44
1.084337
50
29.537228401533
71
7
72
5
7
iso_b_vert
0
LINE
5
151
100
AcDbEntity
8
2
62
256
6
ByLayer
370
13
48
1
60
0
100
AcDbLine
10
32
20
12.037795
30
0
11
32
21
-23.065049
31
0
39
0
210
0
220
0
230
1
0
LINE
5
152
100
AcDbEntity
8
2
62
256
6
ByLayer
370
13
48
1
60
0
100
AcDbLine
10
29.30821
20
8.287582
30
0
11
16.310215
21
-19.586707
31
0
39
0
210
0
220
0
230
1
0
ARC
5
153
100
AcDbEntity
8
2
62
256
6
ByLayer
370
13
48
1
60
0
100
AcDbCircle
39
0
10
32
20
14.060144
30
0
40
33.9501932154082
210
0
220
0
230
1
100
AcDbArc
50
270
51
308.379764
0
ARC
5
154
100
AcDbEntity
8
2
62
256
6
ByLayer
370
13
48
1
60
0
100
AcDbCircle
39
0
10
32
20
14.060144
30
0
40
33.9501932154082
210
0
220
0
230
1
100
AcDbArc
50
245
51
270
0
LINE
5
155
100
AcDbEntity
8
2
62
256
6
ByLayer
370
13
48
1
60
0
100
AcDbLine
10
32
20
-19.890049
30
0
11
28.805996
21
-20.666385
31
0
39
0
210
0
220
0
230
1
0
LINE
5
156
100
AcDbEntity
8
2
62
256
6
ByLayer
370
13
48
1
60
0
100
AcDbLine
10
32
20
-19.890049
30
0
11
28.845737
21
-18.965372
31
0
39
0
210
0
220
0
230
1
0
LINE
5
157
100
AcDbEntity
8
2
62
256
6
ByLayer
370
13
48
1
60
0
100
AcDbLine
10
28.805996
20
-20.666385
30
0
11
28.845737
21
-18.965372
31
0
39
0
210
0
220
0
230
1
0
LINE
5
158
100
AcDbEntity
8
2
62
256
6
ByLayer
370
13
48
1
60
0
100
AcDbLine
10
17.652028
20
-16.70918
30
0
11
20.901541
21
-17.204185
31
0
39
0
210
0
220
0
230
1
0
LINE
5
159
100
AcDbEntity
8
2
62
256
6
ByLayer
370
13
48
1
60
0
100
AcDbLine
10
17.652028
20
-16.70918
30
0
11
20.218691
21
-18.762627
31
0
39
0
210
0
220
0
230
1
0
LINE
5
15A
100
AcDbEntity
8
2
62
256
6
ByLayer
370
13
48
1
60
0
100
AcDbLine
10
20.901541
20
-17.204185
30
0
11
20.218691
21
-18.762627
31
0
39
0
210
0
220
0
230
1
0
ENDBLK
5
15C
100
AcDbEntity
8
0
100
AcDbBlockEnd
0
ENDSEC
0
SECTION
2
ENTITIES
0
ARC
5
B4
100
AcDbEntity
8
1
62
256
6
ByLayer
370
18
48
1
60
0
100
AcDbCircle
39
0
10
11.015625
20
2.616234
30
0
40
4.46612987842788
210
0
220
0
230
1
100
AcDbArc
50
39.001981
51
121.676191
0
ARC
5
B5
100
AcDbEntity
8
1
62
256
6
ByLayer
370
18
48
1
60
0
100
AcDbCircle
39
0
10
30.444993
20
-28.871854
30
0
40
41.4661298784279
210
0
220
0
230
1
100
AcDbArc
50
121.676191
51
133.002584
0
ARC
5
B6
100
AcDbEntity
8
1
62
256
6
ByLayer
370
18
48
1
60
0
100
AcDbCircle
39
0
10
9.806501
20
27.558659
30
0
40
39.8722183614811
210
0
220
0
230
-1
100
AcDbArc
50
230.676191
51
242.002584
0
ARC
5
B7
100
AcDbEntity
8
1
62
256
6
ByLayer
370
18
48
1
60
0
100
AcDbCircle
39
0
10
-17.73797
20
-20.669615
30
0
40
41.4661298784279
210
0
220
0
230
1
100
AcDbArc
50
31.998019
51
39.001981
0
ARC
5
B8
100
AcDbEntity
8
1
62
256
6
ByLayer
370
18
48
1
60
0
100
AcDbCircle
39
0
10
13.640487
20
-1.063687
30
0
40
4.46612987842788
210
0
220
0
230
1
100
AcDbArc
50
309.323809
51
31.998019
0
ARC
5
B9
100
AcDbEntity
8
1
62
256
6
ByLayer
370
18
48
1
60
0
100
AcDbCircle
39
0
10
-30.444993
20
-28.871854
30
0
40
39.8722183614811
210
0
220
0
230
-1
100
AcDbArc
50
46.997416
51
58.323809
0
ARC
5
BA
100
AcDbEntity
8
1
62
256
6
ByLayer
370
18
48
1
60
0
100
AcDbCircle
39
0
10
-9.806501
20
27.558659
30
0
40
41.4661298784279
210
0
220
0
230
1
100
AcDbArc
50
298.537262
51
309.323809
0
ARC
5
BB
100
AcDbEntity
8
1
62
256
6
ByLayer
370
18
48
1
60
0
100
AcDbCircle
39
0
10
17.73797
20
-20.669615
30
0
40
39.8722183614811
210
0
220
0
230
-1
100
AcDbArc
50
140.998019
51
148.001981
0
ARC
5
BC
100
AcDbEntity
8
1
62
256
6
ByLayer
370
18
48
1
60
0
100
AcDbCircle
39
0
10
-13.640487
20
-1.063687
30
0
40
2.87221836148108
210
0
220
0
230
-1
100
AcDbArc
50
148.001981
51
230.676191
0
ARC
5
BD
100
AcDbEntity
8
1
62
256
6
ByLayer
370
18
48
1
60
0
100
AcDbCircle
39
0
10
-6.603343
20
-3.307125
30
0
40
4.91539310743891
210
0
220
0
230
-1
100
AcDbArc
50
242.002584
51
46.997416
0
ARC
5
BE
100
AcDbEntity
8
1
62
256
6
ByLayer
370
18
48
1
60
0
100
AcDbCircle
39
0
10
-11.015625
20
2.616234
30
0
40
2.87221836148108
210
0
220
0
230
-1
100
AcDbArc
50
58.323809
51
140.998019
0
ARC
5
BF
100
AcDbEntity
8
1
62
256
6
ByLayer
370
18
48
1
60
0
100
AcDbCircle
39
0
10
6.603343
20
-3.307125
30
0
40
6.50930462438571
210
0
220
0
230
1
100
AcDbArc
50
133.002584
51
251.049228
0
ARC
5
C0
100
AcDbEntity
8
SK1
62
256
6
ByLayer
370
18
48
1
60
0
100
AcDbCircle
39
0
10
-1.29241
20
11.4625
30
0
40
1.5
210
0
220
0
230
1
100
AcDbArc
50
297.952887
51
299.983405
0
ARC
5
C1
100
AcDbEntity
8
SK1
62
256
6
ByLayer
370
18
48
1
60
0
100
AcDbCircle
39
0
10
1.29241
20
11.4625
30
0
40
1.50000000000307
210
0
220
0
230
-1
100
AcDbArc
50
242.047113
51
270
0
ARC
5
C2
100
AcDbEntity
8
1
62
256
6
ByLayer
370
13
48
1
60
0
100
AcDbCircle
39
0
10
-24.976091
20
-5.502216
30
0
40
0.8
210
0
220
0
230
-1
100
AcDbArc
50
185
51
330
0
ARC
5
C3
100
AcDbEntity
8
1
62
256
6
ByLayer
370
13
48
1
60
0
100
AcDbCircle
39
0
10
36.357734
20
5.570958
30
0
40
8
210
0
220
0
230
1
100
AcDbArc
50
150
51
162.5
0
ARC
5
C4
100
AcDbEntity
8
1
62
256
6
ByLayer
370
13
48
1
60
0
100
AcDbCircle
39
0
10
-10.99295
20
9.757705
30
0
40
0.8
210
0
220
0
230
-1
100
AcDbArc
50
305
51
90
0
ARC
5
C5
100
AcDbEntity
8
1
62
256
6
ByLayer
370
13
48
1
60
0
100
AcDbCircle
39
0
10
15.919529
20
18.557705
30
0
40
8
210
0
220
0
230
1
100
AcDbArc
50
270
51
282.5
0
ARC
5
C6
100
AcDbEntity
8
1
62
256
6
ByLayer
370
13
48
1
60
0
100
AcDbCircle
39
0
10
34.171984
20
-1.361355
30
0
40
8
210
0
220
0
230
1
100
AcDbArc
50
162.5
51
175
0
ARC
5
C8
100
AcDbEntity
8
1
62
256
6
ByLayer
370
13
48
1
60
0
100
AcDbCircle
39
0
10
23.015963
20
20.130946
30
0
40
8
210
0
220
0
230
1
100
AcDbArc
50
282.5
51
295
0
ARC
5
CA
100
AcDbEntity
8
1
62
256
6
ByLayer
370
13
48
1
60
0
100
AcDbCircle
39
0
10
14.891779
20
-5.635674
30
0
40
8
210
0
220
0
230
1
100
AcDbArc
50
30
51
42.5
0
ARC
5
CB
100
AcDbEntity
8
1
62
256
6
ByLayer
370
13
48
1
60
0
100
AcDbCircle
39
0
10
-31.2
20
14.2375
30
0
40
0.8
210
0
220
0
230
-1
100
AcDbArc
50
65
51
210
0
ARC
5
CC
100
AcDbEntity
8
1
62
256
6
ByLayer
370
13
48
1
60
0
100
AcDbCircle
39
0
10
9.981094
20
-0.276602
30
0
40
8
210
0
220
0
230
1
100
AcDbArc
50
42.5
51
55
0
ARC
5
CE
100
AcDbEntity
8
1
62
256
6
ByLayer
370
18
48
1
60
0
100
AcDbCircle
39
0
10
22.38968
20
6.16433
30
0
40
1.2903
210
0
220
0
230
1
100
AcDbArc
50
162.5
51
222.5
0
ARC
5
CF
100
AcDbEntity
8
1
62
256
6
ByLayer
370
18
48
1
60
0
100
AcDbCircle
39
0
10
22.38968
20
6.16433
30
0
40
1.2903
210
0
220
0
230
1
100
AcDbArc
50
222.5
51
282.5
0
ARC
5
D0
100
AcDbEntity
8
1
62
256
6
ByLayer
370
18
48
1
60
0
100
AcDbCircle
39
0
10
22.38968
20
6.16433
30
0
40
1.2903
210
0
220
0
230
1
100
AcDbArc
50
342.5
51
42.5
0
ARC
5
D1
100
AcDbEntity
8
1
62
256
6
ByLayer
370
18
48
1
60
0
100
AcDbCircle
39
0
10
-22.38968
20
6.16433
30
0
40
1.6764
210
0
220
0
230
-1
100
AcDbArc
50
287.5
51
347.5
0
ARC
5
D3
100
AcDbEntity
8
1
62
256
6
ByLayer
370
18
48
1
60
0
100
AcDbCircle
39
0
10
22.38968
20
6.16433
30
0
40
1.2903
210
0
220
0
230
1
100
AcDbArc
50
282.5
51
342.5
0
ARC
5
D4
100
AcDbEntity
8
1
62
256
6
ByLayer
370
18
48
1
60
0
100
AcDbCircle
39
0
10
-22.38968
20
6.16433
30
0
40
1.6764
210
0
220
0
230
-1
100
AcDbArc
50
347.5
51
47.5
0
ARC
5
D5
100
AcDbEntity
8
1
62
256
6
ByLayer
370
18
48
1
60
0
100
AcDbCircle
39
0
10
-22.38968
20
6.16433
30
0
40
1.6764
210
0
220
0
230
-1
100
AcDbArc
50
47.5
51
107.5
0
ARC
5
D6
100
AcDbEntity
8
1
62
256
6
ByLayer
370
18
48
1
60
0
100
AcDbCircle
39
0
10
-22.38968
20
6.16433
30
0
40
1.6764
210
0
220
0
230
-1
100
AcDbArc
50
167.5
51
227.5
0
ARC
5
D7
100
AcDbEntity
8
1
62
256
6
ByLayer
370
18
48
1
60
0
100
AcDbCircle
39
0
10
-22.38968
20
6.16433
30
0
40
1.2903
210
0
220
0
230
-1
100
AcDbArc
50
77.5
51
137.5
0
ARC
5
D8
100
AcDbEntity
8
1
62
256
6
ByLayer
370
18
48
1
60
0
100
AcDbCircle
39
0
10
-22.38968
20
6.16433
30
0
40
1.6764
210
0
220
0
230
-1
100
AcDbArc
50
227.5
51
287.5
0
ARC
5
DA
100
AcDbEntity
8
1
62
256
6
ByLayer
370
18
48
1
60
0
100
AcDbCircle
39
0
10
-22.38968
20
6.16433
30
0
40
1.6764
210
0
220
0
230
-1
100
AcDbArc
50
107.5
51
167.5
0
ARC
5
DB
100
AcDbEntity
8
1
62
256
6
ByLayer
370
18
48
1
60
0
100
AcDbCircle
39
0
10
22.38968
20
6.16433
30
0
40
1.2903
210
0
220
0
230
1
100
AcDbArc
50
102.5
51
162.5
0
CIRCLE
5
C7
100
AcDbEntity
8
1
62
256
6
ByLayer
370
13
48
1
60
0
100
AcDbCircle
10
-22.38968
20
6.16433
30
0
40
2.87330486655119
39
0
210
0
220
0
230
-1
0
CIRCLE
5
C9
100
AcDbEntity
8
1
62
256
6
ByLayer
370
13
48
1
60
0
100
AcDbCircle
10
22.38968
20
6.16433
30
0
40
3.06293413074916
39
0
210
0
220
0
230
1
0
CIRCLE
5
CD
100
AcDbEntity
8
1
62
256
6
ByLayer
370
13
48
1
60
0
100
AcDbCircle
10
-22.38968
20
6.16433
30
0
40
3
39
0
210
0
220
0
230
-1
0
CIRCLE
5
D2
100
AcDbEntity
8
1
62
256
6
ByLayer
370
18
48
1
60
0
100
AcDbCircle
10
22.38968
20
6.16433
30
0
40
1.8
39
0
210
0
220
0
230
1
0
CIRCLE
5
D9
100
AcDbEntity
8
1
62
256
6
ByLayer
370
18
48
1
60
0
100
AcDbCircle
10
22.38968
20
6.16433
30
0
40
2.625
39
0
210
0
220
0
230
1
0
ELLIPSE
5
DC
100
AcDbEntity
8
1
62
256
6
ByLayer
370
18
48
1
60
0
100
AcDbEllipse
10
17.487161
20
4.312671
30
0
11
0.580702955710936
21
0.814115518356317
31
0
210
0
220
0
230
1
40
0.082518
41
2.25900058762335
42
2.53699692127969
0
ELLIPSE
5
DD
100
AcDbEntity
8
1
62
256
6
ByLayer
370
18
48
1
60
0
100
AcDbEllipse
10
20.117786
20
1.441848
30
0
11
-0.86162916044152
21
-0.507538362960706
31
0
210
0
220
0
230
1
40
0.082518
41
0.604595897445877
42
0.882592188079058
0
POINT
5
6C
100
AcDbEntity
8
80
62
256
6
ByLayer
370
18
48
1
60
0
100
AcDbPoint
10
0
20
0
30
0
39
0
210
0
220
0
230
1
50
360
0
POINT
5
6E
100
AcDbEntity
8
81
62
256
6
ByLayer
370
18
48
1
60
0
100
AcDbPoint
10
32
20
15.0375
30
0
39
0
210
0
220
0
230
1
50
360
0
SPLINE
5
DE
100
AcDbEntity
8
1
62
256
6
ByLayer
370
18
48
1
60
0
100
AcDbSpline
70
4
71
3
72
12
73
8
40
0
40
0
40
0
40
0
40
0.104253977475843
40
0.104253977475843
40
0.402835984983899
40
0.402835984983899
40
1
40
1
40
1
40
1
41
1
10
19.4630081163131
20
1.21409710005994
30
0
41
1
10
19.4549003293851
20
1.21230187309649
30
0
41
1
10
19.4468157097368
20
1.21096701627098
30
0
41
1
10
19.4159518597962
20
1.20744315617191
30
0
41
1
10
19.3935594054756
20
1.20815926973333
30
0
41
1
10
19.3285899529202
20
1.21826850840716
30
0
41
1
10
19.2902419374014
20
1.23494891341437
30
0
41
1
10
19.2568898615969
20
1.25914330809371
30
0
0
SPLINE
5
DF
100
AcDbEntity
8
1
62
256
6
ByLayer
370
18
48
1
60
0
100
AcDbSpline
70
4
71
3
72
12
73
8
40
0
40
0
40
0
40
0
40
0.597164015022863
40
0.597164015022863
40
0.895746022534306
40
0.895746022534306
40
1
40
1
40
1
40
1
41
1
10
17.2301192387499
20
3.47097531852407
30
0
41
1
10
17.2089237359857
20
3.50630916004954
30
0
41
1
10
17.195649054731
20
3.54596504287943
30
0
41
1
10
17.1912407456557
20
3.61156834525826
30
0
41
1
10
17.1924789881109
20
3.63393800293898
30
0
41
1
10
17.1986794006238
20
3.66437728196738
30
0
41
1
10
17.2007137989461
20
3.6723147967582
30
0
41
1
10
17.2032088347204
20
3.68023526676879
30
0
0
SPLINE
5
E0
100
AcDbEntity
8
1
62
256
6
ByLayer
370
18
48
1
60
0
100
AcDbSpline
70
4
71
3
72
8
73
4
40
0
40
0
40
0
40
0
40
1
40
1
40
1
40
1
41
1
10
19.2568898615969
20
1.25914330809368
30
0
41
1
10
19.2397337927827
20
1.2715887313552
30
0
41
1
10
19.2241469647368
20
1.28544908175695
30
0
41
1
10
19.2101345669972
20
1.30074093053062
30
0
0
SPLINE
5
E1
100
AcDbEntity
8
1
62
256
6
ByLayer
370
18
48
1
60
0
100
AcDbSpline
70
2053
71
3
72
94
73
90
40
0
40
0
40
0
40
0
40
0.0312500000000004
40
0.0312500000000004
40
0.0468750000000006
40
0.0468750000000006
40
0.0625000000000008
40
0.0625000000000008
40
0.093750000000001
40
0.093750000000001
40
0.109375000000001
40
0.109375000000001
40
0.125000000000001
40
0.140625
40
0.140625
40
0.15625
40
0.15625
40
0.1875
40
0.1875
40
0.21875
40
0.21875
40
0.25
40
0.25
40
0.265625
40
0.265625
40
0.281249999999999
40
0.296874999999999
40
0.296874999999999
40
0.312499999999999
40
0.312499999999999
40
0.343749999999999
40
0.343749999999999
40
0.359374999999999
40
0.359374999999999
40
0.374999999999999
40
0.374999999999999
40
0.406250000000001
40
0.406250000000001
40
0.437500000000002
40
0.437500000000002
40
0.468750000000003
40
0.468750000000003
40
0.484375000000003
40
0.484375000000003
40
0.500000000000003
40
0.500000000000003
40
0.531250000000003
40
0.531250000000003
40
0.562500000000003
40
0.562500000000003
40
0.578125000000004
40
0.578125000000004
40
0.593750000000004
40
0.593750000000004
40
0.625000000000004
40
0.625000000000004
40
0.640625000000004
40
0.640625000000004
40
0.656250000000004
40
0.656250000000004
40
0.687500000000004
40
0.687500000000004
40
0.718750000000004
40
0.718750000000004
40
0.734375000000004
40
0.734375000000004
40
0.750000000000004
40
0.750000000000004
40
0.781250000000004
40
0.781250000000004
40
0.796875000000004
40
0.796875000000004
40
0.812500000000004
40
0.812500000000004
40
0.843750000000003
40
0.843750000000003
40
0.875000000000002
40
0.875000000000002
40
0.890625000000002
40
0.890625000000002
40
0.906250000000002
40
0.906250000000002
40
0.937500000000001
40
0.937500000000001
40
0.953125000000001
40
0.953125000000001
40
0.968750000000001
40
0.968750000000001
40
1
40
1
40
1
40
1
41
1
10
15.437438122485
20
1.26156031814442
30
0
41
1
10
15.3878841707416
20
1.35198900026967
30
0
41
1
10
15.3328109295214
20
1.44821866817048
30
0
41
1
10
15.2417215912961
20
1.60105271635118
30
0
41
1
10
15.2099357512079
20
1.6534228305803
30
0
41
1
10
15.1433595590008
20
1.76111149488079
30
0
41
1
10
15.1085784646135
20
1.81639975410786
30
0
41
1
10
15.0020723548528
20
1.98281155627481
30
0
41
1
10
14.9274289763728
20
2.09573879164518
30
0
41
1
10
14.8097630413403
20
2.26808850949621
30
0
41
1
10
14.7693282508686
20
2.32639570780043
30
0
41
1
10
14.6881020519352
20
2.44169813530576
30
0
41
1
10
14.6064220272889
20
2.5558581593562
30
0
41
1
10
14.5238584664906
20
2.66779108198264
30
0
41
1
10
14.4408606165533
20
2.77861226027892
30
0
41
1
10
14.3989563779531
20
2.83370982465217
30
0
41
1
10
14.2739147329727
20
2.99559522571539
30
0
41
1
10
14.1926655851407
20
3.09745451179563
30
0
41
1
10
14.0343886310447
20
3.28984133815447
30
0
41
1
10
13.956813068969
20
3.38093570337145
30
0
41
1
10
13.8123320874132
20
3.54483311525718
30
0
41
1
10
13.744686343105
20
3.61857814631332
30
0
41
1
10
13.6502737409684
20
3.71720917279373
30
0
41
1
10
13.6200888576245
20
3.74795910507916
30
0
41
1
10
13.5632942971405
20
3.80429941505753
30
0
41
1
10
13.5097589356748
20
3.85581332682631
30
0
41
1
10
13.4626583420502
20
3.8979553649479
30
0
41
1
10
13.4188218608126
20
3.93541417156197
30
0
41
1
10
13.3984472652478
20
3.95186533131101
30
0
41
1
10
13.3431984409342
20
3.99342758358068
30
0
41
1
10
13.3141079247865
20
4.01091049786157
30
0
41
1
10
13.2818604976703
20
4.0223131686673
30
0
41
1
10
13.2730218197059
20
4.02362569869118
30
0
41
1
10
13.2592796084161
20
4.02114092489029
30
0
41
1
10
13.2544109163059
20
4.01731184956367
30
0
41
1
10
13.2460337335535
20
3.99836209988558
30
0
41
1
10
13.248539084808
20
3.97584968236259
30
0
41
1
10
13.2697676420523
20
3.91084469293881
30
0
41
1
10
13.2888403223582
20
3.86776989813487
30
0
41
1
10
13.3421541048658
20
3.76413248423762
30
0
41
1
10
13.3763649782321
20
3.70343353189853
30
0
41
1
10
13.4391741330169
20
3.59845300425999
30
0
41
1
10
13.4621889225981
20
3.56088435565087
30
0
41
1
10
13.5112768844856
20
3.48232134468509
30
0
41
1
10
13.5373627410386
20
3.44129421757555
30
0
41
1
10
13.6201095417537
20
3.31301048147046
30
0
41
1
10
13.6812146569931
20
3.22060538566768
30
0
41
1
10
13.8156365582389
20
3.02099006770251
30
0
41
1
10
13.8871643813255
20
2.91644252882929
30
0
41
1
10
13.9992346687415
20
2.75447925466611
30
0
41
1
10
14.0374639640719
20
2.69952612290862
30
0
41
1
10
14.1156875530424
20
2.58762010976034
30
0
41
1
10
14.1558753862894
20
2.53039485539674
30
0
41
1
10
14.2764368725146
20
2.35944835900651
30
0
41
1
10
14.3574774468032
20
2.24547324163592
30
0
41
1
10
14.4800059957136
20
2.07447801931059
30
0
41
1
10
14.5212175959651
20
2.01719134928459
30
0
41
1
10
14.6029949872534
20
1.90399532764391
30
0
41
1
10
14.6433322663024
20
1.84839976915259
30
0
41
1
10
14.762771254089
20
1.68454351780781
30
0
41
1
10
14.8403114086464
20
1.57918120635546
30
0
41
1
10
14.9913571758409
20
1.37658466540123
30
0
41
1
10
15.0625617853404
20
1.28244826633869
30
0
41
1
10
15.162860615374
20
1.15239817096975
30
0
41
1
10
15.1952368499013
20
1.11087279722963
30
0
41
1
10
15.2578887785621
20
1.03155685569161
30
0
41
1
10
15.288148652998
20
0.993794676084917
30
0
41
1
10
15.3739049659085
20
0.888565135932538
30
0
41
1
10
15.425136455961
20
0.828173827104365
30
0
41
1
10
15.4935114725525
20
0.752071383576038
30
0
41
1
10
15.5149798814174
20
0.729035804144814
30
0
41
1
10
15.5544325598494
20
0.688589652889618
30
0
41
1
10
15.5724282137833
20
0.671153733665363
30
0
41
1
10
15.6214423643462
20
0.626949588394808
30
0
41
1
10
15.6475354013244
20
0.608214775904798
30
0
41
1
10
15.6865199229194
20
0.592602236987744
30
0
41
1
10
15.6989250666451
20
0.595984335989954
30
0
41
1
10
15.707161656479
20
0.617052051650774
30
0
41
1
10
15.7081848912175
20
0.626750797064773
30
0
41
1
10
15.7067342054952
20
0.651561915343734
30
0
41
1
10
15.704235315114
20
0.666768919129396
30
0
41
1
10
15.6914456430926
20
0.720076849143823
30
0
41
1
10
15.6760357624805
20
0.765515693463357
30
0
41
1
10
15.6426263057546
20
0.848152037789617
30
0
41
1
10
15.6297616181961
20
0.878126904232403
30
0
41
1
10
15.6004226366077
20
0.943078700509972
30
0
41
1
10
15.5838977294896
20
0.978146844625115
30
0
41
1
10
15.5296241013188
20
1.08907023763331
30
0
41
1
10
15.4869920742284
20
1.17113163601917
30
0
41
1
10
15.437438122485
20
1.26156031814442
30
0
0
SPLINE
5
E2
100
AcDbEntity
8
1
62
256
6
ByLayer
370
18
48
1
60
0
100
AcDbSpline
70
4
71
3
72
10
73
6
40
0
40
0
40
0
40
0
40
0.5
40
0.5
40
1
40
1
40
1
40
1
41
1
10
15.0926599106627
20
-2.83639212877452
30
0
41
1
10
14.0823811381401
20
-3.65282634688106
30
0
41
1
10
13.036737276487
20
-4.41437012079459
30
0
41
1
10
10.8759403978439
20
-5.82950996622122
30
0
41
1
10
9.76078938893124
20
-6.48310912628207
30
0
41
1
10
8.61038723904639
20
-7.08223773774705
30
0
0
SPLINE
5
E3
100
AcDbEntity
8
1
62
256
6
ByLayer
370
18
48
1
60
0
100
AcDbSpline
70
4
71
3
72
8
73
4
40
0
40
0
40
0
40
0
40
1
40
1
40
1
40
1
41
1
10
12.7957415918719
20
4.05784585120955
30
0
41
1
10
13.7980815073582
20
2.80777373536705
30
0
41
1
10
14.7272245550073
20
1.50520791617132
30
0
41
1
10
15.5831074650552
20
0.150103019218648
30
0
0
SPLINE
5
E4
100
AcDbEntity
8
1
62
256
6
ByLayer
370
18
48
1
60
0
100
AcDbSpline
70
4
71
3
72
8
73
4
40
0
40
0
40
0
40
0
40
1
40
1
40
1
40
1
41
1
10
17.2674835772465
20
3.42077247025608
30
0
41
1
10
17.2534711795069
20
3.43606431902975
30
0
41
1
10
17.2410220534983
20
3.4527998436231
30
0
41
1
10
17.2301192387499
20
3.47097531852407
30
0
0
SPLINE
5
E5
100
AcDbEntity
8
1
62
256
6
ByLayer
370
18
48
1
60
0
100
AcDbSpline
70
4
71
3
72
28
73
24
40
0
40
0
40
0
40
0
40
0.0624999999999992
40
0.0624999999999992
40
0.124999999999998
40
0.124999999999998
40
0.249999999999999
40
0.249999999999999
40
0.312499999999998
40
0.312499999999998
40
0.374999999999998
40
0.374999999999998
40
0.499999999999998
40
0.499999999999998
40
0.562499999999998
40
0.562499999999998
40
0.624999999999998
40
0.624999999999998
40
0.749999999999999
40
0.749999999999999
40
0.874999999999999
40
0.874999999999999
40
1
40
1
40
1
40
1
41
1
10
9.8122808483655
20
4.56642629180161
30
0
41
1
10
9.87035692419224
20
4.60279715082561
30
0
41
1
10
9.93010348230686
20
4.63655692107142
30
0
41
1
10
10.0529869526194
20
4.69877562423284
30
0
41
1
10
10.1163790573975
20
4.72733340613672
30
0
41
1
10
10.3100608990663
20
4.80404104864544
30
0
41
1
10
10.4420822888012
20
4.84272581729113
30
0
41
1
10
10.6443202361326
20
4.88266495026778
30
0
41
1
10
10.7124382531472
20
4.8929443480306
30
0
41
1
10
10.8501136451019
20
4.90730659850189
30
0
41
1
10
10.9199693977314
20
4.91137064258925
30
0
41
1
10
11.1277255456204
20
4.9139155892241
30
0
41
1
10
11.2648204867481
20
4.9030382332825
30
0
41
1
10
11.468391086355
20
4.86822356911838
30
0
41
1
10
11.535900528855
20
4.85351663466056
30
0
41
1
10
11.6702052906246
20
4.81772452847997
30
0
41
1
10
11.7366400342934
20
4.79670362001869
30
0
41
1
10
11.930989692415
20
4.72536827396124
30
0
41
1
10
12.0551439967213
20
4.66655410839397
30
0
41
1
10
12.292684424936
20
4.52650213649775
30
0
41
1
10
12.4065351760097
20
4.44454935847889
30
0
41
1
10
12.6143000419596
20
4.26431887285881
30
0
41
1
10
12.7094346080056
20
4.16548394110976
30
0
41
1
10
12.7957415918719
20
4.05784585120955
30
0
0
SPLINE
5
E6
100
AcDbEntity
8
1
62
256
6
ByLayer
370
18
48
1
60
0
100
AcDbSpline
70
4
71
3
72
26
73
22
40
0
40
0
40
0
40
0
40
0.125
40
0.125
40
0.250000000000001
40
0.250000000000001
40
0.312500000000002
40
0.312500000000002
40
0.375000000000003
40
0.375000000000003
40
0.500000000000004
40
0.500000000000004
40
0.562500000000004
40
0.562500000000004
40
0.625000000000004
40
0.625000000000004
40
0.750000000000003
40
0.750000000000003
40
0.875000000000001
40
0.875000000000001
40
1
40
1
40
1
40
1
41
1
10
15.5831074650552
20
0.150103019218648
30
0
41
1
10
15.6563842335203
20
0.0340851543750773
30
0
41
1
10
15.7195189214314
20
-0.0890200624540398
30
0
41
1
10
15.8231424873807
20
-0.346861093192928
30
0
41
1
10
15.8625618805402
20
-0.47866098393996
30
0
41
1
10
15.9037184387151
20
-0.680544084677308
30
0
41
1
10
15.9144229551272
20
-0.748540090786236
30
0
41
1
10
15.9296791266247
20
-0.885965944995434
30
0
41
1
10
15.9342209386876
20
-0.955741007577529
30
0
41
1
10
15.9382153277433
20
-1.16354951425004
30
0
41
1
10
15.9283185032075
20
-1.30069368076855
30
0
41
1
10
15.8950053383255
20
-1.50436335418161
30
0
41
1
10
15.8808040344061
20
-1.57191005011796
30
0
41
1
10
15.8460354794226
20
-1.70629874940889
30
0
41
1
10
15.8254442576795
20
-1.77306409680534
30
0
41
1
10
15.7553866030419
20
-1.96815026066929
30
0
41
1
10
15.6973727498106
20
-2.09272030040668
30
0
41
1
10
15.5589045239474
20
-2.33096344614657
30
0
41
1
10
15.4775687465692
20
-2.44537242808403
30
0
41
1
10
15.2982411286029
20
-2.65423934581094
30
0
41
1
10
15.1998361423925
20
-2.74978005166099
30
0
41
1
10
15.0926599106627
20
-2.83639212877455
30
0
0
SPLINE
5
E7
100
AcDbEntity
8
1
62
256
6
ByLayer
370
18
48
1
60
0
100
AcDbSpline
70
4
71
3
72
18
73
14
40
0
40
0
40
0
40
0
40
0.25
40
0.25
40
0.375
40
0.375
40
0.5
40
0.5
40
0.625
40
0.625
40
0.75
40
0.75
40
1
40
1
40
1
40
1
41
1
10
4.48940910371928
20
-9.46361215404752
30
0
41
1
10
4.91320928160047
20
-9.4179553646205
30
0
41
1
10
5.337619345202
20
-9.37223287105891
30
0
41
1
10
5.97379377210032
20
-9.30369660476239
30
0
41
1
10
6.18586012861704
20
-9.28085029773052
30
0
41
1
10
6.61026360088732
20
-9.23512851426543
30
0
41
1
10
6.82260294542158
20
-9.2122527977215
30
0
41
1
10
7.24769421680028
20
-9.16645691636617
30
0
41
1
10
7.46058832421886
20
-9.14352143417437
30
0
41
1
10
7.88591740351498
20
-9.09769993332532
30
0
41
1
10
8.09834873552302
20
-9.074814306798
30
0
41
1
10
8.73529438611709
20
-9.00619495512373
30
0
41
1
10
9.15944240698792
20
-8.96050069191787
30
0
41
1
10
9.58461653419627
20
-8.91469588434833
30
0
0
SPLINE
5
E8
100
AcDbEntity
8
1
62
256
6
ByLayer
370
18
48
1
60
0
100
AcDbSpline
70
4
71
3
72
10
73
6
40
0
40
0
40
0
40
0
40
0.5
40
0.5
40
1
40
1
40
1
40
1
41
1
10
3.68733340556926
20
-0.180370812288061
30
0
41
1
10
4.62814252064527
20
0.712097087207269
30
0
41
1
10
5.60906641298604
20
1.55362445785036
30
0
41
1
10
7.65057571668029
20
3.1359960864786
30
0
41
1
10
8.71116317920936
20
3.87683776599988
30
0
41
1
10
9.8122808483655
20
4.56642629180161
30
0
0
SPLINE
5
E9
100
AcDbEntity
8
1
62
256
6
ByLayer
370
18
48
1
60
0
100
AcDbSpline
70
4
71
3
72
8
73
4
40
0
40
0
40
0
40
0
40
1
40
1
40
1
40
1
41
1
10
9.58461653419627
20
-8.91469588434833
30
0
41
1
10
9.7242750193968
20
-8.89965021333805
30
0
41
1
10
9.86377922276083
20
-8.88462116339988
30
0
41
1
10
10.0031214380175
20
-8.86960956474488
30
0
0
SPLINE
5
EA
100
AcDbEntity
8
1
62
256
6
ByLayer
370
18
48
1
60
0
100
AcDbSpline
70
4
71
3
72
10
73
6
40
0
40
0
40
0
40
0
40
0.5
40
0.5
40
1
40
1
40
1
40
1
41
1
10
19.1192163989491
20
1.39996070022312
30
0
41
1
10
19.1191048052792
20
1.37634867661879
30
0
41
1
10
19.1213479864669
20
1.35522957124974
30
0
41
1
10
19.1302484551516
20
1.32054742235121
30
0
41
1
10
19.1368718027698
20
1.30668384629766
30
0
41
1
10
19.1457202132316
20
1.29702750073977
30
0
0
SPLINE
5
EB
100
AcDbEntity
8
1
62
256
6
ByLayer
370
18
48
1
60
0
100
AcDbSpline
70
4
71
3
72
52
73
48
40
0
40
0
40
0
40
0
40
0.0624999999999998
40
0.0624999999999998
40
0.0937499999999999
40
0.0937499999999999
40
0.125
40
0.125
40
0.1875
40
0.1875
40
0.21875
40
0.21875
40
0.25
40
0.25
40
0.3125
40
0.3125
40
0.343750000000001
40
0.343750000000001
40
0.375000000000001
40
0.375000000000001
40
0.4375
40
0.4375
40
0.46875
40
0.46875
40
0.5
40
0.5
40
0.5625
40
0.5625
40
0.625
40
0.625
40
0.65625
40
0.65625
40
0.6875
40
0.6875
40
0.75
40
0.75
40
0.78125
40
0.78125
40
0.8125
40
0.8125
40
0.875
40
0.875
40
0.90625
40
0.90625
40
0.9375
40
0.9375
40
1
40
1
40
1
40
1
41
1
10
8.61038723904653
20
-7.08223773774699
30
0
41
1
10
8.3846099793831
20
-7.1998223720386
30
0
41
1
10
8.15028234675097
20
-7.29622679387026
30
0
41
1
10
7.78598048770175
20
-7.40922155531729
30
0
41
1
10
7.66197877622776
20
-7.44167328909242
30
0
41
1
10
7.41141437257696
20
-7.49521662558524
30
0
41
1
10
7.28582986095608
20
-7.51614208295231
30
0
41
1
10
6.90817521647236
20
-7.56193094785178
30
0
41
1
10
6.65521210258186
20
-7.5699414037488
30
0
41
1
10
6.27385294763516
20
-7.5478443955829
30
0
41
1
10
6.14577854277101
20
-7.53464076713868
30
0
41
1
10
5.89309441202872
20
-7.49701769747358
30
0
41
1
10
5.76832769002181
20
-7.47265709481167
30
0
41
1
10
5.39861861898248
20
-7.38331256492069
30
0
41
1
10
5.15823008507243
20
-7.30219794573773
30
0
41
1
10
4.8069210591795
20
-7.14732300165065
30
0
41
1
10
4.69113560715905
20
-7.08993101363362
30
0
41
1
10
4.46733440676167
20
-6.96620549399492
30
0
41
1
10
4.35873517686653
20
-6.89964778720048
30
0
41
1
10
4.0426586099932
20
-6.68613206282075
30
0
41
1
10
3.84482178469881
20
-6.52544526776254
30
0
41
1
10
3.568095861671
20
-6.25583974484562
30
0
41
1
10
3.47970796797605
20
-6.16158015849336
30
0
41
1
10
3.31313483119052
20
-5.96726223940144
30
0
41
1
10
3.23453352471609
20
-5.86680740155313
30
0
41
1
10
3.01259304872158
20
-5.55569058926844
30
0
41
1
10
2.88280742002993
20
-5.33494525305326
30
0
41
1
10
2.66245476925323
20
-4.86811312885339
30
0
41
1
10
2.57483044298627
20
-4.62845469705115
30
0
41
1
10
2.47580329282945
20
-4.25996512708724
30
0
41
1
10
2.44822988098744
20
-4.13562533816429
30
0
41
1
10
2.40411851557261
20
-3.88387282260004
30
0
41
1
10
2.38754599574759
20
-3.75580645580422
30
0
41
1
10
2.3554304455449
20
-3.3728544213472
30
0
41
1
10
2.35701279251316
20
-3.1190050219746
30
0
41
1
10
2.3929280335667
20
-2.74025497185593
30
0
41
1
10
2.41052449537119
20
-2.61434437661566
30
0
41
1
10
2.45722690028447
20
-2.36320070294653
30
0
41
1
10
2.48644891260227
20
-2.23779230875826
30
0
41
1
10
2.58974690943862
20
-1.86998201557796
30
0
41
1
10
2.67969094410463
20
-1.63343399394231
30
0
41
1
10
2.84591033322764
20
-1.29135726968229
30
0
41
1
10
2.90656516113299
20
-1.17946886391761
30
0
41
1
10
3.03871093071493
20
-0.960087783513558
30
0
41
1
10
3.10983007637458
20
-0.853309242950502
30
0
41
1
10
3.33532477511972
20
-0.54559448478102
30
0
41
1
10
3.50275143915363
20
-0.355468477916389
30
0
41
1
10
3.68733340556926
20
-0.180370812288061
30
0
0
SPLINE
5
EC
100
AcDbEntity
8
1
62
256
6
ByLayer
370
18
48
1
60
0
100
AcDbSpline
70
4
71
3
72
10
73
6
40
0
40
0
40
0
40
0
40
0.5
40
0.5
40
1
40
1
40
1
40
1
41
1
10
17.2581701973311
20
3.35692687928537
30
0
41
1
10
17.2670186077929
20
3.34727053372748
30
0
41
1
10
17.2802521659729
20
3.33946409967856
30
0
41
1
10
17.314026611865
20
3.32757475151698
30
0
41
1
10
17.3348698465396
20
3.32349945499635
30
0
41
1
10
17.3584017452946
20
3.32155270056356
30
0
0
SPLINE
5
ED
100
AcDbEntity
8
1
62
256
6
ByLayer
370
18
48
1
60
0
100
AcDbSpline
70
4
71
3
72
8
73
4
40
0
40
0
40
0
40
0
40
1
40
1
40
1
40
1
41
1
10
21.1410741645007
20
6.95411013362764
30
0
41
1
10
21.1366774872664
20
6.95912478414607
30
0
41
1
10
21.1322813933921
20
6.96413876931055
30
0
41
1
10
21.1278858609894
20
6.96915211408609
30
0
0
SPLINE
5
EE
100
AcDbEntity
8
1
62
256
6
ByLayer
370
18
48
1
60
0
100
AcDbSpline
70
4
71
3
72
18
73
14
40
0
40
0
40
0
40
0
40
0.124999999999997
40
0.124999999999997
40
0.249999999999994
40
0.249999999999994
40
0.499999999999993
40
0.499999999999993
40
0.74999999999999
40
0.74999999999999
40
0.874999999999995
40
0.874999999999995
40
1
40
1
40
1
40
1
41
1
10
20.9138825422467
20
6.23355036534636
30
0
41
1
10
20.9451109803126
20
6.2411958456041
30
0
41
1
10
20.9733973620766
20
6.25945962094647
30
0
41
1
10
21.0237754859607
20
6.30370559134761
30
0
41
1
10
21.0463648883373
20
6.33043796079957
30
0
41
1
10
21.106278973453
20
6.41640351120296
30
0
41
1
10
21.1370221173854
20
6.48246622023728
30
0
41
1
10
21.1808646766187
20
6.62120524512954
30
0
41
1
10
21.1937768805746
20
6.69342603403109
30
0
41
1
10
21.1940339009488
20
6.79881851134328
30
0
41
1
10
21.1908935147205
20
6.83352648255882
30
0
41
1
10
21.174841115844
20
6.89917840174306
30
0
41
1
10
21.1621582767045
20
6.93006255211091
30
0
41
1
10
21.1410741645007
20
6.95411013362764
30
0
0
SPLINE
5
EF
100
AcDbEntity
8
1
62
256
6
ByLayer
370
18
48
1
60
0
100
AcDbSpline
70
4
71
3
72
8
73
4
40
0
40
0
40
0
40
0
40
1
40
1
40
1
40
1
41
1
10
20.9138825422466
20
6.23355036534636
30
0
41
1
10
20.9074047097282
20
6.23196443458261
30
0
41
1
10
20.9009277367017
20
6.23037871424336
30
0
41
1
10
20.8944515909177
20
6.22879319643317
30
0
0
SPLINE
5
F0
100
AcDbEntity
8
1
62
256
6
ByLayer
370
18
48
1
60
0
100
AcDbSpline
70
4
71
3
72
16
73
12
40
0
40
0
40
0
40
0
40
0.250000000000004
40
0.250000000000004
40
0.500000000000008
40
0.500000000000008
40
0.750000000000012
40
0.750000000000012
40
0.875000000000006
40
0.875000000000006
40
1
40
1
40
1
40
1
41
1
10
23.5222399024097
20
4.92835784184103
30
0
41
1
10
23.5548457240071
20
4.95823557262511
30
0
41
1
10
23.5851690502182
20
4.9908844880288
30
0
41
1
10
23.6391608021428
20
5.06097745938743
30
0
41
1
10
23.6630451767281
20
5.09854178616817
30
0
41
1
10
23.6992316090756
20
5.17846322227865
30
0
41
1
10
23.7119848273682
20
5.22109562680689
30
0
41
1
10
23.7092552946704
20
5.28369266591804
30
0
41
1
10
23.7041550683405
20
5.30430168695088
30
0
41
1
10
23.6839954694254
20
5.33810453703225
30
0
41
1
10
23.6690352233648
20
5.35115317495109
30
0
41
1
10
23.6514750957363
20
5.359507024453
30
0
0
SPLINE
5
F1
100
AcDbEntity
8
1
62
256
6
ByLayer
370
18
48
1
60
0
100
AcDbSpline
70
4
71
3
72
16
73
12
40
0
40
0
40
0
40
0
40
0.124999999999994
40
0.124999999999994
40
0.249999999999987
40
0.249999999999987
40
0.499999999999992
40
0.499999999999992
40
0.749999999999996
40
0.749999999999996
40
1
40
1
40
1
40
1
41
1
10
23.0814677833416
20
4.83719155468788
30
0
41
1
10
23.0882341315843
20
4.81903789701235
30
0
41
1
10
23.0998497061167
20
4.80307829932084
30
0
41
1
10
23.1314935351796
20
4.78010141963475
30
0
41
1
10
23.151285002908
20
4.77317975650331
30
0
41
1
10
23.2138708816041
20
4.76474326090192
30
0
41
1
10
23.2574756993498
20
4.77378288340574
30
0
41
1
10
23.3404368804361
20
4.80291274865013
30
0
41
1
10
23.3799098675479
20
4.82342309574898
30
0
41
1
10
23.4545250532361
20
4.87115663425908
30
0
41
1
10
23.4896115152115
20
4.8984594334934
30
0
41
1
10
23.5222399024097
20
4.92835784184103
30
0
0
SPLINE
5
F2
100
AcDbEntity
8
1
62
256
6
ByLayer
370
18
48
1
60
0
100
AcDbSpline
70
4
71
3
72
18
73
14
40
0
40
0
40
0
40
0
40
0.125000000000001
40
0.125000000000001
40
0.250000000000003
40
0.250000000000003
40
0.500000000000003
40
0.500000000000003
40
0.750000000000003
40
0.750000000000003
40
0.875000000000001
40
0.875000000000001
40
1
40
1
40
1
40
1
41
1
10
23.638286792225
20
5.37454900491142
30
0
41
1
10
23.6172138666384
20
5.39858382748019
30
0
41
1
10
23.6045609124385
20
5.42940269809125
30
0
41
1
10
23.5885223036454
20
5.49481887911728
30
0
41
1
10
23.585342067347
20
5.52956062742444
30
0
41
1
10
23.5855524146814
20
5.63505390374635
30
0
41
1
10
23.5983902180689
20
5.70694004497352
30
0
41
1
10
23.642088448999
20
5.84557733316478
30
0
41
1
10
23.6729289618014
20
5.91205265923546
30
0
41
1
10
23.7331368244282
20
5.9984148285487
30
0
41
1
10
23.7556031856839
20
6.02500842579246
30
0
41
1
10
23.8063676571798
20
6.06951474854571
30
0
41
1
10
23.834445861897
20
6.08751125045998
30
0
41
1
10
23.865478414479
20
6.09510877319269
30
0
0
SPLINE
5
F3
100
AcDbEntity
8
1
62
256
6
ByLayer
370
18
48
1
60
0
100
AcDbSpline
70
4
71
3
72
18
73
14
40
0
40
0
40
0
40
0
40
0.125000000000005
40
0.125000000000005
40
0.250000000000011
40
0.250000000000011
40
0.500000000000012
40
0.500000000000012
40
0.750000000000013
40
0.750000000000013
40
0.875000000000007
40
0.875000000000007
40
1
40
1
40
1
40
1
41
1
10
22.3300136031446
20
4.68811449996016
30
0
41
1
10
22.3402919072713
20
4.71838160013462
30
0
41
1
10
22.3606553550364
20
4.74474881521022
30
0
41
1
10
22.409288125227
20
4.7913467483794
30
0
41
1
10
22.4377852436837
20
4.81147178795746
30
0
41
1
10
22.5292502745741
20
4.86403625998312
30
0
41
1
10
22.5979244007506
20
4.8888614667344
30
0
41
1
10
22.7398369297011
20
4.92033633274411
30
0
41
1
10
22.8128265072044
20
4.92686532822688
30
0
41
1
10
22.917722271069
20
4.91790487434108
30
0
41
1
10
22.9519861824879
20
4.91174523338492
30
0
41
1
10
23.0159120243692
20
4.89003507283638
30
0
41
1
10
23.0455365545648
20
4.8747168852158
30
0
41
1
10
23.0676324785482
20
4.85164066770184
30
0
0
SPLINE
5
F4
100
AcDbEntity
8
1
62
256
6
ByLayer
370
18
48
1
60
0
100
AcDbSpline
70
4
71
3
72
8
73
4
40
0
40
0
40
0
40
0
40
1
40
1
40
1
40
1
41
1
10
23.1875264142936
20
7.40779767476039
30
0
41
1
10
23.1893918742228
20
7.4142006076647
30
0
41
1
10
23.191257086639
20
7.42060269101492
30
0
41
1
10
23.1931220608292
20
7.42700395668754
30
0
0
SPLINE
5
F5
100
AcDbEntity
8
1
62
256
6
ByLayer
370
18
48
1
60
0
100
AcDbSpline
70
4
71
3
72
16
73
12
40
0
40
0
40
0
40
0
40
0.25
40
0.25
40
0.499999999999999
40
0.499999999999999
40
0.749999999999999
40
0.749999999999999
40
0.874999999999999
40
0.874999999999999
40
1
40
1
40
1
40
1
41
1
10
21.8855772760739
20
4.56551847303518
30
0
41
1
10
21.927755060739
20
4.5522198686127
30
0
41
1
10
21.9711915139902
20
4.54228355548844
30
0
41
1
10
22.0588896837758
20
4.53057181240621
30
0
41
1
10
22.1033635323366
20
4.52866950065223
30
0
41
1
10
22.190670742489
20
4.53729184902215
30
0
41
1
10
22.2339680969811
20
4.54756344026495
30
0
41
1
10
22.2868139567041
20
4.58122580447727
30
0
41
1
10
22.3021117793008
20
4.59594724056043
30
0
41
1
10
22.321306106734
20
4.63030739039164
30
0
41
1
10
22.3251264356262
20
4.64978766248643
30
0
41
1
10
22.3235810177
20
4.66917210385739
30
0
0
SPLINE
5
F6
100
AcDbEntity
8
1
62
256
6
ByLayer
370
18
48
1
60
0
100
AcDbSpline
70
4
71
3
72
8
73
4
40
0
40
0
40
0
40
0
40
1
40
1
40
1
40
1
41
1
10
21.0617864003265
20
5.47399464867394
30
0
41
1
10
21.0683258504615
20
5.4752946190101
30
0
41
1
10
21.0748661359252
20
5.47659475540038
30
0
41
1
10
21.0814072892824
20
5.47789506431829
30
0
0
SPLINE
5
F7
100
AcDbEntity
8
1
62
256
6
ByLayer
370
18
48
1
60
0
100
AcDbSpline
70
4
71
3
72
16
73
12
40
0
40
0
40
0
40
0
40
0.124999999999994
40
0.124999999999994
40
0.249999999999988
40
0.249999999999988
40
0.499999999999992
40
0.499999999999992
40
0.749999999999996
40
0.749999999999996
40
1
40
1
40
1
40
1
41
1
10
21.5862388958964
20
4.90165518185151
30
0
41
1
10
21.5739005412992
20
4.88671852354474
30
0
41
1
10
21.5658869115304
20
4.86867934207436
30
0
41
1
10
21.561810264554
20
4.82978654238983
30
0
41
1
10
21.5657116623099
20
4.80918579699315
30
0
41
1
10
21.5896983821482
20
4.75076658832344
30
0
41
1
10
21.61932933375
20
4.71752351968016
30
0
41
1
10
21.6860371276036
20
4.66024196195363
30
0
41
1
10
21.7235361027876
20
4.63631252590102
30
0
41
1
10
21.8021821525939
20
4.59556064884205
30
0
41
1
10
21.843370301313
20
4.57882628105955
30
0
41
1
10
21.8855772760739
20
4.56551847303518
30
0
0
SPLINE
5
F8
100
AcDbEntity
8
1
62
256
6
ByLayer
370
18
48
1
60
0
100
AcDbSpline
70
4
71
3
72
20
73
16
40
0
40
0
40
0
40
0
40
0.125000000000002
40
0.125000000000002
40
0.250000000000005
40
0.250000000000005
40
0.499999999999997
40
0.499999999999997
40
0.624999999999998
40
0.624999999999998
40
0.749999999999999
40
0.749999999999999
40
0.874999999999999
40
0.874999999999999
40
1
40
1
40
1
40
1
41
1
10
21.7117284781775
20
7.47701847083721
30
0
41
1
10
21.7338608359041
20
7.45390420318401
30
0
41
1
10
21.7635014967553
20
7.43860412173402
30
0
41
1
10
21.8273577097809
20
7.4169217939814
30
0
41
1
10
21.8617343376282
20
7.41073254882812
30
0
41
1
10
21.9669798680815
20
7.40178297395715
30
0
41
1
10
22.0400903210868
20
7.40838893801893
30
0
41
1
10
22.146619710792
20
7.43210575292363
30
0
41
1
10
22.1810720909117
20
7.44225431344688
30
0
41
1
10
22.2478355007311
20
7.46716452214548
30
0
41
1
10
22.2804881655522
20
7.48209751760166
30
0
41
1
10
22.3412872481488
20
7.51700482256095
30
0
41
1
10
22.3695967918596
20
7.53692969669626
30
0
41
1
10
22.4184629232487
20
7.58360544400992
30
0
41
1
10
22.4390284588517
20
7.61015800897403
30
0
41
1
10
22.4493473535811
20
7.64054463857889
30
0
0
SPLINE
5
F9
100
AcDbEntity
8
1
62
256
6
ByLayer
370
18
48
1
60
0
100
AcDbSpline
70
4
71
3
72
8
73
4
40
0
40
0
40
0
40
0
40
1
40
1
40
1
40
1
41
1
10
23.865478414479
20
6.09510877319269
30
0
41
1
10
23.8719562469975
20
6.09669470395645
30
0
41
1
10
23.878433220024
20
6.0982804242957
30
0
41
1
10
23.884909365808
20
6.09986594210588
30
0
0
SPLINE
5
FA
100
AcDbEntity
8
1
62
256
6
ByLayer
370
18
48
1
60
0
100
AcDbSpline
70
4
71
3
72
16
73
12
40
0
40
0
40
0
40
0
40
0.124999999999993
40
0.124999999999993
40
0.249999999999986
40
0.249999999999986
40
0.499999999999991
40
0.499999999999991
40
0.749999999999995
40
0.749999999999995
40
1
40
1
40
1
40
1
41
1
10
21.1278858609894
20
6.96915211408606
30
0
41
1
10
21.1103910095688
20
6.97747490984915
30
0
41
1
10
21.0955045069907
20
6.99043725420438
30
0
41
1
10
21.0753730026941
20
7.02396323595923
30
0
41
1
10
21.0702026186505
20
7.04428265386898
30
0
41
1
10
21.0672529452052
20
7.10736566344178
30
0
41
1
10
21.0800585794943
20
7.15001669667788
30
0
41
1
10
21.1163081401637
20
7.23012335038197
30
0
41
1
10
21.1401807367097
20
7.26765853632514
30
0
41
1
10
21.1942357766235
20
7.33782953670197
30
0
41
1
10
21.2244926671177
20
7.37040288835038
30
0
41
1
10
21.2571210543159
20
7.40030129669802
30
0
0
SPLINE
5
FB
100
AcDbEntity
8
1
62
256
6
ByLayer
370
18
48
1
60
0
100
AcDbSpline
70
4
71
3
72
16
73
12
40
0
40
0
40
0
40
0
40
0.12499999999999
40
0.12499999999999
40
0.249999999999981
40
0.249999999999981
40
0.499999999999987
40
0.499999999999987
40
0.749999999999994
40
0.749999999999994
40
1
40
1
40
1
40
1
41
1
10
23.884909365808
20
6.09986594210588
30
0
41
1
10
23.9040140686479
20
6.09664894273712
30
0
41
1
10
23.9236432729492
20
6.098728526516
30
0
41
1
10
23.9593637489884
20
6.11464444651443
30
0
41
1
10
23.9752538189609
20
6.1283235287797
30
0
41
1
10
24.0138529778187
20
6.17830624184799
30
0
41
1
10
24.0278268439627
20
6.2205889329951
30
0
41
1
10
24.0440802311953
20
6.30700035596601
30
0
41
1
10
24.0460542431232
20
6.35144013911747
30
0
41
1
10
24.0420233790049
20
6.43992555468654
30
0
41
1
10
24.0359216922614
20
6.48396272170339
30
0
41
1
10
24.0263431046987
20
6.52716893807536
30
0
0
SPLINE
5
FC
100
AcDbEntity
8
1
62
256
6
ByLayer
370
18
48
1
60
0
100
AcDbSpline
70
4
71
3
72
16
73
12
40
0
40
0
40
0
40
0
40
0.250000000000005
40
0.250000000000005
40
0.500000000000009
40
0.500000000000009
40
0.750000000000014
40
0.750000000000014
40
0.875000000000007
40
0.875000000000007
40
1
40
1
40
1
40
1
41
1
10
20.753017852027
20
5.80149020046369
30
0
41
1
10
20.7625898150948
20
5.75831386525709
30
0
41
1
10
20.7757029421348
20
5.71572863672915
30
0
41
1
10
20.8094093599958
20
5.63392392228832
30
0
41
1
10
20.8299988339713
20
5.59445728375357
30
0
41
1
10
20.8811196117762
20
5.52315819601304
30
0
41
1
10
20.9116637479758
20
5.49079738272758
30
0
41
1
10
20.9672391403966
20
5.46186270782877
30
0
41
1
10
20.9876371893231
20
5.45597512287907
30
0
41
1
10
21.0269911156714
20
5.45653242262892
30
0
41
1
10
21.0457716906242
20
5.46296405680488
30
0
41
1
10
21.0617864003265
20
5.47399464867394
30
0
0
SPLINE
5
FD
100
AcDbEntity
8
1
62
256
6
ByLayer
370
18
48
1
60
0
100
AcDbSpline
70
4
71
3
72
16
73
12
40
0
40
0
40
0
40
0
40
0.12499999999999
40
0.12499999999999
40
0.249999999999981
40
0.249999999999981
40
0.499999999999987
40
0.499999999999987
40
0.749999999999994
40
0.749999999999994
40
1
40
1
40
1
40
1
41
1
10
20.8944515909177
20
6.22879319643317
30
0
41
1
10
20.8753468880777
20
6.23201019580193
30
0
41
1
10
20.8557176837765
20
6.22993061202305
30
0
41
1
10
20.8199972077372
20
6.21401469202462
30
0
41
1
10
20.8041071377647
20
6.20033560975938
30
0
41
1
10
20.765507978907
20
6.15035289669106
30
0
41
1
10
20.751534112763
20
6.10807020554395
30
0
41
1
10
20.7352807255303
20
6.02165878257301
30
0
41
1
10
20.7333067136025
20
5.97721899942158
30
0
41
1
10
20.7373375777207
20
5.88873358385251
30
0
41
1
10
20.7434392644643
20
5.84469641683566
30
0
41
1
10
20.753017852027
20
5.80149020046369
30
0
0
SPLINE
5
FE
100
AcDbEntity
8
1
62
256
6
ByLayer
370
18
48
1
60
0
100
AcDbSpline
70
4
71
3
72
18
73
14
40
0
40
0
40
0
40
0
40
0.124999999999994
40
0.124999999999994
40
0.249999999999988
40
0.249999999999988
40
0.499999999999991
40
0.499999999999991
40
0.749999999999994
40
0.749999999999994
40
0.874999999999997
40
0.874999999999997
40
1
40
1
40
1
40
1
41
1
10
21.0814072892824
20
5.47789506431829
30
0
41
1
10
21.1127585189957
20
5.48412734192394
30
0
41
1
10
21.1457749209608
20
5.47967568638848
30
0
41
1
10
21.2104462999445
20
5.46085743853166
30
0
41
1
10
21.2421236546996
20
5.44624072980255
30
0
41
1
10
21.3333783382556
20
5.39331192550631
30
0
41
1
10
21.3892146610446
20
5.34625099103042
30
0
41
1
10
21.4874289590649
20
5.23908856884887
30
0
41
1
10
21.5295780237658
20
5.17914223826094
30
0
41
1
10
21.5742659250036
20
5.08381961506191
30
0
41
1
10
21.5860634751668
20
5.051066376862
30
0
41
1
10
21.5992248455522
20
4.98484989356021
30
0
41
1
10
21.6007711710307
20
4.95153520402536
30
0
41
1
10
21.591834542432
20
4.92086146377866
30
0
0
SPLINE
5
FF
100
AcDbEntity
8
1
62
256
6
ByLayer
370
18
48
1
60
0
100
AcDbSpline
70
4
71
3
72
16
73
12
40
0
40
0
40
0
40
0
40
0.249999999999999
40
0.249999999999999
40
0.499999999999999
40
0.499999999999999
40
0.749999999999998
40
0.749999999999998
40
0.874999999999999
40
0.874999999999999
40
1
40
1
40
1
40
1
41
1
10
21.2571210543159
20
7.40030129669802
30
0
41
1
10
21.2897268759132
20
7.4301790274821
30
0
41
1
10
21.3248944043554
20
7.45754142381026
30
0
41
1
10
21.3994263420375
20
7.50521871583808
30
0
41
1
10
21.4389293856209
20
7.52573825636577
30
0
41
1
10
21.5217005519268
20
7.55482137628761
30
0
41
1
10
21.5652822434974
20
7.56381040585242
30
0
41
1
10
21.6274031875266
20
7.55563556841307
30
0
41
1
10
21.6474892709984
20
7.54875855544876
30
0
41
1
10
21.6794064662129
20
7.52572955738808
30
0
41
1
10
21.6911015787678
20
7.50968897585068
30
0
41
1
10
21.697893173384
20
7.49146758385118
30
0
0
SPLINE
5
100
100
AcDbEntity
8
1
62
256
6
ByLayer
370
18
48
1
60
0
100
AcDbSpline
70
4
71
3
72
8
73
4
40
0
40
0
40
0
40
0
40
1
40
1
40
1
40
1
41
1
10
23.7175745563991
20
6.85466448986512
30
0
41
1
10
23.7110351062642
20
6.85336451952898
30
0
41
1
10
23.7044948208004
20
6.85206438313867
30
0
41
1
10
23.6979536674432
20
6.85076407422079
30
0
0
SPLINE
5
101
100
AcDbEntity
8
1
62
256
6
ByLayer
370
18
48
1
60
0
100
AcDbSpline
70
4
71
3
72
8
73
4
40
0
40
0
40
0
40
0
40
1
40
1
40
1
40
1
41
1
10
22.3235810177
20
4.66917210385739
30
0
41
1
10
22.3257249354322
20
4.67548541896909
30
0
41
1
10
22.3278691270216
20
4.68179954052383
30
0
41
1
10
22.3300136031446
20
4.68811449996016
30
0
0
SPLINE
5
102
100
AcDbEntity
8
1
62
256
6
ByLayer
370
18
48
1
60
0
100
AcDbSpline
70
4
71
3
72
8
73
4
40
0
40
0
40
0
40
0
40
1
40
1
40
1
40
1
41
1
10
22.4557799390257
20
7.65948703468166
30
0
41
1
10
22.4536360212935
20
7.65317371956999
30
0
41
1
10
22.451491829704
20
7.64685959801523
30
0
41
1
10
22.4493473535811
20
7.64054463857889
30
0
0
SPLINE
5
103
100
AcDbEntity
8
1
62
256
6
ByLayer
370
18
48
1
60
0
100
AcDbSpline
70
4
71
3
72
16
73
12
40
0
40
0
40
0
40
0
40
0.249999999999998
40
0.249999999999998
40
0.499999999999995
40
0.499999999999995
40
0.749999999999993
40
0.749999999999993
40
0.874999999999996
40
0.874999999999996
40
1
40
1
40
1
40
1
41
1
10
22.8937836806518
20
7.76314066550387
30
0
41
1
10
22.8516058959867
20
7.77643926992636
30
0
41
1
10
22.8081694427355
20
7.78637558305061
30
0
41
1
10
22.7204712729499
20
7.79808732613284
30
0
41
1
10
22.6759974243891
20
7.79998963788685
30
0
41
1
10
22.5886902142367
20
7.7913672895169
30
0
41
1
10
22.5453928597446
20
7.78109569827413
30
0
41
1
10
22.4925470000215
20
7.74743333406178
30
0
41
1
10
22.4772491774249
20
7.73271189797862
30
0
41
1
10
22.4580548499916
20
7.69835174814742
30
0
41
1
10
22.4542345210994
20
7.67887147605262
30
0
41
1
10
22.4557799390257
20
7.65948703468166
30
0
0
SPLINE
5
104
100
AcDbEntity
8
1
62
256
6
ByLayer
370
18
48
1
60
0
100
AcDbSpline
70
4
71
3
72
8
73
4
40
0
40
0
40
0
40
0
40
1
40
1
40
1
40
1
41
1
10
23.6514750957363
20
5.359507024453
30
0
41
1
10
23.6470795633335
20
5.36452036922853
30
0
41
1
10
23.6426834694593
20
5.36953435439298
30
0
41
1
10
23.638286792225
20
5.37454900491142
30
0
0
SPLINE
5
105
100
AcDbEntity
8
1
62
256
6
ByLayer
370
18
48
1
60
0
100
AcDbSpline
70
4
71
3
72
8
73
4
40
0
40
0
40
0
40
0
40
1
40
1
40
1
40
1
41
1
10
21.591834542432
20
4.92086146377866
30
0
41
1
10
21.5899690825028
20
4.91445853087438
30
0
41
1
10
21.5881038700867
20
4.90805644752413
30
0
41
1
10
21.5862388958964
20
4.90165518185151
30
0
0
SPLINE
5
106
100
AcDbEntity
8
1
62
256
6
ByLayer
370
18
48
1
60
0
100
AcDbSpline
70
4
71
3
72
18
73
14
40
0
40
0
40
0
40
0
40
0.124999999999994
40
0.124999999999994
40
0.249999999999987
40
0.249999999999987
40
0.499999999999987
40
0.499999999999987
40
0.749999999999987
40
0.749999999999987
40
0.874999999999994
40
0.874999999999994
40
1
40
1
40
1
40
1
41
1
10
23.6979536674432
20
6.85076407422079
30
0
41
1
10
23.6666024377299
20
6.84453179661509
30
0
41
1
10
23.6335860357648
20
6.84898345215058
30
0
41
1
10
23.5689146567812
20
6.86780170000739
30
0
41
1
10
23.5372373020261
20
6.8824184087365
30
0
41
1
10
23.4459826184701
20
6.93534721303274
30
0
41
1
10
23.3901462956811
20
6.98240814750864
30
0
41
1
10
23.2919319976607
20
7.08957056969021
30
0
41
1
10
23.2497829329598
20
7.14951690027812
30
0
41
1
10
23.2050950317221
20
7.24483952347711
30
0
41
1
10
23.1932974815588
20
7.27759276167706
30
0
41
1
10
23.1801361111735
20
7.34380924497884
30
0
41
1
10
23.178589785695
20
7.37712393451369
30
0
41
1
10
23.1875264142936
20
7.40779767476039
30
0
0
SPLINE
5
107
100
AcDbEntity
8
1
62
256
6
ByLayer
370
18
48
1
60
0
100
AcDbSpline
70
4
71
3
72
16
73
12
40
0
40
0
40
0
40
0
40
0.250000000000002
40
0.250000000000002
40
0.500000000000003
40
0.500000000000003
40
0.750000000000005
40
0.750000000000005
40
0.875000000000002
40
0.875000000000002
40
1
40
1
40
1
40
1
41
1
10
24.0263431046987
20
6.52716893807536
30
0
41
1
10
24.0167711416309
20
6.57034527328196
30
0
41
1
10
24.0036580145909
20
6.6129305018099
30
0
41
1
10
23.9699515967299
20
6.69473521625073
30
0
41
1
10
23.9493621227543
20
6.73420185478548
30
0
41
1
10
23.8982413449495
20
6.80550094252601
30
0
41
1
10
23.8676972087499
20
6.83786175581147
30
0
41
1
10
23.8121218163291
20
6.86679643071031
30
0
41
1
10
23.7917237674025
20
6.87268401565998
30
0
41
1
10
23.7523698410543
20
6.87212671591013
30
0
41
1
10
23.7335892661014
20
6.8656950817342
30
0
41
1
10
23.7175745563991
20
6.85466448986512
30
0
0
SPLINE
5
108
100
AcDbEntity
8
1
62
256
6
ByLayer
370
18
48
1
60
0
100
AcDbSpline
70
4
71
3
72
8
73
4
40
0
40
0
40
0
40
0
40
1
40
1
40
1
40
1
41
1
10
21.697893173384
20
7.49146758385118
30
0
41
1
10
21.7025043449778
20
7.48665183598874
30
0
41
1
10
21.7071161055882
20
7.48183547297776
30
0
41
1
10
21.7117284781775
20
7.47701847083721
30
0
0
SPLINE
5
109
100
AcDbEntity
8
1
62
256
6
ByLayer
370
18
48
1
60
0
100
AcDbSpline
70
4
71
3
72
16
73
12
40
0
40
0
40
0
40
0
40
0.124999999999997
40
0.124999999999997
40
0.249999999999995
40
0.249999999999995
40
0.499999999999997
40
0.499999999999997
40
0.749999999999998
40
0.749999999999998
40
1
40
1
40
1
40
1
41
1
10
23.1931220608292
20
7.42700395668754
30
0
41
1
10
23.2054604154265
20
7.44194061499431
30
0
41
1
10
23.2134740451953
20
7.45997979646469
30
0
41
1
10
23.2175506921717
20
7.4988725961492
30
0
41
1
10
23.2136492944157
20
7.5194733415459
30
0
41
1
10
23.1896625745774
20
7.57789255021558
30
0
41
1
10
23.1600316229756
20
7.6111356188589
30
0
41
1
10
23.093323829122
20
7.66841717658542
30
0
41
1
10
23.0558248539381
20
7.69234661263803
30
0
41
1
10
22.9771788041318
20
7.733098489697
30
0
41
1
10
22.9359906554126
20
7.7498328574795
30
0
41
1
10
22.8937836806518
20
7.76314066550387
30
0
0
SPLINE
5
10A
100
AcDbEntity
8
1
62
256
6
ByLayer
370
18
48
1
60
0
100
AcDbSpline
70
4
71
3
72
8
73
4
40
0
40
0
40
0
40
0
40
1
40
1
40
1
40
1
41
1
10
23.0676324785482
20
4.85164066770184
30
0
41
1
10
23.0722448511375
20
4.84682366556129
30
0
41
1
10
23.0768566117478
20
4.84200730255031
30
0
41
1
10
23.0814677833416
20
4.83719155468788
30
0
0
LINE
5
70
100
AcDbEntity
8
81
62
256
6
ByLayer
370
18
48
1
60
0
100
AcDbLine
10
32
20
15.0375
30
0
11
37
21
15.0375
31
0
39
0
210
0
220
0
230
1
0
LINE
5
71
100
AcDbEntity
8
80
62
256
6
ByLayer
370
18
48
1
60
0
100
AcDbLine
10
0
20
0
30
0
11
-10
21
0
31
0
39
0
210
0
220
0
230
1
0
LINE
5
72
100
AcDbEntity
8
1
62
256
6
ByLayer
370
18
48
1
60
0
100
AcDbLine
10
22.03654
20
-2.010763
30
0
11
21.977356
21
-2.054158
31
0
39
0
210
0
220
0
230
1
0
LINE
5
74
100
AcDbEntity
8
1
62
256
6
ByLayer
370
18
48
1
60
0
100
AcDbLine
10
24.569434
20
-6.191113
30
0
11
25.050358
21
-7.024099
31
0
39
0
210
0
220
0
230
1
0
LINE
5
75
100
AcDbEntity
8
1
62
256
6
ByLayer
370
18
48
1
60
0
100
AcDbLine
10
14.16653
20
6.469863
30
0
11
14.214919
21
6.525039
31
0
39
0
210
0
220
0
230
1
0
LINE
5
76
100
AcDbEntity
8
1
62
256
6
ByLayer
370
18
48
1
60
0
100
AcDbLine
10
14.606636
20
6.250568
30
0
11
21.797254
21
-1.596614
31
0
39
0
210
0
220
0
230
1
0
LINE
5
77
100
AcDbEntity
8
1
62
256
6
ByLayer
370
18
48
1
60
0
100
AcDbLine
10
9.225135
20
10.145121
30
0
11
10.271186
21
9.412668
31
0
39
0
210
0
220
0
230
1
0
LINE
5
78
100
AcDbEntity
8
1
62
256
6
ByLayer
370
18
48
1
60
0
100
AcDbLine
10
25.057955
20
-6.937258
30
0
11
24.651612
21
-6.233451
31
0
39
0
210
0
220
0
230
1
0
LINE
5
79
100
AcDbEntity
8
1
62
256
6
ByLayer
370
18
48
1
60
0
100
AcDbLine
10
10.236217
20
9.498192
30
0
11
9.312539
21
10.144958
31
0
39
0
210
0
220
0
230
1
0
LINE
5
7A
100
AcDbEntity
8
1
62
256
6
ByLayer
370
18
48
1
60
0
100
AcDbLine
10
25.057955
20
-6.937258
30
0
11
25.114569
21
-6.290158
31
0
39
0
210
0
220
0
230
1
0
LINE
5
7B
100
AcDbEntity
8
1
62
256
6
ByLayer
370
18
48
1
60
0
100
AcDbLine
10
10.186578
20
10.143337
30
0
11
10.264644
21
10.088675
31
0
39
0
210
0
220
0
230
1
0
LINE
5
7C
100
AcDbEntity
8
1
62
256
6
ByLayer
370
18
48
1
60
0
100
AcDbLine
10
17.321274
20
3.554504
30
0
11
17.230119
21
3.470975
31
0
39
0
210
0
220
0
230
1
0
LINE
5
7D
100
AcDbEntity
8
1
62
256
6
ByLayer
370
18
48
1
60
0
100
AcDbLine
10
19.25689
20
1.259143
30
0
11
19.348045
21
1.342672
31
0
39
0
210
0
220
0
230
1
0
LINE
5
7E
100
AcDbEntity
8
1
62
256
6
ByLayer
370
18
48
1
60
0
100
AcDbLine
10
10.186578
20
10.143337
30
0
11
10.291935
21
10.143141
31
0
39
0
210
0
220
0
230
1
0
LINE
5
7F
100
AcDbEntity
8
1
62
256
6
ByLayer
370
18
48
1
60
0
100
AcDbLine
10
10.186578
20
10.143337
30
0
11
9.312539
21
10.144958
31
0
39
0
210
0
220
0
230
1
0
LINE
5
80
100
AcDbEntity
8
1
62
256
6
ByLayer
370
18
48
1
60
0
100
AcDbLine
10
8.910784
20
-7.647264
30
0
11
8.610387
21
-7.082238
31
0
39
0
210
0
220
0
230
1
0
LINE
5
81
100
AcDbEntity
8
1
62
256
6
ByLayer
370
18
48
1
60
0
100
AcDbLine
10
16.076319
20
0.458272
30
0
11
15.583107
21
0.150103
31
0
39
0
210
0
220
0
230
1
0
LINE
5
82
100
AcDbEntity
8
1
62
256
6
ByLayer
370
18
48
1
60
0
100
AcDbLine
10
12.795742
20
4.057846
30
0
11
13.247695
21
4.423857
31
0
39
0
210
0
220
0
230
1
0
LINE
5
83
100
AcDbEntity
8
1
62
256
6
ByLayer
370
18
48
1
60
0
100
AcDbLine
10
14.16653
20
6.469863
30
0
11
8.916901
21
10.145693
31
0
39
0
210
0
220
0
230
1
0
LINE
5
84
100
AcDbEntity
8
1
62
256
6
ByLayer
370
18
48
1
60
0
100
AcDbLine
10
25.030535
20
-7.250678
30
0
11
25.050358
21
-7.024099
31
0
39
0
210
0
220
0
230
1
0
LINE
5
85
100
AcDbEntity
8
1
62
256
6
ByLayer
370
18
48
1
60
0
100
AcDbLine
10
25.030535
20
-7.250678
30
0
11
24.98067
21
-7.25605
31
0
39
0
210
0
220
0
230
1
0
LINE
5
86
100
AcDbEntity
8
1
62
256
6
ByLayer
370
18
48
1
60
0
100
AcDbLine
10
15.09266
20
-2.836392
30
0
11
15.460619
21
-3.285569
31
0
39
0
210
0
220
0
230
1
0
LINE
5
87
100
AcDbEntity
8
1
62
256
6
ByLayer
370
18
48
1
60
0
100
AcDbLine
10
2.163793
20
1.453279
30
0
11
3.250891
21
0.287615
31
0
39
0
210
0
220
0
230
1
0
LINE
5
88
100
AcDbEntity
8
1
62
256
6
ByLayer
370
18
48
1
60
0
100
AcDbLine
10
3.250891
20
0.287615
30
0
11
3.687333
21
-0.180371
31
0
39
0
210
0
220
0
230
1
0
LINE
5
89
100
AcDbEntity
8
1
62
256
6
ByLayer
370
18
48
1
60
0
100
AcDbLine
10
8.67038
20
6.417042
30
0
11
9.507371
21
5.060576
31
0
39
0
210
0
220
0
230
1
0
LINE
5
8A
100
AcDbEntity
8
1
62
256
6
ByLayer
370
18
48
1
60
0
100
AcDbLine
10
8.910784
20
-7.647264
30
0
11
9.584617
21
-8.914696
31
0
39
0
210
0
220
0
230
1
0
LINE
5
8B
100
AcDbEntity
8
1
62
256
6
ByLayer
370
18
48
1
60
0
100
AcDbLine
10
10.003121
20
-8.86961
30
0
11
24.98067
21
-7.25605
31
0
39
0
210
0
220
0
230
1
0
LINE
5
8C
100
AcDbEntity
8
1
62
256
6
ByLayer
370
18
48
1
60
0
100
AcDbLine
10
9.312539
20
10.144958
30
0
11
9.225135
21
10.145121
31
0
39
0
210
0
220
0
230
1
0
LINE
5
8D
100
AcDbEntity
8
1
62
256
6
ByLayer
370
18
48
1
60
0
100
AcDbLine
10
9.507371
20
5.060576
30
0
11
9.812281
21
4.566426
31
0
39
0
210
0
220
0
230
1
0
LINE
5
8E
100
AcDbEntity
8
1
62
256
6
ByLayer
370
18
48
1
60
0
100
AcDbLine
10
16.076319
20
0.458272
30
0
11
17.428062
21
1.30287
31
0
39
0
210
0
220
0
230
1
0
LINE
5
8F
100
AcDbEntity
8
1
62
256
6
ByLayer
370
18
48
1
60
0
100
AcDbLine
10
15.460619
20
-3.285569
30
0
11
16.470684
21
-4.518582
31
0
39
0
210
0
220
0
230
1
0
LINE
5
90
100
AcDbEntity
8
1
62
256
6
ByLayer
370
18
48
1
60
0
100
AcDbLine
10
0
20
-9.947265
30
0
11
0
21
10.162238
31
0
39
0
210
0
220
0
230
1
0
LINE
5
91
100
AcDbEntity
8
1
62
256
6
ByLayer
370
18
48
1
60
0
100
AcDbLine
10
0
20
-9.947265
30
0
11
4.489409
21
-9.463612
31
0
39
0
210
0
220
0
230
1
0
LINE
5
92
100
AcDbEntity
8
1
62
256
6
ByLayer
370
18
48
1
60
0
100
AcDbLine
10
14.486363
20
5.426981
30
0
11
13.247695
21
4.423857
31
0
39
0
210
0
220
0
230
1
0
LINE
5
93
100
AcDbEntity
8
1
62
256
6
ByLayer
370
18
48
1
60
0
100
AcDbLine
10
19.119216
20
1.399961
30
0
11
17.358402
21
3.321553
31
0
39
0
210
0
220
0
230
1
0
LINE
5
94
100
AcDbEntity
8
1
62
256
6
ByLayer
370
18
48
1
60
0
100
AcDbLine
10
24.98067
20
-7.25605
30
0
11
21.977356
21
-2.054158
31
0
39
0
210
0
220
0
230
1
0
LINE
5
95
100
AcDbEntity
8
1
62
256
6
ByLayer
370
18
48
1
60
0
100
AcDbLine
10
17.267484
20
3.420772
30
0
11
17.358402
21
3.321553
31
0
39
0
210
0
220
0
230
1
0
LINE
5
96
100
AcDbEntity
8
1
62
256
6
ByLayer
370
18
48
1
60
0
100
AcDbLine
10
19.119216
20
1.399961
30
0
11
19.210135
21
1.300741
31
0
39
0
210
0
220
0
230
1
0
LINE
5
97
100
AcDbEntity
8
1
62
256
6
ByLayer
370
18
48
1
60
0
100
AcDbLine
10
25.050358
20
-7.024099
30
0
11
25.057955
21
-6.937258
31
0
39
0
210
0
220
0
230
1
0
LINE
5
98
100
AcDbEntity
8
1
62
256
6
ByLayer
370
18
48
1
60
0
100
AcDbLine
10
21.977356
20
-2.054158
30
0
11
14.16653
21
6.469863
31
0
39
0
210
0
220
0
230
1
0
LINE
5
99
100
AcDbEntity
8
1
62
256
6
ByLayer
370
18
48
1
60
0
100
AcDbLine
10
0
20
10.162238
30
0
11
8.916901
21
10.145693
31
0
39
0
210
0
220
0
230
1
0
LINE
5
9A
100
AcDbEntity
8
1
62
256
6
ByLayer
370
18
48
1
60
0
100
AcDbLine
10
9.225135
20
10.145121
30
0
11
8.916901
21
10.145693
31
0
39
0
210
0
220
0
230
1
0
LINE
5
9B
100
AcDbEntity
8
SK1
62
256
6
ByLayer
370
18
48
1
60
0
100
AcDbLine
10
-66
20
9.9625
30
0
11
-69
21
6.9625
31
0
39
0
210
0
220
0
230
1
0
LINE
5
9D
100
AcDbEntity
8
SK1
62
256
6
ByLayer
370
18
48
1
60
0
100
AcDbLine
10
-66
20
9.9625
30
0
11
-1.29241
21
9.9625
31
0
39
0
210
0
220
0
230
1
0
LINE
5
9E
100
AcDbEntity
8
SK1
62
256
6
ByLayer
370
18
48
1
60
0
100
AcDbLine
10
-0.141419
20
-9.9625
30
0
11
0
21
-9.947265
31
0
39
0
210
0
220
0
230
1
0
LINE
5
9F
100
AcDbEntity
8
SK1
62
256
6
ByLayer
370
18
48
1
60
0
100
AcDbLine
10
-1.29241
20
-9.9625
30
0
11
-0.589292
21
-9.9625
31
0
39
0
210
0
220
0
230
1
0
LINE
5
A0
100
AcDbEntity
8
SK1
62
256
6
ByLayer
370
18
48
1
60
0
100
AcDbLine
10
-69
20
6.9625
30
0
11
-69
21
-6.9625
31
0
39
0
210
0
220
0
230
1
0
LINE
5
A1
100
AcDbEntity
8
SK1
62
256
6
ByLayer
370
18
48
1
60
0
100
AcDbLine
10
-0.542786
20
10.163245
30
0
11
0
21
10.162238
31
0
39
0
210
0
220
0
230
1
0
LINE
5
A2
100
AcDbEntity
8
SK1
62
256
6
ByLayer
370
18
48
1
60
0
100
AcDbLine
10
0
20
-9.947265
30
0
11
0
21
10.162238
31
0
39
0
210
0
220
0
230
1
0
LINE
5
A3
100
AcDbEntity
8
SK1
62
256
6
ByLayer
370
18
48
1
60
0
100
AcDbLine
10
-0.141419
20
-9.9625
30
0
11
-0.589292
21
-9.9625
31
0
39
0
210
0
220
0
230
1
0
LINE
5
A4
100
AcDbEntity
8
SK1
62
256
6
ByLayer
370
18
48
1
60
0
100
AcDbLine
10
-66
20
-9.9625
30
0
11
-69
21
-6.9625
31
0
39
0
210
0
220
0
230
1
0
LINE
5
A5
100
AcDbEntity
8
SK1
62
256
6
ByLayer
370
18
48
1
60
0
100
AcDbLine
10
-66
20
-9.9625
30
0
11
-1.29241
21
-9.9625
31
0
39
0
210
0
220
0
230
1
0
LINE
5
A6
100
AcDbEntity
8
SK1
62
256
6
ByLayer
370
18
48
1
60
0
100
AcDbLine
10
-0.589292
20
-9.9625
30
0
11
-0.589292
21
10.1375
31
0
39
0
210
0
220
0
230
1
0
LINE
5
A7
100
AcDbEntity
8
SK1
62
256
6
ByLayer
370
18
48
1
60
0
100
AcDbLine
10
-1.29241
20
9.9625
30
0
11
-1.29241
21
-9.9625
31
0
39
0
210
0
220
0
230
1
0
LINE
5
A8
100
AcDbEntity
8
1
62
256
6
ByLayer
370
13
48
1
60
0
100
AcDbLine
10
31.89282
20
13.8375
30
0
11
29.429531
21
9.570958
31
0
39
0
210
0
220
0
230
1
0
LINE
5
A9
100
AcDbEntity
8
1
62
256
6
ByLayer
370
13
48
1
60
0
100
AcDbLine
10
20.789997
20
-0.230952
30
0
11
15.879313
21
5.128119
31
0
39
0
210
0
220
0
230
1
0
LINE
5
AA
100
AcDbEntity
8
1
62
256
6
ByLayer
370
13
48
1
60
0
100
AcDbLine
10
17.651046
20
10.747337
30
0
11
24.74748
21
12.320578
31
0
39
0
210
0
220
0
230
1
0
LINE
5
AB
100
AcDbEntity
8
1
62
256
6
ByLayer
370
13
48
1
60
0
100
AcDbLine
10
26.396909
20
12.880484
30
0
11
30.861905
21
14.962546
31
0
39
0
210
0
220
0
230
1
0
LINE
5
AC
100
AcDbEntity
8
1
62
256
6
ByLayer
370
13
48
1
60
0
100
AcDbLine
10
28.727999
20
7.976604
30
0
11
26.542249
21
1.044291
31
0
39
0
210
0
220
0
230
1
0
LINE
5
AD
100
AcDbEntity
8
1
62
256
6
ByLayer
370
13
48
1
60
0
100
AcDbLine
10
14.569706
20
6.276614
30
0
11
10.534089
21
9.102383
31
0
39
0
210
0
220
0
230
1
0
LINE
5
AE
100
AcDbEntity
8
1
62
256
6
ByLayer
370
13
48
1
60
0
100
AcDbLine
10
24.283271
20
-5.902216
30
0
11
21.819982
21
-1.635674
31
0
39
0
210
0
220
0
230
1
0
LINE
5
AF
100
AcDbEntity
8
1
62
256
6
ByLayer
370
13
48
1
60
0
100
AcDbLine
10
26.202427
20
-0.664109
30
0
11
25.773047
21
-5.571941
31
0
39
0
210
0
220
0
230
1
0
LINE
5
B0
100
AcDbEntity
8
1
62
256
6
ByLayer
370
13
48
1
60
0
100
AcDbLine
10
10.99295
20
10.557705
30
0
11
15.919529
21
10.557705
31
0
39
0
210
0
220
0
230
1
0
LINE
5
B1
100
AcDbEntity
8
2
62
256
6
ByLayer
370
18
48
1
60
1
100
AcDbLine
10
32
20
13.626295
30
0
11
32
21
13.625295
31
0
39
0
210
0
220
0
230
1
0
LINE
5
B3
100
AcDbEntity
8
2
62
256
6
ByLayer
370
18
48
1
60
1
100
AcDbLine
10
29.979539
20
9.727252
30
0
11
29.979116
21
9.726345
31
0
39
0
210
0
220
0
230
1
0
MTEXT
5
10B
100
AcDbEntity
8
SK6
62
256
6
ByLayer
370
13
48
1
60
0
100
AcDbMText
10
-68.089743
20
-26.88976
30
0
210
0
220
0
230
1
1
\W0.7332;QS-CP-30AR-2020-11C
40
3.5
41
0
44
1.084337
50
0
71
7
72
5
7
iso_b_vert
0
DIMENSION
5
11D
100
AcDbEntity
8
SK2
62
256
6
ByLayer
370
13
48
1
60
0
100
AcDbDimension
2
DimnDraft3D1
10
-69
20
35.5375
30
0
11
-18.5
21
35.5375
31
0
70
32
71
5
72
1
41
1
210
0
220
0
230
1
3
Standard
100
AcDbAlignedDimension
13
32
23
16.625
33
0
14
-69
24
11.55
34
0
50
0
100
AcDbRotatedDimension
1001
ACAD
1000
DSTYLE
1002
{
1070
   279
1070
     0
1070
   172
1070
     1
1070
   173
1070
     1
1070
   340
1005
10C
1070
   271
1070
     1
1070
   272
1070
     2
1070
    77
1070
     1
1070
    73
1070
     0
1070
   171
1070
     3
1070
   274
1070
     4
1070
   177
1070
   150
1070
   176
1070
     9
1070
   178
1070
    43
1070
    78
1070
     8
1070
    48
1040
-0.005
1070
    41
1041
3.175
1070
   147
1041
2.25
1070
    42
1041
1.5875
1070
    44
1041
3.175
1070
   140
1041
4.5
1070
   343
1005
11E
1070
   344
1005
11E
1002
}
0
DIMENSION
5
132
100
AcDbEntity
8
2
62
256
6
ByLayer
370
13
48
1
60
0
100
AcDbDimension
2
DimnDraft3D2
10
32
20
-25.81255
30
0
11
16
21
-25.81255
31
0
70
32
71
5
72
1
41
1
210
0
220
0
230
1
3
Standard
100
AcDbAlignedDimension
13
0
23
-11.55
33
0
14
32
24
13.45
34
0
50
0
100
AcDbRotatedDimension
1001
ACAD
1000
DSTYLE
1002
{
1070
   279
1070
     0
1070
   172
1070
     1
1070
   173
1070
     1
1070
   340
1005
10C
1070
   271
1070
     1
1070
   272
1070
     2
1070
    77
1070
     1
1070
    73
1070
     0
1070
   171
1070
     3
1070
   274
1070
     4
1070
   177
1070
   150
1070
   176
1070
     9
1070
   178
1070
    43
1070
    78
1070
     8
1070
    48
1040
-0.005
1070
    41
1041
3.175
1070
   147
1041
2.25
1070
    42
1041
1.5875
1070
    44
1041
3.175
1070
   140
1041
4.5
1070
   343
1005
11E
1070
   344
1005
11E
1002
}
0
DIMENSION
5
140
100
AcDbEntity
8
SK2
62
256
6
ByLayer
370
13
48
1
60
0
100
AcDbDimension
2
DimnDraft3D3
10
-78.10005
20
-9.9625
30
0
11
-78.10005
21
0
31
0
70
32
71
5
72
1
41
1
210
0
220
0
230
1
3
Standard
100
AcDbAlignedDimension
13
-70.5875
23
9.9625
33
0
14
-70.5875
24
-9.9625
34
0
50
90
100
AcDbRotatedDimension
1001
ACAD
1000
DSTYLE
1002
{
1070
    74
1070
     0
1070
   279
1070
     0
1070
   172
1070
     1
1070
   173
1070
     1
1070
   340
1005
10C
1070
   271
1070
     1
1070
   272
1070
     2
1070
    77
1070
     1
1070
    73
1070
     0
1070
   171
1070
     3
1070
   274
1070
     4
1070
   177
1070
   150
1070
   176
1070
     9
1070
   178
1070
    43
1070
    78
1070
     8
1070
    48
1040
-0.005
1070
    41
1041
3.175
1070
   147
1041
2.25
1070
    42
1041
1.5875
1070
    44
1041
3.175
1070
   140
1041
4.5
1070
   343
1005
11E
1070
   344
1005
11E
1002
}
0
DIMENSION
5
14E
100
AcDbEntity
8
2
62
256
6
ByLayer
370
13
48
1
60
0
100
AcDbDimension
2
DimnDraft3D4
10
52.85
20
15.0375
30
0
11
52.85
21
2.5375
31
0
70
32
71
5
72
1
41
1
210
0
220
0
230
1
3
Standard
100
AcDbAlignedDimension
13
1.5875
23
-9.9625
33
0
14
33.5875
24
15.0375
34
0
50
90
100
AcDbRotatedDimension
1001
ACAD
1000
DSTYLE
1002
{
1070
    74
1070
     0
1070
   279
1070
     0
1070
   172
1070
     1
1070
   173
1070
     1
1070
   340
1005
10C
1070
   271
1070
     1
1070
   272
1070
     2
1070
    77
1070
     1
1070
    73
1070
     0
1070
   171
1070
     3
1070
   274
1070
     4
1070
   177
1070
   150
1070
   176
1070
     9
1070
   178
1070
    43
1070
    78
1070
     8
1070
    48
1040
-0.005
1070
    41
1041
3.175
1070
   147
1041
2.25
1070
    42
1041
1.5875
1070
    44
1041
3.175
1070
   140
1041
4.5
1070
   343
1005
11E
1070
   344
1005
11E
1002
}
0
DIMENSION
5
15D
100
AcDbEntity
8
2
62
256
6
ByLayer
370
13
48
1
60
0
100
AcDbDimension
2
DimnDraft3D5
10
29.979116
20
9.726345
30
0
11
46.518621
21
-11.562571
31
0
70
34
71
5
72
1
41
1
210
0
220
0
230
1
3
Standard
100
AcDb2LineAngularDimension
13
32
23
13.626295
33
0
14
32
24
13.625295
34
0
15
29.979539
25
9.727252
35
0
16
24.651833
26
-19.085294
36
0
40
0
0
ENDSEC
0
SECTION
2
OBJECTS
0
DICTIONARY
5
1c7
330
0
100
AcDbDictionary
280
0
281
1
3
ACAD_GROUP
350
1c8
3
ACAD_MLINESTYLE
350
1c9
0
DICTIONARY
5
1c8
330
0
100
AcDbDictionary
280
0
281
1
0
DICTIONARY
5
1c9
330
0
100
AcDbDictionary
280
0
281
1
3
Standard
350
18
0
MLINESTYLE
5
18
330
1c9
100
AcDbMlineStyle
2
Standard
70
0
3

62
256
51
90
52
90
71
2
49
-0.5
62
256
6
ByLayer
49
0.5
62
256
6
ByLayer
0
RASTERVARIABLES
5
1b6
330

100
AcDbRasterVariables
90
0
70
1
71
1
72
1
0
ENDSEC
0
EOF
