0
SECTION
2
HEADER
9
$ACADVER
1
AC1015
9
$DWGCODEPAGE
3
ANSI_1252
9
$HANDSEED
5
1cf
9
$ANGBASE
50
0
9
$ANGDIR
70
0
9
$ATTMODE
70
1
9
$AUNITS
70
0
9
$AUPREC
70
0
9
$CECOLOR
62
256
9
$CELTSCALE
40
1
9
$CELTYPE
6
ByLayer
9
$CELWEIGHT
370
18
9
$CLAYER
8
0
9
$CMLJUST
70
0
9
$CMLSCALE
40
1
9
$CMLSTYLE
2
Standard
9
$DIMSTYLE
2
Standard
9
$TEXTSIZE
40
0.2
9
$TEXTSTYLE
7
Standard
9
$LUNITS
70
2
9
$LUPREC
70
4
9
$EXTNAMES
290
1
9
$INSUNITS
70
4
9
$LTSCALE
40
1
9
$LWDISPLAY
290
1
9
$PDMODE
70
0
9
$PDSIZE
40
0
9
$PLINEGEN
70
0
0
ENDSEC
0
SECTION
2
CLASSES
0
CLASS
1
RASTERVARIABLES
2
AcDbRasterVariables
3
ISM
90
0
280
0
281
0
0
ENDSEC
0
SECTION
2
TABLES
0
TABLE
2
VPORT
5
1c5
100
AcDbSymbolTable
0
VPORT
5
1
100
AcDbSymbolTableRecord
100
AcDbViewportTableRecord
2
*Active
70
0
10
0
20
0
11
1
21
1
12
-1
22
1
13
0
23
0
14
0.5
24
0.5
15
10
25
10
16
0
26
0
36
1
17
0
27
0
37
0
0
ENDTAB
0
TABLE
2
LTYPE
5
1c6
100
AcDbSymbolTable
0
LTYPE
5
14
100
AcDbSymbolTableRecord
100
AcDbLinetypeTableRecord
70
0
2
ByBlock
3

72
65
73
0
40
0
0
LTYPE
5
15
100
AcDbSymbolTableRecord
100
AcDbLinetypeTableRecord
70
0
2
ByLayer
3

72
65
73
0
40
0
0
LTYPE
5
16
100
AcDbSymbolTableRecord
100
AcDbLinetypeTableRecord
70
0
2
CONTINUOUS
3
Solid line
72
65
73
0
40
0
0
LTYPE
5
6A
100
AcDbSymbolTableRecord
100
AcDbLinetypeTableRecord
70
0
2
CENTER
3
____ _ ____ _ ____ _ ____
72
65
73
4
40
47.5
49
22
74
0
49
-8.5
74
0
49
8.5
74
0
49
-8.5
74
0
0
LTYPE
5
6B
100
AcDbSymbolTableRecord
100
AcDbLinetypeTableRecord
70
0
2
DASHED
3
__ __ __ __ __ __ __ __ __
72
65
73
2
40
25.72
49
12.86
74
0
49
-12.86
74
0
0
ENDTAB
0
TABLE
2
LAYER
5
1c7
100
AcDbSymbolTable
0
LAYER
5
10
100
AcDbSymbolTableRecord
100
AcDbLayerTableRecord
2
0
70
0
62
7
6
CONTINUOUS
290
1
370
-3
390
0
0
LAYER
5
6D
100
AcDbSymbolTableRecord
100
AcDbLayerTableRecord
2
80
70
0
62
-6
6
CONTINUOUS
290
1
370
-3
390
0
0
LAYER
5
6F
100
AcDbSymbolTableRecord
100
AcDbLayerTableRecord
2
81
70
0
62
-3
6
CONTINUOUS
290
1
370
-3
390
0
0
LAYER
5
73
100
AcDbSymbolTableRecord
100
AcDbLayerTableRecord
2
1
70
0
62
4
6
CONTINUOUS
290
1
370
-3
390
0
0
LAYER
5
AF
100
AcDbSymbolTableRecord
100
AcDbLayerTableRecord
2
2
70
0
62
7
6
CONTINUOUS
290
1
370
-3
390
0
0
LAYER
5
1b2
100
AcDbSymbolTableRecord
100
AcDbLayerTableRecord
2
SK1
70
0
62
4
6
CONTINUOUS
290
1
370
-3
390
0
0
LAYER
5
1b3
100
AcDbSymbolTableRecord
100
AcDbLayerTableRecord
2
SK6
70
0
62
5
6
CONTINUOUS
290
1
370
-3
390
0
0
LAYER
5
1b4
100
AcDbSymbolTableRecord
100
AcDbLayerTableRecord
2
SK2
70
0
62
7
6
CONTINUOUS
290
1
370
-3
390
0
0
ENDTAB
0
TABLE
2
STYLE
5
1c8
100
AcDbSymbolTable
0
STYLE
5
11
100
AcDbSymbolTableRecord
100
AcDbTextStyleTableRecord
2
Standard
3
txt
70
0
71
0
40
0
41
1
42
0
50
0
0
STYLE
5
108
100
AcDbSymbolTableRecord
100
AcDbTextStyleTableRecord
2
iso_b_vert
3
simplex.shx
70
0
71
0
40
0
41
1
42
0
50
0
0
STYLE
5
109
100
AcDbSymbolTableRecord
100
AcDbTextStyleTableRecord
2
DWGDirectTextStyle
3
simplex
70
0
71
0
40
0
41
1
42
0
50
0
0
ENDTAB
0
TABLE
2
DIMSTYLE
5
1c9
100
AcDbSymbolTable
100
AcDbDimStyleTable
0
DIMSTYLE
105
27
100
AcDbSymbolTableRecord
100
AcDbDimStyleTableRecord
2
Standard
70
0
3
<>
41
0.18
42
0.0625
44
0.18
140
0.18
147
0.09
73
0
74
0
77
1
271
2
275
0
278
52
280
0
340
11
0
ENDTAB
0
TABLE
2
VIEW
5
1ca
100
AcDbSymbolTable
0
ENDTAB
0
TABLE
2
UCS
5
1cb
100
AcDbSymbolTable
0
ENDTAB
0
TABLE
2
APPID
5
1cc
100
AcDbSymbolTable
0
APPID
5
12
100
AcDbSymbolTableRecord
100
AcDbRegAppTableRecord
2
ACAD
70
0
0
ENDTAB
0
TABLE
2
BLOCK_RECORD
5
1cd
100
AcDbSymbolTable
0
BLOCK_RECORD
5
1F
100
AcDbSymbolTableRecord
100
AcDbBlockTableRecord
2
*Model_Space
340
0
70
0
0
BLOCK_RECORD
5
1B
100
AcDbSymbolTableRecord
100
AcDbBlockTableRecord
2
*Paper_Space
340
0
70
0
0
BLOCK_RECORD
5
23
100
AcDbSymbolTableRecord
100
AcDbBlockTableRecord
2
*Paper_Space0
340
0
70
0
0
BLOCK_RECORD
5
10B
100
AcDbSymbolTableRecord
100
AcDbBlockTableRecord
2
DimnDraft3D1
340
0
70
0
0
BLOCK_RECORD
5
11A
100
AcDbSymbolTableRecord
100
AcDbBlockTableRecord
2
_CLOSED
340
0
70
0
0
BLOCK_RECORD
5
121
100
AcDbSymbolTableRecord
100
AcDbBlockTableRecord
2
DimnDraft3D2
340
0
70
0
0
BLOCK_RECORD
5
12F
100
AcDbSymbolTableRecord
100
AcDbBlockTableRecord
2
DimnDraft3D3
340
0
70
0
0
BLOCK_RECORD
5
13D
100
AcDbSymbolTableRecord
100
AcDbBlockTableRecord
2
DimnDraft3D4
340
0
70
0
0
BLOCK_RECORD
5
14B
100
AcDbSymbolTableRecord
100
AcDbBlockTableRecord
2
DimnDraft3D5
340
0
70
0
0
ENDTAB
0
ENDSEC
0
SECTION
2
BLOCKS
0
BLOCK
5
20
100
AcDbEntity
8
0
100
AcDbBlockBegin
2
*Model_Space
70
0
10
0
20
0
30
0
3
*Model_Space
0
ENDBLK
5
21
100
AcDbEntity
8
0
100
AcDbBlockEnd
0
BLOCK
5
1C
100
AcDbEntity
8
0
100
AcDbBlockBegin
2
*Paper_Space
70
0
10
0
20
0
30
0
3
*Paper_Space
0
ENDBLK
5
1D
100
AcDbEntity
8
0
100
AcDbBlockEnd
0
BLOCK
5
24
100
AcDbEntity
8
0
100
AcDbBlockBegin
2
*Paper_Space0
70
0
10
0
20
0
30
0
3
*Paper_Space0
0
ENDBLK
5
25
100
AcDbEntity
8
0
100
AcDbBlockEnd
0
BLOCK
5
117
100
AcDbEntity
8
0
100
AcDbBlockBegin
2
DimnDraft3D1
70
0
10
0
20
0
30
0
3
DimnDraft3D1
0
MTEXT
5
10C
100
AcDbEntity
8
SK2
62
256
6
ByLayer
370
13
48
1
60
0
100
AcDbMText
10
-31.95
20
41.1625
30
0
210
0
220
0
230
1
1
\W0.6487;114.0
40
4.5
41
0
44
1.084337
50
0
71
7
72
5
7
iso_b_vert
0
LINE
5
10E
100
AcDbEntity
8
SK2
62
256
6
ByLayer
370
13
48
1
60
0
100
AcDbLine
10
30
20
21.125
30
0
11
30
21
43.2125
31
0
39
0
210
0
220
0
230
1
0
LINE
5
10F
100
AcDbEntity
8
SK2
62
256
6
ByLayer
370
13
48
1
60
0
100
AcDbLine
10
-84
20
14.05
30
0
11
-84
21
43.2125
31
0
39
0
210
0
220
0
230
1
0
LINE
5
110
100
AcDbEntity
8
SK2
62
256
6
ByLayer
370
13
48
1
60
0
100
AcDbLine
10
30
20
40.0375
30
0
11
-84
21
40.0375
31
0
39
0
210
0
220
0
230
1
0
LINE
5
111
100
AcDbEntity
8
SK2
62
256
6
ByLayer
370
13
48
1
60
0
100
AcDbLine
10
30
20
40.0375
30
0
11
26.825003
21
39.186761
31
0
39
0
210
0
220
0
230
1
0
LINE
5
112
100
AcDbEntity
8
SK2
62
256
6
ByLayer
370
13
48
1
60
0
100
AcDbLine
10
30
20
40.0375
30
0
11
26.824997
21
40.888239
31
0
39
0
210
0
220
0
230
1
0
LINE
5
113
100
AcDbEntity
8
SK2
62
256
6
ByLayer
370
13
48
1
60
0
100
AcDbLine
10
26.825003
20
39.186761
30
0
11
26.824997
21
40.888239
31
0
39
0
210
0
220
0
230
1
0
LINE
5
114
100
AcDbEntity
8
SK2
62
256
6
ByLayer
370
13
48
1
60
0
100
AcDbLine
10
-84
20
40.0375
30
0
11
-80.825003
21
40.888239
31
0
39
0
210
0
220
0
230
1
0
LINE
5
115
100
AcDbEntity
8
SK2
62
256
6
ByLayer
370
13
48
1
60
0
100
AcDbLine
10
-84
20
40.0375
30
0
11
-80.824997
21
39.186761
31
0
39
0
210
0
220
0
230
1
0
LINE
5
116
100
AcDbEntity
8
SK2
62
256
6
ByLayer
370
13
48
1
60
0
100
AcDbLine
10
-80.825003
20
40.888239
30
0
11
-80.824997
21
39.186761
31
0
39
0
210
0
220
0
230
1
0
ENDBLK
5
118
100
AcDbEntity
8
0
100
AcDbBlockEnd
0
BLOCK
5
11B
100
AcDbEntity
8
0
100
AcDbBlockBegin
2
_CLOSED
70
0
10
0
20
0
30
0
3
_CLOSED
0
LINE
5
11D
100
AcDbEntity
8
0
62
256
6
ByLayer
370
-2
48
1
60
0
100
AcDbLine
10
-1
20
0.166667
30
0
11
0
21
0
31
0
39
0
210
0
220
0
230
1
0
LINE
5
11E
100
AcDbEntity
8
0
62
256
6
ByLayer
370
-2
48
1
60
0
100
AcDbLine
10
0
20
0
30
0
11
-1
21
-0.166667
31
0
39
0
210
0
220
0
230
1
0
LINE
5
11F
100
AcDbEntity
8
0
62
256
6
ByLayer
370
-2
48
1
60
0
100
AcDbLine
10
-1
20
0.166667
30
0
11
-1
21
-0.166667
31
0
39
0
210
0
220
0
230
1
0
LINE
5
120
100
AcDbEntity
8
0
62
256
6
ByLayer
370
-2
48
1
60
0
100
AcDbLine
10
0
20
0
30
0
11
-1
21
0
31
0
39
0
210
0
220
0
230
1
0
ENDBLK
5
11C
100
AcDbEntity
8
0
100
AcDbBlockEnd
0
BLOCK
5
12C
100
AcDbEntity
8
0
100
AcDbBlockBegin
2
DimnDraft3D2
70
0
10
0
20
0
30
0
3
DimnDraft3D2
0
MTEXT
5
122
100
AcDbEntity
8
2
62
256
6
ByLayer
370
13
48
1
60
0
100
AcDbMText
10
10.843421
20
-27.18755
30
0
210
0
220
0
230
1
1
\W0.7346;30.0
40
4.5
41
0
44
1.084337
50
0
71
7
72
5
7
iso_b_vert
0
LINE
5
123
100
AcDbEntity
8
2
62
256
6
ByLayer
370
13
48
1
60
0
100
AcDbLine
10
0
20
-14.05
30
0
11
0
21
-31.48755
31
0
39
0
210
0
220
0
230
1
0
LINE
5
124
100
AcDbEntity
8
2
62
256
6
ByLayer
370
13
48
1
60
0
100
AcDbLine
10
30
20
17.95
30
0
11
30
21
-31.48755
31
0
39
0
210
0
220
0
230
1
0
LINE
5
125
100
AcDbEntity
8
2
62
256
6
ByLayer
370
13
48
1
60
0
100
AcDbLine
10
0
20
-28.31255
30
0
11
30
21
-28.31255
31
0
39
0
210
0
220
0
230
1
0
LINE
5
126
100
AcDbEntity
8
2
62
256
6
ByLayer
370
13
48
1
60
0
100
AcDbLine
10
0
20
-28.31255
30
0
11
3.174997
21
-27.461811
31
0
39
0
210
0
220
0
230
1
0
LINE
5
127
100
AcDbEntity
8
2
62
256
6
ByLayer
370
13
48
1
60
0
100
AcDbLine
10
0
20
-28.31255
30
0
11
3.175003
21
-29.163289
31
0
39
0
210
0
220
0
230
1
0
LINE
5
128
100
AcDbEntity
8
2
62
256
6
ByLayer
370
13
48
1
60
0
100
AcDbLine
10
3.174997
20
-27.461811
30
0
11
3.175003
21
-29.163289
31
0
39
0
210
0
220
0
230
1
0
LINE
5
129
100
AcDbEntity
8
2
62
256
6
ByLayer
370
13
48
1
60
0
100
AcDbLine
10
30
20
-28.31255
30
0
11
26.825003
21
-29.163289
31
0
39
0
210
0
220
0
230
1
0
LINE
5
12A
100
AcDbEntity
8
2
62
256
6
ByLayer
370
13
48
1
60
0
100
AcDbLine
10
30
20
-28.31255
30
0
11
26.824997
21
-27.461811
31
0
39
0
210
0
220
0
230
1
0
LINE
5
12B
100
AcDbEntity
8
2
62
256
6
ByLayer
370
13
48
1
60
0
100
AcDbLine
10
26.825003
20
-29.163289
30
0
11
26.824997
21
-27.461811
31
0
39
0
210
0
220
0
230
1
0
ENDBLK
5
12D
100
AcDbEntity
8
0
100
AcDbBlockEnd
0
BLOCK
5
13A
100
AcDbEntity
8
0
100
AcDbBlockBegin
2
DimnDraft3D3
70
0
10
0
20
0
30
0
3
DimnDraft3D3
0
MTEXT
5
130
100
AcDbEntity
8
SK2
62
256
6
ByLayer
370
13
48
1
60
0
100
AcDbMText
10
-94.22505
20
-4.156579
30
0
210
0
220
0
230
1
1
\W0.7346;25.0
40
4.5
41
0
44
1.084337
50
90
71
7
72
5
7
iso_b_vert
0
LINE
5
131
100
AcDbEntity
8
SK2
62
256
6
ByLayer
370
13
48
1
60
0
100
AcDbLine
10
-85.5875
20
12.4625
30
0
11
-96.27505
21
12.4625
31
0
39
0
210
0
220
0
230
1
0
LINE
5
132
100
AcDbEntity
8
SK2
62
256
6
ByLayer
370
13
48
1
60
0
100
AcDbLine
10
-85.5875
20
-12.4625
30
0
11
-96.27505
21
-12.4625
31
0
39
0
210
0
220
0
230
1
0
LINE
5
133
100
AcDbEntity
8
SK2
62
256
6
ByLayer
370
13
48
1
60
0
100
AcDbLine
10
-93.10005
20
12.4625
30
0
11
-93.10005
21
-12.4625
31
0
39
0
210
0
220
0
230
1
0
LINE
5
134
100
AcDbEntity
8
SK2
62
256
6
ByLayer
370
13
48
1
60
0
100
AcDbLine
10
-93.10005
20
12.4625
30
0
11
-92.249311
21
9.287503
31
0
39
0
210
0
220
0
230
1
0
LINE
5
135
100
AcDbEntity
8
SK2
62
256
6
ByLayer
370
13
48
1
60
0
100
AcDbLine
10
-93.10005
20
12.4625
30
0
11
-93.950789
21
9.287497
31
0
39
0
210
0
220
0
230
1
0
LINE
5
136
100
AcDbEntity
8
SK2
62
256
6
ByLayer
370
13
48
1
60
0
100
AcDbLine
10
-92.249311
20
9.287503
30
0
11
-93.950789
21
9.287497
31
0
39
0
210
0
220
0
230
1
0
LINE
5
137
100
AcDbEntity
8
SK2
62
256
6
ByLayer
370
13
48
1
60
0
100
AcDbLine
10
-93.10005
20
-12.4625
30
0
11
-93.950789
21
-9.287503
31
0
39
0
210
0
220
0
230
1
0
LINE
5
138
100
AcDbEntity
8
SK2
62
256
6
ByLayer
370
13
48
1
60
0
100
AcDbLine
10
-93.10005
20
-12.4625
30
0
11
-92.249311
21
-9.287497
31
0
39
0
210
0
220
0
230
1
0
LINE
5
139
100
AcDbEntity
8
SK2
62
256
6
ByLayer
370
13
48
1
60
0
100
AcDbLine
10
-93.950789
20
-9.287503
30
0
11
-92.249311
21
-9.287497
31
0
39
0
210
0
220
0
230
1
0
ENDBLK
5
13B
100
AcDbEntity
8
0
100
AcDbBlockEnd
0
BLOCK
5
148
100
AcDbEntity
8
0
100
AcDbBlockBegin
2
DimnDraft3D4
70
0
10
0
20
0
30
0
3
DimnDraft3D4
0
MTEXT
5
13E
100
AcDbEntity
8
2
62
256
6
ByLayer
370
13
48
1
60
0
100
AcDbMText
10
49.725
20
-0.619079
30
0
210
0
220
0
230
1
1
\W0.7346;32.0
40
4.5
41
0
44
1.084337
50
90
71
7
72
5
7
iso_b_vert
0
LINE
5
13F
100
AcDbEntity
8
2
62
256
6
ByLayer
370
13
48
1
60
0
100
AcDbLine
10
1.5875
20
-12.4625
30
0
11
54.025
21
-12.4625
31
0
39
0
210
0
220
0
230
1
0
LINE
5
140
100
AcDbEntity
8
2
62
256
6
ByLayer
370
13
48
1
60
0
100
AcDbLine
10
31.5875
20
19.5375
30
0
11
54.025
21
19.5375
31
0
39
0
210
0
220
0
230
1
0
LINE
5
141
100
AcDbEntity
8
2
62
256
6
ByLayer
370
13
48
1
60
0
100
AcDbLine
10
50.85
20
-12.4625
30
0
11
50.85
21
19.5375
31
0
39
0
210
0
220
0
230
1
0
LINE
5
142
100
AcDbEntity
8
2
62
256
6
ByLayer
370
13
48
1
60
0
100
AcDbLine
10
50.85
20
-12.4625
30
0
11
49.999261
21
-9.287503
31
0
39
0
210
0
220
0
230
1
0
LINE
5
143
100
AcDbEntity
8
2
62
256
6
ByLayer
370
13
48
1
60
0
100
AcDbLine
10
50.85
20
-12.4625
30
0
11
51.700739
21
-9.287497
31
0
39
0
210
0
220
0
230
1
0
LINE
5
144
100
AcDbEntity
8
2
62
256
6
ByLayer
370
13
48
1
60
0
100
AcDbLine
10
49.999261
20
-9.287503
30
0
11
51.700739
21
-9.287497
31
0
39
0
210
0
220
0
230
1
0
LINE
5
145
100
AcDbEntity
8
2
62
256
6
ByLayer
370
13
48
1
60
0
100
AcDbLine
10
50.85
20
19.5375
30
0
11
51.700739
21
16.362503
31
0
39
0
210
0
220
0
230
1
0
LINE
5
146
100
AcDbEntity
8
2
62
256
6
ByLayer
370
13
48
1
60
0
100
AcDbLine
10
50.85
20
19.5375
30
0
11
49.999261
21
16.362497
31
0
39
0
210
0
220
0
230
1
0
LINE
5
147
100
AcDbEntity
8
2
62
256
6
ByLayer
370
13
48
1
60
0
100
AcDbLine
10
51.700739
20
16.362503
30
0
11
49.999261
21
16.362497
31
0
39
0
210
0
220
0
230
1
0
ENDBLK
5
149
100
AcDbEntity
8
0
100
AcDbBlockEnd
0
BLOCK
5
156
100
AcDbEntity
8
0
100
AcDbBlockBegin
2
DimnDraft3D5
70
0
10
0
20
0
30
0
3
DimnDraft3D5
0
MTEXT
5
14C
100
AcDbEntity
8
2
62
256
6
ByLayer
370
13
48
1
60
0
100
AcDbMText
10
17.339991
20
-19.341133
30
0
210
0
220
0
230
1
1
\W0.7346;30.0
40
4.5
41
0
44
1.084337
50
347.500000000422
71
7
72
5
7
iso_b_vert
0
LINE
5
14D
100
AcDbEntity
8
2
62
256
6
ByLayer
370
13
48
1
60
0
100
AcDbLine
10
30
20
16.537795
30
0
11
30
21
-25.482849
31
0
39
0
210
0
220
0
230
1
0
LINE
5
14E
100
AcDbEntity
8
2
62
256
6
ByLayer
370
13
48
1
60
0
100
AcDbLine
10
27.30821
20
12.787582
30
0
11
11.386627
21
-21.356363
31
0
39
0
210
0
220
0
230
1
0
ARC
5
14F
100
AcDbEntity
8
2
62
256
6
ByLayer
370
13
48
1
60
0
100
AcDbCircle
39
0
10
30
20
18.560144
30
0
40
40.8679927987036
210
0
220
0
230
1
100
AcDbArc
50
229.609019
51
285.390981
0
LINE
5
150
100
AcDbEntity
8
2
62
256
6
ByLayer
370
13
48
1
60
0
100
AcDbLine
10
30
20
-22.307849
30
0
11
33.157885
21
-21.395639
31
0
39
0
210
0
220
0
230
1
0
LINE
5
151
100
AcDbEntity
8
2
62
256
6
ByLayer
370
13
48
1
60
0
100
AcDbLine
10
30
20
-22.307849
30
0
11
33.190919
21
-23.096796
31
0
39
0
210
0
220
0
230
1
0
LINE
5
152
100
AcDbEntity
8
2
62
256
6
ByLayer
370
13
48
1
60
0
100
AcDbLine
10
33.157885
20
-21.395639
30
0
11
33.190919
21
-23.096796
31
0
39
0
210
0
220
0
230
1
0
LINE
5
153
100
AcDbEntity
8
2
62
256
6
ByLayer
370
13
48
1
60
0
100
AcDbLine
10
12.72844
20
-18.478836
30
0
11
9.503067
21
-17.845327
31
0
39
0
210
0
220
0
230
1
0
LINE
5
154
100
AcDbEntity
8
2
62
256
6
ByLayer
370
13
48
1
60
0
100
AcDbLine
10
12.72844
20
-18.478836
30
0
11
10.251935
21
-16.317511
31
0
39
0
210
0
220
0
230
1
0
LINE
5
155
100
AcDbEntity
8
2
62
256
6
ByLayer
370
13
48
1
60
0
100
AcDbLine
10
9.503067
20
-17.845327
30
0
11
10.251935
21
-16.317511
31
0
39
0
210
0
220
0
230
1
0
ENDBLK
5
157
100
AcDbEntity
8
0
100
AcDbBlockEnd
0
ENDSEC
0
SECTION
2
ENTITIES
0
ARC
5
B1
100
AcDbEntity
8
1
62
256
6
ByLayer
370
18
48
1
60
0
100
AcDbCircle
39
0
10
33.78483
20
-24.086026
30
0
40
41.4661298784279
210
0
220
0
230
1
100
AcDbArc
50
128.826938
51
139.8617
0
ARC
5
B2
100
AcDbEntity
8
1
62
256
6
ByLayer
370
18
48
1
60
0
100
AcDbCircle
39
0
10
-7.059427
20
-1.550597
30
0
40
4.91377574088158
210
0
220
0
230
-1
100
AcDbArc
50
234.8617
51
40.1383
0
ARC
5
B3
100
AcDbEntity
8
1
62
256
6
ByLayer
370
18
48
1
60
0
100
AcDbCircle
39
0
10
15.119087
20
-21.873461
30
0
40
39.8722183614811
210
0
220
0
230
-1
100
AcDbArc
50
134.007883
51
140.992117
0
ARC
5
B4
100
AcDbEntity
8
1
62
256
6
ByLayer
370
18
48
1
60
0
100
AcDbCircle
39
0
10
-15.119087
20
-21.873461
30
0
40
41.4661298784279
210
0
220
0
230
1
100
AcDbArc
50
39.007883
51
45.992117
0
ARC
5
B5
100
AcDbEntity
8
1
62
256
6
ByLayer
370
18
48
1
60
0
100
AcDbCircle
39
0
10
-13.060975
20
27.0372
30
0
40
41.4661298784279
210
0
220
0
230
1
100
AcDbArc
50
305.1383
51
316.173062
0
ARC
5
B6
100
AcDbEntity
8
1
62
256
6
ByLayer
370
18
48
1
60
0
100
AcDbCircle
39
0
10
-10.586934
20
4.738575
30
0
40
2.87221836148108
210
0
220
0
230
-1
100
AcDbArc
50
51.173062
51
134.007883
0
ARC
5
B7
100
AcDbEntity
8
1
62
256
6
ByLayer
370
18
48
1
60
0
100
AcDbCircle
39
0
10
13.63211
20
1.415349
30
0
40
4.46612987842788
210
0
220
0
230
1
100
AcDbArc
50
316.173062
51
39.007883
0
ARC
5
B8
100
AcDbEntity
8
1
62
256
6
ByLayer
370
18
48
1
60
0
100
AcDbCircle
39
0
10
-13.63211
20
1.415349
30
0
40
2.87221836148108
210
0
220
0
230
-1
100
AcDbArc
50
140.992117
51
223.826938
0
ARC
5
B9
100
AcDbEntity
8
1
62
256
6
ByLayer
370
18
48
1
60
0
100
AcDbCircle
39
0
10
-0.839835
20
13.9625
30
0
40
1.5
210
0
220
0
230
1
100
AcDbArc
50
304.048208
51
345
0
ARC
5
BA
100
AcDbEntity
8
1
62
256
6
ByLayer
370
18
48
1
60
0
100
AcDbCircle
39
0
10
13.060975
20
27.0372
30
0
40
39.8722183614811
210
0
220
0
230
-1
100
AcDbArc
50
223.826938
51
234.8617
0
ARC
5
BB
100
AcDbEntity
8
1
62
256
6
ByLayer
370
18
48
1
60
0
100
AcDbCircle
39
0
10
10.586934
20
4.738575
30
0
40
4.46612987842788
210
0
220
0
230
1
100
AcDbArc
50
45.992117
51
128.826938
0
ARC
5
BC
100
AcDbEntity
8
1
62
256
6
ByLayer
370
18
48
1
60
0
100
AcDbCircle
39
0
10
7.059427
20
-1.550597
30
0
40
6.50768725782837
210
0
220
0
230
1
100
AcDbArc
50
139.8617
51
305.1383
0
ARC
5
BD
100
AcDbEntity
8
1
62
256
6
ByLayer
370
18
48
1
60
0
100
AcDbCircle
39
0
10
-33.78483
20
-24.086026
30
0
40
39.8722183614811
210
0
220
0
230
-1
100
AcDbArc
50
40.1383
51
51.173062
0
ARC
5
BE
100
AcDbEntity
8
SK1
62
256
6
ByLayer
370
18
48
1
60
0
100
AcDbCircle
39
0
10
-0.839835
20
13.9625
30
0
40
1.5
210
0
220
0
230
1
100
AcDbArc
50
297.952887
51
304.048208
0
ARC
5
BF
100
AcDbEntity
8
SK1
62
256
6
ByLayer
370
18
48
1
60
0
100
AcDbCircle
39
0
10
0.839835
20
13.9625
30
0
40
1.50000000001721
210
0
220
0
230
-1
100
AcDbArc
50
242.047113
51
270
0
ARC
5
C0
100
AcDbEntity
8
1
62
256
6
ByLayer
370
18
48
1
60
0
100
AcDbCircle
39
0
10
20.38968
20
10.66433
30
0
40
1.2903
210
0
220
0
230
1
100
AcDbArc
50
342.5
51
42.5
0
ARC
5
C2
100
AcDbEntity
8
1
62
256
6
ByLayer
370
18
48
1
60
0
100
AcDbCircle
39
0
10
20.38968
20
10.66433
30
0
40
1.2903
210
0
220
0
230
1
100
AcDbArc
50
102.5
51
162.5
0
ARC
5
C3
100
AcDbEntity
8
1
62
256
6
ByLayer
370
18
48
1
60
0
100
AcDbCircle
39
0
10
-20.38968
20
10.66433
30
0
40
1.6764
210
0
220
0
230
-1
100
AcDbArc
50
107.5
51
167.5
0
ARC
5
C5
100
AcDbEntity
8
1
62
256
6
ByLayer
370
18
48
1
60
0
100
AcDbCircle
39
0
10
-20.38968
20
10.66433
30
0
40
1.6764
210
0
220
0
230
-1
100
AcDbArc
50
167.5
51
227.5
0
ARC
5
C6
100
AcDbEntity
8
1
62
256
6
ByLayer
370
18
48
1
60
0
100
AcDbCircle
39
0
10
-20.38968
20
10.66433
30
0
40
1.2903
210
0
220
0
230
-1
100
AcDbArc
50
77.5
51
137.5
0
ARC
5
C7
100
AcDbEntity
8
1
62
256
6
ByLayer
370
18
48
1
60
0
100
AcDbCircle
39
0
10
-20.38968
20
10.66433
30
0
40
1.6764
210
0
220
0
230
-1
100
AcDbArc
50
47.5
51
107.5
0
ARC
5
C8
100
AcDbEntity
8
1
62
256
6
ByLayer
370
18
48
1
60
0
100
AcDbCircle
39
0
10
-20.38968
20
10.66433
30
0
40
1.6764
210
0
220
0
230
-1
100
AcDbArc
50
347.5
51
47.5
0
ARC
5
C9
100
AcDbEntity
8
1
62
256
6
ByLayer
370
18
48
1
60
0
100
AcDbCircle
39
0
10
20.38968
20
10.66433
30
0
40
1.2903
210
0
220
0
230
1
100
AcDbArc
50
282.5
51
342.5
0
ARC
5
CA
100
AcDbEntity
8
1
62
256
6
ByLayer
370
18
48
1
60
0
100
AcDbCircle
39
0
10
20.38968
20
10.66433
30
0
40
1.2903
210
0
220
0
230
1
100
AcDbArc
50
162.5
51
222.5
0
ARC
5
CB
100
AcDbEntity
8
1
62
256
6
ByLayer
370
18
48
1
60
0
100
AcDbCircle
39
0
10
-20.38968
20
10.66433
30
0
40
1.6764
210
0
220
0
230
-1
100
AcDbArc
50
287.5
51
347.5
0
ARC
5
CC
100
AcDbEntity
8
1
62
256
6
ByLayer
370
18
48
1
60
0
100
AcDbCircle
39
0
10
-20.38968
20
10.66433
30
0
40
1.6764
210
0
220
0
230
-1
100
AcDbArc
50
227.5
51
287.5
0
ARC
5
CD
100
AcDbEntity
8
1
62
256
6
ByLayer
370
18
48
1
60
0
100
AcDbCircle
39
0
10
20.38968
20
10.66433
30
0
40
1.2903
210
0
220
0
230
1
100
AcDbArc
50
222.5
51
282.5
0
ARC
5
CE
100
AcDbEntity
8
1
62
256
6
ByLayer
370
13
48
1
60
0
100
AcDbCircle
39
0
10
34.357734
20
10.070958
30
0
40
8
210
0
220
0
230
1
100
AcDbArc
50
150
51
162.5
0
ARC
5
CF
100
AcDbEntity
8
1
62
256
6
ByLayer
370
13
48
1
60
0
100
AcDbCircle
39
0
10
-29.2
20
18.7375
30
0
40
0.8
210
0
220
0
230
-1
100
AcDbArc
50
65
51
210
0
ARC
5
D1
100
AcDbEntity
8
1
62
256
6
ByLayer
370
13
48
1
60
0
100
AcDbCircle
39
0
10
12.891779
20
-1.135674
30
0
40
8
210
0
220
0
230
1
100
AcDbArc
50
30
51
42.5
0
ARC
5
D2
100
AcDbEntity
8
1
62
256
6
ByLayer
370
13
48
1
60
0
100
AcDbCircle
39
0
10
-22.976091
20
-1.002216
30
0
40
0.8
210
0
220
0
230
-1
100
AcDbArc
50
185
51
330
0
ARC
5
D4
100
AcDbEntity
8
1
62
256
6
ByLayer
370
13
48
1
60
0
100
AcDbCircle
39
0
10
32.171984
20
3.138645
30
0
40
8
210
0
220
0
230
1
100
AcDbArc
50
162.5
51
175
0
ARC
5
D5
100
AcDbEntity
8
1
62
256
6
ByLayer
370
13
48
1
60
0
100
AcDbCircle
39
0
10
21.015963
20
24.630946
30
0
40
8
210
0
220
0
230
1
100
AcDbArc
50
282.5
51
295
0
ARC
5
D6
100
AcDbEntity
8
1
62
256
6
ByLayer
370
13
48
1
60
0
100
AcDbCircle
39
0
10
7.981094
20
4.223398
30
0
40
8
210
0
220
0
230
1
100
AcDbArc
50
42.5
51
55
0
ARC
5
D7
100
AcDbEntity
8
1
62
256
6
ByLayer
370
13
48
1
60
0
100
AcDbCircle
39
0
10
-8.99295
20
14.257705
30
0
40
0.8
210
0
220
0
230
-1
100
AcDbArc
50
305
51
90
0
ARC
5
D9
100
AcDbEntity
8
1
62
256
6
ByLayer
370
13
48
1
60
0
100
AcDbCircle
39
0
10
13.919529
20
23.057705
30
0
40
8
210
0
220
0
230
1
100
AcDbArc
50
270
51
282.5
0
CIRCLE
5
C1
100
AcDbEntity
8
1
62
256
6
ByLayer
370
18
48
1
60
0
100
AcDbCircle
10
20.38968
20
10.66433
30
0
40
2.625
39
0
210
0
220
0
230
1
0
CIRCLE
5
C4
100
AcDbEntity
8
1
62
256
6
ByLayer
370
18
48
1
60
0
100
AcDbCircle
10
20.38968
20
10.66433
30
0
40
1.8
39
0
210
0
220
0
230
1
0
CIRCLE
5
D0
100
AcDbEntity
8
1
62
256
6
ByLayer
370
13
48
1
60
0
100
AcDbCircle
10
20.38968
20
10.66433
30
0
40
3.06293413074916
39
0
210
0
220
0
230
1
0
CIRCLE
5
D3
100
AcDbEntity
8
1
62
256
6
ByLayer
370
13
48
1
60
0
100
AcDbCircle
10
-20.38968
20
10.66433
30
0
40
2.87330486655119
39
0
210
0
220
0
230
-1
0
CIRCLE
5
D8
100
AcDbEntity
8
1
62
256
6
ByLayer
370
13
48
1
60
0
100
AcDbCircle
10
-20.38968
20
10.66433
30
0
40
3
39
0
210
0
220
0
230
-1
0
ELLIPSE
5
DA
100
AcDbEntity
8
1
62
256
6
ByLayer
370
18
48
1
60
0
100
AcDbEllipse
10
18.117786
20
5.941848
30
0
11
-0.861629160441522
21
-0.507538362960707
31
0
210
0
220
0
230
1
40
0.082518
41
0.604595897445789
42
0.882592188078989
0
ELLIPSE
5
DB
100
AcDbEntity
8
1
62
256
6
ByLayer
370
18
48
1
60
0
100
AcDbEllipse
10
15.487161
20
8.812671
30
0
11
0.580702955710936
21
0.81411551835632
31
0
210
0
220
0
230
1
40
0.082518
41
2.25900058762331
42
2.53699692127965
0
POINT
5
6C
100
AcDbEntity
8
80
62
256
6
ByLayer
370
18
48
1
60
0
100
AcDbPoint
10
0
20
0
30
0
39
0
210
0
220
0
230
1
50
360
0
POINT
5
6E
100
AcDbEntity
8
81
62
256
6
ByLayer
370
18
48
1
60
0
100
AcDbPoint
10
30
20
19.5375
30
0
39
0
210
0
220
0
230
1
50
360
0
SPLINE
5
DC
100
AcDbEntity
8
1
62
256
6
ByLayer
370
18
48
1
60
0
100
AcDbSpline
70
4
71
3
72
12
73
8
40
0
40
0
40
0
40
0
40
0.104253977468032
40
0.104253977468032
40
0.402835984978681
40
0.402835984978681
40
1
40
1
40
1
40
1
41
1
10
17.463008116311
20
5.71409710005952
30
0
41
1
10
17.4549003293838
20
5.71230187309629
30
0
41
1
10
17.4468157097361
20
5.71096701627096
30
0
41
1
10
17.4159518597961
20
5.70744315617193
30
0
41
1
10
17.3935594054756
20
5.70815926973339
30
0
41
1
10
17.3285899529202
20
5.71826850840719
30
0
41
1
10
17.2902419374014
20
5.7349489134144
30
0
41
1
10
17.2568898615969
20
5.75914330809374
30
0
0
SPLINE
5
DD
100
AcDbEntity
8
1
62
256
6
ByLayer
370
18
48
1
60
0
100
AcDbSpline
70
4
71
3
72
12
73
8
40
0
40
0
40
0
40
0
40
0.597164015020245
40
0.597164015020245
40
0.895746022530377
40
0.895746022530377
40
1
40
1
40
1
40
1
41
1
10
15.2301192387499
20
7.97097531852407
30
0
41
1
10
15.2089237359857
20
8.00630916004951
30
0
41
1
10
15.195649054731
20
8.0459650428794
30
0
41
1
10
15.1912407456558
20
8.11156834525823
30
0
41
1
10
15.1924789881108
20
8.13393800293895
30
0
41
1
10
15.1986794006239
20
8.16437728196769
30
0
41
1
10
15.2007137989464
20
8.17231479675883
30
0
41
1
10
15.2032088347207
20
8.18023526676973
30
0
0
SPLINE
5
DE
100
AcDbEntity
8
1
62
256
6
ByLayer
370
18
48
1
60
0
100
AcDbSpline
70
4
71
3
72
10
73
6
40
0
40
0
40
0
40
0
40
0.5
40
0.5
40
1
40
1
40
1
40
1
41
1
10
15.2845350148983
20
-0.170761462683601
30
0
41
1
10
14.4020139726115
20
-1.07755109018277
30
0
41
1
10
13.4799050615671
20
-1.93667185456567
30
0
41
1
10
11.5578332091699
20
-3.56112497790855
30
0
41
1
10
10.5578723161668
20
-4.32645979755162
30
0
41
1
10
9.51849789393629
20
-5.04453362034315
30
0
0
SPLINE
5
DF
100
AcDbEntity
8
1
62
256
6
ByLayer
370
18
48
1
60
0
100
AcDbSpline
70
4
71
3
72
8
73
4
40
0
40
0
40
0
40
0
40
1
40
1
40
1
40
1
41
1
10
12.1780038871122
20
6.38572250815702
30
0
41
1
10
13.3219242016457
20
5.27000702430132
30
0
41
1
10
14.3998144755422
20
4.09370603011138
30
0
41
1
10
15.4116600363507
20
2.85680606295816
30
0
0
SPLINE
5
E0
100
AcDbEntity
8
1
62
256
6
ByLayer
370
18
48
1
60
0
100
AcDbSpline
70
4
71
3
72
26
73
22
40
0
40
0
40
0
40
0
40
0.124999999999999
40
0.124999999999999
40
0.249999999999998
40
0.249999999999998
40
0.312499999999999
40
0.312499999999999
40
0.375
40
0.375
40
0.499999999999999
40
0.499999999999999
40
0.5625
40
0.5625
40
0.625
40
0.625
40
0.75
40
0.75
40
0.875
40
0.875
40
1
40
1
40
1
40
1
41
1
10
15.4116600363507
20
2.85680606295816
30
0
41
1
10
15.4987081202169
20
2.75039676864964
30
0
41
1
10
15.5763678848931
20
2.63592755949125
30
0
41
1
10
15.7109628660673
20
2.39193677831895
30
0
41
1
10
15.7662053568592
20
2.26561165612478
30
0
41
1
10
15.8316381595999
20
2.06985601898589
30
0
41
1
10
15.8505253849264
20
2.00355278374659
30
0
41
1
10
15.8823398712184
20
1.86880146729564
30
0
41
1
10
15.8953057253406
20
1.79999020539486
30
0
41
1
10
15.9244453770484
20
1.59366909892412
30
0
41
1
10
15.9311582576041
20
1.4560483589344
30
0
41
1
10
15.9225810204439
20
1.24950597953162
30
0
41
1
10
15.9165948969495
20
1.1806398613594
30
0
41
1
10
15.8982020105716
20
1.04286866536589
30
0
41
1
10
15.8857466865085
20
0.97394437010206
30
0
41
1
10
15.8394893453743
20
0.771416224197424
30
0
41
1
10
15.7967190988251
20
0.640557812915688
30
0
41
1
10
15.6875498678518
20
0.387088387386456
30
0
41
1
10
15.6203181741227
20
0.26356118142553
30
0
41
1
10
15.4669605982514
20
0.0345290344492639
30
0
41
1
10
15.3805857950143
20
-0.0720693670292007
30
0
41
1
10
15.2845350148981
20
-0.170761462683771
30
0
0
SPLINE
5
E1
100
AcDbEntity
8
1
62
256
6
ByLayer
370
18
48
1
60
0
100
AcDbSpline
70
4
71
3
72
53
73
49
40
0
40
0
40
0
40
0
40
0.0624999999999999
40
0.0624999999999999
40
0.09375
40
0.09375
40
0.125
40
0.125
40
0.1875
40
0.1875
40
0.21875
40
0.21875
40
0.25
40
0.25
40
0.312500000000001
40
0.312500000000001
40
0.343750000000001
40
0.343750000000001
40
0.375000000000001
40
0.406250000000001
40
0.406250000000001
40
0.437500000000001
40
0.437500000000001
40
0.500000000000001
40
0.500000000000001
40
0.531250000000002
40
0.531250000000002
40
0.562500000000002
40
0.562500000000002
40
0.625000000000002
40
0.625000000000002
40
0.656250000000002
40
0.656250000000002
40
0.687500000000002
40
0.687500000000002
40
0.750000000000001
40
0.750000000000001
40
0.781250000000001
40
0.781250000000001
40
0.812500000000001
40
0.812500000000001
40
0.875000000000001
40
0.875000000000001
40
0.90625
40
0.90625
40
0.9375
40
0.9375
40
1
40
1
40
1
40
1
41
1
10
9.51849789393629
20
-5.04453362034315
30
0
41
1
10
9.30933272421953
20
-5.18903980579555
30
0
41
1
10
9.08854407893563
20
-5.31399826088537
30
0
41
1
10
8.73969406633717
20
-5.47181345721449
30
0
41
1
10
8.61990504856425
20
-5.51960148031839
30
0
41
1
10
8.37868365834498
20
-5.60339755497554
30
0
41
1
10
8.25689639562381
20
-5.63962159858218
30
0
41
1
10
7.88806580186741
20
-5.73167843206627
30
0
41
1
10
7.63758317909083
20
-5.77103158914667
30
0
41
1
10
7.2546770168384
20
-5.79618638384034
30
0
41
1
10
7.12599016866608
20
-5.79880801231911
30
0
41
1
10
6.87130716554674
20
-5.79258377102158
30
0
41
1
10
6.74466924743029
20
-5.78379418512478
30
0
41
1
10
6.36680779745558
20
-5.74065454239502
30
0
41
1
10
6.11761931825896
20
-5.68967566986379
30
0
41
1
10
5.74799145767963
20
-5.5784197156095
30
0
41
1
10
5.62681846257462
20
-5.53587553141031
30
0
41
1
10
5.39006659300097
20
-5.44072673573754
30
0
41
1
10
5.15836621251216
20
-5.33535448122282
30
0
41
1
10
4.93666032353198
20
-5.20972056168915
30
0
41
1
10
4.72002048069194
20
-5.07380220787326
30
0
41
1
10
4.61387866478537
20
-5.00042799020775
30
0
41
1
10
4.30575748483335
20
-4.76611014423449
30
0
41
1
10
4.11715260526617
20
-4.59370016275196
30
0
41
1
10
3.85858927404058
20
-4.31162519177266
30
0
41
1
10
3.77648398094729
20
-4.21366598687354
30
0
41
1
10
3.62059329167758
20
-4.0097299409903
30
0
41
1
10
3.54648605499523
20
-3.90318966925648
30
0
41
1
10
3.34070473488327
20
-3.57689935268908
30
0
41
1
10
3.22461193211868
20
-3.34987159417065
30
0
41
1
10
3.08130362124663
20
-2.99541316836161
30
0
41
1
10
3.03870387801541
20
-2.87492665353446
30
0
41
1
10
2.96408960740732
20
-2.62916776300449
30
0
41
1
10
2.93218497003613
20
-2.50400349707854
30
0
41
1
10
2.85423953705998
20
-2.12883322216419
30
0
41
1
10
2.82501244415934
20
-1.8766783295782
30
0
41
1
10
2.81489373168782
20
-1.49532432115166
30
0
41
1
10
2.81717479427567
20
-1.36768289603225
30
0
41
1
10
2.83340571539244
20
-1.1113026429382
30
0
41
1
10
2.84725337479242
20
-0.984311698898694
30
0
41
1
10
2.90537046788757
20
-0.607627143342512
30
0
41
1
10
2.96610655540212
20
-0.361813094436172
30
0
41
1
10
3.09042768168791
20
-0.0009999307914086
30
0
41
1
10
3.13767213680799
20
0.118451308348909
30
0
41
1
10
3.24262093129485
20
0.352137914952238
30
0
41
1
10
3.30002169531011
20
0.465836511337528
30
0
41
1
10
3.48662602893592
20
0.797759834240281
30
0
41
1
10
3.63011710290917
20
1.0068864507449
30
0
41
1
10
3.79310826313107
20
1.20363275568843
30
0
0
SPLINE
5
E2
100
AcDbEntity
8
1
62
256
6
ByLayer
370
18
48
1
60
0
100
AcDbSpline
70
4
71
3
72
8
73
4
40
0
40
0
40
0
40
0
40
1
40
1
40
1
40
1
41
1
10
15.2674835772465
20
7.92077247025608
30
0
41
1
10
15.2534711795068
20
7.93606431902975
30
0
41
1
10
15.2410220534983
20
7.9527998436231
30
0
41
1
10
15.2301192387499
20
7.97097531852407
30
0
0
SPLINE
5
E3
100
AcDbEntity
8
1
62
256
6
ByLayer
370
18
48
1
60
0
100
AcDbSpline
70
4
71
3
72
26
73
22
40
0
40
0
40
0
40
0
40
0.0624999999999997
40
0.0624999999999997
40
0.124999999999999
40
0.124999999999999
40
0.249999999999999
40
0.249999999999999
40
0.312499999999999
40
0.312499999999999
40
0.374999999999999
40
0.374999999999999
40
0.5
40
0.5
40
0.625
40
0.625
40
0.75
40
0.75
40
0.875
40
0.875
40
1
40
1
40
1
40
1
41
1
10
9.15087749428653
20
6.52295113220723
30
0
41
1
10
9.20405478496895
20
6.56635693657219
30
0
41
1
10
9.25922858753472
20
6.6073757215546
30
0
41
1
10
9.37363129140709
20
6.68456378399552
30
0
41
1
10
9.43312567972043
20
6.7208752865622
30
0
41
1
10
9.61602906690172
20
6.82120679187372
30
0
41
1
10
9.74243646874049
20
6.8760757033279
30
0
41
1
10
9.9385458173698
20
6.94089441571796
30
0
41
1
10
10.005005439221
20
6.95956818523035
30
0
41
1
10
10.140151360553
20
6.99091994814731
30
0
41
1
10
10.2091033349559
20
7.00360813700999
30
0
41
1
10
10.4152726606308
20
7.03182952195081
30
0
41
1
10
10.5529163892818
20
7.03795317178594
30
0
41
1
10
10.8285927879288
20
7.02525939223102
30
0
41
1
10
10.9679291660907
20
7.00600259990262
30
0
41
1
10
11.2372069954768
20
6.94327475943223
30
0
41
1
10
11.367889360463
20
6.90001967769408
30
0
41
1
10
11.6213666079091
20
6.78977034801974
30
0
41
1
10
11.7445793283466
20
6.72217054764178
30
0
41
1
10
11.9728565663863
20
6.56851279101258
30
0
41
1
10
12.0792997860914
20
6.4819929322677
30
0
41
1
10
12.1780038871122
20
6.38572250815704
30
0
0
SPLINE
5
E4
100
AcDbEntity
8
1
62
256
6
ByLayer
370
18
48
1
60
0
100
AcDbSpline
70
4
71
3
72
10
73
6
40
0
40
0
40
0
40
0
40
0.5
40
0.5
40
1
40
1
40
1
40
1
41
1
10
17.1192163989491
20
5.89996070022312
30
0
41
1
10
17.1191048052793
20
5.87634867661876
30
0
41
1
10
17.121347986467
20
5.85522957124971
30
0
41
1
10
17.1302484551517
20
5.82054742235121
30
0
41
1
10
17.1368718027698
20
5.80668384629763
30
0
41
1
10
17.1457202132316
20
5.79702750073974
30
0
0
SPLINE
5
E5
100
AcDbEntity
8
1
62
256
6
ByLayer
370
18
48
1
60
0
100
AcDbSpline
70
4
71
3
72
10
73
6
40
0
40
0
40
0
40
0
40
0.5
40
0.5
40
1
40
1
40
1
40
1
41
1
10
3.79310826313107
20
1.20363275568843
30
0
41
1
10
4.59899107582009
20
2.17641229415054
30
0
41
1
10
5.44853801513005
20
3.10584195891934
30
0
41
1
10
7.23432417006779
20
4.87902414705698
30
0
41
1
10
8.17056560088025
20
5.72277448319355
30
0
41
1
10
9.15087749428653
20
6.52295113220723
30
0
0
SPLINE
5
E6
100
AcDbEntity
8
1
62
256
6
ByLayer
370
18
48
1
60
0
100
AcDbSpline
70
4
71
3
72
8
73
4
40
0
40
0
40
0
40
0
40
1
40
1
40
1
40
1
41
1
10
17.2568898615969
20
5.75914330809371
30
0
41
1
10
17.2397337927827
20
5.77158873135519
30
0
41
1
10
17.2241469647368
20
5.78544908175695
30
0
41
1
10
17.2101345669972
20
5.80074093053059
30
0
0
SPLINE
5
E7
100
AcDbEntity
8
1
62
256
6
ByLayer
370
18
48
1
60
0
100
AcDbSpline
70
4
71
3
72
10
73
6
40
0
40
0
40
0
40
0
40
0.5
40
0.5
40
1
40
1
40
1
40
1
41
1
10
15.2581701973311
20
7.8569268792854
30
0
41
1
10
15.2670186077929
20
7.84727053372751
30
0
41
1
10
15.2802521659729
20
7.83946409967859
30
0
41
1
10
15.314026611865
20
7.82757475151701
30
0
41
1
10
15.3348698465396
20
7.82349945499638
30
0
41
1
10
15.3584017452946
20
7.82155270056359
30
0
0
SPLINE
5
E8
100
AcDbEntity
8
1
62
256
6
ByLayer
370
18
48
1
60
0
100
AcDbSpline
70
2053
71
3
72
94
73
90
40
0
40
0
40
0
40
0
40
0.0312500000000005
40
0.0312500000000005
40
0.0468750000000011
40
0.0468750000000011
40
0.0625000000000017
40
0.0625000000000017
40
0.0937500000000021
40
0.0937500000000021
40
0.109375000000002
40
0.109375000000002
40
0.125000000000002
40
0.140625000000002
40
0.140625000000002
40
0.156250000000001
40
0.156250000000001
40
0.187500000000001
40
0.187500000000001
40
0.21875
40
0.21875
40
0.25
40
0.25
40
0.265624999999999
40
0.265624999999999
40
0.281249999999999
40
0.296874999999999
40
0.296874999999999
40
0.312499999999999
40
0.312499999999999
40
0.343749999999998
40
0.343749999999998
40
0.359374999999998
40
0.359374999999998
40
0.374999999999998
40
0.374999999999998
40
0.406249999999997
40
0.406249999999997
40
0.437499999999996
40
0.437499999999996
40
0.468749999999994
40
0.468749999999994
40
0.484374999999994
40
0.484374999999994
40
0.499999999999994
40
0.499999999999994
40
0.531249999999995
40
0.531249999999995
40
0.562499999999995
40
0.562499999999995
40
0.578124999999995
40
0.578124999999995
40
0.593749999999994
40
0.593749999999994
40
0.624999999999994
40
0.624999999999994
40
0.640624999999993
40
0.640624999999993
40
0.656249999999993
40
0.656249999999993
40
0.687499999999992
40
0.687499999999992
40
0.718749999999992
40
0.718749999999992
40
0.734374999999992
40
0.734374999999992
40
0.749999999999992
40
0.749999999999992
40
0.781249999999993
40
0.781249999999993
40
0.796874999999993
40
0.796874999999993
40
0.812499999999994
40
0.812499999999994
40
0.843749999999995
40
0.843749999999995
40
0.874999999999996
40
0.874999999999996
40
0.890624999999997
40
0.890624999999997
40
0.906249999999997
40
0.906249999999997
40
0.937499999999998
40
0.937499999999998
40
0.953124999999998
40
0.953124999999998
40
0.968749999999999
40
0.968749999999999
40
1
40
1
40
1
40
1
41
1
10
15.125078762999
20
3.95286939581661
30
0
41
1
10
15.063983478916
20
4.03738342965366
30
0
41
1
10
14.9967671661311
20
4.12687140005661
30
0
41
1
10
14.8865887584121
20
4.26833175739495
30
0
41
1
10
14.8482930673018
20
4.3166990327835
30
0
41
1
10
14.7683946276048
20
4.41593683526591
30
0
41
1
10
14.7268153789797
20
4.46676544692102
30
0
41
1
10
14.5999455402582
20
4.61942621479437
30
0
41
1
10
14.511611232271
20
4.72259398025491
30
0
41
1
10
14.3732504551087
20
4.87938672520841
30
0
41
1
10
14.3258513752058
20
4.93231599179401
30
0
41
1
10
14.2309597778354
20
5.03672046332306
30
0
41
1
10
14.1358174886671
20
5.13987107935995
30
0
41
1
10
14.0401897434809
20
5.24057957444995
30
0
41
1
10
13.9443276947773
20
5.3400703302641
30
0
41
1
10
13.8960507762702
20
5.38943644891899
30
0
41
1
10
13.7525157892117
20
5.53402854044054
30
0
41
1
10
13.6597703496644
20
5.62457201566835
30
0
41
1
10
13.4800654743775
20
5.79475607787316
30
0
41
1
10
13.3925255360893
20
5.87486023125433
30
0
41
1
10
13.2304542968187
20
6.01810356552079
30
0
41
1
10
13.1550583447984
20
6.08209688658465
30
0
41
1
10
13.0505540759557
20
6.16697148950809
30
0
41
1
10
13.0172881317101
20
6.19328629611053
30
0
41
1
10
12.9549489439218
20
6.24123248494661
30
0
41
1
10
12.8964588908663
20
6.28477675954116
30
0
41
1
10
12.845551762684
20
6.31978109121516
30
0
41
1
10
12.7984836383785
20
6.35052118220503
30
0
41
1
10
12.7767762816014
20
6.36380833568583
30
0
41
1
10
12.7184641408387
20
6.39664856769232
30
0
41
1
10
12.6885465448396
20
6.40933890819554
30
0
41
1
10
12.6568247753623
20
6.41503972652652
30
0
41
1
10
12.6484578211404
20
6.4147011441022
30
0
41
1
10
12.636268655275
20
6.40942550152607
30
0
41
1
10
12.6324841810019
20
6.40446167160459
30
0
41
1
10
12.6282127488593
20
6.38294504021567
30
0
41
1
10
12.6345970995376
20
6.35979931083656
30
0
41
1
10
12.6658938451377
20
6.295677598461
30
0
41
1
10
12.6912340635323
20
6.25415643042533
30
0
41
1
10
12.7589991458709
20
6.15571404604381
30
0
41
1
10
12.8014203861921
20
6.09864446492671
30
0
41
1
10
12.8780912833624
20
6.00067874732338
30
0
41
1
10
12.9060166514183
20
5.96572952425302
30
0
41
1
10
12.9652727372832
20
5.89285076317509
30
0
41
1
10
12.9966229866233
20
5.85488690798445
30
0
41
1
10
13.0957015315869
20
5.73643861673065
30
0
41
1
10
13.1684067746644
20
5.65144480761859
30
0
41
1
10
13.3275715576316
20
5.46841828737067
30
0
41
1
10
13.4118715577657
20
5.37287328631598
30
0
41
1
10
13.5435486566516
20
5.22517437877215
30
0
41
1
10
13.5883975176074
20
5.1751170231035
30
0
41
1
10
13.6800361123695
20
5.07328948861084
30
0
41
1
10
13.7270424454844
20
5.02128243547097
30
0
41
1
10
13.8678509541035
20
4.8661107054466
30
0
41
1
10
13.9622682126047
20
4.76285615920071
30
0
41
1
10
14.1046901187674
20
4.60824842815475
30
0
41
1
10
14.1525444801897
20
4.55649515805121
30
0
41
1
10
14.2473297986315
20
4.45440360087528
30
0
41
1
10
14.2940267689283
20
4.40431505365837
30
0
41
1
10
14.4321241790289
20
4.2568538329667
30
0
41
1
10
14.5215470150105
20
4.16225433087988
30
0
41
1
10
14.6951971775995
20
3.98087783435139
30
0
41
1
10
14.7767099466372
20
3.89694528081696
30
0
41
1
10
14.8911069805012
20
3.78140277967614
30
0
41
1
10
14.9279497911235
20
3.74459385261775
30
0
41
1
10
14.9990577251585
20
3.67447435737134
30
0
41
1
10
15.0332902601046
20
3.6412032174527
30
0
41
1
10
15.1299970059643
20
3.54880319000986
30
0
41
1
10
15.187341234859
20
3.49622086037081
30
0
41
1
10
15.2631138563094
20
3.43077313645966
30
0
41
1
10
15.2867593770764
20
3.41112773769046
30
0
41
1
10
15.3298864930331
20
3.37701225614057
30
0
41
1
10
15.3493890202678
20
3.36251291257588
30
0
41
1
10
15.4019599231777
20
3.32646197473403
30
0
41
1
10
15.4291473887988
20
3.31229345820984
30
0
41
1
10
15.4677035359644
20
3.30407441017491
30
0
41
1
10
15.4785781073161
20
3.31019314793644
30
0
41
1
10
15.482652868743
20
3.33394465706894
30
0
41
1
10
15.4819750303729
20
3.34430316542895
30
0
41
1
10
15.4764851636865
20
3.36995821158965
30
0
41
1
10
15.4716342097544
20
3.3853486702381
30
0
41
1
10
15.4509029642843
20
3.43846808965301
30
0
41
1
10
15.4290639074229
20
3.48281487641643
30
0
41
1
10
15.3843415931711
20
3.56237636064591
30
0
41
1
10
15.367425903029
20
3.59108510175591
30
0
41
1
10
15.329406699489
20
3.6530029098175
30
0
41
1
10
15.3082400817231
20
3.68629849745267
30
0
41
1
10
15.2394130166733
20
3.79122127243011
30
0
41
1
10
15.186174047082
20
3.86835536197955
30
0
41
1
10
15.125078762999
20
3.95286939581661
30
0
0
SPLINE
5
E9
100
AcDbEntity
8
1
62
256
6
ByLayer
370
18
48
1
60
0
100
AcDbSpline
70
4
71
3
72
16
73
12
40
0
40
0
40
0
40
0
40
0.25
40
0.25
40
0.5
40
0.5
40
0.75
40
0.75
40
0.875
40
0.875
40
1
40
1
40
1
40
1
41
1
10
19.2571210543159
20
11.900301296698
30
0
41
1
10
19.2897268759132
20
11.9301790274821
30
0
41
1
10
19.3248944043554
20
11.9575414238103
30
0
41
1
10
19.3994263420375
20
12.0052187158381
30
0
41
1
10
19.4389293856209
20
12.0257382563658
30
0
41
1
10
19.5217005519268
20
12.0548213762876
30
0
41
1
10
19.5652822434974
20
12.0638104058525
30
0
41
1
10
19.6274031875266
20
12.0556355684131
30
0
41
1
10
19.6474892709984
20
12.0487585554487
30
0
41
1
10
19.6794064662129
20
12.0257295573881
30
0
41
1
10
19.6911015787678
20
12.0096889758507
30
0
41
1
10
19.697893173384
20
11.9914675838512
30
0
0
SPLINE
5
EA
100
AcDbEntity
8
1
62
256
6
ByLayer
370
18
48
1
60
0
100
AcDbSpline
70
4
71
3
72
8
73
4
40
0
40
0
40
0
40
0
40
1
40
1
40
1
40
1
41
1
10
20.4557799390257
20
12.1594870346817
30
0
41
1
10
20.4536360212935
20
12.15317371957
30
0
41
1
10
20.451491829704
20
12.1468595980152
30
0
41
1
10
20.4493473535811
20
12.1405446385789
30
0
0
SPLINE
5
EB
100
AcDbEntity
8
1
62
256
6
ByLayer
370
18
48
1
60
0
100
AcDbSpline
70
4
71
3
72
16
73
12
40
0
40
0
40
0
40
0
40
0.249999999999997
40
0.249999999999997
40
0.499999999999994
40
0.499999999999994
40
0.74999999999999
40
0.74999999999999
40
0.874999999999995
40
0.874999999999995
40
1
40
1
40
1
40
1
41
1
10
21.5222399024098
20
9.42835784184103
30
0
41
1
10
21.5548457240071
20
9.45823557262511
30
0
41
1
10
21.5851690502182
20
9.4908844880288
30
0
41
1
10
21.6391608021428
20
9.56097745938743
30
0
41
1
10
21.6630451767281
20
9.59854178616817
30
0
41
1
10
21.6992316090756
20
9.67846322227865
30
0
41
1
10
21.7119848273682
20
9.72109562680689
30
0
41
1
10
21.7092552946704
20
9.78369266591804
30
0
41
1
10
21.7041550683405
20
9.80430168695088
30
0
41
1
10
21.6839954694254
20
9.83810453703228
30
0
41
1
10
21.6690352233648
20
9.85115317495109
30
0
41
1
10
21.6514750957363
20
9.859507024453
30
0
0
SPLINE
5
EC
100
AcDbEntity
8
1
62
256
6
ByLayer
370
18
48
1
60
0
100
AcDbSpline
70
4
71
3
72
16
73
12
40
0
40
0
40
0
40
0
40
0.124999999999997
40
0.124999999999997
40
0.249999999999995
40
0.249999999999995
40
0.499999999999997
40
0.499999999999997
40
0.749999999999998
40
0.749999999999998
40
1
40
1
40
1
40
1
41
1
10
19.5862388958964
20
9.40165518185151
30
0
41
1
10
19.5739005412992
20
9.38671852354474
30
0
41
1
10
19.5658869115304
20
9.36867934207436
30
0
41
1
10
19.561810264554
20
9.32978654238985
30
0
41
1
10
19.5657116623099
20
9.30918579699318
30
0
41
1
10
19.5896983821482
20
9.25076658832344
30
0
41
1
10
19.61932933375
20
9.21752351968016
30
0
41
1
10
19.6860371276037
20
9.16024196195363
30
0
41
1
10
19.7235361027876
20
9.13631252590105
30
0
41
1
10
19.8021821525939
20
9.09556064884205
30
0
41
1
10
19.843370301313
20
9.07882628105955
30
0
41
1
10
19.8855772760739
20
9.06551847303518
30
0
0
SPLINE
5
ED
100
AcDbEntity
8
1
62
256
6
ByLayer
370
18
48
1
60
0
100
AcDbSpline
70
4
71
3
72
16
73
12
40
0
40
0
40
0
40
0
40
0.250000000000002
40
0.250000000000002
40
0.500000000000003
40
0.500000000000003
40
0.750000000000005
40
0.750000000000005
40
0.875000000000002
40
0.875000000000002
40
1
40
1
40
1
40
1
41
1
10
18.753017852027
20
10.3014902004637
30
0
41
1
10
18.7625898150948
20
10.2583138652571
30
0
41
1
10
18.7757029421348
20
10.2157286367291
30
0
41
1
10
18.8094093599958
20
10.1339239222883
30
0
41
1
10
18.8299988339713
20
10.0944572837536
30
0
41
1
10
18.8811196117762
20
10.023158196013
30
0
41
1
10
18.9116637479758
20
9.99079738272761
30
0
41
1
10
18.9672391403966
20
9.96186270782877
30
0
41
1
10
18.9876371893231
20
9.95597512287907
30
0
41
1
10
19.0269911156714
20
9.95653242262892
30
0
41
1
10
19.0457716906242
20
9.96296405680488
30
0
41
1
10
19.0617864003265
20
9.97399464867394
30
0
0
SPLINE
5
EE
100
AcDbEntity
8
1
62
256
6
ByLayer
370
18
48
1
60
0
100
AcDbSpline
70
4
71
3
72
8
73
4
40
0
40
0
40
0
40
0
40
1
40
1
40
1
40
1
41
1
10
19.697893173384
20
11.9914675838512
30
0
41
1
10
19.7025043449778
20
11.9866518359887
30
0
41
1
10
19.7071161055882
20
11.9818354729778
30
0
41
1
10
19.7117284781775
20
11.9770184708372
30
0
0
SPLINE
5
EF
100
AcDbEntity
8
1
62
256
6
ByLayer
370
18
48
1
60
0
100
AcDbSpline
70
4
71
3
72
8
73
4
40
0
40
0
40
0
40
0
40
1
40
1
40
1
40
1
41
1
10
18.9138825422467
20
10.7335503653464
30
0
41
1
10
18.9074047097282
20
10.7319644345826
30
0
41
1
10
18.9009277367017
20
10.7303787142434
30
0
41
1
10
18.8944515909177
20
10.7287931964332
30
0
0
SPLINE
5
F0
100
AcDbEntity
8
1
62
256
6
ByLayer
370
18
48
1
60
0
100
AcDbSpline
70
4
71
3
72
18
73
14
40
0
40
0
40
0
40
0
40
0.125000000000006
40
0.125000000000006
40
0.250000000000013
40
0.250000000000013
40
0.500000000000013
40
0.500000000000013
40
0.750000000000013
40
0.750000000000013
40
0.875000000000007
40
0.875000000000007
40
1
40
1
40
1
40
1
41
1
10
20.3300136031446
20
9.18811449996016
30
0
41
1
10
20.3402919072713
20
9.21838160013462
30
0
41
1
10
20.3606553550365
20
9.24474881521022
30
0
41
1
10
20.409288125227
20
9.2913467483794
30
0
41
1
10
20.4377852436837
20
9.31147178795746
30
0
41
1
10
20.5292502745741
20
9.36403625998315
30
0
41
1
10
20.5979244007506
20
9.38886146673443
30
0
41
1
10
20.7398369297011
20
9.42033633274411
30
0
41
1
10
20.8128265072044
20
9.42686532822688
30
0
41
1
10
20.917722271069
20
9.41790487434108
30
0
41
1
10
20.9519861824879
20
9.41174523338492
30
0
41
1
10
21.0159120243692
20
9.39003507283641
30
0
41
1
10
21.0455365545648
20
9.3747168852158
30
0
41
1
10
21.0676324785482
20
9.35164066770184
30
0
0
SPLINE
5
F1
100
AcDbEntity
8
1
62
256
6
ByLayer
370
18
48
1
60
0
100
AcDbSpline
70
4
71
3
72
16
73
12
40
0
40
0
40
0
40
0
40
0.125000000000001
40
0.125000000000001
40
0.250000000000003
40
0.250000000000003
40
0.500000000000002
40
0.500000000000002
40
0.750000000000001
40
0.750000000000001
40
1
40
1
40
1
40
1
41
1
10
18.8944515909177
20
10.7287931964332
30
0
41
1
10
18.8753468880777
20
10.7320101958019
30
0
41
1
10
18.8557176837765
20
10.7299306120231
30
0
41
1
10
18.8199972077372
20
10.7140146920246
30
0
41
1
10
18.8041071377648
20
10.7003356097594
30
0
41
1
10
18.765507978907
20
10.6503528966911
30
0
41
1
10
18.751534112763
20
10.6080702055439
30
0
41
1
10
18.7352807255303
20
10.521658782573
30
0
41
1
10
18.7333067136025
20
10.4772189994216
30
0
41
1
10
18.7373375777207
20
10.3887335838525
30
0
41
1
10
18.7434392644643
20
10.3446964168357
30
0
41
1
10
18.753017852027
20
10.3014902004637
30
0
0
SPLINE
5
F2
100
AcDbEntity
8
1
62
256
6
ByLayer
370
18
48
1
60
0
100
AcDbSpline
70
4
71
3
72
8
73
4
40
0
40
0
40
0
40
0
40
1
40
1
40
1
40
1
41
1
10
21.865478414479
20
10.5951087731927
30
0
41
1
10
21.8719562469975
20
10.5966947039564
30
0
41
1
10
21.878433220024
20
10.5982804242957
30
0
41
1
10
21.884909365808
20
10.5998659421059
30
0
0
SPLINE
5
F3
100
AcDbEntity
8
1
62
256
6
ByLayer
370
18
48
1
60
0
100
AcDbSpline
70
4
71
3
72
16
73
12
40
0
40
0
40
0
40
0
40
0.125000000000007
40
0.125000000000007
40
0.250000000000014
40
0.250000000000014
40
0.500000000000009
40
0.500000000000009
40
0.750000000000005
40
0.750000000000005
40
1
40
1
40
1
40
1
41
1
10
19.1278858609894
20
11.4691521140861
30
0
41
1
10
19.1103910095688
20
11.4774749098491
30
0
41
1
10
19.0955045069907
20
11.4904372542044
30
0
41
1
10
19.0753730026941
20
11.5239632359592
30
0
41
1
10
19.0702026186505
20
11.544282653869
30
0
41
1
10
19.0672529452052
20
11.6073656634418
30
0
41
1
10
19.0800585794943
20
11.6500166966779
30
0
41
1
10
19.1163081401637
20
11.730123350382
30
0
41
1
10
19.1401807367097
20
11.7676585363251
30
0
41
1
10
19.1942357766235
20
11.837829536702
30
0
41
1
10
19.2244926671177
20
11.8704028883504
30
0
41
1
10
19.2571210543159
20
11.900301296698
30
0
0
SPLINE
5
F4
100
AcDbEntity
8
1
62
256
6
ByLayer
370
18
48
1
60
0
100
AcDbSpline
70
4
71
3
72
8
73
4
40
0
40
0
40
0
40
0
40
1
40
1
40
1
40
1
41
1
10
19.0617864003265
20
9.97399464867394
30
0
41
1
10
19.0683258504615
20
9.9752946190101
30
0
41
1
10
19.0748661359252
20
9.97659475540038
30
0
41
1
10
19.0814072892824
20
9.97789506431829
30
0
0
SPLINE
5
F5
100
AcDbEntity
8
1
62
256
6
ByLayer
370
18
48
1
60
0
100
AcDbSpline
70
4
71
3
72
16
73
12
40
0
40
0
40
0
40
0
40
0.125000000000001
40
0.125000000000001
40
0.250000000000003
40
0.250000000000003
40
0.500000000000002
40
0.500000000000002
40
0.750000000000001
40
0.750000000000001
40
1
40
1
40
1
40
1
41
1
10
21.884909365808
20
10.5998659421059
30
0
41
1
10
21.9040140686479
20
10.5966489427371
30
0
41
1
10
21.9236432729492
20
10.598728526516
30
0
41
1
10
21.9593637489884
20
10.6146444465144
30
0
41
1
10
21.9752538189609
20
10.6283235287797
30
0
41
1
10
22.0138529778187
20
10.678306241848
30
0
41
1
10
22.0278268439627
20
10.7205889329951
30
0
41
1
10
22.0440802311953
20
10.807000355966
30
0
41
1
10
22.0460542431232
20
10.8514401391175
30
0
41
1
10
22.042023379005
20
10.9399255546865
30
0
41
1
10
22.0359216922614
20
10.9839627217034
30
0
41
1
10
22.0263431046987
20
11.0271689380754
30
0
0
SPLINE
5
F6
100
AcDbEntity
8
1
62
256
6
ByLayer
370
18
48
1
60
0
100
AcDbSpline
70
4
71
3
72
16
73
12
40
0
40
0
40
0
40
0
40
0.250000000000002
40
0.250000000000002
40
0.500000000000003
40
0.500000000000003
40
0.750000000000005
40
0.750000000000005
40
0.875000000000002
40
0.875000000000002
40
1
40
1
40
1
40
1
41
1
10
22.0263431046987
20
11.0271689380754
30
0
41
1
10
22.0167711416309
20
11.070345273282
30
0
41
1
10
22.0036580145909
20
11.1129305018099
30
0
41
1
10
21.9699515967299
20
11.1947352162507
30
0
41
1
10
21.9493621227543
20
11.2342018547855
30
0
41
1
10
21.8982413449495
20
11.305500942526
30
0
41
1
10
21.8676972087499
20
11.3378617558115
30
0
41
1
10
21.8121218163291
20
11.3667964307103
30
0
41
1
10
21.7917237674025
20
11.37268401566
30
0
41
1
10
21.7523698410543
20
11.3721267159102
30
0
41
1
10
21.7335892661014
20
11.3656950817342
30
0
41
1
10
21.7175745563991
20
11.3546644898651
30
0
0
SPLINE
5
F7
100
AcDbEntity
8
1
62
256
6
ByLayer
370
18
48
1
60
0
100
AcDbSpline
70
4
71
3
72
8
73
4
40
0
40
0
40
0
40
0
40
1
40
1
40
1
40
1
41
1
10
21.6514750957363
20
9.859507024453
30
0
41
1
10
21.6470795633335
20
9.86452036922853
30
0
41
1
10
21.6426834694593
20
9.86953435439298
30
0
41
1
10
21.638286792225
20
9.87454900491142
30
0
0
SPLINE
5
F8
100
AcDbEntity
8
1
62
256
6
ByLayer
370
18
48
1
60
0
100
AcDbSpline
70
4
71
3
72
18
73
14
40
0
40
0
40
0
40
0
40
0.124999999999996
40
0.124999999999996
40
0.249999999999992
40
0.249999999999992
40
0.499999999999999
40
0.499999999999999
40
0.750000000000006
40
0.750000000000006
40
0.875000000000003
40
0.875000000000003
40
1
40
1
40
1
40
1
41
1
10
21.638286792225
20
9.87454900491142
30
0
41
1
10
21.6172138666384
20
9.89858382748019
30
0
41
1
10
21.6045609124385
20
9.92940269809128
30
0
41
1
10
21.5885223036454
20
9.99481887911728
30
0
41
1
10
21.585342067347
20
10.0295606274244
30
0
41
1
10
21.5855524146814
20
10.1350539037463
30
0
41
1
10
21.5983902180689
20
10.2069400449735
30
0
41
1
10
21.642088448999
20
10.3455773331648
30
0
41
1
10
21.6729289618014
20
10.4120526592355
30
0
41
1
10
21.7331368244282
20
10.4984148285487
30
0
41
1
10
21.7556031856839
20
10.5250084257925
30
0
41
1
10
21.8063676571799
20
10.5695147485457
30
0
41
1
10
21.834445861897
20
10.58751125046
30
0
41
1
10
21.865478414479
20
10.5951087731927
30
0
0
SPLINE
5
F9
100
AcDbEntity
8
1
62
256
6
ByLayer
370
18
48
1
60
0
100
AcDbSpline
70
4
71
3
72
8
73
4
40
0
40
0
40
0
40
0
40
1
40
1
40
1
40
1
41
1
10
21.1875264142936
20
11.9077976747604
30
0
41
1
10
21.1893918742228
20
11.9142006076647
30
0
41
1
10
21.191257086639
20
11.9206026910149
30
0
41
1
10
21.1931220608292
20
11.9270039566875
30
0
0
SPLINE
5
FA
100
AcDbEntity
8
1
62
256
6
ByLayer
370
18
48
1
60
0
100
AcDbSpline
70
4
71
3
72
8
73
4
40
0
40
0
40
0
40
0
40
1
40
1
40
1
40
1
41
1
10
21.7175745563991
20
11.3546644898651
30
0
41
1
10
21.7110351062642
20
11.353364519529
30
0
41
1
10
21.7044948208004
20
11.3520643831387
30
0
41
1
10
21.6979536674432
20
11.3507640742208
30
0
0
SPLINE
5
FB
100
AcDbEntity
8
1
62
256
6
ByLayer
370
18
48
1
60
0
100
AcDbSpline
70
4
71
3
72
16
73
12
40
0
40
0
40
0
40
0
40
0.125
40
0.125
40
0.25
40
0.25
40
0.5
40
0.5
40
0.75
40
0.75
40
1
40
1
40
1
40
1
41
1
10
21.1931220608292
20
11.9270039566875
30
0
41
1
10
21.2054604154265
20
11.9419406149943
30
0
41
1
10
21.2134740451953
20
11.9599797964647
30
0
41
1
10
21.2175506921717
20
11.9988725961492
30
0
41
1
10
21.2136492944157
20
12.0194733415459
30
0
41
1
10
21.1896625745774
20
12.0778925502156
30
0
41
1
10
21.1600316229756
20
12.1111356188589
30
0
41
1
10
21.093323829122
20
12.1684171765854
30
0
41
1
10
21.0558248539381
20
12.192346612638
30
0
41
1
10
20.9771788041318
20
12.233098489697
30
0
41
1
10
20.9359906554126
20
12.2498328574795
30
0
41
1
10
20.8937836806518
20
12.2631406655039
30
0
0
SPLINE
5
FC
100
AcDbEntity
8
1
62
256
6
ByLayer
370
18
48
1
60
0
100
AcDbSpline
70
4
71
3
72
18
73
14
40
0
40
0
40
0
40
0
40
0.125
40
0.125
40
0.25
40
0.25
40
0.499999999999996
40
0.499999999999996
40
0.749999999999992
40
0.749999999999992
40
0.874999999999996
40
0.874999999999996
40
1
40
1
40
1
40
1
41
1
10
18.9138825422467
20
10.7335503653464
30
0
41
1
10
18.9451109803126
20
10.7411958456041
30
0
41
1
10
18.9733973620766
20
10.7594596209465
30
0
41
1
10
19.0237754859607
20
10.8037055913476
30
0
41
1
10
19.0463648883373
20
10.8304379607996
30
0
41
1
10
19.1062789734531
20
10.916403511203
30
0
41
1
10
19.1370221173854
20
10.9824662202373
30
0
41
1
10
19.1808646766187
20
11.1212052451295
30
0
41
1
10
19.1937768805746
20
11.1934260340311
30
0
41
1
10
19.1940339009488
20
11.2988185113433
30
0
41
1
10
19.1908935147205
20
11.3335264825588
30
0
41
1
10
19.174841115844
20
11.3991784017431
30
0
41
1
10
19.1621582767045
20
11.4300625521109
30
0
41
1
10
19.1410741645007
20
11.4541101336276
30
0
0
SPLINE
5
FD
100
AcDbEntity
8
1
62
256
6
ByLayer
370
18
48
1
60
0
100
AcDbSpline
70
4
71
3
72
16
73
12
40
0
40
0
40
0
40
0
40
0.250000000000001
40
0.250000000000001
40
0.500000000000002
40
0.500000000000002
40
0.750000000000003
40
0.750000000000003
40
0.875000000000001
40
0.875000000000001
40
1
40
1
40
1
40
1
41
1
10
19.8855772760739
20
9.06551847303518
30
0
41
1
10
19.927755060739
20
9.0522198686127
30
0
41
1
10
19.9711915139902
20
9.04228355548844
30
0
41
1
10
20.0588896837758
20
9.03057181240621
30
0
41
1
10
20.1033635323366
20
9.02866950065223
30
0
41
1
10
20.190670742489
20
9.03729184902215
30
0
41
1
10
20.2339680969811
20
9.04756344026495
30
0
41
1
10
20.2868139567042
20
9.08122580447727
30
0
41
1
10
20.3021117793008
20
9.09594724056043
30
0
41
1
10
20.321306106734
20
9.13030739039166
30
0
41
1
10
20.3251264356263
20
9.14978766248643
30
0
41
1
10
20.3235810177
20
9.16917210385739
30
0
0
SPLINE
5
FE
100
AcDbEntity
8
1
62
256
6
ByLayer
370
18
48
1
60
0
100
AcDbSpline
70
4
71
3
72
8
73
4
40
0
40
0
40
0
40
0
40
1
40
1
40
1
40
1
41
1
10
19.1410741645007
20
11.4541101336276
30
0
41
1
10
19.1366774872664
20
11.4591247841461
30
0
41
1
10
19.1322813933921
20
11.4641387693105
30
0
41
1
10
19.1278858609894
20
11.4691521140861
30
0
0
SPLINE
5
FF
100
AcDbEntity
8
1
62
256
6
ByLayer
370
18
48
1
60
0
100
AcDbSpline
70
4
71
3
72
8
73
4
40
0
40
0
40
0
40
0
40
1
40
1
40
1
40
1
41
1
10
19.591834542432
20
9.42086146377866
30
0
41
1
10
19.5899690825029
20
9.41445853087438
30
0
41
1
10
19.5881038700867
20
9.40805644752413
30
0
41
1
10
19.5862388958964
20
9.40165518185151
30
0
0
SPLINE
5
100
100
AcDbEntity
8
1
62
256
6
ByLayer
370
18
48
1
60
0
100
AcDbSpline
70
4
71
3
72
16
73
12
40
0
40
0
40
0
40
0
40
0.250000000000002
40
0.250000000000002
40
0.500000000000005
40
0.500000000000005
40
0.750000000000007
40
0.750000000000007
40
0.875000000000003
40
0.875000000000003
40
1
40
1
40
1
40
1
41
1
10
20.8937836806518
20
12.2631406655039
30
0
41
1
10
20.8516058959867
20
12.2764392699264
30
0
41
1
10
20.8081694427355
20
12.2863755830506
30
0
41
1
10
20.7204712729499
20
12.2980873261328
30
0
41
1
10
20.6759974243891
20
12.2999896378868
30
0
41
1
10
20.5886902142367
20
12.2913672895169
30
0
41
1
10
20.5453928597446
20
12.2810956982741
30
0
41
1
10
20.4925470000215
20
12.2474333340618
30
0
41
1
10
20.4772491774249
20
12.2327118979786
30
0
41
1
10
20.4580548499916
20
12.1983517481474
30
0
41
1
10
20.4542345210995
20
12.1788714760527
30
0
41
1
10
20.4557799390257
20
12.1594870346817
30
0
0
SPLINE
5
101
100
AcDbEntity
8
1
62
256
6
ByLayer
370
18
48
1
60
0
100
AcDbSpline
70
4
71
3
72
20
73
16
40
0
40
0
40
0
40
0
40
0.124999999999992
40
0.124999999999992
40
0.249999999999984
40
0.249999999999984
40
0.49999999999998
40
0.49999999999998
40
0.624999999999985
40
0.624999999999985
40
0.74999999999999
40
0.74999999999999
40
0.874999999999995
40
0.874999999999995
40
1
40
1
40
1
40
1
41
1
10
19.7117284781775
20
11.9770184708372
30
0
41
1
10
19.7338608359041
20
11.953904203184
30
0
41
1
10
19.7635014967553
20
11.938604121734
30
0
41
1
10
19.8273577097809
20
11.9169217939814
30
0
41
1
10
19.8617343376282
20
11.9107325488281
30
0
41
1
10
19.9669798680815
20
11.9017829739572
30
0
41
1
10
20.0400903210868
20
11.9083889380189
30
0
41
1
10
20.146619710792
20
11.9321057529236
30
0
41
1
10
20.1810720909118
20
11.9422543134469
30
0
41
1
10
20.2478355007311
20
11.9671645221455
30
0
41
1
10
20.2804881655522
20
11.9820975176017
30
0
41
1
10
20.3412872481488
20
12.0170048225609
30
0
41
1
10
20.3695967918596
20
12.0369296966963
30
0
41
1
10
20.4184629232487
20
12.0836054440099
30
0
41
1
10
20.4390284588517
20
12.110158008974
30
0
41
1
10
20.4493473535811
20
12.1405446385789
30
0
0
SPLINE
5
102
100
AcDbEntity
8
1
62
256
6
ByLayer
370
18
48
1
60
0
100
AcDbSpline
70
4
71
3
72
8
73
4
40
0
40
0
40
0
40
0
40
1
40
1
40
1
40
1
41
1
10
21.0676324785482
20
9.35164066770184
30
0
41
1
10
21.0722448511375
20
9.34682366556129
30
0
41
1
10
21.0768566117479
20
9.34200730255031
30
0
41
1
10
21.0814677833416
20
9.33719155468788
30
0
0
SPLINE
5
103
100
AcDbEntity
8
1
62
256
6
ByLayer
370
18
48
1
60
0
100
AcDbSpline
70
4
71
3
72
8
73
4
40
0
40
0
40
0
40
0
40
1
40
1
40
1
40
1
41
1
10
20.3235810177
20
9.16917210385739
30
0
41
1
10
20.3257249354322
20
9.17548541896909
30
0
41
1
10
20.3278691270216
20
9.18179954052385
30
0
41
1
10
20.3300136031446
20
9.18811449996016
30
0
0
SPLINE
5
104
100
AcDbEntity
8
1
62
256
6
ByLayer
370
18
48
1
60
0
100
AcDbSpline
70
4
71
3
72
16
73
12
40
0
40
0
40
0
40
0
40
0.125000000000006
40
0.125000000000006
40
0.250000000000012
40
0.250000000000012
40
0.500000000000008
40
0.500000000000008
40
0.750000000000004
40
0.750000000000004
40
1
40
1
40
1
40
1
41
1
10
21.0814677833416
20
9.33719155468788
30
0
41
1
10
21.0882341315843
20
9.31903789701235
30
0
41
1
10
21.0998497061167
20
9.30307829932084
30
0
41
1
10
21.1314935351796
20
9.28010141963475
30
0
41
1
10
21.151285002908
20
9.27317975650331
30
0
41
1
10
21.2138708816041
20
9.26474326090192
30
0
41
1
10
21.2574756993498
20
9.27378288340574
30
0
41
1
10
21.3404368804362
20
9.30291274865013
30
0
41
1
10
21.3799098675479
20
9.32342309574898
30
0
41
1
10
21.4545250532361
20
9.37115663425908
30
0
41
1
10
21.4896115152116
20
9.3984594334934
30
0
41
1
10
21.5222399024098
20
9.42835784184103
30
0
0
SPLINE
5
105
100
AcDbEntity
8
1
62
256
6
ByLayer
370
18
48
1
60
0
100
AcDbSpline
70
4
71
3
72
18
73
14
40
0
40
0
40
0
40
0
40
0.124999999999995
40
0.124999999999995
40
0.24999999999999
40
0.24999999999999
40
0.499999999999993
40
0.499999999999993
40
0.749999999999995
40
0.749999999999995
40
0.874999999999998
40
0.874999999999998
40
1
40
1
40
1
40
1
41
1
10
21.6979536674432
20
11.3507640742208
30
0
41
1
10
21.66660243773
20
11.3445317966151
30
0
41
1
10
21.6335860357648
20
11.3489834521506
30
0
41
1
10
21.5689146567812
20
11.3678017000074
30
0
41
1
10
21.5372373020261
20
11.3824184087365
30
0
41
1
10
21.4459826184701
20
11.4353472130327
30
0
41
1
10
21.3901462956811
20
11.4824081475087
30
0
41
1
10
21.2919319976607
20
11.5895705696902
30
0
41
1
10
21.2497829329598
20
11.6495169002781
30
0
41
1
10
21.2050950317221
20
11.7448395234771
30
0
41
1
10
21.1932974815588
20
11.7775927616771
30
0
41
1
10
21.1801361111734
20
11.8438092449788
30
0
41
1
10
21.178589785695
20
11.8771239345137
30
0
41
1
10
21.1875264142936
20
11.9077976747604
30
0
0
SPLINE
5
106
100
AcDbEntity
8
1
62
256
6
ByLayer
370
18
48
1
60
0
100
AcDbSpline
70
4
71
3
72
18
73
14
40
0
40
0
40
0
40
0
40
0.124999999999995
40
0.124999999999995
40
0.24999999999999
40
0.24999999999999
40
0.499999999999993
40
0.499999999999993
40
0.749999999999995
40
0.749999999999995
40
0.874999999999998
40
0.874999999999998
40
1
40
1
40
1
40
1
41
1
10
19.0814072892824
20
9.97789506431829
30
0
41
1
10
19.1127585189958
20
9.98412734192397
30
0
41
1
10
19.1457749209608
20
9.97967568638848
30
0
41
1
10
19.2104462999445
20
9.96085743853166
30
0
41
1
10
19.2421236546996
20
9.94624072980255
30
0
41
1
10
19.3333783382556
20
9.89331192550631
30
0
41
1
10
19.3892146610446
20
9.84625099103042
30
0
41
1
10
19.487428959065
20
9.73908856884887
30
0
41
1
10
19.5295780237659
20
9.67914223826094
30
0
41
1
10
19.5742659250036
20
9.58381961506191
30
0
41
1
10
19.5860634751668
20
9.551066376862
30
0
41
1
10
19.5992248455522
20
9.48484989356021
30
0
41
1
10
19.6007711710307
20
9.45153520402536
30
0
41
1
10
19.591834542432
20
9.42086146377866
30
0
0
LINE
5
70
100
AcDbEntity
8
81
62
256
6
ByLayer
370
18
48
1
60
0
100
AcDbLine
10
30
20
19.5375
30
0
11
35
21
19.5375
31
0
39
0
210
0
220
0
230
1
0
LINE
5
71
100
AcDbEntity
8
80
62
256
6
ByLayer
370
18
48
1
60
0
100
AcDbLine
10
0
20
0
30
0
11
-10
21
0
31
0
39
0
210
0
220
0
230
1
0
LINE
5
72
100
AcDbEntity
8
1
62
256
6
ByLayer
370
18
48
1
60
0
100
AcDbLine
10
12.16653
20
10.969863
30
0
11
12.214919
21
11.025039
31
0
39
0
210
0
220
0
230
1
0
LINE
5
74
100
AcDbEntity
8
1
62
256
6
ByLayer
370
18
48
1
60
0
100
AcDbLine
10
12.606636
20
10.750568
30
0
11
19.797254
21
2.903386
31
0
39
0
210
0
220
0
230
1
0
LINE
5
75
100
AcDbEntity
8
1
62
256
6
ByLayer
370
18
48
1
60
0
100
AcDbLine
10
20.03654
20
2.489237
30
0
11
19.977356
21
2.445842
31
0
39
0
210
0
220
0
230
1
0
LINE
5
76
100
AcDbEntity
8
1
62
256
6
ByLayer
370
18
48
1
60
0
100
AcDbLine
10
22.569434
20
-1.691113
30
0
11
23.050358
21
-2.524099
31
0
39
0
210
0
220
0
230
1
0
LINE
5
77
100
AcDbEntity
8
1
62
256
6
ByLayer
370
18
48
1
60
0
100
AcDbLine
10
7.630541
20
14.361252
30
0
11
8.271194
21
13.912662
31
0
39
0
210
0
220
0
230
1
0
LINE
5
78
100
AcDbEntity
8
1
62
256
6
ByLayer
370
18
48
1
60
0
100
AcDbLine
10
23.057955
20
-2.437258
30
0
11
22.651612
21
-1.733451
31
0
39
0
210
0
220
0
230
1
0
LINE
5
79
100
AcDbEntity
8
1
62
256
6
ByLayer
370
18
48
1
60
0
100
AcDbLine
10
8.236219
20
13.998191
30
0
11
7.713358
21
14.364302
31
0
39
0
210
0
220
0
230
1
0
LINE
5
7A
100
AcDbEntity
8
1
62
256
6
ByLayer
370
18
48
1
60
0
100
AcDbLine
10
23.057955
20
-2.437258
30
0
11
23.114569
21
-1.790158
31
0
39
0
210
0
220
0
230
1
0
LINE
5
7B
100
AcDbEntity
8
1
62
256
6
ByLayer
370
18
48
1
60
0
100
AcDbLine
10
8.202704
20
14.382324
30
0
11
7.713358
21
14.364302
31
0
39
0
210
0
220
0
230
1
0
LINE
5
7C
100
AcDbEntity
8
1
62
256
6
ByLayer
370
18
48
1
60
0
100
AcDbLine
10
15.321274
20
8.054504
30
0
11
15.230119
21
7.970975
31
0
39
0
210
0
220
0
230
1
0
LINE
5
7D
100
AcDbEntity
8
1
62
256
6
ByLayer
370
18
48
1
60
0
100
AcDbLine
10
17.25689
20
5.759143
30
0
11
17.348045
21
5.842672
31
0
39
0
210
0
220
0
230
1
0
LINE
5
7E
100
AcDbEntity
8
1
62
256
6
ByLayer
370
18
48
1
60
0
100
AcDbLine
10
9.887561
20
-5.568912
30
0
11
9.518498
21
-5.044534
31
0
39
0
210
0
220
0
230
1
0
LINE
5
7F
100
AcDbEntity
8
1
62
256
6
ByLayer
370
18
48
1
60
0
100
AcDbLine
10
3.302892
20
1.616994
30
0
11
3.793108
21
1.203633
31
0
39
0
210
0
220
0
230
1
0
LINE
5
80
100
AcDbEntity
8
1
62
256
6
ByLayer
370
18
48
1
60
0
100
AcDbLine
10
22.988053
20
-2.768838
30
0
11
19.977356
21
2.445842
31
0
39
0
210
0
220
0
230
1
0
LINE
5
81
100
AcDbEntity
8
1
62
256
6
ByLayer
370
18
48
1
60
0
100
AcDbLine
10
9.887561
20
-5.568912
30
0
11
10.80494
21
-6.872357
31
0
39
0
210
0
220
0
230
1
0
LINE
5
82
100
AcDbEntity
8
1
62
256
6
ByLayer
370
18
48
1
60
0
100
AcDbLine
10
7.630541
20
14.361252
30
0
11
7.338486
21
14.350496
31
0
39
0
210
0
220
0
230
1
0
LINE
5
83
100
AcDbEntity
8
1
62
256
6
ByLayer
370
18
48
1
60
0
100
AcDbLine
10
0.311155
20
-12.4625
30
0
11
22.988053
21
-2.768838
31
0
39
0
210
0
220
0
230
1
0
LINE
5
84
100
AcDbEntity
8
1
62
256
6
ByLayer
370
18
48
1
60
0
100
AcDbLine
10
19.977356
20
2.445842
30
0
11
12.16653
21
10.969863
31
0
39
0
210
0
220
0
230
1
0
LINE
5
85
100
AcDbEntity
8
1
62
256
6
ByLayer
370
18
48
1
60
0
100
AcDbLine
10
0.311155
20
-12.4625
30
0
11
0
21
-12.4625
31
0
39
0
210
0
220
0
230
1
0
LINE
5
86
100
AcDbEntity
8
1
62
256
6
ByLayer
370
18
48
1
60
0
100
AcDbLine
10
15.863994
20
3.223202
30
0
11
17.102558
21
4.226453
31
0
39
0
210
0
220
0
230
1
0
LINE
5
87
100
AcDbEntity
8
1
62
256
6
ByLayer
370
18
48
1
60
0
100
AcDbLine
10
2.084361
20
2.644485
30
0
11
3.302892
21
1.616994
31
0
39
0
210
0
220
0
230
1
0
LINE
5
88
100
AcDbEntity
8
1
62
256
6
ByLayer
370
18
48
1
60
0
100
AcDbLine
10
17.119216
20
5.899961
30
0
11
15.358402
21
7.821553
31
0
39
0
210
0
220
0
230
1
0
LINE
5
89
100
AcDbEntity
8
1
62
256
6
ByLayer
370
18
48
1
60
0
100
AcDbLine
10
12.16653
20
10.969863
30
0
11
7.338486
21
14.350496
31
0
39
0
210
0
220
0
230
1
0
LINE
5
8A
100
AcDbEntity
8
1
62
256
6
ByLayer
370
18
48
1
60
0
100
AcDbLine
10
7.713358
20
14.364302
30
0
11
7.630541
21
14.361252
31
0
39
0
210
0
220
0
230
1
0
LINE
5
8B
100
AcDbEntity
8
1
62
256
6
ByLayer
370
18
48
1
60
0
100
AcDbLine
10
23.050358
20
-2.524099
30
0
11
23.057955
21
-2.437258
31
0
39
0
210
0
220
0
230
1
0
LINE
5
8C
100
AcDbEntity
8
1
62
256
6
ByLayer
370
18
48
1
60
0
100
AcDbLine
10
17.119216
20
5.899961
30
0
11
17.210135
21
5.800741
31
0
39
0
210
0
220
0
230
1
0
LINE
5
8D
100
AcDbEntity
8
1
62
256
6
ByLayer
370
18
48
1
60
0
100
AcDbLine
10
15.863994
20
3.223202
30
0
11
15.41166
21
2.856806
31
0
39
0
210
0
220
0
230
1
0
LINE
5
8E
100
AcDbEntity
8
1
62
256
6
ByLayer
370
18
48
1
60
0
100
AcDbLine
10
23.030535
20
-2.750678
30
0
11
23.050358
21
-2.524099
31
0
39
0
210
0
220
0
230
1
0
LINE
5
8F
100
AcDbEntity
8
1
62
256
6
ByLayer
370
18
48
1
60
0
100
AcDbLine
10
0.752044
20
14.107921
30
0
11
7.338486
21
14.350496
31
0
39
0
210
0
220
0
230
1
0
LINE
5
90
100
AcDbEntity
8
1
62
256
6
ByLayer
370
18
48
1
60
0
100
AcDbLine
10
0.752044
20
14.107921
30
0
11
0.609053
21
13.574271
31
0
39
0
210
0
220
0
230
1
0
LINE
5
91
100
AcDbEntity
8
1
62
256
6
ByLayer
370
18
48
1
60
0
100
AcDbLine
10
7.786804
20
8.217884
30
0
11
8.786139
21
6.976158
31
0
39
0
210
0
220
0
230
1
0
LINE
5
92
100
AcDbEntity
8
1
62
256
6
ByLayer
370
18
48
1
60
0
100
AcDbLine
10
8.786139
20
6.976158
30
0
11
9.150877
21
6.522951
31
0
39
0
210
0
220
0
230
1
0
LINE
5
93
100
AcDbEntity
8
1
62
256
6
ByLayer
370
18
48
1
60
0
100
AcDbLine
10
15.267484
20
7.920772
30
0
11
15.358402
21
7.821553
31
0
39
0
210
0
220
0
230
1
0
LINE
5
94
100
AcDbEntity
8
1
62
256
6
ByLayer
370
18
48
1
60
0
100
AcDbLine
10
23.030535
20
-2.750678
30
0
11
22.988053
21
-2.768838
31
0
39
0
210
0
220
0
230
1
0
LINE
5
95
100
AcDbEntity
8
1
62
256
6
ByLayer
370
18
48
1
60
0
100
AcDbLine
10
15.284535
20
-0.170761
30
0
11
15.704228
21
-0.573611
31
0
39
0
210
0
220
0
230
1
0
LINE
5
96
100
AcDbEntity
8
1
62
256
6
ByLayer
370
18
48
1
60
0
100
AcDbLine
10
0
20
-12.4625
30
0
11
0
21
12.71965
31
0
39
0
210
0
220
0
230
1
0
LINE
5
97
100
AcDbEntity
8
1
62
256
6
ByLayer
370
18
48
1
60
0
100
AcDbLine
10
12.178004
20
6.385723
30
0
11
12.582429
21
6.804402
31
0
39
0
210
0
220
0
230
1
0
LINE
5
98
100
AcDbEntity
8
1
62
256
6
ByLayer
370
18
48
1
60
0
100
AcDbLine
10
13.689811
20
7.950813
30
0
11
12.582429
21
6.804402
31
0
39
0
210
0
220
0
230
1
0
LINE
5
99
100
AcDbEntity
8
1
62
256
6
ByLayer
370
18
48
1
60
0
100
AcDbLine
10
15.704228
20
-0.573611
30
0
11
16.854131
21
-1.677367
31
0
39
0
210
0
220
0
230
1
0
LINE
5
9A
100
AcDbEntity
8
SK1
62
256
6
ByLayer
370
18
48
1
60
0
100
AcDbLine
10
-0.136717
20
-12.4625
30
0
11
-0.136717
21
12.6375
31
0
39
0
210
0
220
0
230
1
0
LINE
5
9C
100
AcDbEntity
8
SK1
62
256
6
ByLayer
370
18
48
1
60
0
100
AcDbLine
10
-81
20
-12.4625
30
0
11
-0.839835
21
-12.4625
31
0
39
0
210
0
220
0
230
1
0
LINE
5
9D
100
AcDbEntity
8
SK1
62
256
6
ByLayer
370
18
48
1
60
0
100
AcDbLine
10
0
20
-12.4625
30
0
11
0
21
12.71965
31
0
39
0
210
0
220
0
230
1
0
LINE
5
9E
100
AcDbEntity
8
SK1
62
256
6
ByLayer
370
18
48
1
60
0
100
AcDbLine
10
-84
20
9.4625
30
0
11
-84
21
-9.4625
31
0
39
0
210
0
220
0
230
1
0
LINE
5
9F
100
AcDbEntity
8
SK1
62
256
6
ByLayer
370
18
48
1
60
0
100
AcDbLine
10
-81
20
-12.4625
30
0
11
-84
21
-9.4625
31
0
39
0
210
0
220
0
230
1
0
LINE
5
A0
100
AcDbEntity
8
SK1
62
256
6
ByLayer
370
18
48
1
60
0
100
AcDbLine
10
-0.839835
20
-12.4625
30
0
11
-0.136717
21
-12.4625
31
0
39
0
210
0
220
0
230
1
0
LINE
5
A1
100
AcDbEntity
8
SK1
62
256
6
ByLayer
370
18
48
1
60
0
100
AcDbLine
10
-0.839835
20
12.4625
30
0
11
-0.839835
21
-12.4625
31
0
39
0
210
0
220
0
230
1
0
LINE
5
A2
100
AcDbEntity
8
SK1
62
256
6
ByLayer
370
18
48
1
60
0
100
AcDbLine
10
-81
20
12.4625
30
0
11
-0.839835
21
12.4625
31
0
39
0
210
0
220
0
230
1
0
LINE
5
A3
100
AcDbEntity
8
SK1
62
256
6
ByLayer
370
18
48
1
60
0
100
AcDbLine
10
0
20
-12.4625
30
0
11
-0.136717
21
-12.4625
31
0
39
0
210
0
220
0
230
1
0
LINE
5
A4
100
AcDbEntity
8
SK1
62
256
6
ByLayer
370
18
48
1
60
0
100
AcDbLine
10
-81
20
12.4625
30
0
11
-84
21
9.4625
31
0
39
0
210
0
220
0
230
1
0
LINE
5
A5
100
AcDbEntity
8
1
62
256
6
ByLayer
370
13
48
1
60
0
100
AcDbLine
10
18.789997
20
4.269048
30
0
11
13.879313
21
9.628119
31
0
39
0
210
0
220
0
230
1
0
LINE
5
A6
100
AcDbEntity
8
1
62
256
6
ByLayer
370
13
48
1
60
0
100
AcDbLine
10
15.651046
20
15.247337
30
0
11
22.74748
21
16.820578
31
0
39
0
210
0
220
0
230
1
0
LINE
5
A7
100
AcDbEntity
8
1
62
256
6
ByLayer
370
13
48
1
60
0
100
AcDbLine
10
29.89282
20
18.3375
30
0
11
27.429531
21
14.070958
31
0
39
0
210
0
220
0
230
1
0
LINE
5
A8
100
AcDbEntity
8
1
62
256
6
ByLayer
370
13
48
1
60
0
100
AcDbLine
10
8.99295
20
15.057705
30
0
11
13.919529
21
15.057705
31
0
39
0
210
0
220
0
230
1
0
LINE
5
A9
100
AcDbEntity
8
1
62
256
6
ByLayer
370
13
48
1
60
0
100
AcDbLine
10
24.202427
20
3.835891
30
0
11
23.773047
21
-1.071941
31
0
39
0
210
0
220
0
230
1
0
LINE
5
AA
100
AcDbEntity
8
1
62
256
6
ByLayer
370
13
48
1
60
0
100
AcDbLine
10
22.283271
20
-1.402216
30
0
11
19.819982
21
2.864326
31
0
39
0
210
0
220
0
230
1
0
LINE
5
AB
100
AcDbEntity
8
1
62
256
6
ByLayer
370
13
48
1
60
0
100
AcDbLine
10
12.569706
20
10.776614
30
0
11
8.534089
21
13.602383
31
0
39
0
210
0
220
0
230
1
0
LINE
5
AC
100
AcDbEntity
8
1
62
256
6
ByLayer
370
13
48
1
60
0
100
AcDbLine
10
24.396909
20
17.380484
30
0
11
28.861905
21
19.462546
31
0
39
0
210
0
220
0
230
1
0
LINE
5
AD
100
AcDbEntity
8
1
62
256
6
ByLayer
370
13
48
1
60
0
100
AcDbLine
10
26.727999
20
12.476604
30
0
11
24.542249
21
5.544291
31
0
39
0
210
0
220
0
230
1
0
LINE
5
AE
100
AcDbEntity
8
2
62
256
6
ByLayer
370
18
48
1
60
1
100
AcDbLine
10
30
20
18.126295
30
0
11
30
21
18.125295
31
0
39
0
210
0
220
0
230
1
0
LINE
5
B0
100
AcDbEntity
8
2
62
256
6
ByLayer
370
18
48
1
60
1
100
AcDbLine
10
27.979539
20
14.227252
30
0
11
27.979116
21
14.226345
31
0
39
0
210
0
220
0
230
1
0
MTEXT
5
107
100
AcDbEntity
8
SK6
62
256
6
ByLayer
370
13
48
1
60
0
100
AcDbMText
10
-83.089743
20
-29.38976
30
0
210
0
220
0
230
1
1
\W0.7332;QS-CP-30AR-2525-11C
40
3.5
41
0
44
1.084337
50
0
71
7
72
5
7
iso_b_vert
0
DIMENSION
5
119
100
AcDbEntity
8
SK2
62
256
6
ByLayer
370
13
48
1
60
0
100
AcDbDimension
2
DimnDraft3D1
10
-84
20
40.0375
30
0
11
-27
21
40.0375
31
0
70
32
71
5
72
1
41
1
210
0
220
0
230
1
3
Standard
100
AcDbAlignedDimension
13
30
23
21.125
33
0
14
-84
24
14.05
34
0
50
0
100
AcDbRotatedDimension
1001
ACAD
1000
DSTYLE
1002
{
1070
   279
1070
     0
1070
   172
1070
     1
1070
   173
1070
     1
1070
   340
1005
108
1070
   271
1070
     1
1070
   272
1070
     2
1070
    77
1070
     1
1070
    73
1070
     0
1070
   171
1070
     3
1070
   274
1070
     4
1070
   177
1070
   150
1070
   176
1070
     9
1070
   178
1070
    43
1070
    78
1070
     8
1070
    48
1040
-0.005
1070
    41
1041
3.175
1070
   147
1041
2.25
1070
    42
1041
1.5875
1070
    44
1041
3.175
1070
   140
1041
4.5
1070
   343
1005
11A
1070
   344
1005
11A
1002
}
0
DIMENSION
5
12E
100
AcDbEntity
8
2
62
256
6
ByLayer
370
13
48
1
60
0
100
AcDbDimension
2
DimnDraft3D2
10
30
20
-28.31255
30
0
11
15
21
-28.31255
31
0
70
32
71
5
72
1
41
1
210
0
220
0
230
1
3
Standard
100
AcDbAlignedDimension
13
0
23
-14.05
33
0
14
30
24
17.95
34
0
50
0
100
AcDbRotatedDimension
1001
ACAD
1000
DSTYLE
1002
{
1070
   279
1070
     0
1070
   172
1070
     1
1070
   173
1070
     1
1070
   340
1005
108
1070
   271
1070
     1
1070
   272
1070
     2
1070
    77
1070
     1
1070
    73
1070
     0
1070
   171
1070
     3
1070
   274
1070
     4
1070
   177
1070
   150
1070
   176
1070
     9
1070
   178
1070
    43
1070
    78
1070
     8
1070
    48
1040
-0.005
1070
    41
1041
3.175
1070
   147
1041
2.25
1070
    42
1041
1.5875
1070
    44
1041
3.175
1070
   140
1041
4.5
1070
   343
1005
11A
1070
   344
1005
11A
1002
}
0
DIMENSION
5
13C
100
AcDbEntity
8
SK2
62
256
6
ByLayer
370
13
48
1
60
0
100
AcDbDimension
2
DimnDraft3D3
10
-93.10005
20
-12.4625
30
0
11
-93.10005
21
0
31
0
70
32
71
5
72
1
41
1
210
0
220
0
230
1
3
Standard
100
AcDbAlignedDimension
13
-85.5875
23
12.4625
33
0
14
-85.5875
24
-12.4625
34
0
50
90
100
AcDbRotatedDimension
1001
ACAD
1000
DSTYLE
1002
{
1070
    74
1070
     0
1070
   279
1070
     0
1070
   172
1070
     1
1070
   173
1070
     1
1070
   340
1005
108
1070
   271
1070
     1
1070
   272
1070
     2
1070
    77
1070
     1
1070
    73
1070
     0
1070
   171
1070
     3
1070
   274
1070
     4
1070
   177
1070
   150
1070
   176
1070
     9
1070
   178
1070
    43
1070
    78
1070
     8
1070
    48
1040
-0.005
1070
    41
1041
3.175
1070
   147
1041
2.25
1070
    42
1041
1.5875
1070
    44
1041
3.175
1070
   140
1041
4.5
1070
   343
1005
11A
1070
   344
1005
11A
1002
}
0
DIMENSION
5
14A
100
AcDbEntity
8
2
62
256
6
ByLayer
370
13
48
1
60
0
100
AcDbDimension
2
DimnDraft3D4
10
50.85
20
19.5375
30
0
11
50.85
21
3.5375
31
0
70
32
71
5
72
1
41
1
210
0
220
0
230
1
3
Standard
100
AcDbAlignedDimension
13
1.5875
23
-12.4625
33
0
14
31.5875
24
19.5375
34
0
50
90
100
AcDbRotatedDimension
1001
ACAD
1000
DSTYLE
1002
{
1070
    74
1070
     0
1070
   279
1070
     0
1070
   172
1070
     1
1070
   173
1070
     1
1070
   340
1005
108
1070
   271
1070
     1
1070
   272
1070
     2
1070
    77
1070
     1
1070
    73
1070
     0
1070
   171
1070
     3
1070
   274
1070
     4
1070
   177
1070
   150
1070
   176
1070
     9
1070
   178
1070
    43
1070
    78
1070
     8
1070
    48
1040
-0.005
1070
    41
1041
3.175
1070
   147
1041
2.25
1070
    42
1041
1.5875
1070
    44
1041
3.175
1070
   140
1041
4.5
1070
   343
1005
11A
1070
   344
1005
11A
1002
}
0
DIMENSION
5
158
100
AcDbEntity
8
2
62
256
6
ByLayer
370
13
48
1
60
0
100
AcDbDimension
2
DimnDraft3D5
10
27.979116
20
14.226345
30
0
11
22.128526
21
-16.945782
31
0
70
34
71
5
72
1
41
1
210
0
220
0
230
1
3
Standard
100
AcDb2LineAngularDimension
13
30
23
18.126295
33
0
14
30
24
18.125295
34
0
15
27.979539
25
14.227252
35
0
16
21.154547
26
-21.339114
36
0
40
0
0
ENDSEC
0
SECTION
2
OBJECTS
0
DICTIONARY
5
1c2
330
0
100
AcDbDictionary
280
0
281
1
3
ACAD_GROUP
350
1c3
3
ACAD_MLINESTYLE
350
1c4
0
DICTIONARY
5
1c3
330
0
100
AcDbDictionary
280
0
281
1
0
DICTIONARY
5
1c4
330
0
100
AcDbDictionary
280
0
281
1
3
Standard
350
18
0
MLINESTYLE
5
18
330
1c4
100
AcDbMlineStyle
2
Standard
70
0
3

62
256
51
90
52
90
71
2
49
-0.5
62
256
6
ByLayer
49
0.5
62
256
6
ByLayer
0
RASTERVARIABLES
5
1b1
330

100
AcDbRasterVariables
90
0
70
1
71
1
72
1
0
ENDSEC
0
EOF
