0
SECTION
2
HEADER
9
$ACADVER
1
AC1015
9
$DWGCODEPAGE
3
ANSI_1252
9
$HANDSEED
5
1c7
9
$ANGBASE
50
0
9
$ANGDIR
70
0
9
$ATTMODE
70
1
9
$AUNITS
70
0
9
$AUPREC
70
0
9
$CECOLOR
62
256
9
$CELTSCALE
40
1
9
$CELTYPE
6
ByLayer
9
$CELWEIGHT
370
18
9
$CLAYER
8
0
9
$CMLJUST
70
0
9
$CMLSCALE
40
1
9
$CMLSTYLE
2
Standard
9
$DIMSTYLE
2
Standard
9
$TEXTSIZE
40
0.2
9
$TEXTSTYLE
7
Standard
9
$LUNITS
70
2
9
$LUPREC
70
4
9
$EXTNAMES
290
1
9
$INSUNITS
70
4
9
$LTSCALE
40
1
9
$LWDISPLAY
290
1
9
$PDMODE
70
0
9
$PDSIZE
40
0
9
$PLINEGEN
70
0
0
ENDSEC
0
SECTION
2
CLASSES
0
CLASS
1
RASTERVARIABLES
2
AcDbRasterVariables
3
ISM
90
0
280
0
281
0
0
ENDSEC
0
SECTION
2
TABLES
0
TABLE
2
VPORT
5
1bd
100
AcDbSymbolTable
0
VPORT
5
1
100
AcDbSymbolTableRecord
100
AcDbViewportTableRecord
2
*Active
70
0
10
0
20
0
11
1
21
1
12
-1
22
1
13
0
23
0
14
0.5
24
0.5
15
10
25
10
16
0
26
0
36
1
17
0
27
0
37
0
0
ENDTAB
0
TABLE
2
LTYPE
5
1be
100
AcDbSymbolTable
0
LTYPE
5
14
100
AcDbSymbolTableRecord
100
AcDbLinetypeTableRecord
70
0
2
ByBlock
3

72
65
73
0
40
0
0
LTYPE
5
15
100
AcDbSymbolTableRecord
100
AcDbLinetypeTableRecord
70
0
2
ByLayer
3

72
65
73
0
40
0
0
LTYPE
5
16
100
AcDbSymbolTableRecord
100
AcDbLinetypeTableRecord
70
0
2
CONTINUOUS
3
Solid line
72
65
73
0
40
0
0
LTYPE
5
6A
100
AcDbSymbolTableRecord
100
AcDbLinetypeTableRecord
70
0
2
CENTER
3
____ _ ____ _ ____ _ ____
72
65
73
4
40
47.5
49
22
74
0
49
-8.5
74
0
49
8.5
74
0
49
-8.5
74
0
0
LTYPE
5
6B
100
AcDbSymbolTableRecord
100
AcDbLinetypeTableRecord
70
0
2
DASHED
3
__ __ __ __ __ __ __ __ __
72
65
73
2
40
25.72
49
12.86
74
0
49
-12.86
74
0
0
ENDTAB
0
TABLE
2
LAYER
5
1bf
100
AcDbSymbolTable
0
LAYER
5
10
100
AcDbSymbolTableRecord
100
AcDbLayerTableRecord
2
0
70
0
62
7
6
CONTINUOUS
290
1
370
-3
390
0
0
LAYER
5
6D
100
AcDbSymbolTableRecord
100
AcDbLayerTableRecord
2
80
70
0
62
-6
6
CONTINUOUS
290
1
370
-3
390
0
0
LAYER
5
6F
100
AcDbSymbolTableRecord
100
AcDbLayerTableRecord
2
81
70
0
62
-3
6
CONTINUOUS
290
1
370
-3
390
0
0
LAYER
5
71
100
AcDbSymbolTableRecord
100
AcDbLayerTableRecord
2
1
70
0
62
4
6
CONTINUOUS
290
1
370
-3
390
0
0
LAYER
5
114
100
AcDbSymbolTableRecord
100
AcDbLayerTableRecord
2
2
70
0
62
7
6
CONTINUOUS
290
1
370
-3
390
0
0
LAYER
5
1aa
100
AcDbSymbolTableRecord
100
AcDbLayerTableRecord
2
SK1
70
0
62
4
6
CONTINUOUS
290
1
370
-3
390
0
0
LAYER
5
1ab
100
AcDbSymbolTableRecord
100
AcDbLayerTableRecord
2
SK6
70
0
62
5
6
CONTINUOUS
290
1
370
-3
390
0
0
LAYER
5
1ac
100
AcDbSymbolTableRecord
100
AcDbLayerTableRecord
2
SK2
70
0
62
7
6
CONTINUOUS
290
1
370
-3
390
0
0
ENDTAB
0
TABLE
2
STYLE
5
1c0
100
AcDbSymbolTable
0
STYLE
5
11
100
AcDbSymbolTableRecord
100
AcDbTextStyleTableRecord
2
Standard
3
txt
70
0
71
0
40
0
41
1
42
0
50
0
0
STYLE
5
10D
100
AcDbSymbolTableRecord
100
AcDbTextStyleTableRecord
2
iso_b_vert
3
simplex.shx
70
0
71
0
40
0
41
1
42
0
50
0
0
STYLE
5
10E
100
AcDbSymbolTableRecord
100
AcDbTextStyleTableRecord
2
DWGDirectTextStyle
3
simplex
70
0
71
0
40
0
41
1
42
0
50
0
0
ENDTAB
0
TABLE
2
DIMSTYLE
5
1c1
100
AcDbSymbolTable
100
AcDbDimStyleTable
0
DIMSTYLE
105
27
100
AcDbSymbolTableRecord
100
AcDbDimStyleTableRecord
2
Standard
70
0
3
<>
41
0.18
42
0.0625
44
0.18
140
0.18
147
0.09
73
0
74
0
77
1
271
2
275
0
278
52
280
0
340
11
0
ENDTAB
0
TABLE
2
VIEW
5
1c2
100
AcDbSymbolTable
0
ENDTAB
0
TABLE
2
UCS
5
1c3
100
AcDbSymbolTable
0
ENDTAB
0
TABLE
2
APPID
5
1c4
100
AcDbSymbolTable
0
APPID
5
12
100
AcDbSymbolTableRecord
100
AcDbRegAppTableRecord
2
ACAD
70
0
0
ENDTAB
0
TABLE
2
BLOCK_RECORD
5
1c5
100
AcDbSymbolTable
0
BLOCK_RECORD
5
1F
100
AcDbSymbolTableRecord
100
AcDbBlockTableRecord
2
*Model_Space
340
0
70
0
0
BLOCK_RECORD
5
1B
100
AcDbSymbolTableRecord
100
AcDbBlockTableRecord
2
*Paper_Space
340
0
70
0
0
BLOCK_RECORD
5
23
100
AcDbSymbolTableRecord
100
AcDbBlockTableRecord
2
*Paper_Space0
340
0
70
0
0
BLOCK_RECORD
5
110
100
AcDbSymbolTableRecord
100
AcDbBlockTableRecord
2
DimnDraft3D11
340
0
70
0
0
BLOCK_RECORD
5
11F
100
AcDbSymbolTableRecord
100
AcDbBlockTableRecord
2
DimnDraft3D2
340
0
70
0
0
BLOCK_RECORD
5
12E
100
AcDbSymbolTableRecord
100
AcDbBlockTableRecord
2
_CLOSED
340
0
70
0
0
BLOCK_RECORD
5
135
100
AcDbSymbolTableRecord
100
AcDbBlockTableRecord
2
DimnDraft3D3
340
0
70
0
0
BLOCK_RECORD
5
143
100
AcDbSymbolTableRecord
100
AcDbBlockTableRecord
2
DimnDraft3D4
340
0
70
0
0
ENDTAB
0
ENDSEC
0
SECTION
2
BLOCKS
0
BLOCK
5
20
100
AcDbEntity
8
0
100
AcDbBlockBegin
2
*Model_Space
70
0
10
0
20
0
30
0
3
*Model_Space
0
ENDBLK
5
21
100
AcDbEntity
8
0
100
AcDbBlockEnd
0
BLOCK
5
1C
100
AcDbEntity
8
0
100
AcDbBlockBegin
2
*Paper_Space
70
0
10
0
20
0
30
0
3
*Paper_Space
0
ENDBLK
5
1D
100
AcDbEntity
8
0
100
AcDbBlockEnd
0
BLOCK
5
24
100
AcDbEntity
8
0
100
AcDbBlockBegin
2
*Paper_Space0
70
0
10
0
20
0
30
0
3
*Paper_Space0
0
ENDBLK
5
25
100
AcDbEntity
8
0
100
AcDbBlockEnd
0
BLOCK
5
111
100
AcDbEntity
8
0
100
AcDbBlockBegin
2
DimnDraft3D11
70
0
10
0
20
0
30
0
3
DimnDraft3D11
0
LINE
5
113
100
AcDbEntity
8
2
62
256
6
ByLayer
370
25
48
1
60
0
100
AcDbLine
10
51.5875
20
0
30
0
11
91.775
21
0
31
0
39
0
210
0
220
0
230
1
0
LINE
5
115
100
AcDbEntity
8
2
62
256
6
ByLayer
370
25
48
1
60
0
100
AcDbLine
10
66.5875
20
45
30
0
11
91.775
21
45
31
0
39
0
210
0
220
0
230
1
0
LINE
5
116
100
AcDbEntity
8
2
62
256
6
ByLayer
370
25
48
1
60
0
100
AcDbLine
10
88.6
20
0
30
0
11
88.6
21
45
31
0
39
0
210
0
220
0
230
1
0
LINE
5
117
100
AcDbEntity
8
2
62
256
6
ByLayer
370
25
48
1
60
0
100
AcDbLine
10
88.6
20
0
30
0
11
87.749261
21
3.174997
31
0
39
0
210
0
220
0
230
1
0
LINE
5
118
100
AcDbEntity
8
2
62
256
6
ByLayer
370
25
48
1
60
0
100
AcDbLine
10
88.6
20
0
30
0
11
89.450739
21
3.175003
31
0
39
0
210
0
220
0
230
1
0
LINE
5
119
100
AcDbEntity
8
2
62
256
6
ByLayer
370
25
48
1
60
0
100
AcDbLine
10
87.749261
20
3.174997
30
0
11
89.450739
21
3.175003
31
0
39
0
210
0
220
0
230
1
0
LINE
5
11A
100
AcDbEntity
8
2
62
256
6
ByLayer
370
25
48
1
60
0
100
AcDbLine
10
88.6
20
45
30
0
11
89.450739
21
41.825003
31
0
39
0
210
0
220
0
230
1
0
LINE
5
11B
100
AcDbEntity
8
2
62
256
6
ByLayer
370
25
48
1
60
0
100
AcDbLine
10
88.6
20
45
30
0
11
87.749261
21
41.824997
31
0
39
0
210
0
220
0
230
1
0
LINE
5
11C
100
AcDbEntity
8
2
62
256
6
ByLayer
370
25
48
1
60
0
100
AcDbLine
10
89.450739
20
41.825003
30
0
11
87.749261
21
41.824997
31
0
39
0
210
0
220
0
230
1
0
MTEXT
5
11D
100
AcDbEntity
8
2
62
256
6
ByLayer
370
13
48
1
60
0
100
AcDbMText
10
87.475
20
18.106579
30
0
210
0
220
0
230
1
1
\W0.7640;45.0
40
4.5
41
0
44
1.084337
50
90
71
7
72
5
7
iso_b_vert
0
ENDBLK
5
112
100
AcDbEntity
8
0
100
AcDbBlockEnd
0
BLOCK
5
12B
100
AcDbEntity
8
0
100
AcDbBlockBegin
2
DimnDraft3D2
70
0
10
0
20
0
30
0
3
DimnDraft3D2
0
MTEXT
5
120
100
AcDbEntity
8
SK2
62
256
6
ByLayer
370
13
48
1
60
0
100
AcDbMText
10
-48.225
20
-4.156579
30
0
210
0
220
0
230
1
1
\W0.7346;63.0
40
4.5
41
0
44
1.084337
50
90
71
7
72
5
7
iso_b_vert
0
LINE
5
122
100
AcDbEntity
8
SK2
62
256
6
ByLayer
370
13
48
1
60
0
100
AcDbLine
10
-1.5875
20
31.5
30
0
11
-50.275
21
31.5
31
0
39
0
210
0
220
0
230
1
0
LINE
5
123
100
AcDbEntity
8
SK2
62
256
6
ByLayer
370
13
48
1
60
0
100
AcDbLine
10
-1.5875
20
-31.5
30
0
11
-50.275
21
-31.5
31
0
39
0
210
0
220
0
230
1
0
LINE
5
124
100
AcDbEntity
8
SK2
62
256
6
ByLayer
370
13
48
1
60
0
100
AcDbLine
10
-47.1
20
31.5
30
0
11
-47.1
21
-31.5
31
0
39
0
210
0
220
0
230
1
0
LINE
5
125
100
AcDbEntity
8
SK2
62
256
6
ByLayer
370
13
48
1
60
0
100
AcDbLine
10
-47.1
20
31.5
30
0
11
-46.249261
21
28.325003
31
0
39
0
210
0
220
0
230
1
0
LINE
5
126
100
AcDbEntity
8
SK2
62
256
6
ByLayer
370
13
48
1
60
0
100
AcDbLine
10
-47.1
20
31.5
30
0
11
-47.950739
21
28.324997
31
0
39
0
210
0
220
0
230
1
0
LINE
5
127
100
AcDbEntity
8
SK2
62
256
6
ByLayer
370
13
48
1
60
0
100
AcDbLine
10
-46.249261
20
28.325003
30
0
11
-47.950739
21
28.324997
31
0
39
0
210
0
220
0
230
1
0
LINE
5
128
100
AcDbEntity
8
SK2
62
256
6
ByLayer
370
13
48
1
60
0
100
AcDbLine
10
-47.1
20
-31.5
30
0
11
-47.950739
21
-28.325003
31
0
39
0
210
0
220
0
230
1
0
LINE
5
129
100
AcDbEntity
8
SK2
62
256
6
ByLayer
370
13
48
1
60
0
100
AcDbLine
10
-47.1
20
-31.5
30
0
11
-46.249261
21
-28.324997
31
0
39
0
210
0
220
0
230
1
0
LINE
5
12A
100
AcDbEntity
8
SK2
62
256
6
ByLayer
370
13
48
1
60
0
100
AcDbLine
10
-47.950739
20
-28.325003
30
0
11
-46.249261
21
-28.324997
31
0
39
0
210
0
220
0
230
1
0
ENDBLK
5
12C
100
AcDbEntity
8
0
100
AcDbBlockEnd
0
BLOCK
5
12F
100
AcDbEntity
8
0
100
AcDbBlockBegin
2
_CLOSED
70
0
10
0
20
0
30
0
3
_CLOSED
0
LINE
5
131
100
AcDbEntity
8
0
62
256
6
ByLayer
370
-2
48
1
60
0
100
AcDbLine
10
-1
20
0.166667
30
0
11
0
21
0
31
0
39
0
210
0
220
0
230
1
0
LINE
5
132
100
AcDbEntity
8
0
62
256
6
ByLayer
370
-2
48
1
60
0
100
AcDbLine
10
0
20
0
30
0
11
-1
21
-0.166667
31
0
39
0
210
0
220
0
230
1
0
LINE
5
133
100
AcDbEntity
8
0
62
256
6
ByLayer
370
-2
48
1
60
0
100
AcDbLine
10
-1
20
0.166667
30
0
11
-1
21
-0.166667
31
0
39
0
210
0
220
0
230
1
0
LINE
5
134
100
AcDbEntity
8
0
62
256
6
ByLayer
370
-2
48
1
60
0
100
AcDbLine
10
0
20
0
30
0
11
-1
21
0
31
0
39
0
210
0
220
0
230
1
0
ENDBLK
5
130
100
AcDbEntity
8
0
100
AcDbBlockEnd
0
BLOCK
5
140
100
AcDbEntity
8
0
100
AcDbBlockBegin
2
DimnDraft3D3
70
0
10
0
20
0
30
0
3
DimnDraft3D3
0
MTEXT
5
136
100
AcDbEntity
8
2
62
256
6
ByLayer
370
13
48
1
60
0
100
AcDbMText
10
28.343421
20
63.625
30
0
210
0
220
0
230
1
1
\W0.7346;65.0
40
4.5
41
0
44
1.084337
50
0
71
7
72
5
7
iso_b_vert
0
LINE
5
137
100
AcDbEntity
8
2
62
256
6
ByLayer
370
13
48
1
60
0
100
AcDbLine
10
65
20
46.5875
30
0
11
65
21
65.675
31
0
39
0
210
0
220
0
230
1
0
LINE
5
138
100
AcDbEntity
8
2
62
256
6
ByLayer
370
13
48
1
60
0
100
AcDbLine
10
0
20
33.0875
30
0
11
0
21
65.675
31
0
39
0
210
0
220
0
230
1
0
LINE
5
139
100
AcDbEntity
8
2
62
256
6
ByLayer
370
13
48
1
60
0
100
AcDbLine
10
65
20
62.5
30
0
11
0
21
62.5
31
0
39
0
210
0
220
0
230
1
0
LINE
5
13A
100
AcDbEntity
8
2
62
256
6
ByLayer
370
13
48
1
60
0
100
AcDbLine
10
65
20
62.5
30
0
11
61.825003
21
61.649261
31
0
39
0
210
0
220
0
230
1
0
LINE
5
13B
100
AcDbEntity
8
2
62
256
6
ByLayer
370
13
48
1
60
0
100
AcDbLine
10
65
20
62.5
30
0
11
61.824997
21
63.350739
31
0
39
0
210
0
220
0
230
1
0
LINE
5
13C
100
AcDbEntity
8
2
62
256
6
ByLayer
370
13
48
1
60
0
100
AcDbLine
10
61.825003
20
61.649261
30
0
11
61.824997
21
63.350739
31
0
39
0
210
0
220
0
230
1
0
LINE
5
13D
100
AcDbEntity
8
2
62
256
6
ByLayer
370
13
48
1
60
0
100
AcDbLine
10
0
20
62.5
30
0
11
3.174997
21
63.350739
31
0
39
0
210
0
220
0
230
1
0
LINE
5
13E
100
AcDbEntity
8
2
62
256
6
ByLayer
370
13
48
1
60
0
100
AcDbLine
10
0
20
62.5
30
0
11
3.175003
21
61.649261
31
0
39
0
210
0
220
0
230
1
0
LINE
5
13F
100
AcDbEntity
8
2
62
256
6
ByLayer
370
13
48
1
60
0
100
AcDbLine
10
3.174997
20
63.350739
30
0
11
3.175003
21
61.649261
31
0
39
0
210
0
220
0
230
1
0
ENDBLK
5
141
100
AcDbEntity
8
0
100
AcDbBlockEnd
0
BLOCK
5
14E
100
AcDbEntity
8
0
100
AcDbBlockBegin
2
DimnDraft3D4
70
0
10
0
20
0
30
0
3
DimnDraft3D4
0
MTEXT
5
144
100
AcDbEntity
8
2
62
256
6
ByLayer
370
13
48
1
60
0
100
AcDbMText
10
52.298804
20
51.365422
30
0
210
0
220
0
230
1
1
\W0.7346;93.0
40
4.5
41
0
44
1.084337
50
46.5000000000001
71
7
72
5
7
iso_b_vert
0
LINE
5
145
100
AcDbEntity
8
2
62
256
6
ByLayer
370
13
48
1
60
0
100
AcDbLine
10
65
20
46.5875
30
0
11
65
21
60.658093
31
0
39
0
210
0
220
0
230
1
0
LINE
5
146
100
AcDbEntity
8
2
62
256
6
ByLayer
370
13
48
1
60
0
100
AcDbLine
10
49.597147
20
44.235461
30
0
11
49.405998
21
44.225444
31
0
39
0
210
0
220
0
230
1
0
ARC
5
147
100
AcDbEntity
8
2
62
256
6
ByLayer
370
13
48
1
60
0
100
AcDbCircle
39
0
10
65
20
45.042691
30
0
40
12.4404027865335
210
0
220
0
230
1
100
AcDbArc
50
90
51
183
0
LINE
5
148
100
AcDbEntity
8
2
62
256
6
ByLayer
370
13
48
1
60
0
100
AcDbLine
10
65
20
57.483093
30
0
11
61.885347
21
56.432713
31
0
39
0
210
0
220
0
230
1
0
LINE
5
149
100
AcDbEntity
8
2
62
256
6
ByLayer
370
13
48
1
60
0
100
AcDbLine
10
65
20
57.483093
30
0
11
61.777435
21
58.130765
31
0
39
0
210
0
220
0
230
1
0
LINE
5
14A
100
AcDbEntity
8
2
62
256
6
ByLayer
370
13
48
1
60
0
100
AcDbLine
10
61.885347
20
56.432713
30
0
11
61.777435
21
58.130765
31
0
39
0
210
0
220
0
230
1
0
LINE
5
14B
100
AcDbEntity
8
2
62
256
6
ByLayer
370
13
48
1
60
0
100
AcDbLine
10
52.576646
20
44.39161
30
0
11
51.761206
21
47.575856
31
0
39
0
210
0
220
0
230
1
0
LINE
5
14C
100
AcDbEntity
8
2
62
256
6
ByLayer
370
13
48
1
60
0
100
AcDbLine
10
52.576646
20
44.39161
30
0
11
53.462579
21
47.556974
31
0
39
0
210
0
220
0
230
1
0
LINE
5
14D
100
AcDbEntity
8
2
62
256
6
ByLayer
370
13
48
1
60
0
100
AcDbLine
10
51.761206
20
47.575856
30
0
11
53.462579
21
47.556974
31
0
39
0
210
0
220
0
230
1
0
ENDBLK
5
14F
100
AcDbEntity
8
0
100
AcDbBlockEnd
0
ENDSEC
0
SECTION
2
ENTITIES
0
ARC
5
D2
100
AcDbEntity
8
1
62
256
6
ByLayer
370
13
48
1
60
0
100
AcDbCircle
39
0
10
-22.279208
20
32.7
30
0
40
1.2
210
0
220
0
230
-1
100
AcDbArc
50
195
51
270
0
ARC
5
D4
100
AcDbEntity
8
1
62
256
6
ByLayer
370
13
48
1
60
0
100
AcDbCircle
39
0
10
-42.882505
20
36.233597
30
0
40
1.5
210
0
220
0
230
-1
100
AcDbArc
50
249.5
51
335.799121
0
ARC
5
D5
100
AcDbEntity
8
1
62
256
6
ByLayer
370
13
48
1
60
0
100
AcDbCircle
39
0
10
-42.882505
20
36.233597
30
0
40
1.60000000000001
210
0
220
0
230
-1
100
AcDbArc
50
249.5
51
335.916678
0
ARC
5
D6
100
AcDbEntity
8
1
62
256
6
ByLayer
370
13
48
1
60
0
100
AcDbCircle
39
0
10
-42.882505
20
36.233597
30
0
40
1.59999999999998
210
0
220
0
230
-1
100
AcDbArc
50
343.083322
51
69.5
0
ARC
5
D7
100
AcDbEntity
8
1
62
256
6
ByLayer
370
13
48
1
60
0
100
AcDbCircle
39
0
10
-53.137288
20
21.391153
30
0
40
11
210
0
220
0
230
-1
100
AcDbArc
50
20.781417
51
52
0
ARC
5
D8
100
AcDbEntity
8
1
62
256
6
ByLayer
370
13
48
1
60
0
100
AcDbCircle
39
0
10
-42.882505
20
36.233597
30
0
40
1.49999999999998
210
0
220
0
230
-1
100
AcDbArc
50
343.200879
51
69.5
0
ARC
5
D9
100
AcDbEntity
8
1
62
256
6
ByLayer
370
18
48
1
60
0
100
AcDbCircle
39
0
10
-44.232136
20
36.738204
30
0
40
0.793800000000228
210
0
220
0
230
-1
100
AcDbArc
50
277
51
42
0
ARC
5
DE
100
AcDbEntity
8
1
62
256
6
ByLayer
370
18
48
1
60
0
100
AcDbCircle
39
0
10
64.2062
20
44.2062
30
0
40
0.793800000000228
210
0
220
0
230
1
100
AcDbArc
50
318
51
83
0
CIRCLE
5
D3
100
AcDbEntity
8
1
62
256
6
ByLayer
370
13
48
1
60
0
100
AcDbCircle
10
-54.219168
20
40.472202
30
0
40
1.25000000000001
39
0
210
0
220
0
230
-1
0
CIRCLE
5
DA
100
AcDbEntity
8
1
62
256
6
ByLayer
370
18
48
1
60
0
100
AcDbCircle
10
54.219168
20
40.472202
30
0
40
1.7
39
0
210
0
220
0
230
1
0
CIRCLE
5
DB
100
AcDbEntity
8
1
62
256
6
ByLayer
370
18
48
1
60
0
100
AcDbCircle
10
54.219168
20
40.472202
30
0
40
2.32000000000001
39
0
210
0
220
0
230
1
0
CIRCLE
5
DC
100
AcDbEntity
8
1
62
256
6
ByLayer
370
18
48
1
60
0
100
AcDbCircle
10
54.219168
20
40.472202
30
0
40
2.20386856458361
39
0
210
0
220
0
230
1
0
CIRCLE
5
DD
100
AcDbEntity
8
1
62
256
6
ByLayer
370
18
48
1
60
0
100
AcDbCircle
10
54.219168
20
40.472202
30
0
40
2.28743682147947
39
0
210
0
220
0
230
1
0
ELLIPSE
5
DF
100
AcDbEntity
8
1
62
256
6
ByLayer
370
13
48
1
60
0
100
AcDbEllipse
10
-2.347154
20
0
30
0
11
14.7536831606569
21
-31.0932549155805
31
0
210
0
220
0
230
-1
40
0.341999
41
-1.0912395857528
42
-0.157806186645442
0
ELLIPSE
5
E0
100
AcDbEntity
8
1
62
256
6
ByLayer
370
13
48
1
60
0
100
AcDbEllipse
10
26.347154
20
0
30
0
11
14.7536831606545
21
-31.0932549155805
31
0
210
0
220
0
230
-1
40
0.341999
41
2.05035306783694
42
2.98378646694433
0
ELLIPSE
5
E1
100
AcDbEntity
8
1
62
256
6
ByLayer
370
13
48
1
60
0
100
AcDbEllipse
10
22.555893
20
0
30
0
11
-1.92875500727024E-15
21
31.5
31
0
210
0
220
0
230
-1
40
0.087489
41
-2.85678468418746
42
-0.141788161248241
0
ELLIPSE
5
E2
100
AcDbEntity
8
1
62
256
6
ByLayer
370
13
48
1
60
0
100
AcDbEllipse
10
-2.347154
20
0
30
0
11
14.753683160657
21
31.0932549155806
31
0
210
0
220
0
230
-1
40
0.341999
41
0.157806186645442
42
1.09123958575279
0
ELLIPSE
5
E3
100
AcDbEntity
8
1
62
256
6
ByLayer
370
13
48
1
60
0
100
AcDbEllipse
10
26.347154
20
0
30
0
11
14.7536831606543
21
31.0932549155802
31
0
210
0
220
0
230
-1
40
0.341999
41
-2.98378646694433
42
-2.05035306783694
0
ELLIPSE
5
E4
100
AcDbEntity
8
1
62
256
6
ByLayer
370
13
48
1
60
0
100
AcDbEllipse
10
21.181749
20
11.39923
30
0
11
0.0870361183136281
21
6.81671108967064
31
0
210
0
220
0
230
-1
40
0.072417
41
-2.76834546888367
42
-2.88444405062085
0
ELLIPSE
5
E5
100
AcDbEntity
8
1
62
256
6
ByLayer
370
18
48
1
60
0
100
AcDbEllipse
10
53.189367
20
43.226531
30
0
11
-0.418848292192581
21
1.12026064499283
31
0
210
0
220
0
230
1
40
0.995819
41
-0.304233038584736
42
0.304233038584729
0
ELLIPSE
5
E6
100
AcDbEntity
8
1
62
256
6
ByLayer
370
18
48
1
60
0
100
AcDbEllipse
10
55.24897
20
37.717872
30
0
11
0.418848292192579
21
-1.12026064499283
31
0
210
0
220
0
230
1
40
0.995819
41
-0.304233038584736
42
0.304233038584729
0
POINT
5
6C
100
AcDbEntity
8
80
62
256
6
ByLayer
370
18
48
1
60
0
100
AcDbPoint
10
0
20
0
30
0
39
0
210
0
220
0
230
1
50
360
0
POINT
5
6E
100
AcDbEntity
8
81
62
256
6
ByLayer
370
18
48
1
60
0
100
AcDbPoint
10
65
20
45
30
0
39
0
210
0
220
0
230
1
50
360
0
SPLINE
5
E7
100
AcDbEntity
8
SK1
62
256
6
ByLayer
370
13
48
1
60
0
100
AcDbSpline
70
4
71
2
72
6
73
3
40
0
40
0
40
0
40
1
40
1
40
1
41
1
10
-0.194976888875288
20
21.8639496970129
30
0
41
1
10
-0.995008433397771
20
21.8438664509463
30
0
41
1
10
-1.7950399779393
20
21.8237832115739
30
0
0
SPLINE
5
E8
100
AcDbEntity
8
SK1
62
256
6
ByLayer
370
13
48
1
60
0
100
AcDbSpline
70
4
71
2
72
6
73
3
40
0
40
0
40
0
40
1
40
1
40
1
41
1
10
-1.7950399779393
20
-21.8237832285765
30
0
41
1
10
-0.995008433397771
20
-21.8438664676547
30
0
41
1
10
-0.194976888875288
20
-21.8639497134274
30
0
0
SPLINE
5
E9
100
AcDbEntity
8
SK1
62
256
6
ByLayer
370
13
48
1
60
0
100
AcDbSpline
70
4
71
2
72
6
73
3
40
0
40
0
40
0
40
1
40
1
40
1
41
1
10
-36.5
20
-21.1524613224033
30
0
41
1
10
-19.2499999976426
20
-21.5855495141177
30
0
41
1
10
-2
20
-22.0186362439356
30
0
0
SPLINE
5
EA
100
AcDbEntity
8
SK1
62
256
6
ByLayer
370
13
48
1
60
0
100
AcDbSpline
70
4
71
2
72
6
73
3
40
0
40
0
40
0
40
1
40
1
40
1
41
1
10
-2
20
22.018635875508
30
0
41
1
10
-19.2499999976431
20
21.5855491455244
30
0
41
1
10
-36.5
20
21.1524609537578
30
0
0
SPLINE
5
EB
100
AcDbEntity
8
SK1
62
256
6
ByLayer
370
13
48
1
60
0
100
AcDbSpline
70
4
71
3
72
13
73
9
40
0
40
0
40
0
40
0
40
0.239406675533134
40
0.368294170919284
40
0.49992791261145
40
0.631573622065792
40
0.760494133568951
40
1
40
1
40
1
40
1
41
1
10
-2
20
-22.0251209952818
30
0
41
1
10
-1.99909122094999
20
-21.9990737575566
30
0
41
1
10
-1.99103207881225
20
-21.9617163884142
30
0
41
1
10
-1.96563491014865
20
-21.9155180963752
30
0
41
1
10
-1.93886244237069
20
-21.8842503451972
30
0
41
1
10
-1.90627568046548
20
-21.8590943224455
30
0
41
1
10
-1.85883864366616
20
-21.8360608861174
30
0
41
1
10
-1.82110926269925
20
-21.8298912593851
30
0
41
1
10
-1.7950399779393
20
-21.8302933674114
30
0
0
SPLINE
5
EC
100
AcDbEntity
8
SK1
62
256
6
ByLayer
370
13
48
1
60
0
100
AcDbSpline
70
4
71
3
72
13
73
9
40
0
40
0
40
0
40
0
40
0.239505865890109
40
0.368426377204699
40
0.500072086585799
40
0.63170582834002
40
0.760593323909319
40
1
40
1
40
1
40
1
41
1
10
-1.7950399779393
20
21.8302932076066
30
0
41
1
10
-1.82110926271048
20
21.8298910995853
30
0
41
1
10
-1.85883864368745
20
21.8360607263469
30
0
41
1
10
-1.90627568048194
20
21.8590941627914
30
0
41
1
10
-1.93886244238612
20
21.8842501856704
30
0
41
1
10
-1.96563491016022
20
21.9155179370029
30
0
41
1
10
-1.99103207882064
20
21.9617162292747
30
0
41
1
10
-1.99909122095849
20
21.9990735985876
30
0
41
1
10
-2
20
22.0251208364275
30
0
0
SPLINE
5
ED
100
AcDbEntity
8
SK1
62
256
6
ByLayer
370
13
48
1
60
0
100
AcDbSpline
70
4
71
2
72
6
73
3
40
0
40
0
40
0
40
1
40
1
40
1
41
1
10
-38
20
-20.2898800072422
30
0
41
1
10
-37.2499998580851
20
-20.7226367943926
30
0
41
1
10
-36.5
20
-21.15539096789
30
0
0
SPLINE
5
EE
100
AcDbEntity
8
SK1
62
256
6
ByLayer
370
13
48
1
60
0
100
AcDbSpline
70
4
71
2
72
6
73
3
40
0
40
0
40
0
40
1
40
1
40
1
41
1
10
-36.5
20
21.155390865424
30
0
41
1
10
-37.2499998580829
20
20.722636690256
30
0
41
1
10
-38
20
20.2898799013383
30
0
0
SPLINE
5
EF
100
AcDbEntity
8
SK1
62
256
6
ByLayer
370
13
48
1
60
0
100
AcDbSpline
70
4
71
2
72
6
73
3
40
0
40
0
40
0
40
1
40
1
40
1
41
1
10
-0.194976888875288
20
-21.8704747460203
30
0
41
1
10
-0.0503946942877462
20
-21.8819452285151
30
0
41
1
10
-0.0284431992268139
20
-21.9541255320955
30
0
0
SPLINE
5
F0
100
AcDbEntity
8
SK1
62
256
6
ByLayer
370
13
48
1
60
0
100
AcDbSpline
70
4
71
2
72
6
73
3
40
0
40
0
40
0
40
1
40
1
40
1
41
1
10
-0.0279011361397181
20
21.9549104253991
30
0
41
1
10
-0.0497321260498325
20
21.8821482185099
30
0
41
1
10
-0.194976888875288
20
21.8704745864116
30
0
0
SPLINE
5
F1
100
AcDbEntity
8
SK1
62
256
6
ByLayer
370
13
48
1
60
0
100
AcDbSpline
70
4
71
3
72
23
73
19
40
0
40
0
40
0
40
0
40
0.0423096451262429
40
0.0994314502697347
40
0.156553255413226
40
0.213675060556718
40
0.327918670843702
40
0.442162281130685
40
0.499284086274177
40
0.556405891417669
40
0.670649501704652
40
0.727771306848144
40
0.784893111991636
40
0.842014917135128
40
0.89913672227862
40
0.956258527422111
40
0.984819429993857
40
1
40
1
40
1
40
1
41
1
10
-1.79503997793927
20
21.8302779653303
30
0
41
1
10
-1.79503997793927
20
21.8309033766196
30
0
41
1
10
-1.7950399779393
20
21.7871192673148
30
0
41
1
10
-1.7950399779393
20
21.5671864477184
30
0
41
1
10
-1.7950399779393
20
21.1565876158885
30
0
41
1
10
-1.7950399779393
20
20.4022762052016
30
0
41
1
10
-1.7950399779393
20
19.101073730141
30
0
41
1
10
-1.7950399779393
20
17.3747488027599
30
0
41
1
10
-1.7950399779393
20
15.7565286767833
30
0
41
1
10
-1.7950399779393
20
13.9857840798917
30
0
41
1
10
-1.7950399779393
20
11.9936135169182
30
0
41
1
10
-1.7950399779393
20
9.78370710557337
30
0
41
1
10
-1.7950399779393
20
8.02089380010176
30
0
41
1
10
-1.7950399779393
20
6.15385433510392
30
0
41
1
10
-1.7950399779393
20
4.18621524287374
30
0
41
1
10
-1.7950399779393
20
2.47030995483456
30
0
41
1
10
-1.7950399779393
20
1.22796960685096
30
0
41
1
10
-1.7950399779393
20
0.68615237839083
30
0
41
1
10
-1.7950399779393
20
0.497941450133993
30
0
0
SPLINE
5
F2
100
AcDbEntity
8
SK1
62
256
6
ByLayer
370
13
48
1
60
0
100
AcDbSpline
70
4
71
3
72
20
73
16
40
0
40
0
40
0
40
0
40
0.0579409453949782
40
0.124923478109394
40
0.19190601082381
40
0.258888543538226
40
0.392853608967058
40
0.52681867439589
40
0.593801207110306
40
0.660783739824722
40
0.794748805253554
40
0.86173133796797
40
0.928713870682386
40
0.995696403396802
40
1
40
1
40
1
40
1
41
1
10
-0.194976888875288
20
21.8685013858335
30
0
41
1
10
-0.19497688887526
20
21.8768655441727
30
0
41
1
10
-0.194976888875288
20
21.8372244540638
30
0
41
1
10
-0.194976888875288
20
21.6069519109193
30
0
41
1
10
-0.194976888875288
20
21.1957614261541
30
0
41
1
10
-0.194976888875288
20
20.4405035302762
30
0
41
1
10
-0.194976888875288
20
19.1375809778665
30
0
41
1
10
-0.194976888875288
20
17.4090434636518
30
0
41
1
10
-0.194976888875288
20
15.7889648215842
30
0
41
1
10
-0.194976888875288
20
14.0161341102769
30
0
41
1
10
-0.194976888875288
20
12.0209591616842
30
0
41
1
10
-0.194976888875288
20
9.80801707431957
30
0
41
1
10
-0.194976888875288
20
8.04231555647985
30
0
41
1
10
-0.194976888875288
20
6.75522752997537
30
0
41
1
10
-0.194976888875288
20
6.07248683105718
30
0
41
1
10
-0.194976888875288
20
6.03119978687545
30
0
0
SPLINE
5
F3
100
AcDbEntity
8
SK1
62
256
6
ByLayer
370
13
48
1
60
0
100
AcDbSpline
70
4
71
3
72
23
73
19
40
0
40
0
40
0
40
0
40
0.015180513371218
40
0.0437410008877174
40
0.100861975920716
40
0.157982950953715
40
0.215103925986713
40
0.272224901019712
40
0.329345876052711
40
0.443587826118708
40
0.500708801151707
40
0.557829776184706
40
0.672071726250703
40
0.786313676316701
40
0.843434651349699
40
0.900555626382698
40
0.957676601415697
40
1
40
1
40
1
40
1
41
1
10
-1.7950399779393
20
-0.497935257507464
30
0
41
1
10
-1.7950399779393
20
-0.686148227370921
30
0
41
1
10
-1.7950399779393
20
-1.22796752001375
30
0
41
1
10
-1.7950399779393
20
-2.47030998023922
30
0
41
1
10
-1.7950399779393
20
-4.18621515342139
30
0
41
1
10
-1.7950399779393
20
-6.15385395841673
30
0
41
1
10
-1.7950399779393
20
-8.02089392647389
30
0
41
1
10
-1.7950399779393
20
-9.78370691003113
30
0
41
1
10
-1.7950399779393
20
-11.9936132714088
30
0
41
1
10
-1.7950399779393
20
-13.9857840732081
30
0
41
1
10
-1.7950399779393
20
-15.7565284847275
30
0
41
1
10
-1.7950399779393
20
-17.3747492708666
30
0
41
1
10
-1.7950399779393
20
-19.1010732050206
30
0
41
1
10
-1.7950399779393
20
-20.4022771684283
30
0
41
1
10
-1.7950399779393
20
-21.1565874478056
30
0
41
1
10
-1.7950399779393
20
-21.5671868666521
30
0
41
1
10
-1.7950399779393
20
-21.7871401612902
30
0
41
1
10
-1.7950399779393
20
-21.8309162575068
30
0
41
1
10
-1.79503997793932
20
-21.8302774775759
30
0
0
SPLINE
5
F4
100
AcDbEntity
8
SK1
62
256
6
ByLayer
370
13
48
1
60
0
100
AcDbSpline
70
4
71
3
72
20
73
16
40
0
40
0
40
0
40
0
40
0.0043037080537209
40
0.0712861922395353
40
0.13826867642535
40
0.205251160611164
40
0.339216128982793
40
0.406198613168607
40
0.473181097354421
40
0.60714606572605
40
0.741111034097679
40
0.808093518283493
40
0.875076002469308
40
0.942058486655122
40
1
40
1
40
1
40
1
41
1
10
-0.194976888875288
20
-6.03119623886749
30
0
41
1
10
-0.194976888875288
20
-6.07248438694882
30
0
41
1
10
-0.194976888875288
20
-6.7552262401928
30
0
41
1
10
-0.194976888875288
20
-8.04231567916281
30
0
41
1
10
-0.194976888875288
20
-9.80801688319883
30
0
41
1
10
-0.194976888875288
20
-12.0209589146812
30
0
41
1
10
-0.194976888875288
20
-14.0161341032345
30
0
41
1
10
-0.194976888875288
20
-15.788964627033
30
0
41
1
10
-0.194976888875288
20
-17.4090439325775
30
0
41
1
10
-0.194976888875288
20
-19.1375804507264
30
0
41
1
10
-0.194976888875288
20
-20.4405044941378
30
0
41
1
10
-0.194976888875288
20
-21.1957612581816
30
0
41
1
10
-0.194976888875288
20
-21.6069523286528
30
0
41
1
10
-0.194976888875288
20
-21.8372259083675
30
0
41
1
10
-0.194976888875288
20
-21.8768660879839
30
0
41
1
10
-0.194976888875317
20
-21.8685012532495
30
0
0
SPLINE
5
F5
100
AcDbEntity
8
SK1
62
256
6
ByLayer
370
13
48
1
60
0
100
AcDbSpline
70
4
71
3
72
39
73
35
40
0
40
0
40
0
40
0
40
0.0136745858533069
40
0.0422819837425733
40
0.0708893816318398
40
0.0994967795211062
40
0.156711575299639
40
0.213926371078172
40
0.242533768967439
40
0.271141166856705
40
0.328355962635238
40
0.356963360524504
40
0.385570758413771
40
0.414178156303037
40
0.442785554192304
40
0.47139295208157
40
0.485696651026204
40
0.500000349970837
40
0.51430404891547
40
0.528607747860103
40
0.55721514574937
40
0.585822543638636
40
0.614429941527903
40
0.643037339417169
40
0.671644737306435
40
0.728859533084968
40
0.757466930974235
40
0.786074328863501
40
0.843289124642034
40
0.900503920420567
40
0.929111318309834
40
0.9577187161991
40
0.986326114088367
40
1
40
1
40
1
40
1
41
1
10
-2
20
22.0185530023973
30
0
41
1
10
-2
20
22.0102354301343
30
0
41
1
10
-2
20
21.9603732594408
30
0
41
1
10
-2
20
21.7599974084888
30
0
41
1
10
-2
20
21.3465298267009
30
0
41
1
10
-2
20
20.5876291894755
30
0
41
1
10
-2
20
19.2780865684795
30
0
41
1
10
-2
20
17.5410334624521
30
0
41
1
10
-2
20
15.9138019420577
30
0
41
1
10
-2
20
14.1329423938392
30
0
41
1
10
-2
20
12.1262044542746
30
0
41
1
10
-2
20
9.90157894844808
30
0
41
1
10
-2
20
8.12476155609352
30
0
41
1
10
-2
20
6.24074256492972
30
0
41
1
10
-2
20
4.25159967761499
30
0
41
1
10
-2
20
2.5111868964961
30
0
41
1
10
-2
20
1.08235400424977
30
0
41
1
10
-2
20
2.27208261E-08
30
0
41
1
10
-2
20
-1.08235390921519
30
0
41
1
10
-2
20
-2.51118690843629
30
0
41
1
10
-2
20
-4.25159964823044
30
0
41
1
10
-2
20
-6.24074217144337
30
0
41
1
10
-2
20
-8.12476166457805
30
0
41
1
10
-2
20
-9.90157877434436
30
0
41
1
10
-2
20
-12.1262042015232
30
0
41
1
10
-2
20
-14.1329423854158
30
0
41
1
10
-2
20
-15.9138017379025
30
0
41
1
10
-2
20
-17.5410339345301
30
0
41
1
10
-2
20
-19.2780860335662
30
0
41
1
10
-2
20
-20.5876301557806
30
0
41
1
10
-2
20
-21.346529659153
30
0
41
1
10
-2
20
-21.7599978216034
30
0
41
1
10
-2
20
-21.9603719645653
30
0
41
1
10
-2.00000000000003
20
-22.010234138435
30
0
41
1
10
-2.00000000000003
20
-22.0185519969273
30
0
0
SPLINE
5
F6
100
AcDbEntity
8
SK1
62
256
6
ByLayer
370
13
48
1
60
0
100
AcDbSpline
70
4
71
3
72
39
73
35
40
0
40
0
40
0
40
0
40
0.0160529929794019
40
0.0445204465763358
40
0.0729879001732697
40
0.101455353770204
40
0.158390260964071
40
0.215325168157939
40
0.243792621754873
40
0.272260075351807
40
0.329194982545675
40
0.357662436142609
40
0.386129889739543
40
0.414597343336477
40
0.443064796933411
40
0.471532250530344
40
0.485765977328811
40
0.499999704127279
40
0.514233430925745
40
0.528467157724212
40
0.556934611321146
40
0.58540206491808
40
0.613869518515014
40
0.642336972111948
40
0.670804425708882
40
0.72773933290275
40
0.756206786499684
40
0.784674240096618
40
0.841609147290485
40
0.898544054484353
40
0.927011508081287
40
0.955478961678221
40
0.983946415275155
40
1
40
1
40
1
40
1
41
1
10
-36.5
20
21.1559485375169
30
0
41
1
10
-36.5
20
21.1496524689745
30
0
41
1
10
-36.5
20
21.1029045912186
30
0
41
1
10
-36.5
20
20.9025884164263
30
0
41
1
10
-36.5
20
20.5018778480376
30
0
41
1
10
-36.5
20
19.763384993051
30
0
41
1
10
-36.5
20
18.4909300775028
30
0
41
1
10
-36.5
20
16.801583993955
30
0
41
1
10
-36.5
20
15.2144251466802
30
0
41
1
10
-36.5
20
13.4785456669563
30
0
41
1
10
-36.5
20
11.5365872380067
30
0
41
1
10
-36.5
20
9.37741591545509
30
0
41
1
10
-36.5
20
7.66287314675827
30
0
41
1
10
-36.5
20
5.85436022826511
30
0
41
1
10
-36.5
20
3.9608423365176
30
0
41
1
10
-36.5
20
2.32941166334251
30
0
41
1
10
-36.5
20
0.997014065912424
30
0
41
1
10
-36.5
20
1.676932584E-07
30
0
41
1
10
-36.5
20
-0.997014040356845
30
0
41
1
10
-36.5
20
-2.32941173515778
30
0
41
1
10
-36.5
20
-3.96084204001809
30
0
41
1
10
-36.5
20
-5.85435990948278
30
0
41
1
10
-36.5
20
-7.66287333478689
30
0
41
1
10
-36.5
20
-9.37741564601666
30
0
41
1
10
-36.5
20
-11.53658701746
30
0
41
1
10
-36.5
20
-13.4785456662698
30
0
41
1
10
-36.5
20
-15.2144249963299
30
0
41
1
10
-36.5
20
-16.8015844483731
30
0
41
1
10
-36.5
20
-18.4909295861375
30
0
41
1
10
-36.5
20
-19.7633859456667
30
0
41
1
10
-36.5
20
-20.5018776781105
30
0
41
1
10
-36.5
20
-20.9025888554179
30
0
41
1
10
-36.5
20
-21.1029068939701
30
0
41
1
10
-36.5
20
-21.1496540296282
30
0
41
1
10
-36.5
20
-21.1559494624234
30
0
0
SPLINE
5
F7
100
AcDbEntity
8
SK1
62
256
6
ByLayer
370
13
48
1
60
0
100
AcDbSpline
70
4
71
3
72
39
73
35
40
0
40
0
40
0
40
0
40
0.0209207095188254
40
0.0491019010859043
40
0.0772830926529832
40
0.105464284220062
40
0.16182666735422
40
0.218189050488378
40
0.246370242055456
40
0.274551433622535
40
0.330913816756693
40
0.359095008323772
40
0.387276199890851
40
0.41545739145793
40
0.443638583025009
40
0.471819774592087
40
0.485910370375627
40
0.500000966159166
40
0.514091561942706
40
0.528182157726245
40
0.556363349293324
40
0.584544540860403
40
0.612725732427482
40
0.640906923994561
40
0.66908811556164
40
0.725450498695797
40
0.753631690262876
40
0.781812881829955
40
0.838175264964113
40
0.894537648098271
40
0.922718839665349
40
0.950900031232428
40
0.979081222799507
40
1
40
1
40
1
40
1
41
1
10
-38
20
20.2930935632312
30
0
41
1
10
-38
20
20.2935685649109
30
0
41
1
10
-38
20
20.2526782966831
30
0
41
1
10
-38
20
20.0459061788578
30
0
41
1
10
-38
20
19.657941810806
30
0
41
1
10
-38
20
18.9398394400736
30
0
41
1
10
-38
20
17.7044407938012
30
0
41
1
10
-38
20
16.0627612954467
30
0
41
1
10
-38
20
14.5156411550098
30
0
41
1
10
-38
20
12.8247036179069
30
0
41
1
10
-38
20
10.9474697913536
30
0
41
1
10
-38
20
8.8536971719941
30
0
41
1
10
-38
20
7.20137624192125
30
0
41
1
10
-38
20
5.46830539586293
30
0
41
1
10
-38
20
3.67033144630452
30
0
41
1
10
-38
20
2.14779050597869
30
0
41
1
10
-38
20
0.911746463163183
30
0
41
1
10
-38
20
3.12542852E-07
30
0
41
1
10
-38
20
-0.911746507027743
30
0
41
1
10
-38
20
-2.14779063761824
30
0
41
1
10
-38
20
-3.67033088291646
30
0
41
1
10
-38
20
-5.46830515172132
30
0
41
1
10
-38
20
-7.20137650942658
30
0
41
1
10
-38
20
-8.85369680730176
30
0
41
1
10
-38
20
-10.9474696029843
30
0
41
1
10
-38
20
-12.8247036249507
30
0
41
1
10
-38
20
-14.5156410584188
30
0
41
1
10
-38
20
-16.0627617322199
30
0
41
1
10
-38
20
-17.7044403459469
30
0
41
1
10
-38
20
-18.9398403790117
30
0
41
1
10
-38
20
-19.6579416385018
30
0
41
1
10
-38
20
-20.0459066437044
30
0
41
1
10
-38
20
-20.2526738050722
30
0
41
1
10
-38
20
-20.2935655770054
30
0
41
1
10
-38
20
-20.2930938590505
30
0
0
SPLINE
5
F8
100
AcDbEntity
8
SK1
62
256
6
ByLayer
370
13
48
1
60
0
100
AcDbSpline
70
4
71
3
72
24
73
20
40
0
40
0
40
0
40
0
40
0.124999999999995
40
0.124999999999995
40
0.187499999999996
40
0.187499999999996
40
0.218749999999997
40
0.218749999999997
40
0.249999999999999
40
0.249999999999999
40
0.312499999999998
40
0.312499999999998
40
0.374999999999998
40
0.374999999999998
40
0.499999999999999
40
0.499999999999999
40
0.749999999999999
40
0.749999999999999
40
1
40
1
40
1
40
1
41
1
10
-0.194976888875288
20
6.03119978687536
30
0
41
1
10
-0.181826601052364
20
6.00400689107025
30
0
41
1
10
-0.167547853045193
20
5.97777938884394
30
0
41
1
10
-0.138133845529751
20
5.94543358563715
30
0
41
1
10
-0.126980857487126
20
5.93562617457019
30
0
41
1
10
-0.106202380896065
20
5.93096620796081
30
0
41
1
10
-0.0986246656831895
20
5.93160838656962
30
0
41
1
10
-0.0848219900974243
20
5.93813005665652
30
0
41
1
10
-0.0786743531298555
20
5.94375731446291
30
0
41
1
10
-0.0632480439709582
20
5.96296745832603
30
0
41
1
10
-0.0563081800737564
20
5.97850106964674
30
0
41
1
10
-0.04482486119079
20
6.0094047866759
30
0
41
1
10
-0.0403569856851504
20
6.02522873434137
30
0
41
1
10
-0.0287512143408435
20
6.07322146495508
30
0
41
1
10
-0.023539396518828
20
6.10541609960532
30
0
41
1
10
-0.0109168840251357
20
6.20134675222823
30
0
41
1
10
-0.0066122065278762
20
6.26502203387074
30
0
41
1
10
-0.0010425489437296
20
6.39204044257289
30
0
41
1
10
-2.84E-14
20
6.45536729044548
30
0
41
1
10
-2.84E-14
20
6.51833045883683
30
0
0
SPLINE
5
F9
100
AcDbEntity
8
SK1
62
256
6
ByLayer
370
13
48
1
60
0
100
AcDbSpline
70
4
71
3
72
32
73
28
40
0
40
0
40
0
40
0
40
0.0625000000000017
40
0.0625000000000017
40
0.125000000000003
40
0.125000000000003
40
0.156250000000004
40
0.156250000000004
40
0.187500000000004
40
0.187500000000004
40
0.218750000000005
40
0.218750000000005
40
0.250000000000005
40
0.250000000000005
40
0.281250000000006
40
0.281250000000006
40
0.312500000000006
40
0.312500000000006
40
0.375000000000006
40
0.375000000000006
40
0.500000000000005
40
0.500000000000005
40
0.625000000000004
40
0.625000000000004
40
0.750000000000003
40
0.750000000000003
40
1
40
1
40
1
40
1
41
1
10
-0.194976888875288
20
-6.03119623886744
30
0
41
1
10
-0.216476397702166
20
-6.075654136856
30
0
41
1
10
-0.239719906249405
20
-6.11920120285222
30
0
41
1
10
-0.291819587963403
20
-6.20349730033152
30
0
41
1
10
-0.32071178410618
20
-6.24444755452771
30
0
41
1
10
-0.370805626911078
20
-6.30039460043281
30
0
41
1
10
-0.388669874004279
20
-6.31816612880365
30
0
41
1
10
-0.428100448786694
20
-6.35095364496377
30
0
41
1
10
-0.449595363724427
20
-6.36587761222924
30
0
41
1
10
-0.496632229497095
20
-6.38968642649166
30
0
41
1
10
-0.522118500213935
20
-6.39842910180337
30
0
41
1
10
-0.575596634572378
20
-6.40581842460642
30
0
41
1
10
-0.603233784185562
20
-6.40421915223939
30
0
41
1
10
-0.656008890476727
20
-6.3911121519798
30
0
41
1
10
-0.680495240425699
20
-6.3800702756829
30
0
41
1
10
-0.725877051355496
20
-6.35269147338835
30
0
41
1
10
-0.746448178782032
20
-6.33658984105304
30
0
41
1
10
-0.803382284250034
20
-6.28468795825665
30
0
41
1
10
-0.835688145965605
20
-6.24480222126087
30
0
41
1
10
-0.921506082848794
20
-6.12205920658053
30
0
41
1
10
-0.965943458408788
20
-6.03408763197248
30
0
41
1
10
-1.04518913801428
20
-5.85300733327867
30
0
41
1
10
-1.0789513815605
20
-5.76055794093682
30
0
41
1
10
-1.13972960357563
20
-5.57388163689993
30
0
41
1
10
-1.16668399631223
20
-5.47947446809698
30
0
41
1
10
-1.24059701289747
20
-5.19369243133596
30
0
41
1
10
-1.28071949576554
20
-4.99978088797323
30
0
41
1
10
-1.31543506509499
20
-4.80312334332308
30
0
0
SPLINE
5
FA
100
AcDbEntity
8
SK1
62
256
6
ByLayer
370
13
48
1
60
0
100
AcDbSpline
70
4
71
3
72
12
73
8
40
0
40
0
40
0
40
0
40
0.5
40
0.5
40
0.75
40
0.75
40
1
40
1
40
1
40
1
41
1
10
-1.7950399779393
20
0.497941450131549
30
0
41
1
10
-1.77653911995267
20
1.24648451968332
30
0
41
1
10
-1.71691558807234
20
1.97709250533785
30
0
41
1
10
-1.58941504529798
20
3.05322425212358
30
0
41
1
10
-1.5404899234419
20
3.4089616956505
30
0
41
1
10
-1.43359349354216
20
4.11326628111749
30
0
41
1
10
-1.37594187827943
20
4.46036524583113
30
0
41
1
10
-1.31543506509496
20
4.80312611568496
30
0
0
SPLINE
5
FB
100
AcDbEntity
8
SK1
62
256
6
ByLayer
370
13
48
1
60
0
100
AcDbSpline
70
4
71
3
72
8
73
4
40
0
40
0
40
0
40
0
40
1
40
1
40
1
40
1
41
1
10
-1.7950399779393
20
-0.497935257502604
30
0
41
1
10
-1.80323928503955
20
-0.166191290205632
30
0
41
1
10
-1.80323916446787
20
0.166203092031168
30
0
41
1
10
-1.7950399779393
20
0.497941450131577
30
0
0
SPLINE
5
FC
100
AcDbEntity
8
SK1
62
256
6
ByLayer
370
13
48
1
60
0
100
AcDbSpline
70
4
71
3
72
12
73
8
40
0
40
0
40
0
40
0
40
0.5
40
0.5
40
0.75
40
0.75
40
1
40
1
40
1
40
1
41
1
10
-1.31543506509499
20
-4.80312334332308
30
0
41
1
10
-1.43626038012124
20
-4.11866935787489
30
0
41
1
10
-1.54570721487309
20
-3.42035587539115
30
0
41
1
10
-1.67354352823307
20
-2.34403380820945
30
0
41
1
10
-1.71004428429421
20
-1.97975878102099
30
0
41
1
10
-1.76632771414097
20
-1.24234487929357
30
0
41
1
10
-1.78580966896862
20
-0.871393560732287
30
0
41
1
10
-1.7950399779393
20
-0.497935257502576
30
0
0
SPLINE
5
FD
100
AcDbEntity
8
SK1
62
256
6
ByLayer
370
13
48
1
60
0
100
AcDbSpline
70
4
71
3
72
24
73
20
40
0
40
0
40
0
40
0
40
0.249999999999999
40
0.249999999999999
40
0.499999999999998
40
0.499999999999998
40
0.624999999999998
40
0.624999999999998
40
0.687499999999999
40
0.687499999999999
40
0.75
40
0.75
40
0.78125
40
0.78125
40
0.8125
40
0.8125
40
0.875000000000001
40
0.875000000000001
40
1
40
1
40
1
40
1
41
1
10
0
20
-6.51832721803825
30
0
41
1
10
0
20
-6.45521726569339
30
0
41
1
10
-0.0010439765855779
20
-6.39189461883097
30
0
41
1
10
-0.0066331530334196
20
-6.26465120291144
30
0
41
1
10
-0.0109424851580116
20
-6.20075349479788
30
0
41
1
10
-0.0237439417306291
20
-6.1040606827417
30
0
41
1
10
-0.0290317032600171
20
-6.07172258256591
30
0
41
1
10
-0.0407287462311672
20
-6.02386683286153
30
0
41
1
10
-0.0452407179008389
20
-6.00804175292333
30
0
41
1
10
-0.0569503819506849
20
-5.97703230690635
30
0
41
1
10
-0.0639847329876488
20
-5.96167149255632
30
0
41
1
10
-0.0794665436231696
20
-5.94297667581378
30
0
41
1
10
-0.0856933621546148
20
-5.93751024445527
30
0
41
1
10
-0.0994753515920763
20
-5.93143467594496
30
0
41
1
10
-0.106898867018032
20
-5.93099690243085
30
0
41
1
10
-0.127526182101434
20
-5.93600678346371
30
0
41
1
10
-0.138514071389892
20
-5.94580218732199
30
0
41
1
10
-0.167434781694766
20
-5.97774492562661
30
0
41
1
10
-0.181895439459055
20
-6.00414567932467
30
0
41
1
10
-0.194976888875288
20
-6.03119623886741
30
0
0
SPLINE
5
FE
100
AcDbEntity
8
SK1
62
256
6
ByLayer
370
13
48
1
60
0
100
AcDbSpline
70
4
71
3
72
34
73
30
40
0
40
0
40
0
40
0
40
0.25
40
0.25
40
0.374999999999999
40
0.374999999999999
40
0.499999999999998
40
0.499999999999998
40
0.562499999999997
40
0.562499999999997
40
0.624999999999997
40
0.624999999999997
40
0.687499999999996
40
0.687499999999996
40
0.718749999999997
40
0.718749999999997
40
0.749999999999997
40
0.749999999999997
40
0.781249999999998
40
0.781249999999998
40
0.812499999999998
40
0.812499999999998
40
0.843749999999998
40
0.843749999999998
40
0.874999999999999
40
0.874999999999999
40
0.937499999999999
40
0.937499999999999
40
1
40
1
40
1
40
1
41
1
10
-1.31543506509499
20
4.80312611568496
30
0
41
1
10
-1.28076938263689
20
4.99950134763085
30
0
41
1
10
-1.24073424809558
20
5.19296621604755
30
0
41
1
10
-1.16716345288555
20
5.47772249512806
30
0
41
1
10
-1.14035871890096
20
5.5717277579399
30
0
41
1
10
-1.08003870986326
20
5.75744069734628
30
0
41
1
10
-1.0466417475028
20
5.84917628269082
30
0
41
1
10
-0.98787095200197
20
5.98422522484148
30
0
41
1
10
-0.966814762414941
20
6.02881109619292
30
0
41
1
10
-0.920216840242489
20
6.11675996236784
30
0
41
1
10
-0.894592617883319
20
6.16031587632338
30
0
41
1
10
-0.836953448701905
20
6.24322425173733
30
0
41
1
10
-0.804677180595803
20
6.28326755262006
30
0
41
1
10
-0.747674065319899
20
6.33559137660481
30
0
41
1
10
-0.72705910135511
20
6.35184391326266
30
0
41
1
10
-0.681738910285105
20
6.37945377207504
30
0
41
1
10
-0.657061875915446
20
6.39070752888705
30
0
41
1
10
-0.604455725267144
20
6.40405906682957
30
0
41
1
10
-0.576546648803713
20
6.40583378366253
30
0
41
1
10
-0.522989873971284
20
6.39866789693866
30
0
41
1
10
-0.497049674240088
20
6.38984384835305
30
0
41
1
10
-0.450155916699345
20
6.36622057634358
30
0
41
1
10
-0.428474458443333
20
6.35122677304881
30
0
41
1
10
-0.389101872855861
20
6.31856901057452
30
0
41
1
10
-0.371152434600191
20
6.30076511496756
30
0
41
1
10
-0.320681081891877
20
6.24445660967771
30
0
41
1
10
-0.291787721448316
20
6.20344902962282
30
0
41
1
10
-0.239753745739222
20
6.11925961210233
30
0
41
1
10
-0.216500232484975
20
6.07570695265287
30
0
41
1
10
-0.194976888875288
20
6.03119978687542
30
0
0
SPLINE
5
FF
100
AcDbEntity
8
1
62
256
6
ByLayer
370
13
48
1
60
0
100
AcDbSpline
70
4
71
3
72
16
73
12
40
0
40
0
40
0
40
0
40
0.125000000000001
40
0.125000000000001
40
0.250000000000001
40
0.250000000000001
40
0.500000000000001
40
0.500000000000001
40
0.75
40
0.75
40
1
40
1
40
1
40
1
41
1
10
13.4613248654053
20
-9.34922131452586
30
0
41
1
10
13.4928040273174
20
-9.34922131452586
30
0
41
1
10
13.5234304266404
20
-9.35536120669531
30
0
41
1
10
13.5815263070003
20
-9.3774848792504
30
0
41
1
10
13.6079581046677
20
-9.39290424748384
30
0
41
1
10
13.6817632688742
20
-9.44829073160926
30
0
41
1
10
13.7208296342408
20
-9.49467220053486
30
0
41
1
10
13.7874862877333
20
-9.59453680346977
30
0
41
1
10
13.8142652669258
20
-9.64728479258011
30
0
41
1
10
13.859944081224
20
-9.75611455014953
30
0
41
1
10
13.8787443055275
20
-9.81241059371504
30
0
41
1
10
13.8943375672975
20
-9.86941261896695
30
0
0
SPLINE
5
100
100
AcDbEntity
8
1
62
256
6
ByLayer
370
13
48
1
60
0
100
AcDbSpline
70
4
71
3
72
8
73
4
40
0
40
0
40
0
40
0
40
1
40
1
40
1
40
1
41
1
10
22.2792076144253
20
31.270406352814
30
0
41
1
10
22.2233259829367
20
31.2442356906334
30
0
41
1
10
22.1857957184044
20
31.2154617986761
30
0
41
1
10
22.1664478739486
20
31.1838939605946
30
0
0
SPLINE
5
101
100
AcDbEntity
8
1
62
256
6
ByLayer
370
13
48
1
60
0
100
AcDbSpline
70
4
71
3
72
16
73
12
40
0
40
0
40
0
40
0
40
0.125
40
0.125
40
0.25
40
0.25
40
0.5
40
0.5
40
0.75
40
0.75
40
1
40
1
40
1
40
1
41
1
10
10.538675134595
20
-30.0805927603168
30
0
41
1
10
10.507195972683
20
-30.0805927603168
30
0
41
1
10
10.47656957336
20
-30.0786859906589
30
0
41
1
10
10.418473693
20
-30.07179594856
30
0
41
1
10
10.3920418953326
20
-30.0669872793661
30
0
41
1
10
10.3182367311262
20
-30.0496472407049
30
0
41
1
10
10.2791703657595
20
-30.0350452819074
30
0
41
1
10
10.2125137122671
20
-30.0032932993814
30
0
41
1
10
10.1857347330746
20
-29.9863830332715
30
0
41
1
10
10.1400559187763
20
-29.9511519005794
30
0
41
1
10
10.1212556944728
20
-29.9327613369586
30
0
41
1
10
10.1056624327028
20
-29.913954846469
30
0
0
SPLINE
5
102
100
AcDbEntity
8
1
62
256
6
ByLayer
370
13
48
1
60
0
100
AcDbSpline
70
4
71
3
72
16
73
12
40
0
40
0
40
0
40
0
40
0.125
40
0.125
40
0.249999999999999
40
0.249999999999999
40
0.499999999999999
40
0.499999999999999
40
0.75
40
0.75
40
1
40
1
40
1
40
1
41
1
10
13.4613248654053
20
30.0805927603167
30
0
41
1
10
13.4928040273174
20
30.0805927603167
30
0
41
1
10
13.5234304266404
20
30.0786859906588
30
0
41
1
10
13.5815263070003
20
30.0717959485599
30
0
41
1
10
13.6079581046677
20
30.0669872793659
30
0
41
1
10
13.6817632688742
20
30.0496472407047
30
0
41
1
10
13.7208296342408
20
30.0350452819073
30
0
41
1
10
13.7874862877333
20
30.0032932993812
30
0
41
1
10
13.8142652669258
20
29.9863830332713
30
0
41
1
10
13.859944081224
20
29.9511519005793
30
0
41
1
10
13.8787443055275
20
29.9327613369585
30
0
41
1
10
13.8943375672975
20
29.9139548464688
30
0
0
SPLINE
5
103
100
AcDbEntity
8
1
62
256
6
ByLayer
370
13
48
1
60
0
100
AcDbSpline
70
4
71
3
72
16
73
12
40
0
40
0
40
0
40
0
40
0.250000000000002
40
0.250000000000002
40
0.500000000000004
40
0.500000000000004
40
0.750000000000006
40
0.750000000000006
40
0.875000000000003
40
0.875000000000003
40
1
40
1
40
1
40
1
41
1
10
10.1056624327028
20
29.913954846469
30
0
41
1
10
10.121249834549
20
29.9327542695083
30
0
41
1
10
10.1399018475138
20
29.9510098933135
30
0
41
1
10
10.1854864096892
20
29.9862144781927
30
0
41
1
10
10.2124982207837
20
30.0032856662984
30
0
41
1
10
10.2791799968773
20
30.0350501233766
30
0
41
1
10
10.3189381439133
20
30.0498069467436
30
0
41
1
10
10.3915918423743
20
30.0668840803112
30
0
41
1
10
10.4185844965199
20
30.0718038277878
30
0
41
1
10
10.4761894743049
20
30.07864614904
30
0
41
1
10
10.5072412025893
20
30.0805927603169
30
0
41
1
10
10.538675134595
20
30.0805927603169
30
0
0
SPLINE
5
104
100
AcDbEntity
8
1
62
256
6
ByLayer
370
13
48
1
60
0
100
AcDbSpline
70
4
71
3
72
16
73
12
40
0
40
0
40
0
40
0
40
0.249999999999999
40
0.249999999999999
40
0.499999999999998
40
0.499999999999998
40
0.749999999999997
40
0.749999999999997
40
0.874999999999998
40
0.874999999999998
40
1
40
1
40
1
40
1
41
1
10
10.1056624327028
20
-9.86941261896649
30
0
41
1
10
10.121249834549
20
-9.81243201498833
30
0
41
1
10
10.1399018475138
20
-9.75655023082999
30
0
41
1
10
10.1854864096892
20
-9.64780841973422
30
0
41
1
10
10.2124982207837
20
-9.59456078532639
30
0
41
1
10
10.2791799968773
20
-9.49465699870655
30
0
41
1
10
10.3189381439133
20
-9.44778039735237
30
0
41
1
10
10.3915918423743
20
-9.39323398486485
30
0
41
1
10
10.4185844965199
20
-9.3774595131637
30
0
41
1
10
10.4761894743049
20
-9.35548920253879
30
0
41
1
10
10.5072412025893
20
-9.34922131452529
30
0
41
1
10
10.538675134595
20
-9.34922131452529
30
0
0
SPLINE
5
105
100
AcDbEntity
8
1
62
256
6
ByLayer
370
13
48
1
60
0
100
AcDbSpline
70
4
71
3
72
24
73
20
40
0
40
0
40
0
40
0
40
0.249999999999997
40
0.249999999999997
40
0.374999999999996
40
0.374999999999996
40
0.499999999999995
40
0.499999999999995
40
0.624999999999994
40
0.624999999999994
40
0.687499999999995
40
0.687499999999995
40
0.749999999999997
40
0.749999999999997
40
0.812499999999998
40
0.812499999999998
40
0.874999999999999
40
0.874999999999999
40
1
40
1
40
1
40
1
41
1
10
22.2792076144253
20
31.270406352814
30
0
41
1
10
22.3345718923648
20
31.2963347263464
30
0
41
1
10
22.4068624075827
20
31.3226650080164
30
0
41
1
10
22.5384285774612
20
31.3768661225646
30
0
41
1
10
22.586143868917
20
31.3974381919864
30
0
41
1
10
22.6888642929821
20
31.4470676264906
30
0
41
1
10
22.7442675459623
20
31.4763445167647
30
0
41
1
10
22.8595356007189
20
31.5469543934666
30
0
41
1
10
22.919281181307
20
31.5881361230722
30
0
41
1
10
23.0103129966714
20
31.6626452864236
30
0
41
1
10
23.0409987647207
20
31.6897454888562
30
0
41
1
10
23.1012904154956
20
31.7479950354343
30
0
41
1
10
23.1310033566705
20
31.7792150003371
30
0
41
1
10
23.1889889502353
20
31.8464265366232
30
0
41
1
10
23.2172641434965
20
31.8824139817018
30
0
41
1
10
23.2716745403097
20
31.9599343927849
30
0
41
1
10
23.2980221621613
20
32.0018760425586
30
0
41
1
10
23.3704897191151
20
32.1339329515387
30
0
41
1
10
23.410377498008
20
32.2299988128241
30
0
41
1
10
23.4383186059721
20
32.3359327541937
30
0
0
SPLINE
5
106
100
AcDbEntity
8
1
62
256
6
ByLayer
370
13
48
1
60
0
100
AcDbSpline
70
4
71
3
72
8
73
4
40
0
40
0
40
0
40
0
40
1
40
1
40
1
40
1
41
1
10
41.5143340338102
20
35.6186915057463
30
0
41
1
10
41.4834890293489
20
35.6060093146035
30
0
41
1
10
41.4526374707604
20
35.5933438203464
30
0
41
1
10
41.4217799751053
20
35.5806934853698
30
0
0
SPLINE
5
107
100
AcDbEntity
8
1
62
256
6
ByLayer
370
13
48
1
60
0
100
AcDbSpline
70
4
71
3
72
8
73
4
40
0
40
0
40
0
40
0
40
1
40
1
40
1
40
1
41
1
10
41.4465188779978
20
35.8000713790961
30
0
41
1
10
41.4149195916222
20
35.7894066065737
30
0
41
1
10
41.3833263129266
20
35.7787249328576
30
0
41
1
10
41.3517384988529
20
35.7680279232209
30
0
0
SPLINE
5
108
100
AcDbEntity
8
1
62
256
6
ByLayer
370
13
48
1
60
0
100
AcDbSpline
70
4
71
3
72
16
73
12
40
0
40
0
40
0
40
0
40
0.125
40
0.125
40
0.25
40
0.25
40
0.5
40
0.5
40
0.75
40
0.75
40
1
40
1
40
1
40
1
41
1
10
10.538675134595
20
9.34922131452535
30
0
41
1
10
10.507195972683
20
9.34922131452535
30
0
41
1
10
10.47656957336
20
9.35536120669482
30
0
41
1
10
10.418473693
20
9.37748487924992
30
0
41
1
10
10.3920418953326
20
9.39290424748336
30
0
41
1
10
10.3182367311262
20
9.44829073160875
30
0
41
1
10
10.2791703657595
20
9.49467220053438
30
0
41
1
10
10.2125137122671
20
9.59453680346928
30
0
41
1
10
10.1857347330746
20
9.64728479257963
30
0
41
1
10
10.1400559187763
20
9.75611455014905
30
0
41
1
10
10.1212556944728
20
9.81241059371456
30
0
41
1
10
10.1056624327028
20
9.86941261896646
30
0
0
SPLINE
5
109
100
AcDbEntity
8
1
62
256
6
ByLayer
370
13
48
1
60
0
100
AcDbSpline
70
4
71
3
72
16
73
12
40
0
40
0
40
0
40
0
40
0.249999999999999
40
0.249999999999999
40
0.499999999999998
40
0.499999999999998
40
0.749999999999997
40
0.749999999999997
40
0.874999999999998
40
0.874999999999998
40
1
40
1
40
1
40
1
41
1
10
13.8943375672975
20
9.86941261896695
30
0
41
1
10
13.8787501654514
20
9.81243201498881
30
0
41
1
10
13.8600981524866
20
9.75655023083047
30
0
41
1
10
13.8145135903112
20
9.6478084197347
30
0
41
1
10
13.7875017792167
20
9.59456078532688
30
0
41
1
10
13.7208200031231
20
9.49465699870706
30
0
41
1
10
13.681061856087
20
9.44778039735286
30
0
41
1
10
13.608408157626
20
9.39323398486533
30
0
41
1
10
13.5814155034805
20
9.37745951316418
30
0
41
1
10
13.5238105256954
20
9.35548920253927
30
0
41
1
10
13.492758797411
20
9.34922131452581
30
0
41
1
10
13.4613248654053
20
9.34922131452581
30
0
0
SPLINE
5
10A
100
AcDbEntity
8
1
62
256
6
ByLayer
370
13
48
1
60
0
100
AcDbSpline
70
4
71
3
72
16
73
12
40
0
40
0
40
0
40
0
40
0.250000000000002
40
0.250000000000002
40
0.500000000000004
40
0.500000000000004
40
0.750000000000005
40
0.750000000000005
40
0.875000000000003
40
0.875000000000003
40
1
40
1
40
1
40
1
41
1
10
13.8943375672975
20
-29.9139548464688
30
0
41
1
10
13.8787501654514
20
-29.9327542695082
30
0
41
1
10
13.8600981524866
20
-29.9510098933133
30
0
41
1
10
13.8145135903112
20
-29.9862144781926
30
0
41
1
10
13.7875017792167
20
-30.0032856662982
30
0
41
1
10
13.7208200031231
20
-30.0350501233764
30
0
41
1
10
13.681061856087
20
-30.0498069467435
30
0
41
1
10
13.608408157626
20
-30.066884080311
30
0
41
1
10
13.5814155034805
20
-30.0718038277877
30
0
41
1
10
13.5238105256954
20
-30.0786461490399
30
0
41
1
10
13.492758797411
20
-30.0805927603167
30
0
41
1
10
13.4613248654053
20
-30.0805927603167
30
0
0
SPLINE
5
10B
100
AcDbEntity
8
1
62
256
6
ByLayer
370
13
48
1
60
0
100
AcDbSpline
70
4
71
3
72
16
73
12
40
0
40
0
40
0
40
0
40
0.25
40
0.25
40
0.5
40
0.5
40
0.625
40
0.625
40
0.75
40
0.75
40
1
40
1
40
1
40
1
41
1
10
26.1156999572084
20
42.3739862712514
30
0
41
1
10
25.8899889313083
20
41.5314332278365
30
0
41
1
10
25.6646219012804
20
40.6898118504126
30
0
41
1
10
25.2146889115129
20
39.0084814854394
30
0
41
1
10
24.9901189424032
20
38.1687709757435
30
0
41
1
10
24.6541087286234
20
36.9107900631944
30
0
41
1
10
24.5422480856058
20
36.4917285204416
30
0
41
1
10
24.3188897097273
20
35.6541829532301
30
0
41
1
10
24.2074427053203
20
35.2358901360641
30
0
41
1
10
23.8747948025344
20
33.9856487635863
30
0
41
1
10
23.6549243266628
20
33.1571563701423
30
0
41
1
10
23.4383186059721
20
32.3359327541936
30
0
0
INSERT
5
11E
100
AcDbEntity
8
2
62
256
6
ByLayer
370
25
48
1
60
0
100
AcDbBlockReference
2
DimnDraft3D11
10
0
20
0
30
0
41
1
42
1
43
1
50
0
210
0
220
0
230
1
0
LINE
5
70
100
AcDbEntity
8
1
62
256
6
ByLayer
370
13
48
1
60
0
100
AcDbLine
10
0.3
20
-31.5
30
0
11
21.3
21
-31.5
31
0
39
0
210
0
220
0
230
1
0
LINE
5
72
100
AcDbEntity
8
1
62
256
6
ByLayer
370
13
48
1
60
0
100
AcDbLine
10
22.279208
20
31.5
30
0
11
0.3
21
31.5
31
0
39
0
210
0
220
0
230
1
0
LINE
5
73
100
AcDbEntity
8
1
62
256
6
ByLayer
370
13
48
1
60
0
100
AcDbLine
10
0.3
20
31.5
30
0
11
0
21
31.2
31
0
39
0
210
0
220
0
230
1
0
LINE
5
74
100
AcDbEntity
8
1
62
256
6
ByLayer
370
13
48
1
60
0
100
AcDbLine
10
0
20
-31.2
30
0
11
0.3
21
-31.5
31
0
39
0
210
0
220
0
230
1
0
LINE
5
75
100
AcDbEntity
8
1
62
256
6
ByLayer
370
13
48
1
60
0
100
AcDbLine
10
26.114442
20
42.376847
30
0
11
23.438319
21
32.389417
31
0
39
0
210
0
220
0
230
1
0
LINE
5
76
100
AcDbEntity
8
80
62
256
6
ByLayer
370
18
48
1
60
0
100
AcDbLine
10
0
20
0
30
0
11
-10
21
0
31
0
39
0
210
0
220
0
230
1
0
LINE
5
77
100
AcDbEntity
8
81
62
256
6
ByLayer
370
18
48
1
60
0
100
AcDbLine
10
65
20
45
30
0
11
75
21
45
31
0
39
0
210
0
220
0
230
1
0
LINE
5
78
100
AcDbEntity
8
1
62
256
6
ByLayer
370
13
48
1
60
0
100
AcDbLine
10
0.3
20
-31.5
30
0
11
0.3
21
31.5
31
0
39
0
210
0
220
0
230
1
0
LINE
5
79
100
AcDbEntity
8
1
62
256
6
ByLayer
370
13
48
1
60
0
100
AcDbLine
10
22.279208
20
31.5
30
0
11
22.279208
21
31.270406
31
0
39
0
210
0
220
0
230
1
0
LINE
5
7A
100
AcDbEntity
8
1
62
256
6
ByLayer
370
13
48
1
60
0
100
AcDbLine
10
21.3
20
-31.5
30
0
11
21.781561
21
-30.231042
31
0
39
0
210
0
220
0
230
1
0
LINE
5
7B
100
AcDbEntity
8
1
62
256
6
ByLayer
370
13
48
1
60
0
100
AcDbLine
10
0
20
-31.2
30
0
11
0
21
31.2
31
0
39
0
210
0
220
0
230
1
0
LINE
5
7C
100
AcDbEntity
8
1
62
256
6
ByLayer
370
13
48
1
60
0
100
AcDbLine
10
23.438319
20
32.389417
30
0
11
23.438319
21
32.335933
31
0
39
0
210
0
220
0
230
1
0
LINE
5
7D
100
AcDbEntity
8
1
62
256
6
ByLayer
370
13
48
1
60
0
100
AcDbLine
10
50.363965
20
43.644784
30
0
11
50.684737
21
42.78684
31
0
39
0
210
0
220
0
230
1
0
LINE
5
7E
100
AcDbEntity
8
1
62
256
6
ByLayer
370
13
48
1
60
0
100
AcDbLine
10
53.070238
20
36.406527
30
0
11
53.391011
21
35.548583
31
0
39
0
210
0
220
0
230
1
0
LINE
5
7F
100
AcDbEntity
8
1
62
256
6
ByLayer
370
13
48
1
60
0
100
AcDbLine
10
49.316873
20
43.589908
30
0
11
49.858508
21
42.141238
31
0
39
0
210
0
220
0
230
1
0
LINE
5
80
100
AcDbEntity
8
1
62
256
6
ByLayer
370
13
48
1
60
0
100
AcDbLine
10
52.023123
20
36.351714
30
0
11
52.564758
21
34.903044
31
0
39
0
210
0
220
0
230
1
0
LINE
5
81
100
AcDbEntity
8
1
62
256
6
ByLayer
370
13
48
1
60
0
100
AcDbLine
10
48.343077
20
43.538874
30
0
11
49.090062
21
41.540972
31
0
39
0
210
0
220
0
230
1
0
LINE
5
82
100
AcDbEntity
8
1
62
256
6
ByLayer
370
13
48
1
60
0
100
AcDbLine
10
51.049359
20
36.300594
30
0
11
51.796344
21
34.302693
31
0
39
0
210
0
220
0
230
1
0
LINE
5
83
100
AcDbEntity
8
1
62
256
6
ByLayer
370
13
48
1
60
0
100
AcDbLine
10
51.337761
20
43.695818
30
0
11
51.453143
21
43.387215
31
0
39
0
210
0
220
0
230
1
0
LINE
5
84
100
AcDbEntity
8
1
62
256
6
ByLayer
370
13
48
1
60
0
100
AcDbLine
10
54.044043
20
36.457538
30
0
11
54.159425
21
36.148934
31
0
39
0
210
0
220
0
230
1
0
LINE
5
85
100
AcDbEntity
8
1
62
256
6
ByLayer
370
13
48
1
60
0
100
AcDbLine
10
48.099409
20
43.526104
30
0
11
48.897814
21
41.390673
31
0
39
0
210
0
220
0
230
1
0
LINE
5
86
100
AcDbEntity
8
1
62
256
6
ByLayer
370
13
48
1
60
0
100
AcDbLine
10
50.805662
20
36.287901
30
0
11
51.604067
21
34.15247
31
0
39
0
210
0
220
0
230
1
0
LINE
5
87
100
AcDbEntity
8
1
62
256
6
ByLayer
370
13
48
1
60
0
100
AcDbLine
10
54.305844
20
36.471266
30
0
11
54.366013
21
36.310338
31
0
39
0
210
0
220
0
230
1
0
LINE
5
88
100
AcDbEntity
8
1
62
256
6
ByLayer
370
13
48
1
60
0
100
AcDbLine
10
51.599565
20
43.709539
30
0
11
51.659733
21
43.548611
31
0
39
0
210
0
220
0
230
1
0
LINE
5
89
100
AcDbEntity
8
1
62
256
6
ByLayer
370
13
48
1
60
0
100
AcDbLine
10
54.591133
20
36.486221
30
0
11
54.366013
21
36.310338
31
0
39
0
210
0
220
0
230
1
0
LINE
5
8A
100
AcDbEntity
8
1
62
256
6
ByLayer
370
13
48
1
60
0
100
AcDbLine
10
51.884855
20
43.72449
30
0
11
51.599565
21
43.709539
31
0
39
0
210
0
220
0
230
1
0
LINE
5
8B
100
AcDbEntity
8
SK1
62
256
6
ByLayer
370
13
48
1
60
0
100
AcDbLine
10
-1.315435
20
-4.803123
30
0
11
-1.315435
21
4.803126
31
0
39
0
210
0
220
0
230
1
0
LINE
5
8D
100
AcDbEntity
8
1
62
256
6
ByLayer
370
13
48
1
60
0
100
AcDbLine
10
45.562536
20
39.068537
30
0
11
45.443191
21
39.102196
31
0
39
0
210
0
220
0
230
1
0
LINE
5
8E
100
AcDbEntity
8
1
62
256
6
ByLayer
370
13
48
1
60
0
100
AcDbLine
10
21.781561
20
-30.231042
30
0
11
22.166448
21
-29.216829
31
0
39
0
210
0
220
0
230
1
0
LINE
5
8F
100
AcDbEntity
8
1
62
256
6
ByLayer
370
13
48
1
60
0
100
AcDbLine
10
48.350872
20
31.610795
30
0
11
46.765038
21
35.8523
31
0
39
0
210
0
220
0
230
1
0
LINE
5
90
100
AcDbEntity
8
1
62
256
6
ByLayer
370
13
48
1
60
0
100
AcDbLine
10
20.972028
20
4.808262
30
0
11
20.920702
21
5.05416
31
0
39
0
210
0
220
0
230
1
0
LINE
5
91
100
AcDbEntity
8
1
62
256
6
ByLayer
370
13
48
1
60
0
100
AcDbLine
10
54.159425
20
36.148934
30
0
11
54.366013
21
36.310338
31
0
39
0
210
0
220
0
230
1
0
LINE
5
92
100
AcDbEntity
8
1
62
256
6
ByLayer
370
13
48
1
60
0
100
AcDbLine
10
52.564758
20
34.903044
30
0
11
53.391011
21
35.548583
31
0
39
0
210
0
220
0
230
1
0
LINE
5
93
100
AcDbEntity
8
1
62
256
6
ByLayer
370
13
48
1
60
0
100
AcDbLine
10
51.337761
20
43.695818
30
0
11
51.599565
21
43.709539
31
0
39
0
210
0
220
0
230
1
0
LINE
5
94
100
AcDbEntity
8
1
62
256
6
ByLayer
370
13
48
1
60
0
100
AcDbLine
10
51.604067
20
34.15247
30
0
11
51.796344
21
34.302693
31
0
39
0
210
0
220
0
230
1
0
LINE
5
95
100
AcDbEntity
8
1
62
256
6
ByLayer
370
13
48
1
60
0
100
AcDbLine
10
46.173503
20
35.721161
30
0
11
46.065519
21
35.715502
31
0
39
0
210
0
220
0
230
1
0
LINE
5
96
100
AcDbEntity
8
1
62
256
6
ByLayer
370
13
48
1
60
0
100
AcDbLine
10
42.357194
20
37.638605
30
0
11
44.994293
21
38.624576
31
0
39
0
210
0
220
0
230
1
0
LINE
5
97
100
AcDbEntity
8
1
62
256
6
ByLayer
370
13
48
1
60
0
100
AcDbLine
10
13.461325
20
-30.080593
30
0
11
13.461325
21
-9.349221
31
0
39
0
210
0
220
0
230
1
0
LINE
5
98
100
AcDbEntity
8
1
62
256
6
ByLayer
370
13
48
1
60
0
100
AcDbLine
10
49.316873
20
43.589908
30
0
11
50.363965
21
43.644784
31
0
39
0
210
0
220
0
230
1
0
LINE
5
99
100
AcDbEntity
8
1
62
256
6
ByLayer
370
13
48
1
60
0
100
AcDbLine
10
45.443191
20
39.102196
30
0
11
43.871994
21
43.304554
31
0
39
0
210
0
220
0
230
1
0
LINE
5
9A
100
AcDbEntity
8
1
62
256
6
ByLayer
370
13
48
1
60
0
100
AcDbLine
10
13.461325
20
-30.080593
30
0
11
10.538675
21
-30.080593
31
0
39
0
210
0
220
0
230
1
0
LINE
5
9B
100
AcDbEntity
8
1
62
256
6
ByLayer
370
13
48
1
60
0
100
AcDbLine
10
51.796344
20
34.302693
30
0
11
52.564758
21
34.903044
31
0
39
0
210
0
220
0
230
1
0
LINE
5
9C
100
AcDbEntity
8
1
62
256
6
ByLayer
370
13
48
1
60
0
100
AcDbLine
10
46.365012
20
30.059271
30
0
11
47.855121
21
31.223472
31
0
39
0
210
0
220
0
230
1
0
LINE
5
9D
100
AcDbEntity
8
1
62
256
6
ByLayer
370
13
48
1
60
0
100
AcDbLine
10
46.065519
20
35.715502
30
0
11
43.442837
21
34.734922
31
0
39
0
210
0
220
0
230
1
0
LINE
5
9E
100
AcDbEntity
8
1
62
256
6
ByLayer
370
13
48
1
60
0
100
AcDbLine
10
46.044915
20
35.81456
30
0
11
46.065519
21
35.715502
31
0
39
0
210
0
220
0
230
1
0
LINE
5
9F
100
AcDbEntity
8
1
62
256
6
ByLayer
370
13
48
1
60
0
100
AcDbLine
10
26.1157
20
42.373986
30
0
11
26.151227
21
42.375848
31
0
39
0
210
0
220
0
230
1
0
LINE
5
A0
100
AcDbEntity
8
1
62
256
6
ByLayer
370
13
48
1
60
0
100
AcDbLine
10
48.268247
20
31.546241
30
0
11
48.350872
21
31.610795
31
0
39
0
210
0
220
0
230
1
0
LINE
5
A1
100
AcDbEntity
8
1
62
256
6
ByLayer
370
13
48
1
60
0
100
AcDbLine
10
26.151227
20
-18.716568
30
0
11
42.852939
21
25.293994
31
0
39
0
210
0
220
0
230
1
0
LINE
5
A2
100
AcDbEntity
8
1
62
256
6
ByLayer
370
13
48
1
60
0
100
AcDbLine
10
13.894338
20
-29.913955
30
0
11
13.894338
21
-9.869413
31
0
39
0
210
0
220
0
230
1
0
LINE
5
A3
100
AcDbEntity
8
1
62
256
6
ByLayer
370
13
48
1
60
0
100
AcDbLine
10
26.151227
20
42.375848
30
0
11
43.348448
21
43.277116
31
0
39
0
210
0
220
0
230
1
0
LINE
5
A4
100
AcDbEntity
8
1
62
256
6
ByLayer
370
13
48
1
60
0
100
AcDbLine
10
22.166448
20
31.183894
30
0
11
22.166448
21
-29.216829
31
0
39
0
210
0
220
0
230
1
0
LINE
5
A5
100
AcDbEntity
8
1
62
256
6
ByLayer
370
13
48
1
60
0
100
AcDbLine
10
48.343077
20
43.538874
30
0
11
49.316873
21
43.589908
31
0
39
0
210
0
220
0
230
1
0
LINE
5
A6
100
AcDbEntity
8
1
62
256
6
ByLayer
370
13
48
1
60
0
100
AcDbLine
10
10.105662
20
9.869413
30
0
11
10.105662
21
29.913955
31
0
39
0
210
0
220
0
230
1
0
LINE
5
A7
100
AcDbEntity
8
1
62
256
6
ByLayer
370
13
48
1
60
0
100
AcDbLine
10
48.268247
20
31.546241
30
0
11
47.855121
21
31.223472
31
0
39
0
210
0
220
0
230
1
0
LINE
5
A8
100
AcDbEntity
8
1
62
256
6
ByLayer
370
13
48
1
60
0
100
AcDbLine
10
43.407816
20
34.828589
30
0
11
43.442837
21
34.734922
31
0
39
0
210
0
220
0
230
1
0
LINE
5
A9
100
AcDbEntity
8
1
62
256
6
ByLayer
370
13
48
1
60
0
100
AcDbLine
10
10.538675
20
30.080593
30
0
11
13.461325
21
30.080593
31
0
39
0
210
0
220
0
230
1
0
LINE
5
AA
100
AcDbEntity
8
1
62
256
6
ByLayer
370
13
48
1
60
0
100
AcDbLine
10
42.322173
20
37.732273
30
0
11
44.944855
21
38.712853
31
0
39
0
210
0
220
0
230
1
0
LINE
5
AB
100
AcDbEntity
8
1
62
256
6
ByLayer
370
13
48
1
60
0
100
AcDbLine
10
46.697049
20
35.748599
30
0
11
46.173503
21
35.721161
31
0
39
0
210
0
220
0
230
1
0
LINE
5
AC
100
AcDbEntity
8
1
62
256
6
ByLayer
370
13
48
1
60
0
100
AcDbLine
10
45.030065
20
38.779426
30
0
11
43.348448
21
43.277116
31
0
39
0
210
0
220
0
230
1
0
LINE
5
AD
100
AcDbEntity
8
1
62
256
6
ByLayer
370
13
48
1
60
0
100
AcDbLine
10
48.099409
20
43.526104
30
0
11
48.343077
21
43.538874
31
0
39
0
210
0
220
0
230
1
0
LINE
5
AE
100
AcDbEntity
8
1
62
256
6
ByLayer
370
13
48
1
60
0
100
AcDbLine
10
22.166448
20
-29.216829
30
0
11
26.151227
21
-18.716568
31
0
39
0
210
0
220
0
230
1
0
LINE
5
AF
100
AcDbEntity
8
1
62
256
6
ByLayer
370
13
48
1
60
0
100
AcDbLine
10
51.604067
20
34.15247
30
0
11
48.350872
21
31.610795
31
0
39
0
210
0
220
0
230
1
0
LINE
5
B0
100
AcDbEntity
8
1
62
256
6
ByLayer
370
13
48
1
60
0
100
AcDbLine
10
10.105662
20
-29.913955
30
0
11
10.105662
21
-9.869413
31
0
39
0
210
0
220
0
230
1
0
LINE
5
B1
100
AcDbEntity
8
1
62
256
6
ByLayer
370
13
48
1
60
0
100
AcDbLine
10
45.562536
20
39.068537
30
0
11
43.976703
21
43.310042
31
0
39
0
210
0
220
0
230
1
0
LINE
5
B2
100
AcDbEntity
8
1
62
256
6
ByLayer
370
13
48
1
60
0
100
AcDbLine
10
44.994293
20
38.624576
30
0
11
45.562536
21
39.068537
31
0
39
0
210
0
220
0
230
1
0
LINE
5
B3
100
AcDbEntity
8
1
62
256
6
ByLayer
370
13
48
1
60
0
100
AcDbLine
10
50.363965
20
43.644784
30
0
11
51.337761
21
43.695818
31
0
39
0
210
0
220
0
230
1
0
LINE
5
B4
100
AcDbEntity
8
1
62
256
6
ByLayer
370
13
48
1
60
0
100
AcDbLine
10
13.461325
20
9.349221
30
0
11
13.461325
21
30.080593
31
0
39
0
210
0
220
0
230
1
0
LINE
5
B5
100
AcDbEntity
8
1
62
256
6
ByLayer
370
13
48
1
60
0
100
AcDbLine
10
42.357194
20
37.638605
30
0
11
42.322173
21
37.732273
31
0
39
0
210
0
220
0
230
1
0
LINE
5
B6
100
AcDbEntity
8
1
62
256
6
ByLayer
370
13
48
1
60
0
100
AcDbLine
10
44.994293
20
38.624576
30
0
11
44.944855
21
38.712853
31
0
39
0
210
0
220
0
230
1
0
LINE
5
B7
100
AcDbEntity
8
1
62
256
6
ByLayer
370
13
48
1
60
0
100
AcDbLine
10
44.944855
20
38.712853
30
0
11
45.030065
21
38.779426
31
0
39
0
210
0
220
0
230
1
0
LINE
5
B8
100
AcDbEntity
8
1
62
256
6
ByLayer
370
13
48
1
60
0
100
AcDbLine
10
47.855121
20
31.223472
30
0
11
46.173503
21
35.721161
31
0
39
0
210
0
220
0
230
1
0
LINE
5
B9
100
AcDbEntity
8
1
62
256
6
ByLayer
370
13
48
1
60
0
100
AcDbLine
10
45.030065
20
38.779426
30
0
11
45.443191
21
39.102196
31
0
39
0
210
0
220
0
230
1
0
LINE
5
BA
100
AcDbEntity
8
1
62
256
6
ByLayer
370
13
48
1
60
0
100
AcDbLine
10
43.871994
20
43.304554
30
0
11
43.976703
21
43.310042
31
0
39
0
210
0
220
0
230
1
0
LINE
5
BB
100
AcDbEntity
8
1
62
256
6
ByLayer
370
13
48
1
60
0
100
AcDbLine
10
13.894338
20
9.869413
30
0
11
13.894338
21
29.913955
31
0
39
0
210
0
220
0
230
1
0
LINE
5
BC
100
AcDbEntity
8
1
62
256
6
ByLayer
370
13
48
1
60
0
100
AcDbLine
10
46.044915
20
35.81456
30
0
11
43.407816
21
34.828589
31
0
39
0
210
0
220
0
230
1
0
LINE
5
BD
100
AcDbEntity
8
1
62
256
6
ByLayer
370
13
48
1
60
0
100
AcDbLine
10
10.538675
20
9.349221
30
0
11
10.538675
21
30.080593
31
0
39
0
210
0
220
0
230
1
0
LINE
5
BE
100
AcDbEntity
8
1
62
256
6
ByLayer
370
13
48
1
60
0
100
AcDbLine
10
41.514334
20
35.618692
30
0
11
41.446519
21
35.800071
31
0
39
0
210
0
220
0
230
1
0
LINE
5
BF
100
AcDbEntity
8
1
62
256
6
ByLayer
370
13
48
1
60
0
100
AcDbLine
10
41.42178
20
35.580693
30
0
11
41.351738
21
35.768028
31
0
39
0
210
0
220
0
230
1
0
LINE
5
C0
100
AcDbEntity
8
1
62
256
6
ByLayer
370
13
48
1
60
0
100
AcDbLine
10
46.765038
20
35.8523
30
0
11
46.044915
21
35.81456
31
0
39
0
210
0
220
0
230
1
0
LINE
5
C1
100
AcDbEntity
8
1
62
256
6
ByLayer
370
13
48
1
60
0
100
AcDbLine
10
48.268247
20
31.546241
30
0
11
46.697049
21
35.748599
31
0
39
0
210
0
220
0
230
1
0
LINE
5
C2
100
AcDbEntity
8
1
62
256
6
ByLayer
370
13
48
1
60
0
100
AcDbLine
10
48.099409
20
43.526104
30
0
11
43.976703
21
43.310042
31
0
39
0
210
0
220
0
230
1
0
LINE
5
C3
100
AcDbEntity
8
1
62
256
6
ByLayer
370
13
48
1
60
0
100
AcDbLine
10
26.151227
20
-18.716568
30
0
11
26.151227
21
42.375848
31
0
39
0
210
0
220
0
230
1
0
LINE
5
C4
100
AcDbEntity
8
1
62
256
6
ByLayer
370
13
48
1
60
0
100
AcDbLine
10
10.538675
20
-9.349221
30
0
11
13.461325
21
-9.349221
31
0
39
0
210
0
220
0
230
1
0
LINE
5
C5
100
AcDbEntity
8
1
62
256
6
ByLayer
370
13
48
1
60
0
100
AcDbLine
10
53.391011
20
35.548583
30
0
11
54.159425
21
36.148934
31
0
39
0
210
0
220
0
230
1
0
LINE
5
C6
100
AcDbEntity
8
1
62
256
6
ByLayer
370
13
48
1
60
0
100
AcDbLine
10
13.461325
20
9.349221
30
0
11
10.538675
21
9.349221
31
0
39
0
210
0
220
0
230
1
0
LINE
5
C7
100
AcDbEntity
8
1
62
256
6
ByLayer
370
13
48
1
60
0
100
AcDbLine
10
43.871994
20
43.304554
30
0
11
43.348448
21
43.277116
31
0
39
0
210
0
220
0
230
1
0
LINE
5
C8
100
AcDbEntity
8
1
62
256
6
ByLayer
370
13
48
1
60
0
100
AcDbLine
10
46.765038
20
35.8523
30
0
11
46.697049
21
35.748599
31
0
39
0
210
0
220
0
230
1
0
LINE
5
C9
100
AcDbEntity
8
1
62
256
6
ByLayer
370
13
48
1
60
0
100
AcDbLine
10
10.538675
20
-30.080593
30
0
11
10.538675
21
-9.349221
31
0
39
0
210
0
220
0
230
1
0
LINE
5
CA
100
AcDbEntity
8
1
62
256
6
ByLayer
370
18
48
1
60
0
100
AcDbLine
10
64.30294
20
44.994083
30
0
11
64.304432
21
45.006238
31
0
39
0
210
0
220
0
230
1
0
LINE
5
CB
100
AcDbEntity
8
1
62
256
6
ByLayer
370
18
48
1
60
0
100
AcDbLine
10
44.135397
20
35.950321
30
0
11
44.133904
21
35.938166
31
0
39
0
210
0
220
0
230
1
0
LINE
5
CC
100
AcDbEntity
8
1
62
256
6
ByLayer
370
18
48
1
60
0
100
AcDbLine
10
43.642228
20
37.26936
30
0
11
43.633128
21
37.277553
31
0
39
0
210
0
220
0
230
1
0
LINE
5
CD
100
AcDbEntity
8
1
62
256
6
ByLayer
370
18
48
1
60
0
100
AcDbLine
10
64.796108
20
43.675044
30
0
11
64.805209
21
43.66685
31
0
39
0
210
0
220
0
230
1
0
LINE
5
CE
100
AcDbEntity
8
1
62
256
6
ByLayer
370
18
48
1
60
0
100
AcDbLine
10
52.455569
20
44.1704
30
0
11
43.633128
21
37.277553
31
0
39
0
210
0
220
0
230
1
0
LINE
5
CF
100
AcDbEntity
8
1
62
256
6
ByLayer
370
18
48
1
60
0
100
AcDbLine
10
55.982767
20
36.774004
30
0
11
64.805209
21
43.66685
31
0
39
0
210
0
220
0
230
1
0
LINE
5
D0
100
AcDbEntity
8
1
62
256
6
ByLayer
370
18
48
1
60
0
100
AcDbLine
10
44.133904
20
35.938166
30
0
11
55.3144
21
36.524111
31
0
39
0
210
0
220
0
230
1
0
LINE
5
D1
100
AcDbEntity
8
1
62
256
6
ByLayer
370
18
48
1
60
0
100
AcDbLine
10
64.304432
20
45.006238
30
0
11
53.123937
21
44.420293
31
0
39
0
210
0
220
0
230
1
0
MTEXT
5
10C
100
AcDbEntity
8
SK6
62
256
6
ByLayer
370
13
48
1
60
0
100
AcDbMText
10
1.042524
20
-46.33489
30
0
210
0
220
0
230
1
1
\W0.7701;TR-C6-V13JBR-45065
40
3.5
41
0
44
1.084337
50
0
71
7
72
5
7
iso_b_vert
0
DIMENSION
5
12D
100
AcDbEntity
8
SK2
62
256
6
ByLayer
370
13
48
1
60
0
100
AcDbDimension
2
DimnDraft3D2
10
-47.1
20
-31.5
30
0
11
-47.1
21
0
31
0
70
32
71
5
72
1
41
1
210
0
220
0
230
1
3
Standard
100
AcDbAlignedDimension
13
-1.5875
23
31.5
33
0
14
-1.5875
24
-31.5
34
0
50
90
100
AcDbRotatedDimension
1001
ACAD
1000
DSTYLE
1002
{
1070
    74
1070
     0
1070
   279
1070
     0
1070
   172
1070
     1
1070
   173
1070
     1
1070
   340
1005
10D
1070
   271
1070
     1
1070
   272
1070
     2
1070
    77
1070
     1
1070
    73
1070
     0
1070
   171
1070
     3
1070
   274
1070
     4
1070
   177
1070
   150
1070
   176
1070
     9
1070
   178
1070
    43
1070
    78
1070
     8
1070
    48
1040
-0.005
1070
    41
1041
3.175
1070
   147
1041
2.25
1070
    42
1041
1.5875
1070
    44
1041
3.175
1070
   140
1041
4.5
1070
   343
1005
12E
1070
   344
1005
12E
1002
}
0
DIMENSION
5
142
100
AcDbEntity
8
2
62
256
6
ByLayer
370
13
48
1
60
0
100
AcDbDimension
2
DimnDraft3D3
10
0
20
62.5
30
0
11
32.5
21
62.5
31
0
70
32
71
5
72
1
41
1
210
0
220
0
230
1
3
Standard
100
AcDbAlignedDimension
13
65
23
46.5875
33
0
14
0
24
33.0875
34
0
50
0
100
AcDbRotatedDimension
1001
ACAD
1000
DSTYLE
1002
{
1070
   279
1070
     0
1070
   172
1070
     1
1070
   173
1070
     1
1070
   340
1005
10D
1070
   271
1070
     1
1070
   272
1070
     2
1070
    77
1070
     1
1070
    73
1070
     0
1070
   171
1070
     3
1070
   274
1070
     4
1070
   177
1070
   150
1070
   176
1070
     9
1070
   178
1070
    43
1070
    78
1070
     8
1070
    48
1040
-0.005
1070
    41
1041
3.175
1070
   147
1041
2.25
1070
    42
1041
1.5875
1070
    44
1041
3.175
1070
   140
1041
4.5
1070
   343
1005
12E
1070
   344
1005
12E
1002
}
0
DIMENSION
5
150
100
AcDbEntity
8
2
62
256
6
ByLayer
370
13
48
1
60
0
100
AcDbDimension
2
DimnDraft3D4
10
51.182472
20
44.318545
30
0
11
52.711866
21
56.703694
31
0
70
34
71
5
72
1
41
1
210
0
220
0
230
1
3
Standard
100
AcDb2LineAngularDimension
13
65
23
45
33
0
14
65
24
43.4124
34
0
15
64.164656
25
44.998912
35
0
16
55.976051
26
53.606099
36
0
40
0
0
ENDSEC
0
SECTION
2
OBJECTS
0
DICTIONARY
5
1ba
330
0
100
AcDbDictionary
280
0
281
1
3
ACAD_GROUP
350
1bb
3
ACAD_MLINESTYLE
350
1bc
0
DICTIONARY
5
1bb
330
0
100
AcDbDictionary
280
0
281
1
0
DICTIONARY
5
1bc
330
0
100
AcDbDictionary
280
0
281
1
3
Standard
350
18
0
MLINESTYLE
5
18
330
1bc
100
AcDbMlineStyle
2
Standard
70
0
3

62
256
51
90
52
90
71
2
49
-0.5
62
256
6
ByLayer
49
0.5
62
256
6
ByLayer
0
RASTERVARIABLES
5
1a9
330

100
AcDbRasterVariables
90
0
70
1
71
1
72
1
0
ENDSEC
0
EOF
