0
SECTION
2
HEADER
9
$ACADVER
1
AC1015
9
$DWGCODEPAGE
3
ANSI_1252
9
$HANDSEED
5
1c0
9
$ANGBASE
50
0
9
$ANGDIR
70
0
9
$ATTMODE
70
1
9
$AUNITS
70
0
9
$AUPREC
70
0
9
$CECOLOR
62
256
9
$CELTSCALE
40
1
9
$CELTYPE
6
ByLayer
9
$CELWEIGHT
370
18
9
$CLAYER
8
0
9
$CMLJUST
70
0
9
$CMLSCALE
40
1
9
$CMLSTYLE
2
Standard
9
$DIMSTYLE
2
Standard
9
$TEXTSIZE
40
0.2
9
$TEXTSTYLE
7
Standard
9
$LUNITS
70
2
9
$LUPREC
70
4
9
$EXTNAMES
290
1
9
$INSUNITS
70
4
9
$LTSCALE
40
1
9
$LWDISPLAY
290
1
9
$PDMODE
70
0
9
$PDSIZE
40
0
9
$PLINEGEN
70
0
0
ENDSEC
0
SECTION
2
CLASSES
0
CLASS
1
RASTERVARIABLES
2
AcDbRasterVariables
3
ISM
90
0
280
0
281
0
0
ENDSEC
0
SECTION
2
TABLES
0
TABLE
2
VPORT
5
1b6
100
AcDbSymbolTable
0
VPORT
5
1
100
AcDbSymbolTableRecord
100
AcDbViewportTableRecord
2
*Active
70
0
10
0
20
0
11
1
21
1
12
-1
22
1
13
0
23
0
14
0.5
24
0.5
15
10
25
10
16
0
26
0
36
1
17
0
27
0
37
0
0
ENDTAB
0
TABLE
2
LTYPE
5
1b7
100
AcDbSymbolTable
0
LTYPE
5
14
100
AcDbSymbolTableRecord
100
AcDbLinetypeTableRecord
70
0
2
ByBlock
3

72
65
73
0
40
0
0
LTYPE
5
15
100
AcDbSymbolTableRecord
100
AcDbLinetypeTableRecord
70
0
2
ByLayer
3

72
65
73
0
40
0
0
LTYPE
5
16
100
AcDbSymbolTableRecord
100
AcDbLinetypeTableRecord
70
0
2
CONTINUOUS
3
Solid line
72
65
73
0
40
0
0
LTYPE
5
6A
100
AcDbSymbolTableRecord
100
AcDbLinetypeTableRecord
70
0
2
CENTER
3
____ _ ____ _ ____ _ ____
72
65
73
4
40
47.5
49
22
74
0
49
-8.5
74
0
49
8.5
74
0
49
-8.5
74
0
0
LTYPE
5
6B
100
AcDbSymbolTableRecord
100
AcDbLinetypeTableRecord
70
0
2
DASHED
3
__ __ __ __ __ __ __ __ __
72
65
73
2
40
25.72
49
12.86
74
0
49
-12.86
74
0
0
ENDTAB
0
TABLE
2
LAYER
5
1b8
100
AcDbSymbolTable
0
LAYER
5
10
100
AcDbSymbolTableRecord
100
AcDbLayerTableRecord
2
0
70
0
62
7
6
CONTINUOUS
290
1
370
-3
390
0
0
LAYER
5
6D
100
AcDbSymbolTableRecord
100
AcDbLayerTableRecord
2
80
70
0
62
-6
6
CONTINUOUS
290
1
370
-3
390
0
0
LAYER
5
6F
100
AcDbSymbolTableRecord
100
AcDbLayerTableRecord
2
81
70
0
62
-3
6
CONTINUOUS
290
1
370
-3
390
0
0
LAYER
5
71
100
AcDbSymbolTableRecord
100
AcDbLayerTableRecord
2
1
70
0
62
4
6
CONTINUOUS
290
1
370
-3
390
0
0
LAYER
5
10D
100
AcDbSymbolTableRecord
100
AcDbLayerTableRecord
2
2
70
0
62
7
6
CONTINUOUS
290
1
370
-3
390
0
0
LAYER
5
1a3
100
AcDbSymbolTableRecord
100
AcDbLayerTableRecord
2
SK1
70
0
62
4
6
CONTINUOUS
290
1
370
-3
390
0
0
LAYER
5
1a4
100
AcDbSymbolTableRecord
100
AcDbLayerTableRecord
2
SK6
70
0
62
5
6
CONTINUOUS
290
1
370
-3
390
0
0
LAYER
5
1a5
100
AcDbSymbolTableRecord
100
AcDbLayerTableRecord
2
SK2
70
0
62
7
6
CONTINUOUS
290
1
370
-3
390
0
0
ENDTAB
0
TABLE
2
STYLE
5
1b9
100
AcDbSymbolTable
0
STYLE
5
11
100
AcDbSymbolTableRecord
100
AcDbTextStyleTableRecord
2
Standard
3
txt
70
0
71
0
40
0
41
1
42
0
50
0
0
STYLE
5
106
100
AcDbSymbolTableRecord
100
AcDbTextStyleTableRecord
2
iso_b_vert
3
simplex.shx
70
0
71
0
40
0
41
1
42
0
50
0
0
STYLE
5
107
100
AcDbSymbolTableRecord
100
AcDbTextStyleTableRecord
2
DWGDirectTextStyle
3
simplex
70
0
71
0
40
0
41
1
42
0
50
0
0
ENDTAB
0
TABLE
2
DIMSTYLE
5
1ba
100
AcDbSymbolTable
100
AcDbDimStyleTable
0
DIMSTYLE
105
27
100
AcDbSymbolTableRecord
100
AcDbDimStyleTableRecord
2
Standard
70
0
3
<>
41
0.18
42
0.0625
44
0.18
140
0.18
147
0.09
73
0
74
0
77
1
271
2
275
0
278
52
280
0
340
11
0
ENDTAB
0
TABLE
2
VIEW
5
1bb
100
AcDbSymbolTable
0
ENDTAB
0
TABLE
2
UCS
5
1bc
100
AcDbSymbolTable
0
ENDTAB
0
TABLE
2
APPID
5
1bd
100
AcDbSymbolTable
0
APPID
5
12
100
AcDbSymbolTableRecord
100
AcDbRegAppTableRecord
2
ACAD
70
0
0
ENDTAB
0
TABLE
2
BLOCK_RECORD
5
1be
100
AcDbSymbolTable
0
BLOCK_RECORD
5
1F
100
AcDbSymbolTableRecord
100
AcDbBlockTableRecord
2
*Model_Space
340
0
70
0
0
BLOCK_RECORD
5
1B
100
AcDbSymbolTableRecord
100
AcDbBlockTableRecord
2
*Paper_Space
340
0
70
0
0
BLOCK_RECORD
5
23
100
AcDbSymbolTableRecord
100
AcDbBlockTableRecord
2
*Paper_Space0
340
0
70
0
0
BLOCK_RECORD
5
109
100
AcDbSymbolTableRecord
100
AcDbBlockTableRecord
2
DimnDraft3D11
340
0
70
0
0
BLOCK_RECORD
5
118
100
AcDbSymbolTableRecord
100
AcDbBlockTableRecord
2
DimnDraft3D2
340
0
70
0
0
BLOCK_RECORD
5
127
100
AcDbSymbolTableRecord
100
AcDbBlockTableRecord
2
_CLOSED
340
0
70
0
0
BLOCK_RECORD
5
12E
100
AcDbSymbolTableRecord
100
AcDbBlockTableRecord
2
DimnDraft3D3
340
0
70
0
0
BLOCK_RECORD
5
13C
100
AcDbSymbolTableRecord
100
AcDbBlockTableRecord
2
DimnDraft3D4
340
0
70
0
0
ENDTAB
0
ENDSEC
0
SECTION
2
BLOCKS
0
BLOCK
5
20
100
AcDbEntity
8
0
100
AcDbBlockBegin
2
*Model_Space
70
0
10
0
20
0
30
0
3
*Model_Space
0
ENDBLK
5
21
100
AcDbEntity
8
0
100
AcDbBlockEnd
0
BLOCK
5
1C
100
AcDbEntity
8
0
100
AcDbBlockBegin
2
*Paper_Space
70
0
10
0
20
0
30
0
3
*Paper_Space
0
ENDBLK
5
1D
100
AcDbEntity
8
0
100
AcDbBlockEnd
0
BLOCK
5
24
100
AcDbEntity
8
0
100
AcDbBlockBegin
2
*Paper_Space0
70
0
10
0
20
0
30
0
3
*Paper_Space0
0
ENDBLK
5
25
100
AcDbEntity
8
0
100
AcDbBlockEnd
0
BLOCK
5
10A
100
AcDbEntity
8
0
100
AcDbBlockBegin
2
DimnDraft3D11
70
0
10
0
20
0
30
0
3
DimnDraft3D11
0
LINE
5
10C
100
AcDbEntity
8
2
62
256
6
ByLayer
370
25
48
1
60
0
100
AcDbLine
10
51.5875
20
0
30
0
11
86.775
21
0
31
0
39
0
210
0
220
0
230
1
0
LINE
5
10E
100
AcDbEntity
8
2
62
256
6
ByLayer
370
25
48
1
60
0
100
AcDbLine
10
61.5875
20
0.582
30
0
11
86.775
21
0.582
31
0
39
0
210
0
220
0
230
1
0
LINE
5
10F
100
AcDbEntity
8
2
62
256
6
ByLayer
370
25
48
1
60
0
100
AcDbLine
10
83.6
20
11.832
30
0
11
83.6
21
-18.3125
31
0
39
0
210
0
220
0
230
1
0
LINE
5
110
100
AcDbEntity
8
2
62
256
6
ByLayer
370
25
48
1
60
0
100
AcDbLine
10
83.6
20
0
30
0
11
84.450739
21
-3.174997
31
0
39
0
210
0
220
0
230
1
0
LINE
5
111
100
AcDbEntity
8
2
62
256
6
ByLayer
370
25
48
1
60
0
100
AcDbLine
10
83.6
20
0
30
0
11
82.749261
21
-3.175003
31
0
39
0
210
0
220
0
230
1
0
LINE
5
112
100
AcDbEntity
8
2
62
256
6
ByLayer
370
25
48
1
60
0
100
AcDbLine
10
84.450739
20
-3.174997
30
0
11
82.749261
21
-3.175003
31
0
39
0
210
0
220
0
230
1
0
LINE
5
113
100
AcDbEntity
8
2
62
256
6
ByLayer
370
25
48
1
60
0
100
AcDbLine
10
83.6
20
0.582
30
0
11
82.749261
21
3.756997
31
0
39
0
210
0
220
0
230
1
0
LINE
5
114
100
AcDbEntity
8
2
62
256
6
ByLayer
370
25
48
1
60
0
100
AcDbLine
10
83.6
20
0.582
30
0
11
84.450739
21
3.757003
31
0
39
0
210
0
220
0
230
1
0
LINE
5
115
100
AcDbEntity
8
2
62
256
6
ByLayer
370
25
48
1
60
0
100
AcDbLine
10
82.749261
20
3.756997
30
0
11
84.450739
21
3.757003
31
0
39
0
210
0
220
0
230
1
0
MTEXT
5
116
100
AcDbEntity
8
2
62
256
6
ByLayer
370
13
48
1
60
0
100
AcDbMText
10
82.475
20
-17.1875
30
0
210
0
220
0
230
1
1
\W0.7121;0.6
40
4.5
41
0
44
1.084337
50
90
71
7
72
5
7
iso_b_vert
0
ENDBLK
5
10B
100
AcDbEntity
8
0
100
AcDbBlockEnd
0
BLOCK
5
124
100
AcDbEntity
8
0
100
AcDbBlockBegin
2
DimnDraft3D2
70
0
10
0
20
0
30
0
3
DimnDraft3D2
0
MTEXT
5
119
100
AcDbEntity
8
SK2
62
256
6
ByLayer
370
13
48
1
60
0
100
AcDbMText
10
-40.225
20
-4.156579
30
0
210
0
220
0
230
1
1
\W0.7346;50.0
40
4.5
41
0
44
1.084337
50
90
71
7
72
5
7
iso_b_vert
0
LINE
5
11B
100
AcDbEntity
8
SK2
62
256
6
ByLayer
370
13
48
1
60
0
100
AcDbLine
10
-1.5875
20
25
30
0
11
-42.275
21
25
31
0
39
0
210
0
220
0
230
1
0
LINE
5
11C
100
AcDbEntity
8
SK2
62
256
6
ByLayer
370
13
48
1
60
0
100
AcDbLine
10
-1.5875
20
-25
30
0
11
-42.275
21
-25
31
0
39
0
210
0
220
0
230
1
0
LINE
5
11D
100
AcDbEntity
8
SK2
62
256
6
ByLayer
370
13
48
1
60
0
100
AcDbLine
10
-39.1
20
25
30
0
11
-39.1
21
-25
31
0
39
0
210
0
220
0
230
1
0
LINE
5
11E
100
AcDbEntity
8
SK2
62
256
6
ByLayer
370
13
48
1
60
0
100
AcDbLine
10
-39.1
20
25
30
0
11
-38.249261
21
21.825003
31
0
39
0
210
0
220
0
230
1
0
LINE
5
11F
100
AcDbEntity
8
SK2
62
256
6
ByLayer
370
13
48
1
60
0
100
AcDbLine
10
-39.1
20
25
30
0
11
-39.950739
21
21.824997
31
0
39
0
210
0
220
0
230
1
0
LINE
5
120
100
AcDbEntity
8
SK2
62
256
6
ByLayer
370
13
48
1
60
0
100
AcDbLine
10
-38.249261
20
21.825003
30
0
11
-39.950739
21
21.824997
31
0
39
0
210
0
220
0
230
1
0
LINE
5
121
100
AcDbEntity
8
SK2
62
256
6
ByLayer
370
13
48
1
60
0
100
AcDbLine
10
-39.1
20
-25
30
0
11
-39.950739
21
-21.825003
31
0
39
0
210
0
220
0
230
1
0
LINE
5
122
100
AcDbEntity
8
SK2
62
256
6
ByLayer
370
13
48
1
60
0
100
AcDbLine
10
-39.1
20
-25
30
0
11
-38.249261
21
-21.824997
31
0
39
0
210
0
220
0
230
1
0
LINE
5
123
100
AcDbEntity
8
SK2
62
256
6
ByLayer
370
13
48
1
60
0
100
AcDbLine
10
-39.950739
20
-21.825003
30
0
11
-38.249261
21
-21.824997
31
0
39
0
210
0
220
0
230
1
0
ENDBLK
5
125
100
AcDbEntity
8
0
100
AcDbBlockEnd
0
BLOCK
5
128
100
AcDbEntity
8
0
100
AcDbBlockBegin
2
_CLOSED
70
0
10
0
20
0
30
0
3
_CLOSED
0
LINE
5
12A
100
AcDbEntity
8
0
62
256
6
ByLayer
370
-2
48
1
60
0
100
AcDbLine
10
-1
20
0.166667
30
0
11
0
21
0
31
0
39
0
210
0
220
0
230
1
0
LINE
5
12B
100
AcDbEntity
8
0
62
256
6
ByLayer
370
-2
48
1
60
0
100
AcDbLine
10
0
20
0
30
0
11
-1
21
-0.166667
31
0
39
0
210
0
220
0
230
1
0
LINE
5
12C
100
AcDbEntity
8
0
62
256
6
ByLayer
370
-2
48
1
60
0
100
AcDbLine
10
-1
20
0.166667
30
0
11
-1
21
-0.166667
31
0
39
0
210
0
220
0
230
1
0
LINE
5
12D
100
AcDbEntity
8
0
62
256
6
ByLayer
370
-2
48
1
60
0
100
AcDbLine
10
0
20
0
30
0
11
-1
21
0
31
0
39
0
210
0
220
0
230
1
0
ENDBLK
5
129
100
AcDbEntity
8
0
100
AcDbBlockEnd
0
BLOCK
5
139
100
AcDbEntity
8
0
100
AcDbBlockBegin
2
DimnDraft3D3
70
0
10
0
20
0
30
0
3
DimnDraft3D3
0
MTEXT
5
12F
100
AcDbEntity
8
2
62
256
6
ByLayer
370
13
48
1
60
0
100
AcDbMText
10
25.843421
20
19.207
30
0
210
0
220
0
230
1
1
\W0.7346;60.0
40
4.5
41
0
44
1.084337
50
0
71
7
72
5
7
iso_b_vert
0
LINE
5
130
100
AcDbEntity
8
2
62
256
6
ByLayer
370
13
48
1
60
0
100
AcDbLine
10
60
20
2.1695
30
0
11
60
21
21.257
31
0
39
0
210
0
220
0
230
1
0
LINE
5
131
100
AcDbEntity
8
2
62
256
6
ByLayer
370
13
48
1
60
0
100
AcDbLine
10
0
20
23.4125
30
0
11
0
21
14.907
31
0
39
0
210
0
220
0
230
1
0
LINE
5
132
100
AcDbEntity
8
2
62
256
6
ByLayer
370
13
48
1
60
0
100
AcDbLine
10
60
20
18.082
30
0
11
0
21
18.082
31
0
39
0
210
0
220
0
230
1
0
LINE
5
133
100
AcDbEntity
8
2
62
256
6
ByLayer
370
13
48
1
60
0
100
AcDbLine
10
60
20
18.082
30
0
11
56.825003
21
17.231261
31
0
39
0
210
0
220
0
230
1
0
LINE
5
134
100
AcDbEntity
8
2
62
256
6
ByLayer
370
13
48
1
60
0
100
AcDbLine
10
60
20
18.082
30
0
11
56.824997
21
18.932739
31
0
39
0
210
0
220
0
230
1
0
LINE
5
135
100
AcDbEntity
8
2
62
256
6
ByLayer
370
13
48
1
60
0
100
AcDbLine
10
56.825003
20
17.231261
30
0
11
56.824997
21
18.932739
31
0
39
0
210
0
220
0
230
1
0
LINE
5
136
100
AcDbEntity
8
2
62
256
6
ByLayer
370
13
48
1
60
0
100
AcDbLine
10
0
20
18.082
30
0
11
3.174997
21
18.932739
31
0
39
0
210
0
220
0
230
1
0
LINE
5
137
100
AcDbEntity
8
2
62
256
6
ByLayer
370
13
48
1
60
0
100
AcDbLine
10
0
20
18.082
30
0
11
3.175003
21
17.231261
31
0
39
0
210
0
220
0
230
1
0
LINE
5
138
100
AcDbEntity
8
2
62
256
6
ByLayer
370
13
48
1
60
0
100
AcDbLine
10
3.174997
20
18.932739
30
0
11
3.175003
21
17.231261
31
0
39
0
210
0
220
0
230
1
0
ENDBLK
5
13A
100
AcDbEntity
8
0
100
AcDbBlockEnd
0
BLOCK
5
147
100
AcDbEntity
8
0
100
AcDbBlockBegin
2
DimnDraft3D4
70
0
10
0
20
0
30
0
3
DimnDraft3D4
0
MTEXT
5
13D
100
AcDbEntity
8
2
62
256
6
ByLayer
370
13
48
1
60
0
100
AcDbMText
10
48.519833
20
8.997765
30
0
210
0
220
0
230
1
1
\W0.7346;72.5
40
4.5
41
0
44
1.084337
50
36.25
71
7
72
5
7
iso_b_vert
0
LINE
5
13E
100
AcDbEntity
8
2
62
256
6
ByLayer
370
13
48
1
60
0
100
AcDbLine
10
60
20
2.1695
30
0
11
60
21
16.166194
31
0
39
0
210
0
220
0
230
1
0
LINE
5
13F
100
AcDbEntity
8
2
62
256
6
ByLayer
370
13
48
1
60
0
100
AcDbLine
10
45.532554
20
4.931806
30
0
11
44.935129
21
5.120174
31
0
39
0
210
0
220
0
230
1
0
ARC
5
140
100
AcDbEntity
8
2
62
256
6
ByLayer
370
13
48
1
60
0
100
AcDbCircle
39
0
10
60
20
0.370238
30
0
40
12.6209557344331
210
0
220
0
230
1
100
AcDbArc
50
90
51
162.5
0
LINE
5
141
100
AcDbEntity
8
2
62
256
6
ByLayer
370
13
48
1
60
0
100
AcDbLine
10
60
20
12.991194
30
0
11
56.884405
21
11.943612
31
0
39
0
210
0
220
0
230
1
0
LINE
5
142
100
AcDbEntity
8
2
62
256
6
ByLayer
370
13
48
1
60
0
100
AcDbLine
10
60
20
12.991194
30
0
11
56.778019
21
13.641761
31
0
39
0
210
0
220
0
230
1
0
LINE
5
143
100
AcDbEntity
8
2
62
256
6
ByLayer
370
13
48
1
60
0
100
AcDbLine
10
56.884405
20
11.943612
30
0
11
56.778019
21
13.641761
31
0
39
0
210
0
220
0
230
1
0
LINE
5
144
100
AcDbEntity
8
2
62
256
6
ByLayer
370
13
48
1
60
0
100
AcDbLine
10
47.963181
20
4.165433
30
0
11
48.311591
21
7.433914
31
0
39
0
210
0
220
0
230
1
0
LINE
5
145
100
AcDbEntity
8
2
62
256
6
ByLayer
370
13
48
1
60
0
100
AcDbLine
10
47.963181
20
4.165433
30
0
11
49.899157
21
6.821821
31
0
39
0
210
0
220
0
230
1
0
LINE
5
146
100
AcDbEntity
8
2
62
256
6
ByLayer
370
13
48
1
60
0
100
AcDbLine
10
48.311591
20
7.433914
30
0
11
49.899157
21
6.821821
31
0
39
0
210
0
220
0
230
1
0
ENDBLK
5
148
100
AcDbEntity
8
0
100
AcDbBlockEnd
0
ENDSEC
0
SECTION
2
ENTITIES
0
ARC
5
CF
100
AcDbEntity
8
1
62
256
6
ByLayer
370
13
48
1
60
0
100
AcDbCircle
39
0
10
-40.84826
20
17.493767
30
0
40
11
210
0
220
0
230
-1
100
AcDbArc
50
287.5
51
318.026283
0
ARC
5
D1
100
AcDbEntity
8
1
62
256
6
ByLayer
370
13
48
1
60
0
100
AcDbCircle
39
0
10
-40.84826
20
-17.493844
30
0
40
11
210
0
220
0
230
-1
100
AcDbArc
50
41.973863
51
72.5
0
ARC
5
D2
100
AcDbEntity
8
1
62
256
6
ByLayer
370
13
48
1
60
0
100
AcDbCircle
39
0
10
-36.440823
20
-3.8E-05
30
0
40
1.6
210
0
220
0
230
-1
100
AcDbArc
50
3.583322
51
90
0
ARC
5
D3
100
AcDbEntity
8
1
62
256
6
ByLayer
370
13
48
1
60
0
100
AcDbCircle
39
0
10
-36.440823
20
-3.8E-05
30
0
40
1.5
210
0
220
0
230
-1
100
AcDbArc
50
270
51
356.299121
0
ARC
5
D4
100
AcDbEntity
8
1
62
256
6
ByLayer
370
13
48
1
60
0
100
AcDbCircle
39
0
10
-36.440823
20
-3.8E-05
30
0
40
1.6
210
0
220
0
230
-1
100
AcDbArc
50
270
51
356.416678
0
ARC
5
D5
100
AcDbEntity
8
1
62
256
6
ByLayer
370
13
48
1
60
0
100
AcDbCircle
39
0
10
-36.440823
20
-3.8E-05
30
0
40
1.50000000000001
210
0
220
0
230
-1
100
AcDbArc
50
3.700879
51
90
0
ARC
5
D8
100
AcDbEntity
8
1
62
256
6
ByLayer
370
18
48
1
60
0
100
AcDbCircle
39
0
10
59.2062
20
-3.8E-05
30
0
40
0.793800000000039
210
0
220
0
230
1
100
AcDbArc
50
297.5
51
62.5
0
ARC
5
DB
100
AcDbEntity
8
1
62
256
6
ByLayer
370
18
48
1
60
0
100
AcDbCircle
39
0
10
-37.881703
20
-3.8E-05
30
0
40
0.793800000000039
210
0
220
0
230
-1
100
AcDbArc
50
297.5
51
62.5
0
CIRCLE
5
D0
100
AcDbEntity
8
1
62
256
6
ByLayer
370
13
48
1
60
0
100
AcDbCircle
10
-48.543951
20
-3.8E-05
30
0
40
1.25
39
0
210
0
220
0
230
-1
0
CIRCLE
5
D6
100
AcDbEntity
8
1
62
256
6
ByLayer
370
18
48
1
60
0
100
AcDbCircle
10
48.543951
20
-3.8E-05
30
0
40
2.32
39
0
210
0
220
0
230
1
0
CIRCLE
5
D7
100
AcDbEntity
8
1
62
256
6
ByLayer
370
18
48
1
60
0
100
AcDbCircle
10
48.543951
20
-3.8E-05
30
0
40
2.20386856458361
39
0
210
0
220
0
230
1
0
CIRCLE
5
D9
100
AcDbEntity
8
1
62
256
6
ByLayer
370
18
48
1
60
0
100
AcDbCircle
10
48.543951
20
-3.8E-05
30
0
40
2.28743682147946
39
0
210
0
220
0
230
1
0
CIRCLE
5
DA
100
AcDbEntity
8
1
62
256
6
ByLayer
370
18
48
1
60
0
100
AcDbCircle
10
48.543951
20
-3.8E-05
30
0
40
1.69999999999997
39
0
210
0
220
0
230
1
0
ELLIPSE
5
DC
100
AcDbEntity
8
1
62
256
6
ByLayer
370
13
48
1
60
0
100
AcDbEllipse
10
21.056258
20
0
30
0
11
11.7092723497251
21
-24.6771864409359
31
0
210
0
220
0
230
-1
40
0.341999
41
2.05975995310046
42
2.97437958168077
0
ELLIPSE
5
DD
100
AcDbEntity
8
1
62
256
6
ByLayer
370
13
48
1
60
0
100
AcDbEllipse
10
-1.056258
20
0
30
0
11
11.7092723497277
21
-24.6771864409369
31
0
210
0
220
0
230
-1
40
0.341999
41
-1.08183270048924
42
-0.167213071908998
0
ELLIPSE
5
DE
100
AcDbEntity
8
1
62
256
6
ByLayer
370
13
48
1
60
0
100
AcDbEllipse
10
21.056258
20
0
30
0
11
11.7092723497249
21
24.6771864409358
31
0
210
0
220
0
230
-1
40
0.341999
41
-2.97437958168077
42
-2.05975995310046
0
ELLIPSE
5
DF
100
AcDbEntity
8
1
62
256
6
ByLayer
370
13
48
1
60
0
100
AcDbEllipse
10
19.987217
20
0
30
0
11
-1.53075794227797E-15
21
25
31
0
210
0
220
0
230
-1
40
0.087489
41
-2.96258305951148
42
-0.179009594078319
0
ELLIPSE
5
E0
100
AcDbEntity
8
1
62
256
6
ByLayer
370
13
48
1
60
0
100
AcDbEllipse
10
-1.056258
20
0
30
0
11
11.7092723497278
21
24.6771864409369
31
0
210
0
220
0
230
-1
40
0.341999
41
0.167213071908998
42
1.08183270048924
0
ELLIPSE
5
E1
100
AcDbEntity
8
1
62
256
6
ByLayer
370
13
48
1
60
0
100
AcDbEllipse
10
18.795811
20
0
30
0
11
-3.36766747301154E-16
21
5.50000000000001
31
0
210
0
220
0
230
-1
40
0.090668
41
0
42
6.28318530717959
0
ELLIPSE
5
E2
100
AcDbEntity
8
1
62
256
6
ByLayer
370
18
48
1
60
0
100
AcDbEllipse
10
48.543951
20
-2.940586
30
0
11
-2.19694518457337E-16
21
-1.19600075442802
31
0
210
0
220
0
230
1
40
0.995819
41
-0.30423303858473
42
0.304233038584728
0
ELLIPSE
5
E3
100
AcDbEntity
8
1
62
256
6
ByLayer
370
18
48
1
60
0
100
AcDbEllipse
10
48.543951
20
2.94051
30
0
11
7.32315061524455E-17
21
1.19600075442802
31
0
210
0
220
0
230
1
40
0.995819
41
-0.30423303858473
42
0.304233038584724
0
POINT
5
6C
100
AcDbEntity
8
80
62
256
6
ByLayer
370
18
48
1
60
0
100
AcDbPoint
10
0
20
0
30
0
39
0
210
0
220
0
230
1
50
360
0
POINT
5
6E
100
AcDbEntity
8
81
62
256
6
ByLayer
370
18
48
1
60
0
100
AcDbPoint
10
60
20
0.582
30
0
39
0
210
0
220
0
230
1
50
360
0
SPLINE
5
E4
100
AcDbEntity
8
SK1
62
256
6
ByLayer
370
13
48
1
60
0
100
AcDbSpline
70
4
71
2
72
6
73
3
40
0
40
0
40
0
40
1
40
1
40
1
41
1
10
-28.5
20
-16.8545212066649
30
0
41
1
10
-15.2499999987993
20
-17.1871851888411
30
0
41
1
10
-2
20
-17.5198482068775
30
0
0
SPLINE
5
E5
100
AcDbEntity
8
SK1
62
256
6
ByLayer
370
13
48
1
60
0
100
AcDbSpline
70
4
71
2
72
6
73
3
40
0
40
0
40
0
40
1
40
1
40
1
41
1
10
-2
20
17.5198479235724
30
0
41
1
10
-15.2499999987995
20
17.1871849060498
30
0
41
1
10
-28.5
20
16.8545209244113
30
0
0
SPLINE
5
E6
100
AcDbEntity
8
SK1
62
256
6
ByLayer
370
13
48
1
60
0
100
AcDbSpline
70
4
71
3
72
13
73
9
40
0
40
0
40
0
40
0
40
0.239409099367221
40
0.368297400752131
40
0.499931438691489
40
0.631576866358085
40
0.760496583550958
40
1
40
1
40
1
40
1
41
1
10
-2
20
-17.525129116923
30
0
41
1
10
-1.99909125719799
20
-17.4990813944884
30
0
41
1
10
-1.99103211472607
20
-17.4617233046648
30
0
41
1
10
-1.9656349589192
20
-17.4155240253433
30
0
41
1
10
-1.93886250822575
20
-17.3842556209573
30
0
41
1
10
-1.90627575278677
20
-17.3590990612904
30
0
41
1
10
-1.85883875467888
20
-17.3360651360603
30
0
41
1
10
-1.82110932008982
20
-17.3298953840654
30
0
41
1
10
-1.7950399779393
20
-17.3302974649007
30
0
0
SPLINE
5
E7
100
AcDbEntity
8
SK1
62
256
6
ByLayer
370
13
48
1
60
0
100
AcDbSpline
70
4
71
3
72
13
73
9
40
0
40
0
40
0
40
0
40
0.239503416121633
40
0.368423133196243
40
0.500068560814796
40
0.631702598790215
40
0.76059090028715
40
1
40
1
40
1
40
1
41
1
10
-1.7950399779393
20
17.3302973195575
30
0
41
1
10
-1.82110932009616
20
17.3298952387248
30
0
41
1
10
-1.85883875469076
20
17.336064990738
30
0
41
1
10
-1.90627575279683
20
17.3590989160412
30
0
41
1
10
-1.93886250823533
20
17.3842554757878
30
0
41
1
10
-1.96563495892647
20
17.4155238802705
30
0
41
1
10
-1.99103211473138
20
17.4617231597379
30
0
41
1
10
-1.99909125720339
20
17.4990812496681
30
0
41
1
10
-2
20
17.5251289721744
30
0
0
SPLINE
5
E8
100
AcDbEntity
8
SK1
62
256
6
ByLayer
370
13
48
1
60
0
100
AcDbSpline
70
4
71
2
72
6
73
3
40
0
40
0
40
0
40
1
40
1
40
1
41
1
10
-1.7950399779393
20
-17.3250646819564
30
0
41
1
10
-0.995008433403029
20
-17.3451508243471
30
0
41
1
10
-0.194976888875288
20
-17.3652369633
30
0
0
SPLINE
5
E9
100
AcDbEntity
8
SK1
62
256
6
ByLayer
370
13
48
1
60
0
100
AcDbSpline
70
4
71
2
72
6
73
3
40
0
40
0
40
0
40
1
40
1
40
1
41
1
10
-0.194976888875288
20
17.3652366802367
30
0
41
1
10
-0.995008433403029
20
17.3451505413153
30
0
41
1
10
-1.7950399779393
20
17.3250643989562
30
0
0
SPLINE
5
EA
100
AcDbEntity
8
SK1
62
256
6
ByLayer
370
13
48
1
60
0
100
AcDbSpline
70
4
71
2
72
6
73
3
40
0
40
0
40
0
40
1
40
1
40
1
41
1
10
-30
20
-15.9932495545753
30
0
41
1
10
-29.2499990770552
20
-16.4260289695447
30
0
41
1
10
-28.5
20
-16.8588008432385
30
0
0
SPLINE
5
EB
100
AcDbEntity
8
SK1
62
256
6
ByLayer
370
13
48
1
60
0
100
AcDbSpline
70
4
71
2
72
6
73
3
40
0
40
0
40
0
40
1
40
1
40
1
41
1
10
-28.5
20
16.8588006436881
30
0
41
1
10
-29.2499990770911
20
16.4260287704419
30
0
41
1
10
-30
20
15.9932493559076
30
0
0
SPLINE
5
EC
100
AcDbEntity
8
SK1
62
256
6
ByLayer
370
13
48
1
60
0
100
AcDbSpline
70
4
71
2
72
6
73
3
40
0
40
0
40
0
40
1
40
1
40
1
41
1
10
-0.194976888875288
20
-17.3704796738454
30
0
41
1
10
-0.059146302518684
20
-17.3755257485866
30
0
41
1
10
-0.0356373334005013
20
-17.4655271597146
30
0
0
SPLINE
5
ED
100
AcDbEntity
8
SK1
62
256
6
ByLayer
370
13
48
1
60
0
100
AcDbSpline
70
4
71
2
72
6
73
3
40
0
40
0
40
0
40
1
40
1
40
1
41
1
10
-0.0343899619089711
20
17.4680396001793
30
0
41
1
10
-0.0576204404094369
20
17.3761040543929
30
0
41
1
10
-0.194976888875288
20
17.3704795286247
30
0
0
SPLINE
5
EE
100
AcDbEntity
8
SK1
62
256
6
ByLayer
370
13
48
1
60
0
100
AcDbSpline
70
4
71
3
72
39
73
35
40
0
40
0
40
0
40
0
40
0.0138689804908076
40
0.0424649181171416
40
0.0710608557434756
40
0.0996567933698096
40
0.156848668622478
40
0.214040543875146
40
0.24263648150148
40
0.271232419127814
40
0.328424294380482
40
0.357020232006816
40
0.38561616963315
40
0.414212107259484
40
0.442808044885818
40
0.471403982512152
40
0.485701951325319
40
0.499999920138486
40
0.514297888951653
40
0.52859585776482
40
0.557191795391154
40
0.585787733017488
40
0.614383670643822
40
0.642979608270156
40
0.67157554589649
40
0.728767421149158
40
0.757363358775492
40
0.785959296401826
40
0.843151171654494
40
0.900343046907162
40
0.928938984533496
40
0.95753492215983
40
0.986130859786164
40
1
40
1
40
1
40
1
41
1
10
-2
20
17.5197847598157
30
0
41
1
10
-2
20
17.5129943759855
30
0
41
1
10
-2
20
17.4726242991704
30
0
41
1
10
-2
20
17.3116343538074
30
0
41
1
10
-2
20
16.9815888329671
30
0
41
1
10
-2
20
16.3767064197525
30
0
41
1
10
-2
20
15.3340294930174
30
0
41
1
10
-2
20
13.9519092247439
30
0
41
1
10
-2
20
12.6575651420821
30
0
41
1
10
-2
20
11.241205620246
30
0
41
1
10
-2
20
9.64534783198889
30
0
41
1
10
-2
20
7.8763818413079
30
0
41
1
10
-2
20
6.46346246032286
30
0
41
1
10
-2
20
4.96520999967441
30
0
41
1
10
-2
20
3.38314408231224
30
0
41
1
10
-2
20
1.99851186782058
30
0
41
1
10
-2
20
0.861482441955218
30
0
41
1
10
-2
20
1.76095512E-08
30
0
41
1
10
-2
20
-0.861482365135799
30
0
41
1
10
-2
20
-1.99851187450375
30
0
41
1
10
-2
20
-3.38314406709782
30
0
41
1
10
-2
20
-4.96520967393047
30
0
41
1
10
-2
20
-6.46346255594887
30
0
41
1
10
-2
20
-7.87638169367139
30
0
41
1
10
-2
20
-9.64534763909765
30
0
41
1
10
-2
20
-11.2412056085041
30
0
41
1
10
-2
20
-12.6575649796177
30
0
41
1
10
-2
20
-13.951909601472
30
0
41
1
10
-2
20
-15.3340290660617
30
0
41
1
10
-2
20
-16.3767071899766
30
0
41
1
10
-2
20
-16.9815887046989
30
0
41
1
10
-2
20
-17.3116346702719
30
0
41
1
10
-2
20
-17.472625219304
30
0
41
1
10
-2.00000000000003
20
-17.5129949971938
30
0
41
1
10
-1.99999999999997
20
-17.5197852398578
30
0
0
SPLINE
5
EF
100
AcDbEntity
8
SK1
62
256
6
ByLayer
370
13
48
1
60
0
100
AcDbSpline
70
4
71
3
72
39
73
35
40
0
40
0
40
0
40
0
40
0.0162087491026667
40
0.0446670836974078
40
0.0731254182921488
40
0.10158375288689
40
0.158500422076372
40
0.215417091265854
40
0.243875425860595
40
0.272333760455336
40
0.329250429644818
40
0.35770876423956
40
0.386167098834301
40
0.414625433429042
40
0.443083768023783
40
0.471542102618524
40
0.485771269915894
40
0.500000437213265
40
0.514229604510635
40
0.528458771808006
40
0.556917106402747
40
0.585375440997488
40
0.613833775592229
40
0.64229211018697
40
0.670750444781711
40
0.727667113971193
40
0.756125448565934
40
0.784583783160675
40
0.841500452350157
40
0.89841712153964
40
0.926875456134381
40
0.955333790729122
40
0.983792125323863
40
1
40
1
40
1
40
1
41
1
10
-28.5
20
16.8573068149044
30
0
41
1
10
-28.5
20
16.8521218377312
30
0
41
1
10
-28.5
20
16.8141667556259
30
0
41
1
10
-28.5
20
16.6531187925377
30
0
41
1
10
-28.5
20
16.3328856609547
30
0
41
1
10
-28.5
20
15.7436769514769
30
0
41
1
10
-28.5
20
14.7294543359372
30
0
41
1
10
-28.5
20
13.3839106046769
30
0
41
1
10
-28.5
20
12.1202809967187
30
0
41
1
10
-28.5
20
10.7383929245239
30
0
41
1
10
-28.5
20
9.19217383455458
30
0
41
1
10
-28.5
20
7.47336198687177
30
0
41
1
10
-28.5
20
6.10816664300194
30
0
41
1
10
-28.5
20
4.66779636016514
30
0
41
1
10
-28.5
20
3.15909751485594
30
0
41
1
10
-28.5
20
1.85825194532134
30
0
41
1
10
-28.5
20
0.795563889584969
30
0
41
1
10
-28.5
20
1.286700808E-07
30
0
41
1
10
-28.5
20
-0.795563863901208
30
0
41
1
10
-28.5
20
-1.85825200188583
30
0
41
1
10
-28.5
20
-3.1590972918861
30
0
41
1
10
-28.5
20
-4.66779609215368
30
0
41
1
10
-28.5
20
-6.10816680103
30
0
41
1
10
-28.5
20
-7.4733617642672
30
0
41
1
10
-28.5
20
-9.19217366708202
30
0
41
1
10
-28.5
20
-10.73839291766
30
0
41
1
10
-28.5
20
-12.120280876233
30
0
41
1
10
-28.5
20
-13.3839109677473
30
0
41
1
10
-28.5
20
-14.7294539424714
30
0
41
1
10
-28.5
20
-15.7436777114932
30
0
41
1
10
-28.5
20
-16.3328855300395
30
0
41
1
10
-28.5
20
-16.653119129773
30
0
41
1
10
-28.5
20
-16.8141653863359
30
0
41
1
10
-28.5
20
-16.8521206386972
30
0
41
1
10
-28.5
20
-16.8573061848958
30
0
0
SPLINE
5
F0
100
AcDbEntity
8
SK1
62
256
6
ByLayer
370
13
48
1
60
0
100
AcDbSpline
70
4
71
3
72
39
73
35
40
0
40
0
40
0
40
0
40
0.0143966641074001
40
0.0429615548599348
40
0.0715264456124695
40
0.100091336365004
40
0.157221117870074
40
0.214350899375143
40
0.242915790127678
40
0.271480680880213
40
0.328610462385282
40
0.357175353137817
40
0.385740243890351
40
0.414305134642886
40
0.442870025395421
40
0.471434916147956
40
0.485717361524223
40
0.49999980690049
40
0.514282252276758
40
0.528564697653025
40
0.55712958840556
40
0.585694479158094
40
0.614259369910629
40
0.642824260663164
40
0.671389151415699
40
0.728518932920768
40
0.757083823673303
40
0.785648714425838
40
0.842778495930907
40
0.899908277435976
40
0.928473168188511
40
0.957038058941046
40
0.985602949693581
40
1
40
1
40
1
40
1
41
1
10
-1.79503997793927
20
17.3257551210696
30
0
41
1
10
-1.79503997793927
20
17.3192800101829
30
0
41
1
10
-1.7950399779393
20
17.2795195308872
30
0
41
1
10
-1.7950399779393
20
17.1188450441766
30
0
41
1
10
-1.7950399779393
20
16.7916722325964
30
0
41
1
10
-1.7950399779393
20
16.1913785074865
30
0
41
1
10
-1.7950399779393
20
15.1570319640165
30
0
41
1
10
-1.7950399779393
20
13.7856199701319
30
0
41
1
10
-1.7950399779393
20
12.500267964077
30
0
41
1
10
-1.7950399779393
20
11.0940004239178
30
0
41
1
10
-1.7950399779393
20
9.51267503388596
30
0
41
1
10
-1.7950399779393
20
7.75839234481913
30
0
41
1
10
-1.7950399779393
20
6.35944481918477
30
0
41
1
10
-1.7950399779393
20
4.8781381465428
30
0
41
1
10
-1.7950399779393
20
3.31755142876619
30
0
41
1
10
-1.7950399779393
20
1.95744888431969
30
0
41
1
10
-1.7950399779393
20
0.842183896938593
30
0
41
1
10
-1.7950399779393
20
5.01240152E-08
30
0
41
1
10
-1.7950399779393
20
-0.842183835089799
30
0
41
1
10
-1.7950399779393
20
-1.9574489056063
30
0
41
1
10
-1.7950399779393
20
-3.31755135272857
30
0
41
1
10
-1.7950399779393
20
-4.87813783770082
30
0
41
1
10
-1.7950399779393
20
-6.3594449330798
30
0
41
1
10
-1.7950399779393
20
-7.75839217523472
30
0
41
1
10
-1.7950399779393
20
-9.51267484843638
30
0
41
1
10
-1.7950399779393
20
-11.0940004136041
30
0
41
1
10
-1.7950399779393
20
-12.5002678139024
30
0
41
1
10
-1.7950399779393
20
-13.7856203428615
30
0
41
1
10
-1.7950399779393
20
-15.1570315468654
30
0
41
1
10
-1.7950399779393
20
-16.1913792747221
30
0
41
1
10
-1.7950399779393
20
-16.7916721035533
30
0
41
1
10
-1.7950399779393
20
-17.1188453667221
30
0
41
1
10
-1.79503997793932
20
-17.2795209558611
30
0
41
1
10
-1.7950399779393
20
-17.3192810356013
30
0
41
1
10
-1.7950399779393
20
-17.3257558790786
30
0
0
SPLINE
5
F1
100
AcDbEntity
8
SK1
62
256
6
ByLayer
370
13
48
1
60
0
100
AcDbSpline
70
4
71
3
72
19
73
15
40
0
40
0
40
0
40
0
40
0.0664184391979303
40
0.133795131437289
40
0.201171823676648
40
0.268548515916006
40
0.403301900394724
40
0.538055284873441
40
0.6054319771128
40
0.672808669352158
40
0.807562053830876
40
0.874938746070234
40
0.942315438309593
40
1
40
1
40
1
40
1
41
1
10
-0.19497688887526
20
17.3652986040434
30
0
41
1
10
-0.194976888875317
20
17.379135196359
30
0
41
1
10
-0.194976888875288
20
17.3505752186793
30
0
41
1
10
-0.194976888875288
20
17.1586060420318
30
0
41
1
10
-0.194976888875288
20
16.8308407609472
30
0
41
1
10
-0.194976888875288
20
16.2296006616932
30
0
41
1
10
-0.194976888875288
20
15.1935360543338
30
0
41
1
10
-0.194976888875288
20
13.8199155786832
30
0
41
1
10
-0.194976888875288
20
12.5327090406557
30
0
41
1
10
-0.194976888875288
20
11.124360123357
30
0
41
1
10
-0.194976888875288
20
9.54003756166779
30
0
41
1
10
-0.194976888875288
20
7.78272657852642
30
0
41
1
10
-0.194976888875288
20
6.44811514689013
30
0
41
1
10
-0.194976888875288
20
5.53313598468037
30
0
41
1
10
-0.194976888875288
20
5.10125345322413
30
0
0
SPLINE
5
F2
100
AcDbEntity
8
SK1
62
256
6
ByLayer
370
13
48
1
60
0
100
AcDbSpline
70
4
71
3
72
19
73
15
40
0
40
0
40
0
40
0
40
0.0576847343307645
40
0.125061503278322
40
0.19243827222588
40
0.327191810120995
40
0.394568579068553
40
0.46194534801611
40
0.596698885911226
40
0.731452423806341
40
0.798829192753899
40
0.866205961701456
40
0.933582730649014
40
1
40
1
40
1
40
1
41
1
10
-0.194976888875288
20
-5.1012508689667
30
0
41
1
10
-0.194976888875288
20
-5.53313428609087
30
0
41
1
10
-0.194976888875288
20
-6.44811450197952
30
0
41
1
10
-0.194976888875288
20
-7.78272641346857
30
0
41
1
10
-0.194976888875288
20
-9.54003737468344
30
0
41
1
10
-0.194976888875288
20
-11.1243601127487
30
0
41
1
10
-0.194976888875288
20
-12.5327088879465
30
0
41
1
10
-0.194976888875288
20
-13.8199159522374
30
0
41
1
10
-0.194976888875288
20
-15.1935356351606
30
0
41
1
10
-0.194976888875288
20
-16.2296014295451
30
0
41
1
10
-0.194976888875288
20
-16.8308406320639
30
0
41
1
10
-0.194976888875288
20
-17.1586063633231
30
0
41
1
10
-0.194976888875288
20
-17.3505746337146
30
0
41
1
10
-0.194976888875288
20
-17.3791347770066
30
0
41
1
10
-0.194976888875288
20
-17.3652994787636
30
0
0
SPLINE
5
F3
100
AcDbEntity
8
SK1
62
256
6
ByLayer
370
13
48
1
60
0
100
AcDbSpline
70
4
71
3
72
39
73
35
40
0
40
0
40
0
40
0
40
0.0181821445629965
40
0.0465244233021816
40
0.0748667020413667
40
0.103208980780552
40
0.159893538258922
40
0.216578095737292
40
0.244920374476477
40
0.273262653215662
40
0.329947210694032
40
0.358289489433217
40
0.386631768172403
40
0.414974046911588
40
0.443316325650773
40
0.471658604389958
40
0.48582974375955
40
0.500000883129143
40
0.514172022498736
40
0.528343161868328
40
0.556685440607513
40
0.585027719346698
40
0.613369998085883
40
0.641712276825068
40
0.670054555564253
40
0.726739113042624
40
0.755081391781808
40
0.783423670520994
40
0.840108227999364
40
0.896792785477734
40
0.925135064216919
40
0.953477342956104
40
0.981819621695289
40
1
40
1
40
1
40
1
41
1
10
-30
20
15.9932053871918
30
0
41
1
10
-30
20
15.9899219711166
30
0
41
1
10
-30
20
15.9548426649488
30
0
41
1
10
-30
20
15.7965327535813
30
0
41
1
10
-30
20
15.4890634139888
30
0
41
1
10
-30
20
14.9202427964398
30
0
41
1
10
-30
20
13.9430330734595
30
0
41
1
10
-30
20
12.6450674903883
30
0
41
1
10
-30
20
11.4213907579162
30
0
41
1
10
-30
20
10.084342571431
30
0
41
1
10
-30
20
8.60269267078093
30
0
41
1
10
-30
20
6.94912049428405
30
0
41
1
10
-30
20
5.64600378047228
30
0
41
1
10
-30
20
4.28092566737899
30
0
41
1
10
-30
20
2.86766148350514
30
0
41
1
10
-30
20
1.67580418173881
30
0
41
1
10
-30
20
0.709818138095528
30
0
41
1
10
-30
20
2.731357824E-07
30
0
41
1
10
-30
20
-0.709818178928145
30
0
41
1
10
-30
20
-1.67580430318804
30
0
41
1
10
-30
20
-2.86766099029055
30
0
41
1
10
-30
20
-4.28092547446499
30
0
41
1
10
-30
20
-5.64600401967192
30
0
41
1
10
-30
20
-6.94912017416232
30
0
41
1
10
-30
20
-8.60269253637253
30
0
41
1
10
-30
20
-10.0843425709124
30
0
41
1
10
-30
20
-11.4213906920358
30
0
41
1
10
-30
20
-12.6450678356931
30
0
41
1
10
-30
20
-13.9430327235571
30
0
41
1
10
-30
20
-14.9202435431778
30
0
41
1
10
-30
20
-15.4890632796305
30
0
41
1
10
-30
20
-15.7965331178349
30
0
41
1
10
-30
20
-15.9548394786143
30
0
41
1
10
-30
20
-15.9899195677009
30
0
41
1
10
-30
20
-15.9932046128214
30
0
0
SPLINE
5
F4
100
AcDbEntity
8
SK1
62
256
6
ByLayer
370
13
48
1
60
0
100
AcDbSpline
70
4
71
3
72
24
73
20
40
0
40
0
40
0
40
0
40
0.124999999999997
40
0.124999999999997
40
0.187499999999994
40
0.187499999999994
40
0.218749999999992
40
0.218749999999992
40
0.249999999999991
40
0.249999999999991
40
0.31249999999999
40
0.31249999999999
40
0.37499999999999
40
0.37499999999999
40
0.499999999999992
40
0.499999999999992
40
0.749999999999996
40
0.749999999999996
40
1
40
1
40
1
40
1
41
1
10
-0.194976888869519
20
5.10125345319452
30
0
41
1
10
-0.181802599024678
20
5.07493799693628
30
0
41
1
10
-0.167487583117577
20
5.04962485231954
30
0
41
1
10
-0.138200719692435
20
5.018725350869
30
0
41
1
10
-0.127007752423367
20
5.00942657500434
30
0
41
1
10
-0.106692593665997
20
5.00513122932847
30
0
41
1
10
-0.0991968335852675
20
5.00573569438205
30
0
41
1
10
-0.0855293958533991
20
5.01193593593129
30
0
41
1
10
-0.0793984682622977
20
5.0172890952108
30
0
41
1
10
-0.0637942285883923
20
5.03597841070362
30
0
41
1
10
-0.0567618727164358
20
5.05119306958514
30
0
41
1
10
-0.0451125871495321
20
5.08158095876351
30
0
41
1
10
-0.0406106446469607
20
5.09708347173074
30
0
41
1
10
-0.0289275117445982
20
5.14400785689159
30
0
41
1
10
-0.023629071888621
20
5.1758056886375
30
0
41
1
10
-0.0109086302302899
20
5.26998471325007
30
0
41
1
10
-0.0066100362516011
20
5.33222692370722
30
0
41
1
10
-0.0010407959094323
20
5.45614496696555
30
0
41
1
10
-2.84E-14
20
5.51780039661244
30
0
41
1
10
-2.84E-14
20
5.57923236301639
30
0
0
SPLINE
5
F5
100
AcDbEntity
8
SK1
62
256
6
ByLayer
370
13
48
1
60
0
100
AcDbSpline
70
4
71
3
72
22
73
18
40
0
40
0
40
0
40
0
40
0.125
40
0.125
40
0.25
40
0.25
40
0.375
40
0.375
40
0.4375
40
0.4375
40
0.5
40
0.5
40
0.75
40
0.75
40
0.875
40
0.875
40
1
40
1
40
1
40
1
41
1
10
-1.31543506509499
20
-3.91026939581309
30
0
41
1
10
-1.37156273717841
20
-3.59992257581027
30
0
41
1
10
-1.42466639975928
20
-3.28621150795979
30
0
41
1
10
-1.52178795087127
20
-2.65095930694901
30
0
41
1
10
-1.565722854954
20
-2.32938912439451
30
0
41
1
10
-1.63998404811002
20
-1.67664478205648
30
0
41
1
10
-1.67034745086553
20
-1.34548665810379
30
0
41
1
10
-1.70179941676008
20
-0.83989877804126
30
0
41
1
10
-1.70987414711718
20
-0.669570871264483
30
0
41
1
10
-1.72056379442324
20
-0.331434394761686
30
0
41
1
10
-1.72324532208276
20
-0.162961705339654
30
0
41
1
10
-1.72297877747675
20
0.676400362209449
30
0
41
1
10
-1.67816845695168
20
1.33820125129566
30
0
41
1
10
-1.56697995425827
20
2.31970917723464
30
0
41
1
10
-1.52254559890281
20
2.64577889192139
30
0
41
1
10
-1.42485005677108
20
3.28523409161193
30
0
41
1
10
-1.3715688343687
20
3.59989075664686
30
0
41
1
10
-1.31543506509496
20
3.91027172665429
30
0
0
SPLINE
5
F6
100
AcDbEntity
8
SK1
62
256
6
ByLayer
370
13
48
1
60
0
100
AcDbSpline
70
4
71
3
72
34
73
30
40
0
40
0
40
0
40
0
40
0.249999999999999
40
0.249999999999999
40
0.374999999999998
40
0.374999999999998
40
0.499999999999997
40
0.499999999999997
40
0.562499999999998
40
0.562499999999998
40
0.624999999999998
40
0.624999999999998
40
0.687499999999998
40
0.687499999999998
40
0.718749999999998
40
0.718749999999998
40
0.749999999999999
40
0.749999999999999
40
0.781249999999999
40
0.781249999999999
40
0.812499999999999
40
0.812499999999999
40
0.843749999999999
40
0.843749999999999
40
0.874999999999999
40
0.874999999999999
40
0.9375
40
0.9375
40
1
40
1
40
1
40
1
41
1
10
-1.31543506509499
20
3.91027172665429
30
0
41
1
10
-1.28068172917503
20
4.10243366862596
30
0
41
1
10
-1.24042006305646
20
4.29123308251604
30
0
41
1
10
-1.16633538727916
20
4.56841413612352
30
0
41
1
10
-1.13933080980485
20
4.65979804016916
30
0
41
1
10
-1.07856064150934
20
4.84008830899012
30
0
41
1
10
-1.04491780252286
20
4.92902458343846
30
0
41
1
10
-0.985719618828
20
5.05973431634266
30
0
41
1
10
-0.964510597666589
20
5.1028500781417
30
0
41
1
10
-0.917564142383327
20
5.18780309469574
30
0
41
1
10
-0.891735634262631
20
5.2298354195166
30
0
41
1
10
-0.833684468871013
20
5.30958831619867
30
0
41
1
10
-0.8011741134288
20
5.34799213064619
30
0
41
1
10
-0.743968050116621
20
5.39774137453307
30
0
41
1
10
-0.723289214132478
20
5.41312418985498
30
0
41
1
10
-0.678029382873859
20
5.43899682204844
30
0
41
1
10
-0.653473863817482
20
5.44938895365206
30
0
41
1
10
-0.601431286580805
20
5.46139775677145
30
0
41
1
10
-0.574009488443068
20
5.46273488914062
30
0
41
1
10
-0.52136831756502
20
5.45547291818747
30
0
41
1
10
-0.495865858316762
20
5.44696454124283
30
0
41
1
10
-0.449618673338222
20
5.42431602573331
30
0
41
1
10
-0.428179456725445
20
5.40999335674064
30
0
41
1
10
-0.389032480793844
20
5.37863193816366
30
0
41
1
10
-0.371184029473596
20
5.36154856512007
30
0
41
1
10
-0.320990839288413
20
5.30753806651614
30
0
41
1
10
-0.292013725136712
20
5.26792406922522
30
0
41
1
10
-0.239876505163068
20
5.18652632594319
30
0
41
1
10
-0.216563122431751
20
5.14437164718444
30
0
41
1
10
-0.194976888875288
20
5.10125345321299
30
0
0
SPLINE
5
F7
100
AcDbEntity
8
SK1
62
256
6
ByLayer
370
13
48
1
60
0
100
AcDbSpline
70
4
71
3
72
32
73
28
40
0
40
0
40
0
40
0
40
0.0624999999999999
40
0.0624999999999999
40
0.125
40
0.125
40
0.15625
40
0.15625
40
0.1875
40
0.1875
40
0.21875
40
0.21875
40
0.25
40
0.25
40
0.28125
40
0.28125
40
0.3125
40
0.3125
40
0.374999999999999
40
0.374999999999999
40
0.499999999999999
40
0.499999999999999
40
0.624999999999999
40
0.624999999999999
40
0.749999999999999
40
0.749999999999999
40
1
40
1
40
1
40
1
41
1
10
-0.194976888875288
20
-5.10125086895556
30
0
41
1
10
-0.216411492060274
20
-5.14406623857076
30
0
41
1
10
-0.239562914931383
20
-5.18596033789075
30
0
41
1
10
-0.291353104767637
20
-5.26696290766435
30
0
41
1
10
-0.320035423357865
20
-5.30623827275752
30
0
41
1
10
-0.369356290282497
20
-5.35970512410202
30
0
41
1
10
-0.386890561509546
20
-5.37666021355253
30
0
41
1
10
-0.425330717790445
20
-5.40793179193813
30
0
41
1
10
-0.446559276923125
20
-5.42243969778824
30
0
41
1
10
-0.492508842194496
20
-5.44564540128954
30
0
41
1
10
-0.517782420093852
20
-5.45447096541938
30
0
41
1
10
-0.569811183606816
20
-5.46258865100603
30
0
41
1
10
-0.597299443131476
20
-5.4618054854734
30
0
41
1
10
-0.649220231493615
20
-5.45083089323273
30
0
41
1
10
-0.674119840858879
20
-5.44077659775604
30
0
41
1
10
-0.719361236569199
20
-5.41574833767439
30
0
41
1
10
-0.740368171050307
20
-5.40051622624659
30
0
41
1
10
-0.797933916941787
20
-5.35142687921638
30
0
41
1
10
-0.830408604346871
20
-5.31356997745135
30
0
41
1
10
-0.917774867981109
20
-5.19501220323394
30
0
41
1
10
-0.96246441885242
20
-5.1102284280461
30
0
41
1
10
-1.04214197809219
20
-4.93593694656096
30
0
41
1
10
-1.076454080595
20
-4.84589601595715
30
0
41
1
10
-1.13808761230393
20
-4.66389927431672
30
0
41
1
10
-1.16537938363206
20
-4.57178767715166
30
0
41
1
10
-1.24012846189746
20
-4.29271329295025
30
0
41
1
10
-1.28057274414664
20
-4.10303367843485
30
0
41
1
10
-1.31543506509547
20
-3.91026939581314
30
0
0
SPLINE
5
F8
100
AcDbEntity
8
SK1
62
256
6
ByLayer
370
13
48
1
60
0
100
AcDbSpline
70
4
71
3
72
24
73
20
40
0
40
0
40
0
40
0
40
0.250000000000003
40
0.250000000000003
40
0.500000000000006
40
0.500000000000006
40
0.625000000000007
40
0.625000000000007
40
0.687500000000006
40
0.687500000000006
40
0.750000000000005
40
0.750000000000005
40
0.781250000000004
40
0.781250000000004
40
0.812500000000003
40
0.812500000000003
40
0.875000000000002
40
0.875000000000002
40
1
40
1
40
1
40
1
41
1
10
0
20
-5.57923036606766
30
0
41
1
10
0
20
-5.51765415114235
30
0
41
1
10
-0.001044759731343
20
-5.45582988149511
30
0
41
1
10
-0.0066530158589728
20
-5.33149482003731
30
0
41
1
10
-0.0109763566927938
20
-5.26900972589155
30
0
41
1
10
-0.0238612766187032
20
-5.17432687139464
30
0
41
1
10
-0.0291934107950453
20
-5.14259859193024
30
0
41
1
10
-0.041008040131004
20
-5.09566575805948
30
0
41
1
10
-0.0455624616044759
20
-5.08016788334226
30
0
41
1
10
-0.0573834461892773
20
-5.04982840514489
30
0
41
1
10
-0.0645619377202138
20
-5.03472102686263
30
0
41
1
10
-0.0800854142074456
20
-5.01664922221102
30
0
41
1
10
-0.0862893925761341
20
-5.01140689837627
30
0
41
1
10
-0.100017109542961
20
-5.00556463270382
30
0
41
1
10
-0.107289804617352
20
-5.00514999571749
30
0
41
1
10
-0.127552487949174
20
-5.00976275142608
30
0
41
1
10
-0.138595321298794
20
-5.0190973185031
30
0
41
1
10
-0.167305461759241
20
-5.04951473854175
30
0
41
1
10
-0.181865425224856
20
-5.07506087338649
30
0
41
1
10
-0.194976888875459
20
-5.10125086895357
30
0
0
SPLINE
5
F9
100
AcDbEntity
8
1
62
256
6
ByLayer
370
13
48
1
60
0
100
AcDbSpline
70
4
71
3
72
16
73
12
40
0
40
0
40
0
40
0
40
0.124999999999999
40
0.124999999999999
40
0.249999999999999
40
0.249999999999999
40
0.499999999999999
40
0.499999999999999
40
0.749999999999999
40
0.749999999999999
40
1
40
1
40
1
40
1
41
1
10
8.53867513459505
20
-23.8391299750502
30
0
41
1
10
8.50692224136566
20
-23.8391299750502
30
0
41
1
10
8.47600932946912
20
-23.8371392949585
30
0
41
1
10
8.41759599948907
20
-23.8299833264008
30
0
41
1
10
8.39103491659984
20
-23.8249896713849
30
0
41
1
10
8.31704385770806
20
-23.807014118376
30
0
41
1
10
8.27807345100149
20
-23.7919105160782
30
0
41
1
10
8.21173961735207
20
-23.7591079584196
30
0
41
1
10
8.18512193927694
20
-23.7416171457991
30
0
41
1
10
8.1397556772535
20
-23.7051129235881
30
0
41
1
10
8.12111376292643
20
-23.686033116806
30
0
41
1
10
8.10566243270267
20
-23.6665017920808
30
0
0
SPLINE
5
FA
100
AcDbEntity
8
1
62
256
6
ByLayer
370
13
48
1
60
0
100
AcDbSpline
70
4
71
3
72
8
73
4
40
0
40
0
40
0
40
0
40
1
40
1
40
1
40
1
41
1
10
19.5977715610301
20
-24.60051305452
30
0
41
1
10
19.6043558894923
20
-24.6141309476349
30
0
41
1
10
19.6130449578384
20
-24.6273056074551
30
0
41
1
10
19.6238001463687
20
-24.6400534383149
30
0
0
SPLINE
5
FB
100
AcDbEntity
8
1
62
256
6
ByLayer
370
13
48
1
60
0
100
AcDbSpline
70
4
71
3
72
16
73
12
40
0
40
0
40
0
40
0
40
0.25
40
0.25
40
0.499999999999999
40
0.499999999999999
40
0.749999999999998
40
0.749999999999998
40
0.874999999999999
40
0.874999999999999
40
1
40
1
40
1
40
1
41
1
10
8.10566243270284
20
-8.05584836782808
30
0
41
1
10
8.12110769698523
20
-7.99849169434944
30
0
41
1
10
8.13959628273565
20
-7.94218253951288
30
0
41
1
10
8.18485781079335
20
-7.83248598676838
30
0
41
1
10
8.21171210490087
20
-7.7787017964306
30
0
41
1
10
8.27812666032551
20
-7.67767014498924
30
0
41
1
10
8.31777781748568
20
-7.63015704912726
30
0
41
1
10
8.39058907041846
20
-7.57464889660923
30
0
41
1
10
8.41770072232754
20
-7.55854989603614
30
0
41
1
10
8.47563983861099
20
-7.53610198950869
30
0
41
1
10
8.50697323176144
20
-7.52966679426501
30
0
41
1
10
8.538675134595
20
-7.52966679426501
30
0
0
SPLINE
5
FC
100
AcDbEntity
8
1
62
256
6
ByLayer
370
13
48
1
60
0
100
AcDbSpline
70
4
71
3
72
8
73
4
40
0
40
0
40
0
40
0
40
1
40
1
40
1
40
1
41
1
10
34.9439513660012
20
-0.0968596665157975
30
0
41
1
10
34.9106183111962
20
-0.0979365740205083
30
0
41
1
10
34.8772849646953
20
-0.0989955467132688
30
0
41
1
10
34.8439513660011
20
-0.100038240924818
30
0
0
SPLINE
5
FD
100
AcDbEntity
8
1
62
256
6
ByLayer
370
13
48
1
60
0
100
AcDbSpline
70
4
71
3
72
8
73
4
40
0
40
0
40
0
40
0
40
1
40
1
40
1
40
1
41
1
10
19.6237993399721
20
24.6400524825097
30
0
41
1
10
19.6130202015231
20
24.6272761202915
30
0
41
1
10
19.6043408074135
20
24.6140997544559
30
0
41
1
10
19.5977715610301
20
24.60051305452
30
0
0
SPLINE
5
FE
100
AcDbEntity
8
1
62
256
6
ByLayer
370
13
48
1
60
0
100
AcDbSpline
70
4
71
3
72
16
73
12
40
0
40
0
40
0
40
0
40
0.124999999999999
40
0.124999999999999
40
0.249999999999999
40
0.249999999999999
40
0.499999999999997
40
0.499999999999997
40
0.749999999999999
40
0.749999999999999
40
1
40
1
40
1
40
1
41
1
10
11.4613248654053
20
23.8391299750501
30
0
41
1
10
11.4930777586347
20
23.8391299750501
30
0
41
1
10
11.5239906705311
20
23.8371392949584
30
0
41
1
10
11.5824040005112
20
23.8299833264007
30
0
41
1
10
11.6089650834005
20
23.8249896713847
30
0
41
1
10
11.6829561422922
20
23.8070141183758
30
0
41
1
10
11.7219265489988
20
23.791910516078
30
0
41
1
10
11.7882603826483
20
23.7591079584195
30
0
41
1
10
11.8148780607234
20
23.7416171457989
30
0
41
1
10
11.8602443227468
20
23.705112923588
30
0
41
1
10
11.8788862370739
20
23.6860331168058
30
0
41
1
10
11.8943375672977
20
23.6665017920806
30
0
0
SPLINE
5
FF
100
AcDbEntity
8
1
62
256
6
ByLayer
370
13
48
1
60
0
100
AcDbSpline
70
4
71
3
72
16
73
12
40
0
40
0
40
0
40
0
40
0.125000000000003
40
0.125000000000003
40
0.250000000000006
40
0.250000000000006
40
0.500000000000004
40
0.500000000000004
40
0.750000000000002
40
0.750000000000002
40
1
40
1
40
1
40
1
41
1
10
8.53867513459505
20
7.52966679426532
30
0
41
1
10
8.50692224136566
20
7.52966679426532
30
0
41
1
10
8.47600932946912
20
7.53597576299677
30
0
41
1
10
8.41759599948909
20
7.55857361750137
30
0
41
1
10
8.39103491659984
20
7.57431556968143
30
0
41
1
10
8.31704385770806
20
7.63070347545374
30
0
41
1
10
8.27807345100149
20
7.67774765104267
30
0
41
1
10
8.21173961735207
20
7.77866338250487
30
0
41
1
10
8.18512193927697
20
7.8319194748608
30
0
41
1
10
8.1397556772535
20
7.94172327888219
30
0
41
1
10
8.12111376292643
20
7.99846916820738
30
0
41
1
10
8.10566243270267
20
8.05584836782802
30
0
0
SPLINE
5
100
100
AcDbEntity
8
1
62
256
6
ByLayer
370
13
48
1
60
0
100
AcDbSpline
70
4
71
3
72
16
73
12
40
0
40
0
40
0
40
0
40
0.125000000000002
40
0.125000000000002
40
0.250000000000004
40
0.250000000000004
40
0.500000000000001
40
0.500000000000001
40
0.750000000000001
40
0.750000000000001
40
1
40
1
40
1
40
1
41
1
10
11.4613248654053
20
-7.52966679426581
30
0
41
1
10
11.4930777586347
20
-7.52966679426581
30
0
41
1
10
11.5239906705311
20
-7.53597576299723
30
0
41
1
10
11.5824040005112
20
-7.55857361750182
30
0
41
1
10
11.6089650834004
20
-7.57431556968186
30
0
41
1
10
11.6829561422922
20
-7.63070347545414
30
0
41
1
10
11.7219265489988
20
-7.67774765104309
30
0
41
1
10
11.7882603826483
20
-7.77866338250533
30
0
41
1
10
11.8148780607234
20
-7.83191947486125
30
0
41
1
10
11.8602443227468
20
-7.94172327888268
30
0
41
1
10
11.8788862370739
20
-7.99846916820783
30
0
41
1
10
11.8943375672977
20
-8.0558483678285
30
0
0
SPLINE
5
101
100
AcDbEntity
8
1
62
256
6
ByLayer
370
13
48
1
60
0
100
AcDbSpline
70
4
71
3
72
16
73
12
40
0
40
0
40
0
40
0
40
0.249999999999998
40
0.249999999999998
40
0.499999999999996
40
0.499999999999996
40
0.749999999999997
40
0.749999999999997
40
0.874999999999999
40
0.874999999999999
40
1
40
1
40
1
40
1
41
1
10
8.10566243270284
20
23.6665017920808
30
0
41
1
10
8.12110769698523
20
23.6860254491251
30
0
41
1
10
8.13959628273565
20
23.704958919593
30
0
41
1
10
8.18485781079337
20
23.7414301198898
30
0
41
1
10
8.21171210490087
20
23.75909551792
30
0
41
1
10
8.27812666032551
20
23.7919356634171
30
0
41
1
10
8.31777781748565
20
23.8071882416307
30
0
41
1
10
8.39058907041846
20
23.8248834464052
30
0
41
1
10
8.41770072232754
20
23.8299908115612
30
0
41
1
10
8.47563983861099
20
23.8370993498303
30
0
41
1
10
8.50697323176144
20
23.8391299750504
30
0
41
1
10
8.538675134595
20
23.8391299750504
30
0
0
SPLINE
5
102
100
AcDbEntity
8
1
62
256
6
ByLayer
370
13
48
1
60
0
100
AcDbSpline
70
4
71
3
72
8
73
4
40
0
40
0
40
0
40
0
40
1
40
1
40
1
40
1
41
1
10
34.9439513660012
20
0.096783184666748
30
0
41
1
10
34.9106183111962
20
0.0978600921714872
30
0
41
1
10
34.8772849646953
20
0.0989190648642762
30
0
41
1
10
34.8439513660011
20
0.0999617590758248
30
0
0
SPLINE
5
103
100
AcDbEntity
8
1
62
256
6
ByLayer
370
13
48
1
60
0
100
AcDbSpline
70
4
71
3
72
16
73
12
40
0
40
0
40
0
40
0
40
0.249999999999997
40
0.249999999999997
40
0.499999999999994
40
0.499999999999994
40
0.749999999999994
40
0.749999999999994
40
0.874999999999997
40
0.874999999999997
40
1
40
1
40
1
40
1
41
1
10
11.8943375672975
20
-23.6665017920806
30
0
41
1
10
11.8788923030151
20
-23.6860254491249
30
0
41
1
10
11.8604037172647
20
-23.7049589195928
30
0
41
1
10
11.815142189207
20
-23.7414301198897
30
0
41
1
10
11.7882878950995
20
-23.7590955179198
30
0
41
1
10
11.7218733396748
20
-23.791935663417
30
0
41
1
10
11.6822221825147
20
-23.8071882416306
30
0
41
1
10
11.6094109295818
20
-23.8248834464051
30
0
41
1
10
11.5822992776727
20
-23.8299908115611
30
0
41
1
10
11.5243601613893
20
-23.8370993498302
30
0
41
1
10
11.4930267682389
20
-23.8391299750502
30
0
41
1
10
11.4613248654054
20
-23.8391299750502
30
0
0
SPLINE
5
104
100
AcDbEntity
8
1
62
256
6
ByLayer
370
13
48
1
60
0
100
AcDbSpline
70
4
71
3
72
16
73
12
40
0
40
0
40
0
40
0
40
0.249999999999998
40
0.249999999999998
40
0.499999999999996
40
0.499999999999996
40
0.749999999999994
40
0.749999999999994
40
0.874999999999997
40
0.874999999999997
40
1
40
1
40
1
40
1
41
1
10
11.8943375672975
20
8.05584836782853
30
0
41
1
10
11.8788923030151
20
7.99849169434989
30
0
41
1
10
11.8604037172647
20
7.94218253951334
30
0
41
1
10
11.815142189207
20
7.83248598676883
30
0
41
1
10
11.7882878950995
20
7.77870179643105
30
0
41
1
10
11.7218733396748
20
7.67767014498969
30
0
41
1
10
11.6822221825146
20
7.63015704912772
30
0
41
1
10
11.6094109295818
20
7.57464889660969
30
0
41
1
10
11.5822992776727
20
7.5585498960366
30
0
41
1
10
11.5243601613893
20
7.53610198950918
30
0
41
1
10
11.4930267682389
20
7.52966679426552
30
0
41
1
10
11.4613248654054
20
7.52966679426549
30
0
0
INSERT
5
117
100
AcDbEntity
8
2
62
256
6
ByLayer
370
25
48
1
60
0
100
AcDbBlockReference
2
DimnDraft3D11
10
0
20
0
30
0
41
1
42
1
43
1
50
0
210
0
220
0
230
1
0
LINE
5
70
100
AcDbEntity
8
1
62
256
6
ByLayer
370
13
48
1
60
0
100
AcDbLine
10
0.3
20
-25
30
0
11
19.3
21
-25
31
0
39
0
210
0
220
0
230
1
0
LINE
5
72
100
AcDbEntity
8
1
62
256
6
ByLayer
370
13
48
1
60
0
100
AcDbLine
10
19.3
20
25
30
0
11
0.3
21
25
31
0
39
0
210
0
220
0
230
1
0
LINE
5
73
100
AcDbEntity
8
1
62
256
6
ByLayer
370
13
48
1
60
0
100
AcDbLine
10
0.3
20
25
30
0
11
0
21
24.7
31
0
39
0
210
0
220
0
230
1
0
LINE
5
74
100
AcDbEntity
8
1
62
256
6
ByLayer
370
13
48
1
60
0
100
AcDbLine
10
0
20
-24.7
30
0
11
0.3
21
-25
31
0
39
0
210
0
220
0
230
1
0
LINE
5
75
100
AcDbEntity
8
80
62
256
6
ByLayer
370
18
48
1
60
0
100
AcDbLine
10
0
20
0
30
0
11
-10
21
0
31
0
39
0
210
0
220
0
230
1
0
LINE
5
76
100
AcDbEntity
8
81
62
256
6
ByLayer
370
18
48
1
60
0
100
AcDbLine
10
60
20
0.582
30
0
11
70
21
0.582
31
0
39
0
210
0
220
0
230
1
0
LINE
5
77
100
AcDbEntity
8
1
62
256
6
ByLayer
370
13
48
1
60
0
100
AcDbLine
10
0.3
20
-25
30
0
11
0.3
21
25
31
0
39
0
210
0
220
0
230
1
0
LINE
5
78
100
AcDbEntity
8
1
62
256
6
ByLayer
370
13
48
1
60
0
100
AcDbLine
10
19.623799
20
24.640052
30
0
11
19.3
21
25
31
0
39
0
210
0
220
0
230
1
0
LINE
5
79
100
AcDbEntity
8
1
62
256
6
ByLayer
370
13
48
1
60
0
100
AcDbLine
10
19.3
20
-25
30
0
11
19.6238
21
-24.640053
31
0
39
0
210
0
220
0
230
1
0
LINE
5
7A
100
AcDbEntity
8
1
62
256
6
ByLayer
370
13
48
1
60
0
100
AcDbLine
10
0
20
-24.7
30
0
11
0
21
24.7
31
0
39
0
210
0
220
0
230
1
0
LINE
5
7B
100
AcDbEntity
8
1
62
256
6
ByLayer
370
13
48
1
60
0
100
AcDbLine
10
45.043951
20
4.637051
30
0
11
45.043951
21
3.090437
31
0
39
0
210
0
220
0
230
1
0
LINE
5
7C
100
AcDbEntity
8
1
62
256
6
ByLayer
370
13
48
1
60
0
100
AcDbLine
10
45.043951
20
-3.090513
30
0
11
45.043951
21
-4.637127
31
0
39
0
210
0
220
0
230
1
0
LINE
5
7D
100
AcDbEntity
8
1
62
256
6
ByLayer
370
13
48
1
60
0
100
AcDbLine
10
44.113951
20
4.930279
30
0
11
44.113951
21
2.7973
31
0
39
0
210
0
220
0
230
1
0
LINE
5
7E
100
AcDbEntity
8
1
62
256
6
ByLayer
370
13
48
1
60
0
100
AcDbLine
10
44.113951
20
-2.797377
30
0
11
44.113951
21
-4.930355
31
0
39
0
210
0
220
0
230
1
0
LINE
5
7F
100
AcDbEntity
8
1
62
256
6
ByLayer
370
13
48
1
60
0
100
AcDbLine
10
46.043951
20
4.321752
30
0
11
46.043951
21
3.405802
31
0
39
0
210
0
220
0
230
1
0
LINE
5
80
100
AcDbEntity
8
1
62
256
6
ByLayer
370
13
48
1
60
0
100
AcDbLine
10
46.043951
20
-3.405879
30
0
11
46.043951
21
-4.321828
31
0
39
0
210
0
220
0
230
1
0
LINE
5
81
100
AcDbEntity
8
1
62
256
6
ByLayer
370
13
48
1
60
0
100
AcDbLine
10
46.973951
20
4.028524
30
0
11
46.973951
21
3.699056
31
0
39
0
210
0
220
0
230
1
0
LINE
5
82
100
AcDbEntity
8
1
62
256
6
ByLayer
370
13
48
1
60
0
100
AcDbLine
10
46.973951
20
-3.699132
30
0
11
46.973951
21
-4.0286
31
0
39
0
210
0
220
0
230
1
0
LINE
5
83
100
AcDbEntity
8
1
62
256
6
ByLayer
370
13
48
1
60
0
100
AcDbLine
10
47.223981
20
3.94969
30
0
11
47.223981
21
3.777882
31
0
39
0
210
0
220
0
230
1
0
LINE
5
84
100
AcDbEntity
8
1
62
256
6
ByLayer
370
13
48
1
60
0
100
AcDbLine
10
47.223981
20
-3.777959
30
0
11
47.223981
21
-3.949766
31
0
39
0
210
0
220
0
230
1
0
LINE
5
85
100
AcDbEntity
8
1
62
256
6
ByLayer
370
13
48
1
60
0
100
AcDbLine
10
43.881242
20
5.003651
30
0
11
43.881242
21
2.723845
31
0
39
0
210
0
220
0
230
1
0
LINE
5
86
100
AcDbEntity
8
1
62
256
6
ByLayer
370
13
48
1
60
0
100
AcDbLine
10
43.881242
20
-2.723922
30
0
11
43.881242
21
-5.003728
31
0
39
0
210
0
220
0
230
1
0
LINE
5
87
100
AcDbEntity
8
1
62
256
6
ByLayer
370
13
48
1
60
0
100
AcDbLine
10
47.496441
20
-3.86386
30
0
11
47.223981
21
-3.949766
31
0
39
0
210
0
220
0
230
1
0
LINE
5
88
100
AcDbEntity
8
1
62
256
6
ByLayer
370
13
48
1
60
0
100
AcDbLine
10
47.223981
20
3.94969
30
0
11
47.496441
21
3.863784
31
0
39
0
210
0
220
0
230
1
0
LINE
5
89
100
AcDbEntity
8
SK1
62
256
6
ByLayer
370
13
48
1
60
0
100
AcDbLine
10
-1.315435
20
-3.910269
30
0
11
-1.315435
21
3.910272
31
0
39
0
210
0
220
0
230
1
0
LINE
5
8B
100
AcDbEntity
8
1
62
256
6
ByLayer
370
13
48
1
60
0
100
AcDbLine
10
44.113951
20
4.930279
30
0
11
43.881242
21
5.003651
31
0
39
0
210
0
220
0
230
1
0
LINE
5
8C
100
AcDbEntity
8
1
62
256
6
ByLayer
370
13
48
1
60
0
100
AcDbLine
10
44.113951
20
-4.930355
30
0
11
45.043951
21
-4.637127
31
0
39
0
210
0
220
0
230
1
0
LINE
5
8D
100
AcDbEntity
8
1
62
256
6
ByLayer
370
13
48
1
60
0
100
AcDbLine
10
11.461325
20
-23.83913
30
0
11
11.461325
21
-7.529667
31
0
39
0
210
0
220
0
230
1
0
LINE
5
8E
100
AcDbEntity
8
1
62
256
6
ByLayer
370
13
48
1
60
0
100
AcDbLine
10
39.943951
20
1.716804
30
0
11
39.843951
21
1.790127
31
0
39
0
210
0
220
0
230
1
0
LINE
5
8F
100
AcDbEntity
8
1
62
256
6
ByLayer
370
13
48
1
60
0
100
AcDbLine
10
46.043951
20
4.321752
30
0
11
45.043951
21
4.637051
31
0
39
0
210
0
220
0
230
1
0
LINE
5
90
100
AcDbEntity
8
1
62
256
6
ByLayer
370
13
48
1
60
0
100
AcDbLine
10
8.538675
20
23.83913
30
0
11
11.461325
21
23.83913
31
0
39
0
210
0
220
0
230
1
0
LINE
5
91
100
AcDbEntity
8
1
62
256
6
ByLayer
370
13
48
1
60
0
100
AcDbLine
10
19.597772
20
24.600513
30
0
11
19.597772
21
-24.600513
31
0
39
0
210
0
220
0
230
1
0
LINE
5
92
100
AcDbEntity
8
1
62
256
6
ByLayer
370
13
48
1
60
0
100
AcDbLine
10
36.440823
20
-1.500038
30
0
11
36.440823
21
-1.600038
31
0
39
0
210
0
220
0
230
1
0
LINE
5
93
100
AcDbEntity
8
1
62
256
6
ByLayer
370
13
48
1
60
0
100
AcDbLine
10
11.461325
20
7.529667
30
0
11
11.461325
21
23.83913
31
0
39
0
210
0
220
0
230
1
0
LINE
5
94
100
AcDbEntity
8
1
62
256
6
ByLayer
370
13
48
1
60
0
100
AcDbLine
10
37.540496
20
-7.002957
30
0
11
39.343951
21
-6.43433
31
0
39
0
210
0
220
0
230
1
0
LINE
5
95
100
AcDbEntity
8
1
62
256
6
ByLayer
370
13
48
1
60
0
100
AcDbLine
10
8.105662
20
8.055848
30
0
11
8.105662
21
23.666502
31
0
39
0
210
0
220
0
230
1
0
LINE
5
96
100
AcDbEntity
8
1
62
256
6
ByLayer
370
13
48
1
60
0
100
AcDbLine
10
11.461325
20
7.529667
30
0
11
8.538675
21
7.529667
31
0
39
0
210
0
220
0
230
1
0
LINE
5
97
100
AcDbEntity
8
1
62
256
6
ByLayer
370
13
48
1
60
0
100
AcDbLine
10
39.240823
20
1.599962
30
0
11
39.343951
21
1.632478
31
0
39
0
210
0
220
0
230
1
0
LINE
5
98
100
AcDbEntity
8
1
62
256
6
ByLayer
370
13
48
1
60
0
100
AcDbLine
10
23.58255
20
-20.239381
30
0
11
32.67031
21
-10.137137
31
0
39
0
210
0
220
0
230
1
0
LINE
5
99
100
AcDbEntity
8
1
62
256
6
ByLayer
370
13
48
1
60
0
100
AcDbLine
10
43.881242
20
-5.003728
30
0
11
44.113951
21
-4.930355
31
0
39
0
210
0
220
0
230
1
0
LINE
5
9A
100
AcDbEntity
8
1
62
256
6
ByLayer
370
13
48
1
60
0
100
AcDbLine
10
11.894338
20
8.055848
30
0
11
11.894338
21
23.666502
31
0
39
0
210
0
220
0
230
1
0
LINE
5
9B
100
AcDbEntity
8
1
62
256
6
ByLayer
370
13
48
1
60
0
100
AcDbLine
10
23.58255
20
20.239356
30
0
11
19.623799
21
24.640052
31
0
39
0
210
0
220
0
230
1
0
LINE
5
9C
100
AcDbEntity
8
1
62
256
6
ByLayer
370
13
48
1
60
0
100
AcDbLine
10
39.843951
20
-6.276681
30
0
11
39.943951
21
-6.245151
31
0
39
0
210
0
220
0
230
1
0
LINE
5
9D
100
AcDbEntity
8
1
62
256
6
ByLayer
370
13
48
1
60
0
100
AcDbLine
10
39.343951
20
1.632478
30
0
11
39.843951
21
1.790127
31
0
39
0
210
0
220
0
230
1
0
LINE
5
9E
100
AcDbEntity
8
1
62
256
6
ByLayer
370
13
48
1
60
0
100
AcDbLine
10
47.223981
20
3.94969
30
0
11
46.973951
21
4.028524
31
0
39
0
210
0
220
0
230
1
0
LINE
5
9F
100
AcDbEntity
8
1
62
256
6
ByLayer
370
13
48
1
60
0
100
AcDbLine
10
39.343951
20
1.632478
30
0
11
39.343951
21
6.434254
31
0
39
0
210
0
220
0
230
1
0
LINE
5
A0
100
AcDbEntity
8
1
62
256
6
ByLayer
370
13
48
1
60
0
100
AcDbLine
10
45.043951
20
-4.637127
30
0
11
46.043951
21
-4.321828
31
0
39
0
210
0
220
0
230
1
0
LINE
5
A1
100
AcDbEntity
8
1
62
256
6
ByLayer
370
13
48
1
60
0
100
AcDbLine
10
34.843951
20
-0.100038
30
0
11
34.843951
21
0.099962
31
0
39
0
210
0
220
0
230
1
0
LINE
5
A2
100
AcDbEntity
8
1
62
256
6
ByLayer
370
13
48
1
60
0
100
AcDbLine
10
8.538675
20
-23.83913
30
0
11
8.538675
21
-7.529667
31
0
39
0
210
0
220
0
230
1
0
LINE
5
A3
100
AcDbEntity
8
1
62
256
6
ByLayer
370
13
48
1
60
0
100
AcDbLine
10
39.343951
20
6.434254
30
0
11
39.843951
21
6.276604
31
0
39
0
210
0
220
0
230
1
0
LINE
5
A4
100
AcDbEntity
8
1
62
256
6
ByLayer
370
13
48
1
60
0
100
AcDbLine
10
39.256215
20
1.499962
30
0
11
39.240823
21
1.599962
31
0
39
0
210
0
220
0
230
1
0
LINE
5
A5
100
AcDbEntity
8
1
62
256
6
ByLayer
370
13
48
1
60
0
100
AcDbLine
10
34.943951
20
-0.09686
30
0
11
34.943951
21
0.096783
31
0
39
0
210
0
220
0
230
1
0
LINE
5
A6
100
AcDbEntity
8
1
62
256
6
ByLayer
370
13
48
1
60
0
100
AcDbLine
10
43.881242
20
-5.003728
30
0
11
39.943951
21
-6.245151
31
0
39
0
210
0
220
0
230
1
0
LINE
5
A7
100
AcDbEntity
8
1
62
256
6
ByLayer
370
13
48
1
60
0
100
AcDbLine
10
39.843951
20
1.790127
30
0
11
39.843951
21
6.276604
31
0
39
0
210
0
220
0
230
1
0
LINE
5
A8
100
AcDbEntity
8
1
62
256
6
ByLayer
370
13
48
1
60
0
100
AcDbLine
10
11.894338
20
-23.666502
30
0
11
11.894338
21
-8.055848
31
0
39
0
210
0
220
0
230
1
0
LINE
5
A9
100
AcDbEntity
8
1
62
256
6
ByLayer
370
13
48
1
60
0
100
AcDbLine
10
36.440823
20
1.499962
30
0
11
36.440823
21
1.599962
31
0
39
0
210
0
220
0
230
1
0
LINE
5
AA
100
AcDbEntity
8
1
62
256
6
ByLayer
370
13
48
1
60
0
100
AcDbLine
10
46.043951
20
-4.321828
30
0
11
46.973951
21
-4.0286
31
0
39
0
210
0
220
0
230
1
0
LINE
5
AB
100
AcDbEntity
8
1
62
256
6
ByLayer
370
13
48
1
60
0
100
AcDbLine
10
39.256215
20
1.499962
30
0
11
39.943951
21
1.716804
31
0
39
0
210
0
220
0
230
1
0
LINE
5
AC
100
AcDbEntity
8
1
62
256
6
ByLayer
370
13
48
1
60
0
100
AcDbLine
10
39.943951
20
-1.716881
30
0
11
39.843951
21
-1.790204
31
0
39
0
210
0
220
0
230
1
0
LINE
5
AD
100
AcDbEntity
8
1
62
256
6
ByLayer
370
13
48
1
60
0
100
AcDbLine
10
39.256215
20
-1.500038
30
0
11
36.440823
21
-1.500038
31
0
39
0
210
0
220
0
230
1
0
LINE
5
AE
100
AcDbEntity
8
1
62
256
6
ByLayer
370
13
48
1
60
0
100
AcDbLine
10
19.6238
20
-24.640053
30
0
11
23.58255
21
-20.239381
31
0
39
0
210
0
220
0
230
1
0
LINE
5
AF
100
AcDbEntity
8
1
62
256
6
ByLayer
370
13
48
1
60
0
100
AcDbLine
10
39.843951
20
-6.276681
30
0
11
39.343951
21
-6.43433
31
0
39
0
210
0
220
0
230
1
0
LINE
5
B0
100
AcDbEntity
8
1
62
256
6
ByLayer
370
13
48
1
60
0
100
AcDbLine
10
39.943951
20
6.245074
30
0
11
39.843951
21
6.276604
31
0
39
0
210
0
220
0
230
1
0
LINE
5
B1
100
AcDbEntity
8
1
62
256
6
ByLayer
370
13
48
1
60
0
100
AcDbLine
10
8.538675
20
7.529667
30
0
11
8.538675
21
23.83913
31
0
39
0
210
0
220
0
230
1
0
LINE
5
B2
100
AcDbEntity
8
1
62
256
6
ByLayer
370
13
48
1
60
0
100
AcDbLine
10
36.440823
20
1.499962
30
0
11
39.256215
21
1.499962
31
0
39
0
210
0
220
0
230
1
0
LINE
5
B3
100
AcDbEntity
8
1
62
256
6
ByLayer
370
13
48
1
60
0
100
AcDbLine
10
39.943951
20
1.716804
30
0
11
39.943951
21
6.245074
31
0
39
0
210
0
220
0
230
1
0
LINE
5
B4
100
AcDbEntity
8
1
62
256
6
ByLayer
370
13
48
1
60
0
100
AcDbLine
10
39.843951
20
-1.790204
30
0
11
39.343951
21
-1.632554
31
0
39
0
210
0
220
0
230
1
0
LINE
5
B5
100
AcDbEntity
8
1
62
256
6
ByLayer
370
13
48
1
60
0
100
AcDbLine
10
45.043951
20
4.637051
30
0
11
44.113951
21
4.930279
31
0
39
0
210
0
220
0
230
1
0
LINE
5
B6
100
AcDbEntity
8
1
62
256
6
ByLayer
370
13
48
1
60
0
100
AcDbLine
10
32.670291
20
10.137081
30
0
11
23.58255
21
20.239356
31
0
39
0
210
0
220
0
230
1
0
LINE
5
B7
100
AcDbEntity
8
1
62
256
6
ByLayer
370
13
48
1
60
0
100
AcDbLine
10
46.973951
20
4.028524
30
0
11
46.043951
21
4.321752
31
0
39
0
210
0
220
0
230
1
0
LINE
5
B8
100
AcDbEntity
8
1
62
256
6
ByLayer
370
13
48
1
60
0
100
AcDbLine
10
8.105662
20
-23.666502
30
0
11
8.105662
21
-8.055848
31
0
39
0
210
0
220
0
230
1
0
LINE
5
B9
100
AcDbEntity
8
1
62
256
6
ByLayer
370
13
48
1
60
0
100
AcDbLine
10
39.943951
20
6.245074
30
0
11
43.881242
21
5.003651
31
0
39
0
210
0
220
0
230
1
0
LINE
5
BA
100
AcDbEntity
8
1
62
256
6
ByLayer
370
13
48
1
60
0
100
AcDbLine
10
39.343951
20
-1.632554
30
0
11
39.240823
21
-1.600038
31
0
39
0
210
0
220
0
230
1
0
LINE
5
BB
100
AcDbEntity
8
1
62
256
6
ByLayer
370
13
48
1
60
0
100
AcDbLine
10
39.256215
20
-1.500038
30
0
11
39.240823
21
-1.600038
31
0
39
0
210
0
220
0
230
1
0
LINE
5
BC
100
AcDbEntity
8
1
62
256
6
ByLayer
370
13
48
1
60
0
100
AcDbLine
10
8.538675
20
-7.529667
30
0
11
11.461325
21
-7.529667
31
0
39
0
210
0
220
0
230
1
0
LINE
5
BD
100
AcDbEntity
8
1
62
256
6
ByLayer
370
13
48
1
60
0
100
AcDbLine
10
39.343951
20
6.434254
30
0
11
37.540496
21
7.002881
31
0
39
0
210
0
220
0
230
1
0
LINE
5
BE
100
AcDbEntity
8
1
62
256
6
ByLayer
370
13
48
1
60
0
100
AcDbLine
10
36.440823
20
1.599962
30
0
11
39.240823
21
1.599962
31
0
39
0
210
0
220
0
230
1
0
LINE
5
BF
100
AcDbEntity
8
1
62
256
6
ByLayer
370
13
48
1
60
0
100
AcDbLine
10
39.943951
20
-6.245151
30
0
11
39.943951
21
-1.716881
31
0
39
0
210
0
220
0
230
1
0
LINE
5
C0
100
AcDbEntity
8
1
62
256
6
ByLayer
370
13
48
1
60
0
100
AcDbLine
10
39.843951
20
-6.276681
30
0
11
39.843951
21
-1.790204
31
0
39
0
210
0
220
0
230
1
0
LINE
5
C1
100
AcDbEntity
8
1
62
256
6
ByLayer
370
13
48
1
60
0
100
AcDbLine
10
39.240823
20
-1.600038
30
0
11
36.440823
21
-1.600038
31
0
39
0
210
0
220
0
230
1
0
LINE
5
C2
100
AcDbEntity
8
1
62
256
6
ByLayer
370
13
48
1
60
0
100
AcDbLine
10
39.943951
20
-1.716881
30
0
11
39.256215
21
-1.500038
31
0
39
0
210
0
220
0
230
1
0
LINE
5
C3
100
AcDbEntity
8
1
62
256
6
ByLayer
370
13
48
1
60
0
100
AcDbLine
10
11.461325
20
-23.83913
30
0
11
8.538675
21
-23.83913
31
0
39
0
210
0
220
0
230
1
0
LINE
5
C4
100
AcDbEntity
8
1
62
256
6
ByLayer
370
13
48
1
60
0
100
AcDbLine
10
23.58255
20
-20.239381
30
0
11
23.58255
21
20.239356
31
0
39
0
210
0
220
0
230
1
0
LINE
5
C5
100
AcDbEntity
8
1
62
256
6
ByLayer
370
13
48
1
60
0
100
AcDbLine
10
46.973951
20
-4.0286
30
0
11
47.223981
21
-3.949766
31
0
39
0
210
0
220
0
230
1
0
LINE
5
C6
100
AcDbEntity
8
1
62
256
6
ByLayer
370
13
48
1
60
0
100
AcDbLine
10
39.343951
20
-6.43433
30
0
11
39.343951
21
-1.632554
31
0
39
0
210
0
220
0
230
1
0
LINE
5
C7
100
AcDbEntity
8
1
62
256
6
ByLayer
370
18
48
1
60
0
100
AcDbLine
10
37.509512
20
-0.715009
30
0
11
48.187174
21
-4.081663
31
0
39
0
210
0
220
0
230
1
0
LINE
5
C8
100
AcDbEntity
8
1
62
256
6
ByLayer
370
18
48
1
60
0
100
AcDbLine
10
48.187174
20
4.081587
30
0
11
37.509512
21
0.714933
31
0
39
0
210
0
220
0
230
1
0
LINE
5
C9
100
AcDbEntity
8
1
62
256
6
ByLayer
370
18
48
1
60
0
100
AcDbLine
10
37.515167
20
0.704071
30
0
11
37.509512
21
0.714933
31
0
39
0
210
0
220
0
230
1
0
LINE
5
CA
100
AcDbEntity
8
1
62
256
6
ByLayer
370
18
48
1
60
0
100
AcDbLine
10
37.515167
20
-0.704147
30
0
11
37.509512
21
-0.715009
31
0
39
0
210
0
220
0
230
1
0
LINE
5
CB
100
AcDbEntity
8
1
62
256
6
ByLayer
370
18
48
1
60
0
100
AcDbLine
10
48.900729
20
-4.081663
30
0
11
59.57839
21
-0.715009
31
0
39
0
210
0
220
0
230
1
0
LINE
5
CC
100
AcDbEntity
8
1
62
256
6
ByLayer
370
18
48
1
60
0
100
AcDbLine
10
59.57839
20
0.714933
30
0
11
48.900729
21
4.081587
31
0
39
0
210
0
220
0
230
1
0
LINE
5
CD
100
AcDbEntity
8
1
62
256
6
ByLayer
370
18
48
1
60
0
100
AcDbLine
10
59.572736
20
0.704071
30
0
11
59.57839
21
0.714933
31
0
39
0
210
0
220
0
230
1
0
LINE
5
CE
100
AcDbEntity
8
1
62
256
6
ByLayer
370
18
48
1
60
0
100
AcDbLine
10
59.572736
20
-0.704147
30
0
11
59.57839
21
-0.715009
31
0
39
0
210
0
220
0
230
1
0
MTEXT
5
105
100
AcDbEntity
8
SK6
62
256
6
ByLayer
370
13
48
1
60
0
100
AcDbMText
10
1.042524
20
-39.83489
30
0
210
0
220
0
230
1
1
\W0.7771;TR-C5-V13VBN-00060
40
3.5
41
0
44
1.084337
50
0
71
7
72
5
7
iso_b_vert
0
DIMENSION
5
126
100
AcDbEntity
8
SK2
62
256
6
ByLayer
370
13
48
1
60
0
100
AcDbDimension
2
DimnDraft3D2
10
-39.1
20
-25
30
0
11
-39.1
21
0
31
0
70
32
71
5
72
1
41
1
210
0
220
0
230
1
3
Standard
100
AcDbAlignedDimension
13
-1.5875
23
25
33
0
14
-1.5875
24
-25
34
0
50
90
100
AcDbRotatedDimension
1001
ACAD
1000
DSTYLE
1002
{
1070
    74
1070
     0
1070
   279
1070
     0
1070
   172
1070
     1
1070
   173
1070
     1
1070
   340
1005
106
1070
   271
1070
     1
1070
   272
1070
     2
1070
    77
1070
     1
1070
    73
1070
     0
1070
   171
1070
     3
1070
   274
1070
     4
1070
   177
1070
   150
1070
   176
1070
     9
1070
   178
1070
    43
1070
    78
1070
     8
1070
    48
1040
-0.005
1070
    41
1041
3.175
1070
   147
1041
2.25
1070
    42
1041
1.5875
1070
    44
1041
3.175
1070
   140
1041
4.5
1070
   343
1005
127
1070
   344
1005
127
1002
}
0
DIMENSION
5
13B
100
AcDbEntity
8
2
62
256
6
ByLayer
370
13
48
1
60
0
100
AcDbDimension
2
DimnDraft3D3
10
0
20
18.082
30
0
11
30
21
18.082
31
0
70
32
71
5
72
1
41
1
210
0
220
0
230
1
3
Standard
100
AcDbAlignedDimension
13
60
23
2.1695
33
0
14
0
24
23.4125
34
0
50
0
100
AcDbRotatedDimension
1001
ACAD
1000
DSTYLE
1002
{
1070
   279
1070
     0
1070
   172
1070
     1
1070
   173
1070
     1
1070
   340
1005
106
1070
   271
1070
     1
1070
   272
1070
     2
1070
    77
1070
     1
1070
    73
1070
     0
1070
   171
1070
     3
1070
   274
1070
     4
1070
   177
1070
   150
1070
   176
1070
     9
1070
   178
1070
    43
1070
    78
1070
     8
1070
    48
1040
-0.005
1070
    41
1041
3.175
1070
   147
1041
2.25
1070
    42
1041
1.5875
1070
    44
1041
3.175
1070
   140
1041
4.5
1070
   343
1005
127
1070
   344
1005
127
1002
}
0
DIMENSION
5
149
100
AcDbEntity
8
2
62
256
6
ByLayer
370
13
48
1
60
0
100
AcDbDimension
2
DimnDraft3D4
10
47.04658
20
4.454436
30
0
11
49.876214
21
14.177341
31
0
70
34
71
5
72
1
41
1
210
0
220
0
230
1
3
Standard
100
AcDb2LineAngularDimension
13
60
23
0.582
33
0
14
60
24
-1.0056
34
0
15
59.4449
25
0.545261
35
0
16
52.537107
26
10.54834
36
0
40
0
0
ENDSEC
0
SECTION
2
OBJECTS
0
DICTIONARY
5
1b3
330
0
100
AcDbDictionary
280
0
281
1
3
ACAD_GROUP
350
1b4
3
ACAD_MLINESTYLE
350
1b5
0
DICTIONARY
5
1b4
330
0
100
AcDbDictionary
280
0
281
1
0
DICTIONARY
5
1b5
330
0
100
AcDbDictionary
280
0
281
1
3
Standard
350
18
0
MLINESTYLE
5
18
330
1b5
100
AcDbMlineStyle
2
Standard
70
0
3

62
256
51
90
52
90
71
2
49
-0.5
62
256
6
ByLayer
49
0.5
62
256
6
ByLayer
0
RASTERVARIABLES
5
1a2
330

100
AcDbRasterVariables
90
0
70
1
71
1
72
1
0
ENDSEC
0
EOF
