0
SECTION
2
HEADER
9
$ACADVER
1
AC1015
9
$DWGCODEPAGE
3
ANSI_1252
9
$HANDSEED
5
1c4
9
$ANGBASE
50
0
9
$ANGDIR
70
0
9
$ATTMODE
70
1
9
$AUNITS
70
0
9
$AUPREC
70
0
9
$CECOLOR
62
256
9
$CELTSCALE
40
1
9
$CELTYPE
6
ByLayer
9
$CELWEIGHT
370
18
9
$CLAYER
8
0
9
$CMLJUST
70
0
9
$CMLSCALE
40
1
9
$CMLSTYLE
2
Standard
9
$DIMSTYLE
2
Standard
9
$TEXTSIZE
40
0.2
9
$TEXTSTYLE
7
Standard
9
$LUNITS
70
2
9
$LUPREC
70
4
9
$EXTNAMES
290
1
9
$INSUNITS
70
4
9
$LTSCALE
40
1
9
$LWDISPLAY
290
1
9
$PDMODE
70
0
9
$PDSIZE
40
0
9
$PLINEGEN
70
0
0
ENDSEC
0
SECTION
2
CLASSES
0
CLASS
1
RASTERVARIABLES
2
AcDbRasterVariables
3
ISM
90
0
280
0
281
0
0
ENDSEC
0
SECTION
2
TABLES
0
TABLE
2
VPORT
5
1ba
100
AcDbSymbolTable
0
VPORT
5
1
100
AcDbSymbolTableRecord
100
AcDbViewportTableRecord
2
*Active
70
0
10
0
20
0
11
1
21
1
12
-1
22
1
13
0
23
0
14
0.5
24
0.5
15
10
25
10
16
0
26
0
36
1
17
0
27
0
37
0
0
ENDTAB
0
TABLE
2
LTYPE
5
1bb
100
AcDbSymbolTable
0
LTYPE
5
14
100
AcDbSymbolTableRecord
100
AcDbLinetypeTableRecord
70
0
2
ByBlock
3

72
65
73
0
40
0
0
LTYPE
5
15
100
AcDbSymbolTableRecord
100
AcDbLinetypeTableRecord
70
0
2
ByLayer
3

72
65
73
0
40
0
0
LTYPE
5
16
100
AcDbSymbolTableRecord
100
AcDbLinetypeTableRecord
70
0
2
CONTINUOUS
3
Solid line
72
65
73
0
40
0
0
LTYPE
5
6A
100
AcDbSymbolTableRecord
100
AcDbLinetypeTableRecord
70
0
2
CENTER
3
____ _ ____ _ ____ _ ____
72
65
73
4
40
47.5
49
22
74
0
49
-8.5
74
0
49
8.5
74
0
49
-8.5
74
0
0
LTYPE
5
6B
100
AcDbSymbolTableRecord
100
AcDbLinetypeTableRecord
70
0
2
DASHED
3
__ __ __ __ __ __ __ __ __
72
65
73
2
40
25.72
49
12.86
74
0
49
-12.86
74
0
0
ENDTAB
0
TABLE
2
LAYER
5
1bc
100
AcDbSymbolTable
0
LAYER
5
10
100
AcDbSymbolTableRecord
100
AcDbLayerTableRecord
2
0
70
0
62
7
6
CONTINUOUS
290
1
370
-3
390
0
0
LAYER
5
6D
100
AcDbSymbolTableRecord
100
AcDbLayerTableRecord
2
81
70
0
62
-3
6
CONTINUOUS
290
1
370
-3
390
0
0
LAYER
5
6F
100
AcDbSymbolTableRecord
100
AcDbLayerTableRecord
2
80
70
0
62
-6
6
CONTINUOUS
290
1
370
-3
390
0
0
LAYER
5
71
100
AcDbSymbolTableRecord
100
AcDbLayerTableRecord
2
1
70
0
62
4
6
CONTINUOUS
290
1
370
-3
390
0
0
LAYER
5
125
100
AcDbSymbolTableRecord
100
AcDbLayerTableRecord
2
2
70
0
62
7
6
CONTINUOUS
290
1
370
-3
390
0
0
LAYER
5
1a7
100
AcDbSymbolTableRecord
100
AcDbLayerTableRecord
2
SK1
70
0
62
4
6
CONTINUOUS
290
1
370
-3
390
0
0
LAYER
5
1a8
100
AcDbSymbolTableRecord
100
AcDbLayerTableRecord
2
SK6
70
0
62
5
6
CONTINUOUS
290
1
370
-3
390
0
0
LAYER
5
1a9
100
AcDbSymbolTableRecord
100
AcDbLayerTableRecord
2
SK2
70
0
62
7
6
CONTINUOUS
290
1
370
-3
390
0
0
ENDTAB
0
TABLE
2
STYLE
5
1bd
100
AcDbSymbolTable
0
STYLE
5
11
100
AcDbSymbolTableRecord
100
AcDbTextStyleTableRecord
2
Standard
3
txt
70
0
71
0
40
0
41
1
42
0
50
0
0
STYLE
5
10A
100
AcDbSymbolTableRecord
100
AcDbTextStyleTableRecord
2
iso_b_vert
3
simplex.shx
70
0
71
0
40
0
41
1
42
0
50
0
0
STYLE
5
10B
100
AcDbSymbolTableRecord
100
AcDbTextStyleTableRecord
2
DWGDirectTextStyle
3
simplex
70
0
71
0
40
0
41
1
42
0
50
0
0
ENDTAB
0
TABLE
2
DIMSTYLE
5
1be
100
AcDbSymbolTable
100
AcDbDimStyleTable
0
DIMSTYLE
105
27
100
AcDbSymbolTableRecord
100
AcDbDimStyleTableRecord
2
Standard
70
0
3
<>
41
0.18
42
0.0625
44
0.18
140
0.18
147
0.09
73
0
74
0
77
1
271
2
275
0
278
52
280
0
340
11
0
ENDTAB
0
TABLE
2
VIEW
5
1bf
100
AcDbSymbolTable
0
ENDTAB
0
TABLE
2
UCS
5
1c0
100
AcDbSymbolTable
0
ENDTAB
0
TABLE
2
APPID
5
1c1
100
AcDbSymbolTable
0
APPID
5
12
100
AcDbSymbolTableRecord
100
AcDbRegAppTableRecord
2
ACAD
70
0
0
ENDTAB
0
TABLE
2
BLOCK_RECORD
5
1c2
100
AcDbSymbolTable
0
BLOCK_RECORD
5
1F
100
AcDbSymbolTableRecord
100
AcDbBlockTableRecord
2
*Model_Space
340
0
70
0
0
BLOCK_RECORD
5
1B
100
AcDbSymbolTableRecord
100
AcDbBlockTableRecord
2
*Paper_Space
340
0
70
0
0
BLOCK_RECORD
5
23
100
AcDbSymbolTableRecord
100
AcDbBlockTableRecord
2
*Paper_Space0
340
0
70
0
0
BLOCK_RECORD
5
10D
100
AcDbSymbolTableRecord
100
AcDbBlockTableRecord
2
DimnDraft3D1
340
0
70
0
0
BLOCK_RECORD
5
11C
100
AcDbSymbolTableRecord
100
AcDbBlockTableRecord
2
_CLOSED
340
0
70
0
0
BLOCK_RECORD
5
123
100
AcDbSymbolTableRecord
100
AcDbBlockTableRecord
2
DimnDraft3D2
340
0
70
0
0
BLOCK_RECORD
5
132
100
AcDbSymbolTableRecord
100
AcDbBlockTableRecord
2
DimnDraft3D3
340
0
70
0
0
BLOCK_RECORD
5
140
100
AcDbSymbolTableRecord
100
AcDbBlockTableRecord
2
DimnDraft3D4
340
0
70
0
0
ENDTAB
0
ENDSEC
0
SECTION
2
BLOCKS
0
BLOCK
5
20
100
AcDbEntity
8
0
100
AcDbBlockBegin
2
*Model_Space
70
0
10
0
20
0
30
0
3
*Model_Space
0
ENDBLK
5
21
100
AcDbEntity
8
0
100
AcDbBlockEnd
0
BLOCK
5
1C
100
AcDbEntity
8
0
100
AcDbBlockBegin
2
*Paper_Space
70
0
10
0
20
0
30
0
3
*Paper_Space
0
ENDBLK
5
1D
100
AcDbEntity
8
0
100
AcDbBlockEnd
0
BLOCK
5
24
100
AcDbEntity
8
0
100
AcDbBlockBegin
2
*Paper_Space0
70
0
10
0
20
0
30
0
3
*Paper_Space0
0
ENDBLK
5
25
100
AcDbEntity
8
0
100
AcDbBlockEnd
0
BLOCK
5
119
100
AcDbEntity
8
0
100
AcDbBlockBegin
2
DimnDraft3D1
70
0
10
0
20
0
30
0
3
DimnDraft3D1
0
MTEXT
5
10E
100
AcDbEntity
8
SK2
62
256
6
ByLayer
370
13
48
1
60
0
100
AcDbMText
10
-37.975
20
-4.156579
30
0
210
0
220
0
230
1
1
\W0.7346;50.0
40
4.5
41
0
44
1.084337
50
90
71
7
72
5
7
iso_b_vert
0
LINE
5
110
100
AcDbEntity
8
SK2
62
256
6
ByLayer
370
13
48
1
60
0
100
AcDbLine
10
-1.5875
20
25
30
0
11
-40.025
21
25
31
0
39
0
210
0
220
0
230
1
0
LINE
5
111
100
AcDbEntity
8
SK2
62
256
6
ByLayer
370
13
48
1
60
0
100
AcDbLine
10
-1.5875
20
-25
30
0
11
-40.025
21
-25
31
0
39
0
210
0
220
0
230
1
0
LINE
5
112
100
AcDbEntity
8
SK2
62
256
6
ByLayer
370
13
48
1
60
0
100
AcDbLine
10
-36.85
20
25
30
0
11
-36.85
21
-25
31
0
39
0
210
0
220
0
230
1
0
LINE
5
113
100
AcDbEntity
8
SK2
62
256
6
ByLayer
370
13
48
1
60
0
100
AcDbLine
10
-36.85
20
25
30
0
11
-35.999261
21
21.825003
31
0
39
0
210
0
220
0
230
1
0
LINE
5
114
100
AcDbEntity
8
SK2
62
256
6
ByLayer
370
13
48
1
60
0
100
AcDbLine
10
-36.85
20
25
30
0
11
-37.700739
21
21.824997
31
0
39
0
210
0
220
0
230
1
0
LINE
5
115
100
AcDbEntity
8
SK2
62
256
6
ByLayer
370
13
48
1
60
0
100
AcDbLine
10
-35.999261
20
21.825003
30
0
11
-37.700739
21
21.824997
31
0
39
0
210
0
220
0
230
1
0
LINE
5
116
100
AcDbEntity
8
SK2
62
256
6
ByLayer
370
13
48
1
60
0
100
AcDbLine
10
-36.85
20
-25
30
0
11
-37.700739
21
-21.825003
31
0
39
0
210
0
220
0
230
1
0
LINE
5
117
100
AcDbEntity
8
SK2
62
256
6
ByLayer
370
13
48
1
60
0
100
AcDbLine
10
-36.85
20
-25
30
0
11
-35.999261
21
-21.824997
31
0
39
0
210
0
220
0
230
1
0
LINE
5
118
100
AcDbEntity
8
SK2
62
256
6
ByLayer
370
13
48
1
60
0
100
AcDbLine
10
-37.700739
20
-21.825003
30
0
11
-35.999261
21
-21.824997
31
0
39
0
210
0
220
0
230
1
0
ENDBLK
5
11A
100
AcDbEntity
8
0
100
AcDbBlockEnd
0
BLOCK
5
11D
100
AcDbEntity
8
0
100
AcDbBlockBegin
2
_CLOSED
70
0
10
0
20
0
30
0
3
_CLOSED
0
LINE
5
11F
100
AcDbEntity
8
0
62
256
6
ByLayer
370
-2
48
1
60
0
100
AcDbLine
10
-1
20
0.166667
30
0
11
0
21
0
31
0
39
0
210
0
220
0
230
1
0
LINE
5
120
100
AcDbEntity
8
0
62
256
6
ByLayer
370
-2
48
1
60
0
100
AcDbLine
10
0
20
0
30
0
11
-1
21
-0.166667
31
0
39
0
210
0
220
0
230
1
0
LINE
5
121
100
AcDbEntity
8
0
62
256
6
ByLayer
370
-2
48
1
60
0
100
AcDbLine
10
-1
20
0.166667
30
0
11
-1
21
-0.166667
31
0
39
0
210
0
220
0
230
1
0
LINE
5
122
100
AcDbEntity
8
0
62
256
6
ByLayer
370
-2
48
1
60
0
100
AcDbLine
10
0
20
0
30
0
11
-1
21
0
31
0
39
0
210
0
220
0
230
1
0
ENDBLK
5
11E
100
AcDbEntity
8
0
100
AcDbBlockEnd
0
BLOCK
5
12F
100
AcDbEntity
8
0
100
AcDbBlockBegin
2
DimnDraft3D2
70
0
10
0
20
0
30
0
3
DimnDraft3D2
0
MTEXT
5
124
100
AcDbEntity
8
2
62
256
6
ByLayer
370
13
48
1
60
0
100
AcDbMText
10
84.725
20
-21.656579
30
0
210
0
220
0
230
1
1
\W0.7346;35.0
40
4.5
41
0
44
1.084337
50
90
71
7
72
5
7
iso_b_vert
0
LINE
5
126
100
AcDbEntity
8
2
62
256
6
ByLayer
370
13
48
1
60
0
100
AcDbLine
10
61.5875
20
-35
30
0
11
89.025
21
-35
31
0
39
0
210
0
220
0
230
1
0
LINE
5
127
100
AcDbEntity
8
2
62
256
6
ByLayer
370
13
48
1
60
0
100
AcDbLine
10
51.5875
20
0
30
0
11
89.025
21
0
31
0
39
0
210
0
220
0
230
1
0
LINE
5
128
100
AcDbEntity
8
2
62
256
6
ByLayer
370
13
48
1
60
0
100
AcDbLine
10
85.85
20
-35
30
0
11
85.85
21
0
31
0
39
0
210
0
220
0
230
1
0
LINE
5
129
100
AcDbEntity
8
2
62
256
6
ByLayer
370
13
48
1
60
0
100
AcDbLine
10
85.85
20
-35
30
0
11
84.999261
21
-31.825003
31
0
39
0
210
0
220
0
230
1
0
LINE
5
12A
100
AcDbEntity
8
2
62
256
6
ByLayer
370
13
48
1
60
0
100
AcDbLine
10
85.85
20
-35
30
0
11
86.700739
21
-31.824997
31
0
39
0
210
0
220
0
230
1
0
LINE
5
12B
100
AcDbEntity
8
2
62
256
6
ByLayer
370
13
48
1
60
0
100
AcDbLine
10
84.999261
20
-31.825003
30
0
11
86.700739
21
-31.824997
31
0
39
0
210
0
220
0
230
1
0
LINE
5
12C
100
AcDbEntity
8
2
62
256
6
ByLayer
370
13
48
1
60
0
100
AcDbLine
10
85.85
20
0
30
0
11
86.700739
21
-3.174997
31
0
39
0
210
0
220
0
230
1
0
LINE
5
12D
100
AcDbEntity
8
2
62
256
6
ByLayer
370
13
48
1
60
0
100
AcDbLine
10
85.85
20
0
30
0
11
84.999261
21
-3.175003
31
0
39
0
210
0
220
0
230
1
0
LINE
5
12E
100
AcDbEntity
8
2
62
256
6
ByLayer
370
13
48
1
60
0
100
AcDbLine
10
86.700739
20
-3.174997
30
0
11
84.999261
21
-3.175003
31
0
39
0
210
0
220
0
230
1
0
ENDBLK
5
130
100
AcDbEntity
8
0
100
AcDbBlockEnd
0
BLOCK
5
13D
100
AcDbEntity
8
0
100
AcDbBlockBegin
2
DimnDraft3D3
70
0
10
0
20
0
30
0
3
DimnDraft3D3
0
MTEXT
5
133
100
AcDbEntity
8
2
62
256
6
ByLayer
370
13
48
1
60
0
100
AcDbMText
10
25.843421
20
-60.375
30
0
210
0
220
0
230
1
1
\W0.7346;60.0
40
4.5
41
0
44
1.084337
50
0
71
7
72
5
7
iso_b_vert
0
LINE
5
134
100
AcDbEntity
8
2
62
256
6
ByLayer
370
13
48
1
60
0
100
AcDbLine
10
0
20
-26.5875
30
0
11
0
21
-64.675
31
0
39
0
210
0
220
0
230
1
0
LINE
5
135
100
AcDbEntity
8
2
62
256
6
ByLayer
370
13
48
1
60
0
100
AcDbLine
10
60
20
-36.5875
30
0
11
60
21
-64.675
31
0
39
0
210
0
220
0
230
1
0
LINE
5
136
100
AcDbEntity
8
2
62
256
6
ByLayer
370
13
48
1
60
0
100
AcDbLine
10
0
20
-61.5
30
0
11
60
21
-61.5
31
0
39
0
210
0
220
0
230
1
0
LINE
5
137
100
AcDbEntity
8
2
62
256
6
ByLayer
370
13
48
1
60
0
100
AcDbLine
10
0
20
-61.5
30
0
11
3.174997
21
-60.649261
31
0
39
0
210
0
220
0
230
1
0
LINE
5
138
100
AcDbEntity
8
2
62
256
6
ByLayer
370
13
48
1
60
0
100
AcDbLine
10
0
20
-61.5
30
0
11
3.175003
21
-62.350739
31
0
39
0
210
0
220
0
230
1
0
LINE
5
139
100
AcDbEntity
8
2
62
256
6
ByLayer
370
13
48
1
60
0
100
AcDbLine
10
3.174997
20
-60.649261
30
0
11
3.175003
21
-62.350739
31
0
39
0
210
0
220
0
230
1
0
LINE
5
13A
100
AcDbEntity
8
2
62
256
6
ByLayer
370
13
48
1
60
0
100
AcDbLine
10
60
20
-61.5
30
0
11
56.825003
21
-62.350739
31
0
39
0
210
0
220
0
230
1
0
LINE
5
13B
100
AcDbEntity
8
2
62
256
6
ByLayer
370
13
48
1
60
0
100
AcDbLine
10
60
20
-61.5
30
0
11
56.824997
21
-60.649261
31
0
39
0
210
0
220
0
230
1
0
LINE
5
13C
100
AcDbEntity
8
2
62
256
6
ByLayer
370
13
48
1
60
0
100
AcDbLine
10
56.825003
20
-62.350739
30
0
11
56.824997
21
-60.649261
31
0
39
0
210
0
220
0
230
1
0
ENDBLK
5
13E
100
AcDbEntity
8
0
100
AcDbBlockEnd
0
BLOCK
5
14B
100
AcDbEntity
8
0
100
AcDbBlockBegin
2
DimnDraft3D4
70
0
10
0
20
0
30
0
3
DimnDraft3D4
0
MTEXT
5
141
100
AcDbEntity
8
2
62
256
6
ByLayer
370
13
48
1
60
0
100
AcDbMText
10
42.402527
20
-46.011815
30
0
210
0
220
0
230
1
1
\W0.7346;93.0
40
4.5
41
0
44
1.084337
50
313.5
71
7
72
5
7
iso_b_vert
0
LINE
5
142
100
AcDbEntity
8
2
62
256
6
ByLayer
370
13
48
1
60
0
100
AcDbLine
10
44.597147
20
-34.235461
30
0
11
35.418332
21
-33.75442
31
0
39
0
210
0
220
0
230
1
0
LINE
5
143
100
AcDbEntity
8
2
62
256
6
ByLayer
370
13
48
1
60
0
100
AcDbLine
10
60
20
-36.5875
30
0
11
60
21
-59.658093
31
0
39
0
210
0
220
0
230
1
0
ARC
5
144
100
AcDbEntity
8
2
62
256
6
ByLayer
370
13
48
1
60
0
100
AcDbCircle
39
0
10
60
20
-35.042691
30
0
40
21.4404027865335
210
0
220
0
230
1
100
AcDbArc
50
177
51
270
0
LINE
5
145
100
AcDbEntity
8
2
62
256
6
ByLayer
370
13
48
1
60
0
100
AcDbLine
10
38.588981
20
-33.920587
30
0
11
39.390706
21
-37.108313
31
0
39
0
210
0
220
0
230
1
0
LINE
5
146
100
AcDbEntity
8
2
62
256
6
ByLayer
370
13
48
1
60
0
100
AcDbLine
10
38.588981
20
-33.920587
30
0
11
37.68943
21
-37.082107
31
0
39
0
210
0
220
0
230
1
0
LINE
5
147
100
AcDbEntity
8
2
62
256
6
ByLayer
370
13
48
1
60
0
100
AcDbLine
10
39.390706
20
-37.108313
30
0
11
37.68943
21
-37.082107
31
0
39
0
210
0
220
0
230
1
0
LINE
5
148
100
AcDbEntity
8
2
62
256
6
ByLayer
370
13
48
1
60
0
100
AcDbLine
10
60
20
-56.483093
30
0
11
56.79574
21
-57.21595
31
0
39
0
210
0
220
0
230
1
0
LINE
5
149
100
AcDbEntity
8
2
62
256
6
ByLayer
370
13
48
1
60
0
100
AcDbLine
10
60
20
-56.483093
30
0
11
56.858595
21
-55.515634
31
0
39
0
210
0
220
0
230
1
0
LINE
5
14A
100
AcDbEntity
8
2
62
256
6
ByLayer
370
13
48
1
60
0
100
AcDbLine
10
56.79574
20
-57.21595
30
0
11
56.858595
21
-55.515634
31
0
39
0
210
0
220
0
230
1
0
ENDBLK
5
14C
100
AcDbEntity
8
0
100
AcDbBlockEnd
0
ENDSEC
0
SECTION
2
ENTITIES
0
ARC
5
D2
100
AcDbEntity
8
1
62
256
6
ByLayer
370
13
48
1
60
0
100
AcDbCircle
39
0
10
-20.279208
20
-26.2
30
0
40
1.2
210
0
220
0
230
-1
100
AcDbArc
50
90
51
165
0
ARC
5
D3
100
AcDbEntity
8
1
62
256
6
ByLayer
370
13
48
1
60
0
100
AcDbCircle
39
0
10
37.882505
20
-26.233597
30
0
40
1.50000000000001
210
0
220
0
230
1
100
AcDbArc
50
69.5
51
155.799121
0
ARC
5
D4
100
AcDbEntity
8
1
62
256
6
ByLayer
370
13
48
1
60
0
100
AcDbCircle
39
0
10
-37.882505
20
-26.233597
30
0
40
1.60000000000001
210
0
220
0
230
-1
100
AcDbArc
50
24.083322
51
110.5
0
ARC
5
D5
100
AcDbEntity
8
1
62
256
6
ByLayer
370
13
48
1
60
0
100
AcDbCircle
39
0
10
37.882505
20
-26.233597
30
0
40
1.5
210
0
220
0
230
1
100
AcDbArc
50
163.200879
51
249.5
0
ARC
5
D6
100
AcDbEntity
8
1
62
256
6
ByLayer
370
13
48
1
60
0
100
AcDbCircle
39
0
10
-37.882505
20
-26.233597
30
0
40
1.6
210
0
220
0
230
-1
100
AcDbArc
50
290.5
51
16.916678
0
ARC
5
D8
100
AcDbEntity
8
1
62
256
6
ByLayer
370
13
48
1
60
0
100
AcDbCircle
39
0
10
-48.137288
20
-11.391153
30
0
40
11
210
0
220
0
230
-1
100
AcDbArc
50
308
51
335.309846
0
ARC
5
DA
100
AcDbEntity
8
1
62
256
6
ByLayer
370
13
48
1
60
0
100
AcDbCircle
39
0
10
59.2062
20
-34.2062
30
0
40
0.793800000000732
210
0
220
0
230
1
100
AcDbArc
50
277
51
42
0
ARC
5
DE
100
AcDbEntity
8
1
62
256
6
ByLayer
370
13
48
1
60
0
100
AcDbCircle
39
0
10
-39.232136
20
-26.738204
30
0
40
0.793800000000732
210
0
220
0
230
-1
100
AcDbArc
50
318
51
83
0
CIRCLE
5
D7
100
AcDbEntity
8
1
62
256
6
ByLayer
370
13
48
1
60
0
100
AcDbCircle
10
49.219168
20
-30.472202
30
0
40
1.25000000000002
39
0
210
0
220
0
230
1
0
CIRCLE
5
D9
100
AcDbEntity
8
1
62
256
6
ByLayer
370
13
48
1
60
0
100
AcDbCircle
10
-49.219168
20
-30.472202
30
0
40
2.20386856458361
39
0
210
0
220
0
230
-1
0
CIRCLE
5
DB
100
AcDbEntity
8
1
62
256
6
ByLayer
370
13
48
1
60
0
100
AcDbCircle
10
49.219168
20
-30.472202
30
0
40
2.32
39
0
210
0
220
0
230
1
0
CIRCLE
5
DC
100
AcDbEntity
8
1
62
256
6
ByLayer
370
13
48
1
60
0
100
AcDbCircle
10
-49.219168
20
-30.472202
30
0
40
1.69999999999999
39
0
210
0
220
0
230
-1
0
CIRCLE
5
DD
100
AcDbEntity
8
1
62
256
6
ByLayer
370
13
48
1
60
0
100
AcDbCircle
10
-49.219168
20
-30.472202
30
0
40
2.28743682147946
39
0
210
0
220
0
230
-1
0
ELLIPSE
5
DF
100
AcDbEntity
8
1
62
256
6
ByLayer
370
13
48
1
60
0
100
AcDbEllipse
10
19.987217
20
0
30
0
11
-1.53075794227797E-15
21
25
31
0
210
0
220
0
230
-1
40
0.087489
41
-2.96258305951148
42
-0.20529186126921
0
ELLIPSE
5
E0
100
AcDbEntity
8
1
62
256
6
ByLayer
370
13
48
1
60
0
100
AcDbEllipse
10
-1.056258
20
0
30
0
11
11.7092723497288
21
24.6771864409383
31
0
210
0
220
0
230
-1
40
0.341999
41
0.167213071908989
42
1.0818327004892
0
ELLIPSE
5
E1
100
AcDbEntity
8
1
62
256
6
ByLayer
370
13
48
1
60
0
100
AcDbEllipse
10
21.056258
20
0
30
0
11
11.7092723497254
21
-24.6771864409363
31
0
210
0
220
0
230
-1
40
0.341999
41
2.05975995310048
42
2.97437958168078
0
ELLIPSE
5
E2
100
AcDbEntity
8
1
62
256
6
ByLayer
370
13
48
1
60
0
100
AcDbEllipse
10
18.898121
20
-9.492275
30
0
11
0.0559149480246539
21
-6.21221149854627
31
0
210
0
220
0
230
-1
40
0.079015
41
3.00620779157805
42
2.49938002410108
0
ELLIPSE
5
E3
100
AcDbEntity
8
1
62
256
6
ByLayer
370
13
48
1
60
0
100
AcDbEllipse
10
21.056258
20
0
30
0
11
11.7092723497248
21
24.6771864409356
31
0
210
0
220
0
230
-1
40
0.341999
41
-2.97437958168077
42
-2.05975995310045
0
ELLIPSE
5
E4
100
AcDbEntity
8
1
62
256
6
ByLayer
370
13
48
1
60
0
100
AcDbEllipse
10
-1.056258
20
0
30
0
11
11.7092723497284
21
-24.6771864409376
31
0
210
0
220
0
230
-1
40
0.341999
41
-1.08183270048922
42
-0.167213071908995
0
ELLIPSE
5
E5
100
AcDbEntity
8
1
62
256
6
ByLayer
370
13
48
1
60
0
100
AcDbEllipse
10
50.24897
20
-27.717872
30
0
11
0.418848292192579
21
1.12026064499283
31
0
210
0
220
0
230
1
40
0.995819
41
-0.304233038584733
42
0.304233038584736
0
ELLIPSE
5
E6
100
AcDbEntity
8
1
62
256
6
ByLayer
370
13
48
1
60
0
100
AcDbEllipse
10
48.189367
20
-33.226531
30
0
11
-0.41884829219258
21
-1.12026064499283
31
0
210
0
220
0
230
1
40
0.995819
41
-0.304233038584729
42
0.304233038584729
0
POINT
5
6C
100
AcDbEntity
8
81
62
256
6
ByLayer
370
18
48
1
60
0
100
AcDbPoint
10
60
20
-35
30
0
39
0
210
0
220
0
230
1
50
360
0
POINT
5
6E
100
AcDbEntity
8
80
62
256
6
ByLayer
370
18
48
1
60
0
100
AcDbPoint
10
0
20
0
30
0
39
0
210
0
220
0
230
1
50
360
0
SPLINE
5
E7
100
AcDbEntity
8
SK1
62
256
6
ByLayer
370
13
48
1
60
0
100
AcDbSpline
70
4
71
2
72
6
73
3
40
0
40
0
40
0
40
1
40
1
40
1
41
1
10
-2
20
17.5198482068775
30
0
41
1
10
-15.2499999987993
20
17.1871851888411
30
0
41
1
10
-28.5
20
16.8545212066649
30
0
0
SPLINE
5
E8
100
AcDbEntity
8
SK1
62
256
6
ByLayer
370
13
48
1
60
0
100
AcDbSpline
70
4
71
2
72
6
73
3
40
0
40
0
40
0
40
1
40
1
40
1
41
1
10
-28.5
20
-16.8545209244113
30
0
41
1
10
-15.2499999987995
20
-17.1871849060498
30
0
41
1
10
-2
20
-17.5198479235724
30
0
0
SPLINE
5
E9
100
AcDbEntity
8
SK1
62
256
6
ByLayer
370
13
48
1
60
0
100
AcDbSpline
70
4
71
3
72
13
73
9
40
0
40
0
40
0
40
0
40
0.23940909971285
40
0.368297401209785
40
0.499931439185204
40
0.631576866803757
40
0.760496583878367
40
1
40
1
40
1
40
1
41
1
10
-2
20
-17.5251289721744
30
0
41
1
10
-1.99909125720339
20
-17.4990812496681
30
0
41
1
10
-1.99103211473138
20
-17.4617231597379
30
0
41
1
10
-1.96563495892647
20
-17.4155238802705
30
0
41
1
10
-1.93886250823533
20
-17.3842554757878
30
0
41
1
10
-1.90627575279683
20
-17.3590989160413
30
0
41
1
10
-1.85883875469076
20
-17.336064990738
30
0
41
1
10
-1.82110932009616
20
-17.3298952387248
30
0
41
1
10
-1.7950399779393
20
-17.3302973195575
30
0
0
SPLINE
5
EA
100
AcDbEntity
8
SK1
62
256
6
ByLayer
370
13
48
1
60
0
100
AcDbSpline
70
4
71
3
72
13
73
9
40
0
40
0
40
0
40
0
40
0.239503416449042
40
0.368423133641915
40
0.500068561308511
40
0.631702599247869
40
0.760590900632779
40
1
40
1
40
1
40
1
41
1
10
-1.7950399779393
20
17.3302974649007
30
0
41
1
10
-1.82110932008982
20
17.3298953840654
30
0
41
1
10
-1.85883875467888
20
17.3360651360603
30
0
41
1
10
-1.90627575278677
20
17.3590990612904
30
0
41
1
10
-1.93886250822575
20
17.3842556209573
30
0
41
1
10
-1.9656349589192
20
17.4155240253433
30
0
41
1
10
-1.99103211472607
20
17.4617233046648
30
0
41
1
10
-1.99909125719799
20
17.4990813944884
30
0
41
1
10
-2
20
17.525129116923
30
0
0
SPLINE
5
EB
100
AcDbEntity
8
SK1
62
256
6
ByLayer
370
13
48
1
60
0
100
AcDbSpline
70
4
71
2
72
6
73
3
40
0
40
0
40
0
40
1
40
1
40
1
41
1
10
-1.7950399779393
20
-17.3250643989562
30
0
41
1
10
-0.995008433403029
20
-17.3451505413153
30
0
41
1
10
-0.194976888875288
20
-17.3652366802367
30
0
0
SPLINE
5
EC
100
AcDbEntity
8
SK1
62
256
6
ByLayer
370
13
48
1
60
0
100
AcDbSpline
70
4
71
2
72
6
73
3
40
0
40
0
40
0
40
1
40
1
40
1
41
1
10
-0.194976888875288
20
17.3652369633
30
0
41
1
10
-0.995008433403029
20
17.3451508243471
30
0
41
1
10
-1.7950399779393
20
17.3250646819564
30
0
0
SPLINE
5
ED
100
AcDbEntity
8
SK1
62
256
6
ByLayer
370
13
48
1
60
0
100
AcDbSpline
70
4
71
2
72
6
73
3
40
0
40
0
40
0
40
1
40
1
40
1
41
1
10
-28.5
20
16.8588008432385
30
0
41
1
10
-29.2499990770552
20
16.4260289695447
30
0
41
1
10
-30
20
15.9932495545753
30
0
0
SPLINE
5
EE
100
AcDbEntity
8
SK1
62
256
6
ByLayer
370
13
48
1
60
0
100
AcDbSpline
70
4
71
2
72
6
73
3
40
0
40
0
40
0
40
1
40
1
40
1
41
1
10
-30
20
-15.9932493559076
30
0
41
1
10
-29.2499990770911
20
-16.4260287704419
30
0
41
1
10
-28.5
20
-16.8588006436881
30
0
0
SPLINE
5
EF
100
AcDbEntity
8
SK1
62
256
6
ByLayer
370
13
48
1
60
0
100
AcDbSpline
70
4
71
2
72
6
73
3
40
0
40
0
40
0
40
1
40
1
40
1
41
1
10
-0.0356373334005013
20
17.4655271597146
30
0
41
1
10
-0.059146302518684
20
17.3755257485866
30
0
41
1
10
-0.194976888875288
20
17.3704796738454
30
0
0
SPLINE
5
F0
100
AcDbEntity
8
SK1
62
256
6
ByLayer
370
13
48
1
60
0
100
AcDbSpline
70
4
71
2
72
6
73
3
40
0
40
0
40
0
40
1
40
1
40
1
41
1
10
-0.194976888875288
20
-17.3704795286247
30
0
41
1
10
-0.0576204404094369
20
-17.3761040543929
30
0
41
1
10
-0.0343899619089711
20
-17.4680396001793
30
0
0
SPLINE
5
F1
100
AcDbEntity
8
SK1
62
256
6
ByLayer
370
13
48
1
60
0
100
AcDbSpline
70
4
71
3
72
39
73
35
40
0
40
0
40
0
40
0
40
0.013868980524913
40
0.0424649181531829
40
0.0710608557814528
40
0.0996567934097227
40
0.156848668666262
40
0.214040543922802
40
0.242636481551072
40
0.271232419179342
40
0.328424294435882
40
0.357020232064152
40
0.385616169692422
40
0.414212107320691
40
0.442808044948961
40
0.471403982577231
40
0.485701951391366
40
0.499999920205501
40
0.514297889019636
40
0.528595857833771
40
0.557191795462041
40
0.585787733090311
40
0.614383670718581
40
0.64297960834685
40
0.67157554597512
40
0.72876742123166
40
0.75736335885993
40
0.7859592964882
40
0.84315117174474
40
0.900343047001279
40
0.928938984629549
40
0.957534922257819
40
0.986130859886089
40
1
40
1
40
1
40
1
41
1
10
-2
20
-17.5197847598643
30
0
41
1
10
-2
20
-17.5129943760486
30
0
41
1
10
-2
20
-17.4726242992455
30
0
41
1
10
-2
20
-17.3116343538074
30
0
41
1
10
-2
20
-16.9815888329671
30
0
41
1
10
-2
20
-16.3767064197525
30
0
41
1
10
-2
20
-15.3340294930174
30
0
41
1
10
-2
20
-13.9519092247439
30
0
41
1
10
-2
20
-12.6575651420821
30
0
41
1
10
-2
20
-11.241205620246
30
0
41
1
10
-2
20
-9.64534783198889
30
0
41
1
10
-2
20
-7.8763818413079
30
0
41
1
10
-2
20
-6.46346246032286
30
0
41
1
10
-2
20
-4.96520999967441
30
0
41
1
10
-2
20
-3.38314408231224
30
0
41
1
10
-2
20
-1.99851186782058
30
0
41
1
10
-2
20
-0.861482441955218
30
0
41
1
10
-2
20
-1.76095512E-08
30
0
41
1
10
-2
20
0.861482365135799
30
0
41
1
10
-2
20
1.99851187450375
30
0
41
1
10
-2
20
3.38314406709782
30
0
41
1
10
-2
20
4.96520967393047
30
0
41
1
10
-2
20
6.46346255594887
30
0
41
1
10
-2
20
7.87638169367139
30
0
41
1
10
-2
20
9.64534763909765
30
0
41
1
10
-2
20
11.2412056085041
30
0
41
1
10
-2
20
12.6575649796177
30
0
41
1
10
-2
20
13.951909601472
30
0
41
1
10
-2
20
15.3340290660617
30
0
41
1
10
-2
20
16.3767071899766
30
0
41
1
10
-2
20
16.9815887046989
30
0
41
1
10
-2
20
17.3116346702719
30
0
41
1
10
-2
20
17.4726252190755
30
0
41
1
10
-1.99999999999994
20
17.5129949970021
30
0
41
1
10
-1.99999999999994
20
17.5197852397096
30
0
0
SPLINE
5
F2
100
AcDbEntity
8
SK1
62
256
6
ByLayer
370
13
48
1
60
0
100
AcDbSpline
70
4
71
3
72
39
73
35
40
0
40
0
40
0
40
0
40
0.0162087490131801
40
0.044667083605037
40
0.073125418196894
40
0.101583752788751
40
0.158500421972465
40
0.215417091156179
40
0.243875425748036
40
0.272333760339893
40
0.329250429523607
40
0.357708764115464
40
0.386167098707321
40
0.414625433299178
40
0.443083767891035
40
0.471542102482892
40
0.48577126977882
40
0.500000437074749
40
0.514229604370677
40
0.528458771666606
40
0.556917106258463
40
0.58537544085032
40
0.613833775442177
40
0.642292110034034
40
0.67075044462589
40
0.727667113809605
40
0.756125448401461
40
0.784583782993318
40
0.841500452177032
40
0.898417121360746
40
0.926875455952603
40
0.95533379054446
40
0.983792125136317
40
1
40
1
40
1
40
1
41
1
10
-28.5
20
-16.85730681482
30
0
41
1
10
-28.5
20
-16.8521218375819
30
0
41
1
10
-28.5
20
-16.8141667554325
30
0
41
1
10
-28.5
20
-16.6531187925377
30
0
41
1
10
-28.5
20
-16.3328856609547
30
0
41
1
10
-28.5
20
-15.7436769514769
30
0
41
1
10
-28.5
20
-14.7294543359372
30
0
41
1
10
-28.5
20
-13.3839106046769
30
0
41
1
10
-28.5
20
-12.1202809967187
30
0
41
1
10
-28.5
20
-10.7383929245239
30
0
41
1
10
-28.5
20
-9.19217383455458
30
0
41
1
10
-28.5
20
-7.47336198687177
30
0
41
1
10
-28.5
20
-6.10816664300194
30
0
41
1
10
-28.5
20
-4.66779636016514
30
0
41
1
10
-28.5
20
-3.15909751485594
30
0
41
1
10
-28.5
20
-1.85825194532134
30
0
41
1
10
-28.5
20
-0.795563889584969
30
0
41
1
10
-28.5
20
-1.286700808E-07
30
0
41
1
10
-28.5
20
0.795563863901208
30
0
41
1
10
-28.5
20
1.85825200188583
30
0
41
1
10
-28.5
20
3.1590972918861
30
0
41
1
10
-28.5
20
4.66779609215368
30
0
41
1
10
-28.5
20
6.10816680103
30
0
41
1
10
-28.5
20
7.4733617642672
30
0
41
1
10
-28.5
20
9.19217366708202
30
0
41
1
10
-28.5
20
10.73839291766
30
0
41
1
10
-28.5
20
12.120280876233
30
0
41
1
10
-28.5
20
13.3839109677473
30
0
41
1
10
-28.5
20
14.7294539424714
30
0
41
1
10
-28.5
20
15.7436777114932
30
0
41
1
10
-28.5
20
16.3328855300395
30
0
41
1
10
-28.5
20
16.653119129773
30
0
41
1
10
-28.5
20
16.8141653867525
30
0
41
1
10
-28.5
20
16.8521206390188
30
0
41
1
10
-28.5
20
16.8573061850773
30
0
0
SPLINE
5
F3
100
AcDbEntity
8
SK1
62
256
6
ByLayer
370
13
48
1
60
0
100
AcDbSpline
70
4
71
3
72
39
73
35
40
0
40
0
40
0
40
0
40
0.014396664443078
40
0.0429615552001266
40
0.0715264459571752
40
0.100091336714224
40
0.157221118228321
40
0.214350899742418
40
0.242915790499467
40
0.271480681256515
40
0.328610462770613
40
0.357175353527661
40
0.38574024428471
40
0.414305135041758
40
0.442870025798807
40
0.471434916555856
40
0.48571736193438
40
0.499999807312904
40
0.514282252691428
40
0.528564698069953
40
0.557129588827001
40
0.58569447958405
40
0.614259370341098
40
0.642824261098147
40
0.671389151855196
40
0.728518933369293
40
0.757083824126341
40
0.78564871488339
40
0.842778496397487
40
0.899908277911584
40
0.928473168668633
40
0.957038059425682
40
0.98560295018273
40
1
40
1
40
1
40
1
41
1
10
-1.79503997793927
20
-17.3257551215195
30
0
41
1
10
-1.79503997793927
20
-17.3192800108
30
0
41
1
10
-1.7950399779393
20
-17.2795195316361
30
0
41
1
10
-1.7950399779393
20
-17.1188450441766
30
0
41
1
10
-1.7950399779393
20
-16.7916722325964
30
0
41
1
10
-1.7950399779393
20
-16.1913785074865
30
0
41
1
10
-1.7950399779393
20
-15.1570319640165
30
0
41
1
10
-1.7950399779393
20
-13.7856199701319
30
0
41
1
10
-1.7950399779393
20
-12.500267964077
30
0
41
1
10
-1.7950399779393
20
-11.0940004239178
30
0
41
1
10
-1.7950399779393
20
-9.51267503388596
30
0
41
1
10
-1.7950399779393
20
-7.75839234481913
30
0
41
1
10
-1.7950399779393
20
-6.35944481918477
30
0
41
1
10
-1.7950399779393
20
-4.8781381465428
30
0
41
1
10
-1.7950399779393
20
-3.31755142876619
30
0
41
1
10
-1.7950399779393
20
-1.95744888431969
30
0
41
1
10
-1.7950399779393
20
-0.842183896938593
30
0
41
1
10
-1.7950399779393
20
-5.01240152E-08
30
0
41
1
10
-1.7950399779393
20
0.842183835089799
30
0
41
1
10
-1.7950399779393
20
1.9574489056063
30
0
41
1
10
-1.7950399779393
20
3.31755135272857
30
0
41
1
10
-1.7950399779393
20
4.87813783770082
30
0
41
1
10
-1.7950399779393
20
6.3594449330798
30
0
41
1
10
-1.7950399779393
20
7.75839217523472
30
0
41
1
10
-1.7950399779393
20
9.51267484843638
30
0
41
1
10
-1.7950399779393
20
11.0940004136041
30
0
41
1
10
-1.7950399779393
20
12.5002678139024
30
0
41
1
10
-1.7950399779393
20
13.7856203428615
30
0
41
1
10
-1.7950399779393
20
15.1570315468654
30
0
41
1
10
-1.7950399779393
20
16.1913792747221
30
0
41
1
10
-1.7950399779393
20
16.7916721035533
30
0
41
1
10
-1.7950399779393
20
17.1188453667221
30
0
41
1
10
-1.7950399779393
20
17.2795209547572
30
0
41
1
10
-1.79503997793932
20
17.3192810346917
30
0
41
1
10
-1.79503997793932
20
17.3257558784155
30
0
0
SPLINE
5
F4
100
AcDbEntity
8
SK1
62
256
6
ByLayer
370
13
48
1
60
0
100
AcDbSpline
70
4
71
3
72
19
73
15
40
0
40
0
40
0
40
0
40
0.0576847343346559
40
0.125061503286759
40
0.192438272238862
40
0.327191810143067
40
0.39456857909517
40
0.461945348047273
40
0.596698885951479
40
0.731452423855684
40
0.798829192807787
40
0.86620596175989
40
0.933582730711993
40
1
40
1
40
1
40
1
41
1
10
-0.194976888875288
20
5.1012508689667
30
0
41
1
10
-0.194976888875288
20
5.53313428609087
30
0
41
1
10
-0.194976888875288
20
6.44811450197952
30
0
41
1
10
-0.194976888875288
20
7.78272641346857
30
0
41
1
10
-0.194976888875288
20
9.54003737468344
30
0
41
1
10
-0.194976888875288
20
11.1243601127487
30
0
41
1
10
-0.194976888875288
20
12.5327088879465
30
0
41
1
10
-0.194976888875288
20
13.8199159522374
30
0
41
1
10
-0.194976888875288
20
15.1935356351606
30
0
41
1
10
-0.194976888875288
20
16.2296014295451
30
0
41
1
10
-0.194976888875288
20
16.8308406320639
30
0
41
1
10
-0.194976888875288
20
17.1586063633231
30
0
41
1
10
-0.194976888875288
20
17.3505746336502
30
0
41
1
10
-0.194976888875288
20
17.3791347769779
30
0
41
1
10
-0.194976888875288
20
17.3652994788057
30
0
0
SPLINE
5
F5
100
AcDbEntity
8
SK1
62
256
6
ByLayer
370
13
48
1
60
0
100
AcDbSpline
70
4
71
3
72
19
73
15
40
0
40
0
40
0
40
0
40
0.0664184392618906
40
0.133795131496633
40
0.201171823731376
40
0.268548515966119
40
0.403301900435604
40
0.538055284905089
40
0.605431977139832
40
0.672808669374574
40
0.80756205384406
40
0.874938746078802
40
0.942315438313545
40
1
40
1
40
1
40
1
41
1
10
-0.19497688887526
20
-17.3652986040006
30
0
41
1
10
-0.194976888875317
20
-17.3791351963882
30
0
41
1
10
-0.194976888875317
20
-17.3505752187447
30
0
41
1
10
-0.194976888875288
20
-17.1586060420318
30
0
41
1
10
-0.194976888875288
20
-16.8308407609472
30
0
41
1
10
-0.194976888875288
20
-16.2296006616932
30
0
41
1
10
-0.194976888875288
20
-15.1935360543338
30
0
41
1
10
-0.194976888875288
20
-13.8199155786832
30
0
41
1
10
-0.194976888875288
20
-12.5327090406557
30
0
41
1
10
-0.194976888875288
20
-11.124360123357
30
0
41
1
10
-0.194976888875288
20
-9.54003756166779
30
0
41
1
10
-0.194976888875288
20
-7.78272657852642
30
0
41
1
10
-0.194976888875288
20
-6.44811514689013
30
0
41
1
10
-0.194976888875288
20
-5.53313598468037
30
0
41
1
10
-0.194976888875288
20
-5.10125345322413
30
0
0
SPLINE
5
F6
100
AcDbEntity
8
SK1
62
256
6
ByLayer
370
13
48
1
60
0
100
AcDbSpline
70
4
71
3
72
39
73
35
40
0
40
0
40
0
40
0
40
0.0181813866889372
40
0.0465236654260956
40
0.0748659441632539
40
0.103208222900412
40
0.159892780374729
40
0.216577337849045
40
0.244919616586204
40
0.273261895323362
40
0.329946452797678
40
0.358288731534837
40
0.386631010271995
40
0.414973289009153
40
0.443315567746312
40
0.47165784648347
40
0.485828985852049
40
0.500000125220628
40
0.514171264589207
40
0.528342403957787
40
0.556684682694945
40
0.585026961432103
40
0.613369240169262
40
0.64171151890642
40
0.670053797643578
40
0.726738355117895
40
0.755080633855053
40
0.783422912592211
40
0.840107470066528
40
0.896792027540844
40
0.925134306278003
40
0.953476585015161
40
0.981818863752319
40
1
40
1
40
1
40
1
41
1
10
-30
20
15.9932051593461
30
0
41
1
10
-30
20
15.9899210884035
30
0
41
1
10
-30
20
15.9548416109055
30
0
41
1
10
-30
20
15.7965331178349
30
0
41
1
10
-30
20
15.4890632796305
30
0
41
1
10
-30
20
14.9202435431778
30
0
41
1
10
-30
20
13.9430327235571
30
0
41
1
10
-30
20
12.6450678356931
30
0
41
1
10
-30
20
11.4213906920358
30
0
41
1
10
-30
20
10.0843425709124
30
0
41
1
10
-30
20
8.60269253637253
30
0
41
1
10
-30
20
6.94912017416232
30
0
41
1
10
-30
20
5.64600401967192
30
0
41
1
10
-30
20
4.28092547446499
30
0
41
1
10
-30
20
2.86766099029055
30
0
41
1
10
-30
20
1.67580430318804
30
0
41
1
10
-30
20
0.709818178928145
30
0
41
1
10
-30
20
-2.731357824E-07
30
0
41
1
10
-30
20
-0.709818138095528
30
0
41
1
10
-30
20
-1.67580418173881
30
0
41
1
10
-30
20
-2.86766148350514
30
0
41
1
10
-30
20
-4.28092566737899
30
0
41
1
10
-30
20
-5.64600378047228
30
0
41
1
10
-30
20
-6.94912049428405
30
0
41
1
10
-30
20
-8.60269267078093
30
0
41
1
10
-30
20
-10.084342571431
30
0
41
1
10
-30
20
-11.4213907579162
30
0
41
1
10
-30
20
-12.6450674903883
30
0
41
1
10
-30
20
-13.9430330734595
30
0
41
1
10
-30
20
-14.9202427964398
30
0
41
1
10
-30
20
-15.4890634139888
30
0
41
1
10
-30
20
-15.7965327535813
30
0
41
1
10
-30
20
-15.9548405328113
30
0
41
1
10
-30
20
-15.9899204505541
30
0
41
1
10
-30
20
-15.9932048408375
30
0
0
SPLINE
5
F7
100
AcDbEntity
8
1
62
256
6
ByLayer
370
13
48
1
60
0
100
AcDbSpline
70
4
71
3
72
16
73
12
40
0
40
0
40
0
40
0
40
0.125000000000003
40
0.125000000000003
40
0.250000000000006
40
0.250000000000006
40
0.500000000000004
40
0.500000000000004
40
0.750000000000002
40
0.750000000000002
40
1
40
1
40
1
40
1
41
1
10
11.4613248654054
20
-7.52966679426549
30
0
41
1
10
11.4930267682389
20
-7.52966679426552
30
0
41
1
10
11.5243601613893
20
-7.53610198950918
30
0
41
1
10
11.5822992776727
20
-7.5585498960366
30
0
41
1
10
11.6094109295818
20
-7.57464889660969
30
0
41
1
10
11.6822221825146
20
-7.63015704912772
30
0
41
1
10
11.7218733396748
20
-7.67767014498969
30
0
41
1
10
11.7882878950995
20
-7.77870179643105
30
0
41
1
10
11.815142189207
20
-7.83248598676883
30
0
41
1
10
11.8604037172647
20
-7.94218253951334
30
0
41
1
10
11.8788923030151
20
-7.99849169434989
30
0
41
1
10
11.8943375672975
20
-8.05584836782853
30
0
0
SPLINE
5
F8
100
AcDbEntity
8
1
62
256
6
ByLayer
370
13
48
1
60
0
100
AcDbSpline
70
4
71
3
72
24
73
20
40
0
40
0
40
0
40
0
40
0.0624999999999957
40
0.0624999999999957
40
0.124999999999991
40
0.124999999999991
40
0.249999999999985
40
0.249999999999985
40
0.312499999999984
40
0.312499999999984
40
0.374999999999982
40
0.374999999999982
40
0.499999999999986
40
0.499999999999986
40
0.62499999999999
40
0.62499999999999
40
0.749999999999993
40
0.749999999999993
40
1
40
1
40
1
40
1
41
1
10
21.4383186059721
20
-25.8502651396495
30
0
41
1
10
21.4275433002478
20
-25.8096135149375
30
0
41
1
10
21.4148161120111
20
-25.7699509041668
30
0
41
1
10
21.3857040107231
20
-25.6925231806337
30
0
41
1
10
21.3692115234552
20
-25.6545654554516
30
0
41
1
10
21.3155232294233
20
-25.5455246979216
30
0
41
1
10
21.2741213456029
20
-25.4788655175633
30
0
41
1
10
21.2053957941077
20
-25.3867865683608
30
0
41
1
10
21.1813736466702
20
-25.3574224940535
30
0
41
1
10
21.1313178675808
20
-25.3012564516921
30
0
41
1
10
21.1051923451879
20
-25.2743889338234
30
0
41
1
10
21.0258192584922
20
-25.1990736992877
30
0
41
1
10
20.9711086639335
20
-25.1552789635693
30
0
41
1
10
20.8598116161477
20
-25.0782861721194
30
0
41
1
10
20.8027784565292
20
-25.0449183010601
30
0
41
1
10
20.691067306075
20
-24.988609303193
30
0
41
1
10
20.63623616503
20
-24.9654726990102
30
0
41
1
10
20.4756925615744
20
-24.9076291310823
30
0
41
1
10
20.3739467674354
20
-24.8843821808917
30
0
41
1
10
20.2792076144253
20
-24.87018795751
30
0
0
SPLINE
5
F9
100
AcDbEntity
8
1
62
256
6
ByLayer
370
13
48
1
60
0
100
AcDbSpline
70
4
71
3
72
16
73
12
40
0
40
0
40
0
40
0
40
0.125000000000001
40
0.125000000000001
40
0.250000000000003
40
0.250000000000003
40
0.500000000000004
40
0.500000000000004
40
0.750000000000002
40
0.750000000000002
40
1
40
1
40
1
40
1
41
1
10
8.538675134595
20
-23.8391299750504
30
0
41
1
10
8.50697323176144
20
-23.8391299750504
30
0
41
1
10
8.47563983861099
20
-23.8370993498303
30
0
41
1
10
8.41770072232754
20
-23.8299908115612
30
0
41
1
10
8.39058907041846
20
-23.8248834464052
30
0
41
1
10
8.31777781748565
20
-23.8071882416307
30
0
41
1
10
8.27812666032551
20
-23.7919356634171
30
0
41
1
10
8.21171210490087
20
-23.75909551792
30
0
41
1
10
8.18485781079337
20
-23.7414301198898
30
0
41
1
10
8.13959628273565
20
-23.704958919593
30
0
41
1
10
8.12110769698523
20
-23.6860254491251
30
0
41
1
10
8.10566243270284
20
-23.6665017920808
30
0
0
SPLINE
5
FA
100
AcDbEntity
8
1
62
256
6
ByLayer
370
13
48
1
60
0
100
AcDbSpline
70
4
71
3
72
16
73
12
40
0
40
0
40
0
40
0
40
0.125000000000001
40
0.125000000000001
40
0.250000000000002
40
0.250000000000002
40
0.500000000000001
40
0.500000000000001
40
0.75
40
0.75
40
1
40
1
40
1
40
1
41
1
10
8.538675134595
20
7.52966679426501
30
0
41
1
10
8.50697323176144
20
7.52966679426501
30
0
41
1
10
8.47563983861099
20
7.53610198950869
30
0
41
1
10
8.41770072232754
20
7.55854989603614
30
0
41
1
10
8.39058907041846
20
7.57464889660923
30
0
41
1
10
8.31777781748568
20
7.63015704912726
30
0
41
1
10
8.27812666032551
20
7.67767014498924
30
0
41
1
10
8.21171210490087
20
7.7787017964306
30
0
41
1
10
8.18485781079335
20
7.83248598676838
30
0
41
1
10
8.13959628273565
20
7.94218253951288
30
0
41
1
10
8.12110769698523
20
7.99849169434944
30
0
41
1
10
8.10566243270284
20
8.05584836782808
30
0
0
SPLINE
5
FB
100
AcDbEntity
8
1
62
256
6
ByLayer
370
13
48
1
60
0
100
AcDbSpline
70
4
71
3
72
8
73
4
40
0
40
0
40
0
40
0
40
1
40
1
40
1
40
1
41
1
10
36.514334033812
20
-25.6186915057465
30
0
41
1
10
36.4834890293506
20
-25.6060093146038
30
0
41
1
10
36.4526374707622
20
-25.5933438203466
30
0
41
1
10
36.4217799751071
20
-25.5806934853701
30
0
0
SPLINE
5
FC
100
AcDbEntity
8
1
62
256
6
ByLayer
370
13
48
1
60
0
100
AcDbSpline
70
4
71
3
72
8
73
4
40
0
40
0
40
0
40
0
40
1
40
1
40
1
40
1
41
1
10
36.4465188779991
20
-25.8000713790975
30
0
41
1
10
36.4149195916236
20
-25.789406606575
30
0
41
1
10
36.3833263129281
20
-25.7787249328588
30
0
41
1
10
36.3517384988544
20
-25.768027923222
30
0
0
SPLINE
5
FD
100
AcDbEntity
8
1
62
256
6
ByLayer
370
13
48
1
60
0
100
AcDbSpline
70
4
71
3
72
16
73
12
40
0
40
0
40
0
40
0
40
0.249999999999998
40
0.249999999999998
40
0.499999999999996
40
0.499999999999996
40
0.749999999999994
40
0.749999999999994
40
0.874999999999997
40
0.874999999999997
40
1
40
1
40
1
40
1
41
1
10
8.10566243270267
20
-8.05584836782802
30
0
41
1
10
8.12111376292643
20
-7.99846916820738
30
0
41
1
10
8.1397556772535
20
-7.94172327888219
30
0
41
1
10
8.18512193927697
20
-7.8319194748608
30
0
41
1
10
8.21173961735207
20
-7.77866338250487
30
0
41
1
10
8.27807345100149
20
-7.67774765104267
30
0
41
1
10
8.31704385770806
20
-7.63070347545374
30
0
41
1
10
8.39103491659984
20
-7.57431556968143
30
0
41
1
10
8.41759599948909
20
-7.55857361750137
30
0
41
1
10
8.47600932946912
20
-7.53597576299677
30
0
41
1
10
8.50692224136566
20
-7.52966679426532
30
0
41
1
10
8.53867513459505
20
-7.52966679426532
30
0
0
SPLINE
5
FE
100
AcDbEntity
8
1
62
256
6
ByLayer
370
13
48
1
60
0
100
AcDbSpline
70
4
71
3
72
16
73
12
40
0
40
0
40
0
40
0
40
0.250000000000001
40
0.250000000000001
40
0.500000000000003
40
0.500000000000003
40
0.750000000000001
40
0.750000000000001
40
0.875000000000001
40
0.875000000000001
40
1
40
1
40
1
40
1
41
1
10
11.8943375672977
20
-23.6665017920806
30
0
41
1
10
11.8788862370739
20
-23.6860331168058
30
0
41
1
10
11.8602443227468
20
-23.705112923588
30
0
41
1
10
11.8148780607234
20
-23.7416171457989
30
0
41
1
10
11.7882603826483
20
-23.7591079584195
30
0
41
1
10
11.7219265489988
20
-23.791910516078
30
0
41
1
10
11.6829561422922
20
-23.8070141183758
30
0
41
1
10
11.6089650834005
20
-23.8249896713847
30
0
41
1
10
11.5824040005112
20
-23.8299833264007
30
0
41
1
10
11.5239906705311
20
-23.8371392949584
30
0
41
1
10
11.4930777586347
20
-23.8391299750501
30
0
41
1
10
11.4613248654053
20
-23.8391299750501
30
0
0
SPLINE
5
FF
100
AcDbEntity
8
1
62
256
6
ByLayer
370
13
48
1
60
0
100
AcDbSpline
70
4
71
3
72
16
73
12
40
0
40
0
40
0
40
0
40
0.125000000000003
40
0.125000000000003
40
0.250000000000006
40
0.250000000000006
40
0.500000000000006
40
0.500000000000006
40
0.750000000000003
40
0.750000000000003
40
1
40
1
40
1
40
1
41
1
10
11.4613248654054
20
23.8391299750502
30
0
41
1
10
11.4930267682389
20
23.8391299750502
30
0
41
1
10
11.5243601613893
20
23.8370993498302
30
0
41
1
10
11.5822992776727
20
23.8299908115611
30
0
41
1
10
11.6094109295818
20
23.8248834464051
30
0
41
1
10
11.6822221825147
20
23.8071882416306
30
0
41
1
10
11.7218733396748
20
23.791935663417
30
0
41
1
10
11.7882878950995
20
23.7590955179198
30
0
41
1
10
11.815142189207
20
23.7414301198897
30
0
41
1
10
11.8604037172647
20
23.7049589195928
30
0
41
1
10
11.8788923030151
20
23.6860254491249
30
0
41
1
10
11.8943375672975
20
23.6665017920806
30
0
0
SPLINE
5
100
100
AcDbEntity
8
1
62
256
6
ByLayer
370
13
48
1
60
0
100
AcDbSpline
70
4
71
3
72
16
73
12
40
0
40
0
40
0
40
0
40
0.249999999999999
40
0.249999999999999
40
0.499999999999999
40
0.499999999999999
40
0.749999999999996
40
0.749999999999996
40
0.874999999999998
40
0.874999999999998
40
1
40
1
40
1
40
1
41
1
10
11.8943375672977
20
8.0558483678285
30
0
41
1
10
11.8788862370739
20
7.99846916820783
30
0
41
1
10
11.8602443227468
20
7.94172327888268
30
0
41
1
10
11.8148780607234
20
7.83191947486125
30
0
41
1
10
11.7882603826483
20
7.77866338250533
30
0
41
1
10
11.7219265489988
20
7.67774765104309
30
0
41
1
10
11.6829561422922
20
7.63070347545414
30
0
41
1
10
11.6089650834004
20
7.57431556968186
30
0
41
1
10
11.5824040005112
20
7.55857361750182
30
0
41
1
10
11.5239906705311
20
7.53597576299723
30
0
41
1
10
11.4930777586347
20
7.52966679426581
30
0
41
1
10
11.4613248654053
20
7.52966679426581
30
0
0
SPLINE
5
101
100
AcDbEntity
8
1
62
256
6
ByLayer
370
13
48
1
60
0
100
AcDbSpline
70
4
71
3
72
16
73
12
40
0
40
0
40
0
40
0
40
0.250000000000001
40
0.250000000000001
40
0.500000000000001
40
0.500000000000001
40
0.750000000000002
40
0.750000000000002
40
0.875000000000001
40
0.875000000000001
40
1
40
1
40
1
40
1
41
1
10
8.10566243270267
20
23.6665017920808
30
0
41
1
10
8.12111376292643
20
23.686033116806
30
0
41
1
10
8.1397556772535
20
23.7051129235881
30
0
41
1
10
8.18512193927694
20
23.7416171457991
30
0
41
1
10
8.21173961735207
20
23.7591079584196
30
0
41
1
10
8.27807345100149
20
23.7919105160782
30
0
41
1
10
8.31704385770806
20
23.807014118376
30
0
41
1
10
8.39103491659984
20
23.8249896713849
30
0
41
1
10
8.41759599948907
20
23.8299833264008
30
0
41
1
10
8.47600932946912
20
23.8371392949585
30
0
41
1
10
8.50692224136566
20
23.8391299750502
30
0
41
1
10
8.53867513459505
20
23.8391299750502
30
0
0
SPLINE
5
102
100
AcDbEntity
8
1
62
256
6
ByLayer
370
13
48
1
60
0
100
AcDbSpline
70
4
71
3
72
12
73
8
40
0
40
0
40
0
40
0
40
0.250000000000001
40
0.250000000000001
40
0.500000000000001
40
0.500000000000001
40
1
40
1
40
1
40
1
41
1
10
19.5977715610301
20
-24.60051305452
30
0
41
1
10
19.6126437818339
20
-24.6312721994277
30
0
41
1
10
19.638296421537
20
-24.6599295995413
30
0
41
1
10
19.7112104245777
20
-24.7132693184783
30
0
41
1
10
19.7586886412225
20
-24.7379563782646
30
0
41
1
10
19.930490630434
20
-24.8049947397682
30
0
41
1
10
20.0843240097219
20
-24.8409896658776
30
0
41
1
10
20.2792076144253
20
-24.87018795751
30
0
0
SPLINE
5
103
100
AcDbEntity
8
1
62
256
6
ByLayer
370
13
48
1
60
0
100
AcDbSpline
70
4
71
3
72
12
73
8
40
0
40
0
40
0
40
0
40
0.25
40
0.25
40
0.5
40
0.5
40
1
40
1
40
1
40
1
41
1
10
21.438318605972
20
-25.8502651396495
30
0
41
1
10
21.5839169295294
20
-26.3995589192783
30
0
41
1
10
21.7305104334507
20
-26.9510393977112
30
0
41
1
10
22.024441211923
20
-28.054966643063
30
0
41
1
10
22.1717903313232
20
-28.6074491333614
30
0
41
1
10
22.6146595325318
20
-30.2663183735043
30
0
41
1
10
22.9109776176099
20
-31.3741141887243
30
0
41
1
10
23.2079913391058
20
-32.4836386161901
30
0
0
SPLINE
5
104
100
AcDbEntity
8
SK1
62
256
6
ByLayer
370
13
48
1
60
0
100
AcDbSpline
70
4
71
3
72
34
73
30
40
0
40
0
40
0
40
0
40
0.0625000000000006
40
0.0625000000000006
40
0.125000000000001
40
0.125000000000001
40
0.156250000000001
40
0.156250000000001
40
0.187500000000002
40
0.187500000000002
40
0.218750000000002
40
0.218750000000002
40
0.250000000000002
40
0.250000000000002
40
0.281250000000002
40
0.281250000000002
40
0.312500000000002
40
0.312500000000002
40
0.375000000000002
40
0.375000000000002
40
0.437500000000003
40
0.437500000000003
40
0.500000000000003
40
0.500000000000003
40
0.625000000000002
40
0.625000000000002
40
0.750000000000001
40
0.750000000000001
40
1
40
1
40
1
40
1
41
1
10
-0.194976888875288
20
-5.10125345321299
30
0
41
1
10
-0.216563122431751
20
-5.14437164718444
30
0
41
1
10
-0.239876505163068
20
-5.18652632594319
30
0
41
1
10
-0.292013725136712
20
-5.26792406922522
30
0
41
1
10
-0.320990839288413
20
-5.30753806651614
30
0
41
1
10
-0.371184029473596
20
-5.36154856512007
30
0
41
1
10
-0.389032480793844
20
-5.37863193816366
30
0
41
1
10
-0.428179456725445
20
-5.40999335674064
30
0
41
1
10
-0.449618673338222
20
-5.42431602573331
30
0
41
1
10
-0.495865858316762
20
-5.44696454124283
30
0
41
1
10
-0.52136831756502
20
-5.45547291818747
30
0
41
1
10
-0.574009488443068
20
-5.46273488914062
30
0
41
1
10
-0.601431286580805
20
-5.46139775677145
30
0
41
1
10
-0.653473863817482
20
-5.44938895365206
30
0
41
1
10
-0.678029382873859
20
-5.43899682204844
30
0
41
1
10
-0.723289214132478
20
-5.41312418985498
30
0
41
1
10
-0.743968050116621
20
-5.39774137453307
30
0
41
1
10
-0.8011741134288
20
-5.34799213064619
30
0
41
1
10
-0.833684468871013
20
-5.3095883161987
30
0
41
1
10
-0.891735634262631
20
-5.2298354195166
30
0
41
1
10
-0.917564142383327
20
-5.18780309469574
30
0
41
1
10
-0.964510597666589
20
-5.1028500781417
30
0
41
1
10
-0.985719618828
20
-5.05973431634266
30
0
41
1
10
-1.04491780252286
20
-4.92902458343846
30
0
41
1
10
-1.07856064150934
20
-4.84008830899012
30
0
41
1
10
-1.13933080980485
20
-4.65979804016916
30
0
41
1
10
-1.16633538727916
20
-4.56841413612352
30
0
41
1
10
-1.24042006305646
20
-4.29123308251604
30
0
41
1
10
-1.28068172917503
20
-4.10243366862596
30
0
41
1
10
-1.31543506509499
20
-3.91027172665429
30
0
0
SPLINE
5
105
100
AcDbEntity
8
SK1
62
256
6
ByLayer
370
13
48
1
60
0
100
AcDbSpline
70
4
71
3
72
32
73
28
40
0
40
0
40
0
40
0
40
0.250000000000001
40
0.250000000000001
40
0.375000000000001
40
0.375000000000001
40
0.500000000000001
40
0.500000000000001
40
0.625
40
0.625
40
0.6875
40
0.6875
40
0.71875
40
0.71875
40
0.75
40
0.75
40
0.78125
40
0.78125
40
0.8125
40
0.8125
40
0.84375
40
0.84375
40
0.875
40
0.875
40
0.9375
40
0.9375
40
1
40
1
40
1
40
1
41
1
10
-1.31543506509547
20
3.91026939581314
30
0
41
1
10
-1.28057274414664
20
4.10303367843485
30
0
41
1
10
-1.24012846189746
20
4.29271329295025
30
0
41
1
10
-1.16537938363206
20
4.57178767715166
30
0
41
1
10
-1.13808761230393
20
4.66389927431672
30
0
41
1
10
-1.076454080595
20
4.84589601595715
30
0
41
1
10
-1.04214197809219
20
4.93593694656096
30
0
41
1
10
-0.96246441885242
20
5.1102284280461
30
0
41
1
10
-0.917774867981109
20
5.19501220323394
30
0
41
1
10
-0.830408604346871
20
5.31356997745135
30
0
41
1
10
-0.797933916941787
20
5.35142687921638
30
0
41
1
10
-0.740368171050307
20
5.40051622624659
30
0
41
1
10
-0.719361236569199
20
5.41574833767439
30
0
41
1
10
-0.674119840858879
20
5.44077659775604
30
0
41
1
10
-0.649220231493615
20
5.45083089323273
30
0
41
1
10
-0.597299443131476
20
5.4618054854734
30
0
41
1
10
-0.569811183606816
20
5.46258865100606
30
0
41
1
10
-0.517782420093852
20
5.45447096541938
30
0
41
1
10
-0.492508842194496
20
5.44564540128954
30
0
41
1
10
-0.446559276923125
20
5.42243969778824
30
0
41
1
10
-0.425330717790445
20
5.40793179193813
30
0
41
1
10
-0.386890561509546
20
5.37666021355253
30
0
41
1
10
-0.369356290282497
20
5.35970512410202
30
0
41
1
10
-0.320035423357865
20
5.30623827275752
30
0
41
1
10
-0.291353104767637
20
5.26696290766435
30
0
41
1
10
-0.239562914931383
20
5.18596033789075
30
0
41
1
10
-0.216411492060274
20
5.14406623857076
30
0
41
1
10
-0.194976888875288
20
5.10125086895556
30
0
0
SPLINE
5
106
100
AcDbEntity
8
SK1
62
256
6
ByLayer
370
13
48
1
60
0
100
AcDbSpline
70
4
71
3
72
24
73
20
40
0
40
0
40
0
40
0
40
0.250000000000001
40
0.250000000000001
40
0.500000000000002
40
0.500000000000002
40
0.625000000000003
40
0.625000000000003
40
0.687500000000003
40
0.687500000000003
40
0.750000000000003
40
0.750000000000003
40
0.781250000000003
40
0.781250000000003
40
0.812500000000004
40
0.812500000000004
40
0.875000000000004
40
0.875000000000004
40
1
40
1
40
1
40
1
41
1
10
-2.84E-14
20
-5.57923236301639
30
0
41
1
10
-2.84E-14
20
-5.51780039661219
30
0
41
1
10
-0.001040795909347
20
-5.45614496696811
30
0
41
1
10
-0.0066100362514874
20
-5.3322269237093
30
0
41
1
10
-0.0109086302301193
20
-5.26998471325186
30
0
41
1
10
-0.0236290718883936
20
-5.17580568863895
30
0
41
1
10
-0.0289275117443424
20
-5.1440078568929
30
0
41
1
10
-0.0406106446466481
20
-5.09708347173185
30
0
41
1
10
-0.0451125871492195
20
-5.08158095876453
30
0
41
1
10
-0.0567618727160379
20
-5.05119306958599
30
0
41
1
10
-0.0637942285879092
20
-5.03597841070444
30
0
41
1
10
-0.0793984682617577
20
-5.01728909521134
30
0
41
1
10
-0.0855293958528023
20
-5.01193593593175
30
0
41
1
10
-0.0991968335846707
20
-5.00573569438222
30
0
41
1
10
-0.106692593665457
20
-5.00513122932841
30
0
41
1
10
-0.127007752422998
20
-5.00942657500406
30
0
41
1
10
-0.138200719692094
20
-5.01872535086875
30
0
41
1
10
-0.167487583117435
20
-5.04962485231934
30
0
41
1
10
-0.181802599024621
20
-5.07493799693617
30
0
41
1
10
-0.194976888869519
20
-5.10125345319452
30
0
0
SPLINE
5
107
100
AcDbEntity
8
SK1
62
256
6
ByLayer
370
13
48
1
60
0
100
AcDbSpline
70
4
71
3
72
24
73
20
40
0
40
0
40
0
40
0
40
0.125
40
0.125
40
0.187500000000001
40
0.187500000000001
40
0.218750000000002
40
0.218750000000002
40
0.250000000000003
40
0.250000000000003
40
0.312500000000005
40
0.312500000000005
40
0.375000000000006
40
0.375000000000006
40
0.500000000000005
40
0.500000000000005
40
0.750000000000003
40
0.750000000000003
40
1
40
1
40
1
40
1
41
1
10
-0.194976888875459
20
5.10125086895357
30
0
41
1
10
-0.181865425224856
20
5.07506087338649
30
0
41
1
10
-0.167305461759241
20
5.04951473854175
30
0
41
1
10
-0.138595321298823
20
5.0190973185031
30
0
41
1
10
-0.127552487949174
20
5.00976275142608
30
0
41
1
10
-0.107289804617352
20
5.00514999571749
30
0
41
1
10
-0.100017109542961
20
5.00556463270382
30
0
41
1
10
-0.0862893925761341
20
5.01140689837627
30
0
41
1
10
-0.0800854142074456
20
5.01664922221104
30
0
41
1
10
-0.0645619377202138
20
5.03472102686266
30
0
41
1
10
-0.0573834461892773
20
5.04982840514489
30
0
41
1
10
-0.0455624616044759
20
5.08016788334226
30
0
41
1
10
-0.041008040131004
20
5.09566575805948
30
0
41
1
10
-0.0291934107950453
20
5.14259859193024
30
0
41
1
10
-0.0238612766187032
20
5.17432687139464
30
0
41
1
10
-0.0109763566927938
20
5.26900972589155
30
0
41
1
10
-0.0066530158589728
20
5.33149482003734
30
0
41
1
10
-0.001044759731343
20
5.45582988149511
30
0
41
1
10
0
20
5.51765415114235
30
0
41
1
10
0
20
5.57923036606766
30
0
0
SPLINE
5
108
100
AcDbEntity
8
SK1
62
256
6
ByLayer
370
13
48
1
60
0
100
AcDbSpline
70
4
71
3
72
22
73
18
40
0
40
0
40
0
40
0
40
0.125
40
0.125
40
0.25
40
0.25
40
0.5
40
0.5
40
0.5625
40
0.5625
40
0.625
40
0.625
40
0.75
40
0.75
40
0.875
40
0.875
40
1
40
1
40
1
40
1
41
1
10
-1.31543506509496
20
-3.91027172665429
30
0
41
1
10
-1.3715688343687
20
-3.59989075664686
30
0
41
1
10
-1.42485005677108
20
-3.28523409161193
30
0
41
1
10
-1.52254559890281
20
-2.64577889192139
30
0
41
1
10
-1.56697995425827
20
-2.31970917723464
30
0
41
1
10
-1.67816845695168
20
-1.33820125129566
30
0
41
1
10
-1.72297877747675
20
-0.676400362209449
30
0
41
1
10
-1.72324532208276
20
0.162961705339626
30
0
41
1
10
-1.72056379442324
20
0.331434394761686
30
0
41
1
10
-1.70987414711718
20
0.669570871264483
30
0
41
1
10
-1.70179941676008
20
0.83989877804126
30
0
41
1
10
-1.67034745086553
20
1.34548665810379
30
0
41
1
10
-1.63998404811002
20
1.67664478205648
30
0
41
1
10
-1.565722854954
20
2.32938912439451
30
0
41
1
10
-1.52178795087127
20
2.65095930694901
30
0
41
1
10
-1.42466639975928
20
3.28621150795979
30
0
41
1
10
-1.37156273717841
20
3.59992257581027
30
0
41
1
10
-1.31543506509499
20
3.91026939581309
30
0
0
LINE
5
70
100
AcDbEntity
8
1
62
256
6
ByLayer
370
13
48
1
60
0
100
AcDbLine
10
19.3
20
25
30
0
11
0.3
21
25
31
0
39
0
210
0
220
0
230
1
0
LINE
5
72
100
AcDbEntity
8
1
62
256
6
ByLayer
370
13
48
1
60
0
100
AcDbLine
10
21.438319
20
-25.889417
30
0
11
23.206187
21
-32.487192
31
0
39
0
210
0
220
0
230
1
0
LINE
5
73
100
AcDbEntity
8
1
62
256
6
ByLayer
370
13
48
1
60
0
100
AcDbLine
10
0
20
-24.7
30
0
11
0.3
21
-25
31
0
39
0
210
0
220
0
230
1
0
LINE
5
74
100
AcDbEntity
8
1
62
256
6
ByLayer
370
13
48
1
60
0
100
AcDbLine
10
0.3
20
-25
30
0
11
20.279208
21
-25
31
0
39
0
210
0
220
0
230
1
0
LINE
5
75
100
AcDbEntity
8
1
62
256
6
ByLayer
370
13
48
1
60
0
100
AcDbLine
10
0.3
20
25
30
0
11
0
21
24.7
31
0
39
0
210
0
220
0
230
1
0
LINE
5
76
100
AcDbEntity
8
81
62
256
6
ByLayer
370
18
48
1
60
0
100
AcDbLine
10
60
20
-35
30
0
11
70
21
-35
31
0
39
0
210
0
220
0
230
1
0
LINE
5
77
100
AcDbEntity
8
80
62
256
6
ByLayer
370
18
48
1
60
0
100
AcDbLine
10
0
20
0
30
0
11
-10
21
0
31
0
39
0
210
0
220
0
230
1
0
LINE
5
78
100
AcDbEntity
8
1
62
256
6
ByLayer
370
13
48
1
60
0
100
AcDbLine
10
0
20
24.7
30
0
11
0
21
-24.7
31
0
39
0
210
0
220
0
230
1
0
LINE
5
79
100
AcDbEntity
8
1
62
256
6
ByLayer
370
13
48
1
60
0
100
AcDbLine
10
0.3
20
25
30
0
11
0.3
21
-25
31
0
39
0
210
0
220
0
230
1
0
LINE
5
7A
100
AcDbEntity
8
1
62
256
6
ByLayer
370
13
48
1
60
0
100
AcDbLine
10
20.279208
20
-25
30
0
11
20.279208
21
-24.870188
31
0
39
0
210
0
220
0
230
1
0
LINE
5
7B
100
AcDbEntity
8
1
62
256
6
ByLayer
370
13
48
1
60
0
100
AcDbLine
10
19.541346
20
24.475038
30
0
11
19.3
21
25
31
0
39
0
210
0
220
0
230
1
0
LINE
5
7C
100
AcDbEntity
8
1
62
256
6
ByLayer
370
13
48
1
60
0
100
AcDbLine
10
21.438319
20
-25.889417
30
0
11
21.438319
21
-25.850265
31
0
39
0
210
0
220
0
230
1
0
LINE
5
7D
100
AcDbEntity
8
1
62
256
6
ByLayer
370
13
48
1
60
0
100
AcDbLine
10
48.391011
20
-25.548583
30
0
11
48.070238
21
-26.406527
31
0
39
0
210
0
220
0
230
1
0
LINE
5
7E
100
AcDbEntity
8
1
62
256
6
ByLayer
370
13
48
1
60
0
100
AcDbLine
10
45.684737
20
-32.78684
30
0
11
45.363965
21
-33.644784
31
0
39
0
210
0
220
0
230
1
0
LINE
5
7F
100
AcDbEntity
8
1
62
256
6
ByLayer
370
13
48
1
60
0
100
AcDbLine
10
47.564758
20
-24.903044
30
0
11
47.023123
21
-26.351714
31
0
39
0
210
0
220
0
230
1
0
LINE
5
80
100
AcDbEntity
8
1
62
256
6
ByLayer
370
13
48
1
60
0
100
AcDbLine
10
44.858508
20
-32.141238
30
0
11
44.316873
21
-33.589908
31
0
39
0
210
0
220
0
230
1
0
LINE
5
81
100
AcDbEntity
8
1
62
256
6
ByLayer
370
13
48
1
60
0
100
AcDbLine
10
46.796344
20
-24.302693
30
0
11
46.049359
21
-26.300594
31
0
39
0
210
0
220
0
230
1
0
LINE
5
82
100
AcDbEntity
8
1
62
256
6
ByLayer
370
13
48
1
60
0
100
AcDbLine
10
44.090062
20
-31.540972
30
0
11
43.343077
21
-33.538874
31
0
39
0
210
0
220
0
230
1
0
LINE
5
83
100
AcDbEntity
8
1
62
256
6
ByLayer
370
13
48
1
60
0
100
AcDbLine
10
49.159425
20
-26.148934
30
0
11
49.044043
21
-26.457538
31
0
39
0
210
0
220
0
230
1
0
LINE
5
84
100
AcDbEntity
8
1
62
256
6
ByLayer
370
13
48
1
60
0
100
AcDbLine
10
46.453143
20
-33.387215
30
0
11
46.337761
21
-33.695818
31
0
39
0
210
0
220
0
230
1
0
LINE
5
85
100
AcDbEntity
8
1
62
256
6
ByLayer
370
13
48
1
60
0
100
AcDbLine
10
43.099409
20
-33.526104
30
0
11
43.897814
21
-31.390673
31
0
39
0
210
0
220
0
230
1
0
LINE
5
86
100
AcDbEntity
8
1
62
256
6
ByLayer
370
13
48
1
60
0
100
AcDbLine
10
45.805662
20
-26.287901
30
0
11
46.604067
21
-24.15247
31
0
39
0
210
0
220
0
230
1
0
LINE
5
87
100
AcDbEntity
8
1
62
256
6
ByLayer
370
13
48
1
60
0
100
AcDbLine
10
46.599565
20
-33.709539
30
0
11
46.659733
21
-33.548611
31
0
39
0
210
0
220
0
230
1
0
LINE
5
88
100
AcDbEntity
8
1
62
256
6
ByLayer
370
13
48
1
60
0
100
AcDbLine
10
49.305844
20
-26.471266
30
0
11
49.366013
21
-26.310338
31
0
39
0
210
0
220
0
230
1
0
LINE
5
89
100
AcDbEntity
8
1
62
256
6
ByLayer
370
13
48
1
60
0
100
AcDbLine
10
49.366013
20
-26.310338
30
0
11
49.591133
21
-26.486221
31
0
39
0
210
0
220
0
230
1
0
LINE
5
8A
100
AcDbEntity
8
1
62
256
6
ByLayer
370
13
48
1
60
0
100
AcDbLine
10
46.599565
20
-33.709539
30
0
11
46.884855
21
-33.72449
31
0
39
0
210
0
220
0
230
1
0
LINE
5
8B
100
AcDbEntity
8
1
62
256
6
ByLayer
370
13
48
1
60
0
100
AcDbLine
10
46.599565
20
-33.709539
30
0
11
46.337761
21
-33.695818
31
0
39
0
210
0
220
0
230
1
0
LINE
5
8C
100
AcDbEntity
8
1
62
256
6
ByLayer
370
13
48
1
60
0
100
AcDbLine
10
19.597772
20
24.352305
30
0
11
19.541346
21
24.475038
31
0
39
0
210
0
220
0
230
1
0
LINE
5
8D
100
AcDbEntity
8
1
62
256
6
ByLayer
370
13
48
1
60
0
100
AcDbLine
10
36.351738
20
-25.768028
30
0
11
36.42178
21
-25.580693
31
0
39
0
210
0
220
0
230
1
0
LINE
5
8E
100
AcDbEntity
8
1
62
256
6
ByLayer
370
13
48
1
60
0
100
AcDbLine
10
39.994293
20
-28.624576
30
0
11
40.562536
21
-29.068537
31
0
39
0
210
0
220
0
230
1
0
LINE
5
8F
100
AcDbEntity
8
1
62
256
6
ByLayer
370
13
48
1
60
0
100
AcDbLine
10
11.894338
20
-23.666502
30
0
11
11.894338
21
-8.055848
31
0
39
0
210
0
220
0
230
1
0
LINE
5
90
100
AcDbEntity
8
1
62
256
6
ByLayer
370
13
48
1
60
0
100
AcDbLine
10
18.559338
20
-4.520353
30
0
11
18.776466
21
-3.337505
31
0
39
0
210
0
220
0
230
1
0
LINE
5
91
100
AcDbEntity
8
1
62
256
6
ByLayer
370
13
48
1
60
0
100
AcDbLine
10
38.442837
20
-24.734922
30
0
11
41.065519
21
-25.715502
31
0
39
0
210
0
220
0
230
1
0
LINE
5
92
100
AcDbEntity
8
1
62
256
6
ByLayer
370
13
48
1
60
0
100
AcDbLine
10
40.030065
20
-28.779426
30
0
11
40.443191
21
-29.102196
31
0
39
0
210
0
220
0
230
1
0
LINE
5
93
100
AcDbEntity
8
1
62
256
6
ByLayer
370
13
48
1
60
0
100
AcDbLine
10
38.348448
20
-33.277116
30
0
11
23.58255
21
-32.503268
31
0
39
0
210
0
220
0
230
1
0
LINE
5
94
100
AcDbEntity
8
1
62
256
6
ByLayer
370
13
48
1
60
0
100
AcDbLine
10
38.142908
20
-15.985973
30
0
11
23.58255
21
15.684851
31
0
39
0
210
0
220
0
230
1
0
LINE
5
95
100
AcDbEntity
8
1
62
256
6
ByLayer
370
13
48
1
60
0
100
AcDbLine
10
8.538675
20
23.83913
30
0
11
11.461325
21
23.83913
31
0
39
0
210
0
220
0
230
1
0
LINE
5
96
100
AcDbEntity
8
1
62
256
6
ByLayer
370
13
48
1
60
0
100
AcDbLine
10
40.562536
20
-29.068537
30
0
11
38.976703
21
-33.310042
31
0
39
0
210
0
220
0
230
1
0
LINE
5
97
100
AcDbEntity
8
1
62
256
6
ByLayer
370
13
48
1
60
0
100
AcDbLine
10
8.105662
20
-23.666502
30
0
11
8.105662
21
-8.055848
31
0
39
0
210
0
220
0
230
1
0
LINE
5
98
100
AcDbEntity
8
1
62
256
6
ByLayer
370
13
48
1
60
0
100
AcDbLine
10
38.976703
20
-33.310042
30
0
11
38.871994
21
-33.304554
31
0
39
0
210
0
220
0
230
1
0
LINE
5
99
100
AcDbEntity
8
1
62
256
6
ByLayer
370
13
48
1
60
0
100
AcDbLine
10
11.894338
20
8.055848
30
0
11
11.894338
21
23.666502
31
0
39
0
210
0
220
0
230
1
0
LINE
5
9A
100
AcDbEntity
8
1
62
256
6
ByLayer
370
13
48
1
60
0
100
AcDbLine
10
41.065519
20
-25.715502
30
0
11
41.173503
21
-25.721161
31
0
39
0
210
0
220
0
230
1
0
LINE
5
9B
100
AcDbEntity
8
1
62
256
6
ByLayer
370
13
48
1
60
0
100
AcDbLine
10
11.461325
20
7.529667
30
0
11
11.461325
21
23.83913
31
0
39
0
210
0
220
0
230
1
0
LINE
5
9C
100
AcDbEntity
8
1
62
256
6
ByLayer
370
13
48
1
60
0
100
AcDbLine
10
8.538675
20
-23.83913
30
0
11
8.538675
21
-7.529667
31
0
39
0
210
0
220
0
230
1
0
LINE
5
9D
100
AcDbEntity
8
1
62
256
6
ByLayer
370
13
48
1
60
0
100
AcDbLine
10
46.796344
20
-24.302693
30
0
11
46.604067
21
-24.15247
31
0
39
0
210
0
220
0
230
1
0
LINE
5
9E
100
AcDbEntity
8
1
62
256
6
ByLayer
370
13
48
1
60
0
100
AcDbLine
10
41.765038
20
-25.8523
30
0
11
41.697049
21
-25.748599
31
0
39
0
210
0
220
0
230
1
0
LINE
5
9F
100
AcDbEntity
8
1
62
256
6
ByLayer
370
13
48
1
60
0
100
AcDbLine
10
41.044915
20
-25.81456
30
0
11
41.065519
21
-25.715502
31
0
39
0
210
0
220
0
230
1
0
LINE
5
A0
100
AcDbEntity
8
1
62
256
6
ByLayer
370
13
48
1
60
0
100
AcDbLine
10
45.363965
20
-33.644784
30
0
11
44.316873
21
-33.589908
31
0
39
0
210
0
220
0
230
1
0
LINE
5
A1
100
AcDbEntity
8
1
62
256
6
ByLayer
370
13
48
1
60
0
100
AcDbLine
10
41.044915
20
-25.81456
30
0
11
38.407816
21
-24.828589
31
0
39
0
210
0
220
0
230
1
0
LINE
5
A2
100
AcDbEntity
8
1
62
256
6
ByLayer
370
13
48
1
60
0
100
AcDbLine
10
39.944855
20
-28.712853
30
0
11
37.322173
21
-27.732273
31
0
39
0
210
0
220
0
230
1
0
LINE
5
A3
100
AcDbEntity
8
1
62
256
6
ByLayer
370
13
48
1
60
0
100
AcDbLine
10
38.407816
20
-24.828589
30
0
11
38.442837
21
-24.734922
31
0
39
0
210
0
220
0
230
1
0
LINE
5
A4
100
AcDbEntity
8
1
62
256
6
ByLayer
370
13
48
1
60
0
100
AcDbLine
10
48.391011
20
-25.548583
30
0
11
47.564758
21
-24.903044
31
0
39
0
210
0
220
0
230
1
0
LINE
5
A5
100
AcDbEntity
8
1
62
256
6
ByLayer
370
13
48
1
60
0
100
AcDbLine
10
40.443191
20
-29.102196
30
0
11
38.871994
21
-33.304554
31
0
39
0
210
0
220
0
230
1
0
LINE
5
A6
100
AcDbEntity
8
1
62
256
6
ByLayer
370
13
48
1
60
0
100
AcDbLine
10
39.994293
20
-28.624576
30
0
11
39.944855
21
-28.712853
31
0
39
0
210
0
220
0
230
1
0
LINE
5
A7
100
AcDbEntity
8
1
62
256
6
ByLayer
370
13
48
1
60
0
100
AcDbLine
10
11.461325
20
7.529667
30
0
11
8.538675
21
7.529667
31
0
39
0
210
0
220
0
230
1
0
LINE
5
A8
100
AcDbEntity
8
1
62
256
6
ByLayer
370
13
48
1
60
0
100
AcDbLine
10
8.105662
20
8.055848
30
0
11
8.105662
21
23.666502
31
0
39
0
210
0
220
0
230
1
0
LINE
5
A9
100
AcDbEntity
8
1
62
256
6
ByLayer
370
13
48
1
60
0
100
AcDbLine
10
23.58255
20
15.684851
30
0
11
23.58255
21
-32.503268
31
0
39
0
210
0
220
0
230
1
0
LINE
5
AA
100
AcDbEntity
8
1
62
256
6
ByLayer
370
13
48
1
60
0
100
AcDbLine
10
40.562536
20
-29.068537
30
0
11
40.443191
21
-29.102196
31
0
39
0
210
0
220
0
230
1
0
LINE
5
AB
100
AcDbEntity
8
1
62
256
6
ByLayer
370
13
48
1
60
0
100
AcDbLine
10
42.855121
20
-21.223472
30
0
11
41.365012
21
-20.059271
31
0
39
0
210
0
220
0
230
1
0
LINE
5
AC
100
AcDbEntity
8
1
62
256
6
ByLayer
370
13
48
1
60
0
100
AcDbLine
10
43.343077
20
-33.538874
30
0
11
43.099409
21
-33.526104
31
0
39
0
210
0
220
0
230
1
0
LINE
5
AD
100
AcDbEntity
8
1
62
256
6
ByLayer
370
13
48
1
60
0
100
AcDbLine
10
43.350872
20
-21.610795
30
0
11
46.604067
21
-24.15247
31
0
39
0
210
0
220
0
230
1
0
LINE
5
AE
100
AcDbEntity
8
1
62
256
6
ByLayer
370
13
48
1
60
0
100
AcDbLine
10
38.348448
20
-33.277116
30
0
11
40.030065
21
-28.779426
31
0
39
0
210
0
220
0
230
1
0
LINE
5
AF
100
AcDbEntity
8
1
62
256
6
ByLayer
370
13
48
1
60
0
100
AcDbLine
10
19.597772
20
-24.600513
30
0
11
19.597772
21
24.352305
31
0
39
0
210
0
220
0
230
1
0
LINE
5
B0
100
AcDbEntity
8
1
62
256
6
ByLayer
370
13
48
1
60
0
100
AcDbLine
10
23.58255
20
15.684851
30
0
11
19.597772
21
24.352305
31
0
39
0
210
0
220
0
230
1
0
LINE
5
B1
100
AcDbEntity
8
1
62
256
6
ByLayer
370
13
48
1
60
0
100
AcDbLine
10
42.855121
20
-21.223472
30
0
11
43.268247
21
-21.546241
31
0
39
0
210
0
220
0
230
1
0
LINE
5
B2
100
AcDbEntity
8
1
62
256
6
ByLayer
370
13
48
1
60
0
100
AcDbLine
10
41.765038
20
-25.8523
30
0
11
41.044915
21
-25.81456
31
0
39
0
210
0
220
0
230
1
0
LINE
5
B3
100
AcDbEntity
8
1
62
256
6
ByLayer
370
13
48
1
60
0
100
AcDbLine
10
43.350872
20
-21.610795
30
0
11
41.765038
21
-25.8523
31
0
39
0
210
0
220
0
230
1
0
LINE
5
B4
100
AcDbEntity
8
1
62
256
6
ByLayer
370
13
48
1
60
0
100
AcDbLine
10
49.159425
20
-26.148934
30
0
11
48.391011
21
-25.548583
31
0
39
0
210
0
220
0
230
1
0
LINE
5
B5
100
AcDbEntity
8
1
62
256
6
ByLayer
370
13
48
1
60
0
100
AcDbLine
10
41.173503
20
-25.721161
30
0
11
42.855121
21
-21.223472
31
0
39
0
210
0
220
0
230
1
0
LINE
5
B6
100
AcDbEntity
8
1
62
256
6
ByLayer
370
13
48
1
60
0
100
AcDbLine
10
43.268247
20
-21.546241
30
0
11
41.697049
21
-25.748599
31
0
39
0
210
0
220
0
230
1
0
LINE
5
B7
100
AcDbEntity
8
1
62
256
6
ByLayer
370
13
48
1
60
0
100
AcDbLine
10
8.538675
20
-7.529667
30
0
11
11.461325
21
-7.529667
31
0
39
0
210
0
220
0
230
1
0
LINE
5
B8
100
AcDbEntity
8
1
62
256
6
ByLayer
370
13
48
1
60
0
100
AcDbLine
10
23.58255
20
-32.503268
30
0
11
23.207991
21
-32.483639
31
0
39
0
210
0
220
0
230
1
0
LINE
5
B9
100
AcDbEntity
8
1
62
256
6
ByLayer
370
13
48
1
60
0
100
AcDbLine
10
8.538675
20
7.529667
30
0
11
8.538675
21
23.83913
31
0
39
0
210
0
220
0
230
1
0
LINE
5
BA
100
AcDbEntity
8
1
62
256
6
ByLayer
370
13
48
1
60
0
100
AcDbLine
10
44.316873
20
-33.589908
30
0
11
43.343077
21
-33.538874
31
0
39
0
210
0
220
0
230
1
0
LINE
5
BB
100
AcDbEntity
8
1
62
256
6
ByLayer
370
13
48
1
60
0
100
AcDbLine
10
47.564758
20
-24.903044
30
0
11
46.796344
21
-24.302693
31
0
39
0
210
0
220
0
230
1
0
LINE
5
BC
100
AcDbEntity
8
1
62
256
6
ByLayer
370
13
48
1
60
0
100
AcDbLine
10
37.357194
20
-27.638605
30
0
11
39.994293
21
-28.624576
31
0
39
0
210
0
220
0
230
1
0
LINE
5
BD
100
AcDbEntity
8
1
62
256
6
ByLayer
370
13
48
1
60
0
100
AcDbLine
10
11.461325
20
-23.83913
30
0
11
8.538675
21
-23.83913
31
0
39
0
210
0
220
0
230
1
0
LINE
5
BE
100
AcDbEntity
8
1
62
256
6
ByLayer
370
13
48
1
60
0
100
AcDbLine
10
40.030065
20
-28.779426
30
0
11
39.944855
21
-28.712853
31
0
39
0
210
0
220
0
230
1
0
LINE
5
BF
100
AcDbEntity
8
1
62
256
6
ByLayer
370
13
48
1
60
0
100
AcDbLine
10
41.697049
20
-25.748599
30
0
11
41.173503
21
-25.721161
31
0
39
0
210
0
220
0
230
1
0
LINE
5
C0
100
AcDbEntity
8
1
62
256
6
ByLayer
370
13
48
1
60
0
100
AcDbLine
10
37.357194
20
-27.638605
30
0
11
37.322173
21
-27.732273
31
0
39
0
210
0
220
0
230
1
0
LINE
5
C1
100
AcDbEntity
8
1
62
256
6
ByLayer
370
13
48
1
60
0
100
AcDbLine
10
46.337761
20
-33.695818
30
0
11
45.363965
21
-33.644784
31
0
39
0
210
0
220
0
230
1
0
LINE
5
C2
100
AcDbEntity
8
1
62
256
6
ByLayer
370
13
48
1
60
0
100
AcDbLine
10
38.976703
20
-33.310042
30
0
11
43.099409
21
-33.526104
31
0
39
0
210
0
220
0
230
1
0
LINE
5
C3
100
AcDbEntity
8
1
62
256
6
ByLayer
370
13
48
1
60
0
100
AcDbLine
10
36.514334
20
-25.618692
30
0
11
36.446519
21
-25.800071
31
0
39
0
210
0
220
0
230
1
0
LINE
5
C4
100
AcDbEntity
8
1
62
256
6
ByLayer
370
13
48
1
60
0
100
AcDbLine
10
49.366013
20
-26.310338
30
0
11
49.159425
21
-26.148934
31
0
39
0
210
0
220
0
230
1
0
LINE
5
C5
100
AcDbEntity
8
1
62
256
6
ByLayer
370
13
48
1
60
0
100
AcDbLine
10
43.350872
20
-21.610795
30
0
11
43.268247
21
-21.546241
31
0
39
0
210
0
220
0
230
1
0
LINE
5
C6
100
AcDbEntity
8
1
62
256
6
ByLayer
370
13
48
1
60
0
100
AcDbLine
10
11.461325
20
-23.83913
30
0
11
11.461325
21
-7.529667
31
0
39
0
210
0
220
0
230
1
0
LINE
5
C7
100
AcDbEntity
8
1
62
256
6
ByLayer
370
13
48
1
60
0
100
AcDbLine
10
38.348448
20
-33.277116
30
0
11
38.871994
21
-33.304554
31
0
39
0
210
0
220
0
230
1
0
LINE
5
C8
100
AcDbEntity
8
SK1
62
256
6
ByLayer
370
13
48
1
60
0
100
AcDbLine
10
-1.315435
20
-3.910272
30
0
11
-1.315435
21
3.910269
31
0
39
0
210
0
220
0
230
1
0
LINE
5
CA
100
AcDbEntity
8
1
62
256
6
ByLayer
370
13
48
1
60
0
100
AcDbLine
10
59.304432
20
-35.006238
30
0
11
59.30294
21
-34.994083
31
0
39
0
210
0
220
0
230
1
0
LINE
5
CB
100
AcDbEntity
8
1
62
256
6
ByLayer
370
13
48
1
60
0
100
AcDbLine
10
38.633128
20
-27.277553
30
0
11
47.455569
21
-34.1704
31
0
39
0
210
0
220
0
230
1
0
LINE
5
CC
100
AcDbEntity
8
1
62
256
6
ByLayer
370
13
48
1
60
0
100
AcDbLine
10
38.633128
20
-27.277553
30
0
11
38.642228
21
-27.26936
31
0
39
0
210
0
220
0
230
1
0
LINE
5
CD
100
AcDbEntity
8
1
62
256
6
ByLayer
370
13
48
1
60
0
100
AcDbLine
10
39.133904
20
-25.938166
30
0
11
39.135397
21
-25.950321
31
0
39
0
210
0
220
0
230
1
0
LINE
5
CE
100
AcDbEntity
8
1
62
256
6
ByLayer
370
13
48
1
60
0
100
AcDbLine
10
59.805209
20
-33.66685
30
0
11
59.796108
21
-33.675044
31
0
39
0
210
0
220
0
230
1
0
LINE
5
CF
100
AcDbEntity
8
1
62
256
6
ByLayer
370
13
48
1
60
0
100
AcDbLine
10
59.805209
20
-33.66685
30
0
11
50.982767
21
-26.774004
31
0
39
0
210
0
220
0
230
1
0
LINE
5
D0
100
AcDbEntity
8
1
62
256
6
ByLayer
370
13
48
1
60
0
100
AcDbLine
10
48.123937
20
-34.420293
30
0
11
59.304432
21
-35.006238
31
0
39
0
210
0
220
0
230
1
0
LINE
5
D1
100
AcDbEntity
8
1
62
256
6
ByLayer
370
13
48
1
60
0
100
AcDbLine
10
50.3144
20
-26.524111
30
0
11
39.133904
21
-25.938166
31
0
39
0
210
0
220
0
230
1
0
MTEXT
5
109
100
AcDbEntity
8
SK6
62
256
6
ByLayer
370
13
48
1
60
0
100
AcDbMText
10
0.902534
20
33.350079
30
0
210
0
220
0
230
1
1
\W0.7659;TR-C5-V13JBL-35060
40
3.5
41
0
44
1.084337
50
0
71
7
72
5
7
iso_b_vert
0
DIMENSION
5
11B
100
AcDbEntity
8
SK2
62
256
6
ByLayer
370
13
48
1
60
0
100
AcDbDimension
2
DimnDraft3D1
10
-36.85
20
-25
30
0
11
-36.85
21
0
31
0
70
32
71
5
72
1
41
1
210
0
220
0
230
1
3
Standard
100
AcDbAlignedDimension
13
-1.5875
23
25
33
0
14
-1.5875
24
-25
34
0
50
90
100
AcDbRotatedDimension
1001
ACAD
1000
DSTYLE
1002
{
1070
    74
1070
     0
1070
   279
1070
     0
1070
   172
1070
     1
1070
   173
1070
     1
1070
   340
1005
10A
1070
   271
1070
     1
1070
   272
1070
     2
1070
    77
1070
     1
1070
    73
1070
     0
1070
   171
1070
     3
1070
   274
1070
     4
1070
   177
1070
   150
1070
   176
1070
     9
1070
   178
1070
    43
1070
    78
1070
     8
1070
    48
1040
-0.005
1070
    41
1041
3.175
1070
   147
1041
2.25
1070
    42
1041
1.5875
1070
    44
1041
3.175
1070
   140
1041
4.5
1070
   343
1005
11C
1070
   344
1005
11C
1002
}
0
DIMENSION
5
131
100
AcDbEntity
8
2
62
256
6
ByLayer
370
13
48
1
60
0
100
AcDbDimension
2
DimnDraft3D2
10
85.85
20
0
30
0
11
85.85
21
-17.5
31
0
70
32
71
5
72
1
41
1
210
0
220
0
230
1
3
Standard
100
AcDbAlignedDimension
13
61.5875
23
-35
33
0
14
51.5875
24
0
34
0
50
90
100
AcDbRotatedDimension
1001
ACAD
1000
DSTYLE
1002
{
1070
    74
1070
     0
1070
   279
1070
     0
1070
   172
1070
     1
1070
   173
1070
     1
1070
   340
1005
10A
1070
   271
1070
     1
1070
   272
1070
     2
1070
    77
1070
     1
1070
    73
1070
     0
1070
   171
1070
     3
1070
   274
1070
     4
1070
   177
1070
   150
1070
   176
1070
     9
1070
   178
1070
    43
1070
    78
1070
     8
1070
    48
1040
-0.005
1070
    41
1041
3.175
1070
   147
1041
2.25
1070
    42
1041
1.5875
1070
    44
1041
3.175
1070
   140
1041
4.5
1070
   343
1005
11C
1070
   344
1005
11C
1002
}
0
DIMENSION
5
13F
100
AcDbEntity
8
2
62
256
6
ByLayer
370
13
48
1
60
0
100
AcDbDimension
2
DimnDraft3D3
10
60
20
-61.5
30
0
11
30
21
-61.5
31
0
70
32
71
5
72
1
41
1
210
0
220
0
230
1
3
Standard
100
AcDbAlignedDimension
13
0
23
-26.5875
33
0
14
60
24
-36.5875
34
0
50
0
100
AcDbRotatedDimension
1001
ACAD
1000
DSTYLE
1002
{
1070
   279
1070
     0
1070
   172
1070
     1
1070
   173
1070
     1
1070
   340
1005
10A
1070
   271
1070
     1
1070
   272
1070
     2
1070
    77
1070
     1
1070
    73
1070
     0
1070
   171
1070
     3
1070
   274
1070
     4
1070
   177
1070
   150
1070
   176
1070
     9
1070
   178
1070
    43
1070
    78
1070
     8
1070
    48
1040
-0.005
1070
    41
1041
3.175
1070
   147
1041
2.25
1070
    42
1041
1.5875
1070
    44
1041
3.175
1070
   140
1041
4.5
1070
   343
1005
11C
1070
   344
1005
11C
1002
}
0
DIMENSION
5
14D
100
AcDbEntity
8
2
62
256
6
ByLayer
370
13
48
1
60
0
100
AcDbDimension
2
DimnDraft3D4
10
60
20
-33.4124
30
0
11
47.711866
21
-46.703694
31
0
70
34
71
5
72
1
41
1
210
0
220
0
230
1
3
Standard
100
AcDb2LineAngularDimension
13
59.164656
23
-34.998912
33
0
14
46.182472
24
-34.318545
34
0
15
60
25
-35
35
0
16
44.447681
26
-49.80129
36
0
40
0
0
ENDSEC
0
SECTION
2
OBJECTS
0
DICTIONARY
5
1b7
330
0
100
AcDbDictionary
280
0
281
1
3
ACAD_GROUP
350
1b8
3
ACAD_MLINESTYLE
350
1b9
0
DICTIONARY
5
1b8
330
0
100
AcDbDictionary
280
0
281
1
0
DICTIONARY
5
1b9
330
0
100
AcDbDictionary
280
0
281
1
3
Standard
350
18
0
MLINESTYLE
5
18
330
1b9
100
AcDbMlineStyle
2
Standard
70
0
3

62
256
51
90
52
90
71
2
49
-0.5
62
256
6
ByLayer
49
0.5
62
256
6
ByLayer
0
RASTERVARIABLES
5
1a6
330

100
AcDbRasterVariables
90
0
70
1
71
1
72
1
0
ENDSEC
0
EOF
