0
SECTION
2
HEADER
9
$ACADVER
1
AC1015
9
$DWGCODEPAGE
3
ANSI_1252
9
$HANDSEED
5
2de
9
$ANGBASE
50
0
9
$ANGDIR
70
0
9
$ATTMODE
70
1
9
$AUNITS
70
0
9
$AUPREC
70
0
9
$CECOLOR
62
256
9
$CELTSCALE
40
1
9
$CELTYPE
6
ByLayer
9
$CELWEIGHT
370
18
9
$CLAYER
8
0
9
$CMLJUST
70
0
9
$CMLSCALE
40
1
9
$CMLSTYLE
2
Standard
9
$DIMSTYLE
2
Standard
9
$TEXTSIZE
40
0.2
9
$TEXTSTYLE
7
Standard
9
$LUNITS
70
2
9
$LUPREC
70
4
9
$EXTNAMES
290
1
9
$INSUNITS
70
4
9
$LTSCALE
40
1
9
$LWDISPLAY
290
1
9
$PDMODE
70
0
9
$PDSIZE
40
0
9
$PLINEGEN
70
0
0
ENDSEC
0
SECTION
2
CLASSES
0
CLASS
1
RASTERVARIABLES
2
AcDbRasterVariables
3
ISM
90
0
280
0
281
0
0
ENDSEC
0
SECTION
2
TABLES
0
TABLE
2
VPORT
5
2d4
100
AcDbSymbolTable
0
VPORT
5
1
100
AcDbSymbolTableRecord
100
AcDbViewportTableRecord
2
*Active
70
0
10
0
20
0
11
1
21
1
12
-1
22
1
13
0
23
0
14
0.5
24
0.5
15
10
25
10
16
0
26
0
36
1
17
0
27
0
37
0
0
ENDTAB
0
TABLE
2
LTYPE
5
2d5
100
AcDbSymbolTable
0
LTYPE
5
14
100
AcDbSymbolTableRecord
100
AcDbLinetypeTableRecord
70
0
2
ByBlock
3

72
65
73
0
40
0
0
LTYPE
5
15
100
AcDbSymbolTableRecord
100
AcDbLinetypeTableRecord
70
0
2
ByLayer
3

72
65
73
0
40
0
0
LTYPE
5
16
100
AcDbSymbolTableRecord
100
AcDbLinetypeTableRecord
70
0
2
Continuous
3
Solid line
72
65
73
0
40
0
0
LTYPE
5
6E
100
AcDbSymbolTableRecord
100
AcDbLinetypeTableRecord
70
0
2
CENTER
3
____ _ ____ _ ____ _ ____
72
65
73
4
40
47.5
49
22
74
0
49
-8.5
74
0
49
8.5
74
0
49
-8.5
74
0
0
LTYPE
5
6F
100
AcDbSymbolTableRecord
100
AcDbLinetypeTableRecord
70
0
2
DASHED
3
__ __ __ __ __ __ __ __ __
72
65
73
2
40
25.72
49
12.86
74
0
49
-12.86
74
0
0
ENDTAB
0
TABLE
2
LAYER
5
2d6
100
AcDbSymbolTable
0
LAYER
5
10
100
AcDbSymbolTableRecord
100
AcDbLayerTableRecord
2
0
70
0
62
7
6
Continuous
290
1
370
-3
390
0
0
LAYER
5
71
100
AcDbSymbolTableRecord
100
AcDbLayerTableRecord
2
81
70
0
62
-3
6
Continuous
290
1
370
-3
390
0
0
LAYER
5
73
100
AcDbSymbolTableRecord
100
AcDbLayerTableRecord
2
80
70
0
62
-6
6
Continuous
290
1
370
-3
390
0
0
LAYER
5
75
100
AcDbSymbolTableRecord
100
AcDbLayerTableRecord
2
1
70
0
62
4
6
Continuous
290
1
370
-3
390
0
0
LAYER
5
81
100
AcDbSymbolTableRecord
100
AcDbLayerTableRecord
2
4
70
0
62
-2
6
CENTER
290
1
370
-3
390
0
0
LAYER
5
BC
100
AcDbSymbolTableRecord
100
AcDbLayerTableRecord
2
2
70
0
62
7
6
Continuous
290
1
370
-3
390
0
0
LAYER
5
1E5
100
AcDbSymbolTableRecord
100
AcDbLayerTableRecord
2
Defpoints
70
0
62
7
6
Continuous
290
0
370
-3
390
0
0
LAYER
5
2c0
100
AcDbSymbolTableRecord
100
AcDbLayerTableRecord
2
SK4
70
0
62
2
6
CENTER
290
1
370
-3
390
0
0
LAYER
5
2c1
100
AcDbSymbolTableRecord
100
AcDbLayerTableRecord
2
SK1
70
0
62
4
6
Continuous
290
1
370
-3
390
0
0
LAYER
5
2c2
100
AcDbSymbolTableRecord
100
AcDbLayerTableRecord
2
SK2
70
0
62
7
6
Continuous
290
1
370
-3
390
0
0
LAYER
5
2c3
100
AcDbSymbolTableRecord
100
AcDbLayerTableRecord
2
SK6
70
0
62
5
6
Continuous
290
1
370
-3
390
0
0
ENDTAB
0
TABLE
2
STYLE
5
2d7
100
AcDbSymbolTable
0
STYLE
5
11
100
AcDbSymbolTableRecord
100
AcDbTextStyleTableRecord
2
Standard
3
txt
70
0
71
0
40
0
41
1
42
0
50
0
0
STYLE
5
1CB
100
AcDbSymbolTableRecord
100
AcDbTextStyleTableRecord
2
iso_b_vert
3
simplex.shx
70
0
71
0
40
0
41
1
42
0
50
0
0
STYLE
5
1CC
100
AcDbSymbolTableRecord
100
AcDbTextStyleTableRecord
2
DWGDirectTextStyle
3
simplex
70
0
71
0
40
0
41
1
42
0
50
0
0
ENDTAB
0
TABLE
2
DIMSTYLE
5
2d8
100
AcDbSymbolTable
100
AcDbDimStyleTable
0
DIMSTYLE
105
27
100
AcDbSymbolTableRecord
100
AcDbDimStyleTableRecord
2
Standard
70
0
3
<>
41
0.18
42
0.0625
44
0.18
140
0.18
147
0.09
73
0
74
0
77
1
271
2
275
0
278
52
280
0
340
11
0
ENDTAB
0
TABLE
2
VIEW
5
2d9
100
AcDbSymbolTable
0
ENDTAB
0
TABLE
2
UCS
5
2da
100
AcDbSymbolTable
0
ENDTAB
0
TABLE
2
APPID
5
2db
100
AcDbSymbolTable
0
APPID
5
12
100
AcDbSymbolTableRecord
100
AcDbRegAppTableRecord
2
ACAD
70
0
0
APPID
5
1E1
100
AcDbSymbolTableRecord
100
AcDbRegAppTableRecord
2
ACAD_DSTYLE_DIMBREAK
70
0
0
APPID
5
27F
100
AcDbSymbolTableRecord
100
AcDbRegAppTableRecord
2
ACAD_DSTYLE_DIM_LINETYPE
70
0
0
APPID
5
280
100
AcDbSymbolTableRecord
100
AcDbRegAppTableRecord
2
ACAD_DSTYLE_DIM_EXT1_LINETYPE
70
0
0
APPID
5
281
100
AcDbSymbolTableRecord
100
AcDbRegAppTableRecord
2
ACAD_DSTYLE_DIM_EXT2_LINETYPE
70
0
0
APPID
5
2BC
100
AcDbSymbolTableRecord
100
AcDbRegAppTableRecord
2
ACAD_MLEADERVER
70
0
0
ENDTAB
0
TABLE
2
BLOCK_RECORD
5
2dc
100
AcDbSymbolTable
0
BLOCK_RECORD
5
1F
100
AcDbSymbolTableRecord
100
AcDbBlockTableRecord
2
*Model_Space
340
0
70
0
0
BLOCK_RECORD
5
1B
100
AcDbSymbolTableRecord
100
AcDbBlockTableRecord
2
*Paper_Space
340
0
70
0
0
BLOCK_RECORD
5
23
100
AcDbSymbolTableRecord
100
AcDbBlockTableRecord
2
*Paper_Space0
340
0
70
0
0
BLOCK_RECORD
5
1E6
100
AcDbSymbolTableRecord
100
AcDbBlockTableRecord
2
*D1
340
0
70
0
0
BLOCK_RECORD
5
1F4
100
AcDbSymbolTableRecord
100
AcDbBlockTableRecord
2
_U0
340
0
70
0
0
BLOCK_RECORD
5
200
100
AcDbSymbolTableRecord
100
AcDbBlockTableRecord
2
*D3
340
0
70
0
0
BLOCK_RECORD
5
20D
100
AcDbSymbolTableRecord
100
AcDbBlockTableRecord
2
_U1
340
0
70
0
0
BLOCK_RECORD
5
21A
100
AcDbSymbolTableRecord
100
AcDbBlockTableRecord
2
*D5
340
0
70
0
0
BLOCK_RECORD
5
227
100
AcDbSymbolTableRecord
100
AcDbBlockTableRecord
2
_U2
340
0
70
0
0
BLOCK_RECORD
5
234
100
AcDbSymbolTableRecord
100
AcDbBlockTableRecord
2
*D7
340
0
70
0
0
BLOCK_RECORD
5
240
100
AcDbSymbolTableRecord
100
AcDbBlockTableRecord
2
_U3
340
0
70
0
0
BLOCK_RECORD
5
24C
100
AcDbSymbolTableRecord
100
AcDbBlockTableRecord
2
*D9
340
0
70
0
0
BLOCK_RECORD
5
258
100
AcDbSymbolTableRecord
100
AcDbBlockTableRecord
2
_U4
340
0
70
0
0
ENDTAB
0
ENDSEC
0
SECTION
2
BLOCKS
0
BLOCK
5
20
100
AcDbEntity
8
0
100
AcDbBlockBegin
2
*Model_Space
70
0
10
0
20
0
30
0
3
*Model_Space
0
ENDBLK
5
21
100
AcDbEntity
8
0
100
AcDbBlockEnd
0
BLOCK
5
1C
100
AcDbEntity
8
0
100
AcDbBlockBegin
2
*Paper_Space
70
0
10
0
20
0
30
0
3
*Paper_Space
0
ENDBLK
5
1D
100
AcDbEntity
8
0
100
AcDbBlockEnd
0
BLOCK
5
24
100
AcDbEntity
8
0
100
AcDbBlockBegin
2
*Paper_Space0
70
0
10
0
20
0
30
0
3
*Paper_Space0
0
ENDBLK
5
25
100
AcDbEntity
8
0
100
AcDbBlockEnd
0
BLOCK
5
1E7
100
AcDbEntity
8
0
100
AcDbBlockBegin
2
*D1
70
1
10
0
20
0
30
0
3
*D1
0
LINE
5
1E9
100
AcDbEntity
8
0
62
256
6
ByLayer
370
-2
48
1
60
0
100
AcDbLine
10
84.5875
20
6.080323
30
0
11
104.5
21
6.080323
31
0
39
0
210
0
220
0
230
1
0
LINE
5
1EA
100
AcDbEntity
8
0
62
256
6
ByLayer
370
-2
48
1
60
0
100
AcDbLine
10
84.5875
20
-6.080323
30
0
11
104.5
21
-6.080323
31
0
39
0
210
0
220
0
230
1
0
LINE
5
1EB
100
AcDbEntity
8
0
62
256
6
ByLayer
370
-2
48
1
60
0
100
AcDbLine
10
102.5
20
6.080323
30
0
11
102.5
21
35.651752
31
0
39
0
210
0
220
0
230
1
0
LINE
5
1EC
100
AcDbEntity
8
0
62
256
6
ByLayer
370
-2
48
1
60
0
100
AcDbLine
10
102.5
20
9.580323
30
0
11
102.5
21
13.080323
31
0
39
0
210
0
220
0
230
1
0
LINE
5
1ED
100
AcDbEntity
8
0
62
256
6
ByLayer
370
-2
48
1
60
0
100
AcDbLine
10
102.5
20
-9.580323
30
0
11
102.5
21
-13.080323
31
0
39
0
210
0
220
0
230
1
0
SOLID
5
1EE
100
AcDbEntity
8
0
62
256
6
ByLayer
370
-1
48
1
60
0
100
AcDbTrace
10
101.916667
20
9.580323
30
0
11
103.083333
21
9.580323
31
0
12
102.5
22
6.080323
32
0
13
102.5
23
6.080323
33
0
39
0
210
0
220
0
230
1
0
SOLID
5
1EF
100
AcDbEntity
8
0
62
256
6
ByLayer
370
-1
48
1
60
0
100
AcDbTrace
10
103.083333
20
-9.580323
30
0
11
101.916667
21
-9.580323
31
0
12
102.5
22
-6.080323
32
0
13
102.5
23
-6.080323
33
0
39
0
210
0
220
0
230
1
0
MTEXT
5
1F0
100
AcDbEntity
8
0
62
256
6
ByLayer
370
18
48
1
60
0
100
AcDbMText
10
96.5
20
24.366037
30
0
210
0
220
0
230
1
1
\A1;12.161
40
3
41
0
44
1
50
90
71
5
72
5
7
iso_b_vert
0
POINT
5
1F1
100
AcDbEntity
8
Defpoints
62
0
6
ByLayer
370
-1
48
1
60
0
100
AcDbPoint
10
83
20
6.080323
30
0
39
0
210
0
220
0
230
1
50
360
0
POINT
5
1F2
100
AcDbEntity
8
Defpoints
62
0
6
ByLayer
370
-1
48
1
60
0
100
AcDbPoint
10
83
20
-6.080323
30
0
39
0
210
0
220
0
230
1
50
360
0
POINT
5
1F3
100
AcDbEntity
8
Defpoints
62
0
6
ByLayer
370
-1
48
1
60
0
100
AcDbPoint
10
102.5
20
-6.080323
30
0
39
0
210
0
220
0
230
1
50
360
0
ENDBLK
5
1E8
100
AcDbEntity
8
0
100
AcDbBlockEnd
0
BLOCK
5
1FB
100
AcDbEntity
8
0
100
AcDbBlockBegin
2
_U0
70
0
10
0
20
0
30
0
3
_U0
0
MTEXT
5
1F5
100
AcDbEntity
8
2
62
256
6
ByLayer
370
18
48
1
60
0
100
AcDbMText
10
101.908886
20
16.215323
30
0
210
0
220
0
230
1
1
\W0.6563;M12
40
3
41
0
44
1.084337
50
90
71
7
72
5
7
iso_b_vert
0
LINE
5
1F6
100
AcDbEntity
8
2
62
256
6
ByLayer
370
13
48
1
60
0
100
AcDbLine
10
84.5875
20
6.080323
30
0
11
104.5
21
6.080323
31
0
39
0
210
0
220
0
230
1
0
LINE
5
1F7
100
AcDbEntity
8
2
62
256
6
ByLayer
370
13
48
1
60
0
100
AcDbLine
10
84.5875
20
-6.080323
30
0
11
104.5
21
-6.080323
31
0
39
0
210
0
220
0
230
1
0
LINE
5
1F8
100
AcDbEntity
8
2
62
256
6
ByLayer
370
13
48
1
60
0
100
AcDbLine
10
102.5
20
-6.080323
30
0
11
102.5
21
21.827065
31
0
39
0
210
0
220
0
230
1
0
SOLID
5
1F9
100
AcDbEntity
8
2
62
256
6
ByLayer
370
18
48
1
60
0
100
AcDbTrace
10
102.5
20
6.080323
30
0
11
102.960784
21
2.580325
31
0
12
102.039216
22
2.580322
32
0
13
102.039216
23
2.580322
33
0
39
0
210
0
220
0
230
1
0
SOLID
5
1FA
100
AcDbEntity
8
2
62
256
6
ByLayer
370
18
48
1
60
0
100
AcDbTrace
10
102.5
20
-6.080323
30
0
11
102.039216
21
-2.580325
31
0
12
102.960784
22
-2.580322
32
0
13
102.960784
23
-2.580322
33
0
39
0
210
0
220
0
230
1
0
ENDBLK
5
1FC
100
AcDbEntity
8
0
100
AcDbBlockEnd
0
BLOCK
5
201
100
AcDbEntity
8
0
100
AcDbBlockBegin
2
*D3
70
1
10
0
20
0
30
0
3
*D3
0
LINE
5
203
100
AcDbEntity
8
0
62
256
6
ByLayer
370
-2
48
1
60
0
100
AcDbLine
10
83
20
7.667823
30
0
11
83
21
17.062241
31
0
39
0
210
0
220
0
230
1
0
LINE
5
204
100
AcDbEntity
8
0
62
256
6
ByLayer
370
-2
48
1
60
0
100
AcDbLine
10
78.19
20
1.5875
30
0
11
78.19
21
17.062241
31
0
39
0
210
0
220
0
230
1
0
LINE
5
205
100
AcDbEntity
8
0
62
256
6
ByLayer
370
-2
48
1
60
0
100
AcDbLine
10
86.5
20
15.062241
30
0
11
90
21
15.062241
31
0
39
0
210
0
220
0
230
1
0
LINE
5
206
100
AcDbEntity
8
0
62
256
6
ByLayer
370
-2
48
1
60
0
100
AcDbLine
10
74.69
20
15.062241
30
0
11
71.19
21
15.062241
31
0
39
0
210
0
220
0
230
1
0
SOLID
5
207
100
AcDbEntity
8
0
62
256
6
ByLayer
370
-1
48
1
60
0
100
AcDbTrace
10
86.5
20
15.645574
30
0
11
86.5
21
14.478907
31
0
12
83
22
15.062241
32
0
13
83
23
15.062241
33
0
39
0
210
0
220
0
230
1
0
SOLID
5
208
100
AcDbEntity
8
0
62
256
6
ByLayer
370
-1
48
1
60
0
100
AcDbTrace
10
74.69
20
14.478907
30
0
11
74.69
21
15.645574
31
0
12
78.19
22
15.062241
32
0
13
78.19
23
15.062241
33
0
39
0
210
0
220
0
230
1
0
MTEXT
5
209
100
AcDbEntity
8
0
62
256
6
ByLayer
370
18
48
1
60
0
100
AcDbMText
10
80.595
20
21.062241
30
0
210
0
220
0
230
1
1
\A1;4.81
40
3
41
0
44
1
50
0
71
5
72
5
7
iso_b_vert
0
POINT
5
20A
100
AcDbEntity
8
Defpoints
62
0
6
ByLayer
370
-1
48
1
60
0
100
AcDbPoint
10
83
20
6.080323
30
0
39
0
210
0
220
0
230
1
50
360
0
POINT
5
20B
100
AcDbEntity
8
Defpoints
62
0
6
ByLayer
370
-1
48
1
60
0
100
AcDbPoint
10
78.19
20
0
30
0
39
0
210
0
220
0
230
1
50
360
0
POINT
5
20C
100
AcDbEntity
8
Defpoints
62
0
6
ByLayer
370
-1
48
1
60
0
100
AcDbPoint
10
78.19
20
15.062241
30
0
39
0
210
0
220
0
230
1
50
360
0
ENDBLK
5
202
100
AcDbEntity
8
0
100
AcDbBlockEnd
0
BLOCK
5
215
100
AcDbEntity
8
0
100
AcDbBlockBegin
2
_U1
70
0
10
0
20
0
30
0
3
_U1
0
MTEXT
5
20E
100
AcDbEntity
8
SK2
62
256
6
ByLayer
370
18
48
1
60
0
100
AcDbMText
10
77.477044
20
15.844874
30
0
210
0
220
0
230
1
1
\W0.6474;'C'
40
3.5
41
0
44
1.084337
50
0
71
7
72
5
7
iso_b_vert
0
MTEXT
5
20F
100
AcDbEntity
8
SK2
62
256
6
ByLayer
370
18
48
1
60
0
100
AcDbMText
10
77.450544
20
22.947355
30
0
210
0
220
0
230
1
1
\W0.7531;4.81
40
3
41
0
44
1.084337
50
0
71
7
72
5
7
iso_b_vert
0
LINE
5
210
100
AcDbEntity
8
SK2
62
256
6
ByLayer
370
13
48
1
60
0
100
AcDbLine
10
83
20
7.667823
30
0
11
83
21
17.062241
31
0
39
0
210
0
220
0
230
1
0
LINE
5
211
100
AcDbEntity
8
SK2
62
256
6
ByLayer
370
13
48
1
60
0
100
AcDbLine
10
78.19
20
1.5875
30
0
11
78.19
21
17.062241
31
0
39
0
210
0
220
0
230
1
0
LINE
5
212
100
AcDbEntity
8
SK2
62
256
6
ByLayer
370
13
48
1
60
0
100
AcDbLine
10
90.5
20
15.062241
30
0
11
70.69
21
15.062241
31
0
39
0
210
0
220
0
230
1
0
SOLID
5
213
100
AcDbEntity
8
SK2
62
256
6
ByLayer
370
18
48
1
60
0
100
AcDbTrace
10
83
20
15.062241
30
0
11
86.499998
21
15.523024
31
0
12
86.500002
22
14.601457
32
0
13
86.500002
23
14.601457
33
0
39
0
210
0
220
0
230
1
0
SOLID
5
214
100
AcDbEntity
8
SK2
62
256
6
ByLayer
370
18
48
1
60
0
100
AcDbTrace
10
78.19
20
15.062241
30
0
11
74.690002
21
14.601457
31
0
12
74.689998
22
15.523024
32
0
13
74.689998
23
15.523024
33
0
39
0
210
0
220
0
230
1
0
ENDBLK
5
216
100
AcDbEntity
8
0
100
AcDbBlockEnd
0
BLOCK
5
21B
100
AcDbEntity
8
0
100
AcDbBlockBegin
2
*D5
70
1
10
0
20
0
30
0
3
*D5
0
LINE
5
21D
100
AcDbEntity
8
0
62
256
6
ByLayer
370
-2
48
1
60
0
100
AcDbLine
10
83
20
-7.667823
30
0
11
83
21
-15.080323
31
0
39
0
210
0
220
0
230
1
0
LINE
5
21E
100
AcDbEntity
8
0
62
256
6
ByLayer
370
-2
48
1
60
0
100
AcDbLine
10
67
20
-7.667823
30
0
11
67
21
-15.080323
31
0
39
0
210
0
220
0
230
1
0
LINE
5
21F
100
AcDbEntity
8
0
62
256
6
ByLayer
370
-2
48
1
60
0
100
AcDbLine
10
83
20
-13.080323
30
0
11
102.00579
21
-13.080323
31
0
39
0
210
0
220
0
230
1
0
LINE
5
220
100
AcDbEntity
8
0
62
256
6
ByLayer
370
-2
48
1
60
0
100
AcDbLine
10
79.5
20
-13.080323
30
0
11
70.5
21
-13.080323
31
0
39
0
210
0
220
0
230
1
0
SOLID
5
221
100
AcDbEntity
8
0
62
256
6
ByLayer
370
-1
48
1
60
0
100
AcDbTrace
10
79.5
20
-13.663657
30
0
11
79.5
21
-12.49699
31
0
12
83
22
-13.080323
32
0
13
83
23
-13.080323
33
0
39
0
210
0
220
0
230
1
0
SOLID
5
222
100
AcDbEntity
8
0
62
256
6
ByLayer
370
-1
48
1
60
0
100
AcDbTrace
10
70.5
20
-12.49699
30
0
11
70.5
21
-13.663657
31
0
12
67
22
-13.080323
32
0
13
67
23
-13.080323
33
0
39
0
210
0
220
0
230
1
0
MTEXT
5
223
100
AcDbEntity
8
0
62
256
6
ByLayer
370
18
48
1
60
0
100
AcDbMText
10
95.291504
20
-7.080323
30
0
210
0
220
0
230
1
1
\A1;16
40
3
41
0
44
1
50
0
71
5
72
5
7
iso_b_vert
0
POINT
5
224
100
AcDbEntity
8
Defpoints
62
0
6
ByLayer
370
-1
48
1
60
0
100
AcDbPoint
10
83
20
-6.080323
30
0
39
0
210
0
220
0
230
1
50
360
0
POINT
5
225
100
AcDbEntity
8
Defpoints
62
0
6
ByLayer
370
-1
48
1
60
0
100
AcDbPoint
10
67
20
-6.080323
30
0
39
0
210
0
220
0
230
1
50
360
0
POINT
5
226
100
AcDbEntity
8
Defpoints
62
0
6
ByLayer
370
-1
48
1
60
0
100
AcDbPoint
10
67
20
-13.080323
30
0
39
0
210
0
220
0
230
1
50
360
0
ENDBLK
5
21C
100
AcDbEntity
8
0
100
AcDbBlockEnd
0
BLOCK
5
22F
100
AcDbEntity
8
0
100
AcDbBlockBegin
2
_U2
70
0
10
0
20
0
30
0
3
_U2
0
MTEXT
5
228
100
AcDbEntity
8
SK2
62
256
6
ByLayer
370
18
48
1
60
0
100
AcDbMText
10
89.159
20
-12.195209
30
0
210
0
220
0
230
1
1
\W0.5321;16
40
3
41
0
44
1.084337
50
0
71
7
72
5
7
iso_b_vert
0
MTEXT
5
229
100
AcDbEntity
8
SK2
62
256
6
ByLayer
370
18
48
1
60
0
100
AcDbMText
10
94.466271
20
-11.842728
30
0
210
0
220
0
230
1
1
\W0.8315;\W0.4158;%%p\W0.8315;0.5
40
2.5
41
0
44
1.084337
50
0
71
7
72
5
7
iso_b_vert
0
LINE
5
22A
100
AcDbEntity
8
SK2
62
256
6
ByLayer
370
13
48
1
60
0
100
AcDbLine
10
83
20
-7.667823
30
0
11
83
21
-15.080323
31
0
39
0
210
0
220
0
230
1
0
LINE
5
22B
100
AcDbEntity
8
SK2
62
256
6
ByLayer
370
13
48
1
60
0
100
AcDbLine
10
67
20
-7.667823
30
0
11
67
21
-15.080323
31
0
39
0
210
0
220
0
230
1
0
LINE
5
22C
100
AcDbEntity
8
SK2
62
256
6
ByLayer
370
13
48
1
60
0
100
AcDbLine
10
67
20
-13.080323
30
0
11
101.583008
21
-13.080323
31
0
39
0
210
0
220
0
230
1
0
SOLID
5
22D
100
AcDbEntity
8
SK2
62
256
6
ByLayer
370
18
48
1
60
0
100
AcDbTrace
10
83
20
-13.080323
30
0
11
79.500002
21
-13.541107
31
0
12
79.499998
22
-12.619539
32
0
13
79.499998
23
-12.619539
33
0
39
0
210
0
220
0
230
1
0
SOLID
5
22E
100
AcDbEntity
8
SK2
62
256
6
ByLayer
370
18
48
1
60
0
100
AcDbTrace
10
67
20
-13.080323
30
0
11
70.499998
21
-12.619539
31
0
12
70.500002
22
-13.541107
32
0
13
70.500002
23
-13.541107
33
0
39
0
210
0
220
0
230
1
0
ENDBLK
5
230
100
AcDbEntity
8
0
100
AcDbBlockEnd
0
BLOCK
5
235
100
AcDbEntity
8
0
100
AcDbBlockBegin
2
*D7
70
1
10
0
20
0
30
0
3
*D7
0
LINE
5
237
100
AcDbEntity
8
0
62
256
6
ByLayer
370
-2
48
1
60
0
100
AcDbLine
10
83
20
-7.667823
30
0
11
83
21
-37.580323
31
0
39
0
210
0
220
0
230
1
0
LINE
5
238
100
AcDbEntity
8
0
62
256
6
ByLayer
370
-2
48
1
60
0
100
AcDbLine
10
28
20
-5.9375
30
0
11
28
21
-37.580323
31
0
39
0
210
0
220
0
230
1
0
LINE
5
239
100
AcDbEntity
8
0
62
256
6
ByLayer
370
-2
48
1
60
0
100
AcDbLine
10
79.5
20
-35.580323
30
0
11
31.5
21
-35.580323
31
0
39
0
210
0
220
0
230
1
0
SOLID
5
23A
100
AcDbEntity
8
0
62
256
6
ByLayer
370
-1
48
1
60
0
100
AcDbTrace
10
79.5
20
-36.163657
30
0
11
79.5
21
-34.99699
31
0
12
83
22
-35.580323
32
0
13
83
23
-35.580323
33
0
39
0
210
0
220
0
230
1
0
SOLID
5
23B
100
AcDbEntity
8
0
62
256
6
ByLayer
370
-1
48
1
60
0
100
AcDbTrace
10
31.5
20
-34.99699
30
0
11
31.5
21
-36.163657
31
0
12
28
22
-35.580323
32
0
13
28
23
-35.580323
33
0
39
0
210
0
220
0
230
1
0
MTEXT
5
23C
100
AcDbEntity
8
0
62
256
6
ByLayer
370
18
48
1
60
0
100
AcDbMText
10
55.5
20
-29.580323
30
0
210
0
220
0
230
1
1
\A1;55
40
3
41
0
44
1
50
0
71
5
72
5
7
iso_b_vert
0
POINT
5
23D
100
AcDbEntity
8
Defpoints
62
0
6
ByLayer
370
-1
48
1
60
0
100
AcDbPoint
10
83
20
-6.080323
30
0
39
0
210
0
220
0
230
1
50
360
0
POINT
5
23E
100
AcDbEntity
8
Defpoints
62
0
6
ByLayer
370
-1
48
1
60
0
100
AcDbPoint
10
28
20
-4.35
30
0
39
0
210
0
220
0
230
1
50
360
0
POINT
5
23F
100
AcDbEntity
8
Defpoints
62
0
6
ByLayer
370
-1
48
1
60
0
100
AcDbPoint
10
28
20
-35.580323
30
0
39
0
210
0
220
0
230
1
50
360
0
ENDBLK
5
236
100
AcDbEntity
8
0
100
AcDbBlockEnd
0
BLOCK
5
247
100
AcDbEntity
8
0
100
AcDbBlockBegin
2
_U3
70
0
10
0
20
0
30
0
3
_U3
0
MTEXT
5
241
100
AcDbEntity
8
SK2
62
256
6
ByLayer
370
18
48
1
60
0
100
AcDbMText
10
53.867172
20
-34.695209
30
0
210
0
220
0
230
1
1
\W0.6740;55
40
3
41
0
44
1.084337
50
0
71
7
72
5
7
iso_b_vert
0
LINE
5
242
100
AcDbEntity
8
SK2
62
256
6
ByLayer
370
13
48
1
60
0
100
AcDbLine
10
83
20
-7.667823
30
0
11
83
21
-37.580323
31
0
39
0
210
0
220
0
230
1
0
LINE
5
243
100
AcDbEntity
8
SK2
62
256
6
ByLayer
370
13
48
1
60
0
100
AcDbLine
10
28
20
-5.9375
30
0
11
28
21
-37.580323
31
0
39
0
210
0
220
0
230
1
0
LINE
5
244
100
AcDbEntity
8
SK2
62
256
6
ByLayer
370
13
48
1
60
0
100
AcDbLine
10
83
20
-35.580323
30
0
11
28
21
-35.580323
31
0
39
0
210
0
220
0
230
1
0
SOLID
5
245
100
AcDbEntity
8
SK2
62
256
6
ByLayer
370
18
48
1
60
0
100
AcDbTrace
10
83
20
-35.580323
30
0
11
79.500002
21
-36.041107
31
0
12
79.499998
22
-35.119539
32
0
13
79.499998
23
-35.119539
33
0
39
0
210
0
220
0
230
1
0
SOLID
5
246
100
AcDbEntity
8
SK2
62
256
6
ByLayer
370
18
48
1
60
0
100
AcDbTrace
10
28
20
-35.580323
30
0
11
31.499998
21
-35.119539
31
0
12
31.500002
22
-36.041107
32
0
13
31.500002
23
-36.041107
33
0
39
0
210
0
220
0
230
1
0
ENDBLK
5
248
100
AcDbEntity
8
0
100
AcDbBlockEnd
0
BLOCK
5
24D
100
AcDbEntity
8
0
100
AcDbBlockBegin
2
*D9
70
1
10
0
20
0
30
0
3
*D9
0
LINE
5
24F
100
AcDbEntity
8
0
62
256
6
ByLayer
370
-2
48
1
60
0
100
AcDbLine
10
83
20
-7.667823
30
0
11
83
21
-26.580323
31
0
39
0
210
0
220
0
230
1
0
LINE
5
250
100
AcDbEntity
8
0
62
256
6
ByLayer
370
-2
48
1
60
0
100
AcDbLine
10
36.25
20
-1.5875
30
0
11
36.25
21
-26.580323
31
0
39
0
210
0
220
0
230
1
0
LINE
5
251
100
AcDbEntity
8
0
62
256
6
ByLayer
370
-2
48
1
60
0
100
AcDbLine
10
79.5
20
-24.580323
30
0
11
39.75
21
-24.580323
31
0
39
0
210
0
220
0
230
1
0
SOLID
5
252
100
AcDbEntity
8
0
62
256
6
ByLayer
370
-1
48
1
60
0
100
AcDbTrace
10
79.5
20
-25.163657
30
0
11
79.5
21
-23.99699
31
0
12
83
22
-24.580323
32
0
13
83
23
-24.580323
33
0
39
0
210
0
220
0
230
1
0
SOLID
5
253
100
AcDbEntity
8
0
62
256
6
ByLayer
370
-1
48
1
60
0
100
AcDbTrace
10
39.75
20
-23.99699
30
0
11
39.75
21
-25.163657
31
0
12
36.25
22
-24.580323
32
0
13
36.25
23
-24.580323
33
0
39
0
210
0
220
0
230
1
0
MTEXT
5
254
100
AcDbEntity
8
0
62
256
6
ByLayer
370
18
48
1
60
0
100
AcDbMText
10
59.625
20
-18.580323
30
0
210
0
220
0
230
1
1
\A1;46.8
40
3
41
0
44
1
50
0
71
5
72
5
7
iso_b_vert
0
POINT
5
255
100
AcDbEntity
8
Defpoints
62
0
6
ByLayer
370
-1
48
1
60
0
100
AcDbPoint
10
83
20
-6.080323
30
0
39
0
210
0
220
0
230
1
50
360
0
POINT
5
256
100
AcDbEntity
8
Defpoints
62
0
6
ByLayer
370
-1
48
1
60
0
100
AcDbPoint
10
36.25
20
0
30
0
39
0
210
0
220
0
230
1
50
360
0
POINT
5
257
100
AcDbEntity
8
Defpoints
62
0
6
ByLayer
370
-1
48
1
60
0
100
AcDbPoint
10
36.25
20
-24.580323
30
0
39
0
210
0
220
0
230
1
50
360
0
ENDBLK
5
24E
100
AcDbEntity
8
0
100
AcDbBlockEnd
0
BLOCK
5
25F
100
AcDbEntity
8
0
100
AcDbBlockBegin
2
_U4
70
0
10
0
20
0
30
0
3
_U4
0
MTEXT
5
259
100
AcDbEntity
8
2
62
256
6
ByLayer
370
18
48
1
60
0
100
AcDbMText
10
56.105601
20
-23.695209
30
0
210
0
220
0
230
1
1
\W0.7640;46.8
40
3
41
0
44
1.084337
50
0
71
7
72
5
7
iso_b_vert
0
LINE
5
25A
100
AcDbEntity
8
2
62
256
6
ByLayer
370
13
48
1
60
0
100
AcDbLine
10
83
20
-7.667823
30
0
11
83
21
-26.580323
31
0
39
0
210
0
220
0
230
1
0
LINE
5
25B
100
AcDbEntity
8
2
62
256
6
ByLayer
370
13
48
1
60
0
100
AcDbLine
10
36.25
20
-1.5875
30
0
11
36.25
21
-26.580323
31
0
39
0
210
0
220
0
230
1
0
LINE
5
25C
100
AcDbEntity
8
2
62
256
6
ByLayer
370
13
48
1
60
0
100
AcDbLine
10
83
20
-24.580323
30
0
11
36.25
21
-24.580323
31
0
39
0
210
0
220
0
230
1
0
SOLID
5
25D
100
AcDbEntity
8
2
62
256
6
ByLayer
370
18
48
1
60
0
100
AcDbTrace
10
83
20
-24.580323
30
0
11
79.500002
21
-25.041107
31
0
12
79.499998
22
-24.119539
32
0
13
79.499998
23
-24.119539
33
0
39
0
210
0
220
0
230
1
0
SOLID
5
25E
100
AcDbEntity
8
2
62
256
6
ByLayer
370
18
48
1
60
0
100
AcDbTrace
10
36.25
20
-24.580323
30
0
11
39.749998
21
-24.119539
31
0
12
39.750002
22
-25.041107
32
0
13
39.750002
23
-25.041107
33
0
39
0
210
0
220
0
230
1
0
ENDBLK
5
260
100
AcDbEntity
8
0
100
AcDbBlockEnd
0
ENDSEC
0
SECTION
2
ENTITIES
0
ARC
5
C5
100
AcDbEntity
8
SK1
62
256
6
ByLayer
370
18
48
1
60
0
100
AcDbCircle
39
0
10
-20.5
20
0
30
0
40
4.3200000000001
210
0
220
0
230
1
100
AcDbArc
50
324.114028
51
35.885972
0
ARC
5
C6
100
AcDbEntity
8
1
62
256
6
ByLayer
370
18
48
1
60
0
100
AcDbCircle
39
0
10
65.077237
20
-5.75
30
0
40
1.4
210
0
220
0
230
1
100
AcDbArc
50
30
51
90
0
ARC
5
C7
100
AcDbEntity
8
1
62
256
6
ByLayer
370
18
48
1
60
0
100
AcDbCircle
39
0
10
28.653835
20
-5.85
30
0
40
1.5
210
0
220
0
230
1
100
AcDbArc
50
90
51
115.841933
0
ARC
5
C8
100
AcDbEntity
8
1
62
256
6
ByLayer
370
18
48
1
60
0
100
AcDbCircle
39
0
10
28.653835
20
5.85
30
0
40
1.5
210
0
220
0
230
1
100
AcDbArc
50
244.158067
51
270
0
POINT
5
70
100
AcDbEntity
8
81
62
256
6
ByLayer
370
18
48
1
60
0
100
AcDbPoint
10
83
20
0
30
0
39
0
210
0
220
0
230
1
50
360
0
POINT
5
72
100
AcDbEntity
8
80
62
256
6
ByLayer
370
18
48
1
60
0
100
AcDbPoint
10
0
20
0
30
0
39
0
210
0
220
0
230
1
50
360
0
POINT
5
74
100
AcDbEntity
8
1
62
256
6
ByLayer
370
18
48
1
60
1
100
AcDbPoint
10
83
20
6.080323
30
0
39
0
210
0
220
0
230
1
50
360
0
POINT
5
76
100
AcDbEntity
8
1
62
256
6
ByLayer
370
18
48
1
60
1
100
AcDbPoint
10
83
20
-6.080323
30
0
39
0
210
0
220
0
230
1
50
360
0
POINT
5
77
100
AcDbEntity
8
1
62
256
6
ByLayer
370
18
48
1
60
1
100
AcDbPoint
10
83
20
6.080323
30
0
39
0
210
0
220
0
230
1
50
360
0
POINT
5
78
100
AcDbEntity
8
1
62
256
6
ByLayer
370
18
48
1
60
1
100
AcDbPoint
10
78.19
20
0
30
0
39
0
210
0
220
0
230
1
50
360
0
POINT
5
79
100
AcDbEntity
8
1
62
256
6
ByLayer
370
18
48
1
60
1
100
AcDbPoint
10
83
20
-6.080323
30
0
39
0
210
0
220
0
230
1
50
360
0
POINT
5
7A
100
AcDbEntity
8
1
62
256
6
ByLayer
370
18
48
1
60
1
100
AcDbPoint
10
67
20
-6.080323
30
0
39
0
210
0
220
0
230
1
50
360
0
POINT
5
7B
100
AcDbEntity
8
1
62
256
6
ByLayer
370
18
48
1
60
1
100
AcDbPoint
10
83
20
-6.080323
30
0
39
0
210
0
220
0
230
1
50
360
0
POINT
5
7C
100
AcDbEntity
8
1
62
256
6
ByLayer
370
18
48
1
60
1
100
AcDbPoint
10
28
20
-4.35
30
0
39
0
210
0
220
0
230
1
50
360
0
POINT
5
7D
100
AcDbEntity
8
1
62
256
6
ByLayer
370
18
48
1
60
1
100
AcDbPoint
10
83
20
-6.080323
30
0
39
0
210
0
220
0
230
1
50
360
0
POINT
5
7E
100
AcDbEntity
8
1
62
256
6
ByLayer
370
18
48
1
60
1
100
AcDbPoint
10
36.25
20
0
30
0
39
0
210
0
220
0
230
1
50
360
0
SPLINE
5
C9
100
AcDbEntity
8
1
62
256
6
ByLayer
370
13
48
1
60
0
100
AcDbSpline
70
4
71
3
72
8
73
4
40
0
40
0
40
0
40
0
40
1
40
1
40
1
40
1
41
1
10
69.8540395774639
20
5.08698761096417
30
0
41
1
10
69.8505660792592
20
5.08161853764435
30
0
41
1
10
69.847102880665
20
5.075092223811
30
0
41
1
10
69.8436512379342
20
5.06742321130858
30
0
0
SPLINE
5
CA
100
AcDbEntity
8
1
62
256
6
ByLayer
370
13
48
1
60
0
100
AcDbSpline
70
4
71
3
72
8
73
4
40
0
40
0
40
0
40
0
40
1
40
1
40
1
40
1
41
1.04
10
68.5926843256736
20
-5.08035023885297
30
0
41
1.04
10
68.5869811414674
20
-5.09084247523946
30
0
41
1.04
10
68.5812883833007
20
-5.09814058546439
30
0
41
1.04
10
68.5756047250676
20
-5.1022617946894
30
0
0
SPLINE
5
CB
100
AcDbEntity
8
1
62
256
6
ByLayer
370
18
48
1
60
0
100
AcDbSpline
70
4
71
3
72
8
73
4
40
0
40
0
40
0
40
0
40
1
40
1
40
1
40
1
41
1
10
80.7070215347703
20
-5.31440833309102
30
0
41
1
10
80.703030316673
20
-5.32129186767091
30
0
41
1
10
80.6990505480728
20
-5.32658286795038
30
0
41
1
10
80.695080806768
20
-5.33028649109136
30
0
0
SPLINE
5
CC
100
AcDbEntity
8
1
62
256
6
ByLayer
370
18
48
1
60
0
100
AcDbSpline
70
4
71
3
72
8
73
4
40
0
40
0
40
0
40
0
40
1
40
1
40
1
40
1
41
1
10
79.7425019053412
20
-5.53810727775442
30
0
41
1
10
79.7459917120545
20
-5.54683537492465
30
0
41
1
10
79.7494850688402
20
-5.55421924857421
30
0
41
1
10
79.7529788000751
20
-5.56026242296136
30
0
0
SPLINE
5
CD
100
AcDbEntity
8
1
62
256
6
ByLayer
370
13
48
1
60
0
100
AcDbSpline
70
4
71
3
72
8
73
4
40
0
40
0
40
0
40
0
40
1
40
1
40
1
40
1
41
1.04
10
71.2326937297999
20
5.04583838488576
30
0
41
1.04
10
71.2270694732312
20
5.06175613409857
30
0
41
1.04
10
71.2214423658444
20
5.07459177430436
30
0
41
1.04
10
71.2158111892874
20
5.08429435637034
30
0
0
SPLINE
5
CE
100
AcDbEntity
8
1
62
256
6
ByLayer
370
13
48
1
60
0
100
AcDbSpline
70
4
71
3
72
9
73
5
40
0
40
0
40
0
40
0
40
0.49158889356775
40
1
40
1
40
1
40
1
41
1
10
79.4768517171396
20
-5.08414205866259
30
0
41
1
10
79.4738315054385
20
-5.07893767915704
30
0
41
1
10
79.4676834906955
20
-5.06651740175494
30
0
41
1
10
79.4615269939756
20
-5.05035617354926
30
0
41
1
10
79.4583944493545
20
-5.04117462884966
30
0
0
SPLINE
5
CF
100
AcDbEntity
8
1
62
256
6
ByLayer
370
18
48
1
60
0
100
AcDbSpline
70
4
71
3
72
8
73
4
40
0
40
0
40
0
40
0
40
1
40
1
40
1
40
1
41
1
10
67.2421539119149
20
-5.10232701332049
30
0
41
1
10
67.2381950555295
20
-5.09956788463234
30
0
41
1
10
67.2342220062465
20
-5.09526102103627
30
0
41
1
10
67.2302343800989
20
-5.08937278955634
30
0
0
SPLINE
5
D0
100
AcDbEntity
8
1
62
256
6
ByLayer
370
13
48
1
60
0
100
AcDbSpline
70
4
71
3
72
8
73
4
40
0
40
0
40
0
40
0
40
1
40
1
40
1
40
1
41
1
10
67.230234380099
20
-5.08937278955642
30
0
41
1
10
67.2192447444814
20
-5.07314521054042
30
0
41
1
10
67.2081443950439
20
-5.04490686762762
30
0
41
1
10
67.1969252946649
20
-5.00395376209755
30
0
0
SPLINE
5
D1
100
AcDbEntity
8
1
62
256
6
ByLayer
370
13
48
1
60
0
100
AcDbSpline
70
4
71
3
72
9
73
5
40
0
40
0
40
0
40
0
40
0.946065363878301
40
1
40
1
40
1
40
1
41
1.04
10
66.8408396716339
20
-5.08338039597492
30
0
41
1.04
10
66.808900399864
20
-5.13818823394239
30
0
41
1.04
10
66.7742054636663
20
-5.09249294237572
30
0
41
1.04
10
66.7382823159458
20
-4.91605873047818
30
0
41
1.04
10
66.7363413455813
20
-4.90616333209236
30
0
0
SPLINE
5
D2
100
AcDbEntity
8
1
62
256
6
ByLayer
370
13
48
1
60
0
100
AcDbSpline
70
4
71
3
72
9
73
5
40
0
40
0
40
0
40
0
40
0.648489353344488
40
1
40
1
40
1
40
1
41
1.04
10
79.0909967281749
20
-5.0840841612549
30
0
41
1.04
10
79.0710100320545
20
-5.11857651280954
30
0
41
1.04
10
79.0400331812684
20
-5.11098880886751
30
0
41
1.04
10
79.0088392894533
20
-5.00767241956672
30
0
41
1.04
10
78.997833767255
20
-4.95960593133476
30
0
0
SPLINE
5
D3
100
AcDbEntity
8
1
62
256
6
ByLayer
370
18
48
1
60
0
100
AcDbSpline
70
4
71
3
72
16
73
12
40
0
40
0
40
0
40
0
40
0.164202269180046
40
0.164202269180046
40
0.442801512786696
40
0.442801512786696
40
0.582101134590022
40
0.582101134590022
40
0.721400756393348
40
0.721400756393348
40
1
40
1
40
1
40
1
41
1
10
78.6119747138553
20
-5.8952624772125
30
0
41
1
10
78.6064646629666
20
-5.89673510968638
30
0
41
1
10
78.6009694226882
20
-5.89481168253133
30
0
41
1
10
78.5861418128102
20
-5.88053766222615
30
0
41
1
10
78.5767896051071
20
-5.86187045314651
30
0
41
1
10
78.5624528743995
20
-5.81925695550766
30
0
41
1
10
78.5576266878818
20
-5.80255525542836
30
0
41
1
10
78.548016855574
20
-5.76439909919699
30
0
41
1
10
78.5432248335801
20
-5.74292741488895
30
0
41
1
10
78.5289157146517
20
-5.67131821369671
30
0
41
1
10
78.5194734720025
20
-5.613994027019
30
0
41
1
10
78.5100982567031
20
-5.54697291711116
30
0
0
SPLINE
5
D4
100
AcDbEntity
8
1
62
256
6
ByLayer
370
18
48
1
60
0
100
AcDbSpline
70
4
71
3
72
17
73
13
40
0
40
0
40
0
40
0
40
0.301909595614782
40
0.301909595614782
40
0.603819191229563
40
0.603819191229563
40
0.754773989036954
40
0.754773989036954
40
0.830251387940648
40
0.830251387940648
40
0.905728786844343
40
1
40
1
40
1
40
1
41
1
10
78.149213488949
20
-5.48963387443712
30
0
41
1
10
78.15861946857
20
-5.56983116231052
30
0
41
1
10
78.1679564732391
20
-5.64043936772546
30
0
41
1
10
78.1864046548024
20
-5.76258805042357
30
0
41
1
10
78.1955182469156
20
-5.81413166717377
30
0
41
1
10
78.2091624609933
20
-5.87701334797435
30
0
41
1
10
78.2137079545117
20
-5.89556549273107
30
0
41
1
10
78.2205580854473
20
-5.91974161056109
30
0
41
1
10
78.2228475024791
20
-5.92719105933384
30
0
41
1
10
78.2274188706034
20
-5.94079544026894
30
0
41
1
10
78.2325608636951
20
-5.95466588820094
30
0
41
1
10
78.2376986936596
20
-5.96535225612314
30
0
41
1
10
78.2405508001106
20
-5.97030690488131
30
0
0
SPLINE
5
D5
100
AcDbEntity
8
1
62
256
6
ByLayer
370
13
48
1
60
0
100
AcDbSpline
70
4
71
3
72
10
73
6
40
0
40
0
40
0
40
0
40
0.0848692868449151
40
0.992187557128492
40
1
40
1
40
1
40
1
41
1
10
77.7277539933735
20
-5.08559334188055
30
0
41
1
10
77.7246560043835
20
-5.08037628184124
30
0
41
1
10
77.6884663273327
20
-5.00844129325267
30
0
41
1
10
77.6523107682719
20
-4.80830252821397
30
0
41
1
10
77.6194221420396
20
-4.53083159169759
30
0
41
1
10
77.6191413871634
20
-4.52845597068918
30
0
0
SPLINE
5
D6
100
AcDbEntity
8
1
62
256
6
ByLayer
370
18
48
1
60
0
100
AcDbSpline
70
4
71
3
72
8
73
4
40
0
40
0
40
0
40
0
40
1
40
1
40
1
40
1
41
1.04
10
77.3367323027492
20
-5.09154857312234
30
0
41
1.04
10
77.332382084273
20
-5.09780555388781
30
0
41
1.04
10
77.328037466735
20
-5.10215673521208
30
0
41
1.04
10
77.3236981898574
20
-5.10462759592156
30
0
0
SPLINE
5
D7
100
AcDbEntity
8
1
62
256
6
ByLayer
370
13
48
1
60
0
100
AcDbSpline
70
4
71
3
72
10
73
6
40
0
40
0
40
0
40
0
40
0.253654964826677
40
0.851098730411459
40
1
40
1
40
1
40
1
41
1.04
10
77.3236973208517
20
-5.10462809072354
30
0
41
1.04
10
77.3095526683007
20
-5.1126814881142
30
0
41
1.04
10
77.2622829510816
20
-5.07266583597791
30
0
41
1.04
10
77.2073747104959
20
-4.7730364438778
30
0
41
1.04
10
77.1666987046508
20
-4.40430045431391
30
0
41
1.04
10
77.1585921869356
20
-4.32529222473807
30
0
0
SPLINE
5
D8
100
AcDbEntity
8
1
62
256
6
ByLayer
370
18
48
1
60
0
100
AcDbSpline
70
4
71
3
72
8
73
4
40
0
40
0
40
0
40
0
40
1
40
1
40
1
40
1
41
1
10
75.9710434824488
20
-5.07358536391516
30
0
41
1
10
75.9665717956361
20
-5.06412908935289
30
0
41
1
10
75.9621250368445
20
-5.05274773874879
30
0
41
1
10
75.9577025483954
20
-5.03952375197082
30
0
0
SPLINE
5
D9
100
AcDbEntity
8
1
62
256
6
ByLayer
370
13
48
1
60
0
100
AcDbSpline
70
4
71
3
72
9
73
5
40
0
40
0
40
0
40
0
40
0.420812545778599
40
1
40
1
40
1
40
1
41
1
10
75.9577025483954
20
-5.03952375197082
30
0
41
1
10
75.9309362743467
20
-4.9594880756334
30
0
41
1
10
75.8694427652169
20
-4.60889896707641
30
0
41
1
10
75.8121463074602
20
-3.98036261657566
30
0
41
1
10
75.7798435348376
20
-3.55483145154747
30
0
0
SPLINE
5
DA
100
AcDbEntity
8
1
62
256
6
ByLayer
370
18
48
1
60
0
100
AcDbSpline
70
4
71
3
72
11
73
7
40
0
40
0
40
0
40
0
40
0.0880378923646364
40
0.47885553352147
40
0.937358481808892
40
1
40
1
40
1
40
1
41
1
10
83
20
0.253336367717338
30
0
41
1
10
83
20
0.168892336918106
30
0
41
1
10
82.9999999999999
20
-0.291669719851115
30
0
41
1
10
83
20
-1.19834188236084
30
0
41
1
10
83
20
-2.01740726248957
30
0
41
1
10
83
20
-2.43790167643701
30
0
41
1
10
83
20
-2.48772582885968
30
0
0
SPLINE
5
DB
100
AcDbEntity
8
1
62
256
6
ByLayer
370
13
48
1
60
0
100
AcDbSpline
70
4
71
3
72
9
73
5
40
0
40
0
40
0
40
0
40
0.379732369339849
40
1
40
1
40
1
40
1
41
1.04
10
75.5245116038184
20
-5.05369405267716
30
0
41
1.04
10
75.4963739012634
20
-4.97886813929573
30
0
41
1.04
10
75.4248661557659
20
-4.58380325225406
30
0
41
1.04
10
75.359018356036
20
-3.81252733735604
30
0
41
1.04
10
75.3193421841599
20
-3.25042336371919
30
0
0
SPLINE
5
DC
100
AcDbEntity
8
1
62
256
6
ByLayer
370
13
48
1
60
0
100
AcDbSpline
70
4
71
3
72
9
73
5
40
0
40
0
40
0
40
0
40
0.834329790993234
40
1
40
1
40
1
40
1
41
1
10
74.1458270325215
20
-4.73380980640846
30
0
41
1
10
74.0900129663167
20
-4.34851905044789
30
0
41
1
10
74.0226011194078
20
-3.53853698581077
30
0
41
1
10
73.9523160229387
20
-2.41194278519495
30
0
41
1
10
73.9405958365065
20
-2.21815029162514
30
0
0
SPLINE
5
DD
100
AcDbEntity
8
1
62
256
6
ByLayer
370
13
48
1
60
0
100
AcDbSpline
70
4
71
3
72
10
73
6
40
0
40
0
40
0
40
0
40
0.0989046936036017
40
0.763492071649957
40
1
40
1
40
1
40
1
41
1
10
80.8901573988649
20
-1.35252462063244
30
0
41
1
10
80.8832730892373
20
-1.23084907402591
30
0
41
1
10
80.8302139972697
20
-0.283696354817664
30
0
41
1
10
80.7619542521949
20
1.00315551047507
30
0
41
1
10
80.7005143273966
20
2.05246862436295
30
0
41
1
10
80.6845114724652
20
2.31426213562352
30
0
0
SPLINE
5
DE
100
AcDbEntity
8
1
62
256
6
ByLayer
370
18
48
1
60
0
100
AcDbSpline
70
4
71
3
72
10
73
6
40
0
40
0
40
0
40
0
40
0.380275700153101
40
0.760120423195202
40
1
40
1
40
1
40
1
41
1
10
82.4000000627318
20
-2.46833981138116
30
0
41
1
10
82.4000000736422
20
-2.09439476458326
30
0
41
1
10
82.4000000052351
20
-1.29027160102552
30
0
41
1
10
82.3999999198458
20
-0.157366726548503
30
0
41
1
10
82.3999998989532
20
0.540234743937702
30
0
41
1
10
82.3999998942488
20
0.805991065048858
30
0
0
SPLINE
5
DF
100
AcDbEntity
8
1
62
256
6
ByLayer
370
18
48
1
60
0
100
AcDbSpline
70
4
71
3
72
30
73
26
40
0
40
0
40
0
40
0
40
0.125
40
0.125
40
0.249999999999999
40
0.249999999999999
40
0.374999999999999
40
0.374999999999999
40
0.406249999999999
40
0.406249999999999
40
0.437499999999999
40
0.437499999999999
40
0.499999999999999
40
0.499999999999999
40
0.625
40
0.625
40
0.750000000000001
40
0.750000000000001
40
0.812500000000001
40
0.812500000000001
40
0.843750000000001
40
0.843750000000001
40
0.875000000000001
40
0.875000000000001
40
1
40
1
40
1
40
1
41
1
10
80.8053169476759
20
2.33355515544082
30
0
41
1
10
80.814071310511
20
2.18275324912139
30
0
41
1
10
80.8226644069212
20
2.0295065254939
30
0
41
1
10
80.8396949847705
20
1.71828858637517
30
0
41
1
10
80.8481586166206
20
1.5603229653866
30
0
41
1
10
80.8652880173712
20
1.23973165934478
30
0
41
1
10
80.8739300865147
20
1.07710696693903
30
0
41
1
10
80.8848447422104
20
0.870848781823042
30
0
41
1
10
80.8870332001586
20
0.829447856251477
30
0
41
1
10
80.8914212568244
20
0.74634403420032
30
0
41
1
10
80.893622489459
20
0.704610005933318
30
0
41
1
10
80.9002083904082
20
0.579603748888132
30
0
41
1
10
80.9045858124399
20
0.496328996356851
30
0
41
1
10
80.9176748022139
20
0.246690104257624
30
0
41
1
10
80.9263402932282
20
0.0805108642696837
30
0
41
1
10
80.9435311110443
20
-0.251357811048536
30
0
41
1
10
80.9520757084738
20
-0.417047259707346
30
0
41
1
10
80.9649712111478
20
-0.665206144286003
30
0
41
1
10
80.9692822900149
20
-0.747863112005263
30
0
41
1
10
80.9757822998623
20
-0.871752530851239
30
0
41
1
10
80.9779545008214
20
-0.913032990860017
30
0
41
1
10
80.9823119604166
20
-0.995561451297732
30
0
41
1
10
80.9844992852507
20
-1.03684373375177
30
0
41
1
10
80.995446975914
20
-1.24275401616316
30
0
41
1
10
81.0041908573868
20
-1.40528884723921
30
0
41
1
10
81.0128980499866
20
-1.56564616858464
30
0
0
SPLINE
5
E0
100
AcDbEntity
8
1
62
256
6
ByLayer
370
13
48
1
60
0
100
AcDbSpline
70
4
71
3
72
10
73
6
40
0
40
0
40
0
40
0
40
0.648087420715946
40
0.982633270057545
40
1
40
1
40
1
40
1
41
1.04
10
80.4295534403407
20
-0.953629006421699
30
0
41
1.04
10
80.3844859314453
20
-0.142482825686039
30
0
41
1.04
10
80.3171714735962
20
1.1249460352829
30
0
41
1.04
10
80.2487510547419
20
2.28234313306922
30
0
41
1.04
10
80.225058338545
20
2.65383675745053
30
0
41
1.04
10
80.2238900411452
20
2.67208203981624
30
0
0
SPLINE
5
E1
100
AcDbEntity
8
1
62
256
6
ByLayer
370
13
48
1
60
0
100
AcDbSpline
70
4
71
3
72
9
73
5
40
0
40
0
40
0
40
0
40
0.52630442974388
40
1
40
1
40
1
40
1
41
1.04
10
78.5901609244264
20
0.677470805161398
30
0
41
1.04
10
78.5550940302193
20
1.31503416474024
30
0
41
1.04
10
78.4879848099306
20
2.5045715553487
30
0
41
1.04
10
78.4182688292191
20
3.50883177008874
30
0
41
1.04
10
78.3846240504624
20
3.90636432243246
30
0
0
SPLINE
5
E2
100
AcDbEntity
8
1
62
256
6
ByLayer
370
13
48
1
60
0
100
AcDbSpline
70
4
71
3
72
9
73
5
40
0
40
0
40
0
40
0
40
0.640178323418593
40
1
40
1
40
1
40
1
41
1
10
79.0507568699944
20
0.269534123930242
30
0
41
1
10
79.0079378336179
20
1.05372291840465
30
0
41
1
10
78.9407056484363
20
2.2713889862633
30
0
41
1
10
78.8708332392558
20
3.29958402879728
30
0
41
1
10
78.8453338162973
20
3.62868058485887
30
0
0
SPLINE
5
E3
100
AcDbEntity
8
1
62
256
6
ByLayer
370
18
48
1
60
0
100
AcDbSpline
70
4
71
3
72
30
73
26
40
0
40
0
40
0
40
0
40
0.125000000000001
40
0.125000000000001
40
0.250000000000001
40
0.250000000000001
40
0.312500000000002
40
0.312500000000002
40
0.343750000000002
40
0.343750000000002
40
0.375000000000002
40
0.375000000000002
40
0.500000000000001
40
0.500000000000001
40
0.625
40
0.625
40
0.749999999999999
40
0.749999999999999
40
0.781249999999999
40
0.781249999999999
40
0.812499999999999
40
0.812499999999999
40
0.875
40
0.875
40
1
40
1
40
1
40
1
41
1
10
79.2118940900067
20
3.86994986408669
30
0
41
1
10
79.2208990890379
20
3.73187177106721
30
0
41
1
10
79.2297809937827
20
3.58835643716796
30
0
41
1
10
79.2476063258015
20
3.29087551294069
30
0
41
1
10
79.256531220628
20
3.13689184569083
30
0
41
1
10
79.2699628547881
20
2.89783504905228
30
0
41
1
10
79.2744510079741
20
2.81680064174918
30
0
41
1
10
79.2812080269632
20
2.69318342519949
30
0
41
1
10
79.2834640744153
20
2.65163335950697
30
0
41
1
10
79.2879835926703
20
2.5678362960526
30
0
41
1
10
79.2902502157191
20
2.52552970461573
30
0
41
1
10
79.3015501438752
20
2.31322632120046
30
0
41
1
10
79.3104887358834
20
2.1406711104942
30
0
41
1
10
79.3282965812028
20
1.79035424969967
30
0
41
1
10
79.3371781406824
20
1.61259895108958
30
0
41
1
10
79.3550567795813
20
1.25196591317979
30
0
41
1
10
79.3640531330277
20
1.06908842398286
30
0
41
1
10
79.3754335319999
20
0.837210775801026
30
0
41
1
10
79.3777162452035
20
0.790670702926747
30
0
41
1
10
79.3822961063083
20
0.697257396799671
30
0
41
1
10
79.3845944323238
20
0.65036008390291
30
0
41
1
10
79.3914814698835
20
0.509796503561716
30
0
41
1
10
79.3960721013551
20
0.416059338683596
30
0
41
1
10
79.4098480626055
20
0.134764153093727
30
0
41
1
10
79.4190421949782
20
-0.052877535338439
30
0
41
1
10
79.4281817827464
20
-0.240634273396324
30
0
0
SPLINE
5
E4
100
AcDbEntity
8
1
62
256
6
ByLayer
370
18
48
1
60
0
100
AcDbSpline
70
4
71
3
72
29
73
25
40
0
40
0
40
0
40
0
40
0.125000000000001
40
0.125000000000001
40
0.250000000000001
40
0.250000000000001
40
0.375000000000002
40
0.375000000000002
40
0.406250000000002
40
0.406250000000002
40
0.437500000000002
40
0.500000000000002
40
0.500000000000002
40
0.625000000000002
40
0.625000000000002
40
0.750000000000002
40
0.750000000000002
40
0.812500000000002
40
0.812500000000002
40
0.843750000000002
40
0.843750000000002
40
0.875000000000002
40
0.875000000000002
40
1
40
1
40
1
40
1
41
1
10
80.1856641502841
20
-0.909978231292996
30
0
41
1
10
80.1764790455134
20
-0.733980193373128
30
0
41
1
10
80.1672970674638
20
-0.557734927712914
30
0
41
1
10
80.1489966777721
20
-0.204756364035063
30
0
41
1
10
80.1398922179324
20
-0.0280216758590939
30
0
41
1
10
80.1218373580614
20
0.325948273418021
30
0
41
1
10
80.1128550901392
20
0.503180296539512
30
0
41
1
10
80.1015236035643
20
0.725025143248388
30
0
41
1
10
80.099249169897
20
0.769468609594611
30
0
41
1
10
80.0947031773662
20
0.858060550936187
30
0
41
1
10
80.0878914227684
20
0.990451117534093
30
0
41
1
10
80.0810858610014
20
1.12136896710632
30
0
41
1
10
80.0674485636314
20
1.38127400983544
30
0
41
1
10
80.058305208704
20
1.55197624674662
30
0
41
1
10
80.0398857252253
20
1.88826876334213
30
0
41
1
10
80.0306627437188
20
2.05385630137064
30
0
41
1
10
80.0169908961253
20
2.29827104550716
30
0
41
1
10
80.0124562992648
20
2.37908125374693
30
0
41
1
10
80.0056695047968
20
2.49928583621124
30
0
41
1
10
80.0034069969499
20
2.5392294983609
30
0
41
1
10
79.9988952175032
20
2.61851267898592
30
0
41
1
10
79.9966459470685
20
2.65785258087365
30
0
41
1
10
79.9854114368113
20
2.85305699450984
30
0
41
1
10
79.9764263671336
20
3.00444641519059
30
0
41
1
10
79.9673123749911
20
3.15116425603554
30
0
0
SPLINE
5
E5
100
AcDbEntity
8
1
62
256
6
ByLayer
370
13
48
1
60
0
100
AcDbSpline
70
4
71
3
72
10
73
6
40
0
40
0
40
0
40
0
40
0.180310993767528
40
0.659196968256412
40
1
40
1
40
1
40
1
41
1
10
72.3064246723071
20
-3.88696327527418
30
0
41
1
10
72.293605816661
20
-3.73437028279244
30
0
41
1
10
72.2471906863098
20
-3.13656370689875
30
0
41
1
10
72.1787553909705
20
-2.04846545354991
30
0
41
1
10
72.1239975595031
20
-1.06807601879635
30
0
41
1
10
72.1014308499571
20
-0.657483274995485
30
0
0
SPLINE
5
E6
100
AcDbEntity
8
1
62
256
6
ByLayer
370
13
48
1
60
0
100
AcDbSpline
70
4
71
3
72
9
73
5
40
0
40
0
40
0
40
0
40
0.722251565910769
40
1
40
1
40
1
40
1
41
1.04
10
73.6852039392814
20
-4.56411151243218
30
0
41
1.04
10
73.6371095604692
20
-4.16740525528485
30
0
41
1.04
10
73.5698549734014
20
-3.33061841463022
30
0
41
1.04
10
73.4997688226013
20
-2.18022121690539
30
0
41
1.04
10
73.4800970646944
20
-1.84358959607133
30
0
0
SPLINE
5
E7
100
AcDbEntity
8
1
62
256
6
ByLayer
370
18
48
1
60
0
100
AcDbSpline
70
4
71
3
72
10
73
6
40
0
40
0
40
0
40
0
40
0.5
40
0.5
40
1
40
1
40
1
40
1
41
1
10
78.8453338162982
20
3.62868058484798
30
0
41
1
10
78.9070724815302
20
3.67477292713841
30
0
41
1
10
78.968445529861
20
3.71787702152659
30
0
41
1
10
79.0905966652633
20
3.79825832148478
30
0
41
1
10
79.1514147926115
20
3.83556314298886
30
0
41
1
10
79.2118940900067
20
3.86994986408672
30
0
0
SPLINE
5
E8
100
AcDbEntity
8
1
62
256
6
ByLayer
370
18
48
1
60
0
100
AcDbSpline
70
4
71
3
72
10
73
6
40
0
40
0
40
0
40
0
40
0.5
40
0.5
40
1
40
1
40
1
40
1
41
1
10
79.2118940900067
20
3.86994986408669
30
0
41
1
10
79.3371094155695
20
3.75286646049301
30
0
41
1
10
79.462599072174
20
3.63431909894237
30
0
41
1
10
79.7143430481534
20
3.3946296145123
30
0
41
1
10
79.8405893939212
20
3.2734905018782
30
0
41
1
10
79.9673123749911
20
3.15116425603549
30
0
0
SPLINE
5
E9
100
AcDbEntity
8
1
62
256
6
ByLayer
370
18
48
1
60
0
100
AcDbSpline
70
4
71
3
72
8
73
4
40
0
40
0
40
0
40
0
40
1
40
1
40
1
40
1
41
1
10
79.9673123749911
20
3.15116425603549
30
0
41
1
10
80.052271084431
20
2.98889308367478
30
0
41
1
10
80.1377375623352
20
2.82916100107806
30
0
41
1
10
80.2238900411452
20
2.67208203981627
30
0
0
SPLINE
5
EA
100
AcDbEntity
8
1
62
256
6
ByLayer
370
18
48
1
60
0
100
AcDbSpline
70
4
71
3
72
32
73
28
40
0
40
0
40
0
40
0
40
0.124999999999997
40
0.124999999999997
40
0.187499999999977
40
0.187499999999977
40
0.249999999999957
40
0.249999999999957
40
0.374999999999959
40
0.374999999999959
40
0.437499999999959
40
0.437499999999959
40
0.49999999999996
40
0.49999999999996
40
0.625000000000006
40
0.625000000000006
40
0.687500000000005
40
0.687500000000005
40
0.750000000000004
40
0.750000000000004
40
0.812500000000003
40
0.812500000000003
40
0.875000000000002
40
0.875000000000002
40
0.937500000000001
40
0.937500000000001
40
1
40
1
40
1
40
1
41
1
10
80.2238900411452
20
2.67208203981625
30
0
41
1
10
80.2368741360613
20
2.6484085695862
30
0
41
1
10
80.2519871737521
20
2.62535583561268
30
0
41
1
10
80.2770013972726
20
2.59147477773595
30
0
41
1
10
80.2857409840104
20
2.5803002025001
30
0
41
1
10
80.3039708025543
20
2.55817310794885
30
0
41
1
10
80.3133238139688
20
2.54738730457115
30
0
41
1
10
80.3419700816212
20
2.51582749715416
30
0
41
1
10
80.3618658015046
20
2.49581515180628
30
0
41
1
10
80.3927773358039
20
2.4671873545426
30
0
41
1
10
80.4032937060181
20
2.45785162837822
30
0
41
1
10
80.424538267868
20
2.43977792446211
30
0
41
1
10
80.4351954042616
20
2.43109777278522
30
0
41
1
10
80.4672549701711
20
2.40610003227025
30
0
41
1
10
80.4887448872196
20
2.39080914125853
30
0
41
1
10
80.5211058083655
20
2.37009330848303
30
0
41
1
10
80.5319677762549
20
2.36353210546631
30
0
41
1
10
80.5534497395257
20
2.35139924550563
30
0
41
1
10
80.5640363112574
20
2.3458416583041
30
0
41
1
10
80.584865118498
20
2.33582071423561
30
0
41
1
10
80.5951077371378
20
2.33135615147506
30
0
41
1
10
80.6151906309269
20
2.3236745465758
30
0
41
1
10
80.6250817394535
20
2.32044955670992
30
0
41
1
10
80.6438388419903
20
2.31563870964783
30
0
41
1
10
80.652762094144
20
2.31402338719727
30
0
41
1
10
80.6695462752153
20
2.31264104015995
30
0
41
1
10
80.6774501786512
20
2.31288611475418
30
0
41
1
10
80.6845114724652
20
2.31426213562298
30
0
0
SPLINE
5
EB
100
AcDbEntity
8
1
62
256
6
ByLayer
370
18
48
1
60
0
100
AcDbSpline
70
4
71
3
72
8
73
4
40
0
40
0
40
0
40
0
40
1
40
1
40
1
40
1
41
1
10
80.6845114724652
20
2.31426213562352
30
0
41
1
10
80.7249377473545
20
2.32213992677077
30
0
41
1
10
80.7651983168508
20
2.32855270397047
30
0
41
1
10
80.8053169476759
20
2.33355515544082
30
0
0
SPLINE
5
EC
100
AcDbEntity
8
1
62
256
6
ByLayer
370
18
48
1
60
0
100
AcDbSpline
70
4
71
3
72
19
73
15
40
0
40
0
40
0
40
0
40
0.250000000000003
40
0.250000000000003
40
0.312500000000007
40
0.312500000000007
40
0.375000000000012
40
0.500000000000007
40
0.500000000000007
40
0.749999999999996
40
0.749999999999996
40
0.874999999999998
40
0.874999999999998
40
1
40
1
40
1
40
1
41
1
10
80.8053169476759
20
2.33355515544082
30
0
41
1
10
80.9348117597369
20
2.20620989828018
30
0
41
1
10
81.0653242407638
20
2.0781008787595
30
0
41
1
10
81.2301882615505
20
1.91740287591105
30
0
41
1
10
81.2632514017635
20
1.88522532723203
30
0
41
1
10
81.3293929794733
20
1.82096291490936
30
0
41
1
10
81.4286845015534
20
1.72465461748098
30
0
41
1
10
81.5282222723521
20
1.62861145410775
30
0
41
1
10
81.727666150247
20
1.43692061424591
30
0
41
1
10
81.8611292458877
20
1.30966393070491
30
0
41
1
10
82.0622754727337
20
1.11979580383524
30
0
41
1
10
82.129456608317
20
1.05664830226846
30
0
41
1
10
82.2643315161772
20
0.930898152995923
30
0
41
1
10
82.3320276178385
20
0.868297956711103
30
0
41
1
10
82.3999998942488
20
0.805991065048971
30
0
0
SPLINE
5
ED
100
AcDbEntity
8
1
62
256
6
ByLayer
370
18
48
1
60
0
100
AcDbSpline
70
4
71
3
72
14
73
10
40
0
40
0
40
0
40
0
40
0.25
40
0.25
40
0.5
40
0.5
40
0.75
40
0.75
40
1
40
1
40
1
40
1
41
1
10
82.3999998942488
20
0.805991065049
30
0
41
1
10
82.4475434614632
20
0.752211541373754
30
0
41
1
10
82.4956160962253
20
0.700167963196094
30
0
41
1
10
82.593011799991
20
0.599740362313128
30
0
41
1
10
82.6423755242532
20
0.551314798173934
30
0
41
1
10
82.7423534372589
20
0.45853799848183
30
0
41
1
10
82.7929575709378
20
0.414195996515105
30
0
41
1
10
82.8955085342321
20
0.330109658218049
30
0
41
1
10
82.9473799448943
20
0.290424500556554
30
0
41
1
10
83
20
0.25333636771731
30
0
0
SPLINE
5
EE
100
AcDbEntity
8
1
62
256
6
ByLayer
370
18
48
1
60
0
100
AcDbSpline
70
4
71
3
72
57
73
53
40
0
40
0
40
0
40
0
40
0.0312500000000011
40
0.0312500000000011
40
0.0468750000000014
40
0.0468750000000014
40
0.0546875000000018
40
0.0546875000000018
40
0.0625000000000022
40
0.0937500000000028
40
0.0937500000000028
40
0.125000000000003
40
0.125000000000003
40
0.140625000000004
40
0.140625000000004
40
0.156250000000004
40
0.156250000000004
40
0.187500000000004
40
0.187500000000004
40
0.250000000000005
40
0.250000000000005
40
0.281250000000005
40
0.281250000000005
40
0.312500000000005
40
0.312500000000005
40
0.375000000000005
40
0.500000000000005
40
0.500000000000005
40
0.562500000000005
40
0.562500000000005
40
0.593750000000005
40
0.593750000000005
40
0.625000000000005
40
0.625000000000005
40
0.750000000000005
40
0.750000000000005
40
0.781250000000005
40
0.781250000000005
40
0.789062500000005
40
0.789062500000005
40
0.796875000000005
40
0.796875000000005
40
0.812500000000004
40
0.812500000000004
40
0.875000000000003
40
0.875000000000003
40
0.906250000000002
40
0.906250000000002
40
0.921875000000002
40
0.921875000000002
40
0.937500000000001
40
1
40
1
40
1
40
1
41
1
10
83
20
0.253336367717282
30
0
41
1
10
83.0000000000001
20
0.256298373050271
30
0
41
1
10
83
20
0.261681082942346
30
0
41
1
10
83
20
0.273556256117445
30
0
41
1
10
83
20
0.278149631905166
30
0
41
1
10
83
20
0.286028489869636
30
0
41
1
10
83.0000000000001
20
0.288824955853329
30
0
41
1
10
83.0000000000001
20
0.294725706671613
30
0
41
1
10
83
20
0.310239819022684
30
0
41
1
10
83
20
0.329488069752813
30
0
41
1
10
83
20
0.364869497572187
30
0
41
1
10
83
20
0.384843496804621
30
0
41
1
10
83
20
0.418246228285852
30
0
41
1
10
83
20
0.429948701488115
30
0
41
1
10
83
20
0.453648545455508
30
0
41
1
10
83
20
0.465747594883282
30
0
41
1
10
83
20
0.502839529351263
30
0
41
1
10
83.0000000000001
20
0.528610339821114
30
0
41
1
10
83.0000000000001
20
0.609033585466079
30
0
41
1
10
83
20
0.666790738272226
30
0
41
1
10
83
20
0.759715500718187
30
0
41
1
10
83
20
0.791767968264196
30
0
41
1
10
83
20
0.857890506945637
30
0
41
1
10
83
20
0.891831983015493
30
0
41
1
10
83
20
0.996270337246415
30
0
41
1
10
83
20
1.21557376109115
30
0
41
1
10
83
20
1.46528761695532
30
0
41
1
10
83
20
1.73536943151029
30
0
41
1
10
83
20
1.82878785483348
30
0
41
1
10
83
20
1.97415463771372
30
0
41
1
10
83
20
2.02355822820942
30
0
41
1
10
83
20
2.12349976124679
30
0
41
1
10
83.0000000000001
20
2.17409291953004
30
0
41
1
10
83.0000000000001
20
2.43013082245432
30
0
41
1
10
83.0000000000001
20
2.64475385789419
30
0
41
1
10
83
20
2.92530325559801
30
0
41
1
10
83
20
2.98202087325481
30
0
41
1
10
83
20
3.05371407032086
30
0
41
1
10
83
20
3.0680937734509
30
0
41
1
10
83
20
3.09691474815554
30
0
41
1
10
83
20
3.1113608070446
30
0
41
1
10
83
20
3.15482745620054
30
0
41
1
10
83
20
3.18400032275713
30
0
41
1
10
83
20
3.33084484716821
30
0
41
1
10
83
20
3.45144298357855
30
0
41
1
10
83
20
3.63688964518929
30
0
41
1
10
83
20
3.69947217916024
30
0
41
1
10
83
20
3.79453214267167
30
0
41
1
10
83
20
3.82649118905954
30
0
41
1
10
83
20
3.8904038147866
30
0
41
1
10
83
20
4.05001207528784
30
0
41
1
10
83.0000000000001
20
4.20876811804172
30
0
41
1
10
83
20
4.33524001579977
30
0
0
SPLINE
5
EF
100
AcDbEntity
8
1
62
256
6
ByLayer
370
18
48
1
60
0
100
AcDbSpline
70
4
71
3
72
12
73
8
40
0
40
0
40
0
40
0
40
0.500000000000013
40
0.500000000000013
40
0.750000000000007
40
0.750000000000007
40
1
40
1
40
1
40
1
41
1
10
83
20
4.33524001579946
30
0
41
1
10
82.9020374098926
20
4.43789292883233
30
0
41
1
10
82.802988041988
20
4.53984744258929
30
0
41
1
10
82.652940992577
20
4.69215501062803
30
0
41
1
10
82.6026862705965
20
4.74281350025171
30
0
41
1
10
82.5017026194232
20
4.84399753174776
30
0
41
1
10
82.4509838519379
20
4.89451215579606
30
0
41
1
10
82.4000000627318
20
4.9450359377542
30
0
0
SPLINE
5
F0
100
AcDbEntity
8
1
62
256
6
ByLayer
370
18
48
1
60
0
100
AcDbSpline
70
4
71
3
72
10
73
6
40
0
40
0
40
0
40
0
40
0.5
40
0.5
40
1
40
1
40
1
40
1
41
1
10
82.4000000627318
20
4.94503593775414
30
0
41
1
10
82.3413382370369
20
4.96014412114798
30
0
41
1
10
82.2828194889127
20
4.97456151627682
30
0
41
1
10
82.1662364016647
20
5.00195999141275
30
0
41
1
10
82.1081642717872
20
5.01494242891778
30
0
41
1
10
82.0502909809977
20
5.02720826158008
30
0
0
SPLINE
5
F1
100
AcDbEntity
8
1
62
256
6
ByLayer
370
18
48
1
60
0
100
AcDbSpline
70
4
71
3
72
28
73
24
40
0
40
0
40
0
40
0
40
0.125
40
0.125
40
0.249999999999999
40
0.249999999999999
40
0.374999999999999
40
0.374999999999999
40
0.499999999999998
40
0.499999999999998
40
0.624999999999998
40
0.624999999999998
40
0.687499999999998
40
0.687499999999998
40
0.749999999999999
40
0.749999999999999
40
0.812499999999999
40
0.812499999999999
40
0.874999999999999
40
0.874999999999999
40
0.9375
40
0.9375
40
1
40
1
40
1
40
1
41
1
10
82.0502909809977
20
5.02720826158
30
0
41
1
10
82.0360520254214
20
5.01572640013614
30
0
41
1
10
82.0211041454097
20
5.00580095701187
30
0
41
1
10
81.9901194371223
20
4.98880357108516
30
0
41
1
10
81.9740553967847
20
4.98171499795669
30
0
41
1
10
81.9408234828793
20
4.97033322301905
30
0
41
1
10
81.9235292706661
20
4.9660328955899
30
0
41
1
10
81.8887494388984
20
4.96062883521438
30
0
41
1
10
81.8711986470277
20
4.95947832425827
30
0
41
1
10
81.8357978146219
20
4.96053631895282
30
0
41
1
10
81.8179481664529
20
4.96273447247941
30
0
41
1
10
81.7909417141444
20
4.96911665876294
30
0
41
1
10
81.7819462336331
20
4.97175849518788
30
0
41
1
10
81.7642449272588
20
4.97808749440918
30
0
41
1
10
81.7555014387105
20
4.9817822791853
30
0
41
1
10
81.7382596998072
20
4.99035731389756
30
0
41
1
10
81.7297611645565
20
4.99523615820218
30
0
41
1
10
81.7130559463763
20
5.00638284831646
30
0
41
1
10
81.7049832426485
20
5.01256546207955
30
0
41
1
10
81.6895501750442
20
5.02621199419053
30
0
41
1
10
81.68217481759
20
5.03368370340323
30
0
41
1
10
81.6682184080291
20
5.05013897088685
30
0
41
1
10
81.6616614200488
20
5.05911399721313
30
0
41
1
10
81.6557443392439
20
5.06872195935
30
0
0
SPLINE
5
F2
100
AcDbEntity
8
1
62
256
6
ByLayer
370
18
48
1
60
0
100
AcDbSpline
70
4
71
3
72
8
73
4
40
0
40
0
40
0
40
0
40
1
40
1
40
1
40
1
41
1
10
81.6557443392439
20
5.06872195935
30
0
41
1
10
81.6485914555621
20
5.08033657774885
30
0
41
1
10
81.6414420029389
20
5.09193532806225
30
0
41
1
10
81.634295919687
20
5.10351816376797
30
0
0
SPLINE
5
F3
100
AcDbEntity
8
1
62
256
6
ByLayer
370
18
48
1
60
0
100
AcDbSpline
70
4
71
3
72
10
73
6
40
0
40
0
40
0
40
0
40
0.5
40
0.5
40
1
40
1
40
1
40
1
41
1
10
81.634295919687
20
5.10351816376797
30
0
41
1
10
81.4397760532518
20
5.13354539494298
30
0
41
1
10
81.2470775210096
20
5.15521058975887
30
0
41
1
10
80.8641160518144
20
5.18156057400225
30
0
41
1
10
80.6738203609849
20
5.18625242402968
30
0
41
1
10
80.4845417532582
20
5.18204300559469
30
0
0
SPLINE
5
F4
100
AcDbEntity
8
1
62
256
6
ByLayer
370
18
48
1
60
0
100
AcDbSpline
70
4
71
3
72
8
73
4
40
0
40
0
40
0
40
0
40
1
40
1
40
1
40
1
41
1
10
80.4845417532582
20
5.18204300559478
30
0
41
1
10
80.4157098703303
20
5.04786034447284
30
0
41
1
10
80.3465807794304
20
4.9121689196198
30
0
41
1
10
80.2770457226418
20
4.77497235787837
30
0
0
SPLINE
5
F5
100
AcDbEntity
8
1
62
256
6
ByLayer
370
18
48
1
60
0
100
AcDbSpline
70
4
71
3
72
32
73
28
40
0
40
0
40
0
40
0
40
0.125000000000008
40
0.125000000000008
40
0.187500000000013
40
0.187500000000013
40
0.250000000000018
40
0.250000000000018
40
0.374999999999992
40
0.374999999999992
40
0.437499999999978
40
0.437499999999978
40
0.499999999999965
40
0.499999999999965
40
0.624999999999937
40
0.624999999999937
40
0.687499999999948
40
0.687499999999948
40
0.749999999999958
40
0.749999999999958
40
0.812499999999969
40
0.812499999999969
40
0.874999999999979
40
0.874999999999979
40
0.93749999999999
40
0.93749999999999
40
1
40
1
40
1
40
1
41
1
10
80.2770457226418
20
4.77497235787911
30
0
41
1
10
80.2645448732233
20
4.75030748179702
30
0
41
1
10
80.2500472725494
20
4.72793301678061
30
0
41
1
10
80.226013051201
20
4.69696959800078
30
0
41
1
10
80.2176090613344
20
4.68708944352582
30
0
41
1
10
80.2000734704521
20
4.66817992166861
30
0
41
1
10
80.1910606725324
20
4.65927774923921
30
0
41
1
10
80.1633547609169
20
4.63408502231619
30
0
41
1
10
80.1440015772956
20
4.61928941355359
30
0
41
1
10
80.1137396672944
20
4.59995759302501
30
0
41
1
10
80.1034449787585
20
4.5939956404134
30
0
41
1
10
80.0824321664096
20
4.58307413597461
30
0
41
1
10
80.0718080733783
20
4.57816657638085
30
0
41
1
10
80.0398306567081
20
4.56522059984746
30
0
41
1
10
80.0182761283947
20
4.55887785020403
30
0
41
1
10
79.9856128411925
20
4.55324057815548
30
0
41
1
10
79.9746693786081
20
4.55201383940909
30
0
41
1
10
79.95266730659
20
4.55105481849739
30
0
41
1
10
79.9416488889434
20
4.5513351907683
30
0
41
1
10
79.9200620972439
20
4.55358099694652
30
0
41
1
10
79.9094306542022
20
4.55553997865169
30
0
41
1
10
79.8885535412339
20
4.56139368837387
30
0
41
1
10
79.8782317657467
20
4.56533273920439
30
0
41
1
10
79.8586349969272
20
4.57530272126775
30
0
41
1
10
79.8493203929757
20
4.58132418184721
30
0
41
1
10
79.8318302439302
20
4.59580784621468
30
0
41
1
10
79.8236384701573
20
4.60432165426107
30
0
41
1
10
79.816403913025
20
4.61403105348504
30
0
0
SPLINE
5
F6
100
AcDbEntity
8
1
62
256
6
ByLayer
370
18
48
1
60
0
100
AcDbSpline
70
4
71
3
72
10
73
6
40
0
40
0
40
0
40
0
40
0.5
40
0.5
40
1
40
1
40
1
40
1
41
1
10
79.816403913025
20
4.61403105348504
30
0
41
1
10
79.7566808157344
20
4.69418459763256
30
0
41
1
10
79.6971931581762
20
4.77234332440233
30
0
41
1
10
79.5786505554588
20
4.92461212720357
30
0
41
1
10
79.5196398072407
20
4.99867366129763
30
0
41
1
10
79.4608893965591
20
5.0706380450676
30
0
0
SPLINE
5
F7
100
AcDbEntity
8
1
62
256
6
ByLayer
370
18
48
1
60
0
100
AcDbSpline
70
4
71
3
72
8
73
4
40
0
40
0
40
0
40
0
40
1
40
1
40
1
40
1
41
1
10
79.4608893965591
20
5.07063804506757
30
0
41
1
10
79.2717172859784
20
5.03324338586398
30
0
41
1
10
79.0848031485056
20
4.9867288307436
30
0
41
1
10
78.899578057354
20
4.93134980822546
30
0
0
SPLINE
5
F8
100
AcDbEntity
8
1
62
256
6
ByLayer
370
18
48
1
60
0
100
AcDbSpline
70
4
71
3
72
12
73
8
40
0
40
0
40
0
40
0
40
0.25
40
0.25
40
0.5
40
0.5
40
1
40
1
40
1
40
1
41
1
10
78.8995780573541
20
4.93134980822532
30
0
41
1
10
78.8615291776642
20
4.850848447917
30
0
41
1
10
78.8233687300327
20
4.77019749594814
30
0
41
1
10
78.746789699354
20
4.6086054620219
30
0
41
1
10
78.7083691592319
20
4.52766188543939
30
0
41
1
10
78.5928734421254
20
4.28483520988107
30
0
41
1
10
78.5155107708544
20
4.12281280887521
30
0
41
1
10
78.4376718563188
20
3.96069768748367
30
0
0
SPLINE
5
F9
100
AcDbEntity
8
1
62
256
6
ByLayer
370
18
48
1
60
0
100
AcDbSpline
70
4
71
3
72
8
73
4
40
0
40
0
40
0
40
0
40
1
40
1
40
1
40
1
41
1
10
78.4376718563189
20
3.96069768748379
30
0
41
1
10
78.425679964439
20
3.93572217209513
30
0
41
1
10
78.4118512595917
20
3.91222845722962
30
0
41
1
10
78.3966025205688
20
3.88987532357001
30
0
0
SPLINE
5
FA
100
AcDbEntity
8
1
62
256
6
ByLayer
370
18
48
1
60
0
100
AcDbSpline
70
4
71
3
72
32
73
28
40
0
40
0
40
0
40
0
40
0.125000000000005
40
0.125000000000005
40
0.187500000000007
40
0.187500000000007
40
0.25000000000001
40
0.25000000000001
40
0.375000000000014
40
0.375000000000014
40
0.437499999999994
40
0.437499999999994
40
0.499999999999974
40
0.499999999999974
40
0.624999999999979
40
0.624999999999979
40
0.687499999999983
40
0.687499999999983
40
0.749999999999986
40
0.749999999999986
40
0.81249999999999
40
0.81249999999999
40
0.874999999999993
40
0.874999999999993
40
0.937499999999997
40
0.937499999999997
40
1
40
1
40
1
40
1
41
1
10
78.3846240504624
20
3.90636432243244
30
0
41
1
10
78.3976050328079
20
3.88064273478758
30
0
41
1
10
78.412712279205
20
3.85656901838533
30
0
41
1
10
78.4377150218293
20
3.82226911922527
30
0
41
1
10
78.4464502890695
20
3.8111460088758
30
0
41
1
10
78.4646703752615
20
3.78947979194646
30
0
41
1
10
78.4740158463623
20
3.77910241129646
30
0
41
1
10
78.5026438837124
20
3.74923269965146
30
0
41
1
10
78.5225278388961
20
3.730967835314
30
0
41
1
10
78.5534206040655
20
3.70583434076821
30
0
41
1
10
78.5639295358996
20
3.69781581458787
30
0
41
1
10
78.5851636313211
20
3.68265673803262
30
0
41
1
10
78.5958156504202
20
3.67556507619307
30
0
41
1
10
78.6278597149073
20
3.6557247885693
30
0
41
1
10
78.6493377620086
20
3.64438698125136
30
0
41
1
10
78.6816869915372
20
3.63048125184437
30
0
41
1
10
78.6925447246909
20
3.62635199278714
30
0
41
1
10
78.7140368853211
20
3.61935291228951
30
0
41
1
10
78.7246311326045
20
3.6164898934868
30
0
41
1
10
78.7454815417811
20
3.61214131101241
30
0
41
1
10
78.7557381606027
20
3.6106543724859
30
0
41
1
10
78.7758547853677
20
3.60925688826822
30
0
41
1
10
78.785765815383
20
3.60935931362218
30
0
41
1
10
78.8045640183129
20
3.61140602579636
30
0
41
1
10
78.8135087411868
20
3.61333547426278
30
0
41
1
10
78.8303349398172
20
3.61931284264801
30
0
41
1
10
78.8382585437207
20
3.62339838633832
30
0
41
1
10
78.8453338162982
20
3.62868058484744
30
0
0
SPLINE
5
FB
100
AcDbEntity
8
1
62
256
6
ByLayer
370
18
48
1
60
0
100
AcDbSpline
70
4
71
3
72
30
73
26
40
0
40
0
40
0
40
0
40
0.0530470782283874
40
0.0530470782283874
40
0.125889610672314
40
0.125889610672314
40
0.271574675560211
40
0.271574675560211
40
0.344417208004185
40
0.344417208004185
40
0.417259740448159
40
0.417259740448159
40
0.562944805336161
40
0.562944805336161
40
0.635787337780134
40
0.635787337780134
40
0.708629870224107
40
0.708629870224107
40
0.78147240266808
40
0.78147240266808
40
0.854314935112053
40
0.854314935112053
40
0.927157467556027
40
0.927157467556027
40
1
40
1
40
1
40
1
41
1
10
75.9355387799777
20
-5.03450915621607
30
0
41
1
10
75.9295488749805
20
-5.02876478556686
30
0
41
1
10
75.9233549558462
20
-5.02329441164673
30
0
41
1
10
75.9081987157727
20
-5.01094287717532
30
0
41
1
10
75.8991841537372
20
-5.0043925206007
30
0
41
1
10
75.8714737360145
20
-4.98637673746529
30
0
41
1
10
75.8521185983641
20
-4.97652591033838
30
0
41
1
10
75.8218562018636
20
-4.96485137987855
30
0
41
1
10
75.8115617574916
20
-4.96148236016526
30
0
41
1
10
75.7905503922208
20
-4.95583381096856
30
0
41
1
10
75.7799260880365
20
-4.9535823353259
30
0
41
1
10
75.7479503064905
20
-4.94861131326905
30
0
41
1
10
75.7263979379069
20
-4.94761740027442
30
0
41
1
10
75.6937393566463
20
-4.95008265147664
30
0
41
1
10
75.6827977046188
20
-4.95157012350657
30
0
41
1
10
75.6607996799778
20
-4.95607464368237
30
0
41
1
10
75.6497801264633
20
-4.95909531306012
30
0
41
1
10
75.6281922257182
20
-4.9667255651371
30
0
41
1
10
75.6175601697468
20
-4.97134436904329
30
0
41
1
10
75.5966815685439
20
-4.98244662624117
30
0
41
1
10
75.5863584547527
20
-4.98899404683254
30
0
41
1
10
75.5667564203725
20
-5.00395478094305
30
0
41
1
10
75.5574390636928
20
-5.0123676229918
30
0
41
1
10
75.5399437240975
20
-5.03138864034165
30
0
41
1
10
75.5317488784713
20
-5.04205391634278
30
0
41
1
10
75.5245116038184
20
-5.05369405267715
30
0
0
SPLINE
5
FC
100
AcDbEntity
8
1
62
256
6
ByLayer
370
18
48
1
60
0
100
AcDbSpline
70
4
71
3
72
12
73
8
40
0
40
0
40
0
40
0
40
0.499999999999991
40
0.499999999999991
40
0.749999999999996
40
0.749999999999996
40
1
40
1
40
1
40
1
41
1
10
75.5245116038184
20
-5.05369405267715
30
0
41
1
10
75.4266682875601
20
-5.21106123787953
30
0
41
1
10
75.3294160444494
20
-5.36533153738796
30
0
41
1
10
75.1845710467115
20
-5.59139630744698
30
0
41
1
10
75.1364553357153
20
-5.66587172981073
30
0
41
1
10
75.0406549457398
20
-5.81283241722468
30
0
41
1
10
74.9929498369767
20
-5.88534967475357
30
0
41
1
10
74.9454114630954
20
-5.95690584692485
30
0
0
SPLINE
5
FD
100
AcDbEntity
8
1
62
256
6
ByLayer
370
18
48
1
60
0
100
AcDbSpline
70
4
71
3
72
10
73
6
40
0
40
0
40
0
40
0
40
0.5
40
0.5
40
1
40
1
40
1
40
1
41
1
10
74.74924465168
20
-5.91169728229775
30
0
41
1
10
74.650070937648
20
-5.72261920393669
30
0
41
1
10
74.5502980941166
20
-5.5297222460544
30
0
41
1
10
74.3490119456989
20
-5.13637635758317
30
0
41
1
10
74.2478414334707
20
-4.93660065959213
30
0
41
1
10
74.1458270325215
20
-4.73380980640843
30
0
0
SPLINE
5
FE
100
AcDbEntity
8
1
62
256
6
ByLayer
370
18
48
1
60
0
100
AcDbSpline
70
4
71
3
72
32
73
28
40
0
40
0
40
0
40
0
40
0.12499999999996
40
0.12499999999996
40
0.187499999999955
40
0.187499999999955
40
0.24999999999995
40
0.24999999999995
40
0.37499999999998
40
0.37499999999998
40
0.437499999999996
40
0.437499999999996
40
0.500000000000013
40
0.500000000000013
40
0.625000000000044
40
0.625000000000044
40
0.687500000000037
40
0.687500000000037
40
0.750000000000029
40
0.750000000000029
40
0.812500000000022
40
0.812500000000022
40
0.875000000000015
40
0.875000000000015
40
0.937500000000007
40
0.937500000000007
40
1
40
1
40
1
40
1
41
1
10
74.1458270325215
20
-4.73380980640846
30
0
41
1
10
74.1333233680037
20
-4.70895420982689
30
0
41
1
10
74.118821710415
20
-4.68634870939871
30
0
41
1
10
74.0947800072764
20
-4.65499255647404
30
0
41
1
10
74.086373300902
20
-4.64497367831407
30
0
41
1
10
74.0688312298892
20
-4.62577145029638
30
0
41
1
10
74.0598151153839
20
-4.61671772619661
30
0
41
1
10
74.0320994435017
20
-4.59105588682462
30
0
41
1
10
74.0127400091368
20
-4.57592848870112
30
0
41
1
10
73.9824705814923
20
-4.55606989368164
30
0
41
1
10
73.9721736951435
20
-4.54992744135308
30
0
41
1
10
73.9511573446786
20
-4.53863427025891
30
0
41
1
10
73.9405331249207
20
-4.53353776879081
30
0
41
1
10
73.9085551801977
20
-4.52001613240412
30
0
41
1
10
73.8870021631601
20
-4.51327742877936
30
0
41
1
10
73.8543441916335
20
-4.50702215335787
30
0
41
1
10
73.8434030051329
20
-4.50558536220399
30
0
41
1
10
73.8214064832543
20
-4.50419639816889
30
0
41
1
10
73.810394028949
20
-4.50425760335972
30
0
41
1
10
73.7888175857074
20
-4.50606401248422
30
0
41
1
10
73.778191278579
20
-4.50780166769542
30
0
41
1
10
73.7573240265916
20
-4.51320900402644
30
0
41
1
10
73.7470072860731
20
-4.5169211778605
30
0
41
1
10
73.7274201349493
20
-4.52644549397959
30
0
41
1
10
73.7181095665677
20
-4.53224781067664
30
0
41
1
10
73.7006262218204
20
-4.54630070779064
30
0
41
1
10
73.6924370944478
20
-4.55460221295422
30
0
41
1
10
73.6852039392814
20
-4.56411151243222
30
0
0
SPLINE
5
FF
100
AcDbEntity
8
1
62
256
6
ByLayer
370
18
48
1
60
0
100
AcDbSpline
70
4
71
3
72
12
73
8
40
0
40
0
40
0
40
0
40
0.500000000000008
40
0.500000000000008
40
0.750000000000004
40
0.750000000000004
40
1
40
1
40
1
40
1
41
1
10
73.6852039392814
20
-4.56411151243222
30
0
41
1
10
73.58730580329
20
-4.69281643747004
30
0
41
1
10
73.4900086050404
20
-4.81600187143459
30
0
41
1
10
73.3451054283659
20
-4.99214806260466
30
0
41
1
10
73.2969720296829
20
-5.04943482576272
30
0
41
1
10
73.2011374909659
20
-5.1610105671989
30
0
41
1
10
73.1534159655318
20
-5.21532453492893
30
0
41
1
10
73.1058612270432
20
-5.26818073146234
30
0
0
SPLINE
5
100
100
AcDbEntity
8
1
62
256
6
ByLayer
370
18
48
1
60
0
100
AcDbSpline
70
4
71
3
72
8
73
4
40
0
40
0
40
0
40
0
40
1
40
1
40
1
40
1
41
1
10
72.9103735465521
20
-5.1615592524837
30
0
41
1
10
72.9755265648575
20
-5.19810413922431
30
0
41
1
10
73.0406822595948
20
-5.23364828547616
30
0
41
1
10
73.1058612270432
20
-5.26818073146231
30
0
0
SPLINE
5
101
100
AcDbEntity
8
1
62
256
6
ByLayer
370
18
48
1
60
0
100
AcDbSpline
70
4
71
3
72
10
73
6
40
0
40
0
40
0
40
0
40
0.5
40
0.5
40
1
40
1
40
1
40
1
41
1
10
72.9103735465521
20
-5.16155925248381
30
0
41
1
10
72.8111626786027
20
-4.95033344552309
30
0
41
1
10
72.7113514245794
20
-4.73822458889839
30
0
41
1
10
72.5099185501555
20
-4.31256602083312
30
0
41
1
10
72.4086163309713
20
-4.09970935838126
30
0
41
1
10
72.3064246723071
20
-3.88696327527418
30
0
0
SPLINE
5
102
100
AcDbEntity
8
1
62
256
6
ByLayer
370
18
48
1
60
0
100
AcDbSpline
70
4
71
3
72
8
73
4
40
0
40
0
40
0
40
0
40
1
40
1
40
1
40
1
41
1
10
66.5224705114776
20
-5.15980560408912
30
0
41
1
10
66.5933326829531
20
-5.07898521902163
30
0
41
1
10
66.6645934776624
20
-4.99442454479626
30
0
41
1
10
66.7363413455813
20
-4.90616333209255
30
0
0
SPLINE
5
103
100
AcDbEntity
8
1
62
256
6
ByLayer
370
18
48
1
60
0
100
AcDbSpline
70
4
71
3
72
32
73
28
40
0
40
0
40
0
40
0
40
0.124999999999946
40
0.124999999999946
40
0.187499999999919
40
0.187499999999919
40
0.249999999999892
40
0.249999999999892
40
0.374999999999879
40
0.374999999999879
40
0.437499999999873
40
0.437499999999873
40
0.499999999999867
40
0.499999999999867
40
0.624999999999901
40
0.624999999999901
40
0.687499999999917
40
0.687499999999917
40
0.749999999999934
40
0.749999999999934
40
0.81249999999995
40
0.81249999999995
40
0.874999999999967
40
0.874999999999967
40
0.937499999999983
40
0.937499999999983
40
1
40
1
40
1
40
1
41
1
10
66.7363413455814
20
-4.90616333209258
30
0
41
1
10
66.7492537673589
20
-4.89027901332344
30
0
41
1
10
66.7642747385
20
-4.87772928977426
30
0
41
1
10
66.7891429491851
20
-4.8625451237898
30
0
41
1
10
66.7978322170003
20
-4.85810830743551
30
0
41
1
10
66.8159597758131
20
-4.85040606727165
30
0
41
1
10
66.8252641376391
20
-4.84719787855303
30
0
41
1
10
66.8537745039993
20
-4.83932703125893
30
0
41
1
10
66.8735924058588
20
-4.83638634162023
30
0
41
1
10
66.9044117973882
20
-4.83521338736469
30
0
41
1
10
66.9148953139926
20
-4.83537030818067
30
0
41
1
10
66.9361161834775
20
-4.83680323893964
30
0
41
1
10
66.9467657500456
20
-4.83807051147608
30
0
41
1
10
66.9788156310138
20
-4.84351335068507
30
0
41
1
10
67.0003161618449
20
-4.84930297401363
30
0
41
1
10
67.0327236067745
20
-4.86162179993849
30
0
41
1
10
67.043599118352
20
-4.8663636298777
30
0
41
1
10
67.0651771504208
20
-4.87712666296358
30
0
41
1
10
67.0758137372183
20
-4.88310904747703
30
0
41
1
10
67.0967461591388
20
-4.89638245770246
30
0
41
1
10
67.1070423853008
20
-4.90367201153765
30
0
41
1
10
67.1272353801531
20
-4.91975744725687
30
0
41
1
10
67.1371855575768
20
-4.92861573328713
30
0
41
1
10
67.156053220859
20
-4.94760858434231
30
0
41
1
10
67.1650277710745
20
-4.95777555307936
30
0
41
1
10
67.181903260674
20
-4.97967712532213
30
0
41
1
10
67.1898444317333
20
-4.99149198263146
30
0
41
1
10
67.196925294665
20
-5.00395376209775
30
0
0
SPLINE
5
104
100
AcDbEntity
8
1
62
256
6
ByLayer
370
18
48
1
60
0
100
AcDbSpline
70
4
71
3
72
12
73
8
40
0
40
0
40
0
40
0
40
0.499999999999991
40
0.499999999999991
40
0.749999999999995
40
0.749999999999995
40
1
40
1
40
1
40
1
41
1
10
67.1969252946649
20
-5.00395376209755
30
0
41
1
10
67.295661437729
20
-5.17772185394082
30
0
41
1
10
67.3934976031064
20
-5.35036670803697
30
0
41
1
10
67.5392969826594
20
-5.60752265767348
30
0
41
1
10
67.5876919725526
20
-5.69285956263374
30
0
41
1
10
67.6840311728343
20
-5.86256674138141
30
0
41
1
10
67.7319916332694
20
-5.94696573425361
30
0
41
1
10
67.7797728158114
20
-6.03089877549539
30
0
0
SPLINE
5
105
100
AcDbEntity
8
1
62
256
6
ByLayer
370
18
48
1
60
0
100
AcDbSpline
70
4
71
3
72
12
73
8
40
0
40
0
40
0
40
0
40
0.499999999999993
40
0.499999999999993
40
0.749999999999997
40
0.749999999999997
40
1
40
1
40
1
40
1
41
1
10
67.9759070368596
20
-6.05381238860551
30
0
41
1
10
68.0742458284765
20
-5.90624146211658
30
0
41
1
10
68.1732524860602
20
-5.75307686026201
30
0
41
1
10
68.3232001084136
20
-5.51492990863073
30
0
41
1
10
68.3733501501568
20
-5.43425765411234
30
0
41
1
10
68.4741139878704
20
-5.27024552918195
30
0
41
1
10
68.5247245051259
20
-5.18691339686467
30
0
41
1
10
68.5756047250676
20
-5.10226179468941
30
0
0
SPLINE
5
106
100
AcDbEntity
8
1
62
256
6
ByLayer
370
18
48
1
60
0
100
AcDbSpline
70
4
71
3
72
32
73
28
40
0
40
0
40
0
40
0
40
0.124999999999946
40
0.124999999999946
40
0.187499999999936
40
0.187499999999936
40
0.249999999999927
40
0.249999999999927
40
0.374999999999909
40
0.374999999999909
40
0.437499999999899
40
0.437499999999899
40
0.49999999999989
40
0.49999999999989
40
0.624999999999918
40
0.624999999999918
40
0.687499999999931
40
0.687499999999931
40
0.749999999999945
40
0.749999999999945
40
0.812499999999959
40
0.812499999999959
40
0.874999999999972
40
0.874999999999972
40
0.937499999999986
40
0.937499999999986
40
1
40
1
40
1
40
1
41
1
10
68.5756047250676
20
-5.10226179468941
30
0
41
1
10
68.5885190588384
20
-5.08077566420528
30
0
41
1
10
68.6035405712192
20
-5.06237732181296
30
0
41
1
10
68.6284079707084
20
-5.0381557732469
30
0
41
1
10
68.6370967395853
20
-5.03066094254694
30
0
41
1
10
68.6552231405285
20
-5.01675688429933
30
0
41
1
10
68.6645257479219
20
-5.01045148004525
30
0
41
1
10
68.6930329188035
20
-4.99330922454021
30
0
41
1
10
68.712849201168
20
-4.98420905448427
30
0
41
1
10
68.7436677841171
20
-4.97381377180744
30
0
41
1
10
68.7541516741575
20
-4.97089172549144
30
0
41
1
10
68.7753719981107
20
-4.96620297025964
30
0
41
1
10
68.7860215359876
20
-4.96445229518213
30
0
41
1
10
68.8180719585914
20
-4.96096327940524
30
0
41
1
10
68.8395736974043
20
-4.96095930447967
30
0
41
1
10
68.8719834973365
20
-4.96483160022331
30
0
41
1
10
68.8828601731833
20
-4.96678733980229
30
0
41
1
10
68.904438622703
20
-4.97212192372629
30
0
41
1
10
68.9150753962082
20
-4.97547823622855
30
0
41
1
10
68.9360079836854
20
-4.9836868177313
30
0
41
1
10
68.946304188787
20
-4.98853741387092
30
0
41
1
10
68.9664967530664
20
-4.99995639084349
30
0
41
1
10
68.9764467809736
20
-5.0065762144618
30
0
41
1
10
68.9953145839362
20
-5.02146444418014
30
0
41
1
10
69.0042890933641
20
-5.02975094102032
30
0
41
1
10
69.0211643691383
20
-5.04829251855901
30
0
41
1
10
69.0291058839167
20
-5.05862192411254
30
0
41
1
10
69.036188249105
20
-5.06988555170796
30
0
0
SPLINE
5
107
100
AcDbEntity
8
1
62
256
6
ByLayer
370
18
48
1
60
0
100
AcDbSpline
70
4
71
3
72
12
73
8
40
0
40
0
40
0
40
0
40
0.499999999999999
40
0.499999999999999
40
0.75
40
0.75
40
1
40
1
40
1
40
1
41
1
10
69.036188249105
20
-5.06988555170807
30
0
41
1
10
69.1349971480737
20
-5.22702890869451
30
0
41
1
10
69.2328968135182
20
-5.3804712492994
30
0
41
1
10
69.3787747938387
20
-5.60511416381831
30
0
41
1
10
69.4271974870795
20
-5.67900903502547
30
0
41
1
10
69.523586149885
20
-5.82465566909178
30
0
41
1
10
69.5715698904889
20
-5.89643499566151
30
0
41
1
10
69.6193738518592
20
-5.96716843464961
30
0
0
SPLINE
5
108
100
AcDbEntity
8
1
62
256
6
ByLayer
370
18
48
1
60
0
100
AcDbSpline
70
4
71
3
72
8
73
4
40
0
40
0
40
0
40
0
40
1
40
1
40
1
40
1
41
1
10
69.8148467310968
20
-5.92405071424889
30
0
41
1
10
69.749658684002
20
-5.93958454156154
30
0
41
1
10
69.6845027604674
20
-5.95395494366343
30
0
41
1
10
69.6193738518591
20
-5.96716843464975
30
0
0
SPLINE
5
109
100
AcDbEntity
8
1
62
256
6
ByLayer
370
18
48
1
60
0
100
AcDbSpline
70
4
71
3
72
10
73
6
40
0
40
0
40
0
40
0
40
0.5
40
0.5
40
1
40
1
40
1
40
1
41
1
10
69.8148467310968
20
-5.92405071424903
30
0
41
1
10
69.9132340011363
20
-5.73934481529372
30
0
41
1
10
70.0123177381509
20
-5.55149482149022
30
0
41
1
10
70.2123912979918
20
-5.16971226957574
30
0
41
1
10
70.3130617297187
20
-4.97637172118689
30
0
41
1
10
70.4147272533021
20
-4.78060875252163
30
0
0
SPLINE
5
10A
100
AcDbEntity
8
1
62
256
6
ByLayer
370
18
48
1
60
0
100
AcDbSpline
70
4
71
3
72
32
73
28
40
0
40
0
40
0
40
0
40
0.125000000000037
40
0.125000000000037
40
0.187500000000038
40
0.187500000000038
40
0.250000000000038
40
0.250000000000038
40
0.374999999999999
40
0.374999999999999
40
0.437499999999981
40
0.437499999999981
40
0.499999999999962
40
0.499999999999962
40
0.624999999999972
40
0.624999999999972
40
0.687499999999976
40
0.687499999999976
40
0.749999999999981
40
0.749999999999981
40
0.812499999999986
40
0.812499999999986
40
0.874999999999991
40
0.874999999999991
40
0.937499999999995
40
0.937499999999995
40
1
40
1
40
1
40
1
41
1
10
70.4147272533021
20
-4.78060875252163
30
0
41
1
10
70.4276637591225
20
-4.75569874670762
30
0
41
1
10
70.4427092125303
20
-4.73332372325999
30
0
41
1
10
70.4676075737961
20
-4.70253426655538
30
0
41
1
10
70.4763059400007
20
-4.69274657818758
30
0
41
1
10
70.4944496164565
20
-4.67406148904576
30
0
41
1
10
70.5037576430929
20
-4.66530549375011
30
0
41
1
10
70.532281236977
20
-4.6406482518544
30
0
41
1
10
70.5521048645447
20
-4.62632199327288
30
0
41
1
10
70.5829286933178
20
-4.60776845951102
30
0
41
1
10
70.5934130967075
20
-4.60206618108077
30
0
41
1
10
70.6146335637782
20
-4.59173296034254
30
0
41
1
10
70.6252826755292
20
-4.58714124173682
30
0
41
1
10
70.6573303216864
20
-4.57506749748126
30
0
41
1
10
70.678828275177
20
-4.56925956237396
30
0
41
1
10
70.7112286260152
20
-4.56426479841605
30
0
41
1
10
70.7221001827644
20
-4.56322463045603
30
0
41
1
10
70.743674881248
20
-4.56256334344985
30
0
41
1
10
70.7543097456553
20
-4.56293827711147
30
0
41
1
10
70.7752382574015
20
-4.56521621452302
30
0
41
1
10
70.7855322956299
20
-4.56711751995817
30
0
41
1
10
70.8057200683518
20
-4.57267131332378
30
0
41
1
10
70.8156692439106
20
-4.5763591227325
30
0
41
1
10
70.8345394440537
20
-4.58558795454877
30
0
41
1
10
70.8435151463716
20
-4.59113023848721
30
0
41
1
10
70.8603926664918
20
-4.60438273379319
30
0
41
1
10
70.8683366220237
20
-4.61215388217158
30
0
41
1
10
70.8754235693764
20
-4.62105322068294
30
0
0
SPLINE
5
10B
100
AcDbEntity
8
1
62
256
6
ByLayer
370
18
48
1
60
0
100
AcDbSpline
70
4
71
3
72
12
73
8
40
0
40
0
40
0
40
0
40
0.5
40
0.5
40
0.75
40
0.75
40
1
40
1
40
1
40
1
41
1
10
70.8754235693764
20
-4.62105322068331
30
0
41
1
10
70.9741979595964
20
-4.74508782840286
30
0
41
1
10
71.0720658152269
20
-4.8632156997522
30
0
41
1
10
71.2179080377429
20
-5.03176467972523
30
0
41
1
10
71.2663217266157
20
-5.08645684565118
30
0
41
1
10
71.3626985450346
20
-5.19275680001667
30
0
41
1
10
71.4106792593943
20
-5.24438496712068
30
0
41
1
10
71.458482753772
20
-5.29449776003193
30
0
0
SPLINE
5
10C
100
AcDbEntity
8
1
62
256
6
ByLayer
370
18
48
1
60
0
100
AcDbSpline
70
4
71
3
72
8
73
4
40
0
40
0
40
0
40
0
40
1
40
1
40
1
40
1
41
1
10
71.654673244579
20
-5.1895562926577
30
0
41
1
10
71.5892284487942
20
-5.22558166332058
30
0
41
1
10
71.5238342728877
20
-5.26056161281713
30
0
41
1
10
71.458482753772
20
-5.29449776003193
30
0
0
SPLINE
5
10D
100
AcDbEntity
8
1
62
256
6
ByLayer
370
18
48
1
60
0
100
AcDbSpline
70
4
71
3
72
10
73
6
40
0
40
0
40
0
40
0
40
0.5
40
0.5
40
1
40
1
40
1
40
1
41
1
10
71.654673244579
20
-5.18955629265784
30
0
41
1
10
71.7529631075341
20
-4.98696732641181
30
0
41
1
10
71.8519464729214
20
-4.7840061167156
30
0
41
1
10
72.0518367431315
20
-4.37768299912238
30
0
41
1
10
72.1524364054077
20
-4.17494767982612
30
0
41
1
10
72.2539825062233
20
-3.97278492426162
30
0
0
SPLINE
5
10E
100
AcDbEntity
8
1
62
256
6
ByLayer
370
18
48
1
60
0
100
AcDbSpline
70
4
71
3
72
10
73
6
40
0
40
0
40
0
40
0
40
0.863089510024619
40
0.863089510024619
40
1
40
1
40
1
40
1
41
1
10
72.2539825062233
20
-3.97278492426165
30
0
41
1
10
72.2669331966958
20
-3.9470020802986
30
0
41
1
10
72.281999564335
20
-3.9229260047004
30
0
41
1
10
72.3012584757508
20
-3.89648054511073
30
0
41
1
10
72.3039354376547
20
-3.89289224488809
30
0
41
1
10
72.3066517869907
20
-3.88933564278227
30
0
0
SPLINE
5
10F
100
AcDbEntity
8
1
62
256
6
ByLayer
370
18
48
1
60
0
100
AcDbSpline
70
4
71
3
72
10
73
6
40
0
40
0
40
0
40
0
40
0.5
40
0.5
40
1
40
1
40
1
40
1
41
1
10
80.4295534403408
20
-0.953629006421721
30
0
41
1
10
80.3886879187068
20
-0.949354347506755
30
0
41
1
10
80.3479365583413
20
-0.943573710024737
30
0
41
1
10
80.2666362679377
20
-0.929004032519742
30
0
41
1
10
80.2260835962937
20
-0.920218722485714
30
0
41
1
10
80.185664150284
20
-0.909978231292939
30
0
0
SPLINE
5
110
100
AcDbEntity
8
1
62
256
6
ByLayer
370
18
48
1
60
0
100
AcDbSpline
70
4
71
3
72
12
73
8
40
0
40
0
40
0
40
0
40
0.5
40
0.5
40
0.75
40
0.75
40
1
40
1
40
1
40
1
41
1
10
80.185664150284
20
-0.909978231292968
30
0
41
1
10
80.058943649217
20
-0.803226886301331
30
0
41
1
10
79.9325114645107
20
-0.693961550927582
30
0
41
1
10
79.7430654445428
20
-0.526440623832542
30
0
41
1
10
79.67995061516
20
-0.469996021899846
30
0
41
1
10
79.5537501051338
20
-0.355919342497685
30
0
41
1
10
79.4908214627892
20
-0.298428734228253
30
0
41
1
10
79.4281817827464
20
-0.240634273396324
30
0
0
SPLINE
5
111
100
AcDbEntity
8
1
62
256
6
ByLayer
370
18
48
1
60
0
100
AcDbSpline
70
4
71
3
72
10
73
6
40
0
40
0
40
0
40
0
40
0.5
40
0.5
40
1
40
1
40
1
40
1
41
1
10
79.4281817827464
20
-0.240634273396324
30
0
41
1
10
79.3658275664826
20
-0.149821306854818
30
0
41
1
10
79.3031455842497
20
-0.0617161814899987
30
0
41
1
10
79.1773635859757
20
0.108419493029004
30
0
41
1
10
79.1142272167098
20
0.190523842342998
30
0
41
1
10
79.0507568699944
20
0.269534123930271
30
0
0
SPLINE
5
112
100
AcDbEntity
8
1
62
256
6
ByLayer
370
18
48
1
60
0
100
AcDbSpline
70
4
71
3
72
32
73
28
40
0
40
0
40
0
40
0
40
0.124999999999992
40
0.124999999999992
40
0.187500000000004
40
0.187500000000004
40
0.250000000000016
40
0.250000000000016
40
0.375000000000042
40
0.375000000000042
40
0.437500000000034
40
0.437500000000034
40
0.500000000000026
40
0.500000000000026
40
0.625000000000054
40
0.625000000000054
40
0.687500000000045
40
0.687500000000045
40
0.750000000000036
40
0.750000000000036
40
0.812500000000027
40
0.812500000000027
40
0.875000000000018
40
0.875000000000018
40
0.937500000000009
40
0.937500000000009
40
1
40
1
40
1
40
1
41
1
10
79.0507568699944
20
0.269534123930242
30
0
41
1
10
79.0382613890271
20
0.285088969947168
30
0
41
1
10
79.0237713896346
20
0.301647687195413
30
0
41
1
10
78.9997496762255
20
0.32759148506679
30
0
41
1
10
78.9913505540622
20
0.33643126659905
30
0
41
1
10
78.9738227609382
20
0.354461662115085
30
0
41
1
10
78.9648137413396
20
0.363529433283617
30
0
41
1
10
78.9371184302151
20
0.390881050033613
30
0
41
1
10
78.9177713443943
20
0.409310242665328
30
0
41
1
10
78.8875155911381
20
0.437270890077684
30
0
41
1
10
78.8772224550013
20
0.446644668992946
30
0
41
1
10
78.8562114485007
20
0.465513481535197
30
0
41
1
10
78.8455861918671
20
0.474924731379531
30
0
41
1
10
78.8136060987018
20
0.50289022107853
30
0
41
1
10
78.7920480682384
20
0.521269054032132
30
0
41
1
10
78.759376931504
20
0.548470109826809
30
0
41
1
10
78.7484304241202
20
0.55747544568186
30
0
41
1
10
78.7264214887275
20
0.575359744362999
30
0
41
1
10
78.7153974242891
20
0.584205943132304
30
0
41
1
10
78.6938025599195
20
0.601310336516832
30
0
41
1
10
78.6831680161084
20
0.609620961611029
30
0
41
1
10
78.66228758821
20
0.625696506083216
30
0
41
1
10
78.6519652079382
20
0.633517746758343
30
0
41
1
10
78.6323699090224
20
0.648079696460144
30
0
41
1
10
78.6230581387522
20
0.654852895124293
30
0
41
1
10
78.6055771629995
20
0.667205650400831
30
0
41
1
10
78.5973905655864
20
0.672793519471441
30
0
41
1
10
78.5901609244263
20
0.677470805161363
30
0
0
SPLINE
5
113
100
AcDbEntity
8
1
62
256
6
ByLayer
370
18
48
1
60
0
100
AcDbSpline
70
4
71
3
72
12
73
8
40
0
40
0
40
0
40
0
40
0.499999999999991
40
0.499999999999991
40
0.749999999999996
40
0.749999999999996
40
1
40
1
40
1
40
1
41
1
10
78.5901609244263
20
0.677470805161391
30
0
41
1
10
78.4925154839799
20
0.740643459401355
30
0
41
1
10
78.3954736359613
20
0.812058407533016
30
0
41
1
10
78.2509555293455
20
0.930562868552897
30
0
41
1
10
78.2029500560759
20
0.971961574470072
30
0
41
1
10
78.1073720251436
20
1.05831185288548
30
0
41
1
10
78.0597788238409
20
1.10328013664298
30
0
41
1
10
78.0123515186022
20
1.14999753182604
30
0
0
SPLINE
5
114
100
AcDbEntity
8
1
62
256
6
ByLayer
370
18
48
1
60
0
100
AcDbSpline
70
4
71
3
72
12
73
8
40
0
40
0
40
0
40
0
40
0.50000000000001
40
0.50000000000001
40
0.750000000000005
40
0.750000000000005
40
1
40
1
40
1
40
1
41
1
10
71.2326937297998
20
5.0458383848858
30
0
41
1
10
71.134876406131
20
5.2155530095439
30
0
41
1
10
71.037660755591
20
5.38467596691728
30
0
41
1
10
70.8928777346058
20
5.63656853820737
30
0
41
1
10
70.8447841284596
20
5.72024344417849
30
0
41
1
10
70.7490297974544
20
5.88672741594789
30
0
41
1
10
70.7013486786391
20
5.96957197401554
30
0
41
1
10
70.6538348454172
20
6.05201001732689
30
0
0
SPLINE
5
115
100
AcDbEntity
8
1
62
256
6
ByLayer
370
18
48
1
60
0
100
AcDbSpline
70
4
71
3
72
10
73
6
40
0
40
0
40
0
40
0
40
0.5
40
0.5
40
1
40
1
40
1
40
1
41
1
10
70.4581986625418
20
6.06848952268496
30
0
41
1
10
70.3590499150957
20
5.91685022731428
30
0
41
1
10
70.2592283297629
20
5.75909709681295
30
0
41
1
10
70.0576886367188
20
5.43139207353667
30
0
41
1
10
69.9563021360674
20
5.26198597018762
30
0
41
1
10
69.8540395774639
20
5.08698761096417
30
0
0
SPLINE
5
116
100
AcDbEntity
8
1
62
256
6
ByLayer
370
18
48
1
60
0
100
AcDbSpline
70
4
71
3
72
32
73
28
40
0
40
0
40
0
40
0
40
0.124999999999998
40
0.124999999999998
40
0.187499999999996
40
0.187499999999996
40
0.249999999999995
40
0.249999999999995
40
0.374999999999991
40
0.374999999999991
40
0.43750000000001
40
0.43750000000001
40
0.50000000000003
40
0.50000000000003
40
0.625000000000023
40
0.625000000000023
40
0.687500000000019
40
0.687500000000019
40
0.750000000000015
40
0.750000000000015
40
0.812500000000011
40
0.812500000000011
40
0.875000000000007
40
0.875000000000007
40
0.937500000000004
40
0.937500000000004
40
1
40
1
40
1
40
1
41
1
10
69.8540395774638
20
5.08698761096417
30
0
41
1
10
69.8415163518598
20
5.06555705062203
30
0
41
1
10
69.8269908414336
20
5.046837735834
30
0
41
1
10
69.8029114100077
20
5.02181995311514
30
0
41
1
10
69.7944921510336
20
5.01400208223518
30
0
41
1
10
69.7769228064434
20
4.99936280385856
30
0
41
1
10
69.7678936059445
20
4.99264133185514
30
0
41
1
10
69.7401407869791
20
4.97411576443653
30
0
41
1
10
69.7207594114068
20
4.96392989497409
30
0
41
1
10
69.6904635172309
20
4.95175516808962
30
0
41
1
10
69.68015888643
20
4.94821980820421
30
0
41
1
10
69.6591296716675
20
4.94223837844166
30
0
41
1
10
69.6485048508306
20
4.93982345670494
30
0
41
1
10
69.6165227746157
20
4.93436417434785
30
0
41
1
10
69.5949717740616
20
4.93304950491193
30
0
41
1
10
69.5623249015911
20
4.93503463027355
30
0
41
1
10
69.5513887640641
20
4.93636225552038
30
0
41
1
10
69.5294053090478
20
4.9405464580442
30
0
41
1
10
69.5184108223068
20
4.94340316712365
30
0
41
1
10
69.4968645204453
20
4.95071035712706
30
0
41
1
10
69.4862533176162
20
4.95516873150123
30
0
41
1
10
69.4654161177819
20
4.96595266432749
30
0
41
1
10
69.4551154422877
20
4.97234024266845
30
0
41
1
10
69.435561136122
20
4.98698732046532
30
0
41
1
10
69.4262656320444
20
4.99524826875492
30
0
41
1
10
69.4088093090425
20
5.01397705915318
30
0
41
1
10
69.4006315049217
20
5.02450149102648
30
0
41
1
10
69.3934061271424
20
5.03601542122772
30
0
0
SPLINE
5
117
100
AcDbEntity
8
1
62
256
6
ByLayer
370
18
48
1
60
0
100
AcDbSpline
70
4
71
3
72
12
73
8
40
0
40
0
40
0
40
0
40
0.499999999999991
40
0.499999999999991
40
0.749999999999995
40
0.749999999999995
40
1
40
1
40
1
40
1
41
1
10
69.3934061271424
20
5.03601542122772
30
0
41
1
10
69.2956081350347
20
5.19186045651011
30
0
41
1
10
69.1984150995919
20
5.34440679552213
30
0
41
1
10
69.0536627275757
20
5.56763513494496
30
0
41
1
10
69.0055788437365
20
5.64112211576872
30
0
41
1
10
68.9098415963276
20
5.78602703890087
30
0
41
1
10
68.8621678631029
20
5.85747653023154
30
0
41
1
10
68.814659971779
20
5.9279258655086
30
0
0
SPLINE
5
118
100
AcDbEntity
8
1
62
256
6
ByLayer
370
18
48
1
60
0
100
AcDbSpline
70
4
71
3
72
8
73
4
40
0
40
0
40
0
40
0
40
1
40
1
40
1
40
1
41
1
10
68.6184477748149
20
5.87813655809074
30
0
41
1
10
68.6838750123309
20
5.89589152245179
30
0
41
1
10
68.7492721292932
20
5.91248880452102
30
0
41
1
10
68.814659971779
20
5.9279258655086
30
0
0
SPLINE
5
119
100
AcDbEntity
8
1
62
256
6
ByLayer
370
18
48
1
60
0
100
AcDbSpline
70
4
71
3
72
10
73
6
40
0
40
0
40
0
40
0
40
0.5
40
0.5
40
1
40
1
40
1
40
1
41
1
10
68.6184477748149
20
5.87813655809086
30
0
41
1
10
68.5192434712818
20
5.68674533695159
30
0
41
1
10
68.419436065389
20
5.49177919160402
30
0
41
1
10
68.2180100859402
20
5.09479098999728
30
0
41
1
10
68.1167233939525
20
4.89342240427524
30
0
41
1
10
68.014583049442
20
4.68926290211343
30
0
0
SPLINE
5
11A
100
AcDbEntity
8
1
62
256
6
ByLayer
370
18
48
1
60
0
100
AcDbSpline
70
4
71
3
72
32
73
28
40
0
40
0
40
0
40
0
40
0.12500000000005
40
0.12500000000005
40
0.187500000000057
40
0.187500000000057
40
0.250000000000063
40
0.250000000000063
40
0.375000000000076
40
0.375000000000076
40
0.437500000000082
40
0.437500000000082
40
0.500000000000088
40
0.500000000000088
40
0.625000000000102
40
0.625000000000102
40
0.687500000000085
40
0.687500000000085
40
0.750000000000068
40
0.750000000000068
40
0.812500000000051
40
0.812500000000051
40
0.875000000000034
40
0.875000000000034
40
0.937500000000017
40
0.937500000000017
40
1
40
1
40
1
40
1
41
1
10
68.0145830494421
20
4.6892629021134
30
0
41
1
10
68.0020678885016
20
4.66424742914523
30
0
41
1
10
67.9875520943757
20
4.64144743287909
30
0
41
1
10
67.9634877014338
20
4.60975922550835
30
0
41
1
10
67.9550734954356
20
4.59962312602957
30
0
41
1
10
67.937514510894
20
4.58017196100937
30
0
41
1
10
67.9284901617715
20
4.57098947222042
30
0
41
1
10
67.9007505187669
20
4.54492899157196
30
0
41
1
10
67.8813761521787
20
4.52951960233446
30
0
41
1
10
67.851087595707
20
4.50921216365069
30
0
41
1
10
67.8407848788903
20
4.50291573662503
30
0
41
1
10
67.8197582851244
20
4.49130495588554
30
0
41
1
10
67.8091328644818
20
4.4860478158102
30
0
41
1
10
67.77714975264
20
4.47203354088822
30
0
41
1
10
67.7555965452596
20
4.46495391533458
30
0
41
1
10
67.7229438653243
20
4.45816170311633
30
0
41
1
10
67.712005372138
20
4.4565416335488
30
0
41
1
10
67.69001624349
20
4.45477553145949
30
0
41
1
10
67.6790156765802
20
4.45464368582122
30
0
41
1
10
67.657459380444
20
4.45605911577277
30
0
41
1
10
67.6468433147353
20
4.457598142232
30
0
41
1
10
67.6259966302798
20
4.46260082371427
30
0
41
1
10
67.6156910075117
20
4.46610522157286
30
0
41
1
10
67.5961271627103
20
4.47521422672239
30
0
41
1
10
67.5868275441167
20
4.48080888855307
30
0
41
1
10
67.5693642057027
20
4.49444591212992
30
0
41
1
10
67.5611835534674
20
4.50253881526916
30
0
41
1
10
67.5539561783243
20
4.51184771765486
30
0
0
SPLINE
5
11B
100
AcDbEntity
8
1
62
256
6
ByLayer
370
18
48
1
60
0
100
AcDbSpline
70
4
71
3
72
12
73
8
40
0
40
0
40
0
40
0
40
0.499999999999999
40
0.499999999999999
40
0.75
40
0.75
40
1
40
1
40
1
40
1
41
1
10
67.5539561783243
20
4.51184771765486
30
0
41
1
10
67.4560848067565
20
4.63790662925749
30
0
41
1
10
67.3588234725533
20
4.75827792841719
30
0
41
1
10
67.2139803080078
20
4.93000128659952
30
0
41
1
10
67.1658682549529
20
4.98577795788611
30
0
41
1
10
67.0700788384225
20
5.09426673962594
30
0
41
1
10
67.0223810367018
20
5.14700331186165
30
0
41
1
10
66.974850746221
20
5.19824911823298
30
0
0
SPLINE
5
11C
100
AcDbEntity
8
1
62
256
6
ByLayer
370
18
48
1
60
0
100
AcDbSpline
70
4
71
3
72
8
73
4
40
0
40
0
40
0
40
0
40
1
40
1
40
1
40
1
41
1
10
66.8845299461621
20
5.14789572183318
30
0
41
1
10
66.91464351001
20
5.16489823212669
30
0
41
1
10
66.9447498205068
20
5.18168290161708
30
0
41
1
10
66.9748507462211
20
5.19824911823298
30
0
0
SPLINE
5
11D
100
AcDbEntity
8
1
62
256
6
ByLayer
370
18
48
1
60
0
100
AcDbSpline
70
4
71
3
72
10
73
6
40
0
40
0
40
0
40
0
40
0.5
40
0.5
40
1
40
1
40
1
40
1
41
1
10
66.8845299461621
20
5.14789572183318
30
0
41
1
10
66.7863207392861
20
4.92811913132175
30
0
41
1
10
66.6878213588135
20
4.70802654009344
30
0
41
1
10
66.4897250326474
20
4.26742193422632
30
0
41
1
10
66.3901373863492
20
4.04690691787039
30
0
41
1
10
66.2896725671365
20
3.82630330433173
30
0
0
SPLINE
5
11E
100
AcDbEntity
8
1
62
256
6
ByLayer
370
18
48
1
60
0
100
AcDbSpline
70
4
71
3
72
32
73
28
40
0
40
0
40
0
40
0
40
0.124999999999955
40
0.124999999999955
40
0.187499999999933
40
0.187499999999933
40
0.249999999999911
40
0.249999999999911
40
0.374999999999866
40
0.374999999999866
40
0.437499999999866
40
0.437499999999866
40
0.499999999999865
40
0.499999999999865
40
0.624999999999864
40
0.624999999999864
40
0.687499999999887
40
0.687499999999887
40
0.749999999999909
40
0.749999999999909
40
0.812499999999932
40
0.812499999999932
40
0.874999999999955
40
0.874999999999955
40
0.937499999999977
40
0.937499999999977
40
1
40
1
40
1
40
1
41
1
10
71.640888546075
20
-0.250226130470367
30
0
41
1
10
71.6538200089364
20
-0.264154062143433
30
0
41
1
10
71.668867660181
20
-0.279428471818164
30
0
41
1
10
71.6937809715856
20
-0.303785995665322
30
0
41
1
10
71.7024862339378
20
-0.312153948924845
30
0
41
1
10
71.7206473272814
20
-0.329357390132657
30
0
41
1
10
71.7299682635547
20
-0.338065124388919
30
0
41
1
10
71.7585253296762
20
-0.364435425142659
30
0
41
1
10
71.7783711563277
20
-0.38236194728654
30
0
41
1
10
71.8092252814778
20
-0.409781643941727
30
0
41
1
10
71.8197223235764
20
-0.419036812322247
30
0
41
1
10
71.840951459778
20
-0.437627050612491
30
0
41
1
10
71.8516036589764
20
-0.446892614406209
30
0
41
1
10
71.8836567863307
20
-0.474619223048364
30
0
41
1
10
71.9051533128721
20
-0.493010583714153
30
0
41
1
10
71.9375443844615
20
-0.52052023288428
30
0
41
1
10
71.9484170049881
20
-0.529720059722962
30
0
41
1
10
71.9699548476098
20
-0.547890428244585
30
0
41
1
10
71.9805708524693
20
-0.556819830647925
30
0
41
1
10
72.0014615208036
20
-0.57435171560158
30
0
41
1
10
72.0117365720502
20
-0.582954557248229
30
0
41
1
10
72.0318871660702
20
-0.599793933808428
30
0
41
1
10
72.0418138914081
20
-0.608073023855724
30
0
41
1
10
72.0606365957331
20
-0.62374176700547
30
0
41
1
10
72.0695908383095
20
-0.631180474084204
30
0
41
1
10
72.0864312655618
20
-0.645131701899061
30
0
41
1
10
72.0943581496147
20
-0.651677766371165
30
0
41
1
10
72.1014308499571
20
-0.657483274996423
30
0
0
SPLINE
5
11F
100
AcDbEntity
8
1
62
256
6
ByLayer
370
18
48
1
60
0
100
AcDbSpline
70
4
71
3
72
12
73
8
40
0
40
0
40
0
40
0
40
0.500000000000008
40
0.500000000000008
40
0.750000000000004
40
0.750000000000004
40
1
40
1
40
1
40
1
41
1
10
72.101430849957
20
-0.657483274995485
30
0
41
1
10
72.2004129957339
20
-0.738731125637315
30
0
41
1
10
72.298431055877
20
-0.82777803679636
30
0
41
1
10
72.4444326627635
20
-0.972477088132706
30
0
41
1
10
72.4928757841152
20
-1.02252740229173
30
0
41
1
10
72.5893028781079
20
-1.12599003272183
30
0
41
1
10
72.6373055331378
20
-1.17939854801975
30
0
41
1
10
72.6851332988275
20
-1.2344264459945
30
0
0
SPLINE
5
120
100
AcDbEntity
8
1
62
256
6
ByLayer
370
18
48
1
60
0
100
AcDbSpline
70
4
71
3
72
10
73
6
40
0
40
0
40
0
40
0
40
0.5
40
0.5
40
1
40
1
40
1
40
1
41
1
10
72.8807747585218
20
-1.4372064543434
30
0
41
1
10
72.978945353747
20
-1.52243506045414
30
0
41
1
10
73.0778620960311
20
-1.59906405256021
30
0
41
1
10
73.2777659327281
20
-1.73481939536111
30
0
41
1
10
73.3784278330035
20
-1.79372584556796
30
0
41
1
10
73.4800970646944
20
-1.8435895960713
30
0
0
SPLINE
5
121
100
AcDbEntity
8
1
62
256
6
ByLayer
370
18
48
1
60
0
100
AcDbSpline
70
4
71
3
72
32
73
28
40
0
40
0
40
0
40
0
40
0.125000000000062
40
0.125000000000062
40
0.187500000000073
40
0.187500000000073
40
0.250000000000085
40
0.250000000000085
40
0.375000000000107
40
0.375000000000107
40
0.437500000000097
40
0.437500000000097
40
0.500000000000086
40
0.500000000000086
40
0.625000000000066
40
0.625000000000066
40
0.687500000000055
40
0.687500000000055
40
0.750000000000044
40
0.750000000000044
40
0.812500000000033
40
0.812500000000033
40
0.875000000000022
40
0.875000000000022
40
0.937500000000011
40
0.937500000000011
40
1
40
1
40
1
40
1
41
1
10
73.4800970646944
20
-1.84358959607133
30
0
41
1
10
73.4930383883829
20
-1.84993667792546
30
0
41
1
10
73.5080988627763
20
-1.85854370043938
30
0
41
1
10
73.533033370972
20
-1.87389813551698
30
0
41
1
10
73.5417460728087
20
-1.8794362277377
30
0
41
1
10
73.5599227008082
20
-1.89130067484595
30
0
41
1
10
73.5692525961266
20
-1.89753971433487
30
0
41
1
10
73.5978326263782
20
-1.91705335895495
30
0
41
1
10
73.6176917736931
20
-1.9311299416635
30
0
41
1
10
73.6485625155156
20
-1.95377788581294
30
0
41
1
10
73.659065774203
20
-1.96160916727055
30
0
41
1
10
73.6802996296478
20
-1.97770907393217
30
0
41
1
10
73.6909534516605
20
-1.98591875647875
30
0
41
1
10
73.7230093203775
20
-2.01103821869572
30
0
41
1
10
73.7445048772164
20
-2.02842976539367
30
0
41
1
10
73.7768900199339
20
-2.05566602370803
30
0
41
1
10
73.7877616548445
20
-2.06498464200175
30
0
41
1
10
73.8092814827114
20
-2.08383764197862
30
0
41
1
10
73.8198880024661
20
-2.0933334463584
30
0
41
1
10
73.8407587344641
20
-2.11248612054538
30
0
41
1
10
73.8510233342728
20
-2.12214280373854
30
0
41
1
10
73.8711519985987
20
-2.14164969082964
30
0
41
1
10
73.881065859833
20
-2.15155456036041
30
0
41
1
10
73.8998615929616
20
-2.1710396166952
30
0
41
1
10
73.9088025891343
20
-2.18067325289678
30
0
41
1
10
73.9256176210233
20
-2.19968541472255
30
0
41
1
10
73.9335324076583
20
-2.20911901730278
30
0
41
1
10
73.9405958365067
20
-2.21815029162755
30
0
0
SPLINE
5
122
100
AcDbEntity
8
1
62
256
6
ByLayer
370
18
48
1
60
0
100
AcDbSpline
70
4
71
3
72
12
73
8
40
0
40
0
40
0
40
0
40
0.5
40
0.5
40
0.75
40
0.75
40
1
40
1
40
1
40
1
41
1
10
73.9405958365066
20
-2.21815029162676
30
0
41
1
10
74.0394881020244
20
-2.34459358109206
30
0
41
1
10
74.13743295656
20
-2.47708411516672
30
0
41
1
10
74.283323789886
20
-2.68452294883946
30
0
41
1
10
74.3317370354277
20
-2.7550610727165
30
0
41
1
10
74.4280770683654
20
-2.89871086922486
30
0
41
1
10
74.476019973523
20
-2.97185611305096
30
0
41
1
10
74.5237729949303
20
-3.04627950477379
30
0
0
SPLINE
5
123
100
AcDbEntity
8
1
62
256
6
ByLayer
370
18
48
1
60
0
100
AcDbSpline
70
4
71
3
72
10
73
6
40
0
40
0
40
0
40
0
40
0.5
40
0.5
40
1
40
1
40
1
40
1
41
1
10
74.7199214044136
20
-3.22561370395127
30
0
41
1
10
74.8180545493651
20
-3.2482837814257
30
0
41
1
10
74.9169727570973
20
-3.26174797227392
30
0
41
1
10
75.1169165234682
20
-3.27009913926869
30
0
41
1
10
75.2176164068739
20
-3.26495562523124
30
0
41
1
10
75.31934218416
20
-3.25042336372053
30
0
0
SPLINE
5
124
100
AcDbEntity
8
1
62
256
6
ByLayer
370
18
48
1
60
0
100
AcDbSpline
70
4
71
3
72
32
73
28
40
0
40
0
40
0
40
0
40
0.12499999999995
40
0.12499999999995
40
0.187499999999944
40
0.187499999999944
40
0.249999999999937
40
0.249999999999937
40
0.374999999999926
40
0.374999999999926
40
0.437499999999919
40
0.437499999999919
40
0.499999999999913
40
0.499999999999913
40
0.624999999999899
40
0.624999999999899
40
0.687499999999916
40
0.687499999999916
40
0.749999999999933
40
0.749999999999933
40
0.812499999999949
40
0.812499999999949
40
0.874999999999966
40
0.874999999999966
40
0.937499999999983
40
0.937499999999983
40
1
40
1
40
1
40
1
41
1
10
75.3193421841594
20
-3.25042336371928
30
0
41
1
10
75.3322896829554
20
-3.2485737200652
30
0
41
1
10
75.3473569298793
20
-3.24967035753411
30
0
41
1
10
75.3723008297188
20
-3.25450821976421
30
0
41
1
10
75.3810165676117
20
-3.25666922574027
30
0
41
1
10
75.3991990381868
20
-3.26201956373535
30
0
41
1
10
75.408531820575
20
-3.26516980711855
30
0
41
1
10
75.4371191365187
20
-3.2758873211304
30
0
41
1
10
75.4569819422699
20
-3.28471203208548
30
0
41
1
10
75.487856789976
20
-3.30032755903042
30
0
41
1
10
75.4983613341369
20
-3.30595146572821
30
0
41
1
10
75.5195964947941
20
-3.31795391881909
30
0
41
1
10
75.5302507947233
20
-3.32428747163286
30
0
41
1
10
75.5623075447275
20
-3.34428789407374
30
0
41
1
10
75.5838029858018
20
-3.35893773270547
30
0
41
1
10
75.6161862382669
20
-3.38316851063746
30
0
41
1
10
75.6270571007643
20
-3.39166914301887
30
0
41
1
10
75.648573090842
20
-3.40931897141795
30
0
41
1
10
75.659177446243
20
-3.41843038795841
30
0
41
1
10
75.6800432235322
20
-3.43728401922775
30
0
41
1
10
75.6903050335588
20
-3.44702552699348
30
0
41
1
10
75.7104273079521
20
-3.46723986284178
30
0
41
1
10
75.7203377576719
20
-3.47777525615484
30
0
41
1
10
75.7391266509891
20
-3.49911698819605
30
0
41
1
10
75.7480639595926
20
-3.50997480364668
30
0
41
1
10
75.7648712597639
20
-3.53212675628754
30
0
41
1
10
75.7727824014454
20
-3.54349226081365
30
0
41
1
10
75.7798435348377
20
-3.55483145154807
30
0
0
SPLINE
5
125
100
AcDbEntity
8
1
62
256
6
ByLayer
370
18
48
1
60
0
100
AcDbSpline
70
4
71
3
72
12
73
8
40
0
40
0
40
0
40
0
40
0.500000000000007
40
0.500000000000007
40
0.750000000000004
40
0.750000000000004
40
1
40
1
40
1
40
1
41
1
10
75.7798435348377
20
-3.55483145154747
30
0
41
1
10
75.8786700209427
20
-3.71353293943656
30
0
41
1
10
75.9765634604724
20
-3.87600712670911
30
0
41
1
10
76.1224047629098
20
-4.12502569463436
30
0
41
1
10
76.1708114710484
20
-4.20885185387118
30
0
41
1
10
76.2671512788711
20
-4.3778845937089
30
0
41
1
10
76.3151032341316
20
-4.46312395310443
30
0
41
1
10
76.3628695943354
20
-4.54906347906655
30
0
0
SPLINE
5
126
100
AcDbEntity
8
1
62
256
6
ByLayer
370
18
48
1
60
0
100
AcDbSpline
70
4
71
3
72
12
73
8
40
0
40
0
40
0
40
0
40
0.250000000000003
40
0.250000000000003
40
0.500000000000007
40
0.500000000000007
40
1
40
1
40
1
40
1
41
1
10
76.5594412881787
20
-4.68500965213144
30
0
41
1
10
76.608507827069
20
-4.66374709437017
30
0
41
1
10
76.6577356168179
20
-4.64040899204082
30
0
41
1
10
76.7566616067465
20
-4.58927423170354
30
0
41
1
10
76.8063589338819
20
-4.56149451205096
30
0
41
1
10
76.956241292466
20
-4.4714747675398
30
0
41
1
10
77.0568996481275
20
-4.40274699421175
30
0
41
1
10
77.1585921869356
20
-4.32529222473812
30
0
0
SPLINE
5
127
100
AcDbEntity
8
1
62
256
6
ByLayer
370
18
48
1
60
0
100
AcDbSpline
70
4
71
3
72
32
73
28
40
0
40
0
40
0
40
0
40
0.125000000000015
40
0.125000000000015
40
0.187500000000039
40
0.187500000000039
40
0.250000000000064
40
0.250000000000064
40
0.375000000000073
40
0.375000000000073
40
0.437500000000098
40
0.437500000000098
40
0.500000000000124
40
0.500000000000124
40
0.625000000000129
40
0.625000000000129
40
0.687500000000107
40
0.687500000000107
40
0.750000000000086
40
0.750000000000086
40
0.812500000000064
40
0.812500000000064
40
0.875000000000043
40
0.875000000000043
40
0.937500000000022
40
0.937500000000022
40
1
40
1
40
1
40
1
41
1
10
77.1585921869356
20
-4.32529222473809
30
0
41
1
10
77.1715478225771
20
-4.31542448238685
30
0
41
1
10
77.1866242491811
20
-4.30889068915181
30
0
41
1
10
77.2115808631758
20
-4.30270802124915
30
0
41
1
10
77.2203007001584
20
-4.30126832963666
30
0
41
1
10
77.2384908701991
20
-4.29955302051701
30
0
41
1
10
77.2478265993354
20
-4.29929050664757
30
0
41
1
10
77.2764223006015
20
-4.30011208842433
30
0
41
1
10
77.2962891143964
20
-4.30278182075497
30
0
41
1
10
77.3271673724343
20
-4.30976910263502
30
0
41
1
10
77.3376725777375
20
-4.31261109872099
30
0
41
1
10
77.3589082708615
20
-4.31929101165858
30
0
41
1
10
77.3695625935055
20
-4.32310217617811
30
0
41
1
10
77.4016187034154
20
-4.33594314412588
30
0
41
1
10
77.4231127947773
20
-4.34635721348505
30
0
41
1
10
77.4554924006822
20
-4.36511095193586
30
0
41
1
10
77.4663615050706
20
-4.37192612863512
30
0
41
1
10
77.4878752175163
20
-4.38657396646059
30
0
41
1
10
77.49847846142
20
-4.39437235861414
30
0
41
1
10
77.5193419594093
20
-4.41100524178836
30
0
41
1
10
77.5296026012287
20
-4.41983858074371
30
0
41
1
10
77.5497223628197
20
-4.43869949605968
30
0
41
1
10
77.5596321855846
20
-4.44879160909252
30
0
41
1
10
77.5784213203246
20
-4.46981569781343
30
0
41
1
10
77.5873587831684
20
-4.48079141336549
30
0
41
1
10
77.6041664203957
20
-4.50382549491414
30
0
41
1
10
77.6120783223343
20
-4.51596445285367
30
0
41
1
10
77.6191413871634
20
-4.52845597068927
30
0
0
SPLINE
5
128
100
AcDbEntity
8
1
62
256
6
ByLayer
370
18
48
1
60
0
100
AcDbSpline
70
4
71
3
72
12
73
8
40
0
40
0
40
0
40
0
40
0.499999999999991
40
0.499999999999991
40
0.749999999999995
40
0.749999999999995
40
1
40
1
40
1
40
1
41
1
10
77.6191413871634
20
-4.52845597068901
30
0
41
1
10
77.7088374087809
20
-4.68708957818274
30
0
41
1
10
77.7977709071182
20
-4.84666585722945
30
0
41
1
10
77.9303248571003
20
-5.08725620658652
30
0
41
1
10
77.9743741179921
20
-5.16766993770182
30
0
41
1
10
78.0620589176316
20
-5.32855507062567
30
0
41
1
10
78.1057166534696
20
-5.40906637618261
30
0
41
1
10
78.149213488949
20
-5.48963387443712
30
0
0
SPLINE
5
129
100
AcDbEntity
8
1
62
256
6
ByLayer
370
18
48
1
60
0
100
AcDbSpline
70
4
71
3
72
8
73
4
40
0
40
0
40
0
40
0
40
1
40
1
40
1
40
1
41
1
10
78.149213488949
20
-5.48963387443712
30
0
41
1
10
78.2688582178657
20
-5.51317587251151
30
0
41
1
10
78.3891259268599
20
-5.5323167090815
30
0
41
1
10
78.5100982567032
20
-5.54697291711111
30
0
0
SPLINE
5
12A
100
AcDbEntity
8
1
62
256
6
ByLayer
370
18
48
1
60
0
100
AcDbSpline
70
4
71
3
72
12
73
8
40
0
40
0
40
0
40
0
40
0.250000000000004
40
0.250000000000004
40
0.500000000000008
40
0.500000000000008
40
1
40
1
40
1
40
1
41
1
10
78.5100982567031
20
-5.54697291711113
30
0
41
1
10
78.550181192757
20
-5.50273085621279
30
0
41
1
10
78.5903916447298
20
-5.4573167138455
30
0
41
1
10
78.6711019851575
20
-5.36414401917705
30
0
41
1
10
78.7116159564407
20
-5.31636786513664
30
0
41
1
10
78.8335225948187
20
-5.16953227887475
30
0
41
1
10
78.9153257660954
20
-5.06692864419389
30
0
41
1
10
78.9978337672549
20
-4.95960593133475
30
0
0
SPLINE
5
12B
100
AcDbEntity
8
1
62
256
6
ByLayer
370
18
48
1
60
0
100
AcDbSpline
70
4
71
3
72
32
73
28
40
0
40
0
40
0
40
0
40
0.125000000000011
40
0.125000000000011
40
0.187500000000016
40
0.187500000000016
40
0.250000000000021
40
0.250000000000021
40
0.375000000000031
40
0.375000000000031
40
0.437500000000014
40
0.437500000000014
40
0.499999999999997
40
0.499999999999997
40
0.624999999999963
40
0.624999999999963
40
0.687499999999969
40
0.687499999999969
40
0.749999999999975
40
0.749999999999975
40
0.812499999999982
40
0.812499999999982
40
0.874999999999988
40
0.874999999999988
40
0.937499999999994
40
0.937499999999994
40
1
40
1
40
1
40
1
41
1
10
78.9978337672549
20
-4.95960593133475
30
0
41
1
10
79.0108008782042
20
-4.94273889413285
30
0
41
1
10
79.025890355491
20
-4.92925592015348
30
0
41
1
10
79.05086612542
20
-4.9127079499917
30
0
41
1
10
79.0595923289353
20
-4.90782304916598
30
0
41
1
10
79.0777950480005
20
-4.89923529880249
30
0
41
1
10
79.0871357728659
20
-4.89559691741303
30
0
41
1
10
79.1157463769858
20
-4.88646943262998
30
0
41
1
10
79.1356214068076
20
-4.88273384124685
30
0
41
1
10
79.1665091943089
20
-4.88041560508788
30
0
41
1
10
79.1770178364722
20
-4.8801981365464
30
0
41
1
10
79.1982554283348
20
-4.88089926330503
30
0
41
1
10
79.208910266496
20
-4.88181187267625
30
0
41
1
10
79.2409665786711
20
-4.88622132208138
30
0
41
1
10
79.262459046015
20
-4.89136258146266
30
0
41
1
10
79.2948328923127
20
-4.90276334734841
30
0
41
1
10
79.3057000595615
20
-4.90721069696886
30
0
41
1
10
79.3272032663092
20
-4.9173826806547
30
0
41
1
10
79.3378010339916
20
-4.92308178887339
30
0
41
1
10
79.3586530841265
20
-4.93581330414312
30
0
41
1
10
79.3689077538845
20
-4.94284423903039
30
0
41
1
10
79.3890150257151
20
-4.95843810268295
30
0
41
1
10
79.3989183927546
20
-4.96706027249161
30
0
41
1
10
79.4176958212933
20
-4.98562201381301
30
0
41
1
10
79.4266277176741
20
-4.9955937376547
30
0
41
1
10
79.4434251094789
20
-5.01714982103516
30
0
41
1
10
79.4513329183937
20
-5.02881553967183
30
0
41
1
10
79.4583944493545
20
-5.04117462884977
30
0
0
SPLINE
5
12C
100
AcDbEntity
8
1
62
256
6
ByLayer
370
18
48
1
60
0
100
AcDbSpline
70
4
71
3
72
8
73
4
40
0
40
0
40
0
40
0
40
1
40
1
40
1
40
1
41
1
10
79.4583944493544
20
-5.04117462884966
30
0
41
1
10
79.5538890426828
20
-5.20830923485832
30
0
41
1
10
79.6485095983209
20
-5.37397549548555
30
0
41
1
10
79.7425019053412
20
-5.53810727775442
30
0
0
SPLINE
5
12D
100
AcDbEntity
8
1
62
256
6
ByLayer
370
18
48
1
60
0
100
AcDbSpline
70
4
71
3
72
10
73
6
40
0
40
0
40
0
40
0
40
0.5
40
0.5
40
1
40
1
40
1
40
1
41
1
10
79.7425019053411
20
-5.53810727775442
30
0
41
1
10
79.8997171304747
20
-5.51757530784855
30
0
41
1
10
80.057576250497
20
-5.48998205162209
30
0
41
1
10
80.3749935845583
20
-5.42070280777014
30
0
41
1
10
80.534590641207
20
-5.37901086799894
30
0
41
1
10
80.6950808067681
20
-5.33028649109133
30
0
0
SPLINE
5
12E
100
AcDbEntity
8
1
62
256
6
ByLayer
370
18
48
1
60
0
100
AcDbSpline
70
4
71
3
72
8
73
4
40
0
40
0
40
0
40
0
40
1
40
1
40
1
40
1
41
1
10
80.695080806768
20
-5.33028649109133
30
0
41
1
10
80.7421716775129
20
-5.25127595764073
30
0
41
1
10
80.7894388565311
20
-5.17125236703382
30
0
41
1
10
80.8369329839933
20
-5.09018407318882
30
0
0
SPLINE
5
12F
100
AcDbEntity
8
1
62
256
6
ByLayer
370
18
48
1
60
0
100
AcDbSpline
70
4
71
3
72
32
73
28
40
0
40
0
40
0
40
0
40
0.124999999999994
40
0.124999999999994
40
0.187499999999973
40
0.187499999999973
40
0.249999999999953
40
0.249999999999953
40
0.37499999999987
40
0.37499999999987
40
0.437499999999851
40
0.437499999999851
40
0.499999999999832
40
0.499999999999832
40
0.624999999999839
40
0.624999999999839
40
0.687499999999866
40
0.687499999999866
40
0.749999999999893
40
0.749999999999893
40
0.81249999999992
40
0.81249999999992
40
0.874999999999946
40
0.874999999999946
40
0.937499999999973
40
0.937499999999973
40
1
40
1
40
1
40
1
41
1
10
80.8369329839932
20
-5.09018407318882
30
0
41
1
10
80.849916870912
20
-5.06802172141636
30
0
41
1
10
80.8650237889659
20
-5.04894903695705
30
0
41
1
10
80.8900213677104
20
-5.02369745978663
30
0
41
1
10
80.8987541881205
20
-5.01585646743283
30
0
41
1
10
80.9169684251441
20
-5.001252535259
30
0
41
1
10
80.926311768583
20
-4.99460050163165
30
0
41
1
10
80.9549312625685
20
-4.97642283138123
30
0
41
1
10
80.9748091414781
20
-4.96663766964329
30
0
41
1
10
81.0056980873753
20
-4.95520534094521
30
0
41
1
10
81.0162061940776
20
-4.95193420570379
30
0
41
1
10
81.0374435669522
20
-4.94655081714072
30
0
41
1
10
81.0480982107279
20
-4.94445369276545
30
0
41
1
10
81.080153660311
20
-4.93992485868844
30
0
41
1
10
81.1016452163919
20
-4.93922731235446
30
0
41
1
10
81.1340165098232
20
-4.94204469170856
30
0
41
1
10
81.144881577875
20
-4.94364632644928
30
0
41
1
10
81.166388439291
20
-4.94826119438201
30
0
41
1
10
81.1769881891618
20
-4.95125779662749
30
0
41
1
10
81.1978442901065
20
-4.9587456195602
30
0
41
1
10
81.2081010285791
20
-4.96323519809272
30
0
41
1
10
81.2282122847415
20
-4.97392814842391
30
0
41
1
10
81.2381193563387
20
-4.98018013906852
30
0
41
1
10
81.2569073633959
20
-4.99434913528629
30
0
41
1
10
81.2658444045701
20
-5.00228232141859
30
0
41
1
10
81.282651479391
20
-5.02012954515007
30
0
41
1
10
81.2905648194394
20
-5.03011745997483
30
0
41
1
10
81.2976330940192
20
-5.04107127975587
30
0
0
SPLINE
5
130
100
AcDbEntity
8
1
62
256
6
ByLayer
370
18
48
1
60
0
100
AcDbSpline
70
4
71
3
72
8
73
4
40
0
40
0
40
0
40
0
40
1
40
1
40
1
40
1
41
1
10
81.2976330940192
20
-5.04107127975595
30
0
41
1
10
81.3105753459514
20
-5.06112809753023
30
0
41
1
10
81.323501733935
20
-5.08111466838616
30
0
41
1
10
81.3364126217594
20
-5.10103021017088
30
0
0
SPLINE
5
131
100
AcDbEntity
8
1
62
256
6
ByLayer
370
18
48
1
60
0
100
AcDbSpline
70
4
71
3
72
10
73
6
40
0
40
0
40
0
40
0
40
0.5
40
0.5
40
1
40
1
40
1
40
1
41
1
10
81.3364126217595
20
-5.10103021017082
30
0
41
1
10
81.5117356828272
20
-5.02935026454207
30
0
41
1
10
81.6877891237164
20
-4.95035540200635
30
0
41
1
10
82.0419627956602
20
-4.77862088316678
30
0
41
1
10
82.2199405776806
20
-4.6858471717604
30
0
41
1
10
82.3999998942487
20
-4.58656552730432
30
0
0
SPLINE
5
132
100
AcDbEntity
8
1
62
256
6
ByLayer
370
18
48
1
60
0
100
AcDbSpline
70
4
71
3
72
14
73
10
40
0
40
0
40
0
40
0
40
0.25
40
0.25
40
0.5
40
0.5
40
0.75
40
0.75
40
1
40
1
40
1
40
1
41
1
10
82.3999998942488
20
-4.58656552730432
30
0
41
1
10
82.4475434614631
20
-4.52630027719775
30
0
41
1
10
82.4956160962253
20
-4.46559709797862
30
0
41
1
10
82.593011799991
20
-4.34340546561029
30
0
41
1
10
82.6423755242532
20
-4.28186510969479
30
0
41
1
10
82.742353437259
20
-4.15835422282305
30
0
41
1
10
82.7929575709379
20
-4.09639607496359
30
0
41
1
10
82.8955085342321
20
-3.9724001573484
30
0
41
1
10
82.9473799448943
20
-3.9104527457975
30
0
41
1
10
83
20
-3.84864650874724
30
0
0
SPLINE
5
133
100
AcDbEntity
8
1
62
256
6
ByLayer
370
18
48
1
60
0
100
AcDbSpline
70
4
71
3
72
23
73
19
40
0
40
0
40
0
40
0
40
0.175346235454332
40
0.175346235454332
40
0.263019353181498
40
0.263019353181498
40
0.350692470908664
40
0.350692470908664
40
0.394529029772247
40
0.394529029772247
40
0.43836558863583
40
0.43836558863583
40
0.482202147499413
40
0.482202147499413
40
0.526038706362996
40
0.701384941817328
40
0.701384941817328
40
1
40
1
40
1
40
1
41
1
10
83
20
-3.84864650874724
30
0
41
1
10
83
20
-3.74003421679339
30
0
41
1
10
83
20
-3.63833365494409
30
0
41
1
10
83
20
-3.49574387030711
30
0
41
1
10
83
20
-3.4498780085452
30
0
41
1
10
83
20
-3.36146040006912
30
0
41
1
10
83
20
-3.31890316154099
30
0
41
1
10
83
20
-3.25764040865002
30
0
41
1
10
83
20
-3.23767366420057
30
0
41
1
10
83
20
-3.19797073018989
30
0
41
1
10
83
20
-3.17830700336771
30
0
41
1
10
83
20
-3.13938562592233
30
0
41
1
10
83
20
-3.12011717270869
30
0
41
1
10
83
20
-3.08213520175181
30
0
41
1
10
83
20
-2.98847315735122
30
0
41
1
10
83
20
-2.90117799917539
30
0
41
1
10
83
20
-2.7231344436988
30
0
41
1
10
83
20
-2.62247612769477
30
0
41
1
10
83
20
-2.53332650873955
30
0
0
SPLINE
5
134
100
AcDbEntity
8
1
62
256
6
ByLayer
370
18
48
1
60
0
100
AcDbSpline
70
4
71
3
72
12
73
8
40
0
40
0
40
0
40
0
40
0.500000000000001
40
0.500000000000001
40
0.75
40
0.75
40
1
40
1
40
1
40
1
41
1
10
83
20
-2.48772582888492
30
0
41
1
10
82.9020374098926
20
-2.48364552972336
30
0
41
1
10
82.802988041988
20
-2.47971308244297
30
0
41
1
10
82.652940992577
20
-2.47462611523588
30
0
41
1
10
82.6026862705965
20
-2.47305375356393
30
0
41
1
10
82.5017026194232
20
-2.4703194874206
30
0
41
1
10
82.450983851938
20
-2.46912971158301
30
0
41
1
10
82.4000000627318
20
-2.46833981138127
30
0
0
SPLINE
5
135
100
AcDbEntity
8
1
62
256
6
ByLayer
370
18
48
1
60
0
100
AcDbSpline
70
4
71
3
72
14
73
10
40
0
40
0
40
0
40
0
40
0.124999999999998
40
0.124999999999998
40
0.249999999999996
40
0.249999999999996
40
0.499999999999992
40
0.499999999999992
40
1
40
1
40
1
40
1
41
1
10
82.4000000627318
20
-2.46833981138119
30
0
41
1
10
82.3407544601651
20
-2.43537122229191
30
0
41
1
10
82.2816549598906
20
-2.40187024826099
30
0
41
1
10
82.1639205091589
20
-2.33360384701058
30
0
41
1
10
82.1052768700352
20
-2.29884780862156
30
0
41
1
10
81.9299531767722
20
-2.19277366710358
30
0
41
1
10
81.8138768903973
20
-2.11965376349832
30
0
41
1
10
81.4676257393912
20
-1.89350283599475
30
0
41
1
10
81.239439660459
20
-1.73367298836794
30
0
41
1
10
81.0128980499867
20
-1.56564616858466
30
0
0
SPLINE
5
136
100
AcDbEntity
8
1
62
256
6
ByLayer
370
18
48
1
60
0
100
AcDbSpline
70
4
71
3
72
8
73
4
40
0
40
0
40
0
40
0
40
1
40
1
40
1
40
1
41
1
10
81.0128980499866
20
-1.56564616858464
30
0
41
1
10
80.9721175187183
20
-1.49369658462868
30
0
41
1
10
80.9312132089821
20
-1.42264404385358
30
0
41
1
10
80.8901573988649
20
-1.35252462063252
30
0
0
SPLINE
5
137
100
AcDbEntity
8
1
62
256
6
ByLayer
370
18
48
1
60
0
100
AcDbSpline
70
4
71
3
72
32
73
28
40
0
40
0
40
0
40
0
40
0.124999999999903
40
0.124999999999903
40
0.18749999999987
40
0.18749999999987
40
0.249999999999838
40
0.249999999999838
40
0.374999999999774
40
0.374999999999774
40
0.437499999999764
40
0.437499999999764
40
0.499999999999754
40
0.499999999999754
40
0.62499999999978
40
0.62499999999978
40
0.687499999999817
40
0.687499999999817
40
0.749999999999854
40
0.749999999999854
40
0.81249999999989
40
0.81249999999989
40
0.874999999999927
40
0.874999999999927
40
0.937499999999963
40
0.937499999999963
40
1
40
1
40
1
40
1
41
1
10
80.8901573988649
20
-1.35252462063247
30
0
41
1
10
80.8776633437635
20
-1.3311859615024
30
0
41
1
10
80.8631727799114
20
-1.3097564220667
30
0
41
1
10
80.8391459250518
20
-1.27753577157779
30
0
41
1
10
80.8307445380759
20
-1.26677945029292
30
0
41
1
10
80.8132099914949
20
-1.24524979486458
30
0
41
1
10
80.8041970265795
20
-1.23462357924913
30
0
41
1
10
80.7764884481895
20
-1.20312088773019
30
0
41
1
10
80.7571305524031
20
-1.1826166774934
30
0
41
1
10
80.7268576422895
20
-1.1525386409495
30
0
41
1
10
80.7165586433686
20
-1.14262669958072
30
0
41
1
10
80.6955361494609
20
-1.12303130357532
30
0
41
1
10
80.6849082449038
20
-1.11343844369674
30
0
41
1
10
80.6529183073042
20
-1.08547055138749
30
0
41
1
10
80.6313558478654
20
-1.06780472619084
30
0
41
1
10
80.5986843383756
20
-1.04289283249184
30
0
41
1
10
80.587738783531
20
-1.03485575552574
30
0
41
1
10
80.5657338994016
20
-1.01938054822381
30
0
41
1
10
80.554719390265
20
-1.01197865584533
30
0
41
1
10
80.5331397279649
20
-0.998224372891514
30
0
41
1
10
80.5225125227419
20
-0.991826757320894
30
0
41
1
10
80.5016450635773
20
-0.980131987370129
30
0
41
1
10
80.4913292645067
20
-0.974802312995621
30
0
41
1
10
80.4717473854012
20
-0.965751020202134
30
0
41
1
10
80.4624404288402
20
-0.961997575340689
30
0
41
1
10
80.4449653967832
20
-0.956309048507279
30
0
41
1
10
80.4367814253476
20
-0.954385075825286
30
0
41
1
10
80.4295534403408
20
-0.953629006422261
30
0
0
SPLINE
5
138
100
AcDbEntity
8
1
62
256
6
ByLayer
370
18
48
1
60
0
100
AcDbSpline
70
4
71
3
72
12
73
8
40
0
40
0
40
0
40
0
40
0.182817177489474
40
0.182817177489474
40
0.591408588744737
40
0.591408588744737
40
1
40
1
40
1
40
1
41
1
10
70.4411103904925
20
6.08032334356716
30
0
41
1
10
70.4421616009497
20
6.08032111078469
30
0
41
1
10
70.4432116178308
20
6.08018762427844
30
0
41
1
10
70.4466046502256
20
6.07932927124324
30
0
41
1
10
70.4489448678526
20
6.07807409137504
30
0
41
1
10
70.4535912440203
20
6.07425755429682
30
0
41
1
10
70.4559005518524
20
6.07169644798671
30
0
41
1
10
70.4581986625459
20
6.06848952269195
30
0
0
SPLINE
5
139
100
AcDbEntity
8
1
62
256
6
ByLayer
370
18
48
1
60
0
100
AcDbSpline
70
4
71
3
72
8
73
4
40
0
40
0
40
0
40
0
40
1
40
1
40
1
40
1
41
1
10
68.0016855233901
20
-6.08032355122805
30
0
41
1
10
67.9930891020129
20
-6.08033621013593
30
0
41
1
10
67.9845219419403
20
-6.07151883932494
30
0
41
1
10
67.9759070368596
20
-6.05381238860537
30
0
0
SPLINE
5
13A
100
AcDbEntity
8
1
62
256
6
ByLayer
370
18
48
1
60
0
100
AcDbSpline
70
4
71
3
72
8
73
4
40
0
40
0
40
0
40
0
40
1
40
1
40
1
40
1
41
1
10
70.6538348454173
20
6.05201001732684
30
0
41
1
10
70.6448896042345
20
6.07092979417416
30
0
41
1
10
70.6359164001869
20
6.08033649899502
30
0
41
1
10
70.626917135595
20
6.08032332285029
30
0
0
SPLINE
5
13B
100
AcDbEntity
8
1
62
256
6
ByLayer
370
18
48
1
60
0
100
AcDbSpline
70
4
71
3
72
12
73
8
40
0
40
0
40
0
40
0
40
0.794672476506856
40
0.794672476506856
40
0.993340595633571
40
0.993340595633571
40
1
40
1
40
1
40
1
41
1
10
67.7797728158115
20
-6.03089877549553
30
0
41
1
10
67.7892595203785
20
-6.05688508680535
30
0
41
1
10
67.7987890441552
20
-6.07275893940923
30
0
41
1
10
67.8107385357524
20
-6.0795663068248
30
0
41
1
10
67.8131338440014
20
-6.08027387505871
30
0
41
1
10
67.8156010510491
20
-6.08032227484213
30
0
41
1
10
67.81568106079
20
-6.08032310473735
30
0
41
1
10
67.8157610611499
20
-6.08032319507203
30
0
0
SPLINE
5
13C
100
AcDbEntity
8
1
62
256
6
ByLayer
370
18
48
1
60
0
100
AcDbSpline
70
4
71
3
72
18
73
14
40
0
40
0
40
0
40
0
40
0.134351359265814
40
0.134351359265814
40
0.278626132721511
40
0.278626132721511
40
0.350763519449361
40
0.350763519449361
40
0.42290090617721
40
0.42290090617721
40
0.711450453088605
40
0.711450453088605
40
1
40
1
40
1
40
1
41
1
10
66.5681730994218
20
-5.53238042098647
30
0
41
1
10
66.5661622456265
20
-5.52888769354828
30
0
41
1
10
66.5641496933232
20
-5.52362187020714
30
0
41
1
10
66.5599646433869
20
-5.50898635957407
30
0
41
1
10
66.5577911591559
20
-5.49933865948807
30
0
41
1
10
66.5545133122509
20
-5.48169526598269
30
0
41
1
10
66.5534177545601
20
-5.47528524952759
30
0
41
1
10
66.5512193782709
20
-5.46139308252694
30
0
41
1
10
66.5501197977945
20
-5.45393079725693
30
0
41
1
10
66.5446265480656
20
-5.41412441424092
30
0
41
1
10
66.5402358891647
20
-5.37424892706795
30
0
41
1
10
66.5313947837436
20
-5.278793839684
30
0
41
1
10
66.5269377376848
20
-5.22320273101519
30
0
41
1
10
66.5224705114777
20
-5.1598056040888
30
0
0
SPLINE
5
13D
100
AcDbEntity
8
1
62
256
6
ByLayer
370
13
48
1
60
0
100
AcDbSpline
70
4
71
3
72
9
73
5
40
0
40
0
40
0
40
0
40
0.535131049340185
40
1
40
1
40
1
40
1
41
1
10
71.6933540344807
20
4.96627352014528
30
0
41
1
10
71.6770745384911
20
5.03586105698929
30
0
41
1
10
71.6466350644637
20
5.11861220890356
30
0
41
1
10
71.6160585134994
20
5.10872004758969
30
0
41
1
10
71.6018155584663
20
5.08413700897685
30
0
0
SPLINE
5
13E
100
AcDbEntity
8
1
62
256
6
ByLayer
370
18
48
1
60
0
100
AcDbSpline
70
4
71
3
72
18
73
14
40
0
40
0
40
0
40
0
40
0.207760495273645
40
0.207760495273645
40
0.339800412728037
40
0.339800412728037
40
0.405820371455233
40
0.405820371455233
40
0.471840330182429
40
0.471840330182429
40
0.735920165091215
40
0.735920165091215
40
1
40
1
40
1
40
1
41
1
10
72.1901382732928
20
6.08032540642077
30
0
41
1
10
72.1974754923723
20
6.08034297424527
30
0
41
1
10
72.2048360949871
20
6.07398396202834
30
0
41
1
10
72.216994862967
20
6.05305081502334
30
0
41
1
10
72.221744110454
20
6.04231057448908
30
0
41
1
10
72.2289013679543
20
6.02222037855464
30
0
41
1
10
72.2312927134782
20
6.01486000465221
30
0
41
1
10
72.2360863836039
20
5.99879595500738
30
0
41
1
10
72.2384787567027
20
5.99012549641574
30
0
41
1
10
72.2504148715264
20
5.943630990484
30
0
41
1
10
72.2598826052368
20
5.89639277360078
30
0
41
1
10
72.2786979675852
20
5.78239139545144
30
0
41
1
10
72.2880454815611
20
5.71562688467731
30
0
41
1
10
72.2973868594582
20
5.6390749796295
30
0
0
SPLINE
5
13F
100
AcDbEntity
8
1
62
256
6
ByLayer
370
18
48
1
60
0
100
AcDbSpline
70
4
71
3
72
18
73
14
40
0
40
0
40
0
40
0
40
0.242335950357747
40
0.242335950357747
40
0.363503925536621
40
0.363503925536621
40
0.484671900715494
40
0.484671900715494
40
0.727007851073242
40
0.727007851073242
40
0.96934380143099
40
0.96934380143099
40
1
40
1
40
1
40
1
41
1
10
72.4928854482078
20
5.55823342820088
30
0
41
1
10
72.4835637590475
20
5.64114144057734
30
0
41
1
10
72.4742439459673
20
5.71492022121271
30
0
41
1
10
72.4601159188436
20
5.81139450580824
30
0
41
1
10
72.4554178796836
20
5.84092843694862
30
0
41
1
10
72.4460280394002
20
5.89478156107361
30
0
41
1
10
72.4413354930765
20
5.91911424670963
30
0
41
1
10
72.4272647470831
20
5.98444114072689
30
0
41
1
10
72.4178948828385
20
6.01778331781955
30
0
41
1
10
72.3991265126524
20
6.06416211979442
30
0
41
1
10
72.3897268198253
20
6.07719973032945
30
0
41
1
10
72.3790740749213
20
6.08016022195449
30
0
41
1
10
72.3778768870596
20
6.08032568235919
30
0
41
1
10
72.3766786957356
20
6.08032319815808
30
0
0
SPLINE
5
140
100
AcDbEntity
8
1
62
256
6
ByLayer
370
13
48
1
60
0
100
AcDbSpline
70
4
71
3
72
9
73
5
40
0
40
0
40
0
40
0
40
0.556854667145213
40
1
40
1
40
1
40
1
41
1.04
10
73.0720387227524
20
4.54062407821463
30
0
41
1.04
10
73.0526939738322
20
4.70289139584131
30
0
41
1.04
10
73.0174812104045
20
4.93959119652192
30
0
41
1.04
10
72.9813817122666
20
5.05814570419142
30
0
41
1.04
10
72.9651611037383
20
5.08517638366976
30
0
0
SPLINE
5
141
100
AcDbEntity
8
1
62
256
6
ByLayer
370
13
48
1
60
0
100
AcDbSpline
70
4
71
3
72
9
73
5
40
0
40
0
40
0
40
0
40
0.51761042548712
40
1
40
1
40
1
40
1
41
1
10
73.5326956207607
20
4.33837312579635
30
0
41
1
10
73.5057369072096
20
4.59890061465794
30
0
41
1
10
73.452660275231
20
4.99468005200427
30
0
41
1
10
73.3975454723891
20
5.11836942507563
30
0
41
1
10
73.3702635231151
20
5.10444799566764
30
0
0
SPLINE
5
142
100
AcDbEntity
8
1
62
256
6
ByLayer
370
18
48
1
60
0
100
AcDbSpline
70
4
71
3
72
8
73
4
40
0
40
0
40
0
40
0
40
1
40
1
40
1
40
1
41
1
10
73.3702632495856
20
5.10444785608863
30
0
41
1
10
73.366045384
20
5.10229548852786
30
0
41
1
10
73.3618109030783
20
5.09838422115484
30
0
41
1
10
73.357558990668
20
5.09267609338627
30
0
0
SPLINE
5
143
100
AcDbEntity
8
1
62
256
6
ByLayer
370
18
48
1
60
0
100
AcDbSpline
70
4
71
3
72
27
73
23
40
0
40
0
40
0
40
0
40
0.120396589509211
40
0.120396589509211
40
0.266997157924341
40
0.266997157924341
40
0.303647300028124
40
0.303647300028124
40
0.340297442131907
40
0.413597726339472
40
0.413597726339472
40
0.560198294754603
40
0.560198294754603
40
0.706798863169734
40
0.706798863169734
40
0.743449005273517
40
0.743449005273517
40
0.7800991473773
40
0.7800991473773
40
0.853399431584866
40
0.853399431584866
40
1
40
1
40
1
40
1
41
1
10
76.7521618913817
20
-6.08032487762534
30
0
41
1
10
76.744332100936
20
-6.08031361135224
30
0
41
1
10
76.7364913018413
20
-6.07334991419987
30
0
41
1
10
76.7191030588724
20
-6.04246736468843
30
0
41
1
10
76.7095509650268
20
-6.01518995899713
30
0
41
1
10
76.6975970764713
20
-5.96776422043641
30
0
41
1
10
76.6952036177917
20
-5.95760056231282
30
0
41
1
10
76.6904410803192
20
-5.93604820631634
30
0
41
1
10
76.6833244375108
20
-5.9018479467552
30
0
41
1
10
76.6762831380248
20
-5.86209753093172
30
0
41
1
10
76.6622765718091
20
-5.77531297269889
30
0
41
1
10
76.6530434661446
20
-5.70776303743349
30
0
41
1
10
76.6345827999649
20
-5.55344164780726
30
0
41
1
10
76.6253498013174
20
-5.46667091042735
30
0
41
1
10
76.6136329063297
20
-5.34592957339063
30
0
41
1
10
76.6112819928632
20
-5.32116588964368
30
0
41
1
10
76.606565272728
20
-5.27039477485047
30
0
41
1
10
76.6041964007377
20
-5.24435269748818
30
0
41
1
10
76.5970903348073
20
-5.1645974073241
30
0
41
1
10
76.5923643987614
20
-5.10938150132696
30
0
41
1
10
76.5782164721468
20
-4.93772510476617
30
0
41
1
10
76.5688265776959
20
-4.81529098775624
30
0
41
1
10
76.5594412881788
20
-4.6850096521313
30
0
0
SPLINE
5
144
100
AcDbEntity
8
1
62
256
6
ByLayer
370
18
48
1
60
0
100
AcDbSpline
70
4
71
3
72
30
73
26
40
0
40
0
40
0
40
0
40
0.0349058705130466
40
0.0349058705130466
40
0.069811741026093
40
0.069811741026093
40
0.139623482052186
40
0.139623482052186
40
0.27924696410437
40
0.27924696410437
40
0.418870446156554
40
0.418870446156554
40
0.488682187182646
40
0.488682187182646
40
0.523588057695692
40
0.523588057695692
40
0.558493928208738
40
0.558493928208738
40
0.698117410260921
40
0.698117410260921
40
0.837740892313103
40
0.837740892313103
40
0.977364374365286
40
0.977364374365286
40
1
40
1
40
1
40
1
41
1
10
76.3628695943354
20
-4.54906347906655
30
0
41
1
10
76.3652285813639
20
-4.58325331115225
30
0
41
1
10
76.3675945544403
20
-4.61701222135287
30
0
41
1
10
76.3723426724833
20
-4.68365827704986
30
0
41
1
10
76.3747242720135
20
-4.71653566197509
30
0
41
1
10
76.3818548907202
20
-4.81329341186941
30
0
41
1
10
76.3866035924402
20
-4.87549443661436
30
0
41
1
10
76.4008506174465
20
-5.05531652775875
30
0
41
1
10
76.4103532516561
20
-5.16617353198419
30
0
41
1
10
76.4293794558779
20
-5.37010988535008
30
0
41
1
10
76.4389008282106
20
-5.46318936766838
30
0
41
1
10
76.4531299477555
20
-5.58926879293969
30
0
41
1
10
76.4578651193937
20
-5.62903434470329
30
0
41
1
10
76.4649623886963
20
-5.68522453254084
30
0
41
1
10
76.4673307282431
20
-5.70340264140449
30
0
41
1
10
76.4720466168968
20
-5.73843583406187
30
0
41
1
10
76.4743945282758
20
-5.75529586336273
30
0
41
1
10
76.4860908205874
20
-5.83634989811318
30
0
41
1
10
76.4953073286319
20
-5.8908310618807
30
0
41
1
10
76.5136787064264
20
-5.97958698596958
30
0
41
1
10
76.5228354801582
20
-6.01386066085411
30
0
41
1
10
76.5413299489046
20
-6.06209348261817
30
0
41
1
10
76.5506699612615
20
-6.07605501466094
30
0
41
1
10
76.5617486052492
20
-6.08004474429603
30
0
41
1
10
76.5632955350082
20
-6.08032309401156
30
0
41
1
10
76.564843601132
20
-6.08032481504043
30
0
0
SPLINE
5
145
100
AcDbEntity
8
1
62
256
6
ByLayer
370
13
48
1
60
0
100
AcDbSpline
70
4
71
3
72
10
73
6
40
0
40
0
40
0
40
0
40
0.332975184850846
40
0.69841412912178
40
1
40
1
40
1
40
1
41
1.04
10
74.9114060264362
20
3.57284478973368
30
0
41
1.04
10
74.891582832508
20
3.83230609809665
30
0
41
1.04
10
74.8499570831827
20
4.32001723728334
30
0
41
1.04
10
74.7899089925986
20
4.81740919961016
30
0
41
1.04
10
74.7501356553509
20
4.9970549323016
30
0
41
1.04
10
74.7321979504449
20
5.04696088248715
30
0
0
SPLINE
5
146
100
AcDbEntity
8
1
62
256
6
ByLayer
370
18
48
1
60
0
100
AcDbSpline
70
4
71
3
72
8
73
4
40
0
40
0
40
0
40
0
40
1
40
1
40
1
40
1
41
1.04
10
74.7321977100912
20
5.04696155119307
30
0
41
1.04
10
74.7282808820732
20
5.05785881667925
30
0
41
1.04
10
74.7243662115234
20
5.06726282718106
30
0
41
1.04
10
74.7204535731181
20
5.07517129765361
30
0
0
SPLINE
5
147
100
AcDbEntity
8
1
62
256
6
ByLayer
370
18
48
1
60
0
100
AcDbSpline
70
4
71
3
72
27
73
23
40
0
40
0
40
0
40
0
40
0.138025821871057
40
0.138025821871057
40
0.281688184892548
40
0.281688184892548
40
0.353519366403293
40
0.353519366403293
40
0.389434957158666
40
0.389434957158666
40
0.425350547914039
40
0.425350547914039
40
0.569012910935529
40
0.569012910935529
40
0.712675273957019
40
0.712675273957019
40
0.856337636978509
40
0.856337636978509
40
0.892253227733882
40
0.892253227733882
40
0.928168818489254
40
1
40
1
40
1
40
1
41
1
10
73.9404182860711
20
6.08032329035143
30
0
41
1
10
73.9494468720201
20
6.08034455241861
30
0
41
1
10
73.9584101934677
20
6.0707600093692
30
0
41
1
10
73.9766712143269
20
6.03201499115792
30
0
41
1
10
73.9859659128852
20
6.00207028817482
30
0
41
1
10
73.9999954408376
20
5.94175359477626
30
0
41
1
10
74.0046870068293
20
5.9190766306848
30
0
41
1
10
74.011767495512
20
5.88114384055947
30
0
41
1
10
74.0141352787158
20
5.86784636980323
30
0
41
1
10
74.0188862005439
20
5.83993090382347
30
0
41
1
10
74.0212725642421
20
5.82529050509439
30
0
41
1
10
74.0331833929584
20
5.74911521801889
30
0
41
1
10
74.0426573453026
20
5.67862735725643
30
0
41
1
10
74.0614798274049
20
5.51917660171375
30
0
41
1
10
74.0708268632172
20
5.43021192748151
30
0
41
1
10
74.0894742251429
20
5.23384563767576
30
0
41
1
10
74.0987724597554
20
5.12644511729096
30
0
41
1
10
74.1105084183378
20
4.98034343434486
30
0
41
1
10
74.1128626730443
20
4.9505209917057
30
0
41
1
10
74.1175836630573
20
4.88970699719638
30
0
41
1
10
74.1246566338579
20
4.79707918531145
30
0
41
1
10
74.1317096908608
20
4.70028446876429
30
0
41
1
10
74.1364067841938
20
4.63393575854815
30
0
0
SPLINE
5
148
100
AcDbEntity
8
1
62
256
6
ByLayer
370
18
48
1
60
0
100
AcDbSpline
70
4
71
3
72
29
73
25
40
0
40
0
40
0
40
0
40
0.137176877026509
40
0.137176877026509
40
0.274353754053018
40
0.274353754053018
40
0.342942192566272
40
0.342942192566272
40
0.3772364118229
40
0.3772364118229
40
0.411530631079527
40
0.411530631079527
40
0.548707508106036
40
0.548707508106036
40
0.685884385132546
40
0.685884385132546
40
0.823061262159056
40
0.823061262159056
40
0.857355481415683
40
0.857355481415683
40
0.89164970067231
40
0.960238139185565
40
0.960238139185565
40
1
40
1
40
1
40
1
41
1
10
74.33253421583
20
4.49656144376601
30
0
41
1
10
74.3230132399683
20
4.63513412299005
30
0
41
1
10
74.3135602504052
20
4.76514178955424
30
0
41
1
10
74.2947211592961
20
5.00838856669421
30
0
41
1
10
74.2853226196466
20
5.12162683186747
30
0
41
1
10
74.2712338216419
20
5.27878971707815
30
0
41
1
10
74.2665413822409
20
5.32905766926623
30
0
41
1
10
74.2594997268829
20
5.4012279326279
30
0
41
1
10
74.2571518764487
20
5.42474580456283
30
0
41
1
10
74.2524518176226
20
5.47069170039015
30
0
41
1
10
74.2500974263851
20
5.49313855168137
30
0
41
1
10
74.2383694100545
20
5.60201913196639
30
0
41
1
10
74.2290819074629
20
5.67888389892073
30
0
41
1
10
74.2103321322593
20
5.81277179005389
30
0
41
1
10
74.2009039483238
20
5.86979407078701
30
0
41
1
10
74.1820274528859
20
5.96401760781029
30
0
41
1
10
74.1725798085488
20
6.00122026673594
30
0
41
1
10
74.1607463380422
20
6.03496220342416
30
0
41
1
10
74.1583752878919
20
6.04107731005701
30
0
41
1
10
74.1536426172539
20
6.05198097066651
30
0
41
1
10
74.1465676379214
20
6.06632835125717
30
0
41
1
10
74.1395558838605
20
6.07472547326077
30
0
41
1
10
74.1321986155146
20
6.07946265439739
30
0
41
1
10
74.1295047379137
20
6.08032915019615
30
0
41
1
10
74.1268138100562
20
6.08032653998458
30
0
0
SPLINE
5
149
100
AcDbEntity
8
1
62
256
6
ByLayer
370
18
48
1
60
0
100
AcDbSpline
70
4
71
3
72
10
73
6
40
0
40
0
40
0
40
0
40
0.0915286153686804
40
0.0915286153686804
40
1
40
1
40
1
40
1
41
1
10
38.3580226394395
20
4.3500016190068
30
0
41
1
10
38.3754264972239
20
4.34999894981445
30
0
41
1
10
38.3928420188824
20
4.34989190867293
30
0
41
1
10
38.5832354321551
20
4.34758859876194
30
0
41
1
10
38.757290643692
20
4.33524537892595
30
0
41
1
10
38.932363932078
20
4.31261383519058
30
0
0
SPLINE
5
14A
100
AcDbEntity
8
1
62
256
6
ByLayer
370
18
48
1
60
0
100
AcDbSpline
70
4
71
3
72
18
73
14
40
0
40
0
40
0
40
0
40
0.200768062214381
40
0.200768062214381
40
0.485343965951259
40
0.485343965951259
40
0.556487941885486
40
0.556487941885486
40
0.627631917819714
40
0.627631917819714
40
0.769919869688136
40
0.769919869688136
40
1
40
1
40
1
40
1
41
1
10
39.2148798237602
20
-4.35000432325262
30
0
41
1
10
39.1293245794001
20
-4.34998567900652
30
0
41
1
10
39.0435144151973
20
-4.34992983506871
30
0
41
1
10
38.8354262802409
20
-4.34981385380576
30
0
41
1
10
38.7128790153344
20
-4.34975119169809
30
0
41
1
10
38.5589251333153
20
-4.34974202844222
30
0
41
1
10
38.5280953577228
20
-4.34974335471767
30
0
41
1
10
38.4663557763008
20
-4.34975233896037
30
0
41
1
10
38.4354243577221
20
-4.34975997567523
30
0
41
1
10
38.3428186071919
20
-4.34979125559019
30
0
41
1
10
38.2812546790132
20
-4.34982371054286
30
0
41
1
10
38.1206239403503
20
-4.34991876555912
30
0
41
1
10
38.0218519025449
20
-4.3499944016595
30
0
41
1
10
37.9236259469079
20
-4.35000033034149
30
0
0
SPLINE
5
14B
100
AcDbEntity
8
1
62
256
6
ByLayer
370
18
48
1
60
0
100
AcDbSpline
70
4
71
3
72
8
73
4
40
0
40
0
40
0
40
0
40
1
40
1
40
1
40
1
41
1
10
66.3248310665455
20
0.905216766679814
30
0
41
1
10
66.3238934320881
20
0.938554529397578
30
0
41
1
10
66.3229550333444
20
0.971856483970441
30
0
41
1
10
66.3220158983183
20
1.00512235124373
30
0
0
SPLINE
5
14C
100
AcDbEntity
8
1
62
256
6
ByLayer
370
18
48
1
60
0
100
AcDbSpline
70
4
71
3
72
15
73
11
40
0
40
0
40
0
40
0
40
0.124999999999999
40
0.124999999999999
40
0.249999999999999
40
0.249999999999999
40
0.499999999999999
40
0.499999999999999
40
0.75
40
1
40
1
40
1
40
1
41
1
10
66.2896725671366
20
2.3107420225972
30
0
41
1
10
66.2879941240842
20
2.38614766207166
30
0
41
1
10
66.2863496061715
20
2.46042480981845
30
0
41
1
10
66.2831331138796
20
2.60673015096847
30
0
41
1
10
66.2815604549995
20
2.67879102352231
30
0
41
1
10
66.2769634400267
20
2.89138418376948
30
0
41
1
10
66.2740874029371
20
3.02708507529374
30
0
41
1
10
66.2687276542366
20
3.28683276360593
30
0
41
1
10
66.263760620548
20
3.53492384527698
30
0
41
1
10
66.259592959188
20
3.75978305647624
30
0
41
1
10
66.2577135365096
20
3.86625239364773
30
0
0
SPLINE
5
14D
100
AcDbEntity
8
1
62
256
6
ByLayer
370
18
48
1
60
0
100
AcDbSpline
70
4
71
3
72
12
73
8
40
0
40
0
40
0
40
0
40
0.25
40
0.25
40
0.5
40
0.5
40
1
40
1
40
1
40
1
41
1
10
66.3220158983182
20
1.00512235124427
30
0
41
1
10
66.3187977737674
20
1.11911416413241
30
0
41
1
10
66.3157298397383
20
1.23201525401424
30
0
41
1
10
66.3098652633842
20
1.45562538468423
30
0
41
1
10
66.3070672319807
20
1.56641285018853
30
0
41
1
10
66.2990654536053
20
1.89359865028146
30
0
41
1
10
66.2942424423595
20
2.1054360618059
30
0
41
1
10
66.2896725671366
20
2.31074202259714
30
0
0
SPLINE
5
14E
100
AcDbEntity
8
1
62
256
6
ByLayer
370
13
48
1
60
0
100
AcDbSpline
70
4
71
3
72
8
73
4
40
0
40
0
40
0
40
0
40
1
40
1
40
1
40
1
41
1.04
10
66.3276770911066
20
0.903153159957799
30
0
41
1.04
10
66.3257921491547
20
0.93716746208935
30
0
41
1.04
10
66.3239050649412
20
0.971160144089849
30
0
41
1.04
10
66.3220158983182
20
1.00512235124456
30
0
0
SPLINE
5
14F
100
AcDbEntity
8
1
62
256
6
ByLayer
370
13
48
1
60
0
100
AcDbSpline
70
4
71
3
72
10
73
6
40
0
40
0
40
0
40
0
40
0.406247614044371
40
0.725341422564966
40
1
40
1
40
1
40
1
41
1
10
75.3720655314196
20
3.2683174912471
30
0
41
1
10
75.3443814232567
20
3.65826801820958
30
0
41
1
10
75.2949424672612
20
4.26702845199799
30
0
41
1
10
75.226173158843
20
4.83172834535236
30
0
41
1
10
75.1856323145019
20
5.00869966005422
30
0
41
1
10
75.1669275390585
20
5.05646663074441
30
0
0
SPLINE
5
150
100
AcDbEntity
8
1
62
256
6
ByLayer
370
18
48
1
60
0
100
AcDbSpline
70
4
71
3
72
34
73
30
40
0
40
0
40
0
40
0
40
0.125
40
0.125
40
0.15625
40
0.15625
40
0.1875
40
0.1875
40
0.25
40
0.25
40
0.375000000000001
40
0.375000000000001
40
0.500000000000001
40
0.500000000000001
40
0.562500000000002
40
0.562500000000002
40
0.593750000000002
40
0.593750000000002
40
0.625000000000002
40
0.625000000000002
40
0.750000000000002
40
0.750000000000002
40
0.875000000000001
40
0.875000000000001
40
0.937500000000001
40
0.937500000000001
40
0.96875
40
0.96875
40
1
40
1
40
1
40
1
41
1
10
74.9454114630953
20
-5.95690584692485
30
0
41
1
10
74.935894341105
20
-5.91595432504084
30
0
41
1
10
74.9263881160479
20
-5.86485755093827
30
0
41
1
10
74.9145200653554
20
-5.78794418631645
30
0
41
1
10
74.9121469448257
20
-5.77190777317597
30
0
41
1
10
74.9074005207297
20
-5.73851173028299
30
0
41
1
10
74.9050363496935
20
-5.72121603113112
30
0
41
1
10
74.897973178042
20
-5.66759418542421
30
0
41
1
10
74.8933015734737
20
-5.62951822644419
30
0
41
1
10
74.8793620249179
20
-5.50843186873885
30
0
41
1
10
74.8701648627317
20
-5.41858009148768
30
0
41
1
10
74.8517146603958
20
-5.22086176367094
30
0
41
1
10
74.8424627335305
20
-5.11299546580949
30
0
41
1
10
74.8284363755301
20
-4.93744962340483
30
0
41
1
10
74.8237368648647
20
-4.87663895341205
30
0
41
1
10
74.8166427828754
20
-4.78190894983234
30
0
41
1
10
74.8142697481881
20
-4.74973235727131
30
0
41
1
10
74.8095350030277
20
-4.6845753254654
30
0
41
1
10
74.8071699324242
20
-4.65155059899755
30
0
41
1
10
74.7953539303698
20
-4.48421986102119
30
0
41
1
10
74.7859305353438
20
-4.3433098227423
30
0
41
1
10
74.7671024389591
20
-4.04772608342856
30
0
41
1
10
74.7576993386884
20
-3.89305174962246
30
0
41
1
10
74.743570269727
20
-3.65064325585593
30
0
41
1
10
74.738856253117
20
-3.56810435325477
30
0
41
1
10
74.7317697177815
20
-3.44165248066872
30
0
41
1
10
74.7294049184457
20
-3.39906105364389
30
0
41
1
10
74.7246680679088
20
-3.31298732848813
30
0
41
1
10
74.7222927010426
20
-3.26944347907482
30
0
41
1
10
74.7199214044137
20
-3.22561370395121
30
0
0
SPLINE
5
151
100
AcDbEntity
8
1
62
256
6
ByLayer
370
18
48
1
60
0
100
AcDbSpline
70
4
71
3
72
27
73
23
40
0
40
0
40
0
40
0
40
0.125
40
0.125
40
0.25
40
0.25
40
0.28125
40
0.28125
40
0.3125
40
0.375
40
0.375
40
0.5
40
0.5
40
0.625
40
0.625
40
0.6875
40
0.6875
40
0.75
40
0.75
40
0.875
40
0.875
40
1
40
1
40
1
40
1
41
1
10
74.5237729949303
20
-3.04627950477376
30
0
41
1
10
74.5330572158257
20
-3.22338220094892
30
0
41
1
10
74.5423604453646
20
-3.39486250777807
30
0
41
1
10
74.5611849108654
20
-3.72657567404892
30
0
41
1
10
74.5706848633559
20
-3.88681027923076
30
0
41
1
10
74.5826712074295
20
-4.07985867769207
30
0
41
1
10
74.5850774875937
20
-4.11815897374953
30
0
41
1
10
74.589882104751
20
-4.1937233397465
30
0
41
1
10
74.5970745585741
20
-4.3054793242232
30
0
41
1
10
74.6042241335508
20
-4.41252146589923
30
0
41
1
10
74.6184697257305
20
-4.62042582189034
30
0
41
1
10
74.627893806665
20
-4.75080432621314
30
0
41
1
10
74.6466445172054
20
-4.99528172338998
30
0
41
1
10
74.6559703064671
20
-5.10938100947382
30
0
41
1
10
74.6699660556055
20
-5.26806948847118
30
0
41
1
10
74.6746330267116
20
-5.31888496058417
30
0
41
1
10
74.6839917693124
20
-5.41626193614226
30
0
41
1
10
74.688646102167
20
-5.46243153061059
30
0
41
1
10
74.7025602567329
20
-5.59340249069646
30
0
41
1
10
74.7117754826468
20
-5.67075008530034
30
0
41
1
10
74.7303450921006
20
-5.80591824529984
30
0
41
1
10
74.739732845214
20
-5.86373791424222
30
0
41
1
10
74.74924465168
20
-5.91169728229764
30
0
0
SPLINE
5
152
100
AcDbEntity
8
1
62
256
6
ByLayer
370
13
48
1
60
0
100
AcDbSpline
70
4
71
3
72
9
73
5
40
0
40
0
40
0
40
0
40
0.938465698548067
40
1
40
1
40
1
40
1
41
1.04
10
76.7507112893795
20
2.23950423989438
30
0
41
1.04
10
76.6905563026954
20
3.23242827662707
30
0
41
1.04
10
76.6237350121661
20
4.17658065623588
30
0
41
1.04
10
76.5499359374338
20
4.71092840040239
30
0
41
1.04
10
76.5453658747911
20
4.74212934525464
30
0
0
SPLINE
5
153
100
AcDbEntity
8
1
62
256
6
ByLayer
370
18
48
1
60
0
100
AcDbSpline
70
4
71
3
72
29
73
25
40
0
40
0
40
0
40
0
40
0.125
40
0.125
40
0.249999999999999
40
0.249999999999999
40
0.281249999999999
40
0.281249999999999
40
0.312499999999999
40
0.375
40
0.375
40
0.5
40
0.5
40
0.625000000000001
40
0.625000000000001
40
0.656250000000001
40
0.656250000000001
40
0.6875
40
0.6875
40
0.75
40
0.75
40
0.875
40
0.875
40
1
40
1
40
1
40
1
41
1
10
75.7502973634846
20
5.94020154537645
30
0
41
1
10
75.7596049227213
20
5.89654098289469
30
0
41
1
10
75.7688830006831
20
5.84290730142379
30
0
41
1
10
75.7876424025909
20
5.71562904046698
30
0
41
1
10
75.7971598159279
20
5.64198725301756
30
0
41
1
10
75.8091334410661
20
5.53699326846839
30
0
41
1
10
75.8115290109112
20
5.51536920034619
30
0
41
1
10
75.816299750606
20
5.47106861430822
30
0
41
1
10
75.8234346496839
20
5.40295916378719
30
0
41
1
10
75.8305049074884
20
5.32992929562121
30
0
41
1
10
75.844579508338
20
5.17740673298317
30
0
41
1
10
75.8538833715646
20
5.06712421032526
30
0
41
1
10
75.8725069646424
20
4.82947669687925
30
0
41
1
10
75.8818118305839
20
4.70211210148332
30
0
41
1
10
75.8935092866413
20
4.53197355195772
30
0
41
1
10
75.8958522893192
20
4.49739786429302
30
0
41
1
10
75.9005480083569
20
4.42713859073672
30
0
41
1
10
75.9029037095619
20
4.39140831937831
30
0
41
1
10
75.9099532321215
20
4.28310349601171
30
0
41
1
10
75.9146373671167
20
4.20930129242862
30
0
41
1
10
75.9286829298663
20
3.98319505869065
30
0
41
1
10
75.9380360015284
20
3.82620309075114
30
0
41
1
10
75.9569691555402
20
3.49993054031631
30
0
41
1
10
75.966551946543
20
3.33065018408604
30
0
41
1
10
75.9761248418316
20
3.15513664172352
30
0
0
SPLINE
5
154
100
AcDbEntity
8
1
62
256
6
ByLayer
370
18
48
1
60
0
100
AcDbSpline
70
4
71
3
72
30
73
26
40
0
40
0
40
0
40
0
40
0.125000000000002
40
0.125000000000002
40
0.156250000000002
40
0.156250000000002
40
0.187500000000002
40
0.187500000000002
40
0.250000000000002
40
0.250000000000002
40
0.375000000000002
40
0.375000000000002
40
0.500000000000002
40
0.500000000000002
40
0.562500000000002
40
0.562500000000002
40
0.593750000000002
40
0.593750000000002
40
0.625000000000002
40
0.625000000000002
40
0.750000000000001
40
0.750000000000001
40
0.875000000000001
40
0.875000000000001
40
1
40
1
40
1
40
1
41
1
10
76.1718085342928
20
2.97588946317961
30
0
41
1
10
76.1624660900601
20
3.15409584305789
30
0
41
1
10
76.153135949647
20
3.32753390370604
30
0
41
1
10
76.1414177973965
20
3.53822226187822
30
0
41
1
10
76.1390711971952
20
3.58005371517251
30
0
41
1
10
76.1343695724358
20
3.66309733881261
30
0
41
1
10
76.1320118091309
20
3.7043561183576
30
0
41
1
10
76.1249596507894
20
3.82654070077231
30
0
41
1
10
76.1202768937162
20
3.90604666373122
30
0
41
1
10
76.1062521180926
20
4.1388284876316
30
0
41
1
10
76.0969323338051
20
4.28638259419898
30
0
41
1
10
76.0781970737012
20
4.56647207198162
30
0
41
1
10
76.068780366035
20
4.6990073211723
30
0
41
1
10
76.0545059515622
20
4.88638757750644
30
0
41
1
10
76.0497234613933
20
4.94694033756531
30
0
41
1
10
76.0425099094595
20
5.03485486630669
30
0
41
1
10
76.0400964605169
20
5.06370107870424
30
0
41
1
10
76.0352671552423
20
5.12028507577386
30
0
41
1
10
76.032856480742
20
5.1479633487584
30
0
41
1
10
76.0208247296289
20
5.28332192431284
30
0
41
1
10
76.0112630829293
20
5.38192788284655
30
0
41
1
10
75.9923974777739
20
5.56029741714067
30
0
41
1
10
75.9831279962284
20
5.6400603090909
30
0
41
1
10
75.9647077286474
20
5.78066778402783
30
0
41
1
10
75.9555492916579
20
5.8415140569634
30
0
41
1
10
75.9462943271206
20
5.89256818727119
30
0
0
SPLINE
5
155
100
AcDbEntity
8
1
62
256
6
ByLayer
370
18
48
1
60
0
100
AcDbSpline
70
4
71
3
72
8
73
4
40
0
40
0
40
0
40
0
40
1
40
1
40
1
40
1
41
1
10
78.0123515186022
20
1.14999753182616
30
0
41
1
10
77.9993381086234
20
1.42575127892883
30
0
41
1
10
77.9862631854832
20
1.69597897796044
30
0
41
1
10
77.9730989667758
20
1.96070572303373
30
0
0
SPLINE
5
156
100
AcDbEntity
8
1
62
256
6
ByLayer
370
13
48
1
60
0
100
AcDbSpline
70
4
71
3
72
10
73
6
40
0
40
0
40
0
40
0
40
0.382080258452381
40
0.702550915679057
40
1
40
1
40
1
40
1
41
1.04
10
68.167067424536
20
-0.728144944119354
30
0
41
1.04
10
68.1408163413653
20
-0.251660476603004
30
0
41
1.04
10
68.0924856211211
20
0.643372622537333
30
0
41
1.04
10
68.0240865325466
20
1.86412221966631
30
0
41
1.04
10
67.9823697751678
20
2.54418874742838
30
0
41
1.04
10
67.9624233263307
20
2.84790807950968
30
0
0
SPLINE
5
157
100
AcDbEntity
8
1
62
256
6
ByLayer
370
13
48
1
60
0
100
AcDbSpline
70
4
71
3
72
9
73
5
40
0
40
0
40
0
40
0
40
0.0939606177344755
40
1
40
1
40
1
40
1
41
1
10
77.2113312988004
20
1.8639056528099
30
0
41
1
10
77.2052743479218
20
1.96725753251286
30
0
41
1
10
77.1405615217666
20
3.0580450578523
30
0
41
1
10
77.0729777657733
20
4.03060230476262
30
0
41
1
10
77.0059954600819
20
4.57480080209541
30
0
0
SPLINE
5
158
100
AcDbEntity
8
1
62
256
6
ByLayer
370
18
48
1
60
0
100
AcDbSpline
70
4
71
3
72
32
73
28
40
0
40
0
40
0
40
0
40
0.0625000000000011
40
0.0625000000000011
40
0.0937500000000013
40
0.0937500000000013
40
0.125000000000002
40
0.125000000000002
40
0.250000000000002
40
0.250000000000002
40
0.375000000000003
40
0.375000000000003
40
0.500000000000003
40
0.500000000000003
40
0.531250000000003
40
0.531250000000003
40
0.562500000000003
40
0.625000000000002
40
0.625000000000002
40
0.750000000000001
40
0.875
40
0.875
40
0.90625
40
0.90625
40
0.9375
40
0.9375
40
1
40
1
40
1
40
1
41
1
10
72.6851332988276
20
-1.2344264459945
30
0
41
1
10
72.689807518527
20
-1.33477213048559
30
0
41
1
10
72.694479707262
20
-1.43484548270311
30
0
41
1
10
72.7015024049326
20
-1.58453834051167
30
0
41
1
10
72.7038490295736
20
-1.63443563103124
30
0
41
1
10
72.708533162976
20
-1.73371764509824
30
0
41
1
10
72.7108692786778
20
-1.78307322168109
30
0
41
1
10
72.7225296392625
20
-2.02843979159488
30
0
41
1
10
72.7318034373824
20
-2.22022747683422
30
0
41
1
10
72.7504256032575
20
-2.59501648760477
30
0
41
1
10
72.7597528115301
20
-2.77801826141368
30
0
41
1
10
72.778487830363
20
-3.13519517035627
30
0
41
1
10
72.7878962956639
20
-3.30937117195765
30
0
41
1
10
72.7997701714717
20
-3.52137489968126
30
0
41
1
10
72.8021439135576
20
-3.56336714189868
30
0
41
1
10
72.8068808640352
20
-3.64636231814896
30
0
41
1
10
72.8139753485048
20
-3.76945787273883
30
0
41
1
10
72.8210451409734
20
-3.88840708284451
30
0
41
1
10
72.8351718029299
20
-4.12085590252497
30
0
41
1
10
72.8539785006916
20
-4.41628175581249
30
0
41
1
10
72.8727391229992
20
-4.6828682399541
30
0
41
1
10
72.8845064235295
20
-4.84024537695649
30
0
41
1
10
72.8868621582534
20
-4.87125769497177
30
0
41
1
10
72.8915802431812
20
-4.93234572505716
30
0
41
1
10
72.8939446010789
20
-4.96244516700895
30
0
41
1
10
72.9010113322306
20
-5.05083183448997
30
0
41
1
10
72.9056993183771
20
-5.1073669277867
30
0
41
1
10
72.910373546552
20
-5.1615592524837
30
0
0
SPLINE
5
159
100
AcDbEntity
8
1
62
256
6
ByLayer
370
18
48
1
60
0
100
AcDbSpline
70
4
71
3
72
33
73
29
40
0
40
0
40
0
40
0
40
0.0625000000000004
40
0.0625000000000004
40
0.0937500000000003
40
0.0937500000000003
40
0.125
40
0.125
40
0.25
40
0.25
40
0.375
40
0.375
40
0.5
40
0.5
40
0.53125
40
0.53125
40
0.5625
40
0.625
40
0.625
40
0.75
40
0.75
40
0.875
40
0.875
40
0.9375
40
0.9375
40
0.96875
40
0.96875
40
1
40
1
40
1
40
1
41
1
10
71.2668740117723
20
-4.04173705386859
30
0
41
1
10
71.2622227655106
20
-3.96534935939826
30
0
41
1
10
71.2575536417908
20
-3.88709766541808
30
0
41
1
10
71.250517403284
20
-3.76687993823913
30
0
41
1
10
71.2481665622906
20
-3.72633376366363
30
0
41
1
10
71.2434529777883
20
-3.64428392411705
30
0
41
1
10
71.2410871197681
20
-3.60272444140941
30
0
41
1
10
71.2292852288796
20
-3.39357271107875
30
0
41
1
10
71.2199047796123
20
-3.22146166455545
30
0
41
1
10
71.2011799824441
20
-2.86797120688394
30
0
41
1
10
71.1918367418539
20
-2.6865909077161
30
0
41
1
10
71.1730520964511
20
-2.31458357729113
30
0
41
1
10
71.1635891807036
20
-2.12395813085777
30
0
41
1
10
71.1516615732217
20
-1.87973133740562
30
0
41
1
10
71.1492705864061
20
-1.83056219943165
30
0
41
1
10
71.1444861123855
20
-1.73172932362544
30
0
41
1
10
71.1373288122121
20
-1.58321895123768
30
0
41
1
10
71.1302316361859
20
-1.4339351147888
30
0
41
1
10
71.1161144957836
20
-1.13435437198038
30
0
41
1
10
71.1068095242202
20
-0.933285469325256
30
0
41
1
10
71.0883198298898
20
-0.528487637220223
30
0
41
1
10
71.0791361819584
20
-0.324758686791199
30
0
41
1
10
71.0652890657947
20
-0.0171411039319764
30
0
41
1
10
71.0606603500081
20
0.0857360341991296
30
0
41
1
10
71.0536661653129
20
0.24056784954854
30
0
41
1
10
71.0513268413361
20
0.292248909931402
30
0
41
1
10
71.0466517887877
20
0.395189464957752
30
0
41
1
10
71.044312719567
20
0.44652300669631
30
0
41
1
10
71.0419688492126
20
0.497721104137014
30
0
0
SPLINE
5
15A
100
AcDbEntity
8
1
62
256
6
ByLayer
370
13
48
1
60
0
100
AcDbSpline
70
4
71
3
72
10
73
6
40
0
40
0
40
0
40
0
40
0.0688316221630643
40
0.54405413602383
40
1
40
1
40
1
40
1
41
1.04
10
71.8458527031357
20
-3.60902237218029
30
0
41
1.04
10
71.8409760039655
20
-3.54571487710237
30
0
41
1.04
10
71.8025553759044
20
-3.0339079504143
30
0
41
1.04
10
71.7335926622622
20
-1.94027955608863
30
0
41
1.04
10
71.6711297074365
20
-0.80440937143295
30
0
41
1.04
10
71.640888546075
20
-0.250226130470483
30
0
0
SPLINE
5
15B
100
AcDbEntity
8
1
62
256
6
ByLayer
370
13
48
1
60
0
100
AcDbSpline
70
4
71
3
72
10
73
6
40
0
40
0
40
0
40
0
40
0.497872509602952
40
0.819236054692523
40
1
40
1
40
1
40
1
41
1
10
68.6276793740329
20
-1.13125746511429
30
0
41
1
10
68.5936071965897
20
-0.521967833694561
30
0
41
1
10
68.5373535478628
20
0.526136014976032
30
0
41
1
10
68.4691446258724
20
1.74215315655817
30
0
41
1
10
68.435255108093
20
2.30350463589053
30
0
41
1
10
68.4231034019747
20
2.49778118052637
30
0
0
SPLINE
5
15C
100
AcDbEntity
8
1
62
256
6
ByLayer
370
18
48
1
60
0
100
AcDbSpline
70
4
71
3
72
28
73
24
40
0
40
0
40
0
40
0
40
0.125
40
0.25
40
0.25
40
0.3125
40
0.3125
40
0.34375
40
0.34375
40
0.375
40
0.375
40
0.500000000000001
40
0.500000000000001
40
0.625000000000001
40
0.625000000000001
40
0.750000000000002
40
0.750000000000002
40
0.781250000000001
40
0.781250000000001
40
0.812500000000001
40
0.875000000000001
40
0.875000000000001
40
1
40
1
40
1
40
1
41
1
10
73.1058612270432
20
-5.26818073146231
30
0
41
1
10
73.0963711859428
20
-5.16562628260601
30
0
41
1
10
73.0775907079609
20
-4.94365745267766
30
0
41
1
10
73.0590228911355
20
-4.68856092787183
30
0
41
1
10
73.0450684877559
20
-4.48465723828784
30
0
41
1
10
73.0404118920223
20
-4.41458854176563
30
0
41
1
10
73.033402795734
20
-4.306277350192
30
0
41
1
10
73.0310621112635
20
-4.2696344377897
30
0
41
1
10
73.0263707510755
20
-4.19528288661067
30
0
41
1
10
73.0240297250615
20
-4.15772739390209
30
0
41
1
10
73.0123404585862
20
-3.96807421726243
30
0
41
1
10
73.0030386120438
20
-3.81036428148823
30
0
41
1
10
72.9843612156443
20
-3.48330817879045
30
0
41
1
10
72.974970286415
20
-3.31396187908314
30
0
41
1
10
72.9560634075422
20
-2.96360416960596
30
0
41
1
10
72.94657564613
20
-2.78259275418253
30
0
41
1
10
72.9346846659302
20
-2.54878894712314
30
0
41
1
10
72.9323044606909
20
-2.50164966283114
30
0
41
1
10
72.9275658870123
20
-2.40715875121214
30
0
41
1
10
72.9204802976137
20
-2.26490095963101
30
0
41
1
10
72.913452010571
20
-2.12109701606653
30
0
41
1
10
72.8994351364756
20
-1.83146066002951
30
0
41
1
10
72.8901463865176
20
-1.63567002411469
30
0
41
1
10
72.8807747585219
20
-1.43720645434354
30
0
0
SPLINE
5
15D
100
AcDbEntity
8
1
62
256
6
ByLayer
370
13
48
1
60
0
100
AcDbSpline
70
4
71
3
72
10
73
6
40
0
40
0
40
0
40
0
40
0.0226773614303764
40
0.826154552106084
40
1
40
1
40
1
40
1
41
1
10
70.4670739315296
20
-2.64453574261472
30
0
41
1
10
70.4655435455864
20
-2.62053171014344
30
0
41
1
10
70.4097809775474
20
-1.74146535651835
30
0
41
1
10
70.3418504826041
20
-0.479501988539852
30
0
41
1
10
70.274295133885
20
0.752696592430539
30
0
41
1
10
70.262230243099
20
0.970037293134936
30
0
0
SPLINE
5
15E
100
AcDbEntity
8
1
62
256
6
ByLayer
370
18
48
1
60
0
100
AcDbSpline
70
4
71
3
72
29
73
25
40
0
40
0
40
0
40
0
40
0.125
40
0.125
40
0.25
40
0.25
40
0.3125
40
0.3125
40
0.343750000000001
40
0.343750000000001
40
0.375000000000001
40
0.375000000000001
40
0.500000000000001
40
0.625
40
0.625
40
0.687500000000001
40
0.687500000000001
40
0.71875
40
0.71875
40
0.75
40
0.75
40
0.875
40
0.875
40
1
40
1
40
1
40
1
41
1
10
70.8449261893861
20
0.705463962243613
30
0
41
1
10
70.8541623701532
20
0.50189746519888
30
0
41
1
10
70.8634765465316
20
0.298037191285118
30
0
41
1
10
70.8823874380407
20
-0.11025832608297
30
0
41
1
10
70.8919480320079
20
-0.314695219544973
30
0
41
1
10
70.9063670269876
20
-0.62179650653772
30
0
41
1
10
70.9111868594117
20
-0.724238046595787
30
0
41
1
10
70.9184321770848
20
-0.878014677930992
30
0
41
1
10
70.9208449651112
20
-0.929187396102833
30
0
41
1
10
70.925649833988
20
-1.03102671383749
30
0
41
1
10
70.9280443424313
20
-1.08174484644138
30
0
41
1
10
70.9399778730878
20
-1.33433816399403
30
0
41
1
10
70.9588143121761
20
-1.7321203559114
30
0
41
1
10
70.9772860201268
20
-2.11743271194018
30
0
41
1
10
70.9911360626222
20
-2.40169202375341
30
0
41
1
10
70.9957530266663
20
-2.49565615234215
30
0
41
1
10
71.0027039991616
20
-2.63539866146778
30
0
41
1
10
71.0050253064981
20
-2.68177878205066
30
0
41
1
10
71.0096815243844
20
-2.7741329487103
30
0
41
1
10
71.012018945398
20
-2.82015516505379
30
0
41
1
10
71.0236900500559
20
-3.04799942998412
30
0
41
1
10
71.0330502182283
20
-3.22386346250374
30
0
41
1
10
71.051839608476
20
-3.56317425548306
30
0
41
1
10
71.0612507355038
20
-3.7266206511683
30
0
41
1
10
71.0706696141274
20
-3.88386649737538
30
0
0
SPLINE
5
15F
100
AcDbEntity
8
1
62
256
6
ByLayer
370
18
48
1
60
0
100
AcDbSpline
70
4
71
3
72
32
73
28
40
0
40
0
40
0
40
0
40
0.125
40
0.125
40
0.15625
40
0.15625
40
0.1875
40
0.25
40
0.25
40
0.374999999999999
40
0.374999999999999
40
0.499999999999999
40
0.499999999999999
40
0.531249999999999
40
0.531249999999999
40
0.562499999999999
40
0.562499999999999
40
0.624999999999999
40
0.624999999999999
40
0.749999999999999
40
0.875
40
0.875
40
0.9375
40
0.9375
40
0.96875
40
0.96875
40
1
40
1
40
1
40
1
41
1
10
69.0063737787255
20
2.57272416618571
30
0
41
1
10
69.015627177436
20
2.38767814487798
30
0
41
1
10
69.0249038108998
20
2.19770421054835
30
0
41
1
10
69.0366183441005
20
1.95386361276499
30
0
41
1
10
69.0389624030183
20
1.9048561501082
30
0
41
1
10
69.0436364172323
20
1.80673767546728
30
0
41
1
10
69.0506344493632
20
1.6592385979323
30
0
41
1
10
69.0576026274851
20
1.51078645024481
30
0
41
1
10
69.0715402994104
20
1.21263193095996
30
0
41
1
10
69.0808345602689
20
1.0121984005728
30
0
41
1
10
69.0997437175305
20
0.608040148432906
30
0
41
1
10
69.109321037139
20
0.404313914728732
30
0
41
1
10
69.1213180558609
20
0.147541336826805
30
0
41
1
10
69.1237191495553
20
0.0960808406683782
30
0
41
1
10
69.1285232301739
20
-0.0070545072192658
30
0
41
1
10
69.1309292393981
20
-0.0587946607263348
30
0
41
1
10
69.1381116990251
20
-0.213537158334219
30
0
41
1
10
69.1428604252306
20
-0.31623665998336
30
0
41
1
10
69.1569942583216
20
-0.62297608695448
30
0
41
1
10
69.1755296617462
20
-1.02834508857214
30
0
41
1
10
69.1937704137999
20
-1.4265868382588
30
0
41
1
10
69.2075932565658
20
-1.72254788211265
30
0
41
1
10
69.2122259704408
20
-1.820747283082
30
0
41
1
10
69.2192577925039
20
-1.96735046273389
30
0
41
1
10
69.2216176448624
20
-2.01613240617468
30
0
41
1
10
69.2263571678402
20
-2.11333181075227
30
0
41
1
10
69.228729632432
20
-2.16160351769352
30
0
41
1
10
69.2311032402166
20
-2.2095511642386
30
0
0
SPLINE
5
160
100
AcDbEntity
8
1
62
256
6
ByLayer
370
18
48
1
60
0
100
AcDbSpline
70
4
71
3
72
9
73
5
40
0
40
0
40
0
40
0
40
0.5
40
1
40
1
40
1
40
1
41
1
10
78.006605451126
20
1.15593215159697
30
0
41
1
10
78.0006974875785
20
1.29338830504963
30
0
41
1
10
77.9892797596395
20
1.5649218009585
30
0
41
1
10
77.978476500504
20
1.82986606176911
30
0
41
1
10
77.9730989667761
20
1.96070572303373
30
0
0
SPLINE
5
161
100
AcDbEntity
8
1
62
256
6
ByLayer
370
18
48
1
60
0
100
AcDbSpline
70
4
71
3
72
25
73
21
40
0
40
0
40
0
40
0
40
0.125
40
0.250000000000001
40
0.250000000000001
40
0.312500000000001
40
0.312500000000001
40
0.375000000000001
40
0.375000000000001
40
0.500000000000001
40
0.625
40
0.75
40
0.75
40
0.78125
40
0.78125
40
0.8125
40
0.8125
40
0.875
40
0.875
40
1
40
1
40
1
40
1
41
1
10
77.9730989667758
20
1.96070572303373
30
0
41
1
10
77.965326609321
20
2.12124149526892
30
0
41
1
10
77.9497746590642
20
2.43746904165965
30
0
41
1
10
77.9340595660721
20
2.7439518587565
30
0
41
1
10
77.922155476933
20
2.97005904002066
30
0
41
1
10
77.9181589798032
20
3.04493578086425
30
0
41
1
10
77.9102010573327
20
3.19209731708173
30
0
41
1
10
77.9062334714458
20
3.26451752414755
30
0
41
1
10
77.894373749388
20
3.47835246617208
30
0
41
1
10
77.878679998186
20
3.75434292544176
30
0
41
1
10
77.8554721038209
20
4.14139251689284
30
0
41
1
10
77.8400872063462
20
4.38137392743548
30
0
41
1
10
77.8304265019206
20
4.52556871560316
30
0
41
1
10
77.8284919953582
20
4.55411748868457
30
0
41
1
10
77.8246160244434
20
4.61062876573442
30
0
41
1
10
77.8226792639602
20
4.63852222816598
30
0
41
1
10
77.8168792199463
20
4.72098128016719
30
0
41
1
10
77.8130219241794
20
4.77438820719246
30
0
41
1
10
77.8014498747088
20
4.92998694125387
30
0
41
1
10
77.793734752798
20
5.02756472883218
30
0
41
1
10
77.785944023007
20
5.1190868636784
30
0
0
SPLINE
5
162
100
AcDbEntity
8
1
62
256
6
ByLayer
370
18
48
1
60
0
100
AcDbSpline
70
4
71
3
72
32
73
28
40
0
40
0
40
0
40
0
40
0.0312499999999999
40
0.0312499999999999
40
0.0624999999999998
40
0.125
40
0.125
40
0.249999999999999
40
0.249999999999999
40
0.374999999999999
40
0.374999999999999
40
0.4375
40
0.4375
40
0.46875
40
0.46875
40
0.5
40
0.5
40
0.625
40
0.750000000000001
40
0.750000000000001
40
0.812500000000001
40
0.812500000000001
40
0.843750000000001
40
0.843750000000001
40
0.875000000000001
40
0.875000000000001
40
1
40
1
40
1
40
1
41
1
10
77.5897113419762
20
5.22794167500112
30
0
41
1
10
77.5920450728117
20
5.20158494859083
30
0
41
1
10
77.5943870084796
20
5.17458062841524
30
0
41
1
10
77.599071814482
20
5.11948255759711
30
0
41
1
10
77.6060895438665
20
5.03533204595266
30
0
41
1
10
77.6130915045418
20
4.94672729570135
30
0
41
1
10
77.6270980766716
20
4.76368157310199
30
0
41
1
10
77.6364410422042
20
4.63388409010105
30
0
41
1
10
77.6552020116967
20
4.35893261945122
30
0
41
1
10
77.6646181777361
20
4.21377890457995
30
0
41
1
10
77.6788191967294
20
3.98430849882982
30
0
41
1
10
77.6835655695936
20
3.90585801918476
30
0
41
1
10
77.6907080852122
20
3.78517833068625
30
0
41
1
10
77.6930881067838
20
3.74452861170525
30
0
41
1
10
77.6978311586513
20
3.66266636214633
30
0
41
1
10
77.7001966588923
20
3.62141215974998
30
0
41
1
10
77.7119969361285
20
3.41354240526428
30
0
41
1
10
77.7306968205726
20
3.07074383126917
30
0
41
1
10
77.7492734496807
20
2.70797489144647
30
0
41
1
10
77.7633271597535
20
2.42834889870335
30
0
41
1
10
77.7680309013359
20
2.333879630155
30
0
41
1
10
77.7751231700625
20
2.19025461483733
30
0
41
1
10
77.7774933463359
20
2.14205926394069
30
0
41
1
10
77.7822469665731
20
2.04502083267363
30
0
41
1
10
77.7846330026551
20
1.99612401899824
30
0
41
1
10
77.7965339622058
20
1.75133772790423
30
0
41
1
10
77.8060033678373
20
1.55370701214949
30
0
41
1
10
77.8154418521924
20
1.3543324521338
30
0
0
SPLINE
5
163
100
AcDbEntity
8
1
62
256
6
ByLayer
370
18
48
1
60
0
100
AcDbSpline
70
4
71
3
72
29
73
25
40
0
40
0
40
0
40
0
40
0.125
40
0.25
40
0.25
40
0.28125
40
0.28125
40
0.3125
40
0.3125
40
0.375
40
0.375
40
0.5
40
0.5
40
0.625
40
0.625
40
0.687499999999999
40
0.687499999999999
40
0.718749999999999
40
0.718749999999999
40
0.749999999999999
40
0.749999999999999
40
0.875
40
0.875
40
1
40
1
40
1
40
1
41
1
10
69.4271202633444
20
-2.40196260065286
30
0
41
1
10
69.4175996275906
20
-2.21394798434227
30
0
41
1
10
69.3987047694698
20
-1.83113150896807
30
0
41
1
10
69.380070906288
20
-1.43482974970772
30
0
41
1
10
69.3684302049481
20
-1.18282724120883
30
0
41
1
10
69.3661020791314
20
-1.13221052686896
30
0
41
1
10
69.3614429083028
20
-1.03054003947361
30
0
41
1
10
69.3591091084628
20
-0.979425448401514
30
0
41
1
10
69.3521354121947
20
-0.826235641833449
30
0
41
1
10
69.3475141880374
20
-0.724116996821607
30
0
41
1
10
69.333688180086
20
-0.417786305353161
30
0
41
1
10
69.3245222544801
20
-0.213599380577023
30
0
41
1
10
69.3060141999547
20
0.194695800163259
30
0
41
1
10
69.296642024795
20
0.398802678454814
30
0
41
1
10
69.2823452809676
20
0.704898395411306
30
0
41
1
10
69.2775481160203
20
0.806919891720128
30
0
41
1
10
69.2703170885362
20
0.959936825839179
30
0
41
1
10
69.2678986451694
20
1.01098545422357
30
0
41
1
10
69.2630608751384
20
1.11287399375715
30
0
41
1
10
69.2606472293135
20
1.16359452090666
30
0
41
1
10
69.2486073437553
20
1.41609162107593
30
0
41
1
10
69.2390700841484
20
1.61456053756274
30
0
41
1
10
69.2201728322379
20
2.004629582511
30
0
41
1
10
69.2108121706774
20
2.19622923968072
30
0
41
1
10
69.2014891487889
20
2.38437965708943
30
0
0
SPLINE
5
164
100
AcDbEntity
8
1
62
256
6
ByLayer
370
13
48
1
60
0
100
AcDbSpline
70
4
71
3
72
9
73
5
40
0
40
0
40
0
40
0
40
0.712365092643184
40
1
40
1
40
1
40
1
41
1.04
10
70.0064700197164
20
-2.28561609599019
30
0
41
1.04
10
69.9584717085761
20
-1.49815091152825
30
0
41
1.04
10
69.8906639461713
20
-0.24190892078239
30
0
41
1.04
10
69.8216446543124
20
1.01524328214104
30
0
41
1.04
10
69.8016413216727
20
1.36882214655137
30
0
0
SPLINE
5
165
100
AcDbEntity
8
1
62
256
6
ByLayer
370
13
48
1
60
0
100
AcDbSpline
70
4
71
3
72
10
73
6
40
0
40
0
40
0
40
0
40
0.0157041036866375
40
0.504580647527749
40
1
40
1
40
1
40
1
41
1
10
66.7883257909402
20
0.496658142848815
30
0
41
1
10
66.7872920313499
20
0.515510260573819
30
0
41
1
10
66.7540538649614
20
1.12135602680755
30
0
41
1
10
66.686698919028
20
2.32778866543268
30
0
41
1
10
66.6188003360914
20
3.34200612717882
30
0
41
1
10
66.5839176153719
20
3.77281285371373
30
0
0
SPLINE
5
166
100
AcDbEntity
8
1
62
256
6
ByLayer
370
18
48
1
60
0
100
AcDbSpline
70
4
71
3
72
33
73
29
40
0
40
0
40
0
40
0
40
0.0625
40
0.0625
40
0.09375
40
0.09375
40
0.125
40
0.125
40
0.249999999999999
40
0.249999999999999
40
0.374999999999999
40
0.374999999999999
40
0.437499999999999
40
0.437499999999999
40
0.468749999999998
40
0.468749999999998
40
0.499999999999998
40
0.499999999999998
40
0.624999999999998
40
0.624999999999998
40
0.749999999999998
40
0.749999999999998
40
0.874999999999999
40
0.874999999999999
40
0.906249999999999
40
0.906249999999999
40
0.937499999999999
40
1
40
1
40
1
40
1
41
1
10
67.5874400337802
20
-0.516790476660077
30
0
41
1
10
67.5827560115069
20
-0.414591910433074
30
0
41
1
10
67.5780831625471
20
-0.311872240622989
30
0
41
1
10
67.5710746215068
20
-0.156994742472676
30
0
41
1
10
67.568744988698
20
-0.105379949400316
30
0
41
1
10
67.5641053490338
20
-0.0024038003057854
30
0
41
1
10
67.5617936746308
20
0.0489943855081378
30
0
41
1
10
67.5502645045051
20
0.305539899253006
30
0
41
1
10
67.5411402503373
20
0.509354671838679
30
0
41
1
10
67.5227044028826
20
0.91418327105464
30
0
41
1
10
67.5133521973307
20
1.11519521862317
30
0
41
1
10
67.4992094210362
20
1.41459434474524
30
0
41
1
10
67.4944768016944
20
1.51404029119649
30
0
41
1
10
67.4873522913807
20
1.66267004552711
30
0
41
1
10
67.4849730877019
20
1.71212338685055
30
0
41
1
10
67.4802049701064
20
1.81084821369882
30
0
41
1
10
67.4778138168034
20
1.86016521469699
30
0
41
1
10
67.4658952497755
20
2.10493400444383
30
0
41
1
10
67.4564175362375
20
2.29590959373343
30
0
41
1
10
67.4375129077506
20
2.6684829615541
30
0
41
1
10
67.4281077810157
20
2.85008088643738
30
0
41
1
10
67.4093996625053
20
3.2039099794128
30
0
41
1
10
67.4000977387738
20
3.37614182874748
30
0
41
1
10
67.3884621380413
20
3.58539989862584
30
0
41
1
10
67.3861318132205
20
3.62699227957521
30
0
41
1
10
67.3814775718696
20
3.70936528741922
30
0
41
1
10
67.3745190281423
20
3.83147282530752
30
0
41
1
10
67.367611629773
20
3.94927763331862
30
0
41
1
10
67.3630103796864
20
4.02593420653491
30
0
0
SPLINE
5
167
100
AcDbEntity
8
1
62
256
6
ByLayer
370
18
48
1
60
0
100
AcDbSpline
70
4
71
3
72
29
73
25
40
0
40
0
40
0
40
0
40
0.125
40
0.125
40
0.250000000000001
40
0.250000000000001
40
0.312500000000001
40
0.312500000000001
40
0.34375
40
0.34375
40
0.375
40
0.375
40
0.5
40
0.5
40
0.625
40
0.625
40
0.749999999999999
40
0.749999999999999
40
0.781249999999999
40
0.781249999999999
40
0.812499999999999
40
0.875
40
0.875
40
1
40
1
40
1
40
1
41
1
10
67.1670261006233
20
4.17877241124253
30
0
41
1
10
67.1764231010917
20
4.02944371265622
30
0
41
1
10
67.1857260178346
20
3.87390887821468
30
0
41
1
10
67.2042679650752
20
3.55070504162279
30
0
41
1
10
67.2135059359365
20
3.3830355302137
30
0
41
1
10
67.2274591209168
20
3.12236066285581
30
0
41
1
10
67.232126862201
20
3.03393778019276
30
0
41
1
10
67.2391786829505
20
2.89897146548665
30
0
41
1
10
67.2415377129383
20
2.85359383934198
30
0
41
1
10
67.2462775370958
20
2.762052664148
30
0
41
1
10
67.2486621863355
20
2.71582382291501
30
0
41
1
10
67.260588489827
20
2.48381741656741
30
0
41
1
10
67.2701407252669
20
2.29511376049319
30
0
41
1
10
67.2891013959549
20
1.91170331141132
30
0
41
1
10
67.2985090234839
20
1.71699589765814
30
0
41
1
10
67.3171946225516
20
1.32158976239919
30
0
41
1
10
67.3264706789602
20
1.12089131189268
30
0
41
1
10
67.3381306331973
20
0.866172346869519
30
0
41
1
10
67.3404672198739
20
0.815020049745158
30
0
41
1
10
67.3451516186626
20
0.712390505354676
30
0
41
1
10
67.3521709844569
20
0.5585301331393
30
0
41
1
10
67.3591830148662
20
0.404919061449874
30
0
41
1
10
67.3732055658529
20
0.0980237827612314
30
0
41
1
10
67.382551691831
20
-0.106138076350106
30
0
41
1
10
67.3919149248966
20
-0.30986947202905
30
0
0
SPLINE
5
168
100
AcDbEntity
8
1
62
256
6
ByLayer
370
18
48
1
60
0
100
AcDbSpline
70
4
71
3
72
102
73
98
40
0
40
0
40
0
40
0
40
0.0624999999999958
40
0.0624999999999958
40
0.124999999999992
40
0.124999999999992
40
0.187499999999987
40
0.187499999999987
40
0.203124999999986
40
0.203124999999986
40
0.218749999999984
40
0.218749999999984
40
0.249999999999983
40
0.249999999999983
40
0.312499999999979
40
0.312499999999979
40
0.343749999999977
40
0.343749999999977
40
0.351562499999976
40
0.351562499999976
40
0.359374999999974
40
0.359374999999974
40
0.374999999999971
40
0.374999999999971
40
0.406249999999966
40
0.406249999999966
40
0.43749999999996
40
0.43749999999996
40
0.445312499999958
40
0.445312499999958
40
0.453124999999957
40
0.453124999999957
40
0.468749999999958
40
0.468749999999958
40
0.484374999999958
40
0.484374999999958
40
0.49218749999996
40
0.49218749999996
40
0.499999999999962
40
0.499999999999962
40
0.515624999999965
40
0.515624999999965
40
0.531249999999969
40
0.531249999999969
40
0.539062499999969
40
0.539062499999969
40
0.54687499999997
40
0.54687499999997
40
0.562499999999971
40
0.562499999999971
40
0.570312499999972
40
0.570312499999972
40
0.578124999999973
40
0.578124999999973
40
0.593749999999974
40
0.593749999999974
40
0.601562499999975
40
0.601562499999975
40
0.609374999999976
40
0.609374999999976
40
0.624999999999977
40
0.624999999999977
40
0.632812499999978
40
0.632812499999978
40
0.640624999999978
40
0.640624999999978
40
0.65624999999998
40
0.65624999999998
40
0.66406249999998
40
0.66406249999998
40
0.671874999999981
40
0.671874999999981
40
0.687499999999983
40
0.687499999999983
40
0.703124999999986
40
0.703124999999986
40
0.710937499999986
40
0.710937499999986
40
0.718749999999987
40
0.718749999999987
40
0.734374999999987
40
0.734374999999987
40
0.749999999999988
40
0.749999999999988
40
0.78124999999999
40
0.78124999999999
40
0.812499999999991
40
0.812499999999991
40
0.828124999999992
40
0.828124999999992
40
0.843749999999992
40
0.843749999999992
40
0.874999999999994
40
0.874999999999994
40
0.937499999999997
40
0.937499999999997
40
1
40
1
40
1
40
1
41
1
10
42.2970741366207
20
0.934283626823031
30
0
41
1
10
42.1002137079481
20
1.07812498730237
30
0
41
1
10
41.8997970740159
20
1.21279495650228
30
0
41
1
10
41.4893205027964
20
1.46086129254448
30
0
41
1
10
41.2792475759547
20
1.57423441910316
30
0
41
1
10
40.8466164507265
20
1.77646937140815
30
0
41
1
10
40.6240650777475
20
1.86534503270966
30
0
41
1
10
40.3358615950593
20
1.95846822785933
30
0
41
1
10
40.2777173898729
20
1.9761897940092
30
0
41
1
10
40.1603383697539
20
2.00971336840914
30
0
41
1
10
40.1010092345615
20
2.02555133994218
30
0
41
1
10
39.922832259049
20
2.06946526627542
30
0
41
1
10
39.8033387264634
20
2.09392209388687
30
0
41
1
10
39.4433241238374
20
2.15708405080113
30
0
41
1
10
39.2014566002809
20
2.18679196270924
30
0
41
1
10
38.8354262802413
20
2.21066210776507
30
0
41
1
10
38.7128790153348
20
2.2151716252479
30
0
41
1
10
38.5589251333158
20
2.21589827213893
30
0
41
1
10
38.5280953577233
20
2.2157946735239
30
0
41
1
10
38.4663557763013
20
2.21507657780839
30
0
41
1
10
38.4354243577226
20
2.21446392308042
30
0
41
1
10
38.3428186071924
20
2.21184308061802
30
0
41
1
10
38.2812546790136
20
2.20905334549684
30
0
41
1
10
38.0971157591769
20
2.19734455101457
30
0
41
1
10
37.9750893523412
20
2.1851169456011
30
0
41
1
10
37.7327559141777
20
2.15012123117111
30
0
41
1
10
37.6124377659044
20
2.12742542777792
30
0
41
1
10
37.4633866112974
20
2.09058810624356
30
0
41
1
10
37.4336842804234
20
2.08280417118448
30
0
41
1
10
37.3747557945989
20
2.0664116298563
30
0
41
1
10
37.3454946870994
20
2.05779457866828
30
0
41
1
10
37.258356898583
20
2.03059538067157
30
0
41
1
10
37.2011235886648
20
2.01067057732482
30
0
41
1
10
37.0886109258934
20
1.96666978955562
30
0
41
1
10
37.0333303834933
20
1.94259677009893
30
0
41
1
10
36.9521137127283
20
1.9027964311793
30
0
41
1
10
36.9253262649466
20
1.88891264326873
30
0
41
1
10
36.8723724475444
20
1.85978553040326
30
0
41
1
10
36.8461672652352
20
1.84451377308093
30
0
41
1
10
36.7693722064647
20
1.79695350442873
30
0
41
1
10
36.7203802174303
20
1.7627742045064
30
0
41
1
10
36.6273836438292
20
1.68869613150542
30
0
41
1
10
36.583369689072
20
1.64880848062558
30
0
41
1
10
36.5217589502978
20
1.58380867718805
30
0
41
1
10
36.5019386908009
20
1.56123877812865
30
0
41
1
10
36.4645143896632
20
1.51499695144489
30
0
41
1
10
36.4468270219856
20
1.49124097143888
30
0
41
1
10
36.3969251607499
20
1.41798882720929
30
0
41
1
10
36.3678606872259
20
1.36651539512766
30
0
41
1
10
36.331015621232
20
1.28495468226507
30
0
41
1
10
36.3198459734055
20
1.25692884778704
30
0
41
1
10
36.3001771939574
20
1.20043869311215
30
0
41
1
10
36.291621033509
20
1.17187101688108
30
0
41
1
10
36.2696074083769
20
1.08522375008832
30
0
41
1
10
36.2598008623555
20
1.02620072638217
30
0
41
1
10
36.2519373979191
20
0.935822768289682
30
0
41
1
10
36.2504522002608
20
0.90526935766681
30
0
41
1
10
36.2496720623088
20
0.844423526189928
30
0
41
1
10
36.2503621725432
20
0.814079199064196
30
0
41
1
10
36.2553648741875
20
0.72324888851756
30
0
41
1
10
36.2625977784802
20
0.66296430670252
30
0
41
1
10
36.2783311213696
20
0.572837120706851
30
0
41
1
10
36.2843926304481
20
0.542844992624822
30
0
41
1
10
36.2980262205568
20
0.482947911154071
30
0
41
1
10
36.3056137172225
20
0.452988842714433
30
0
41
1
10
36.3303780623241
20
0.363596227234297
30
0
41
1
10
36.3494096900906
20
0.305079663429439
30
0
41
1
10
36.3809929209861
20
0.218599388306501
30
0
41
1
10
36.3920296651751
20
0.189989705176259
30
0
41
1
10
36.4150264096653
20
0.133163517549605
30
0
41
1
10
36.4269688154231
20
0.104939298429713
30
0
41
1
10
36.4642707535457
20
0.0208965045810885
30
0
41
1
10
36.4910608374907
20
-0.0343115199582655
30
0
41
1
10
36.547999674132
20
-0.143295913447332
30
0
41
1
10
36.5781497362373
20
-0.197071716004899
30
0
41
1
10
36.6256048872408
20
-0.276786318958983
30
0
41
1
10
36.6417549281951
20
-0.303129933467773
30
0
41
1
10
36.6745751045991
20
-0.355247973080452
30
0
41
1
10
36.6912597896454
20
-0.381046840890377
30
0
41
1
10
36.74207205285
20
-0.457721462020316
30
0
41
1
10
36.7769649586124
20
-0.507870108167452
30
0
41
1
10
36.8482523939307
20
-0.606679249534551
30
0
41
1
10
36.8846713824877
20
-0.655320432533443
30
0
41
1
10
36.9958804518216
20
-0.799277780875144
30
0
41
1
10
37.0726044621499
20
-0.892643777133145
30
0
41
1
10
37.2298388797858
20
-1.07535537010671
30
0
41
1
10
37.310358294164
20
-1.16469307882463
30
0
41
1
10
37.4333254989178
20
-1.29623711292638
30
0
41
1
10
37.4747238911684
20
-1.3397147577796
30
0
41
1
10
37.5579618215762
20
-1.42569212995221
30
0
41
1
10
37.5997728125022
20
-1.46816413255104
30
0
41
1
10
37.725689445794
20
-1.59415374764984
30
0
41
1
10
37.8102742358064
20
-1.67625132592511
30
0
41
1
10
38.0654107060478
20
-1.91756372489499
30
0
41
1
10
38.237301496594
20
-2.07185644616882
30
0
41
1
10
38.583235432155
20
-2.36905648216947
30
0
41
1
10
38.757290643692
20
-2.5119409173181
30
0
41
1
10
38.932363932078
20
-2.64915215840861
30
0
0
SPLINE
5
169
100
AcDbEntity
8
1
62
256
6
ByLayer
370
18
48
1
60
0
100
AcDbSpline
70
4
71
3
72
105
73
101
40
0
40
0
40
0
40
0
40
0.0073695988918002
40
0.0073695988918002
40
0.0234253447041094
40
0.0234253447041094
40
0.0394810905164187
40
0.0394810905164187
40
0.0715925821410371
40
0.0715925821410371
40
0.103704073765656
40
0.103704073765656
40
0.119759819577965
40
0.119759819577965
40
0.135815565390275
40
0.135815565390275
40
0.167927057014896
40
0.167927057014896
40
0.183982802827206
40
0.183982802827206
40
0.200038548639516
40
0.200038548639516
40
0.216094294451825
40
0.216094294451825
40
0.232150040264135
40
0.232150040264135
40
0.264261531888754
40
0.264261531888754
40
0.296373023513372
40
0.296373023513372
40
0.312428769325681
40
0.312428769325681
40
0.328484515137989
40
0.328484515137989
40
0.360596006762607
40
0.360596006762607
40
0.392707498387224
40
0.392707498387224
40
0.408763244199533
40
0.408763244199533
40
0.424818990011841
40
0.424818990011841
40
0.456930481636457
40
0.456930481636457
40
0.489041973261073
40
0.489041973261073
40
0.505097719073381
40
0.505097719073381
40
0.521153464885689
40
0.521153464885689
40
0.553264956510307
40
0.553264956510307
40
0.56129282941646
40
0.56129282941646
40
0.569320702322613
40
0.569320702322613
40
0.585376448134922
40
0.585376448134922
40
0.60143219394723
40
0.60143219394723
40
0.617487939759538
40
0.617487939759538
40
0.649599431384155
40
0.649599431384155
40
0.665655177196464
40
0.665655177196464
40
0.681710923008772
40
0.681710923008772
40
0.697766668821081
40
0.697766668821081
40
0.705794541727235
40
0.705794541727235
40
0.713822414633388
40
0.745933906258002
40
0.745933906258002
40
0.761989652070308
40
0.761989652070308
40
0.778045397882615
40
0.778045397882615
40
0.810156889507226
40
0.810156889507226
40
0.842268381131837
40
0.842268381131837
40
0.85029625403799
40
0.85029625403799
40
0.858324126944142
40
0.858324126944142
40
0.874379872756447
40
0.874379872756447
40
0.938602856005666
40
0.938602856005666
40
0.95465860181797
40
0.95465860181797
40
0.970714347630275
40
0.970714347630275
40
0.986770093442579
40
0.986770093442579
40
0.994797966348731
40
0.994797966348731
40
1
40
1
40
1
40
1
41
1
10
64.5263791247795
20
-4.34999790603501
30
0
41
1
10
64.4718727569119
20
-4.34999429447495
30
0
41
1
10
64.4174052470051
20
-4.34939810930862
30
0
41
1
10
64.244348581621
20
-4.34563223015954
30
0
41
1
10
64.1257818360938
20
-4.34027051340584
30
0
41
1
10
63.8888923560399
20
-4.3240590521728
30
0
41
1
10
63.7706198486011
20
-4.3131999311901
30
0
41
1
10
63.4161998063345
20
-4.27236348575144
30
0
41
1
10
63.1803697063716
20
-4.23412835991985
30
0
41
1
10
62.707729640015
20
-4.13593338381733
30
0
41
1
10
62.4709364729117
20
-4.07596235868184
30
0
41
1
10
62.1134761191848
20
-3.97016178589342
30
0
41
1
10
61.9938673397145
20
-3.93228348787662
30
0
41
1
10
61.7541072132631
20
-3.85115040328526
30
0
41
1
10
61.6346665932194
20
-3.80813288821275
30
0
41
1
10
61.27741511697
20
-3.67196184573456
30
0
41
1
10
61.0406442889
20
-3.57170276641682
30
0
41
1
10
60.6861617970108
20
-3.40837093093913
30
0
41
1
10
60.5681140636075
20
-3.35177036988017
30
0
41
1
10
60.3320165340251
20
-3.23447455906736
30
0
41
1
10
60.2139776205063
20
-3.17376827206428
30
0
41
1
10
59.9775400804848
20
-3.04861193974966
30
0
41
1
10
59.8591918170912
20
-2.98412059658512
30
0
41
1
10
59.6224164802228
20
-2.85112179273534
30
0
41
1
10
59.5039630808726
20
-2.78263727466094
30
0
41
1
10
59.1481912447436
20
-2.57136073100529
30
0
41
1
10
58.9104090271859
20
-2.4227947825093
30
0
41
1
10
58.4317951783825
20
-2.11170640575608
30
0
41
1
10
58.1939690514164
20
-1.95117331561414
30
0
41
1
10
57.8378778468828
20
-1.70515321821296
30
0
41
1
10
57.7193185873777
20
-1.62223185385264
30
0
41
1
10
57.4826229390884
20
-1.4543882038968
30
0
41
1
10
57.3644653753165
20
-1.36949113447218
30
0
41
1
10
57.0102498385452
20
-1.11226938852448
30
0
41
1
10
56.7744559298704
20
-0.937403775028713
30
0
41
1
10
56.3017658763945
20
-0.583202046008523
30
0
41
1
10
56.0648642151125
20
-0.403872623761401
30
0
41
1
10
55.7072562222185
20
-0.133389395414866
30
0
41
1
10
55.5877320453584
20
-0.0429074968716918
30
0
41
1
10
55.3480797551745
20
0.138780769495014
30
0
41
1
10
55.2285919808942
20
0.229437382479602
30
0
41
1
10
54.8712727934612
20
0.500166088239837
30
0
41
1
10
54.6344627238906
20
0.679214110085866
30
0
41
1
10
54.1618032762746
20
1.03207898694075
30
0
41
1
10
53.9259039797484
20
1.20582845498922
30
0
41
1
10
53.5711661085394
20
1.4605271401571
30
0
41
1
10
53.4528548381116
20
1.54454616082725
30
0
41
1
10
53.2162157053575
20
1.71095373276262
30
0
41
1
10
53.0978418488568
20
1.79328383946014
30
0
41
1
10
52.7422187674597
20
2.03720578466775
30
0
41
1
10
52.5044867390385
20
2.19575167978152
30
0
41
1
10
52.2054093013333
20
2.3874008989236
30
0
41
1
10
52.1456097774641
20
2.42532615997968
30
0
41
1
10
52.0262283681103
20
2.50019189080629
30
0
41
1
10
51.966611462328
20
2.5371548145317
30
0
41
1
10
51.7879237972997
20
2.64658655770617
30
0
41
1
10
51.66898616208
20
2.71756697756067
30
0
41
1
10
51.4313992101242
20
2.8555768329957
30
0
41
1
10
51.3128177037486
20
2.92267773989715
30
0
41
1
10
51.0761133201151
20
3.05312353158129
30
0
41
1
10
50.9579569600059
20
3.11643306053094
30
0
41
1
10
50.6037395220456
20
3.30030335118065
30
0
41
1
10
50.3679531341402
20
3.41482456342092
30
0
41
1
10
50.0135195551583
20
3.5733349759368
30
0
41
1
10
49.8952431802932
20
3.62395481581666
30
0
41
1
10
49.6581299358145
20
3.72051952420082
30
0
41
1
10
49.5392447523729
20
3.76643287328019
30
0
41
1
10
49.3008418009016
20
3.85351622233907
30
0
41
1
10
49.1813981337714
20
3.89473330932088
30
0
41
1
10
49.0017530088866
20
3.95292979189293
30
0
41
1
10
48.9418789715728
20
3.97169326706367
30
0
41
1
10
48.8224208284406
20
4.00785208307005
30
0
41
1
10
48.5242745332698
20
4.09490229023888
30
0
41
1
10
48.228264329024
20
4.16511202362102
30
0
41
1
10
47.8736425081284
20
4.23293534554335
30
0
41
1
10
47.7555345171244
20
4.25280695855022
30
0
41
1
10
47.5192644292428
20
4.28705431399746
30
0
41
1
10
47.4010062299251
20
4.3014135923008
30
0
41
1
10
47.0463746672245
20
4.33634382242565
30
0
41
1
10
46.8101143443366
20
4.3487283939489
30
0
41
1
10
46.3361737817009
20
4.35108566395758
30
0
41
1
10
46.0985124742081
20
4.34105496295686
30
0
41
1
10
45.7993681978377
20
4.31420301085706
30
0
41
1
10
45.7394960048976
20
4.3081214106187
30
0
41
1
10
45.620003818981
20
4.29458925369474
30
0
41
1
10
45.5603314645635
20
4.28713362554481
30
0
41
1
10
45.3814650307787
20
4.26273733684138
30
0
41
1
10
45.2623748375129
20
4.24378682858298
30
0
41
1
10
44.6685932615514
20
4.13553348610935
30
0
41
1
10
44.1982982822331
20
4.00569921981011
30
0
41
1
10
43.6072402925708
20
3.79392658653481
30
0
41
1
10
43.4888868355058
20
3.74909216181283
30
0
41
1
10
43.2515721468939
20
3.65467103584066
30
0
41
1
10
43.1325977568144
20
3.60510201935619
30
0
41
1
10
42.8943261046064
20
3.50095117636491
30
0
41
1
10
42.7749768758214
20
3.44640316856905
30
0
41
1
10
42.5954533094169
20
3.36093561546093
30
0
41
1
10
42.5355682860758
20
3.33185586878736
30
0
41
1
10
42.4371316845003
20
3.28314933572099
30
0
41
1
10
42.3984659671777
20
3.26378651350691
30
0
41
1
10
42.3598365952363
20
3.24421635127615
30
0
0
SPLINE
5
16A
100
AcDbEntity
8
1
62
256
6
ByLayer
370
18
48
1
60
0
100
AcDbSpline
70
4
71
3
72
133
73
129
40
0
40
0
40
0
40
0
40
0.0095165586765274
40
0.0095165586765274
40
0.0190331173530548
40
0.0190331173530548
40
0.0380662347061109
40
0.0380662347061109
40
0.0475827933826389
40
0.0475827933826389
40
0.0570993520591669
40
0.0570993520591669
40
0.0761324694122242
40
0.0761324694122242
40
0.0951655867652815
40
0.0951655867652815
40
0.114198704118339
40
0.114198704118339
40
0.152264938824452
40
0.152264938824452
40
0.190331173530565
40
0.190331173530565
40
0.199847732207094
40
0.199847732207094
40
0.209364290883622
40
0.209364290883622
40
0.228397408236681
40
0.228397408236681
40
0.266463642942798
40
0.266463642942798
40
0.285496760295856
40
0.285496760295856
40
0.295013318972386
40
0.295013318972386
40
0.304529877648916
40
0.304529877648916
40
0.323562995001974
40
0.323562995001974
40
0.342596112355033
40
0.342596112355033
40
0.352112671031562
40
0.352112671031562
40
0.361629229708091
40
0.361629229708091
40
0.38066234706115
40
0.38066234706115
40
0.390178905737679
40
0.390178905737679
40
0.399695464414209
40
0.399695464414209
40
0.418728581767268
40
0.418728581767268
40
0.437761699120326
40
0.437761699120326
40
0.456794816473385
40
0.456794816473385
40
0.475827933826443
40
0.475827933826443
40
0.494861051179502
40
0.494861051179502
40
0.504377609856031
40
0.504377609856031
40
0.509135889194296
40
0.509135889194296
40
0.513894168532561
40
0.532927285885624
40
0.532927285885624
40
0.570993520591748
40
0.570993520591748
40
0.580510079268279
40
0.580510079268279
40
0.590026637944811
40
0.590026637944811
40
0.599543196621342
40
0.599543196621342
40
0.609059755297873
40
0.609059755297873
40
0.628092872650936
40
0.628092872650936
40
0.647125990003999
40
0.647125990003999
40
0.65664254868053
40
0.65664254868053
40
0.666159107357061
40
0.666159107357061
40
0.685192224710123
40
0.685192224710123
40
0.694708783386655
40
0.694708783386655
40
0.704225342063186
40
0.704225342063186
40
0.723258459416247
40
0.723258459416247
40
0.742291576769309
40
0.742291576769309
40
0.761324694122371
40
0.761324694122371
40
0.780357811475432
40
0.780357811475432
40
0.789874370151963
40
0.789874370151963
40
0.799390928828494
40
0.799390928828494
40
0.808907487505025
40
0.808907487505025
40
0.818424046181555
40
0.818424046181555
40
0.837457163534617
40
0.837457163534617
40
0.87552339824074
40
0.87552339824074
40
0.894556515593801
40
0.894556515593801
40
0.913589632946863
40
0.913589632946863
40
0.951655867652987
40
0.951655867652987
40
0.956414146991252
40
0.956414146991252
40
0.961172426329517
40
0.961172426329517
40
0.970688985006047
40
0.970688985006047
40
0.980205543682577
40
0.980205543682577
40
0.989722102359107
40
0.989722102359107
40
1
40
1
40
1
40
1
41
1
10
38.9324089914502
20
4.31261513353692
30
0
41
1
10
39.0007663238727
20
4.30580738187115
30
0
41
1
10
39.0690016841776
20
4.29806064300607
30
0
41
1
10
39.2053696519452
20
4.28070330743475
30
0
41
1
10
39.2735662166083
20
4.27110628573018
30
0
41
1
10
39.4785072089073
20
4.2396689480754
30
0
41
1
10
39.6154786956779
20
4.21516311643057
30
0
41
1
10
39.8212579725381
20
4.17309662854342
30
0
41
1
10
39.8899116573038
20
4.15819046292788
30
0
41
1
10
40.0273408504501
20
4.12660990309578
30
0
41
1
10
40.0961568409743
20
4.10992513711102
30
0
41
1
10
40.3025010454931
20
4.05727232880682
30
0
41
1
10
40.4395545321707
20
4.01880951547318
30
0
41
1
10
40.7127233491717
20
3.93528346407288
30
0
41
1
10
40.8488320632544
20
3.89021682055667
30
0
41
1
10
41.1201404574129
20
3.79349824593567
30
0
41
1
10
41.2552674406243
20
3.74178172033694
30
0
41
1
10
41.6612651051762
20
3.57811296317988
30
0
41
1
10
41.9323645122999
20
3.45748034842694
30
0
41
1
10
42.4756275121689
20
3.19368670336331
30
0
41
1
10
42.7477554401844
20
3.05048583946274
30
0
41
1
10
43.0889722828963
20
2.85719566151334
30
0
41
1
10
43.157258870568
20
2.8178105226927
30
0
41
1
10
43.2939392399387
20
2.7375788390369
30
0
41
1
10
43.362434065248
20
2.69669926004156
30
0
41
1
10
43.5677420486041
20
2.57283249013474
30
0
41
1
10
43.7044474726015
20
2.48860120012733
30
0
41
1
10
44.1137294393569
20
2.23071497452932
30
0
41
1
10
44.38571659086
20
2.05215452544573
30
0
41
1
10
44.7928313699835
20
1.77507951010799
30
0
41
1
10
44.928379048331
20
1.68116325611169
30
0
41
1
10
45.131412644587
20
1.53786828004826
30
0
41
1
10
45.1990434325945
20
1.48970052604409
30
0
41
1
10
45.3342251037931
20
1.39257022945282
30
0
41
1
10
45.4017506010481
20
1.34357471975903
30
0
41
1
10
45.6045692729307
20
1.19584920841879
30
0
41
1
10
45.740250706121
20
1.09657370191732
30
0
41
1
10
46.0123665155914
20
0.896217799941269
30
0
41
1
10
46.148837590696
20
0.79518428699717
30
0
41
1
10
46.3542264809816
20
0.642419065120578
30
0
41
1
10
46.422802432181
20
0.591293633538072
30
0
41
1
10
46.5601821388984
20
0.48863162396961
30
0
41
1
10
46.629035700798
20
0.437056101048313
30
0
41
1
10
46.8349751502361
20
0.282420497115908
30
0
41
1
10
46.9717358591428
20
0.179252584951115
30
0
41
1
10
47.1761593731485
20
0.0244867071271244
30
0
41
1
10
47.2441814073636
20
-0.0271035695233479
30
0
41
1
10
47.379973217086
20
-0.130306178853004
30
0
41
1
10
47.4477136422297
20
-0.181957967642461
30
0
41
1
10
47.6507696309762
20
-0.336657259755611
30
0
41
1
10
47.7862706347897
20
-0.438978890767089
30
0
41
1
10
48.0573203274421
20
-0.642314753268124
30
0
41
1
10
48.1929022030898
20
-0.743284028998715
30
0
41
1
10
48.4642539854084
20
-0.943738281919906
30
0
41
1
10
48.6000236003023
20
-1.04322393420648
30
0
41
1
10
48.8717168222794
20
-1.24074917469238
30
0
41
1
10
49.0076102101245
20
-1.33882766811968
30
0
41
1
10
49.279583796954
20
-1.5334686109978
30
0
41
1
10
49.4157114312494
20
-1.62996980601974
30
0
41
1
10
49.6203328903811
20
-1.77318876066823
30
0
41
1
10
49.6886709928692
20
-1.82059785390305
30
0
41
1
10
49.7914840328884
20
-1.89107755374403
30
0
41
1
10
49.8258199660148
20
-1.91448390089999
30
0
41
1
10
49.8944365776121
20
-1.96099831239292
30
0
41
1
10
50.0658945837383
20
-2.07657727932147
30
0
41
1
10
50.2369366139986
20
-2.18866880150779
30
0
41
1
10
50.6464563422565
20
-2.45139231616611
30
0
41
1
10
50.918247151875
20
-2.61806631102076
30
0
41
1
10
51.2567716417453
20
-2.81553264649185
30
0
41
1
10
51.324413070995
20
-2.85448279799189
30
0
41
1
10
51.4595632739917
20
-2.9312935214617
30
0
41
1
10
51.527054276228
20
-2.96917080703122
30
0
41
1
10
51.6620658764935
20
-3.04366634326399
30
0
41
1
10
51.7295990889076
20
-3.08027265517697
30
0
41
1
10
51.8648634264576
20
-3.15207207058106
30
0
41
1
10
51.9325889457841
20
-3.18727116970564
30
0
41
1
10
52.1360509886199
20
-3.29077288144845
30
0
41
1
10
52.2720773606889
20
-3.35697913082015
30
0
41
1
10
52.5448269917265
20
-3.48386685732507
30
0
41
1
10
52.6815205093311
20
-3.5445719496565
30
0
41
1
10
52.8870961180054
20
-3.63140967851268
30
0
41
1
10
52.9557136297983
20
-3.65964936767321
30
0
41
1
10
53.0931506366929
20
-3.71468675663573
30
0
41
1
10
53.1618307032554
20
-3.74142679786919
30
0
41
1
10
53.3672867672632
20
-3.81912992801395
30
0
41
1
10
53.5036676198357
20
-3.86766463028195
30
0
41
1
10
53.7073635874823
20
-3.93556031746345
30
0
41
1
10
53.7751577543621
20
-3.95734708522826
30
0
41
1
10
53.910793030387
20
-3.99910422171669
30
0
41
1
10
53.9786070483566
20
-4.01909133245988
30
0
41
1
10
54.1820520561051
20
-4.07640624928962
30
0
41
1
10
54.3176935394653
20
-4.11108699990251
30
0
41
1
10
54.5890309617088
20
-4.1734936622297
30
0
41
1
10
54.7247266456549
20
-4.20122157283393
30
0
41
1
10
54.9960682194892
20
-4.24976727907219
30
0
41
1
10
55.1316893404461
20
-4.27058793008453
30
0
41
1
10
55.4030673780801
20
-4.30516377017597
30
0
41
1
10
55.5388459366191
20
-4.3189170666729
30
0
41
1
10
55.7426890188285
20
-4.33412111762959
30
0
41
1
10
55.8106558938942
20
-4.33828385630039
30
0
41
1
10
55.9468309240675
20
-4.34475858801716
30
0
41
1
10
56.0150587167703
20
-4.34707011025887
30
0
41
1
10
56.1518440112837
20
-4.3498370614966
30
0
41
1
10
56.2204039682773
20
-4.35029319259743
30
0
41
1
10
56.3577824418573
20
-4.34934324635589
30
0
41
1
10
56.4263780297868
20
-4.34793894175436
30
0
41
1
10
56.6319121797193
20
-4.34097897443942
30
0
41
1
10
56.7686017907517
20
-4.33267967901352
30
0
41
1
10
57.1777706977166
20
-4.29702856617058
30
0
41
1
10
57.4493139667909
20
-4.25896524370455
30
0
41
1
10
57.8549685079365
20
-4.18042124139262
30
0
41
1
10
57.989923702393
20
-4.15064010857387
30
0
41
1
10
58.2605306668462
20
-4.08436920369735
30
0
41
1
10
58.396144333844
20
-4.04788169060453
30
0
41
1
10
58.8038919572287
20
-3.9284372682919
30
0
41
1
10
59.0768037157764
20
-3.83547246491815
30
0
41
1
10
59.3853049600968
20
-3.71555974704265
30
0
41
1
10
59.4196033068994
20
-3.70202223532198
30
0
41
1
10
59.4882391660423
20
-3.67451461137509
30
0
41
1
10
59.5225969716695
20
-3.66053600256697
30
0
41
1
10
59.6255191468198
20
-3.61802864593875
30
0
41
1
10
59.6939524079198
20
-3.58891519988538
30
0
41
1
10
59.8305115943398
20
-3.52918291019992
30
0
41
1
10
59.8986386552646
20
-3.49856491150444
30
0
41
1
10
60.0346539184968
20
-3.43588197386526
30
0
41
1
10
60.1025265656172
20
-3.40380279548222
30
0
41
1
10
60.2437612713415
20
-3.33584497722131
30
0
41
1
10
60.3171084892249
20
-3.29985461099213
30
0
41
1
10
60.3904457121953
20
-3.2631485015643
30
0
0
SPLINE
5
16B
100
AcDbEntity
8
1
62
256
6
ByLayer
370
18
48
1
60
0
100
AcDbSpline
70
4
71
3
72
30
73
26
40
0
40
0
40
0
40
0
40
0.0512158722740468
40
0.0512158722740468
40
0.124199266714505
40
0.124199266714505
40
0.270166055595422
40
0.270166055595422
40
0.34314945003588
40
0.34314945003588
40
0.416132844476338
40
0.416132844476338
40
0.562099633357253
40
0.562099633357253
40
0.635083027797711
40
0.635083027797711
40
0.708066422238169
40
0.708066422238169
40
0.781049816678627
40
0.781049816678627
40
0.854033211119084
40
0.854033211119084
40
0.927016605559542
40
0.927016605559542
40
1
40
1
40
1
40
1
41
1
10
74.7584736626799
20
5.03294997673009
30
0
41
1
10
74.7644707431171
20
5.02740004259445
30
0
41
1
10
74.7706611431225
20
5.02212913429028
30
0
41
1
10
74.7861203940242
20
5.00999311158199
30
0
41
1
10
74.7954427103805
20
5.0035100891015
30
0
41
1
10
74.8240055175307
20
4.98583763238216
30
0
41
1
10
74.8438537738898
20
4.97638759991727
30
0
41
1
10
74.8747102017707
20
4.9654656861513
30
0
41
1
10
74.8852075330267
20
4.96236682817875
30
0
41
1
10
74.9064377988482
20
4.95732738073184
30
0
41
1
10
74.9170905271062
20
4.95540231348193
30
0
41
1
10
74.949144811193
20
4.95139123433339
30
0
41
1
10
74.9706416612546
20
4.95104079278931
30
0
41
1
10
75.0030317684127
20
4.95438813462974
30
0
41
1
10
75.0139029571905
20
4.9561681976989
30
0
41
1
10
75.0354432009366
20
4.96114526676274
30
0
41
1
10
75.0460602258951
20
4.96432311749203
30
0
41
1
10
75.0669521601162
20
4.97217454520546
30
0
41
1
10
75.0772274584473
20
4.97684646346971
30
0
41
1
10
75.0973772165638
20
4.98790661111266
30
0
41
1
10
75.1073045696837
20
4.99434475989901
30
0
41
1
10
75.1261302470514
20
5.0088781490067
30
0
41
1
10
75.1350851585365
20
5.01699066153597
30
0
41
1
10
75.1519251720548
20
5.03519132090335
30
0
41
1
10
75.1598523450974
20
5.04535368945511
30
0
41
1
10
75.1669275390584
20
5.05646663074438
30
0
0
SPLINE
5
16C
100
AcDbEntity
8
1
62
256
6
ByLayer
370
18
48
1
60
0
100
AcDbSpline
70
4
71
3
72
12
73
8
40
0
40
0
40
0
40
0
40
0.5
40
0.5
40
0.75
40
0.75
40
1
40
1
40
1
40
1
41
1
10
75.1669275390586
20
5.05646663074438
30
0
41
1
10
75.2657833571552
20
5.21173854394749
30
0
41
1
10
75.3637157425906
20
5.36309991240381
30
0
41
1
10
75.5096341470785
20
5.58434003934985
30
0
41
1
10
75.5580711069017
20
5.65705833805885
30
0
41
1
10
75.6544858022347
20
5.80026322406943
30
0
41
1
10
75.7024816993962
20
5.87077726025959
30
0
41
1
10
75.7502973634846
20
5.94020154537654
30
0
0
SPLINE
5
16D
100
AcDbEntity
8
1
62
256
6
ByLayer
370
18
48
1
60
0
100
AcDbSpline
70
4
71
3
72
8
73
4
40
0
40
0
40
0
40
0
40
1
40
1
40
1
40
1
41
1
10
75.9462943271206
20
5.89256818727119
30
0
41
1
10
75.881020861265
20
5.90957874393987
30
0
41
1
10
75.8156907502036
20
5.92545843875334
30
0
41
1
10
75.7502973634847
20
5.94020154537645
30
0
0
SPLINE
5
16E
100
AcDbEntity
8
1
62
256
6
ByLayer
370
18
48
1
60
0
100
AcDbSpline
70
4
71
3
72
10
73
6
40
0
40
0
40
0
40
0
40
0.5
40
0.5
40
1
40
1
40
1
40
1
41
1
10
75.9462943271206
20
5.89256818727122
30
0
41
1
10
76.0445208785589
20
5.70620480646426
30
0
41
1
10
76.143445278775
20
5.51692284136234
30
0
41
1
10
76.3432385305159
20
5.1327827323195
30
0
41
1
10
76.4438184646056
20
4.93849859373978
30
0
41
1
10
76.5453658747911
20
4.74212934525465
30
0
0
SPLINE
5
16F
100
AcDbEntity
8
1
62
256
6
ByLayer
370
18
48
1
60
0
100
AcDbSpline
70
4
71
3
72
32
73
28
40
0
40
0
40
0
40
0
40
0.12500000000004
40
0.12500000000004
40
0.187500000000042
40
0.187500000000042
40
0.250000000000044
40
0.250000000000044
40
0.375000000000047
40
0.375000000000047
40
0.437500000000029
40
0.437500000000029
40
0.50000000000001
40
0.50000000000001
40
0.624999999999972
40
0.624999999999972
40
0.687499999999977
40
0.687499999999977
40
0.749999999999982
40
0.749999999999982
40
0.812499999999986
40
0.812499999999986
40
0.874999999999991
40
0.874999999999991
40
0.937499999999995
40
0.937499999999995
40
1
40
1
40
1
40
1
41
1
10
76.5453658747911
20
4.74212934525465
30
0
41
1
10
76.5583299805167
20
4.71705975762095
30
0
41
1
10
76.5734125724143
20
4.69449382559321
30
0
41
1
10
76.598370195835
20
4.66337948923413
30
0
41
1
10
76.607089059849
20
4.6534769745401
30
0
41
1
10
76.6252745000907
20
4.63454950533165
30
0
41
1
10
76.6346028730479
20
4.6256684810441
30
0
41
1
10
76.6631812118871
20
4.60062803200222
30
0
41
1
10
76.6830350915247
20
4.58603332349549
30
0
41
1
10
76.7138963496047
20
4.56705311100043
30
0
41
1
10
76.72439543121
20
4.5612024774592
30
0
41
1
10
76.7456232397529
20
4.55057393868918
30
0
41
1
10
76.7562743296771
20
4.54583132192636
30
0
41
1
10
76.7883227609476
20
4.53329369106092
30
0
41
1
10
76.8098144391484
20
4.5271619416051
30
0
41
1
10
76.8421938602308
20
4.5216491772743
30
0
41
1
10
76.8530617222662
20
4.52043020294167
30
0
41
1
10
76.874588015431
20
4.51940141262008
30
0
41
1
10
76.8851981116172
20
4.51958687951955
30
0
41
1
10
76.9060762024219
20
4.52147240837607
30
0
41
1
10
76.9163445853794
20
4.52317079910833
30
0
41
1
10
76.9364804838505
20
4.52830197095241
30
0
41
1
10
76.9464009812129
20
4.53176796278666
30
0
41
1
10
76.9652151242641
20
4.54054221135661
30
0
41
1
10
76.9741649296603
20
4.54585164487904
30
0
41
1
10
76.9909962329383
20
4.55862447759313
30
0
41
1
10
76.9989204577248
20
4.56614716258915
30
0
41
1
10
77.005995460082
20
4.57480080209513
30
0
0
SPLINE
5
170
100
AcDbEntity
8
1
62
256
6
ByLayer
370
18
48
1
60
0
100
AcDbSpline
70
4
71
3
72
12
73
8
40
0
40
0
40
0
40
0
40
0.499999999999999
40
0.499999999999999
40
0.75
40
0.75
40
1
40
1
40
1
40
1
41
1
10
77.0059954600819
20
4.57480080209541
30
0
41
1
10
77.1049205960191
20
4.69579898997745
30
0
41
1
10
77.202908861209
20
4.81068862149456
30
0
41
1
10
77.3489063707065
20
4.97413656980771
30
0
41
1
10
77.3973712895413
20
5.02709286653106
30
0
41
1
10
77.4938416782933
20
5.12984861191882
30
0
41
1
10
77.5418661124802
20
5.17966936989416
30
0
41
1
10
77.5897113419763
20
5.22794167500109
30
0
0
SPLINE
5
171
100
AcDbEntity
8
1
62
256
6
ByLayer
370
18
48
1
60
0
100
AcDbSpline
70
4
71
3
72
8
73
4
40
0
40
0
40
0
40
0
40
1
40
1
40
1
40
1
41
1
10
77.785944023007
20
5.1190868636784
30
0
41
1
10
77.7206123510995
20
5.15632402183459
30
0
41
1
10
77.6550682968289
20
5.19268474512199
30
0
41
1
10
77.5897113419762
20
5.22794167500109
30
0
0
SPLINE
5
172
100
AcDbEntity
8
1
62
256
6
ByLayer
370
18
48
1
60
0
100
AcDbSpline
70
4
71
3
72
10
73
6
40
0
40
0
40
0
40
0
40
0.5
40
0.5
40
1
40
1
40
1
40
1
41
1
10
77.785944023007
20
5.1190868636784
30
0
41
1
10
77.8841517789015
20
4.91671301258381
30
0
41
1
10
77.9830358312567
20
4.71418605024883
30
0
41
1
10
78.1827014962907
20
4.30920615732765
30
0
41
1
10
78.2831800186093
20
4.10737388294964
30
0
41
1
10
78.3846240504624
20
3.90636432243247
30
0
0
SPLINE
5
173
100
AcDbEntity
8
1
62
256
6
ByLayer
370
18
48
1
60
0
100
AcDbSpline
70
4
71
3
72
8
73
4
40
0
40
0
40
0
40
0
40
1
40
1
40
1
40
1
41
1
10
74.74924465168
20
-5.91169728229764
30
0
41
1
10
74.8146258462419
20
-5.92792245026132
30
0
41
1
10
74.8800072717809
20
-5.94299392688646
30
0
41
1
10
74.9454114630954
20
-5.95690584692485
30
0
0
SPLINE
5
174
100
AcDbEntity
8
1
62
256
6
ByLayer
370
18
48
1
60
0
100
AcDbSpline
70
4
71
3
72
32
73
28
40
0
40
0
40
0
40
0
40
0.124999999999984
40
0.124999999999984
40
0.187499999999976
40
0.187499999999976
40
0.249999999999967
40
0.249999999999967
40
0.374999999999992
40
0.374999999999992
40
0.437500000000025
40
0.437500000000025
40
0.500000000000059
40
0.500000000000059
40
0.625000000000079
40
0.625000000000079
40
0.687500000000066
40
0.687500000000066
40
0.750000000000053
40
0.750000000000053
40
0.81250000000004
40
0.81250000000004
40
0.875000000000026
40
0.875000000000026
40
0.937500000000013
40
0.937500000000013
40
1
40
1
40
1
40
1
41
1
10
72.3064246723071
20
-3.88696327527418
30
0
41
1
10
72.293917113326
20
-3.86092461206764
30
0
41
1
10
72.279409681229
20
-3.83644287693514
30
0
41
1
10
72.2553564791979
20
-3.80149740548276
30
0
41
1
10
72.2469460194583
20
-3.79014976867083
30
0
41
1
10
72.2293930668914
20
-3.76803786556883
30
0
41
1
10
72.2203714007013
20
-3.75742501380137
30
0
41
1
10
72.1926390343185
20
-3.72679829937675
30
0
41
1
10
72.1732684386819
20
-3.7079815989963
30
0
41
1
10
72.1429835132472
20
-3.68203199224266
30
0
41
1
10
72.1326816587533
20
-3.67376532018093
30
0
41
1
10
72.1116559643119
20
-3.65802499727147
30
0
41
1
10
72.1010308842995
20
-3.65062785014644
30
0
41
1
10
72.0690478478247
20
-3.63000507627393
30
0
41
1
10
72.04749364394
20
-3.61825465982093
30
0
41
1
10
72.0148380170817
20
-3.60398305739315
30
0
41
1
10
72.0038983016821
20
-3.59979020510883
30
0
41
1
10
71.9819062893127
20
-3.59269175550818
30
0
41
1
10
71.9709052481124
20
-3.58981168932942
30
0
41
1
10
71.9493478410052
20
-3.58565409853242
30
0
41
1
10
71.9387313422472
20
-3.5843541555692
30
0
41
1
10
71.9178841482903
20
-3.58355373063913
30
0
41
1
10
71.9075786667468
20
-3.58407050600906
30
0
41
1
10
71.8880166556159
20
-3.58722086327745
30
0
41
1
10
71.8787180535048
20
-3.58983525544437
30
0
41
1
10
71.8612568583829
20
-3.59750934450162
30
0
41
1
10
71.8530780564538
20
-3.60260903791161
30
0
41
1
10
71.8458527031348
20
-3.60902237216962
30
0
0
SPLINE
5
175
100
AcDbEntity
8
1
62
256
6
ByLayer
370
18
48
1
60
0
100
AcDbSpline
70
4
71
3
72
12
73
8
40
0
40
0
40
0
40
0
40
0.499999999999993
40
0.499999999999993
40
0.749999999999996
40
0.749999999999996
40
1
40
1
40
1
40
1
41
1
10
71.8458527031348
20
-3.60902237216965
30
0
41
1
10
71.748005848633
20
-3.69587273869291
30
0
41
1
10
71.6507680416169
20
-3.77534314146234
30
0
41
1
10
71.5059585963517
20
-3.88350887488718
30
0
41
1
10
71.4578572246013
20
-3.91773189350687
30
0
41
1
10
71.3620869739957
20
-3.98247404930223
30
0
41
1
10
71.3143975553574
20
-4.0130090361732
30
0
41
1
10
71.2668740117724
20
-4.04173705386853
30
0
0
SPLINE
5
176
100
AcDbEntity
8
1
62
256
6
ByLayer
370
18
48
1
60
0
100
AcDbSpline
70
4
71
3
72
8
73
4
40
0
40
0
40
0
40
0
40
1
40
1
40
1
40
1
41
1
10
71.0706696141166
20
-3.88386649737751
30
0
41
1
10
71.1360619372469
20
-3.93725314892143
30
0
41
1
10
71.2014564429741
20
-3.98988190944073
30
0
41
1
10
71.2668740117724
20
-4.04173705386853
30
0
0
SPLINE
5
177
100
AcDbEntity
8
1
62
256
6
ByLayer
370
18
48
1
60
0
100
AcDbSpline
70
4
71
3
72
10
73
6
40
0
40
0
40
0
40
0
40
0.5
40
0.5
40
1
40
1
40
1
40
1
41
1
10
71.0706696141184
20
-3.88386649736628
30
0
41
1
10
70.9714743132547
20
-3.67248149955381
30
0
41
1
10
70.8716829039524
20
-3.4631801273118
30
0
41
1
10
70.6703571531885
20
-3.04923844469917
30
0
41
1
10
70.5691532836055
20
-2.84525611249134
30
0
41
1
10
70.4670739315296
20
-2.64453574261466
30
0
0
SPLINE
5
178
100
AcDbEntity
8
1
62
256
6
ByLayer
370
18
48
1
60
0
100
AcDbSpline
70
4
71
3
72
32
73
28
40
0
40
0
40
0
40
0
40
0.125000000000027
40
0.125000000000027
40
0.187500000000041
40
0.187500000000041
40
0.250000000000055
40
0.250000000000055
40
0.375000000000083
40
0.375000000000083
40
0.437500000000075
40
0.437500000000075
40
0.500000000000067
40
0.500000000000067
40
0.625000000000052
40
0.625000000000052
40
0.687500000000043
40
0.687500000000043
40
0.750000000000034
40
0.750000000000034
40
0.812500000000026
40
0.812500000000026
40
0.875000000000017
40
0.875000000000017
40
0.937500000000009
40
0.937500000000009
40
1
40
1
40
1
40
1
41
1
10
70.4670739315296
20
-2.64453574261469
30
0
41
1
10
70.4545724213065
20
-2.61995380998121
30
0
41
1
10
70.4400728774464
20
-2.59607011552339
30
0
41
1
10
70.4160322901731
20
-2.56105851880972
30
0
41
1
10
70.4076262136903
20
-2.54952404686935
30
0
41
1
10
70.3900820281358
20
-2.52672688824399
30
0
41
1
10
70.3810643436459
20
-2.5156200841989
30
0
41
1
10
70.3533424807612
20
-2.48309579060552
30
0
41
1
10
70.3339769121168
20
-2.46246526240816
30
0
41
1
10
70.3036965827355
20
-2.43299810188199
30
0
41
1
10
70.2933957916498
20
-2.42342463388314
30
0
41
1
10
70.2723714785143
20
-2.40478840707283
30
0
41
1
10
70.2617437744275
20
-2.39581271076901
30
0
41
1
10
70.2297562571606
20
-2.37009921893167
30
0
41
1
10
70.2081984365262
20
-2.35447125632243
30
0
41
1
10
70.1755366965708
20
-2.33354052242123
30
0
41
1
10
70.1645948264135
20
-2.32698611833243
30
0
41
1
10
70.1425982751822
20
-2.31483551151629
30
0
41
1
10
70.1315888615741
20
-2.3092714362746
30
0
41
1
10
70.1100188835893
20
-2.2995084133035
30
0
41
1
10
70.0993965309945
20
-2.29527292768606
30
0
41
1
10
70.0785385663281
20
-2.28829045304534
30
0
41
1
10
70.0682272972243
20
-2.28553344983399
30
0
41
1
10
70.0486527487421
20
-2.28194720312754
30
0
41
1
10
70.0393490556711
20
-2.28109080755746
30
0
41
1
10
70.0218799617601
20
-2.28158107858283
30
0
41
1
10
70.013697652264
20
-2.28295314015546
30
0
41
1
10
70.0064700197164
20
-2.28561609599112
30
0
0
SPLINE
5
179
100
AcDbEntity
8
1
62
256
6
ByLayer
370
18
48
1
60
0
100
AcDbSpline
70
4
71
3
72
12
73
8
40
0
40
0
40
0
40
0
40
0.499999999999992
40
0.499999999999992
40
0.749999999999996
40
0.749999999999996
40
1
40
1
40
1
40
1
41
1
10
70.006470019716
20
-2.28561609599018
30
0
41
1
10
69.9085616720717
20
-2.32168954106365
30
0
41
1
10
69.811261002894
20
-2.34921499119619
30
0
41
1
10
69.6663570939152
20
-2.37813576778081
30
0
41
1
10
69.6182243088895
20
-2.38571942156329
30
0
41
1
10
69.5223926222818
20
-2.39684546779341
30
0
41
1
10
69.4746731166087
20
-2.40039233739017
30
0
41
1
10
69.4271202633444
20
-2.40196260065289
30
0
0
SPLINE
5
17A
100
AcDbEntity
8
1
62
256
6
ByLayer
370
18
48
1
60
0
100
AcDbSpline
70
4
71
3
72
8
73
4
40
0
40
0
40
0
40
0
40
1
40
1
40
1
40
1
41
1
10
69.2311032402167
20
-2.2095511642386
30
0
41
1
10
69.2964322011216
20
-2.27412515637536
30
0
41
1
10
69.3617644689828
20
-2.33826833177645
30
0
41
1
10
69.4271202633443
20
-2.40196260065286
30
0
0
SPLINE
5
17B
100
AcDbEntity
8
1
62
256
6
ByLayer
370
18
48
1
60
0
100
AcDbSpline
70
4
71
3
72
10
73
6
40
0
40
0
40
0
40
0
40
0.5
40
0.5
40
1
40
1
40
1
40
1
41
1
10
69.2311032402167
20
-2.20955116423866
30
0
41
1
10
69.1318672674831
20
-2.0194710054875
30
0
41
1
10
69.0320701316143
20
-1.83423433084715
30
0
41
1
10
68.8308258766932
20
-1.47403969776804
30
0
41
1
10
68.7296931405453
20
-1.29964285453647
30
0
41
1
10
68.627679374033
20
-1.13125746511614
30
0
0
SPLINE
5
17C
100
AcDbEntity
8
1
62
256
6
ByLayer
370
18
48
1
60
0
100
AcDbSpline
70
4
71
3
72
32
73
28
40
0
40
0
40
0
40
0
40
0.125000000000051
40
0.125000000000051
40
0.18750000000006
40
0.18750000000006
40
0.250000000000069
40
0.250000000000069
40
0.375000000000086
40
0.375000000000086
40
0.437500000000074
40
0.437500000000074
40
0.500000000000061
40
0.500000000000061
40
0.625000000000081
40
0.625000000000081
40
0.687500000000067
40
0.687500000000067
40
0.750000000000054
40
0.750000000000054
40
0.81250000000004
40
0.81250000000004
40
0.875000000000027
40
0.875000000000027
40
0.937500000000013
40
0.937500000000013
40
1
40
1
40
1
40
1
41
1
10
68.627679374033
20
-1.13125746511614
30
0
41
1
10
68.6151825737304
20
-1.11063006689912
30
0
41
1
10
68.600690365445
20
-1.08977124236574
30
0
41
1
10
68.5766637246508
20
-1.05825060001368
30
0
41
1
10
68.5682625062461
20
-1.04770074553019
30
0
41
1
10
68.5507298590766
20
-1.02653512862898
30
0
41
1
10
68.541718065867
20
-1.01606335323734
30
0
41
1
10
68.5140135081173
20
-0.984948416478943
30
0
41
1
10
68.494659109751
20
-0.964602759639661
30
0
41
1
10
68.4643921542725
20
-0.934618850217333
30
0
41
1
10
68.4540952444218
20
-0.92471409104607
30
0
41
1
10
68.4330768622206
20
-0.90508273827993
30
0
41
1
10
68.4224506701655
20
-0.895446516315189
30
0
41
1
10
68.3904654323845
20
-0.867274210984363
30
0
41
1
10
68.3689050863209
20
-0.84937373410915
30
0
41
1
10
68.336232821259
20
-0.823944095265318
30
0
41
1
10
68.3252863669642
20
-0.815706537089767
30
0
41
1
10
68.3032788363556
20
-0.79976536597178
30
0
41
1
10
68.2922613820245
20
-0.792097634067773
30
0
41
1
10
68.2706768552322
20
-0.777751269205481
30
0
41
1
10
68.2600473388902
20
-0.771025950491918
30
0
41
1
10
68.2391757098291
20
-0.758601352961051
30
0
41
1
10
68.2288576488002
20
-0.752865713108349
30
0
41
1
10
68.2092705963209
20
-0.742933854660777
30
0
41
1
10
68.199961640836
20
-0.738705806498444
30
0
41
1
10
68.1824839844575
20
-0.731983453618028
30
0
41
1
10
68.1742979541976
20
-0.729496805847191
30
0
41
1
10
68.1670674245361
20
-0.728144944119833
30
0
0
SPLINE
5
17D
100
AcDbEntity
8
1
62
256
6
ByLayer
370
18
48
1
60
0
100
AcDbSpline
70
4
71
3
72
12
73
8
40
0
40
0
40
0
40
0
40
0.5
40
0.5
40
0.75
40
0.75
40
1
40
1
40
1
40
1
41
1
10
68.1670674245362
20
-0.728144944120032
30
0
41
1
10
68.0690888523969
20
-0.709826302474028
30
0
41
1
10
67.9717291645516
20
-0.682679096675315
30
0
41
1
10
67.8267548828951
20
-0.629545437358047
30
0
41
1
10
67.778601922237
20
-0.609765458865297
30
0
41
1
10
67.6827366250041
20
-0.566239844317636
30
0
41
1
10
67.6350035444218
20
-0.542487324346155
30
0
41
1
10
67.5874400337802
20
-0.516790476660077
30
0
0
SPLINE
5
17E
100
AcDbEntity
8
1
62
256
6
ByLayer
370
18
48
1
60
0
100
AcDbSpline
70
4
71
3
72
8
73
4
40
0
40
0
40
0
40
0
40
1
40
1
40
1
40
1
41
1
10
67.3919149248966
20
-0.309869472029078
30
0
41
1
10
67.4570986042383
20
-0.378926855265121
30
0
41
1
10
67.5222669547437
20
-0.447906807829526
30
0
41
1
10
67.5874400337801
20
-0.516790476660077
30
0
0
SPLINE
5
17F
100
AcDbEntity
8
1
62
256
6
ByLayer
370
18
48
1
60
0
100
AcDbSpline
70
4
71
3
72
10
73
6
40
0
40
0
40
0
40
0
40
0.5
40
0.5
40
1
40
1
40
1
40
1
41
1
10
67.3919149248966
20
-0.30986947202905
30
0
41
1
10
67.2926989765159
20
-0.160624167082489
30
0
41
1
10
67.1928878789854
20
-0.0184916418630792
30
0
41
1
10
66.9915532492483
20
0.250963358114717
30
0
41
1
10
66.8903543651274
20
0.377869522874647
30
0
41
1
10
66.7883257909402
20
0.496658142848815
30
0
0
SPLINE
5
180
100
AcDbEntity
8
1
62
256
6
ByLayer
370
18
48
1
60
0
100
AcDbSpline
70
4
71
3
72
32
73
28
40
0
40
0
40
0
40
0
40
0.124999999999972
40
0.124999999999972
40
0.187499999999958
40
0.187499999999958
40
0.249999999999944
40
0.249999999999944
40
0.374999999999916
40
0.374999999999916
40
0.437499999999925
40
0.437499999999925
40
0.499999999999933
40
0.499999999999933
40
0.62499999999995
40
0.62499999999995
40
0.687499999999958
40
0.687499999999958
40
0.749999999999966
40
0.749999999999966
40
0.812499999999975
40
0.812499999999975
40
0.874999999999983
40
0.874999999999983
40
0.937499999999992
40
0.937499999999992
40
1
40
1
40
1
40
1
41
1
10
66.7883257909402
20
0.496658142848844
30
0
41
1
10
66.7758167871036
20
0.511221977684727
30
0
41
1
10
66.76131054205
20
0.526924858036296
30
0
41
1
10
66.73726482844
20
0.551735581514436
30
0
41
1
10
66.7288572292426
20
0.56022365469164
30
0
41
1
10
66.7113142572958
20
0.577597393903659
30
0
41
1
10
66.7022980290834
20
0.58636529318585
30
0
41
1
10
66.6745825628394
20
0.612895416409799
30
0
41
1
10
66.655224005076
20
0.630880206857142
30
0
41
1
10
66.6249566654729
20
0.658324267781296
30
0
41
1
10
66.6146606015691
20
0.66755110175805
30
0
41
1
10
66.5936460588086
20
0.686178736872847
30
0
41
1
10
66.583021888322
20
0.695495507364313
30
0
41
1
10
66.5510451340084
20
0.72326635384826
30
0
41
1
10
66.5294928249819
20
0.741628257482944
30
0
41
1
10
66.4968352175509
20
0.768994829963219
30
0
41
1
10
66.4858940367537
20
0.778087445066916
30
0
41
1
10
66.4638972192601
20
0.796219535674766
30
0
41
1
10
66.4528824339567
20
0.805224410589489
30
0
41
1
10
66.4313025033192
20
0.822723580771992
30
0
41
1
10
66.4206744951151
20
0.831269965233361
30
0
41
1
10
66.399804173542
20
0.847904006776588
30
0
41
1
10
66.3894856906726
20
0.856050847214391
30
0
41
1
10
66.3698949665133
20
0.871348994091846
30
0
41
1
10
66.3605834338699
20
0.878533224830392
30
0
41
1
10
66.3430998896954
20
0.891810440828465
30
0
41
1
10
66.3349104780598
20
0.89791433219753
30
0
41
1
10
66.3276770911068
20
0.903153159955025
30
0
0
SPLINE
5
181
100
AcDbEntity
8
1
62
256
6
ByLayer
370
18
48
1
60
0
100
AcDbSpline
70
4
71
3
72
8
73
4
40
0
40
0
40
0
40
0
40
1
40
1
40
1
40
1
41
1
10
66.3276770911068
20
0.903153159955082
30
0
41
1
10
66.3267283453435
20
0.903840295272431
30
0
41
1
10
66.3257796705254
20
0.904528164050276
30
0
41
1
10
66.3248310665454
20
0.905216766679814
30
0
0
SPLINE
5
182
100
AcDbEntity
8
1
62
256
6
ByLayer
370
18
48
1
60
0
100
AcDbSpline
70
4
71
3
72
8
73
4
40
0
40
0
40
0
40
0
40
1
40
1
40
1
40
1
41
1
10
66.3248310665456
20
0.905216766679729
30
0
41
1
10
66.3131211721705
20
0.917285968995031
30
0
41
1
10
66.3014018683159
20
0.929228422825304
30
0
41
1
10
66.2896725671366
20
0.941043027151977
30
0
0
SPLINE
5
183
100
AcDbEntity
8
1
62
256
6
ByLayer
370
18
48
1
60
0
100
AcDbSpline
70
4
71
3
72
27
73
23
40
0
40
0
40
0
40
0
40
0.0624999999999963
40
0.0624999999999963
40
0.124999999999993
40
0.124999999999993
40
0.187499999999989
40
0.187499999999989
40
0.249999999999985
40
0.374999999999979
40
0.374999999999979
40
0.437499999999982
40
0.437499999999982
40
0.499999999999986
40
0.499999999999986
40
0.749999999999966
40
0.749999999999966
40
0.81249999999997
40
0.81249999999997
40
0.874999999999974
40
0.874999999999974
40
1
40
1
40
1
40
1
41
1
10
66.2896725671366
20
0.941043027151977
30
0
41
1
10
66.2737508535656
20
0.9570805338345
30
0
41
1
10
66.2570997199218
20
0.973415345493805
30
0
41
1
10
66.2224448020116
20
1.00660191814072
30
0
41
1
10
66.2044546823548
20
1.02348840162014
30
0
41
1
10
66.1671487680712
20
1.05758731218026
30
0
41
1
10
66.1477639372015
20
1.07462989461581
30
0
41
1
10
66.107474202289
20
1.10854129368923
30
0
41
1
10
66.0448122106107
20
1.15928035298154
30
0
41
1
10
65.9756603753997
20
1.21005921698472
30
0
41
1
10
65.9024094091529
20
1.26146440718944
30
0
41
1
10
65.8773558586265
20
1.27867039206416
30
0
41
1
10
65.8263969006164
20
1.31309194409602
30
0
41
1
10
65.8004426144925
20
1.33034187764963
30
0
41
1
10
65.6684891067807
20
1.41703829242368
30
0
41
1
10
65.5559795249838
20
1.48785044710883
30
0
41
1
10
65.4093577061207
20
1.58192048382617
30
0
41
1
10
65.3797317965208
20
1.60101070488136
30
0
41
1
10
65.3199337838436
20
1.63983117601168
30
0
41
1
10
65.2898021734115
20
1.65953577062265
30
0
41
1
10
65.1991863174513
20
1.7193880508307
30
0
41
1
10
65.1383349223242
20
1.76037299320612
30
0
41
1
10
65.0772370018384
20
1.80269701040132
30
0
0
SPLINE
5
184
100
AcDbEntity
8
1
62
256
6
ByLayer
370
18
48
1
60
0
100
AcDbSpline
70
4
71
3
72
50
73
46
40
0
40
0
40
0
40
0
40
0.0665645997743425
40
0.0665645997743425
40
0.0998468996615125
40
0.0998468996615125
40
0.133129199548682
40
0.133129199548682
40
0.199693799323023
40
0.199693799323023
40
0.266258399097362
40
0.266258399097362
40
0.299540698984534
40
0.299540698984534
40
0.332822998871705
40
0.332822998871705
40
0.399387598646047
40
0.399387598646047
40
0.432669898533219
40
0.432669898533219
40
0.46595219842039
40
0.46595219842039
40
0.499234498307561
40
0.499234498307561
40
0.532516798194732
40
0.532516798194732
40
0.599081397969077
40
0.599081397969077
40
0.665645997743422
40
0.665645997743422
40
0.698928297630595
40
0.698928297630595
40
0.732210597517767
40
0.732210597517767
40
0.798775197292112
40
0.798775197292112
40
0.865339797066457
40
0.865339797066457
40
0.898622096953628
40
0.898622096953628
40
0.931904396840799
40
0.931904396840799
40
0.998468996615142
40
0.998468996615142
40
1
40
1
40
1
40
1
41
1
10
65.0772370018384
20
1.80269701040129
30
0
41
1
10
64.8378697944764
20
1.96851250329885
30
0
41
1
10
64.6001880194985
20
2.12871083407333
30
0
41
1
10
64.2443485816209
20
2.35874482121719
30
0
41
1
10
64.1257818360938
20
2.43364158107892
30
0
41
1
10
63.8888923560399
20
2.58009849782806
30
0
41
1
10
63.7706198486011
20
2.65171145265103
30
0
41
1
10
63.4161998063345
20
2.86156451212872
30
0
41
1
10
63.1803697063716
20
2.99472564999846
30
0
41
1
10
62.707729640015
20
3.24555455091002
30
0
41
1
10
62.4709364729118
20
3.36323466595937
30
0
41
1
10
62.1134761191849
20
3.52662799304869
30
0
41
1
10
61.9938673397145
20
3.57887801638321
30
0
41
1
10
61.7541072132631
20
3.67901148069205
30
0
41
1
10
61.6346665932194
20
3.72659357236731
30
0
41
1
10
61.27741511697
20
3.86180074912366
30
0
41
1
10
61.0406442889
20
3.94185590847914
30
0
41
1
10
60.6861617970108
20
4.0462357847997
30
0
41
1
10
60.5681140636075
20
4.07841395582219
30
0
41
1
10
60.3320165340251
20
4.13746518575184
30
0
41
1
10
60.2139776205064
20
4.16434101439725
30
0
41
1
10
59.9775400804848
20
4.21268125506379
30
0
41
1
10
59.8591918170912
20
4.23417114915313
30
0
41
1
10
59.6224164802228
20
4.27182724227981
30
0
41
1
10
59.5039630808725
20
4.28798187621248
30
0
41
1
10
59.1481912447436
20
4.32826073062716
30
0
41
1
10
58.9104090271859
20
4.34418169076505
30
0
41
1
10
58.4317951783825
20
4.3531718753438
30
0
41
1
10
58.1939690514165
20
4.34617106387483
30
0
41
1
10
57.8378778468829
20
4.31917183087512
30
0
41
1
10
57.7193185873777
20
4.30742612526416
30
0
41
1
10
57.4826229390884
20
4.27845843426954
30
0
41
1
10
57.3644653753165
20
4.2612361817252
30
0
41
1
10
57.0102498385452
20
4.20142973990946
30
0
41
1
10
56.7744559298704
20
4.15069800655769
30
0
41
1
10
56.3017658763945
20
4.02804938058631
30
0
41
1
10
56.0648642151125
20
3.95613287228849
30
0
41
1
10
55.7072562222185
20
3.83294526836522
30
0
41
1
10
55.5877320453584
20
3.78930253178285
30
0
41
1
10
55.3480797551744
20
3.69672434633137
30
0
41
1
10
55.2285919808941
20
3.64806417089835
30
0
41
1
10
54.8712727934612
20
3.49542285241378
30
0
41
1
10
54.6344627238906
20
3.38465959720037
30
0
41
1
10
54.3926973539837
20
3.26305565187028
30
0
41
1
10
54.387261935586
20
3.26031734518352
30
0
41
1
10
54.3818267324417
20
3.25757478427204
30
0
0
SPLINE
5
185
100
AcDbEntity
8
1
62
256
6
ByLayer
370
18
48
1
60
0
100
AcDbSpline
70
4
71
3
72
94
73
90
40
0
40
0
40
0
40
0
40
0.0104453317084614
40
0.0104453317084614
40
0.0654205910579937
40
0.0654205910579937
40
0.0791644058953772
40
0.0791644058953772
40
0.0929082207327608
40
0.0929082207327608
40
0.106652035570144
40
0.106652035570144
40
0.120395850407528
40
0.120395850407528
40
0.147883480082295
40
0.147883480082295
40
0.175371109757062
40
0.175371109757062
40
0.189114924594444
40
0.189114924594444
40
0.202858739431827
40
0.202858739431827
40
0.230346369106592
40
0.230346369106592
40
0.244090183943975
40
0.244090183943975
40
0.257833998781357
40
0.257833998781357
40
0.285321628456121
40
0.285321628456121
40
0.312809258130884
40
0.312809258130884
40
0.340296887805648
40
0.340296887805648
40
0.367784517480412
40
0.367784517480412
40
0.381528332317793
40
0.381528332317793
40
0.395272147155175
40
0.395272147155175
40
0.409015961992557
40
0.409015961992557
40
0.422759776829939
40
0.422759776829939
40
0.450247406504702
40
0.450247406504702
40
0.505222665854229
40
0.505222665854229
40
0.532710295528993
40
0.532710295528993
40
0.560197925203756
40
0.560197925203756
40
0.615173184553283
40
0.615173184553283
40
0.622045091971975
40
0.622045091971975
40
0.628916999390667
40
0.628916999390667
40
0.642660814228051
40
0.642660814228051
40
0.656404629065435
40
0.656404629065435
40
0.670148443902819
40
0.670148443902819
40
0.697636073577585
40
0.697636073577585
40
0.725123703252351
40
0.725123703252351
40
0.780098962601881
40
0.780098962601881
40
0.793842777439264
40
0.793842777439264
40
0.807586592276646
40
0.807586592276646
40
0.83507422195141
40
0.83507422195141
40
0.848818036788792
40
0.848818036788792
40
0.862561851626174
40
0.862561851626174
40
0.890049481300941
40
0.890049481300941
40
0.917537110975707
40
0.917537110975707
40
0.931280925813089
40
0.931280925813089
40
0.945024740650471
40
0.945024740650471
40
1
40
1
40
1
40
1
41
1
10
50.2176868695787
20
4.35000113699817
30
0
41
1
10
50.2696506440949
20
4.34999574199054
30
0
41
1
10
50.3215705301107
20
4.34946171221691
30
0
41
1
10
50.6464563422565
20
4.34283668301225
30
0
41
1
10
50.918247151875
20
4.32279294683445
30
0
41
1
10
51.2567716417453
20
4.27977441303417
30
0
41
1
10
51.324413070995
20
4.27026873018656
30
0
41
1
10
51.4595632739918
20
4.24943862744755
30
0
41
1
10
51.527054276228
20
4.23810780821339
30
0
41
1
10
51.6620658764934
20
4.21366126557277
30
0
41
1
10
51.7295990889076
20
4.20054997469177
30
0
41
1
10
51.8648634264576
20
4.1726091120137
30
0
41
1
10
51.9325889457841
20
4.15777857680357
30
0
41
1
10
52.13605098862
20
4.11072516845178
30
0
41
1
10
52.2720773606889
20
4.0759469149649
30
0
41
1
10
52.5448269917266
20
3.99953994814948
30
0
41
1
10
52.6815205093311
20
3.95789417296834
30
0
41
1
10
52.8870961180054
20
3.89019828139524
30
0
41
1
10
52.9557136297983
20
3.86676289228649
30
0
41
1
10
53.093150636693
20
3.81813890841085
30
0
41
1
10
53.1618307032554
20
3.79299904510421
30
0
41
1
10
53.3672867672632
20
3.71528139191901
30
0
41
1
10
53.5036676198357
20
3.66033277216775
30
0
41
1
10
53.7073635874823
20
3.57321203677768
30
0
41
1
10
53.7751577543621
20
3.54341828181143
30
0
41
1
10
53.910793030387
20
3.48253799462623
30
0
41
1
10
53.9786070483566
20
3.45143130042055
30
0
41
1
10
54.1820520561051
20
3.35614895523443
30
0
41
1
10
54.3176935394653
20
3.2900196386623
30
0
41
1
10
54.5890309617089
20
3.15266032015549
30
0
41
1
10
54.724726645655
20
3.08143149627978
30
0
41
1
10
54.9960682194892
20
2.93378094341656
30
0
41
1
10
55.1316893404461
20
2.85733153144872
30
0
41
1
10
55.4030673780801
20
2.69934772410238
30
0
41
1
10
55.5388459366191
20
2.61783796414323
30
0
41
1
10
55.7426890188285
20
2.49175371678689
30
0
41
1
10
55.8106558938941
20
2.44907625339957
30
0
41
1
10
55.9468309240675
20
2.36263687918898
30
0
41
1
10
56.0150587167703
20
2.31889824821468
30
0
41
1
10
56.1518440112837
20
2.23043897163788
30
0
41
1
10
56.2204039682773
20
2.1856995886283
30
0
41
1
10
56.3577824418573
20
2.09523922518685
30
0
41
1
10
56.4263780297868
20
2.04967021070985
30
0
41
1
10
56.6319121797193
20
1.91199092708325
30
0
41
1
10
56.7686017907517
20
1.81891368549134
30
0
41
1
10
57.1777706977166
20
1.53598390920706
30
0
41
1
10
57.449313966791
20
1.34239969814098
30
0
41
1
10
57.8549685079365
20
1.04481022220674
30
0
41
1
10
57.9899237023931
20
0.944422133477048
30
0
41
1
10
58.2605306668462
20
0.742863145708867
30
0
41
1
10
58.396144333844
20
0.641646626116483
30
0
41
1
10
58.8038919572287
20
0.336675009908561
30
0
41
1
10
59.0768037157764
20
0.131435460312076
30
0
41
1
10
59.3853049600968
20
-0.101388034178427
30
0
41
1
10
59.4196033068993
20
-0.127284420549046
30
0
41
1
10
59.4882391660423
20
-0.179134642250318
30
0
41
1
10
59.5225969716695
20
-0.205103837477111
30
0
41
1
10
59.6255191468198
20
-0.282946982653442
30
0
41
1
10
59.6939524079198
20
-0.334782725680952
30
0
41
1
10
59.8305115943397
20
-0.438258877537862
30
0
41
1
10
59.8986386552646
20
-0.489897702388362
30
0
41
1
10
60.0346539184968
20
-0.592888173102551
30
0
41
1
10
60.1025265656172
20
-0.644260212933347
30
0
41
1
10
60.3062303212497
20
-0.797356175540557
30
0
41
1
10
60.4420800266456
20
-0.898156221874046
30
0
41
1
10
60.71357207205
20
-1.09768964360606
30
0
41
1
10
60.849260522342
20
-1.19636064927011
30
0
41
1
10
61.2562637574678
20
-1.48897806728635
30
0
41
1
10
61.5274794401657
20
-1.67959348170453
30
0
41
1
10
61.8664521859096
20
-1.91202703828427
30
0
41
1
10
61.9342485493292
20
-1.95821558807901
30
0
41
1
10
62.0698579777289
20
-2.04997251928987
30
0
41
1
10
62.1377047954709
20
-2.09549972770762
30
0
41
1
10
62.3417490334105
20
-2.2305756506407
30
0
41
1
10
62.4783308847274
20
-2.31876353934908
30
0
41
1
10
62.6840909139442
20
-2.44817735772767
30
0
41
1
10
62.7528960045196
20
-2.49088162781001
30
0
41
1
10
62.8903689733393
20
-2.5750705029094
30
0
41
1
10
62.9590359626443
20
-2.61655880890649
30
0
41
1
10
63.16484194007
20
-2.73920711882565
30
0
41
1
10
63.3017917411986
20
-2.81854690835831
30
0
41
1
10
63.5751984166408
20
-2.97239099496878
30
0
41
1
10
63.7116548312118
20
-3.04689691856018
30
0
41
1
10
63.9159001605146
20
-3.15505505253984
30
0
41
1
10
63.9838964277404
20
-3.19051740164417
30
0
41
1
10
64.1198499958491
20
-3.26012938107465
30
0
41
1
10
64.1878019443034
20
-3.2942830289177
30
0
41
1
10
64.5280984628684
20
-3.46121670414686
30
0
41
1
10
64.8020538848942
20
-3.58259097736132
30
0
41
1
10
65.0772370018384
20
-3.69219105322478
30
0
0
SPLINE
5
186
100
AcDbEntity
8
1
62
256
6
ByLayer
370
18
48
1
60
0
100
AcDbSpline
70
4
71
3
72
32
73
28
40
0
40
0
40
0
40
0
40
0.125000000000006
40
0.125000000000006
40
0.250000000000011
40
0.250000000000011
40
0.375000000000017
40
0.375000000000017
40
0.500000000000024
40
0.500000000000024
40
0.531250000000021
40
0.531250000000021
40
0.562500000000018
40
0.625000000000011
40
0.625000000000011
40
0.749999999999998
40
0.749999999999998
40
0.812499999999999
40
0.812499999999999
40
0.843749999999999
40
0.843749999999999
40
0.874999999999999
40
0.90625
40
0.90625
40
0.9375
40
0.9375
40
1
40
1
40
1
40
1
41
1
10
65.0772370018384
20
-3.69219105322478
30
0
41
1
10
65.1352815558126
20
-3.71530906856555
30
0
41
1
10
65.1928184336202
20
-3.74084245340245
30
0
41
1
10
65.3066610237655
20
-3.79671284604675
30
0
41
1
10
65.3629676650193
20
-3.8270478688537
30
0
41
1
10
65.474202608697
20
-3.89261662774436
30
0
41
1
10
65.5291317016535
20
-3.92784730015509
30
0
41
1
10
65.6375051563328
20
-4.00350055162571
30
0
41
1
10
65.6909501989577
20
-4.04391753585699
30
0
41
1
10
65.7567738181425
20
-4.0980674310097
30
0
41
1
10
65.7699004345982
20
-4.10908983278784
30
0
41
1
10
65.7959269155996
20
-4.1314032189315
30
0
41
1
10
65.8346675841926
20
-4.16530928165841
30
0
41
1
10
65.8725050752259
20
-4.20054570994094
30
0
41
1
10
65.9469488941356
20
-4.27288266255147
30
0
41
1
10
65.9949430372319
20
-4.32357490417934
30
0
41
1
10
66.0642895460702
20
-4.40393261180219
30
0
41
1
10
66.0869630067792
20
-4.43144227183399
30
0
41
1
10
66.1202672306441
20
-4.4739186151412
30
0
41
1
10
66.1312656688266
20
-4.48830070568999
30
0
41
1
10
66.1528749309203
20
-4.5173016110802
30
0
41
1
10
66.1741245508739
20
-4.54657304034848
30
0
41
1
10
66.1946376141575
20
-4.57640181087157
30
0
41
1
10
66.2147719013153
20
-4.60651898988664
30
0
41
1
10
66.2246550245538
20
-4.62171996986183
30
0
41
1
10
66.253665468112
20
-4.66779047587005
30
0
41
1
10
66.2721342835772
20
-4.69913331017901
30
0
41
1
10
66.2896725671366
20
-4.73114950189248
30
0
0
SPLINE
5
187
100
AcDbEntity
8
1
62
256
6
ByLayer
370
18
48
1
60
0
100
AcDbSpline
70
4
71
3
72
8
73
4
40
0
40
0
40
0
40
0
40
1
40
1
40
1
40
1
41
1
10
66.2896725671366
20
-4.73114950189245
30
0
41
1
10
66.3678355858353
20
-4.87383633798356
30
0
41
1
10
66.4453812414144
20
-5.01674891633186
30
0
41
1
10
66.5224705114778
20
-5.15980560408894
30
0
0
SPLINE
5
188
100
AcDbEntity
8
1
62
256
6
ByLayer
370
18
48
1
60
0
100
AcDbSpline
70
4
71
3
72
8
73
4
40
0
40
0
40
0
40
0
40
1
40
1
40
1
40
1
41
1
10
67.9759070368596
20
-6.05381238860537
30
0
41
1
10
67.9105316568084
20
-6.04734426488605
30
0
41
1
10
67.845154699351
20
-6.03970387388463
30
0
41
1
10
67.7797728158112
20
-6.03089877549553
30
0
0
SPLINE
5
189
100
AcDbEntity
8
1
62
256
6
ByLayer
370
18
48
1
60
0
100
AcDbSpline
70
4
71
3
72
8
73
4
40
0
40
0
40
0
40
0
40
1
40
1
40
1
40
1
41
1
10
78.0123515186022
20
1.14999753182604
30
0
41
1
10
78.0104360577664
20
1.15197553060577
30
0
41
1
10
78.0085207021212
20
1.15395373736814
30
0
41
1
10
78.006605451126
20
1.155932151597
30
0
0
SPLINE
5
18A
100
AcDbEntity
8
1
62
256
6
ByLayer
370
18
48
1
60
0
100
AcDbSpline
70
4
71
3
72
8
73
4
40
0
40
0
40
0
40
0
40
1
40
1
40
1
40
1
41
1
10
77.8154418521879
20
1.35433245213309
30
0
41
1
10
77.8791840330756
20
1.28841347641273
30
0
41
1
10
77.9428993065569
20
1.22227444169201
30
0
41
1
10
78.006605451126
20
1.155932151597
30
0
0
SPLINE
5
18B
100
AcDbEntity
8
1
62
256
6
ByLayer
370
18
48
1
60
0
100
AcDbSpline
70
4
71
3
72
10
73
6
40
0
40
0
40
0
40
0
40
0.5
40
0.5
40
1
40
1
40
1
40
1
41
1
10
77.8154418521886
20
1.35433245213247
30
0
41
1
10
77.7161435731219
20
1.4567632073998
30
0
41
1
10
77.6162482085895
20
1.55070208528522
30
0
41
1
10
77.4147411813819
20
1.72102259973624
30
0
41
1
10
77.3134604559353
20
1.79716207979854
30
0
41
1
10
77.2113312988004
20
1.86390565280931
30
0
0
SPLINE
5
18C
100
AcDbEntity
8
1
62
256
6
ByLayer
370
18
48
1
60
0
100
AcDbSpline
70
4
71
3
72
32
73
28
40
0
40
0
40
0
40
0
40
0.124999999999951
40
0.124999999999951
40
0.187499999999944
40
0.187499999999944
40
0.249999999999938
40
0.249999999999938
40
0.374999999999965
40
0.374999999999965
40
0.4375
40
0.4375
40
0.500000000000035
40
0.500000000000035
40
0.625000000000062
40
0.625000000000062
40
0.687500000000051
40
0.687500000000051
40
0.750000000000041
40
0.750000000000041
40
0.812500000000031
40
0.812500000000031
40
0.87500000000002
40
0.87500000000002
40
0.93750000000001
40
0.93750000000001
40
1
40
1
40
1
40
1
41
1
10
77.2113312988
20
1.86390565280959
30
0
41
1
10
77.1988316221948
20
1.87207445691524
30
0
41
1
10
77.1843370489039
20
1.88205993761852
30
0
41
1
10
77.1603089312052
20
1.89906289694034
30
0
41
1
10
77.151907333579
20
1.90507903980628
30
0
41
1
10
77.1343764391833
20
1.91776071246221
30
0
41
1
10
77.1253660274242
20
1.9243402165884
30
0
41
1
10
77.0976672003468
20
1.94473721336669
30
0
41
1
10
77.0783186457632
20
1.95920383424882
30
0
41
1
10
77.048062751698
20
1.9821873832604
30
0
41
1
10
77.0377699121856
20
1.99006496996364
30
0
41
1
10
77.0167603694599
20
2.00628064309183
30
0
41
1
10
77.0061361301012
20
2.01454779009745
30
0
41
1
10
76.9741597031983
20
2.03965861460432
30
0
41
1
10
76.9526050778206
20
2.05688183298457
30
0
41
1
10
76.9199406016356
20
2.0836203157169
30
0
41
1
10
76.9089965710795
20
2.09268530301313
30
0
41
1
10
76.88699307684
20
2.11117942892505
30
0
41
1
10
76.875970886944
20
2.12057936230073
30
0
41
1
10
76.8543788350001
20
2.1393214248572
30
0
41
1
10
76.8437451307674
20
2.14871649180662
30
0
41
1
10
76.8228644642206
20
2.16757476935095
30
0
41
1
10
76.8125409616633
20
2.17711198952929
30
0
41
1
10
76.7929408986869
20
2.19574253253947
30
0
41
1
10
76.7836255713388
20
2.20486661739039
30
0
41
1
10
76.7661359652523
20
2.22266591920328
30
0
41
1
10
76.7579448374725
20
2.23136667750995
30
0
41
1
10
76.7507112893795
20
2.23950423989439
30
0
0
SPLINE
5
18D
100
AcDbEntity
8
1
62
256
6
ByLayer
370
18
48
1
60
0
100
AcDbSpline
70
4
71
3
72
12
73
8
40
0
40
0
40
0
40
0
40
0.500000000000001
40
0.500000000000001
40
0.750000000000001
40
0.750000000000001
40
1
40
1
40
1
40
1
41
1
10
76.7507112893795
20
2.23950423989439
30
0
41
1
10
76.6528798961346
20
2.3495621333997
30
0
41
1
10
76.5556409478588
20
2.46637475689599
30
0
41
1
10
76.4108472321889
20
2.65089823175327
30
0
41
1
10
76.3627523803919
20
2.71394841575528
30
0
41
1
10
76.2669993511366
20
2.8428207140712
30
0
41
1
10
76.2193203648467
20
2.90866964130726
30
0
41
1
10
76.1718085342928
20
2.97588946317961
30
0
0
SPLINE
5
18E
100
AcDbEntity
8
1
62
256
6
ByLayer
370
18
48
1
60
0
100
AcDbSpline
70
4
71
3
72
8
73
4
40
0
40
0
40
0
40
0
40
1
40
1
40
1
40
1
41
1
10
75.9761248418272
20
3.15513664172207
30
0
41
1
10
76.0413755483386
20
3.09596736761335
30
0
41
1
10
76.1065970812474
20
3.03621276892235
30
0
41
1
10
76.1718085342928
20
2.97588946317961
30
0
0
SPLINE
5
18F
100
AcDbEntity
8
1
62
256
6
ByLayer
370
18
48
1
60
0
100
AcDbSpline
70
4
71
3
72
10
73
6
40
0
40
0
40
0
40
0
40
0.5
40
0.5
40
1
40
1
40
1
40
1
41
1
10
75.9761248418278
20
3.15513664171934
30
0
41
1
10
75.8768219335699
20
3.1929358315659
30
0
41
1
10
75.7769061435468
20
3.22146597245461
30
0
41
1
10
75.5753924554943
20
3.25943116679432
30
0
41
1
10
75.4741382530201
20
3.26881871631244
30
0
41
1
10
75.3720655314196
20
3.2683174912469
30
0
0
SPLINE
5
190
100
AcDbEntity
8
1
62
256
6
ByLayer
370
18
48
1
60
0
100
AcDbSpline
70
4
71
3
72
32
73
28
40
0
40
0
40
0
40
0
40
0.124999999999976
40
0.124999999999976
40
0.187499999999965
40
0.187499999999965
40
0.249999999999954
40
0.249999999999954
40
0.374999999999931
40
0.374999999999931
40
0.43749999999992
40
0.43749999999992
40
0.499999999999909
40
0.499999999999909
40
0.624999999999931
40
0.624999999999931
40
0.687499999999943
40
0.687499999999943
40
0.749999999999954
40
0.749999999999954
40
0.812499999999966
40
0.812499999999966
40
0.874999999999977
40
0.874999999999977
40
0.937499999999989
40
0.937499999999989
40
1
40
1
40
1
40
1
41
1
10
75.3720655314196
20
3.26831749124708
30
0
41
1
10
75.3595615730919
20
3.26825609093135
30
0
41
1
10
75.3450618263398
20
3.27063868019155
30
0
41
1
10
75.3210262623223
20
3.27694898895655
30
0
41
1
10
75.3126219255773
20
3.27952146765449
30
0
41
1
10
75.2950866546226
20
3.28554887825698
30
0
41
1
10
75.2860741753788
20
3.28896277856373
30
0
41
1
10
75.2583697379049
20
3.30030524863898
30
0
41
1
10
75.2390182308651
20
3.30931980161515
30
0
41
1
10
75.2087599380879
20
3.32495919530683
30
0
41
1
10
75.1984666379531
20
3.33052918133186
30
0
41
1
10
75.1774569714872
20
3.34242109714347
30
0
41
1
10
75.1668328163033
20
3.34869225226041
30
0
41
1
10
75.1348574178559
20
3.3683597323637
30
0
41
1
10
75.1133043910661
20
3.38265049553547
30
0
41
1
10
75.0806434477442
20
3.40616525301189
30
0
41
1
10
75.0697007819196
20
3.41435336487729
30
0
41
1
10
75.0477003184803
20
3.4315456591498
30
0
41
1
10
75.0366787653143
20
3.44052704314762
30
0
41
1
10
75.015087716262
20
3.45896745606467
30
0
41
1
10
75.004454278282
20
3.46847456365791
30
0
41
1
10
74.9835734978374
20
3.48816462908033
30
0
41
1
10
74.9732494862729
20
3.49843172816338
30
0
41
1
10
74.9536466201367
20
3.51920788942931
30
0
41
1
10
74.9443294355529
20
3.52974251221093
30
0
41
1
10
74.926835618371
20
3.55115775900421
30
0
41
1
10
74.9186419524265
20
3.56207912898981
30
0
41
1
10
74.9114060264362
20
3.57284478973367
30
0
0
SPLINE
5
191
100
AcDbEntity
8
1
62
256
6
ByLayer
370
18
48
1
60
0
100
AcDbSpline
70
4
71
3
72
12
73
8
40
0
40
0
40
0
40
0
40
0.499999999999991
40
0.499999999999991
40
0.749999999999995
40
0.749999999999995
40
1
40
1
40
1
40
1
41
1
10
74.9114060264362
20
3.57284478973367
30
0
41
1
10
74.8135906587548
20
3.71837517042138
30
0
41
1
10
74.7163665440683
20
3.8686005780682
30
0
41
1
10
74.5715720458793
20
4.09993428780066
30
0
41
1
10
74.5234748368989
20
4.17805206562625
30
0
41
1
10
74.427721115842
20
4.33599487435802
30
0
41
1
10
74.3800436102721
20
4.41585248266784
30
0
41
1
10
74.33253421583
20
4.49656144376601
30
0
0
SPLINE
5
192
100
AcDbEntity
8
1
62
256
6
ByLayer
370
18
48
1
60
0
100
AcDbSpline
70
4
71
3
72
8
73
4
40
0
40
0
40
0
40
0
40
1
40
1
40
1
40
1
41
1
10
74.1364067841859
20
4.63393575854764
30
0
41
1
10
74.2018067550389
20
4.58902397408238
30
0
41
1
10
74.2671761267938
20
4.54322801261392
30
0
41
1
10
74.33253421583
20
4.49656144376601
30
0
0
SPLINE
5
193
100
AcDbEntity
8
1
62
256
6
ByLayer
370
18
48
1
60
0
100
AcDbSpline
70
4
71
3
72
10
73
6
40
0
40
0
40
0
40
0
40
0.5
40
0.5
40
1
40
1
40
1
40
1
41
1
10
74.136406784187
20
4.63393575853962
30
0
41
1
10
74.0371791101869
20
4.60311072224948
30
0
41
1
10
73.9373471176175
20
4.56312216996142
30
0
41
1
10
73.7359695152793
20
4.46453132460408
30
0
41
1
10
73.6347558882399
20
4.40610619216972
30
0
41
1
10
73.5326956207607
20
4.33837312579635
30
0
0
SPLINE
5
194
100
AcDbEntity
8
1
62
256
6
ByLayer
370
18
48
1
60
0
100
AcDbSpline
70
4
71
3
72
32
73
28
40
0
40
0
40
0
40
0
40
0.124999999999977
40
0.124999999999977
40
0.187499999999965
40
0.187499999999965
40
0.249999999999953
40
0.249999999999953
40
0.374999999999969
40
0.374999999999969
40
0.437499999999977
40
0.437499999999977
40
0.499999999999984
40
0.499999999999984
40
0.624999999999954
40
0.624999999999954
40
0.687499999999961
40
0.687499999999961
40
0.749999999999969
40
0.749999999999969
40
0.812499999999977
40
0.812499999999977
40
0.874999999999985
40
0.874999999999985
40
0.937499999999992
40
0.937499999999992
40
1
40
1
40
1
40
1
41
1
10
73.5326956207607
20
4.33837312579635
30
0
41
1
10
73.5201871388633
20
4.33007177743124
30
0
41
1
10
73.5056811649192
20
4.32459393042106
30
0
41
1
10
73.4816346845673
20
4.31954942075188
30
0
41
1
10
73.4732263579741
20
4.31841015207127
30
0
41
1
10
73.4556827445515
20
4.31715905921089
30
0
41
1
10
73.4466661094731
20
4.31705514364032
30
0
41
1
10
73.4189494908447
20
4.31817617348656
30
0
41
1
10
73.3995902388002
20
4.32081518120089
30
0
41
1
10
73.369321836648
20
4.32751277955393
30
0
41
1
10
73.3590254188035
20
4.33020681583525
30
0
41
1
10
73.3380102026447
20
4.33656275401063
30
0
41
1
10
73.3273864399912
20
4.34019807376544
30
0
41
1
10
73.2954098982263
20
4.35241745568518
30
0
41
1
10
73.2738576829706
20
4.36232005959033
30
0
41
1
10
73.2412004911026
20
4.38021620009144
30
0
41
1
10
73.2302594945511
20
4.38669356478997
30
0
41
1
10
73.2082632003657
20
4.40083308192442
30
0
41
1
10
73.1972497000454
20
4.40847647436942
30
0
41
1
10
73.1756713225797
20
4.42472859263486
30
0
41
1
10
73.1650439099826
20
4.43337477040356
30
0
41
1
10
73.1441742289064
20
4.45188101673128
30
0
41
1
10
73.1338559785313
20
4.46182608472481
30
0
41
1
10
73.1142647955852
20
4.48261560385248
30
0
41
1
10
73.1049522134929
20
4.49347969781277
30
0
41
1
10
73.0874650722018
20
4.51631350141958
30
0
41
1
10
73.0792737745647
20
4.52833439702889
30
0
41
1
10
73.0720387227524
20
4.54062407821462
30
0
0
SPLINE
5
195
100
AcDbEntity
8
1
62
256
6
ByLayer
370
18
48
1
60
0
100
AcDbSpline
70
4
71
3
72
12
73
8
40
0
40
0
40
0
40
0
40
0.49999999999999
40
0.49999999999999
40
0.749999999999995
40
0.749999999999995
40
1
40
1
40
1
40
1
41
1
10
73.0720387227524
20
4.54062407821462
30
0
41
1
10
72.9741678275305
20
4.70687058630492
30
0
41
1
10
72.8768963926976
20
4.87527561889448
30
0
41
1
10
72.7320364663125
20
5.13008159516357
30
0
41
1
10
72.6839183105849
20
5.21539119167829
30
0
41
1
10
72.588118934261
20
5.38644275776761
30
0
41
1
10
72.5404172862942
20
5.47222071092443
30
0
41
1
10
72.4928854482078
20
5.55823342820088
30
0
0
SPLINE
5
196
100
AcDbEntity
8
1
62
256
6
ByLayer
370
18
48
1
60
0
100
AcDbSpline
70
4
71
3
72
8
73
4
40
0
40
0
40
0
40
0
40
1
40
1
40
1
40
1
41
1
10
72.2973868594583
20
5.6390749796295
30
0
41
1
10
72.3625813162671
20
5.6132089828792
30
0
41
1
10
72.4277405631156
20
5.58625873127957
30
0
41
1
10
72.4928854482078
20
5.55823342820085
30
0
0
SPLINE
5
197
100
AcDbEntity
8
1
62
256
6
ByLayer
370
18
48
1
60
0
100
AcDbSpline
70
4
71
3
72
10
73
6
40
0
40
0
40
0
40
0
40
0.5
40
0.5
40
1
40
1
40
1
40
1
41
1
10
72.2973868594583
20
5.63907497962956
30
0
41
1
10
72.1981638729862
20
5.54298239404713
30
0
41
1
10
72.0983067862079
20
5.43881352611427
30
0
41
1
10
71.8968156645277
20
5.21422360923484
30
0
41
1
10
71.7955097618475
20
5.09417814350155
30
0
41
1
10
71.6933540344807
20
4.96627352014525
30
0
0
SPLINE
5
198
100
AcDbEntity
8
1
62
256
6
ByLayer
370
18
48
1
60
0
100
AcDbSpline
70
4
71
3
72
32
73
28
40
0
40
0
40
0
40
0
40
0.124999999999999
40
0.124999999999999
40
0.187499999999998
40
0.187499999999998
40
0.249999999999998
40
0.249999999999998
40
0.374999999999998
40
0.374999999999998
40
0.437499999999998
40
0.437499999999998
40
0.499999999999998
40
0.499999999999998
40
0.624999999999999
40
0.624999999999999
40
0.687499999999999
40
0.687499999999999
40
0.749999999999999
40
0.749999999999999
40
0.812499999999999
40
0.812499999999999
40
0.875
40
0.875
40
0.9375
40
0.9375
40
1
40
1
40
1
40
1
41
1
10
71.6933540344806
20
4.96627352014528
30
0
41
1
10
71.6808371682885
20
4.95060171106351
30
0
41
1
10
71.666320527671
20
4.93784595345215
30
0
41
1
10
71.6422566650702
20
4.92199618788248
30
0
41
1
10
71.6338425442513
20
4.91727309552576
30
0
41
1
10
71.6162859500215
20
4.90889379079883
30
0
41
1
10
71.6072629996652
20
4.90529389319451
30
0
41
1
10
71.5795282966724
20
4.89611206415569
30
0
41
1
10
71.5601581295566
20
4.8921272595941
30
0
41
1
10
71.5298763513823
20
4.88922826056614
30
0
41
1
10
71.5195759749009
20
4.8887805066957
30
0
41
1
10
71.4985540884091
20
4.88896882043116
30
0
41
1
10
71.4879296499467
20
4.88960665727188
30
0
41
1
10
71.4559503447744
20
4.89315439019057
30
0
41
1
10
71.4343987784747
20
4.89767052602755
30
0
41
1
10
71.4017467531955
20
4.90813406485628
30
0
41
1
10
71.3908081758428
20
4.91224276076528
30
0
41
1
10
71.3688182161575
20
4.92189045855807
30
0
41
1
10
71.357813211827
20
4.92741885872707
30
0
41
1
10
71.3362494364823
20
4.9398257807398
30
0
41
1
10
71.3256294093484
20
4.94672789611397
30
0
41
1
10
71.304774498886
20
4.96215671577465
30
0
41
1
10
71.2944641437899
20
4.97076082559394
30
0
41
1
10
71.2748891646829
20
4.98943121465891
30
0
41
1
10
71.2655840541385
20
4.99950854193617
30
0
41
1
10
71.2481103274637
20
5.02141066731505
30
0
41
1
10
71.2399247591784
20
5.03329243299476
30
0
41
1
10
71.2326937297999
20
5.0458383848858
30
0
0
SPLINE
5
199
100
AcDbEntity
8
1
62
256
6
ByLayer
370
18
48
1
60
0
100
AcDbSpline
70
4
71
3
72
8
73
4
40
0
40
0
40
0
40
0
40
1
40
1
40
1
40
1
41
1
10
70.4581986625412
20
6.06848952269195
30
0
41
1
10
70.5234349772844
20
6.06417290304404
30
0
41
1
10
70.5886399026719
20
6.05867850754271
30
0
41
1
10
70.6538348454172
20
6.05201001732684
30
0
0
SPLINE
5
19A
100
AcDbEntity
8
1
62
256
6
ByLayer
370
18
48
1
60
0
100
AcDbSpline
70
4
71
3
72
57
73
53
40
0
40
0
40
0
40
0
40
0.0260191540995991
40
0.0260191540995991
40
0.043411669204963
40
0.043411669204963
40
0.0608041843103266
40
0.0608041843103266
40
0.0955892145210564
40
0.0955892145210564
40
0.130374244731786
40
0.130374244731786
40
0.165159274942516
40
0.165159274942516
40
0.234729335363976
40
0.234729335363976
40
0.269514365574704
40
0.269514365574704
40
0.304299395785433
40
0.304299395785433
40
0.339084425996161
40
0.339084425996161
40
0.356476941101526
40
0.356476941101526
40
0.37386945620689
40
0.443439516628352
40
0.443439516628352
40
0.478224546839083
40
0.478224546839083
40
0.513009577049814
40
0.513009577049814
40
0.582579637471274
40
0.582579637471274
40
0.652149697892733
40
0.652149697892733
40
0.669542212998098
40
0.669542212998098
40
0.686934728103462
40
0.686934728103462
40
0.721719758314188
40
0.721719758314188
40
0.860859879157094
40
0.860859879157094
40
0.895644909367821
40
0.895644909367821
40
0.930429939578547
40
0.930429939578547
40
0.965214969789273
40
0.965214969789273
40
0.982607484894637
40
0.982607484894637
40
1
40
1
40
1
40
1
41
1
10
52.5330802339643
20
-4.34999964961071
30
0
41
1
10
52.4439783954771
20
-4.35000129576434
30
0
41
1
10
52.3547085914436
20
-4.34841655679426
30
0
41
1
10
52.2054093013332
20
-4.34309216887448
30
0
41
1
10
52.1456097774641
20
-4.34024464179197
30
0
41
1
10
52.0262283681104
20
-4.33314671441357
30
0
41
1
10
51.966611462328
20
-4.32889511451009
30
0
41
1
10
51.7879237972997
20
-4.3140626163686
30
0
41
1
10
51.66898616208
20
-4.30141053636686
30
0
41
1
10
51.4313992101242
20
-4.27070810626711
30
0
41
1
10
51.3128177037486
20
-4.25264348119057
30
0
41
1
10
51.0761133201152
20
-4.21109949822932
30
0
41
1
10
50.9579569600059
20
-4.18762710700767
30
0
41
1
10
50.6037395220456
20
-4.10922433195617
30
0
41
1
10
50.3679531341402
20
-4.04629653875094
30
0
41
1
10
50.0135195551583
20
-3.93641201443415
30
0
41
1
10
49.8952431802932
20
-3.89720482453555
30
0
41
1
10
49.6581299358146
20
-3.81378493774949
30
0
41
1
10
49.5392447523729
20
-3.76960675163306
30
0
41
1
10
49.3008418009016
20
-3.67626958735957
30
0
41
1
10
49.1813981337714
20
-3.62705610347328
30
0
41
1
10
49.0017530088866
20
-3.54941836701607
30
0
41
1
10
48.9418789715729
20
-3.52294082421307
30
0
41
1
10
48.8224208284406
20
-3.46893811210933
30
0
41
1
10
48.5242745332699
20
-3.33121915451937
30
0
41
1
10
48.228264329024
20
-3.18029153246911
30
0
41
1
10
47.8736425081284
20
-2.98803837868849
30
0
41
1
10
47.7555345171244
20
-2.92209750710327
30
0
41
1
10
47.5192644292428
20
-2.78678312282273
30
0
41
1
10
47.4010062299252
20
-2.71751145813448
30
0
41
1
10
47.0463746672245
20
-2.5043466660064
30
0
41
1
10
46.8101143443367
20
-2.35511413239857
30
0
41
1
10
46.336173781701
20
-2.04405260007533
30
0
41
1
10
46.0985124742081
20
-1.88219931170843
30
0
41
1
10
45.7993681978377
20
-1.67319453151779
30
0
41
1
10
45.7394960048976
20
-1.63110158105439
30
0
41
1
10
45.620003818981
20
-1.5466315193969
30
0
41
1
10
45.5603314645636
20
-1.50421489511311
30
0
41
1
10
45.3814650307787
20
-1.37651406910243
30
0
41
1
10
45.2623748375129
20
-1.29084021933812
30
0
41
1
10
44.6685932615515
20
-0.85863174154585
30
0
41
1
10
44.1982982822331
20
-0.501345051513454
30
0
41
1
10
43.6072402925708
20
-0.0523713111074358
30
0
41
1
10
43.4888868355058
20
0.0375646063678801
30
0
41
1
10
43.2515721468939
20
0.217284501436325
30
0
41
1
10
43.1325977568144
20
0.307049651763435
30
0
41
1
10
42.8943261046064
20
0.486819882639679
30
0
41
1
10
42.7749768758214
20
0.576755251303155
30
0
41
1
10
42.5954533094169
20
0.711499631010554
30
0
41
1
10
42.5355682860758
20
0.756358914511083
30
0
41
1
10
42.4161061382018
20
0.845616600254829
30
0
41
1
10
42.3564698734217
20
0.890059428185651
30
0
41
1
10
42.2969156834413
20
0.93430130199863
30
0
0
SPLINE
5
19B
100
AcDbEntity
8
1
62
256
6
ByLayer
370
18
48
1
60
0
100
AcDbSpline
70
4
71
3
72
37
73
33
40
0
40
0
40
0
40
0
40
0.0654181883440453
40
0.0654181883440453
40
0.118243603908078
40
0.118243603908078
40
0.17106901947211
40
0.17106901947211
40
0.223894435036142
40
0.223894435036142
40
0.276719850600175
40
0.276719850600175
40
0.382370681728241
40
0.382370681728241
40
0.435196097292273
40
0.435196097292273
40
0.488021512856305
40
0.488021512856305
40
0.593672343984369
40
0.593672343984369
40
0.646497759548401
40
0.646497759548401
40
0.699323175112433
40
0.699323175112433
40
0.752148590676465
40
0.752148590676465
40
0.804974006240497
40
0.857799421804529
40
0.857799421804529
40
0.910624837368561
40
0.910624837368561
40
1
40
1
40
1
40
1
41
1
10
42.2970619095296
20
0.934289391258147
30
0
41
1
10
42.2431022593406
20
0.959727656284457
30
0
41
1
10
42.1827567849039
20
0.976352464240961
30
0
41
1
10
42.0615030657496
20
0.989592810662089
30
0
41
1
10
42.002820877598
20
0.989190427873496
30
0
41
1
10
41.8794501926686
20
0.975216617480129
30
0
41
1
10
41.8143631003018
20
0.961697189717995
30
0
41
1
10
41.6767698017974
20
0.920411099823241
30
0
41
1
10
41.603657505902
20
0.892406777702746
30
0
41
1
10
41.4516193908939
20
0.820820882283499
30
0
41
1
10
41.3734068129113
20
0.776989444254269
30
0
41
1
10
41.135300678013
20
0.632784645931025
30
0
41
1
10
40.9692464319444
20
0.515297270383655
30
0
41
1
10
40.7226326274672
20
0.314665950580746
30
0
41
1
10
40.6405611981887
20
0.243606766808682
30
0
41
1
10
40.4767023597497
20
0.0925691659102483
30
0
41
1
10
40.394321966888
20
0.0119239780914029
30
0
41
1
10
40.1548832595434
20
-0.237128219127669
30
0
41
1
10
40.0037948658952
20
-0.413704638439697
30
0
41
1
10
39.7904933479944
20
-0.695029891442658
30
0
41
1
10
39.7227211486082
20
-0.790207561327151
30
0
41
1
10
39.5954390316963
20
-0.980305443765872
30
0
41
1
10
39.5355721190342
20
-1.07569264409389
30
0
41
1
10
39.4230378808761
20
-1.26711231021423
30
0
41
1
10
39.3702432437717
20
-1.36350132305833
30
0
41
1
10
39.2740063493776
20
-1.55188016292055
30
0
41
1
10
39.1863296666409
20
-1.73711400716306
30
0
41
1
10
39.1136866904577
20
-1.91682451353117
30
0
41
1
10
39.0476980096227
20
-2.09409025211085
30
0
41
1
10
39.0188362557627
20
-2.18173692152771
30
0
41
1
10
38.9598225771041
20
-2.40363939530161
30
0
41
1
10
38.9393101838436
20
-2.5312482956152
30
0
41
1
10
38.9323639314668
20
-2.6491521687833
30
0
0
SPLINE
5
19C
100
AcDbEntity
8
1
62
256
6
ByLayer
370
18
48
1
60
0
100
AcDbSpline
70
4
71
3
72
60
73
56
40
0
40
0
40
0
40
0
40
0.021639401390895
40
0.021639401390895
40
0.0432788027817901
40
0.0432788027817901
40
0.0865576055635801
40
0.0865576055635801
40
0.108197006954475
40
0.108197006954475
40
0.12983640834537
40
0.12983640834537
40
0.173115211127163
40
0.173115211127163
40
0.216394013908956
40
0.216394013908956
40
0.259672816690749
40
0.259672816690749
40
0.346230422254334
40
0.346230422254334
40
0.43278802781792
40
0.43278802781792
40
0.454427429208817
40
0.454427429208817
40
0.476066830599714
40
0.476066830599714
40
0.519345633381508
40
0.519345633381508
40
0.6059032389451
40
0.6059032389451
40
0.649182041726895
40
0.649182041726895
40
0.670821443117792
40
0.670821443117792
40
0.692460844508688
40
0.692460844508688
40
0.735739647290481
40
0.735739647290481
40
0.779018450072274
40
0.779018450072274
40
0.80065785146317
40
0.80065785146317
40
0.822297252854066
40
0.822297252854066
40
0.865576055635859
40
0.865576055635859
40
0.887215457026756
40
0.887215457026756
40
0.908854858417652
40
0.908854858417652
40
0.952133661199442
40
0.952133661199442
40
0.995412463981232
40
0.995412463981232
40
1
40
1
40
1
40
1
41
1
10
38.9324089914502
20
-2.64914428667836
30
0
41
1
10
39.0007663238728
20
-2.6904193252908
30
0
41
1
10
39.0690016841776
20
-2.73120050148708
30
0
41
1
10
39.2053696519452
20
-2.8116194705899
30
0
41
1
10
39.2735662166084
20
-2.8511916210644
30
0
41
1
10
39.4785072089073
20
-2.96770288716121
30
0
41
1
10
39.6154786956779
20
-3.04256916195897
30
0
41
1
10
39.8212579725381
20
-3.1508932394793
30
0
41
1
10
39.8899116573039
20
-3.18633103435002
30
0
41
1
10
40.0273408504502
20
-3.25586526383185
30
0
41
1
10
40.0961568409743
20
-3.28998138655024
30
0
41
1
10
40.3025010454931
20
-3.39018702962986
30
0
41
1
10
40.4395545321707
20
-3.45395414072601
30
0
41
1
10
40.7127233491717
20
-3.57543630976844
30
0
41
1
10
40.8488320632544
20
-3.6331569874271
30
0
41
1
10
41.1201404574129
20
-3.74252171881565
30
0
41
1
10
41.2552674406243
20
-3.79419709427083
30
0
41
1
10
41.6612651051762
20
-3.93880635669962
30
0
41
1
10
41.9323645122999
20
-4.0216960324658
30
0
41
1
10
42.4756275121689
20
-4.16073653749939
30
0
41
1
10
42.7477554401844
20
-4.21689361560328
30
0
41
1
10
43.0889722828963
20
-4.26958579473049
30
0
41
1
10
43.1572588705681
20
-4.27924858690642
30
0
41
1
10
43.2939392399387
20
-4.29678523371945
30
0
41
1
10
43.3624340652481
20
-4.30466031179427
30
0
41
1
10
43.5677420486042
20
-4.32540074968057
30
0
41
1
10
43.7044474726015
20
-4.33541659644061
30
0
41
1
10
44.1137294393569
20
-4.35444813725644
30
0
41
1
10
44.38571659086
20
-4.35244814145844
30
0
41
1
10
44.7928313699836
20
-4.32796669325924
30
0
41
1
10
44.928379048331
20
-4.31621622347032
30
0
41
1
10
45.131412644587
20
-4.29314599236713
30
0
41
1
10
45.1990434325946
20
-4.28454746417978
30
0
41
1
10
45.3342251037931
20
-4.2655179644978
30
0
41
1
10
45.4017506010481
20
-4.2550785068432
30
0
41
1
10
45.6045692729307
20
-4.2210881888968
30
0
41
1
10
45.740250706121
20
-4.19492407907995
30
0
41
1
10
46.0123665155914
20
-4.13557601543403
30
0
41
1
10
46.1488375906961
20
-4.10240230195171
30
0
41
1
10
46.3542264809817
20
-4.04737965354911
30
0
41
1
10
46.4228024321811
20
-4.02816084333423
30
0
41
1
10
46.5601821388985
20
-3.98795193630906
30
0
41
1
10
46.6290357007981
20
-3.96694370634273
30
0
41
1
10
46.8349751502361
20
-3.90154106095238
30
0
41
1
10
46.9717358591429
20
-3.85469773731907
30
0
41
1
10
47.1761593731486
20
-3.77965917230472
30
0
41
1
10
47.2441814073636
20
-3.75385073187076
30
0
41
1
10
47.379973217086
20
-3.70063207435456
30
0
41
1
10
47.4477136422297
20
-3.67320001832965
30
0
41
1
10
47.6507696309763
20
-3.58864778261042
30
0
41
1
10
47.7862706347898
20
-3.52954003646928
30
0
41
1
10
48.0573203274421
20
-3.40581495006847
30
0
41
1
10
48.1929022030898
20
-3.34122077688139
30
0
41
1
10
48.3429596851796
20
-3.266819620571
30
0
41
1
10
48.3573423291822
20
-3.25965891381992
30
0
41
1
10
48.3717260063342
20
-3.25246811140892
30
0
0
SPLINE
5
19D
100
AcDbEntity
8
1
62
256
6
ByLayer
370
18
48
1
60
0
100
AcDbSpline
70
4
71
3
72
22
73
18
40
0
40
0
40
0
40
0
40
0.126764637401011
40
0.126764637401011
40
0.199534250950929
40
0.199534250950929
40
0.272303864500846
40
0.272303864500846
40
0.417843091600683
40
0.417843091600683
40
0.563382318700519
40
0.563382318700519
40
0.636151932250433
40
0.636151932250433
40
0.708921545800346
40
0.708921545800346
40
1
40
1
40
1
40
1
41
1
10
62.2583906968332
20
4.35000011952431
30
0
41
1
10
62.3769970494439
20
4.34999389240267
30
0
41
1
10
62.4960262749528
20
4.34719000363376
30
0
41
1
10
62.6840909139442
20
4.33836320579402
30
0
41
1
10
62.7528960045196
20
4.33421358968397
30
0
41
1
10
62.8903689733393
20
4.32408669215164
30
0
41
1
10
62.9590359626444
20
4.31811161588249
30
0
41
1
10
63.1648419400701
20
4.29747531810665
30
0
41
1
10
63.3017917411987
20
4.28010748654239
30
0
41
1
10
63.5751984166409
20
4.23819692864473
30
0
41
1
10
63.7116548312118
20
4.2136556213249
30
0
41
1
10
63.9159001605146
20
4.17138604425506
30
0
41
1
10
63.9838964277404
20
4.15637994393032
30
0
41
1
10
64.1198499958491
20
4.12457071449003
30
0
41
1
10
64.1878019443035
20
4.1077643870079
30
0
41
1
10
64.5280984628683
20
4.01951770483663
30
0
41
1
10
64.8020538848942
20
3.93556249655936
30
0
41
1
10
65.0772370018384
20
3.83799635744336
30
0
0
SPLINE
5
19E
100
AcDbEntity
8
1
62
256
6
ByLayer
370
18
48
1
60
0
100
AcDbSpline
70
4
71
3
72
30
73
26
40
0
40
0
40
0
40
0
40
0.125000000000012
40
0.125000000000012
40
0.250000000000024
40
0.250000000000024
40
0.375000000000036
40
0.375000000000036
40
0.500000000000048
40
0.500000000000048
40
0.562500000000054
40
0.562500000000054
40
0.62500000000006
40
0.62500000000006
40
0.750000000000056
40
0.750000000000056
40
0.812500000000054
40
0.812500000000054
40
0.843750000000045
40
0.843750000000045
40
0.875000000000036
40
0.875000000000036
40
0.937500000000018
40
0.937500000000018
40
1
40
1
40
1
40
1
41
1
10
65.0772370018384
20
3.83799635744339
30
0
41
1
10
65.1331439959307
20
3.81817453979795
30
0
41
1
10
65.1885802360741
20
3.80082876469399
30
0
41
1
10
65.2983170805142
20
3.77075054354228
30
0
41
1
10
65.3526184596617
20
3.75801697905049
30
0
41
1
10
65.4599513456052
20
3.73706545153249
30
0
41
1
10
65.5129835153075
20
3.72884502244131
30
0
41
1
10
65.6176803549053
20
3.7171147481364
30
0
41
1
10
65.6693455978023
20
3.71359964951722
30
0
41
1
10
65.745758237327
20
3.71230722166956
30
0
41
1
10
65.771102641075
20
3.71254763790361
30
0
41
1
10
65.8209795052204
20
3.71446813453684
30
0
41
1
10
65.8455475140606
20
3.7161444527261
30
0
41
1
10
65.9181198287091
20
3.7234788554016
30
0
41
1
10
65.9649966349656
20
3.73141296785317
30
0
41
1
10
66.0329084585586
20
3.74893727100809
30
0
41
1
10
66.0551440861705
20
3.75572208409005
30
0
41
1
10
66.0878634686642
20
3.76752195021916
30
0
41
1
10
66.0986641139171
20
3.77172625266115
30
0
41
1
10
66.120046698396
20
3.78071990212024
30
0
41
1
10
66.130643101763
20
3.78551711509371
30
0
41
1
10
66.1618956659183
20
3.80076115926889
30
0
41
1
10
66.1820646546716
20
3.81207431395978
30
0
41
1
10
66.2210030319236
20
3.83729823784535
30
0
41
1
10
66.2397848124512
20
3.85127807317682
30
0
41
1
10
66.2577135365096
20
3.86625239364773
30
0
0
SPLINE
5
19F
100
AcDbEntity
8
1
62
256
6
ByLayer
370
18
48
1
60
0
100
AcDbSpline
70
4
71
3
72
29
73
25
40
0
40
0
40
0
40
0
40
0.125000000000078
40
0.125000000000078
40
0.187500000000083
40
0.187500000000083
40
0.250000000000089
40
0.250000000000089
40
0.375000000000098
40
0.375000000000098
40
0.500000000000108
40
0.500000000000108
40
0.562500000000079
40
0.562500000000079
40
0.625000000000051
40
0.625000000000051
40
0.749999999999993
40
0.749999999999993
40
0.812499999999995
40
0.812499999999995
40
0.874999999999996
40
0.937499999999998
40
0.937499999999998
40
1
40
1
40
1
40
1
41
1
10
66.2577135365096
20
3.86625239364773
30
0
41
1
10
66.271142305569
20
3.85439991705607
30
0
41
1
10
66.2849097530713
20
3.84327476538849
30
0
41
1
10
66.3060570214115
20
3.8276742085848
30
0
41
1
10
66.3132039782305
20
3.82264734960006
30
0
41
1
10
66.3274973834756
20
3.81307586934258
30
0
41
1
10
66.3346614625559
20
3.80851726173199
30
0
41
1
10
66.3562014526512
20
3.79551721998408
30
0
41
1
10
66.3706248968406
20
3.78774703609272
30
0
41
1
10
66.3995813380076
20
3.77407432764591
30
0
41
1
10
66.4141143963659
20
3.76816968646233
30
0
41
1
10
66.4359861027517
20
3.76089348098901
30
0
41
1
10
66.4432890491574
20
3.75873582108912
30
0
41
1
10
66.457701389591
20
3.75504965813189
30
0
41
1
10
66.4648371012173
20
3.75351164825293
30
0
41
1
10
66.4860151243576
20
3.74986629049653
30
0
41
1
10
66.4998318228782
20
3.74871261434623
30
0
41
1
10
66.5199854362997
20
3.74931731071925
30
0
41
1
10
66.5265993917204
20
3.74991679147186
30
0
41
1
10
66.5393446366907
20
3.75196121084269
30
0
41
1
10
66.5516727204578
20
3.75485020887123
30
0
41
1
10
66.5630823886989
20
3.75959563454146
30
0
41
1
10
66.5739688222573
20
3.7654006281623
30
0
41
1
10
66.5791423124148
20
3.76883716560684
30
0
41
1
10
66.5839176153719
20
3.77281285371302
30
0
0
SPLINE
5
1A0
100
AcDbEntity
8
1
62
256
6
ByLayer
370
18
48
1
60
0
100
AcDbSpline
70
4
71
3
72
12
73
8
40
0
40
0
40
0
40
0
40
0.500000000000001
40
0.500000000000001
40
0.750000000000001
40
0.750000000000001
40
1
40
1
40
1
40
1
41
1
10
66.5839176153719
20
3.77281285371373
30
0
41
1
10
66.6826998343196
20
3.85505418928898
30
0
41
1
10
66.7805813347489
20
3.92992250536102
30
0
41
1
10
66.9264369343147
20
4.03145170105756
30
0
41
1
10
66.9748518904792
20
4.06346871910188
30
0
41
1
10
67.0712342484043
20
4.12384005934356
30
0
41
1
10
67.1192182178692
20
4.15220594863243
30
0
41
1
10
67.1670261006231
20
4.17877241124205
30
0
0
SPLINE
5
1A1
100
AcDbEntity
8
1
62
256
6
ByLayer
370
18
48
1
60
0
100
AcDbSpline
70
4
71
3
72
8
73
4
40
0
40
0
40
0
40
0
40
1
40
1
40
1
40
1
41
1
10
67.3630103796937
20
4.02593420653506
30
0
41
1
10
67.2976721285142
20
4.07767061505271
30
0
41
1
10
67.2323472012802
20
4.12861895472821
30
0
41
1
10
67.1670261006228
20
4.17877241124253
30
0
0
SPLINE
5
1A2
100
AcDbEntity
8
1
62
256
6
ByLayer
370
18
48
1
60
0
100
AcDbSpline
70
4
71
3
72
10
73
6
40
0
40
0
40
0
40
0
40
0.5
40
0.5
40
1
40
1
40
1
40
1
41
1
10
67.363010379693
20
4.02593420652684
30
0
41
1
10
67.4612718129237
20
3.82450345753722
30
0
41
1
10
67.5602416161503
20
3.62532299750495
30
0
41
1
10
67.7601609423808
20
3.23190157743159
30
0
41
1
10
67.8608007523457
20
3.03827335308404
30
0
41
1
10
67.9624233263306
20
2.84790807950961
30
0
0
SPLINE
5
1A3
100
AcDbEntity
8
1
62
256
6
ByLayer
370
18
48
1
60
0
100
AcDbSpline
70
4
71
3
72
32
73
28
40
0
40
0
40
0
40
0
40
0.124999999999983
40
0.124999999999983
40
0.187499999999992
40
0.187499999999992
40
0.250000000000001
40
0.250000000000001
40
0.37500000000002
40
0.37500000000002
40
0.43750000000005
40
0.43750000000005
40
0.50000000000008
40
0.50000000000008
40
0.625000000000096
40
0.625000000000096
40
0.68750000000008
40
0.68750000000008
40
0.750000000000064
40
0.750000000000064
40
0.812500000000048
40
0.812500000000048
40
0.875000000000032
40
0.875000000000032
40
0.937500000000016
40
0.937500000000016
40
1
40
1
40
1
40
1
41
1
10
67.9624233263307
20
2.84790807950964
30
0
41
1
10
67.9753564323736
20
2.82368103847455
30
0
41
1
10
67.9904026897703
20
2.80022566093109
30
0
41
1
10
68.0153093035294
20
2.76590721813883
30
0
41
1
10
68.0240115363299
20
2.75461537906574
30
0
41
1
10
68.0421647273155
20
2.73230750728297
30
0
41
1
10
68.0514775550159
20
2.72146115322275
30
0
41
1
10
68.0800165731318
20
2.68978195425609
30
0
41
1
10
68.0998505296083
20
2.66978164256099
30
0
41
1
10
68.1306863711036
20
2.64130582631827
30
0
41
1
10
68.1411756111608
20
2.63204747381562
30
0
41
1
10
68.1623970319065
20
2.61415392456726
30
0
41
1
10
68.1730458049604
20
2.60558670930411
30
0
41
1
10
68.2050897391928
20
2.58099703776773
30
0
41
1
10
68.2265813597557
20
2.56606891595908
30
0
41
1
10
68.2589674514298
20
2.54605766854215
30
0
41
1
10
68.2698355916768
20
2.53976298983753
30
0
41
1
10
68.2913902168989
20
2.52819422364831
30
0
41
1
10
68.3020159340512
20
2.52294849604229
30
0
41
1
10
68.3229292082073
20
2.51361913566333
30
0
41
1
10
68.3332171557127
20
2.50953420073628
30
0
41
1
10
68.3533970891787
20
2.50269339505357
30
0
41
1
10
68.3633424235387
20
2.4999322584693
30
0
41
1
10
68.3822069786256
20
2.49612432561602
30
0
41
1
10
68.3911828473359
20
2.495049646692
30
0
41
1
10
68.408065999097
20
2.49484248768351
30
0
41
1
10
68.4160139961127
20
2.49572740540805
30
0
41
1
10
68.4231034019748
20
2.49778118052547
30
0
0
SPLINE
5
1A4
100
AcDbEntity
8
1
62
256
6
ByLayer
370
18
48
1
60
0
100
AcDbSpline
70
4
71
3
72
12
73
8
40
0
40
0
40
0
40
0
40
0.499999999999999
40
0.499999999999999
40
0.75
40
0.75
40
1
40
1
40
1
40
1
41
1
10
68.4231034019747
20
2.49778118052637
30
0
41
1
10
68.5219208240511
20
2.52640822862847
30
0
41
1
10
68.6198261723715
20
2.54675270122903
30
0
41
1
10
68.7657219739684
20
2.56537553132861
30
0
41
1
10
68.8141470965872
20
2.56958800043287
30
0
41
1
10
68.9105545041869
20
2.57408561758442
30
0
41
1
10
68.9585517592895
20
2.57437287249812
30
0
41
1
10
69.0063737787255
20
2.57272416618571
30
0
0
SPLINE
5
1A5
100
AcDbEntity
8
1
62
256
6
ByLayer
370
18
48
1
60
0
100
AcDbSpline
70
4
71
3
72
8
73
4
40
0
40
0
40
0
40
0
40
1
40
1
40
1
40
1
41
1
10
69.2014891487987
20
2.38437965709204
30
0
41
1
10
69.1364063737683
20
2.44763457392668
30
0
41
1
10
69.0713698723031
20
2.51041778524583
30
0
41
1
10
69.0063737787255
20
2.57272416618571
30
0
0
SPLINE
5
1A6
100
AcDbEntity
8
1
62
256
6
ByLayer
370
18
48
1
60
0
100
AcDbSpline
70
4
71
3
72
10
73
6
40
0
40
0
40
0
40
0
40
0.5
40
0.5
40
1
40
1
40
1
40
1
41
1
10
69.2014891487979
20
2.38437965708451
30
0
41
1
10
69.2998239834356
20
2.20474634539539
30
0
41
1
10
69.3989052358927
20
2.03002504575568
30
0
41
1
10
69.5990857975886
20
1.69083360523226
30
0
41
1
10
69.6998730565247
20
1.52690655225317
30
0
41
1
10
69.8016413216727
20
1.36882214655137
30
0
0
SPLINE
5
1A7
100
AcDbEntity
8
1
62
256
6
ByLayer
370
18
48
1
60
0
100
AcDbSpline
70
4
71
3
72
32
73
28
40
0
40
0
40
0
40
0
40
0.124999999999993
40
0.124999999999993
40
0.187500000000007
40
0.187500000000007
40
0.25000000000002
40
0.25000000000002
40
0.375000000000047
40
0.375000000000047
40
0.437500000000061
40
0.437500000000061
40
0.500000000000075
40
0.500000000000075
40
0.625000000000056
40
0.625000000000056
40
0.687500000000047
40
0.687500000000047
40
0.750000000000037
40
0.750000000000037
40
0.812500000000028
40
0.812500000000028
40
0.875000000000019
40
0.875000000000019
40
0.937500000000009
40
0.937500000000009
40
1
40
1
40
1
40
1
41
1
10
69.8016413216727
20
1.36882214655137
30
0
41
1
10
69.8145856763387
20
1.34871469349037
30
0
41
1
10
69.8296478080747
20
1.32830798133369
30
0
41
1
10
69.8545821413231
20
1.29739522576477
30
0
41
1
10
69.8632943199226
20
1.28703830343966
30
0
41
1
10
69.8814686876722
20
1.26622452922686
30
0
41
1
10
69.8907943940784
20
1.25592401021194
30
0
41
1
10
69.9193663315515
20
1.22534975059327
30
0
41
1
10
69.9392200221837
20
1.20537789346793
30
0
41
1
10
69.9700815055451
20
1.17594846152909
30
0
41
1
10
69.9805804587661
20
1.16620085848879
30
0
41
1
10
70.0018105370133
20
1.14699772613255
30
0
41
1
10
70.0124626346551
20
1.13761211354526
30
0
41
1
10
70.0445136192448
20
1.1100790505659
30
0
41
1
10
70.0660062745553
20
1.09254595013397
30
0
41
1
10
70.09838728963
20
1.06754292087734
30
0
41
1
10
70.1092555926669
20
1.05939026030694
30
0
41
1
10
70.1307847307292
20
1.04374863770161
30
0
41
1
10
70.1413964096567
20
1.03629273821068
30
0
41
1
10
70.1622786897492
20
1.02216286993001
30
0
41
1
10
70.1725496781683
20
1.01548803074417
30
0
41
1
10
70.1926926149083
20
1.00302808535315
30
0
41
1
10
70.2026163388167
20
0.997217759175214
30
0
41
1
10
70.2214357671886
20
0.986962774850866
30
0
41
1
10
70.2303890108281
20
0.982477866578648
30
0
41
1
10
70.2472285577589
20
0.975012700907769
30
0
41
1
10
70.2551560518408
20
0.972023549688629
30
0
41
1
10
70.262230243099
20
0.97003729313397
30
0
0
SPLINE
5
1A8
100
AcDbEntity
8
1
62
256
6
ByLayer
370
18
48
1
60
0
100
AcDbSpline
70
4
71
3
72
10
73
6
40
0
40
0
40
0
40
0
40
0.5
40
0.5
40
1
40
1
40
1
40
1
41
1
10
70.262230243099
20
0.970037293134908
30
0
41
1
10
70.3609918280618
20
0.942307502078762
30
0
41
1
10
70.4587818325619
20
0.90584614776148
30
0
41
1
10
70.6531063164971
20
0.817178147352905
30
0
41
1
10
70.7493709970413
20
0.765061449280893
30
0
41
1
10
70.844926189386
20
0.705463962243215
30
0
0
SPLINE
5
1A9
100
AcDbEntity
8
1
62
256
6
ByLayer
370
18
48
1
60
0
100
AcDbSpline
70
4
71
3
72
8
73
4
40
0
40
0
40
0
40
0
40
1
40
1
40
1
40
1
41
1
10
71.0419688492126
20
0.497721104137014
30
0
41
1
10
70.9762279272256
20
0.567071116666568
30
0
41
1
10
70.9105491552509
20
0.636320788931698
30
0
41
1
10
70.8449261893857
20
0.705463962243584
30
0
0
SPLINE
5
1AA
100
AcDbEntity
8
1
62
256
6
ByLayer
370
18
48
1
60
0
100
AcDbSpline
70
4
71
3
72
10
73
6
40
0
40
0
40
0
40
0
40
0.5
40
0.5
40
1
40
1
40
1
40
1
41
1
10
71.0419688492126
20
0.497721104137014
30
0
41
1
10
71.1401276250566
20
0.358392602749774
30
0
41
1
10
71.23900158161
20
0.226179080643305
30
0
41
1
10
71.4387630335333
20
-0.0236371890553926
30
0
41
1
10
71.5393308954913
20
-0.140842680711273
30
0
41
1
10
71.640888546075
20
-0.250226130470338
30
0
0
SPLINE
5
1AB
100
AcDbEntity
8
1
62
256
6
ByLayer
370
18
48
1
60
0
100
AcDbSpline
70
4
71
3
72
8
73
4
40
0
40
0
40
0
40
0
40
1
40
1
40
1
40
1
41
1
10
72.8807747585218
20
-1.4372064543434
30
0
41
1
10
72.8154883034258
20
-1.36990070474584
30
0
41
1
10
72.7502783113337
20
-1.30230401568772
30
0
41
1
10
72.6851332988276
20
-1.2344264459945
30
0
0
SPLINE
5
1AC
100
AcDbEntity
8
1
62
256
6
ByLayer
370
18
48
1
60
0
100
AcDbSpline
70
4
71
3
72
8
73
4
40
0
40
0
40
0
40
0
40
1
40
1
40
1
40
1
41
1
10
74.7199214044136
20
-3.22561370395118
30
0
41
1
10
74.6544619619497
20
-3.16648216996862
30
0
41
1
10
74.5891267472283
20
-3.10666583321858
30
0
41
1
10
74.5237729949303
20
-3.04627950477382
30
0
0
SPLINE
5
1AD
100
AcDbEntity
8
1
62
256
6
ByLayer
370
18
48
1
60
0
100
AcDbSpline
70
4
71
3
72
8
73
4
40
0
40
0
40
0
40
0
40
1
40
1
40
1
40
1
41
1
10
76.5594412881788
20
-4.6850096521313
30
0
41
1
10
76.4939817879524
20
-4.64053907296375
30
0
41
1
10
76.4284407799671
20
-4.5952318428815
30
0
41
1
10
76.3628695943354
20
-4.54906347906655
30
0
0
SPLINE
5
1AE
100
AcDbEntity
8
SK1
62
256
6
ByLayer
370
18
48
1
60
0
100
AcDbSpline
70
4
71
3
72
25
73
21
40
0
40
0
40
0
40
0
40
0.0625056663534558
40
0.0625056663534558
40
0.125011332706912
40
0.125011332706912
40
0.250022665413823
40
0.250022665413823
40
0.500045330827646
40
0.500045330827646
40
0.625056663534557
40
0.625056663534557
40
0.687562329888013
40
0.718815163064741
40
0.718815163064741
40
0.750067996241469
40
0.750067996241469
40
0.87507932894838
40
0.87507932894838
40
1
40
1
40
1
40
1
41
1
10
-25.6
20
3.49999999999997
30
0
41
1
10
-25.6283912504772
20
3.49999999999997
30
0
41
1
10
-25.6564118314841
20
3.49999999999997
30
0
41
1
10
-25.7116377394306
20
3.49999999999997
30
0
41
1
10
-25.7388670583177
20
3.49999999999997
30
0
41
1
10
-25.8189906594333
20
3.49999999999997
30
0
41
1
10
-25.8703259431386
20
3.49999999999997
30
0
41
1
10
-26.0169645194637
20
3.49999999999997
30
0
41
1
10
-26.1049811976251
20
3.49999999999997
30
0
41
1
10
-26.2165657316219
20
3.49999999999997
30
0
41
1
10
-26.2503339875396
20
3.49999999999997
30
0
41
1
10
-26.2949367233175
20
3.49999999999997
30
0
41
1
10
-26.3157237676438
20
3.49999999999997
30
0
41
1
10
-26.3340524870825
20
3.49999999999997
30
0
41
1
10
-26.3457035645301
20
3.49999999999997
30
0
41
1
10
-26.3512513335316
20
3.49999999999997
30
0
41
1
10
-26.3774102497551
20
3.49999999999997
30
0
41
1
10
-26.3933144104498
20
3.49999999999997
30
0
41
1
10
-26.414594640316
20
3.49999999999997
30
0
41
1
10
-26.4199769771526
20
3.49999999999997
30
0
41
1
10
-26.4199999999946
20
3.49999999999997
30
0
0
SPLINE
5
1AF
100
AcDbEntity
8
SK1
62
256
6
ByLayer
370
18
48
1
60
0
100
AcDbSpline
70
4
71
3
72
26
73
22
40
0
40
0
40
0
40
0
40
0.0004470654975473
40
0.125391182310354
40
0.125391182310354
40
0.250335299123161
40
0.250335299123161
40
0.281571328326362
40
0.281571328326362
40
0.312807357529564
40
0.375279415935967
40
0.375279415935967
40
0.500223532748774
40
0.500223532748774
40
0.750111766374387
40
0.750111766374387
40
0.875055883187194
40
0.875055883187194
40
0.937527941593597
40
0.937527941593597
40
1
40
1
40
1
40
1
41
1
10
-26.4199993915062
20
-3.50000000000003
30
0
41
1
10
-26.4200003916062
20
-3.50000000000003
30
0
41
1
10
-26.4200038962167
20
-3.50000000000003
30
0
41
1
10
-26.414602359619
20
-3.50000000000003
30
0
41
1
10
-26.3933144104498
20
-3.50000000000003
30
0
41
1
10
-26.3774102497551
20
-3.50000000000003
30
0
41
1
10
-26.3512513335316
20
-3.50000000000003
30
0
41
1
10
-26.34570356453
20
-3.50000000000003
30
0
41
1
10
-26.3340524870825
20
-3.50000000000003
30
0
41
1
10
-26.3157237676438
20
-3.50000000000003
30
0
41
1
10
-26.2949367233174
20
-3.50000000000003
30
0
41
1
10
-26.2503339875396
20
-3.50000000000003
30
0
41
1
10
-26.2165657316218
20
-3.50000000000003
30
0
41
1
10
-26.104981197625
20
-3.50000000000003
30
0
41
1
10
-26.0169645194636
20
-3.50000000000003
30
0
41
1
10
-25.8703259431386
20
-3.50000000000003
30
0
41
1
10
-25.8189906594332
20
-3.50000000000003
30
0
41
1
10
-25.7388670583176
20
-3.50000000000003
30
0
41
1
10
-25.7116377394306
20
-3.50000000000003
30
0
41
1
10
-25.6564118314841
20
-3.50000000000003
30
0
41
1
10
-25.6283912504771
20
-3.50000000000003
30
0
41
1
10
-25.6
20
-3.50000000000003
30
0
0
SPLINE
5
1B0
100
AcDbEntity
8
SK1
62
256
6
ByLayer
370
18
48
1
60
0
100
AcDbSpline
70
4
71
3
72
42
73
38
40
0
40
0
40
0
40
0
40
0.0625000000000006
40
0.0625000000000006
40
0.0937500000000008
40
0.0937500000000008
40
0.125000000000001
40
0.125000000000001
40
0.250000000000001
40
0.250000000000001
40
0.375000000000001
40
0.375000000000001
40
0.390625000000001
40
0.390625000000001
40
0.406250000000002
40
0.406250000000002
40
0.437500000000001
40
0.437500000000001
40
0.500000000000001
40
0.562500000000001
40
0.562500000000001
40
0.625000000000001
40
0.625000000000001
40
0.640625000000001
40
0.640625000000001
40
0.656250000000001
40
0.687500000000001
40
0.687500000000001
40
0.750000000000001
40
0.750000000000001
40
0.875000000000001
40
0.875000000000001
40
0.9375
40
0.9375
40
0.96875
40
0.96875
40
1
40
1
40
1
40
1
41
1
10
-25.6
20
-2.5322717073806
30
0
41
1
10
-25.6565583720233
20
-2.43578436503554
30
0
41
1
10
-25.7116439195181
20
-2.33820475716084
30
0
41
1
10
-25.7915967853719
20
-2.18985119337413
30
0
41
1
10
-25.8178006931364
20
-2.14006846927998
30
0
41
1
10
-25.8692210011127
20
-2.03977067284563
30
0
41
1
10
-25.8944274264223
20
-1.98927084414487
30
0
41
1
10
-26.0171592864999
20
-1.73596911681412
30
0
41
1
10
-26.1053306622981
20
-1.52990483419958
30
0
41
1
10
-26.2540117985661
20
-1.10832131566491
30
0
41
1
10
-26.314506645306
20
-0.892796982116948
30
0
41
1
10
-26.3615059681628
20
-0.643134532197422
30
0
41
1
10
-26.3664345906926
20
-0.615293931063519
30
0
41
1
10
-26.3756842001613
20
-0.559405034267655
30
0
41
1
10
-26.3800074791542
20
-0.531334955523477
30
0
41
1
10
-26.3919767973441
20
-0.447243633545042
30
0
41
1
10
-26.3986454591635
20
-0.391210696628974
30
0
41
1
10
-26.4146633786763
20
-0.223196900384068
30
0
41
1
10
-26.4253672141579
20
0.0005943938749624
30
0
41
1
10
-26.414602359619
20
0.223928035215891
30
0
41
1
10
-26.3933144104498
20
0.447037353369865
30
0
41
1
10
-26.3774102497551
20
0.558479879870475
30
0
41
1
10
-26.3512513335316
20
0.697649193201755
30
0
41
1
10
-26.34570356453
20
0.725484569075576
30
0
41
1
10
-26.3340524870825
20
0.780866452572042
30
0
41
1
10
-26.3157237676438
20
0.863610658520486
30
0
41
1
10
-26.2949367233174
20
0.945406795114621
30
0
41
1
10
-26.2503339875396
20
1.10783105038192
30
0
41
1
10
-26.2165657316218
20
1.21455849585831
30
0
41
1
10
-26.104981197625
20
1.53077637201864
30
0
41
1
10
-26.0169645194637
20
1.7363329505221
30
0
41
1
10
-25.8703259431386
20
2.03903200195637
30
0
41
1
10
-25.8189906594332
20
2.13898460624912
30
0
41
1
10
-25.7388670583176
20
2.28771000338983
30
0
41
1
10
-25.7116377394306
20
2.33708225013299
30
0
41
1
10
-25.6564118314841
20
2.43512311771099
30
0
41
1
10
-25.6283912504771
20
2.48383685668747
30
0
41
1
10
-25.6
20
2.53227170738057
30
0
0
SPLINE
5
1B1
100
AcDbEntity
8
1
62
256
6
ByLayer
370
18
48
1
60
0
100
AcDbSpline
70
4
71
2
72
6
73
3
40
0
40
0
40
0
40
1
40
1
40
1
41
1
10
80.7059747408292
20
-5.31620817419622
30
0
41
1
10
80.7734370880595
20
-5.20000535945357
30
0
41
1
10
80.8409321729659
20
-5.08382361164072
30
0
0
SPLINE
5
1B2
100
AcDbEntity
8
1
62
256
6
ByLayer
370
18
48
1
60
0
100
AcDbSpline
70
4
71
1
72
4
73
2
40
0
40
0
40
1
40
1
41
1
10
83
20
4.33902411055504
30
0
41
1
10
82.4000000647502
20
4.93831827653162
30
0
0
SPLINE
5
1B3
100
AcDbEntity
8
1
62
256
6
ByLayer
370
18
48
1
60
0
100
AcDbSpline
70
4
71
2
72
6
73
3
40
0
40
0
40
0
40
1
40
1
40
1
41
1
10
70.4120522335404
20
6.04544440160532
30
0
41
1
10
70.1278552570193
20
5.55587174104235
30
0
41
1
10
69.8435483575658
20
5.06719428114536
30
0
0
SPLINE
5
1B4
100
AcDbEntity
8
1
62
256
6
ByLayer
370
18
48
1
60
0
100
AcDbSpline
70
4
71
2
72
6
73
3
40
0
40
0
40
0
40
1
40
1
40
1
41
1
10
68.0241426506507
20
-6.05965228972349
30
0
41
1
10
68.3083553925893
20
-5.56955234044844
30
0
41
1
10
68.592749150696
20
-5.08023084252491
30
0
0
SPLINE
5
1B5
100
AcDbEntity
8
1
62
256
6
ByLayer
370
18
48
1
60
0
100
AcDbSpline
70
4
71
1
72
4
73
2
40
0
40
0
40
1
40
1
41
1
10
79.7936624415704
20
-5.57226910402136
30
0
41
1
10
80.6965558096022
20
-5.32905185819249
30
0
0
SPLINE
5
1B6
100
AcDbEntity
8
1
62
256
6
ByLayer
370
18
48
1
60
0
100
AcDbSpline
70
4
71
2
72
6
73
3
40
0
40
0
40
0
40
1
40
1
40
1
41
1
10
71.2157880578413
20
5.08433419445703
30
0
41
1
10
70.9302233682365
20
5.57599823985777
30
0
41
1
10
70.6451360765775
20
6.0679734350563
30
0
0
SPLINE
5
1B7
100
AcDbEntity
8
1
62
256
6
ByLayer
370
18
48
1
60
0
100
AcDbSpline
70
4
71
2
72
6
73
3
40
0
40
0
40
0
40
1
40
1
40
1
41
1
10
79.476850531774
20
-5.08414001601378
30
0
41
1
10
79.6158928191111
20
-5.32375266586305
30
0
41
1
10
79.7548220739551
20
-5.5634379143016
30
0
0
SPLINE
5
1B8
100
AcDbEntity
8
1
62
256
6
ByLayer
370
18
48
1
60
0
100
AcDbSpline
70
4
71
2
72
6
73
3
40
0
40
0
40
0
40
1
40
1
40
1
41
1
10
67.2420479394717
20
-5.10225278841241
30
0
41
1
10
67.5260479403696
20
-5.59272616144364
30
0
41
1
10
67.8099504438773
20
-6.08330977863179
30
0
0
SPLINE
5
1B9
100
AcDbEntity
8
1
62
256
6
ByLayer
370
18
48
1
60
0
100
AcDbSpline
70
4
71
3
72
11
73
7
40
0
40
0
40
0
40
0
40
0.246730194076223
40
0.497712722136583
40
0.753011815656548
40
1
40
1
40
1
40
1
41
1
10
71.6019204154856
20
5.08431762981743
30
0
41
1
10
71.5935394737314
20
5.06307720840425
30
0
41
1
10
71.5593545532343
20
5.02786831741943
30
0
41
1
10
71.4496011240018
20
4.96899877293964
30
0
41
1
10
71.2968447398966
20
4.99216956535224
30
0
41
1
10
71.2356536712117
20
5.05232763538456
30
0
41
1
10
71.2097679861334
20
5.09349962006615
30
0
0
SPLINE
5
1BA
100
AcDbEntity
8
1
62
256
6
ByLayer
370
18
48
1
60
0
100
AcDbSpline
70
4
71
3
72
11
73
7
40
0
40
0
40
0
40
0
40
0.246359476187872
40
0.497511704909853
40
0.752937393055381
40
1
40
1
40
1
40
1
41
1
10
79.0907961066041
20
-5.0844290574808
30
0
41
1
10
79.0992487793679
20
-5.06313481144215
30
0
41
1
10
79.1335143423532
20
-5.02779827891652
30
0
41
1
10
79.2431665694521
20
-4.96895853449448
30
0
41
1
10
79.3959048769243
20
-4.99206944277125
30
0
41
1
10
79.4570631948465
20
-5.05223137587683
30
0
41
1
10
79.4829295202302
20
-5.09340315769893
30
0
0
SPLINE
5
1BB
100
AcDbEntity
8
1
62
256
6
ByLayer
370
18
48
1
60
0
100
AcDbSpline
70
4
71
3
72
11
73
7
40
0
40
0
40
0
40
0
40
0.234069246984585
40
0.481106864141375
40
0.739916342691262
40
1
40
1
40
1
40
1
41
1
10
66.8409748333957
20
-5.08314786389963
30
0
41
1
10
66.85018668365
20
-5.0618161520903
30
0
41
1
10
66.8847133469379
20
-5.02576887253571
30
0
41
1
10
66.994654111227
20
-4.96810257436726
30
0
41
1
10
67.1461015076763
20
-4.99220933593983
30
0
41
1
10
67.2045947465135
20
-5.04775655845089
30
0
41
1
10
67.2287067415575
20
-5.08704073326805
30
0
0
SPLINE
5
1BC
100
AcDbEntity
8
1
62
256
6
ByLayer
370
18
48
1
60
0
100
AcDbSpline
70
4
71
2
72
6
73
3
40
0
40
0
40
0
40
1
40
1
40
1
41
1
10
66.5851575473469
20
-5.52374619555633
30
0
41
1
10
66.7129770419643
20
-5.30344411972419
30
0
41
1
10
66.8409330215844
20
-5.08321992384163
30
0
0
SPLINE
5
1BD
100
AcDbEntity
8
1
62
256
6
ByLayer
370
18
48
1
60
0
100
AcDbSpline
70
4
71
2
72
6
73
3
40
0
40
0
40
0
40
1
40
1
40
1
41
1
10
78.6267075426171
20
-5.8841979838854
30
0
41
1
10
78.8586778579868
20
-5.48404772559826
30
0
41
1
10
79.0909841016184
20
-5.08410594646452
30
0
0
SPLINE
5
1BE
100
AcDbEntity
8
1
62
256
6
ByLayer
370
18
48
1
60
0
100
AcDbSpline
70
4
71
2
72
6
73
3
40
0
40
0
40
0
40
1
40
1
40
1
41
1
10
72.1721298364499
20
6.06802134965415
30
0
41
1
10
71.8871873205627
20
5.57594975100312
30
0
41
1
10
71.6018121939327
20
5.08413120149254
30
0
0
SPLINE
5
1BF
100
AcDbEntity
8
1
62
256
6
ByLayer
370
18
48
1
60
0
100
AcDbSpline
70
4
71
1
72
4
73
2
40
0
40
0
40
1
40
1
41
1
10
78.2658017729554
20
-5.98860397878309
30
0
41
1
10
78.6132895232581
20
-5.89490535789324
30
0
0
SPLINE
5
1C0
100
AcDbEntity
8
1
62
256
6
ByLayer
370
18
48
1
60
0
100
AcDbSpline
70
4
71
2
72
6
73
3
40
0
40
0
40
0
40
1
40
1
40
1
41
1
10
77.7270779452291
20
-5.08443994521534
30
0
41
1
10
77.986361554538
20
-5.53134912826391
30
0
41
1
10
78.2452734952397
20
-5.97845813077717
30
0
0
SPLINE
5
1C1
100
AcDbEntity
8
1
62
256
6
ByLayer
370
18
48
1
60
0
100
AcDbSpline
70
4
71
2
72
6
73
3
40
0
40
0
40
0
40
1
40
1
40
1
41
1
10
72.9660703161345
20
5.08363413434927
30
0
41
1
10
72.6804827945642
20
5.57527020278897
30
0
41
1
10
72.3953870560076
20
6.06720681218826
30
0
0
SPLINE
5
1C2
100
AcDbEntity
8
1
62
256
6
ByLayer
370
18
48
1
60
0
100
AcDbSpline
70
4
71
3
72
11
73
7
40
0
40
0
40
0
40
0
40
0.25016454510682
40
0.50620792302201
40
0.7563746290415
40
1
40
1
40
1
40
1
41
1
10
73.3562211156488
20
5.09082149657522
30
0
41
1
10
73.3308706314199
20
5.05035199878347
30
0
41
1
10
73.2705622981561
20
4.99175648848336
30
0
41
1
10
73.1182168056731
20
4.96867695545632
30
0
41
1
10
73.0087484744393
20
5.02729579175562
30
0
41
1
10
72.9745815207616
20
5.06255274877742
30
0
41
1
10
72.9660365007674
20
5.08369246397495
30
0
0
SPLINE
5
1C3
100
AcDbEntity
8
1
62
256
6
ByLayer
370
18
48
1
60
0
100
AcDbSpline
70
4
71
3
72
11
73
7
40
0
40
0
40
0
40
0
40
0.250824371225199
40
0.507014207655019
40
0.756802220575024
40
1
40
1
40
1
40
1
41
1
10
77.3368987546673
20
-5.09130823682307
30
0
41
1
10
77.3622044341408
20
-5.05092059778204
30
0
41
1
10
77.4224581825374
20
-4.9925527639588
30
0
41
1
10
77.5747716167168
20
-4.96939186767585
30
0
41
1
10
77.6844164710762
20
-5.02805603313172
30
0
41
1
10
77.7185542918146
20
-5.06332878418749
30
0
41
1
10
77.7270968758313
20
-5.08447264853561
30
0
0
SPLINE
5
1C4
100
AcDbEntity
8
1
62
256
6
ByLayer
370
18
48
1
60
0
100
AcDbSpline
70
4
71
2
72
6
73
3
40
0
40
0
40
0
40
1
40
1
40
1
41
1
10
74.7572591509035
20
5.03334704704918
30
0
41
1
10
74.7464619588583
20
5.04163475331399
30
0
41
1
10
74.74260845188
20
5.0363790068929
30
0
0
SPLINE
5
1C5
100
AcDbEntity
8
1
62
256
6
ByLayer
370
18
48
1
60
0
100
AcDbSpline
70
4
71
2
72
6
73
3
40
0
40
0
40
0
40
1
40
1
40
1
41
1
10
75.9367853200949
20
-5.03458924597547
30
0
41
1
10
75.9428336066037
20
-5.03892969480876
30
0
41
1
10
75.9460356394963
20
-5.03590884971143
30
0
0
SPLINE
5
1C6
100
AcDbEntity
8
1
62
256
6
ByLayer
370
18
48
1
60
0
100
AcDbSpline
70
4
71
2
72
6
73
3
40
0
40
0
40
0
40
1
40
1
40
1
41
1
10
75.9709677379817
20
-5.07342499796439
30
0
41
1
10
76.255088773042
20
-5.56235523305983
30
0
41
1
10
76.5390850649851
20
-6.05210205786653
30
0
0
SPLINE
5
1C7
100
AcDbEntity
8
1
62
256
6
ByLayer
370
18
48
1
60
0
100
AcDbSpline
70
4
71
2
72
6
73
3
40
0
40
0
40
0
40
1
40
1
40
1
41
1
10
74.720531418149
20
5.07501375559971
30
0
41
1
10
74.4362506132414
20
5.56375102484105
30
0
41
1
10
74.152125080364
20
6.0533737043975
30
0
0
SPLINE
5
1C8
100
AcDbEntity
8
1
62
256
6
ByLayer
370
18
48
1
60
0
100
AcDbSpline
70
4
71
2
72
6
73
3
40
0
40
0
40
0
40
1
40
1
40
1
41
1
10
76.7554878324098
20
-6.08591617806124
30
0
41
1
10
77.0395261566166
20
-5.59522550140312
30
0
41
1
10
77.3236634013999
20
-5.10464736486225
30
0
0
SPLINE
5
1C9
100
AcDbEntity
8
1
62
256
6
ByLayer
370
18
48
1
60
0
100
AcDbSpline
70
4
71
2
72
6
73
3
40
0
40
0
40
0
40
1
40
1
40
1
41
1
10
73.9374475834026
20
6.08460758808684
30
0
41
1
10
73.6538551559374
20
5.59448971473171
30
0
41
1
10
73.3701693903417
20
5.10439967099558
30
0
0
LINE
5
7F
100
AcDbEntity
8
80
62
256
6
ByLayer
370
18
48
1
60
0
100
AcDbLine
10
0
20
0
30
0
11
-5
21
0
31
0
39
0
210
0
220
0
230
1
0
LINE
5
80
100
AcDbEntity
8
4
62
256
6
ByLayer
370
18
48
0.05
60
0
100
AcDbLine
10
0
20
0
30
0
11
83
21
0
31
0
39
0
210
0
220
0
230
1
0
LINE
5
82
100
AcDbEntity
8
81
62
256
6
ByLayer
370
18
48
1
60
0
100
AcDbLine
10
83
20
0
30
0
11
88
21
0
31
0
39
0
210
0
220
0
230
1
0
LINE
5
83
100
AcDbEntity
8
SK4
62
256
6
ByLayer
370
18
48
0.05
60
0
100
AcDbLine
10
-27
20
0
30
0
11
83
21
0
31
0
39
0
210
0
220
0
230
1
0
LINE
5
85
100
AcDbEntity
8
1
62
256
6
ByLayer
370
18
48
1
60
0
100
AcDbLine
10
0
20
4.5
30
0
11
0
21
-4.5
31
0
39
0
210
0
220
0
230
1
0
LINE
5
86
100
AcDbEntity
8
1
62
256
6
ByLayer
370
13
48
1
60
0
100
AcDbLine
10
80.840811
20
-5.084031
30
0
11
80.836933
21
-5.090184
31
0
39
0
210
0
220
0
230
1
0
LINE
5
87
100
AcDbEntity
8
1
62
256
6
ByLayer
370
18
48
1
60
0
100
AcDbLine
10
82.4
20
4.945036
30
0
11
82.4
21
4.93833
31
0
39
0
210
0
220
0
230
1
0
LINE
5
88
100
AcDbEntity
8
1
62
256
6
ByLayer
370
13
48
1
60
0
100
AcDbLine
10
66.289673
20
-5.05
30
0
11
66.289673
21
-4.73115
31
0
39
0
210
0
220
0
230
1
0
LINE
5
89
100
AcDbEntity
8
1
62
256
6
ByLayer
370
13
48
1
60
0
100
AcDbLine
10
65.077237
20
-4.35
30
0
11
65.077237
21
-3.692191
31
0
39
0
210
0
220
0
230
1
0
LINE
5
8A
100
AcDbEntity
8
1
62
256
6
ByLayer
370
13
48
1
60
0
100
AcDbLine
10
28.653835
20
-4.35
30
0
11
28.653835
21
4.35
31
0
39
0
210
0
220
0
230
1
0
LINE
5
8B
100
AcDbEntity
8
1
62
256
6
ByLayer
370
18
48
1
60
0
100
AcDbLine
10
28
20
4.5
30
0
11
28
21
-4.5
31
0
39
0
210
0
220
0
230
1
0
LINE
5
8C
100
AcDbEntity
8
1
62
256
6
ByLayer
370
13
48
1
60
0
100
AcDbLine
10
65.077237
20
1.802697
30
0
11
65.077237
21
3.837996
31
0
39
0
210
0
220
0
230
1
0
LINE
5
8D
100
AcDbEntity
8
1
62
256
6
ByLayer
370
13
48
1
60
0
100
AcDbLine
10
66.289673
20
2.310742
30
0
11
66.289673
21
0.941043
31
0
39
0
210
0
220
0
230
1
0
LINE
5
8E
100
AcDbEntity
8
SK1
62
256
6
ByLayer
370
18
48
1
60
0
100
AcDbLine
10
-27
20
2.92
30
0
11
-27
21
-2.92
31
0
39
0
210
0
220
0
230
1
0
LINE
5
90
100
AcDbEntity
8
SK1
62
256
6
ByLayer
370
18
48
1
60
0
100
AcDbLine
10
-17
20
2.532272
30
0
11
-17
21
-2.532272
31
0
39
0
210
0
220
0
230
1
0
LINE
5
91
100
AcDbEntity
8
SK1
62
256
6
ByLayer
370
18
48
1
60
0
100
AcDbLine
10
-17
20
3.5
30
0
11
-16.18
21
4.32
31
0
39
0
210
0
220
0
230
1
0
LINE
5
92
100
AcDbEntity
8
SK1
62
256
6
ByLayer
370
18
48
1
60
0
100
AcDbLine
10
-25.6
20
3.5
30
0
11
-17
21
3.5
31
0
39
0
210
0
220
0
230
1
0
LINE
5
93
100
AcDbEntity
8
SK1
62
256
6
ByLayer
370
18
48
1
60
0
100
AcDbLine
10
-25.6
20
2.532272
30
0
11
-25.6
21
3.5
31
0
39
0
210
0
220
0
230
1
0
LINE
5
94
100
AcDbEntity
8
SK1
62
256
6
ByLayer
370
18
48
1
60
0
100
AcDbLine
10
-17
20
2.532272
30
0
11
-25.6
21
2.532272
31
0
39
0
210
0
220
0
230
1
0
LINE
5
95
100
AcDbEntity
8
SK1
62
256
6
ByLayer
370
18
48
1
60
0
100
AcDbLine
10
-25.6
20
-2.532272
30
0
11
-17
21
-2.532272
31
0
39
0
210
0
220
0
230
1
0
LINE
5
96
100
AcDbEntity
8
SK1
62
256
6
ByLayer
370
18
48
1
60
0
100
AcDbLine
10
-25.6
20
-3.5
30
0
11
-25.6
21
-2.532272
31
0
39
0
210
0
220
0
230
1
0
LINE
5
97
100
AcDbEntity
8
SK1
62
256
6
ByLayer
370
18
48
1
60
0
100
AcDbLine
10
-17
20
-3.5
30
0
11
-25.6
21
-3.5
31
0
39
0
210
0
220
0
230
1
0
LINE
5
98
100
AcDbEntity
8
SK1
62
256
6
ByLayer
370
18
48
1
60
0
100
AcDbLine
10
-17
20
-3.5
30
0
11
-16.18
21
-4.32
31
0
39
0
210
0
220
0
230
1
0
LINE
5
99
100
AcDbEntity
8
SK1
62
256
6
ByLayer
370
18
48
1
60
0
100
AcDbLine
10
0
20
4.5
30
0
11
0
21
-4.5
31
0
39
0
210
0
220
0
230
1
0
LINE
5
9A
100
AcDbEntity
8
SK1
62
256
6
ByLayer
370
18
48
1
60
0
100
AcDbLine
10
-15
20
4.32
30
0
11
-15
21
-4.32
31
0
39
0
210
0
220
0
230
1
0
LINE
5
9B
100
AcDbEntity
8
SK1
62
256
6
ByLayer
370
18
48
1
60
0
100
AcDbLine
10
-14.82
20
-4.5
30
0
11
-14.82
21
4.5
31
0
39
0
210
0
220
0
230
1
0
LINE
5
9C
100
AcDbEntity
8
1
62
256
6
ByLayer
370
18
48
1
60
0
100
AcDbLine
10
28
20
4.5
30
0
11
0
21
4.5
31
0
39
0
210
0
220
0
230
1
0
LINE
5
9D
100
AcDbEntity
8
1
62
256
6
ByLayer
370
18
48
1
60
0
100
AcDbLine
10
0
20
-4.5
30
0
11
28
21
-4.5
31
0
39
0
210
0
220
0
230
1
0
LINE
5
9E
100
AcDbEntity
8
1
62
256
6
ByLayer
370
18
48
1
60
0
100
AcDbLine
10
70.626902
20
6.080323
30
0
11
70.440964
21
6.080323
31
0
39
0
210
0
220
0
230
1
0
LINE
5
9F
100
AcDbEntity
8
1
62
256
6
ByLayer
370
18
48
1
60
0
100
AcDbLine
10
67.815742
20
-6.080323
30
0
11
68.001686
21
-6.080323
31
0
39
0
210
0
220
0
230
1
0
LINE
5
A0
100
AcDbEntity
8
1
62
256
6
ByLayer
370
18
48
1
60
0
100
AcDbLine
10
66.289673
20
-5.05
30
0
11
66.560263
21
-5.518676
31
0
39
0
210
0
220
0
230
1
0
LINE
5
A1
100
AcDbEntity
8
1
62
256
6
ByLayer
370
18
48
1
60
0
100
AcDbLine
10
72.3767
20
6.080323
30
0
11
72.190186
21
6.080323
31
0
39
0
210
0
220
0
230
1
0
LINE
5
A2
100
AcDbEntity
8
1
62
256
6
ByLayer
370
18
48
1
60
0
100
AcDbLine
10
76.564886
20
-6.080323
30
0
11
76.752108
21
-6.080323
31
0
39
0
210
0
220
0
230
1
0
LINE
5
A3
100
AcDbEntity
8
1
62
256
6
ByLayer
370
18
48
1
60
0
100
AcDbLine
10
74.126855
20
6.080323
30
0
11
73.940418
21
6.080323
31
0
39
0
210
0
220
0
230
1
0
LINE
5
A4
100
AcDbEntity
8
1
62
256
6
ByLayer
370
18
48
1
60
0
100
AcDbLine
10
28.653835
20
-4.35
30
0
11
37.924149
21
-4.35
31
0
39
0
210
0
220
0
230
1
0
LINE
5
A5
100
AcDbEntity
8
1
62
256
6
ByLayer
370
18
48
1
60
0
100
AcDbLine
10
39.214135
20
-4.35
30
0
11
44.195684
21
-4.35
31
0
39
0
210
0
220
0
230
1
0
LINE
5
A6
100
AcDbEntity
8
1
62
256
6
ByLayer
370
18
48
1
60
0
100
AcDbLine
10
52.533025
20
-4.35
30
0
11
56.236798
21
-4.35
31
0
39
0
210
0
220
0
230
1
0
LINE
5
A7
100
AcDbEntity
8
1
62
256
6
ByLayer
370
18
48
1
60
0
100
AcDbLine
10
64.526551
20
-4.35
30
0
11
65.077237
21
-4.35
31
0
39
0
210
0
220
0
230
1
0
LINE
5
A8
100
AcDbEntity
8
1
62
256
6
ByLayer
370
18
48
1
60
0
100
AcDbLine
10
62.259292
20
4.35
30
0
11
58.530052
21
4.35
31
0
39
0
210
0
220
0
230
1
0
LINE
5
A9
100
AcDbEntity
8
1
62
256
6
ByLayer
370
18
48
1
60
0
100
AcDbLine
10
50.217518
20
4.35
30
0
11
46.535896
21
4.35
31
0
39
0
210
0
220
0
230
1
0
LINE
5
AA
100
AcDbEntity
8
1
62
256
6
ByLayer
370
18
48
1
60
0
100
AcDbLine
10
38.358994
20
4.35
30
0
11
28.653835
21
4.35
31
0
39
0
210
0
220
0
230
1
0
LINE
5
AB
100
AcDbEntity
8
SK1
62
256
6
ByLayer
370
18
48
1
60
0
100
AcDbLine
10
-27
20
-2.92
30
0
11
-26.42
21
-3.5
31
0
39
0
210
0
220
0
230
1
0
LINE
5
AC
100
AcDbEntity
8
SK1
62
256
6
ByLayer
370
18
48
1
60
0
100
AcDbLine
10
-26.42
20
3.5
30
0
11
-27
21
2.92
31
0
39
0
210
0
220
0
230
1
0
LINE
5
AD
100
AcDbEntity
8
SK1
62
256
6
ByLayer
370
18
48
1
60
0
100
AcDbLine
10
-15
20
4.32
30
0
11
-16.18
21
4.32
31
0
39
0
210
0
220
0
230
1
0
LINE
5
AE
100
AcDbEntity
8
SK1
62
256
6
ByLayer
370
18
48
1
60
0
100
AcDbLine
10
-16.18
20
-4.32
30
0
11
-15
21
-4.32
31
0
39
0
210
0
220
0
230
1
0
LINE
5
AF
100
AcDbEntity
8
SK1
62
256
6
ByLayer
370
18
48
1
60
0
100
AcDbLine
10
0
20
4.5
30
0
11
-14.82
21
4.5
31
0
39
0
210
0
220
0
230
1
0
LINE
5
B0
100
AcDbEntity
8
SK1
62
256
6
ByLayer
370
18
48
1
60
0
100
AcDbLine
10
-14.82
20
-4.5
30
0
11
0
21
-4.5
31
0
39
0
210
0
220
0
230
1
0
LINE
5
B1
100
AcDbEntity
8
SK1
62
256
6
ByLayer
370
18
48
1
60
0
100
AcDbLine
10
-15
20
-4.32
30
0
11
-14.82
21
-4.5
31
0
39
0
210
0
220
0
230
1
0
LINE
5
B2
100
AcDbEntity
8
SK1
62
256
6
ByLayer
370
18
48
1
60
0
100
AcDbLine
10
-14.82
20
4.5
30
0
11
-15
21
4.32
31
0
39
0
210
0
220
0
230
1
0
LINE
5
B3
100
AcDbEntity
8
SK2
62
256
6
ByLayer
370
18
48
1
60
0
100
AcDbLine
10
14.59
20
-4.5
30
0
11
14.59
21
17.341828
31
0
39
0
210
0
220
0
230
1
0
LINE
5
B5
100
AcDbEntity
8
1
62
256
6
ByLayer
370
18
48
1
60
1
100
AcDbLine
10
14.59
20
4.5
30
0
11
15.050784
21
1.000002
31
0
39
0
210
0
220
0
230
1
0
LINE
5
B6
100
AcDbEntity
8
1
62
256
6
ByLayer
370
18
48
1
60
1
100
AcDbLine
10
15.050784
20
1.000002
30
0
11
14.129216
21
0.999998
31
0
39
0
210
0
220
0
230
1
0
LINE
5
B7
100
AcDbEntity
8
1
62
256
6
ByLayer
370
18
48
1
60
1
100
AcDbLine
10
14.129216
20
0.999998
30
0
11
14.59
21
4.5
31
0
39
0
210
0
220
0
230
1
0
LINE
5
B8
100
AcDbEntity
8
1
62
256
6
ByLayer
370
18
48
1
60
1
100
AcDbLine
10
14.59
20
-4.5
30
0
11
14.129216
21
-1.000002
31
0
39
0
210
0
220
0
230
1
0
LINE
5
B9
100
AcDbEntity
8
1
62
256
6
ByLayer
370
18
48
1
60
1
100
AcDbLine
10
14.129216
20
-1.000002
30
0
11
15.050784
21
-0.999998
31
0
39
0
210
0
220
0
230
1
0
LINE
5
BA
100
AcDbEntity
8
1
62
256
6
ByLayer
370
18
48
1
60
1
100
AcDbLine
10
15.050784
20
-0.999998
30
0
11
14.59
21
-4.5
31
0
39
0
210
0
220
0
230
1
0
LINE
5
BB
100
AcDbEntity
8
2
62
256
6
ByLayer
370
18
48
1
60
0
100
AcDbLine
10
83
20
-43.580323
30
0
11
-27
21
-43.580323
31
0
39
0
210
0
220
0
230
1
0
LINE
5
BD
100
AcDbEntity
8
2
62
256
6
ByLayer
370
18
48
1
60
0
100
AcDbLine
10
-27
20
-4.5075
30
0
11
-27
21
-45.580323
31
0
39
0
210
0
220
0
230
1
0
LINE
5
BE
100
AcDbEntity
8
2
62
256
6
ByLayer
370
18
48
1
60
0
100
AcDbLine
10
83
20
-7.667823
30
0
11
83
21
-45.580323
31
0
39
0
210
0
220
0
230
1
0
LINE
5
BF
100
AcDbEntity
8
1
62
256
6
ByLayer
370
18
48
1
60
1
100
AcDbLine
10
-27
20
-43.580323
30
0
11
-23.500002
21
-43.119539
31
0
39
0
210
0
220
0
230
1
0
LINE
5
C0
100
AcDbEntity
8
1
62
256
6
ByLayer
370
18
48
1
60
1
100
AcDbLine
10
-23.500002
20
-43.119539
30
0
11
-23.499998
21
-44.041107
31
0
39
0
210
0
220
0
230
1
0
LINE
5
C1
100
AcDbEntity
8
1
62
256
6
ByLayer
370
18
48
1
60
1
100
AcDbLine
10
-23.499998
20
-44.041107
30
0
11
-27
21
-43.580323
31
0
39
0
210
0
220
0
230
1
0
LINE
5
C2
100
AcDbEntity
8
1
62
256
6
ByLayer
370
18
48
1
60
1
100
AcDbLine
10
83
20
-43.580323
30
0
11
79.500002
21
-44.041107
31
0
39
0
210
0
220
0
230
1
0
LINE
5
C3
100
AcDbEntity
8
1
62
256
6
ByLayer
370
18
48
1
60
1
100
AcDbLine
10
79.500002
20
-44.041107
30
0
11
79.499998
21
-43.119539
31
0
39
0
210
0
220
0
230
1
0
LINE
5
C4
100
AcDbEntity
8
1
62
256
6
ByLayer
370
18
48
1
60
1
100
AcDbLine
10
79.499998
20
-43.119539
30
0
11
83
21
-43.580323
31
0
39
0
210
0
220
0
230
1
0
LINE
5
1CE
100
AcDbEntity
8
1
62
256
6
ByLayer
370
18
48
1
60
1
100
AcDbLine
10
14.59
20
4.5
30
0
11
15.050784
21
1.000002
31
0
39
0
210
0
220
0
230
1
0
LINE
5
1CF
100
AcDbEntity
8
1
62
256
6
ByLayer
370
18
48
1
60
1
100
AcDbLine
10
15.050784
20
1.000002
30
0
11
14.129216
21
0.999998
31
0
39
0
210
0
220
0
230
1
0
LINE
5
1D0
100
AcDbEntity
8
1
62
256
6
ByLayer
370
18
48
1
60
1
100
AcDbLine
10
14.129216
20
0.999998
30
0
11
14.59
21
4.5
31
0
39
0
210
0
220
0
230
1
0
LINE
5
1D2
100
AcDbEntity
8
1
62
256
6
ByLayer
370
18
48
1
60
1
100
AcDbLine
10
14.59
20
-4.5
30
0
11
14.129216
21
-1.000002
31
0
39
0
210
0
220
0
230
1
0
LINE
5
1D3
100
AcDbEntity
8
1
62
256
6
ByLayer
370
18
48
1
60
1
100
AcDbLine
10
14.129216
20
-1.000002
30
0
11
15.050784
21
-0.999998
31
0
39
0
210
0
220
0
230
1
0
LINE
5
1D4
100
AcDbEntity
8
1
62
256
6
ByLayer
370
18
48
1
60
1
100
AcDbLine
10
15.050784
20
-0.999998
30
0
11
14.59
21
-4.5
31
0
39
0
210
0
220
0
230
1
0
LINE
5
1D7
100
AcDbEntity
8
1
62
256
6
ByLayer
370
18
48
1
60
1
100
AcDbLine
10
-27
20
-43.580323
30
0
11
-23.500002
21
-43.119539
31
0
39
0
210
0
220
0
230
1
0
LINE
5
1D8
100
AcDbEntity
8
1
62
256
6
ByLayer
370
18
48
1
60
1
100
AcDbLine
10
-23.500002
20
-43.119539
30
0
11
-23.499998
21
-44.041107
31
0
39
0
210
0
220
0
230
1
0
LINE
5
1D9
100
AcDbEntity
8
1
62
256
6
ByLayer
370
18
48
1
60
1
100
AcDbLine
10
-23.499998
20
-44.041107
30
0
11
-27
21
-43.580323
31
0
39
0
210
0
220
0
230
1
0
LINE
5
1DB
100
AcDbEntity
8
1
62
256
6
ByLayer
370
18
48
1
60
1
100
AcDbLine
10
83
20
-43.580323
30
0
11
79.500002
21
-44.041107
31
0
39
0
210
0
220
0
230
1
0
LINE
5
1DC
100
AcDbEntity
8
1
62
256
6
ByLayer
370
18
48
1
60
1
100
AcDbLine
10
79.500002
20
-44.041107
30
0
11
79.499998
21
-43.119539
31
0
39
0
210
0
220
0
230
1
0
LINE
5
1DD
100
AcDbEntity
8
1
62
256
6
ByLayer
370
18
48
1
60
1
100
AcDbLine
10
79.499998
20
-43.119539
30
0
11
83
21
-43.580323
31
0
39
0
210
0
220
0
230
1
0
MTEXT
5
1CA
100
AcDbEntity
8
SK2
62
256
6
ByLayer
370
18
48
1
60
0
100
AcDbMText
10
13.248886
20
10.158438
30
0
210
0
220
0
230
1
1
%%c
40
3
41
0
44
1.084337
50
90
71
7
72
5
7
iso_b_vert
0
MTEXT
5
1CD
100
AcDbEntity
8
SK2
62
256
6
ByLayer
370
18
48
1
60
0
100
AcDbMText
10
13.248886
20
16.135
30
0
210
0
220
0
230
1
1
\W0.5742;9
40
3
41
0
44
1.084337
50
90
71
7
72
5
7
iso_b_vert
0
MTEXT
5
1D6
100
AcDbEntity
8
2
62
256
6
ByLayer
370
18
48
1
60
0
100
AcDbMText
10
25.996143
20
-42.695209
30
0
210
0
220
0
230
1
1
\W0.5296;110
40
3
41
0
44
1.084337
50
0
71
7
72
5
7
iso_b_vert
0
MTEXT
5
1DF
100
AcDbEntity
8
SK6
62
256
6
ByLayer
370
18
48
1
60
0
100
AcDbMText
10
11.23201
20
-82.114886
30
0
210
0
220
0
230
1
1
\W0.7249;T300-XM105DA-M12    C110
40
3
41
0
44
1.084337
50
0
71
7
72
5
7
iso_b_vert
0
HATCH
5
1D1
100
AcDbEntity
8
SK2
62
256
6
ByLayer
370
13
48
1
60
0
100
AcDbHatch
10
0
20
0
30
0
210
0
220
0
230
1
2
ANSI31
70
0
71
0
91
1
92
5
93
3
72
1
10
14.59
20
4.50000000000006
11
15.0507837415528
21
1.00000169255324
72
1
10
15.0507837415528
20
1.00000169255324
11
14.1292162584472
21
0.999998307446873
72
1
10
14.1292162584472
20
0.999998307446873
11
14.59
21
4.50000000000006
97
0
75
0
76
1
52
0
41
0.0062
77
0
78
1
53
45
43
0
44
0
45
-0.0139193969876572
46
0.0139193969876572
79
0
47
0
98
1
10
0
20
0
0
HATCH
5
1D5
100
AcDbEntity
8
SK2
62
256
6
ByLayer
370
13
48
1
60
0
100
AcDbHatch
10
0
20
0
30
0
210
0
220
0
230
1
2
ANSI31
70
0
71
0
91
1
92
5
93
3
72
1
10
14.59
20
-4.49999999999997
11
14.1292162584472
21
-1.00000169255315
72
1
10
14.1292162584472
20
-1.00000169255315
11
15.0507837415528
21
-0.999998307446788
72
1
10
15.0507837415528
20
-0.999998307446788
11
14.59
21
-4.49999999999997
97
0
75
0
76
1
52
0
41
0.0062
77
0
78
1
53
45
43
0
44
0
45
-0.0139193969876572
46
0.0139193969876572
79
0
47
0
98
1
10
0
20
0
0
HATCH
5
1DA
100
AcDbEntity
8
2
62
256
6
ByLayer
370
13
48
1
60
0
100
AcDbHatch
10
0
20
0
30
0
210
0
220
0
230
1
2
ANSI31
70
0
71
0
91
1
92
5
93
3
72
1
10
-27
20
-43.5803232037293
11
-23.5000016925532
21
-43.1195394621765
72
1
10
-23.5000016925532
20
-43.1195394621765
11
-23.4999983074468
21
-44.041106945282
72
1
10
-23.4999983074468
20
-44.041106945282
11
-27
21
-43.5803232037293
97
0
75
0
76
1
52
0
41
0.0062
77
0
78
1
53
45
43
0
44
0
45
-0.0139193969876572
46
0.0139193969876572
79
0
47
0
98
1
10
0
20
0
0
HATCH
5
1DE
100
AcDbEntity
8
2
62
256
6
ByLayer
370
13
48
1
60
0
100
AcDbHatch
10
0
20
0
30
0
210
0
220
0
230
1
2
ANSI31
70
0
71
0
91
1
92
5
93
3
72
1
10
83
20
-43.5803232037293
11
79.5000016925532
21
-44.041106945282
72
1
10
79.5000016925532
20
-44.041106945282
11
79.4999983074468
21
-43.1195394621765
72
1
10
79.4999983074468
20
-43.1195394621765
11
83
21
-43.5803232037293
97
0
75
0
76
1
52
0
41
0.0062
77
0
78
1
53
45
43
0
44
0
45
-0.0139193969876572
46
0.0139193969876572
79
0
47
0
98
1
10
0
20
0
0
DIMENSION
5
1E2
100
AcDbEntity
8
2
62
256
6
ByLayer
370
18
48
1
60
0
100
AcDbDimension
2
_U0
10
102.5
20
-6.080323
30
0
11
102.5
21
24.366037
31
0
70
32
71
1
72
1
41
1
210
0
220
0
230
1
3
Standard
100
AcDbAlignedDimension
13
83
23
6.080323
33
0
14
83
24
-6.080323
34
0
50
90
100
AcDbRotatedDimension
1001
ACAD
1000
DSTYLE
1002
{
1070
   371
1070
    13
1070
   372
1070
    13
1070
     3
1000

1070
   170
1070
     0
1070
   144
1040
1.0
1070
   277
1070
     2
1070
   284
1070
     8
1070
   278
1070
    46
1070
   146
1040
1.166667
1070
   345
1005
16
1070
   347
1005
16
1070
   346
1005
16
1070
   344
1005
0
1070
   343
1005
0
1070
   172
1070
     1
1070
    76
1070
     0
1070
    75
1070
     0
1070
   282
1070
     0
1070
   281
1070
     0
1070
    71
1070
     0
1070
    74
1070
     0
1070
   279
1070
     0
1070
   173
1070
     1
1070
   340
1005
1CB
1070
   271
1070
     3
1070
   272
1070
     3
1070
    77
1070
     1
1070
    73
1070
     0
1070
   171
1070
     3
1070
   274
1070
     4
1070
   177
1070
     2
1070
   176
1070
     2
1070
   178
1070
     2
1070
    78
1070
     8
1070
    48
1040
-0.1
1070
    41
1040
3.5
1070
   147
1040
1.5
1070
    42
1040
1.5875
1070
    44
1040
2.0
1070
   140
1040
3.0
1002
}
1001
ACAD_DSTYLE_DIM_LINETYPE
1070
   380
1005
16
1001
ACAD_DSTYLE_DIM_EXT1_LINETYPE
1070
   381
1005
16
1001
ACAD_DSTYLE_DIM_EXT2_LINETYPE
1070
   382
1005
16
0
DIMENSION
5
1FD
100
AcDbEntity
8
SK2
62
256
6
ByLayer
370
18
48
1
60
0
100
AcDbDimension
2
_U1
10
78.19
20
15.062241
30
0
11
80.595
21
15.062241
31
0
70
32
71
1
72
1
41
1
210
0
220
0
230
1
3
Standard
100
AcDbAlignedDimension
13
83
23
6.080323
33
0
14
78.19
24
0
34
0
50
0
100
AcDbRotatedDimension
1001
ACAD
1000
DSTYLE
1002
{
1070
   371
1070
    13
1070
   372
1070
    13
1070
   170
1070
     0
1070
   144
1040
1.0
1070
   277
1070
     2
1070
   284
1070
     8
1070
   278
1070
    46
1070
   146
1040
1.166667
1070
   345
1005
16
1070
   347
1005
16
1070
   346
1005
16
1070
   344
1005
0
1070
   343
1005
0
1070
   172
1070
     1
1070
    76
1070
     0
1070
    75
1070
     0
1070
   282
1070
     0
1070
   281
1070
     0
1070
    71
1070
     0
1070
    74
1070
     0
1070
   279
1070
     0
1070
   173
1070
     1
1070
   340
1005
1CB
1070
   271
1070
     3
1070
   272
1070
     3
1070
    77
1070
     1
1070
    73
1070
     1
1070
   171
1070
     3
1070
   274
1070
     4
1070
   177
1070
     2
1070
   176
1070
     2
1070
   178
1070
     2
1070
    78
1070
     8
1070
    48
1040
-0.1
1070
    41
1040
3.5
1070
   147
1040
1.5
1070
    42
1040
1.5875
1070
    44
1040
2.0
1070
   140
1040
3.0
1002
}
1001
ACAD_DSTYLE_DIM_LINETYPE
1070
   380
1005
16
1001
ACAD_DSTYLE_DIM_EXT1_LINETYPE
1070
   381
1005
16
1001
ACAD_DSTYLE_DIM_EXT2_LINETYPE
1070
   382
1005
16
0
DIMENSION
5
217
100
AcDbEntity
8
SK2
62
256
6
ByLayer
370
18
48
1
60
0
100
AcDbDimension
2
_U2
10
67
20
-13.080323
30
0
11
95.291504
21
-13.080323
31
0
70
32
71
1
72
1
41
1
210
0
220
0
230
1
3
Standard
100
AcDbAlignedDimension
13
83
23
-6.080323
33
0
14
67
24
-6.080323
34
0
50
0
100
AcDbRotatedDimension
1001
ACAD
1000
DSTYLE
1002
{
1070
   371
1070
    13
1070
   372
1070
    13
1070
   170
1070
     0
1070
   144
1040
1.0
1070
   277
1070
     2
1070
   284
1070
     8
1070
   278
1070
    46
1070
   146
1040
0.833333
1070
   345
1005
16
1070
   347
1005
16
1070
   346
1005
16
1070
   344
1005
0
1070
   343
1005
0
1070
   172
1070
     1
1070
    76
1070
     0
1070
    75
1070
     0
1070
   282
1070
     0
1070
   281
1070
     0
1070
    47
1040
0.5
1070
    72
1070
     0
1070
    71
1070
     1
1070
    74
1070
     0
1070
   279
1070
     0
1070
   173
1070
     1
1070
   340
1005
1CB
1070
   271
1070
     1
1070
   272
1070
     3
1070
    77
1070
     1
1070
    73
1070
     1
1070
   171
1070
     3
1070
   274
1070
     4
1070
   177
1070
     2
1070
   176
1070
     2
1070
   178
1070
     2
1070
    78
1070
     8
1070
    48
1040
0.5
1070
    41
1040
3.5
1070
   147
1040
1.5
1070
    42
1040
1.5875
1070
    44
1040
2.0
1070
   140
1040
3.0
1002
}
1001
ACAD_DSTYLE_DIM_LINETYPE
1070
   380
1005
16
1001
ACAD_DSTYLE_DIM_EXT1_LINETYPE
1070
   381
1005
16
1001
ACAD_DSTYLE_DIM_EXT2_LINETYPE
1070
   382
1005
16
0
DIMENSION
5
231
100
AcDbEntity
8
SK2
62
256
6
ByLayer
370
18
48
1
60
0
100
AcDbDimension
2
_U3
10
28
20
-35.580323
30
0
11
55.5
21
-35.580323
31
0
70
32
71
1
72
1
41
1
210
0
220
0
230
1
3
Standard
100
AcDbAlignedDimension
13
83
23
-6.080323
33
0
14
28
24
-4.35
34
0
50
0
100
AcDbRotatedDimension
1001
ACAD
1000
DSTYLE
1002
{
1070
   371
1070
    13
1070
   372
1070
    13
1070
   170
1070
     0
1070
   144
1040
1.0
1070
   277
1070
     2
1070
   284
1070
     8
1070
   278
1070
    46
1070
   146
1040
1.166667
1070
   345
1005
16
1070
   347
1005
16
1070
   346
1005
16
1070
   344
1005
0
1070
   343
1005
0
1070
   172
1070
     1
1070
    76
1070
     0
1070
    75
1070
     0
1070
   282
1070
     0
1070
   281
1070
     0
1070
    71
1070
     0
1070
    74
1070
     0
1070
   279
1070
     0
1070
   173
1070
     1
1070
   340
1005
1CB
1070
   271
1070
     1
1070
   272
1070
     3
1070
    77
1070
     1
1070
    73
1070
     1
1070
   171
1070
     3
1070
   274
1070
     4
1070
   177
1070
     2
1070
   176
1070
     2
1070
   178
1070
     2
1070
    78
1070
     8
1070
    48
1040
-0.1
1070
    41
1040
3.5
1070
   147
1040
1.5
1070
    42
1040
1.5875
1070
    44
1040
2.0
1070
   140
1040
3.0
1002
}
1001
ACAD_DSTYLE_DIM_LINETYPE
1070
   380
1005
16
1001
ACAD_DSTYLE_DIM_EXT1_LINETYPE
1070
   381
1005
16
1001
ACAD_DSTYLE_DIM_EXT2_LINETYPE
1070
   382
1005
16
0
DIMENSION
5
249
100
AcDbEntity
8
2
62
256
6
ByLayer
370
18
48
1
60
0
100
AcDbDimension
2
_U4
10
36.25
20
-24.580323
30
0
11
59.625
21
-24.580323
31
0
70
32
71
1
72
1
41
1
210
0
220
0
230
1
3
Standard
100
AcDbAlignedDimension
13
83
23
-6.080323
33
0
14
36.25
24
0
34
0
50
0
100
AcDbRotatedDimension
1001
ACAD
1000
DSTYLE
1002
{
1070
   371
1070
    13
1070
   372
1070
    13
1070
   170
1070
     0
1070
   144
1040
1.0
1070
   277
1070
     2
1070
   284
1070
     8
1070
   278
1070
    46
1070
   146
1040
1.166667
1070
   345
1005
16
1070
   347
1005
16
1070
   346
1005
16
1070
   344
1005
0
1070
   343
1005
0
1070
   172
1070
     1
1070
    76
1070
     0
1070
    75
1070
     0
1070
   282
1070
     0
1070
   281
1070
     0
1070
    71
1070
     0
1070
    74
1070
     0
1070
   279
1070
     0
1070
   173
1070
     1
1070
   340
1005
1CB
1070
   271
1070
     1
1070
   272
1070
     3
1070
    77
1070
     1
1070
    73
1070
     1
1070
   171
1070
     3
1070
   274
1070
     4
1070
   177
1070
     2
1070
   176
1070
     2
1070
   178
1070
     2
1070
    78
1070
     8
1070
    48
1040
-0.1
1070
    41
1040
3.5
1070
   147
1040
1.5
1070
    42
1040
1.5875
1070
    44
1040
2.0
1070
   140
1040
3.0
1002
}
1001
ACAD_DSTYLE_DIM_LINETYPE
1070
   380
1005
16
1001
ACAD_DSTYLE_DIM_EXT1_LINETYPE
1070
   381
1005
16
1001
ACAD_DSTYLE_DIM_EXT2_LINETYPE
1070
   382
1005
16
0
ENDSEC
0
SECTION
2
OBJECTS
0
DICTIONARY
5
2d1
330
0
100
AcDbDictionary
280
0
281
1
3
ACAD_GROUP
350
2d2
3
ACAD_MLINESTYLE
350
2d3
0
DICTIONARY
5
2d2
330
0
100
AcDbDictionary
280
0
281
1
0
DICTIONARY
5
2d3
330
0
100
AcDbDictionary
280
0
281
1
3
Standard
350
18
0
MLINESTYLE
5
18
330
2d3
100
AcDbMlineStyle
2
Standard
70
0
3

62
256
51
90
52
90
71
2
49
-0.5
62
256
6
ByLayer
49
0.5
62
256
6
ByLayer
0
RASTERVARIABLES
5
2bf
330

100
AcDbRasterVariables
90
0
70
1
71
1
72
1
0
ENDSEC
0
EOF
